  0
SECTION
  2
HEADER
  9
$ACADVER
  1
AC1014
  9
$ACADMAINTVER
 70
     0
  9
$DWGCODEPAGE
  3
ANSI_1252
  9
$INSBASE
 10
0.0
 20
0.0
 30
0.0
  9
$EXTMIN
 10
-3.951161
 20
0.686345
 30
0.0
  9
$EXTMAX
 10
194.130685
 20
285.686345
 30
0.0
  9
$LIMMIN
 10
0.0
 20
0.0
  9
$LIMMAX
 10
410.0
 20
287.0
  9
$ORTHOMODE
 70
     1
  9
$REGENMODE
 70
     1
  9
$FILLMODE
 70
     1
  9
$QTEXTMODE
 70
     0
  9
$MIRRTEXT
 70
     1
  9
$DRAGMODE
 70
     2
  9
$LTSCALE
 40
25.0
  9
$OSMODE
 70
    39
  9
$ATTMODE
 70
     1
  9
$TEXTSIZE
 40
5.0
  9
$TRACEWID
 40
1.0
  9
$TEXTSTYLE
  7
STANDARD
  9
$CLAYER
  8
MASSE
  9
$CELTYPE
  6
CONTINUOUS
  9
$CECOLOR
 62
   256
  9
$CELTSCALE
 40
1.0
  9
$DELOBJ
 70
     1
  9
$DISPSILH
 70
     0
  9
$DIMSCALE
 40
1.0
  9
$DIMASZ
 40
2.5
  9
$DIMEXO
 40
0.1
  9
$DIMDLI
 40
7.0
  9
$DIMRND
 40
0.0
  9
$DIMDLE
 40
0.0
  9
$DIMEXE
 40
0.0
  9
$DIMTP
 40
0.0
  9
$DIMTM
 40
0.0
  9
$DIMTXT
 40
2.5
  9
$DIMCEN
 40
1.5
  9
$DIMTSZ
 40
0.0
  9
$DIMTOL
 70
     0
  9
$DIMLIM
 70
     0
  9
$DIMTIH
 70
     0
  9
$DIMTOH
 70
     0
  9
$DIMSE1
 70
     0
  9
$DIMSE2
 70
     0
  9
$DIMTAD
 70
     1
  9
$DIMZIN
 70
     0
  9
$DIMBLK
  1

  9
$DIMASO
 70
     1
  9
$DIMSHO
 70
     0
  9
$DIMPOST
  1

  9
$DIMAPOST
  1

  9
$DIMALT
 70
     0
  9
$DIMALTD
 70
     2
  9
$DIMALTF
 40
25.4
  9
$DIMLFAC
 40
1.0
  9
$DIMTOFL
 70
     0
  9
$DIMTVP
 40
0.0
  9
$DIMTIX
 70
     0
  9
$DIMSOXD
 70
     0
  9
$DIMSAH
 70
     0
  9
$DIMBLK1
  1

  9
$DIMBLK2
  1

  9
$DIMSTYLE
  2
STANDARD
  9
$DIMCLRD
 70
     0
  9
$DIMCLRE
 70
     0
  9
$DIMCLRT
 70
     0
  9
$DIMTFAC
 40
0.8
  9
$DIMGAP
 40
0.09
  9
$DIMJUST
 70
     0
  9
$DIMSD1
 70
     0
  9
$DIMSD2
 70
     0
  9
$DIMTOLJ
 70
     1
  9
$DIMTZIN
 70
     0
  9
$DIMALTZ
 70
     0
  9
$DIMALTTZ
 70
     0
  9
$DIMFIT
 70
     3
  9
$DIMUPT
 70
     0
  9
$DIMUNIT
 70
     2
  9
$DIMDEC
 70
     4
  9
$DIMTDEC
 70
     4
  9
$DIMALTU
 70
     2
  9
$DIMALTTD
 70
     2
  9
$DIMTXSTY
  7
STANDARD
  9
$DIMAUNIT
 70
     0
  9
$LUNITS
 70
     2
  9
$LUPREC
 70
     2
  9
$SKETCHINC
 40
1.0
  9
$FILLETRAD
 40
0.5
  9
$AUNITS
 70
     0
  9
$AUPREC
 70
     0
  9
$MENU
  1
acad
  9
$ELEVATION
 40
0.0
  9
$PELEVATION
 40
0.0
  9
$THICKNESS
 40
0.0
  9
$LIMCHECK
 70
     0
  9
$BLIPMODE
 70
     1
  9
$CHAMFERA
 40
1.5
  9
$CHAMFERB
 40
1.5
  9
$CHAMFERC
 40
0.0
  9
$CHAMFERD
 40
0.0
  9
$SKPOLY
 70
     0
  9
$TDCREATE
 40
2450270.392151388
  9
$TDUPDATE
 40
2454435.621601389
  9
$TDINDWG
 40
1.1890809028
  9
$TDUSRTIMER
 40
1.1890809028
  9
$USRTIMER
 70
     1
  9
$ANGBASE
 50
0.0
  9
$ANGDIR
 70
     0
  9
$PDMODE
 70
     0
  9
$PDSIZE
 40
0.0
  9
$PLINEWID
 40
0.0
  9
$COORDS
 70
     2
  9
$SPLFRAME
 70
     0
  9
$SPLINETYPE
 70
     6
  9
$SPLINESEGS
 70
     8
  9
$ATTDIA
 70
     0
  9
$ATTREQ
 70
     1
  9
$HANDLING
 70
     1
  9
$HANDSEED
  5
2C9DD
  9
$SURFTAB1
 70
     6
  9
$SURFTAB2
 70
     6
  9
$SURFTYPE
 70
     6
  9
$SURFU
 70
     6
  9
$SURFV
 70
     6
  9
$UCSNAME
  2

  9
$UCSORG
 10
0.0
 20
0.0
 30
0.0
  9
$UCSXDIR
 10
1.0
 20
0.0
 30
0.0
  9
$UCSYDIR
 10
0.0
 20
1.0
 30
0.0
  9
$PUCSNAME
  2

  9
$PUCSORG
 10
0.0
 20
0.0
 30
0.0
  9
$PUCSXDIR
 10
1.0
 20
0.0
 30
0.0
  9
$PUCSYDIR
 10
0.0
 20
1.0
 30
0.0
  9
$USERI1
 70
     0
  9
$USERI2
 70
     0
  9
$USERI3
 70
     0
  9
$USERI4
 70
     0
  9
$USERI5
 70
     0
  9
$USERR1
 40
0.0
  9
$USERR2
 40
0.0
  9
$USERR3
 40
0.0
  9
$USERR4
 40
0.0
  9
$USERR5
 40
0.0
  9
$WORLDVIEW
 70
     1
  9
$SHADEDGE
 70
     3
  9
$SHADEDIF
 70
    70
  9
$TILEMODE
 70
     1
  9
$MAXACTVP
 70
    16
  9
$PINSBASE
 10
0.0
 20
0.0
 30
0.0
  9
$PLIMCHECK
 70
     0
  9
$PEXTMIN
 10
1.000000E+20
 20
1.000000E+20
 30
1.000000E+20
  9
$PEXTMAX
 10
-1.000000E+20
 20
-1.000000E+20
 30
-1.000000E+20
  9
$PLIMMIN
 10
0.0
 20
0.0
  9
$PLIMMAX
 10
12.0
 20
9.0
  9
$UNITMODE
 70
     0
  9
$VISRETAIN
 70
     0
  9
$PLINEGEN
 70
     0
  9
$PSLTSCALE
 70
     0
  9
$TREEDEPTH
 70
  3020
  9
$PICKSTYLE
 70
     1
  9
$CMLSTYLE
  2
STANDARD
  9
$CMLJUST
 70
     0
  9
$CMLSCALE
 40
1.0
  9
$PROXYGRAPHICS
 70
     1
  9
$MEASUREMENT
 70
     0
  0
ENDSEC
  0
SECTION
  2
CLASSES
  0
CLASS
  1
DICTIONARYVAR
  2
AcDbDictionaryVar
  3
"AutoCAD"
 90
        0
280
     0
281
     0
  0
CLASS
  1
HATCH
  2
AcDbHatch
  3
"ACAD_SEDONA"
 90
        0
280
     0
281
     1
  0
CLASS
  1
LWPOLYLINE
  2
AcDbPolyline
  3
"AutoCAD"
 90
        0
280
     0
281
     1
  0
ENDSEC
  0
SECTION
  2
TABLES
  0
TABLE
  2
VPORT
  5
2801B
100
AcDbSymbolTable
 70
     2
  0
VPORT
  5
2C9DC
100
AcDbSymbolTableRecord
100
AcDbViewportTableRecord
  2
*ACTIVE
 70
     0
 10
0.0
 20
0.0
 11
1.0
 21
1.0
 12
95.628286
 22
142.24862
 13
0.0
 23
0.0
 14
1.0
 24
1.0
 15
10.0
 25
10.0
 16
0.0
 26
0.0
 36
1.0
 17
0.0
 27
0.0
 37
0.0
 40
293.445233
 41
1.727941
 42
50.0
 43
0.0
 44
0.0
 50
0.0
 51
0.0
 71
     0
 72
   100
 73
     1
 74
     1
 75
     0
 76
     0
 77
     0
 78
     0
  0
ENDTAB
  0
TABLE
  2
LTYPE
  5
28018
100
AcDbSymbolTable
 70
     3
  0
LTYPE
  5
28025
100
AcDbSymbolTableRecord
100
AcDbLinetypeTableRecord
  2
BYBLOCK
 70
     0
  3

 72
    65
 73
     0
 40
0.0
  0
LTYPE
  5
28026
100
AcDbSymbolTableRecord
100
AcDbLinetypeTableRecord
  2
BYLAYER
 70
     0
  3

 72
    65
 73
     0
 40
0.0
  0
LTYPE
  5
28027
100
AcDbSymbolTableRecord
100
AcDbLinetypeTableRecord
  2
CONTINUOUS
 70
     0
  3
Solid Line
 72
    65
 73
     0
 40
0.0
  0
LTYPE
  5
2807D
100
AcDbSymbolTableRecord
100
AcDbLinetypeTableRecord
  2
STRICHPUNKT
 70
     0
  3
__ . __ . __ . __ . __ . __ . __ . __ . __ . __
 72
    65
 73
     4
 40
1.0
 49
0.5
 74
     0
 49
-0.25
 74
     0
 49
0.0
 74
     0
 49
-0.25
 74
     0
  0
LTYPE
  5
294E7
100
AcDbSymbolTableRecord
100
AcDbLinetypeTableRecord
  2
VERDECKT
 70
     0
  3
_ _ _ _ _ _ _ _ _ _ _ _ _ _ _ _ _ _ _ _ _ _ _
 72
    65
 73
     2
 40
0.375
 49
0.25
 74
     0
 49
-0.125
 74
     0
  0
ENDTAB
  0
TABLE
  2
LAYER
  5
28015
100
AcDbSymbolTable
 70
     9
  0
LAYER
  5
28022
100
AcDbSymbolTableRecord
100
AcDbLayerTableRecord
  2
0
 70
     0
 62
     9
  6
CONTINUOUS
  0
LAYER
  5
28046
100
AcDbSymbolTableRecord
100
AcDbLayerTableRecord
  2
ASHADE
 70
     0
 62
     1
  6
CONTINUOUS
  0
LAYER
  5
28048
100
AcDbSymbolTableRecord
100
AcDbLayerTableRecord
  2
1
 70
     0
 62
     5
  6
CONTINUOUS
  0
LAYER
  5
2804B
100
AcDbSymbolTableRecord
100
AcDbLayerTableRecord
  2
MASSE
 70
     0
 62
     9
  6
CONTINUOUS
  0
LAYER
  5
294EB
100
AcDbSymbolTableRecord
100
AcDbLayerTableRecord
  2
K7
 70
     0
 62
     2
  6
CONTINUOUS
  0
LAYER
  5
294EC
100
AcDbSymbolTableRecord
100
AcDbLayerTableRecord
  2
K3
 70
     0
 62
     4
  6
CONTINUOUS
  0
LAYER
  5
294ED
100
AcDbSymbolTableRecord
100
AcDbLayerTableRecord
  2
V
 70
     0
 62
     4
  6
VERDECKT
  0
LAYER
  5
2B4FD
100
AcDbSymbolTableRecord
100
AcDbLayerTableRecord
  2
DEFPOINTS
 70
     0
 62
     7
  6
CONTINUOUS
  0
LAYER
  5
2B5B4
100
AcDbSymbolTableRecord
100
AcDbLayerTableRecord
  2
KOPF
 70
     0
 62
     3
  6
CONTINUOUS
  0
ENDTAB
  0
TABLE
  2
STYLE
  5
28016
100
AcDbSymbolTable
 70
     2
  0
STYLE
  5
28023
100
AcDbSymbolTableRecord
100
AcDbTextStyleTableRecord
  2
STANDARD
 70
     0
 40
0.0
 41
1.0
 50
0.0
 71
     0
 42
5.0
  3
txt
  4

  0
STYLE
  5
2B5B5
100
AcDbSymbolTableRecord
100
AcDbTextStyleTableRecord
  2
ROMANS
 70
     0
 40
2.0
 41
1.0
 50
0.0
 71
     0
 42
2.0
  3
romans
  4

  0
ENDTAB
  0
TABLE
  2
VIEW
  5
28019
100
AcDbSymbolTable
 70
     0
  0
ENDTAB
  0
TABLE
  2
UCS
  5
2801A
100
AcDbSymbolTable
 70
     0
  0
ENDTAB
  0
TABLE
  2
APPID
  5
2801C
100
AcDbSymbolTable
 70
     2
  0
APPID
  5
28024
100
AcDbSymbolTableRecord
100
AcDbRegAppTableRecord
  2
ACAD
 70
     0
  0
APPID
  5
28045
100
AcDbSymbolTableRecord
100
AcDbRegAppTableRecord
  2
AVE_RENDER
 70
     0
  0
ENDTAB
  0
TABLE
  2
DIMSTYLE
  5
2801D
100
AcDbSymbolTable
 70
     1
  0
DIMSTYLE
105
28053
102
{ACAD_REACTORS
330
2C447
330
2C43D
330
2C414
330
2C413
330
2C412
330
2C41E
330
2C42D
330
2C42B
330
2C5B2
330
2C6B6
330
2C5B1
330
2C72B
102
}
100
AcDbSymbolTableRecord
100
AcDbDimStyleTableRecord
  2
STANDARD
 70
     0
  3

  4

  5

  6

  7

 40
1.0
 41
0.18
 42
0.0625
 43
0.38
 44
0.18
 45
0.0
 46
0.0
 47
0.0
 48
0.0
140
0.18
141
0.09
142
0.0
143
25.4
144
1.0
145
0.0
146
1.0
147
0.09
 71
     0
 72
     0
 73
     1
 74
     1
 75
     0
 76
     0
 77
     0
 78
     0
170
     0
171
     2
172
     0
173
     0
174
     0
175
     0
176
     0
177
     0
178
     0
270
     2
271
     4
272
     4
273
     2
274
     2
340
28023
275
     0
280
     0
281
     0
282
     0
283
     1
284
     0
285
     0
286
     0
287
     3
288
     0
  0
ENDTAB
  0
TABLE
  2
BLOCK_RECORD
  5
28014
100
AcDbSymbolTable
 70
    14
  0
BLOCK_RECORD
  5
2802B
100
AcDbSymbolTableRecord
100
AcDbBlockTableRecord
  2
*MODEL_SPACE
  0
BLOCK_RECORD
  5
28028
100
AcDbSymbolTableRecord
100
AcDbBlockTableRecord
  2
*PAPER_SPACE
  0
BLOCK_RECORD
  5
2802F
100
AcDbSymbolTableRecord
100
AcDbBlockTableRecord
  2
AVE_RENDER
  0
BLOCK_RECORD
  5
2BD39
100
AcDbSymbolTableRecord
100
AcDbBlockTableRecord
  2
DINA4MK
  0
BLOCK_RECORD
  5
2C448
100
AcDbSymbolTableRecord
100
AcDbBlockTableRecord
  2
*D2
  0
BLOCK_RECORD
  5
2C454
100
AcDbSymbolTableRecord
100
AcDbBlockTableRecord
  2
*D3
  0
BLOCK_RECORD
  5
2C460
100
AcDbSymbolTableRecord
100
AcDbBlockTableRecord
  2
*D4
  0
BLOCK_RECORD
  5
2C46C
100
AcDbSymbolTableRecord
100
AcDbBlockTableRecord
  2
*D5
  0
BLOCK_RECORD
  5
2C478
100
AcDbSymbolTableRecord
100
AcDbBlockTableRecord
  2
*D6
  0
BLOCK_RECORD
  5
2C484
100
AcDbSymbolTableRecord
100
AcDbBlockTableRecord
  2
*D7
  0
BLOCK_RECORD
  5
2C490
100
AcDbSymbolTableRecord
100
AcDbBlockTableRecord
  2
*D8
  0
BLOCK_RECORD
  5
2C49D
100
AcDbSymbolTableRecord
100
AcDbBlockTableRecord
  2
*D9
  0
BLOCK_RECORD
  5
2C6E0
100
AcDbSymbolTableRecord
100
AcDbBlockTableRecord
  2
*D10
  0
BLOCK_RECORD
  5
2C6EC
100
AcDbSymbolTableRecord
100
AcDbBlockTableRecord
  2
*D11
  0
BLOCK_RECORD
  5
2C6F8
100
AcDbSymbolTableRecord
100
AcDbBlockTableRecord
  2
*D12
  0
BLOCK_RECORD
  5
2C71F
100
AcDbSymbolTableRecord
100
AcDbBlockTableRecord
  2
*D13
  0
ENDTAB
  0
ENDSEC
  0
SECTION
  2
BLOCKS
  0
BLOCK
  5
28051
100
AcDbEntity
  8
0
100
AcDbBlockBegin
  2
*MODEL_SPACE
 70
     0
 10
0.0
 20
0.0
 30
0.0
  3
*MODEL_SPACE
  1

  0
ENDBLK
  5
28052
100
AcDbEntity
  8
0
100
AcDbBlockEnd
  0
BLOCK
  5
2804F
100
AcDbEntity
 67
     1
  8
0
100
AcDbBlockBegin
  2
*PAPER_SPACE
 70
     0
 10
0.0
 20
0.0
 30
0.0
  3
*PAPER_SPACE
  1

  0
ENDBLK
  5
28050
100
AcDbEntity
 67
     1
  8
0
100
AcDbBlockEnd
  0
BLOCK
  5
1
100
AcDbEntity
  8
0
100
AcDbBlockBegin
  2
AVE_RENDER
 70
     0
 10
0.0
 20
0.0
 30
0.0
  3
AVE_RENDER
  1
AVE_RENDER
  0
ENDBLK
  5
2
100
AcDbEntity
  8
0
100
AcDbBlockEnd
  0
BLOCK
  5
2BDB9
100
AcDbEntity
  8
0
100
AcDbBlockBegin
  2
DINA4MK
 70
     2
 10
0.0
 20
0.0
 30
0.0
  3
DINA4MK
  1

  0
ATTDEF
  5
2C349
100
AcDbEntity
  8
MASSE
100
AcDbText
 10
-71.1088
 20
55.329622
 30
0.0
 40
2.0
  1
1:1
  7
ROMANS
100
AcDbAttributeDefinition
  3
Maßstab
  2
MAßSTAB
 70
     0
  0
ATTDEF
  5
2C34A
100
AcDbEntity
  8
MASSE
100
AcDbText
 10
-87.38112
 20
31.163426
 30
0.0
 40
3.0
  1

  7
ROMANS
100
AcDbAttributeDefinition
  3
Bezeichnung 1:
  2
BEZEICHNUNG 1
 70
     0
  0
ATTDEF
  5
2C34B
100
AcDbEntity
  8
MASSE
100
AcDbText
 10
-87.465436
 20
45.219089
 30
0.0
 40
3.0
  1

  7
ROMANS
100
AcDbAttributeDefinition
  3
Werkstoff:
  2
WERKSTOFF
 70
     0
  0
ATTDEF
  5
2C34C
100
AcDbEntity
  8
MASSE
100
AcDbText
 10
-87.805373
 20
9.639718
 30
0.0
 40
3.0
  1

  7
ROMANS
100
AcDbAttributeDefinition
  3
Zeichnungsnummer:
  2
ZEICHNUNGS.NR.
 70
     0
  0
LINE
  5
2C34D
100
AcDbEntity
  8
KOPF
 62
     5
100
AcDbLine
 10
-198.0
 20
285.0
 30
0.0
 11
0.0
 21
285.0
 31
0.0
  0
LINE
  5
2C34E
100
AcDbEntity
  8
KOPF
100
AcDbLine
 10
0.0
 20
53.0
 30
0.0
 11
-91.0
 21
53.0
 31
0.0
  0
LINE
  5
2C34F
100
AcDbEntity
  8
KOPF
100
AcDbLine
 10
0.0
 20
40.5
 30
0.0
 11
-198.0
 21
40.5
 31
0.0
  0
LINE
  5
2C350
100
AcDbEntity
  8
KOPF
100
AcDbLine
 10
0.0
 20
18.0
 30
0.0
 11
-198.0
 21
18.0
 31
0.0
  0
LINE
  5
2C351
100
AcDbEntity
  8
KOPF
100
AcDbLine
 10
0.0
 20
4.5
 30
0.0
 11
-198.0
 21
4.5
 31
0.0
  0
LINE
  5
2C352
100
AcDbEntity
  8
KOPF
 62
     5
100
AcDbLine
 10
0.0
 20
60.0
 30
0.0
 11
-198.0
 21
60.0
 31
0.0
  0
LINE
  5
2C353
100
AcDbEntity
  8
KOPF
 62
     5
100
AcDbLine
 10
0.0
 20
0.0
 30
0.0
 11
-198.0
 21
0.0
 31
0.0
  0
LINE
  5
2C354
100
AcDbEntity
  8
KOPF
 62
     5
100
AcDbLine
 10
-198.0
 20
0.0
 30
0.0
 11
-198.0
 21
285.0
 31
0.0
  0
TEXT
  5
2C355
100
AcDbEntity
  8
KOPF
100
AcDbText
 10
-133.742947
 20
23.337808
 30
0.0
 40
2.2
  1
Norm
  7
ROMANS
 11
-133.742947
 21
24.437808
 31
0.0
100
AcDbText
 73
     2
  0
TEXT
  5
2C356
100
AcDbEntity
  8
KOPF
100
AcDbText
 10
-134.0
 20
32.25
 30
0.0
 40
2.2
  1
Bearb.
 41
0.994318
  7
ROMANS
 72
     5
 11
-124.0
 21
32.25
 31
0.0
100
AcDbText
  0
TEXT
  5
2C357
100
AcDbEntity
  8
KOPF
100
AcDbText
 10
-133.933423
 20
27.704474
 30
0.0
 40
2.2
  1
Gepr.
  7
ROMANS
 72
     4
 11
-129.742947
 21
28.437808
 31
0.0
100
AcDbText
  0
LINE
  5
2C358
100
AcDbEntity
  8
KOPF
100
AcDbLine
 10
-91.0
 20
36.0
 30
0.0
 11
-134.0
 21
36.0
 31
0.0
  0
LINE
  5
2C359
100
AcDbEntity
  8
KOPF
100
AcDbLine
 10
-101.0
 20
36.0
 30
0.0
 11
-134.0
 21
36.0
 31
0.0
  0
LINE
  5
2C35A
100
AcDbEntity
  8
KOPF
100
AcDbLine
 10
-91.0
 20
31.5
 30
0.0
 11
-198.0
 21
31.5
 31
0.0
  0
LINE
  5
2C35B
100
AcDbEntity
  8
KOPF
100
AcDbLine
 10
-91.0
 20
27.0
 30
0.0
 11
-198.0
 21
27.0
 31
0.0
  0
LINE
  5
2C35C
100
AcDbEntity
  8
KOPF
100
AcDbLine
 10
-91.0
 20
22.5
 30
0.0
 11
-198.0
 21
22.5
 31
0.0
  0
LINE
  5
2C35D
100
AcDbEntity
  8
KOPF
100
AcDbLine
 10
-149.0
 20
0.0
 30
0.0
 11
-149.0
 21
31.5
 31
0.0
  0
LINE
  5
2C35E
100
AcDbEntity
  8
KOPF
100
AcDbLine
 10
-190.0
 20
0.0
 30
0.0
 11
-190.0
 21
31.5
 31
0.0
  0
LINE
  5
2C35F
100
AcDbEntity
  8
KOPF
100
AcDbLine
 10
-165.0
 20
0.0
 30
0.0
 11
-165.0
 21
31.5
 31
0.0
  0
LINE
  5
2C360
100
AcDbEntity
  8
KOPF
100
AcDbLine
 10
-134.0
 20
0.0
 30
0.0
 11
-134.0
 21
60.0
 31
0.0
  0
LINE
  5
2C361
100
AcDbEntity
  8
KOPF
100
AcDbLine
 10
-134.0
 20
9.0
 30
0.0
 11
-198.0
 21
9.0
 31
0.0
  0
TEXT
  5
2C362
100
AcDbEntity
  8
KOPF
100
AcDbText
 10
-186.128661
 20
1.49495
 30
0.0
 40
2.2
  1
Änderung
  7
ROMANS
 72
     4
 11
-178.742947
 21
2.437808
 31
0.0
100
AcDbText
  0
TEXT
  5
2C363
100
AcDbEntity
  8
KOPF
100
AcDbText
 10
-197.883118
 20
1.320389
 30
0.0
 40
2.2
  1
Zust
  7
ROMANS
 72
     4
 11
-194.268833
 21
2.420389
 31
0.0
100
AcDbText
  0
TEXT
  5
2C364
100
AcDbEntity
  8
KOPF
100
AcDbText
 10
-162.35089
 20
1.337808
 30
0.0
 40
2.2
  1
Datum
  7
ROMANS
 72
     4
 11
-157.060414
 21
2.437808
 31
0.0
100
AcDbText
  0
TEXT
  5
2C365
100
AcDbEntity
  8
KOPF
100
AcDbText
 10
-149.033723
 20
1.351835
 30
0.0
 40
2.2
  1
Name
  7
ROMANS
 72
     4
 11
-144.319438
 21
2.451835
 31
0.0
100
AcDbText
  0
ATTDEF
  5
2C366
100
AcDbEntity
  8
MASSE
100
AcDbText
 10
-193.390984
 20
49.026503
 30
0.0
 40
3.0
  1

  7
ROMANS
100
AcDbAttributeDefinition
  3
Verwendungsbereich
  2
VERWENDUNG
 70
     0
  0
LINE
  5
2C367
100
AcDbEntity
  8
KOPF
100
AcDbLine
 10
-134.0
 20
13.5
 30
0.0
 11
-198.0
 21
13.5
 31
0.0
  0
LINE
  5
2C368
100
AcDbEntity
  8
KOPF
100
AcDbLine
 10
-91.0
 20
0.0
 30
0.0
 11
-91.0
 21
60.0
 31
0.0
  0
ATTDEF
  5
2C369
100
AcDbEntity
  8
MASSE
100
AcDbText
 10
-77.007586
 20
1.077774
 30
0.0
 40
2.0
  1

  7
ROMANS
100
AcDbAttributeDefinition
  3
Ersatz für:
  2
ERSATZ
 70
     0
  0
TEXT
  5
2C36A
100
AcDbEntity
  8
KOPF
100
AcDbText
 10
-104.457232
 20
36.337808
 30
0.0
 40
2.2
  1
Name
  7
ROMANS
 72
     4
 11
-99.742947
 21
37.437808
 31
0.0
100
AcDbText
  0
LINE
  5
2C36B
100
AcDbEntity
  8
KOPF
100
AcDbLine
 10
-124.0
 20
22.5
 30
0.0
 11
-124.0
 21
40.5
 31
0.0
  0
TEXT
  5
2C36C
100
AcDbEntity
  8
KOPF
100
AcDbText
 10
-122.033423
 20
36.337808
 30
0.0
 40
2.2
  1
Datum
  7
ROMANS
 72
     4
 11
-116.742947
 21
37.437808
 31
0.0
100
AcDbText
  0
LINE
  5
2C36D
100
AcDbEntity
  8
KOPF
100
AcDbLine
 10
-109.0
 20
18.0
 30
0.0
 11
-109.0
 21
60.0
 31
0.0
  0
ATTDEF
  5
2C36E
100
AcDbEntity
  8
MASSE
100
AcDbText
 10
-123.354595
 20
32.368259
 30
0.0
 40
2.0
  1

  7
ROMANS
100
AcDbAttributeDefinition
  3
Datum:
  2
DATUM
 70
     0
  0
ATTDEF
  5
2C36F
100
AcDbEntity
  8
MASSE
100
AcDbText
 10
-108.266369
 20
32.368259
 30
0.0
 40
2.0
  1

  7
ROMANS
100
AcDbAttributeDefinition
  3
Name:
  2
NAME
 70
     0
  0
ATTDEF
  5
2C370
100
AcDbEntity
  8
MASSE
100
AcDbText
 10
-122.228607
 20
43.398718
 30
0.0
 40
2.5
  1
mK
  7
ROMANS
100
AcDbAttributeDefinition
  3
Norm mittel(mK) oder fein(fH)
  2
NORM
 70
     0
  0
TEXT
  5
2C371
100
AcDbEntity
  8
KOPF
100
AcDbText
 10
-132.717246
 20
51.49641
 30
0.0
 40
2.5
  1
toleranzen
  7
ROMANS
100
AcDbText
  0
TEXT
  5
2C372
100
AcDbEntity
  8
KOPF
100
AcDbText
 10
-132.717246
 20
55.544029
 30
0.0
 40
2.5
  1
Allgemein-
  7
ROMANS
100
AcDbText
  0
TEXT
  5
2C373
100
AcDbEntity
  8
KOPF
100
AcDbText
 10
-132.717246
 20
47.448791
 30
0.0
 40
2.5
  1
DIN-ISO
  7
ROMANS
100
AcDbText
  0
TEXT
  5
2C374
100
AcDbEntity
  8
KOPF
100
AcDbText
 10
-132.717246
 20
43.401172
 30
0.0
 40
2.5
  1
2768
  7
ROMANS
100
AcDbText
  0
TEXT
  5
2C375
100
AcDbEntity
  8
KOPF
100
AcDbText
 10
-87.307222
 20
55.295291
 30
0.0
 40
2.2
  1
Maßstab
  7
ROMANS
 72
     4
 11
-80.550079
 21
56.395291
 31
0.0
100
AcDbText
  0
LINE
  5
2C376
100
AcDbEntity
  8
KOPF
 62
     5
100
AcDbLine
 10
0.0
 20
0.0
 30
0.0
 11
0.0
 21
285.0
 31
0.0
  0
LINE
  5
2C377
100
AcDbEntity
  8
KOPF
100
AcDbLine
 10
-15.450851
 20
9.493772
 30
0.0
 11
0.081846
 21
9.493772
 31
0.0
  0
ATTDEF
  5
2C378
100
AcDbEntity
  8
MASSE
100
AcDbText
 10
-13.683465
 20
10.532453
 30
0.0
 40
2.0
  1

  7
ROMANS
100
AcDbAttributeDefinition
  3
Blatt Nr.
  2
BLATT
 70
     0
  0
LINE
  5
2C379
100
AcDbEntity
  8
KOPF
100
AcDbLine
 10
-15.450851
 20
18.122712
 30
0.0
 11
-15.450851
 21
4.602083
 31
0.0
  0
LINE
  5
2C37A
100
AcDbEntity
  8
KOPF
100
AcDbLine
 10
-44.19601
 20
0.0
 30
0.0
 11
-44.19601
 21
4.5
 31
0.0
  0
ATTDEF
  5
2C37B
100
AcDbEntity
  8
MASSE
100
AcDbText
 10
-13.683464
 20
6.030225
 30
0.0
 40
2.0
  1

  7
ROMANS
100
AcDbAttributeDefinition
  3
Satz besteht aus ? Blättern
  2
BL
 70
     0
  0
TEXT
  5
2C37C
100
AcDbEntity
  8
KOPF
100
AcDbText
 10
-6.836638
 20
5.692484
 30
0.0
 40
2.5
  1
BL
  7
ROMANS
100
AcDbText
  0
LINE
  5
2C37D
100
AcDbEntity
  8
KOPF
100
AcDbLine
 10
-41.0
 20
53.0
 30
0.0
 11
-41.0
 21
60.0
 31
0.0
  0
TEXT
  5
2C37E
100
AcDbEntity
  8
KOPF
100
AcDbText
 10
-14.009945
 20
14.375678
 30
0.0
 40
2.0
  1
Blatt
  7
ROMANS
100
AcDbText
  0
TEXT
  5
2C37F
100
AcDbEntity
  8
KOPF
100
AcDbText
 10
-39.231617
 20
55.438362
 30
0.0
 40
2.0
  1
Wz.Nr:
  7
ROMANS
100
AcDbText
  0
ATTDEF
  5
2C380
100
AcDbEntity
  8
MASSE
100
AcDbText
 10
-29.936833
 20
55.401902
 30
0.0
 40
2.0
  1

  7
ROMANS
100
AcDbAttributeDefinition
  3
Werkzeugnummer:
  2
WERKZEUGNUMMER
 70
     0
  0
ATTDEF
  5
2C381
100
AcDbEntity
  8
MASSE
100
AcDbText
 10
-43.207188
 20
1.237857
 30
0.0
 40
2.0
  1

  7
ROMANS
100
AcDbAttributeDefinition
  3
Dateiname
  2
DATEINAME
 70
     0
  0
ATTDEF
  5
2C382
100
AcDbEntity
  8
MASSE
100
AcDbText
 10
-87.378924
 20
23.683351
 30
0.0
 40
3.0
  1

  7
ROMANS
100
AcDbAttributeDefinition
  3
Bezeichnung 2:
  2
BEZEICHNUNG 2
 70
     0
  0
TEXT
  5
2C383
100
AcDbEntity
  8
MASSE
  6
VERDECKT
 62
     3
100
AcDbText
 10
-87.372043
 20
37.350126
 30
0.0
 40
1.5
  1
Benennung:
  7
ROMANS
 11
-87.372043
 21
36.850126
 31
0.0
100
AcDbText
 73
     1
  0
TEXT
  5
2C384
100
AcDbEntity
  8
MASSE
100
AcDbText
 10
-195.32108
 20
36.919002
 30
0.0
 40
1.4
  1
Diese Zeichnung darf ohne unsere Genehmigung
  7
ROMANS
100
AcDbText
  0
TEXT
  5
2C385
100
AcDbEntity
  8
MASSE
100
AcDbText
 10
-195.32108
 20
33.680907
 30
0.0
 40
1.4
  1
weder kopiert noch dritten Personen mitgeteilt werden!
  7
ROMANS
100
AcDbText
  0
TEXT
  5
2C386
100
AcDbEntity
  8
KOPF
100
AcDbText
 10
-193.944964
 20
55.752433
 30
0.0
 40
1.5
  1
Verwendung/Abteilung
  7
ROMANS
 72
     4
 11
-181.694964
 21
56.395291
 31
0.0
100
AcDbText
  0
TEXT
  5
2C387
100
AcDbEntity
  8
MASSE
  6
VERDECKT
 62
     3
100
AcDbText
 10
-87.372043
 20
50.295274
 30
0.0
 40
1.5
  1
Werkstoff:
  7
ROMANS
 11
-87.372043
 21
49.795274
 31
0.0
100
AcDbText
 73
     1
  0
TEXT
  5
2C388
100
AcDbEntity
  8
MASSE
  6
VERDECKT
 62
     3
100
AcDbText
 10
-87.372044
 20
15.312846
 30
0.0
 40
1.5
  1
Zeichnungsnummer:
  7
ROMANS
 11
-87.372044
 21
14.812846
 31
0.0
100
AcDbText
 73
     1
  0
TEXT
  5
2C389
100
AcDbEntity
  8
MASSE
  6
VERDECKT
 62
     3
100
AcDbText
 10
-90.140984
 20
1.369266
 30
0.0
 40
1.5
  1
Ersatz für:
  7
ROMANS
 11
-90.140984
 21
0.869266
 31
0.0
100
AcDbText
 73
     1
  0
TEXT
  5
2C38A
100
AcDbEntity
  8
KOPF
100
AcDbText
 10
-123.397245
 20
13.084419
 30
0.0
 40
2.5
  1
ANUBA  AG
  7
ROMANS
100
AcDbText
  0
TEXT
  5
2C38B
100
AcDbEntity
  8
KOPF
100
AcDbText
 10
-132.809306
 20
9.696954
 30
0.0
 40
1.8
  1
 D-78147 Vöhrenbach/Schwarzwald
 41
0.8
  7
ROMANS
100
AcDbText
  0
TEXT
  5
2C38C
100
AcDbEntity
  8
KOPF
100
AcDbText
 10
-131.723209
 20
6.379393
 30
0.0
 40
1.7
  1
Tel.(07727)920-0 Fax(07727)920222
 41
0.8
  7
ROMANS
100
AcDbText
  0
TEXT
  5
2C38D
100
AcDbEntity
  8
0
  6
VERDECKT
 62
     3
100
AcDbText
 10
-130.834977
 20
1.293498
 30
0.0
 40
1.5
  1
CAD: Sys_5 / Konstr. V. Lesar
  7
ROMANS
 11
-130.834977
 21
0.793498
 31
0.0
100
AcDbText
 73
     1
  0
ENDBLK
  5
2BDBA
100
AcDbEntity
  8
0
100
AcDbBlockEnd
  0
BLOCK
  5
2C449
100
AcDbEntity
  8
0
100
AcDbBlockBegin
  2
*D2
 70
     1
 10
0.0
 20
0.0
 30
0.0
  3
*D2
  1

  0
LINE
  5
2C44A
100
AcDbEntity
  8
0
  6
BYBLOCK
 62
     0
100
AcDbLine
 10
369.992239
 20
207.318363
 30
0.0
 11
389.490368
 21
207.318363
 31
0.0
  0
LINE
  5
2C44B
100
AcDbEntity
  8
0
  6
BYBLOCK
 62
     0
100
AcDbLine
 10
369.992239
 20
197.296833
 30
0.0
 11
389.490368
 21
197.296833
 31
0.0
  0
LINE
  5
2C44C
100
AcDbEntity
  8
0
  6
BYBLOCK
 62
     0
100
AcDbLine
 10
389.490368
 20
204.818363
 30
0.0
 11
389.490368
 21
199.796833
 31
0.0
  0
SOLID
  5
2C44D
100
AcDbEntity
  8
0
  6
BYBLOCK
 62
     0
100
AcDbTrace
 10
389.073701
 20
204.818363
 30
0.0
 11
389.907034
 21
204.818363
 31
0.0
 12
389.490368
 22
207.318363
 32
0.0
 13
389.490368
 23
207.318363
 33
0.0
  0
SOLID
  5
2C44E
100
AcDbEntity
  8
0
  6
BYBLOCK
 62
     0
100
AcDbTrace
 10
389.073701
 20
199.796833
 30
0.0
 11
389.907034
 21
199.796833
 31
0.0
 12
389.490368
 22
197.296833
 32
0.0
 13
389.490368
 23
197.296833
 33
0.0
  0
MTEXT
  5
2C44F
100
AcDbEntity
  8
0
  6
BYBLOCK
 62
     0
100
AcDbMText
 10
388.150368
 20
202.307598
 30
0.0
 40
2.5
 41
0.0
 71
     5
 72
     1
  1
\A1;10
 11
0.0
 21
1.0
 31
0.0
  0
POINT
  5
2C450
100
AcDbEntity
  8
DEFPOINTS
  6
BYBLOCK
 62
     0
100
AcDbPoint
 10
369.892239
 20
207.318363
 30
0.0
  0
POINT
  5
2C451
100
AcDbEntity
  8
DEFPOINTS
  6
BYBLOCK
 62
     0
100
AcDbPoint
 10
369.892239
 20
197.296833
 30
0.0
  0
POINT
  5
2C452
100
AcDbEntity
  8
DEFPOINTS
  6
BYBLOCK
 62
     0
100
AcDbPoint
 10
389.490368
 20
197.296833
 30
0.0
  0
ENDBLK
  5
2C453
100
AcDbEntity
  8
0
100
AcDbBlockEnd
  0
BLOCK
  5
2C455
100
AcDbEntity
  8
0
100
AcDbBlockBegin
  2
*D3
 70
     1
 10
0.0
 20
0.0
 30
0.0
  3
*D3
  1

  0
LINE
  5
2C456
100
AcDbEntity
  8
0
  6
BYBLOCK
 62
     0
100
AcDbLine
 10
370.092239
 20
197.296833
 30
0.0
 11
389.490368
 21
197.296833
 31
0.0
  0
LINE
  5
2C457
100
AcDbEntity
  8
0
  6
BYBLOCK
 62
     0
100
AcDbLine
 10
378.131993
 20
175.318363
 30
0.0
 11
389.490368
 21
175.318363
 31
0.0
  0
LINE
  5
2C458
100
AcDbEntity
  8
0
  6
BYBLOCK
 62
     0
100
AcDbLine
 10
389.490368
 20
194.796833
 30
0.0
 11
389.490368
 21
177.818363
 31
0.0
  0
SOLID
  5
2C459
100
AcDbEntity
  8
0
  6
BYBLOCK
 62
     0
100
AcDbTrace
 10
389.073701
 20
194.796833
 30
0.0
 11
389.907034
 21
194.796833
 31
0.0
 12
389.490368
 22
197.296833
 32
0.0
 13
389.490368
 23
197.296833
 33
0.0
  0
SOLID
  5
2C45A
100
AcDbEntity
  8
0
  6
BYBLOCK
 62
     0
100
AcDbTrace
 10
389.073701
 20
177.818363
 30
0.0
 11
389.907034
 21
177.818363
 31
0.0
 12
389.490368
 22
175.318363
 32
0.0
 13
389.490368
 23
175.318363
 33
0.0
  0
MTEXT
  5
2C45B
100
AcDbEntity
  8
0
  6
BYBLOCK
 62
     0
100
AcDbMText
 10
388.150368
 20
186.307598
 30
0.0
 40
2.5
 41
0.0
 71
     5
 72
     1
  1
\A1;22
 11
0.0
 21
1.0
 31
0.0
  0
POINT
  5
2C45C
100
AcDbEntity
  8
DEFPOINTS
  6
BYBLOCK
 62
     0
100
AcDbPoint
 10
369.992239
 20
197.296833
 30
0.0
  0
POINT
  5
2C45D
100
AcDbEntity
  8
DEFPOINTS
  6
BYBLOCK
 62
     0
100
AcDbPoint
 10
378.031993
 20
175.318363
 30
0.0
  0
POINT
  5
2C45E
100
AcDbEntity
  8
DEFPOINTS
  6
BYBLOCK
 62
     0
100
AcDbPoint
 10
389.490368
 20
175.318363
 30
0.0
  0
ENDBLK
  5
2C45F
100
AcDbEntity
  8
0
100
AcDbBlockEnd
  0
BLOCK
  5
2C461
100
AcDbEntity
  8
0
100
AcDbBlockBegin
  2
*D4
 70
     1
 10
0.0
 20
0.0
 30
0.0
  3
*D4
  1

  0
LINE
  5
2C462
100
AcDbEntity
  8
0
  6
BYBLOCK
 62
     0
100
AcDbLine
 10
281.637918
 20
147.818363
 30
0.0
 11
389.490362
 21
147.818363
 31
0.0
  0
LINE
  5
2C463
100
AcDbEntity
  8
0
  6
BYBLOCK
 62
     0
100
AcDbLine
 10
378.131993
 20
175.318363
 30
0.0
 11
389.490362
 21
175.318363
 31
0.0
  0
LINE
  5
2C464
100
AcDbEntity
  8
0
  6
BYBLOCK
 62
     0
100
AcDbLine
 10
389.490362
 20
150.318363
 30
0.0
 11
389.490362
 21
172.818363
 31
0.0
  0
SOLID
  5
2C465
100
AcDbEntity
  8
0
  6
BYBLOCK
 62
     0
100
AcDbTrace
 10
389.073695
 20
150.318363
 30
0.0
 11
389.907028
 21
150.318363
 31
0.0
 12
389.490362
 22
147.818363
 32
0.0
 13
389.490362
 23
147.818363
 33
0.0
  0
SOLID
  5
2C466
100
AcDbEntity
  8
0
  6
BYBLOCK
 62
     0
100
AcDbTrace
 10
389.073695
 20
172.818363
 30
0.0
 11
389.907028
 21
172.818363
 31
0.0
 12
389.490362
 22
175.318363
 32
0.0
 13
389.490362
 23
175.318363
 33
0.0
  0
MTEXT
  5
2C467
100
AcDbEntity
  8
0
  6
BYBLOCK
 62
     0
100
AcDbMText
 10
388.150362
 20
161.568363
 30
0.0
 40
2.5
 41
0.0
 71
     5
 72
     1
  1
\A1;27.5
 11
0.0
 21
1.0
 31
0.0
  0
POINT
  5
2C468
100
AcDbEntity
  8
DEFPOINTS
  6
BYBLOCK
 62
     0
100
AcDbPoint
 10
281.537918
 20
147.818363
 30
0.0
  0
POINT
  5
2C469
100
AcDbEntity
  8
DEFPOINTS
  6
BYBLOCK
 62
     0
100
AcDbPoint
 10
378.031993
 20
175.318363
 30
0.0
  0
POINT
  5
2C46A
100
AcDbEntity
  8
DEFPOINTS
  6
BYBLOCK
 62
     0
100
AcDbPoint
 10
389.490362
 20
175.318363
 30
0.0
  0
ENDBLK
  5
2C46B
100
AcDbEntity
  8
0
100
AcDbBlockEnd
  0
BLOCK
  5
2C46D
100
AcDbEntity
  8
0
100
AcDbBlockBegin
  2
*D5
 70
     1
 10
0.0
 20
0.0
 30
0.0
  3
*D5
  1

  0
LINE
  5
2C46E
100
AcDbEntity
  8
0
  6
BYBLOCK
 62
     0
100
AcDbLine
 10
298.637918
 20
125.818363
 30
0.0
 11
368.341403
 21
125.818363
 31
0.0
  0
LINE
  5
2C46F
100
AcDbEntity
  8
0
  6
BYBLOCK
 62
     0
100
AcDbLine
 10
298.637918
 20
147.818363
 30
0.0
 11
368.341403
 21
147.818363
 31
0.0
  0
LINE
  5
2C470
100
AcDbEntity
  8
0
  6
BYBLOCK
 62
     0
100
AcDbLine
 10
368.341403
 20
128.318363
 30
0.0
 11
368.341403
 21
145.318363
 31
0.0
  0
SOLID
  5
2C471
100
AcDbEntity
  8
0
  6
BYBLOCK
 62
     0
100
AcDbTrace
 10
367.924736
 20
128.318363
 30
0.0
 11
368.758069
 21
128.318363
 31
0.0
 12
368.341403
 22
125.818363
 32
0.0
 13
368.341403
 23
125.818363
 33
0.0
  0
SOLID
  5
2C472
100
AcDbEntity
  8
0
  6
BYBLOCK
 62
     0
100
AcDbTrace
 10
367.924736
 20
145.318363
 30
0.0
 11
368.758069
 21
145.318363
 31
0.0
 12
368.341403
 22
147.818363
 32
0.0
 13
368.341403
 23
147.818363
 33
0.0
  0
MTEXT
  5
2C473
100
AcDbEntity
  8
0
  6
BYBLOCK
 62
     0
100
AcDbMText
 10
367.001403
 20
136.818363
 30
0.0
 40
2.5
 41
0.0
 71
     5
 72
     1
  1
\A1;22
 11
0.0
 21
1.0
 31
0.0
  0
POINT
  5
2C474
100
AcDbEntity
  8
DEFPOINTS
  6
BYBLOCK
 62
     0
100
AcDbPoint
 10
298.537918
 20
125.818363
 30
0.0
  0
POINT
  5
2C475
100
AcDbEntity
  8
DEFPOINTS
  6
BYBLOCK
 62
     0
100
AcDbPoint
 10
298.537918
 20
147.818363
 30
0.0
  0
POINT
  5
2C476
100
AcDbEntity
  8
DEFPOINTS
  6
BYBLOCK
 62
     0
100
AcDbPoint
 10
368.341403
 20
147.818363
 30
0.0
  0
ENDBLK
  5
2C477
100
AcDbEntity
  8
0
100
AcDbBlockEnd
  0
BLOCK
  5
2C479
100
AcDbEntity
  8
0
100
AcDbBlockBegin
  2
*D6
 70
     1
 10
0.0
 20
0.0
 30
0.0
  3
*D6
  1

  0
LINE
  5
2C47A
100
AcDbEntity
  8
0
  6
BYBLOCK
 62
     0
100
AcDbLine
 10
322.992239
 20
110.818363
 30
0.0
 11
368.341403
 21
110.818363
 31
0.0
  0
LINE
  5
2C47B
100
AcDbEntity
  8
0
  6
BYBLOCK
 62
     0
100
AcDbLine
 10
298.637918
 20
125.818363
 30
0.0
 11
368.341403
 21
125.818363
 31
0.0
  0
LINE
  5
2C47C
100
AcDbEntity
  8
0
  6
BYBLOCK
 62
     0
100
AcDbLine
 10
368.341403
 20
113.318363
 30
0.0
 11
368.341403
 21
123.318363
 31
0.0
  0
SOLID
  5
2C47D
100
AcDbEntity
  8
0
  6
BYBLOCK
 62
     0
100
AcDbTrace
 10
367.924736
 20
113.318363
 30
0.0
 11
368.758069
 21
113.318363
 31
0.0
 12
368.341403
 22
110.818363
 32
0.0
 13
368.341403
 23
110.818363
 33
0.0
  0
SOLID
  5
2C47E
100
AcDbEntity
  8
0
  6
BYBLOCK
 62
     0
100
AcDbTrace
 10
367.924736
 20
123.318363
 30
0.0
 11
368.758069
 21
123.318363
 31
0.0
 12
368.341403
 22
125.818363
 32
0.0
 13
368.341403
 23
125.818363
 33
0.0
  0
MTEXT
  5
2C47F
100
AcDbEntity
  8
0
  6
BYBLOCK
 62
     0
100
AcDbMText
 10
367.001403
 20
118.318363
 30
0.0
 40
2.5
 41
0.0
 71
     5
 72
     1
  1
\A1;15
 11
0.0
 21
1.0
 31
0.0
  0
POINT
  5
2C480
100
AcDbEntity
  8
DEFPOINTS
  6
BYBLOCK
 62
     0
100
AcDbPoint
 10
322.892239
 20
110.818363
 30
0.0
  0
POINT
  5
2C481
100
AcDbEntity
  8
DEFPOINTS
  6
BYBLOCK
 62
     0
100
AcDbPoint
 10
298.537918
 20
125.818363
 30
0.0
  0
POINT
  5
2C482
100
AcDbEntity
  8
DEFPOINTS
  6
BYBLOCK
 62
     0
100
AcDbPoint
 10
368.341403
 20
125.818363
 30
0.0
  0
ENDBLK
  5
2C483
100
AcDbEntity
  8
0
100
AcDbBlockEnd
  0
BLOCK
  5
2C485
100
AcDbEntity
  8
0
100
AcDbBlockBegin
  2
*D7
 70
     1
 10
0.0
 20
0.0
 30
0.0
  3
*D7
  1

  0
LINE
  5
2C486
100
AcDbEntity
  8
0
  6
BYBLOCK
 62
     0
100
AcDbLine
 10
274.292239
 20
110.818363
 30
0.0
 11
257.121476
 21
110.818363
 31
0.0
  0
LINE
  5
2C487
100
AcDbEntity
  8
0
  6
BYBLOCK
 62
     0
100
AcDbLine
 10
274.292239
 20
162.818363
 30
0.0
 11
257.121476
 21
162.818363
 31
0.0
  0
LINE
  5
2C488
100
AcDbEntity
  8
0
  6
BYBLOCK
 62
     0
100
AcDbLine
 10
257.121476
 20
113.318363
 30
0.0
 11
257.121476
 21
160.318363
 31
0.0
  0
SOLID
  5
2C489
100
AcDbEntity
  8
0
  6
BYBLOCK
 62
     0
100
AcDbTrace
 10
256.704809
 20
113.318363
 30
0.0
 11
257.538143
 21
113.318363
 31
0.0
 12
257.121476
 22
110.818363
 32
0.0
 13
257.121476
 23
110.818363
 33
0.0
  0
SOLID
  5
2C48A
100
AcDbEntity
  8
0
  6
BYBLOCK
 62
     0
100
AcDbTrace
 10
256.704809
 20
160.318363
 30
0.0
 11
257.538143
 21
160.318363
 31
0.0
 12
257.121476
 22
162.818363
 32
0.0
 13
257.121476
 23
162.818363
 33
0.0
  0
MTEXT
  5
2C48B
100
AcDbEntity
  8
0
  6
BYBLOCK
 62
     0
100
AcDbMText
 10
255.781476
 20
136.818363
 30
0.0
 40
2.5
 41
0.0
 71
     5
 72
     1
  1
\A1;52
 11
0.0
 21
1.0
 31
0.0
  0
POINT
  5
2C48C
100
AcDbEntity
  8
DEFPOINTS
  6
BYBLOCK
 62
     0
100
AcDbPoint
 10
274.392239
 20
110.818363
 30
0.0
  0
POINT
  5
2C48D
100
AcDbEntity
  8
DEFPOINTS
  6
BYBLOCK
 62
     0
100
AcDbPoint
 10
274.392239
 20
162.818363
 30
0.0
  0
POINT
  5
2C48E
100
AcDbEntity
  8
DEFPOINTS
  6
BYBLOCK
 62
     0
100
AcDbPoint
 10
257.121476
 20
162.818363
 30
0.0
  0
ENDBLK
  5
2C48F
100
AcDbEntity
  8
0
100
AcDbBlockEnd
  0
BLOCK
  5
2C491
100
AcDbEntity
  8
0
100
AcDbBlockBegin
  2
*D8
 70
     1
 10
0.0
 20
0.0
 30
0.0
  3
*D8
  1

  0
LINE
  5
2C492
100
AcDbEntity
  8
0
  6
BYBLOCK
 62
     0
100
AcDbLine
 10
274.192239
 20
162.818363
 30
0.0
 11
267.269207
 21
162.818363
 31
0.0
  0
LINE
  5
2C493
100
AcDbEntity
  8
0
  6
BYBLOCK
 62
     0
100
AcDbLine
 10
298.792239
 20
165.318363
 30
0.0
 11
267.269207
 21
165.318363
 31
0.0
  0
LINE
  5
2C494
100
AcDbEntity
  8
0
  6
BYBLOCK
 62
     0
100
AcDbLine
 10
267.269207
 20
160.318363
 30
0.0
 11
267.269207
 21
157.818363
 31
0.0
  0
LINE
  5
2C495
100
AcDbEntity
  8
0
  6
BYBLOCK
 62
     0
100
AcDbLine
 10
267.269207
 20
167.818363
 30
0.0
 11
267.269207
 21
175.498363
 31
0.0
  0
SOLID
  5
2C496
100
AcDbEntity
  8
0
  6
BYBLOCK
 62
     0
100
AcDbTrace
 10
266.85254
 20
160.318363
 30
0.0
 11
267.685873
 21
160.318363
 31
0.0
 12
267.269207
 22
162.818363
 32
0.0
 13
267.269207
 23
162.818363
 33
0.0
  0
SOLID
  5
2C497
100
AcDbEntity
  8
0
  6
BYBLOCK
 62
     0
100
AcDbTrace
 10
266.85254
 20
167.818363
 30
0.0
 11
267.685873
 21
167.818363
 31
0.0
 12
267.269207
 22
165.318363
 32
0.0
 13
267.269207
 23
165.318363
 33
0.0
  0
MTEXT
  5
2C498
100
AcDbEntity
  8
0
  6
BYBLOCK
 62
     0
100
AcDbMText
 10
265.929207
 20
172.908363
 30
0.0
 40
2.5
 41
0.0
 71
     5
 72
     1
  1
\A1;2.5
 11
0.0
 21
1.0
 31
0.0
  0
POINT
  5
2C499
100
AcDbEntity
  8
DEFPOINTS
  6
BYBLOCK
 62
     0
100
AcDbPoint
 10
274.292239
 20
162.818363
 30
0.0
  0
POINT
  5
2C49A
100
AcDbEntity
  8
DEFPOINTS
  6
BYBLOCK
 62
     0
100
AcDbPoint
 10
298.892239
 20
165.318363
 30
0.0
  0
POINT
  5
2C49B
100
AcDbEntity
  8
DEFPOINTS
  6
BYBLOCK
 62
     0
100
AcDbPoint
 10
267.269207
 20
165.318363
 30
0.0
  0
ENDBLK
  5
2C49C
100
AcDbEntity
  8
0
100
AcDbBlockEnd
  0
BLOCK
  5
2C49E
100
AcDbEntity
  8
0
100
AcDbBlockBegin
  2
*D9
 70
     1
 10
0.0
 20
0.0
 30
0.0
  3
*D9
  1

  0
LINE
  5
2C49F
100
AcDbEntity
  8
0
  6
BYBLOCK
 62
     0
100
AcDbLine
 10
297.792239
 20
207.318363
 30
0.0
 11
256.839595
 21
207.318363
 31
0.0
  0
LINE
  5
2C4A0
100
AcDbEntity
  8
0
  6
BYBLOCK
 62
     0
100
AcDbLine
 10
297.792239
 20
165.318363
 30
0.0
 11
256.839595
 21
165.318363
 31
0.0
  0
LINE
  5
2C4A1
100
AcDbEntity
  8
0
  6
BYBLOCK
 62
     0
100
AcDbLine
 10
256.839595
 20
204.818363
 30
0.0
 11
256.839595
 21
167.818363
 31
0.0
  0
SOLID
  5
2C4A2
100
AcDbEntity
  8
0
  6
BYBLOCK
 62
     0
100
AcDbTrace
 10
256.422928
 20
204.818363
 30
0.0
 11
257.256261
 21
204.818363
 31
0.0
 12
256.839595
 22
207.318363
 32
0.0
 13
256.839595
 23
207.318363
 33
0.0
  0
SOLID
  5
2C4A3
100
AcDbEntity
  8
0
  6
BYBLOCK
 62
     0
100
AcDbTrace
 10
256.422928
 20
167.818363
 30
0.0
 11
257.256261
 21
167.818363
 31
0.0
 12
256.839595
 22
165.318363
 32
0.0
 13
256.839595
 23
165.318363
 33
0.0
  0
MTEXT
  5
2C4A4
100
AcDbEntity
  8
0
  6
BYBLOCK
 62
     0
100
AcDbMText
 10
255.499595
 20
186.318363
 30
0.0
 40
2.5
 41
0.0
 71
     5
 72
     1
  1
\A1;42
 11
0.0
 21
1.0
 31
0.0
  0
POINT
  5
2C4A5
100
AcDbEntity
  8
DEFPOINTS
  6
BYBLOCK
 62
     0
100
AcDbPoint
 10
297.892239
 20
207.318363
 30
0.0
  0
POINT
  5
2C4A6
100
AcDbEntity
  8
DEFPOINTS
  6
BYBLOCK
 62
     0
100
AcDbPoint
 10
297.892239
 20
165.318363
 30
0.0
  0
POINT
  5
2C4A7
100
AcDbEntity
  8
DEFPOINTS
  6
BYBLOCK
 62
     0
100
AcDbPoint
 10
256.839595
 20
165.318363
 30
0.0
  0
ENDBLK
  5
2C4A8
100
AcDbEntity
  8
0
100
AcDbBlockEnd
  0
BLOCK
  5
2C6E1
100
AcDbEntity
  8
0
100
AcDbBlockBegin
  2
*D10
 70
     1
 10
0.0
 20
0.0
 30
0.0
  3
*D10
  1

  0
LINE
  5
2C6E2
100
AcDbEntity
  8
0
  6
BYBLOCK
 62
     0
100
AcDbLine
 10
477.752601
 20
179.653832
 30
0.0
 11
462.59689
 21
179.653832
 31
0.0
  0
LINE
  5
2C6E3
100
AcDbEntity
  8
0
  6
BYBLOCK
 62
     0
100
AcDbLine
 10
511.717792
 20
201.943594
 30
0.0
 11
462.59689
 21
201.943594
 31
0.0
  0
LINE
  5
2C6E4
100
AcDbEntity
  8
0
  6
BYBLOCK
 62
     0
100
AcDbLine
 10
462.59689
 20
182.153832
 30
0.0
 11
462.59689
 21
199.443594
 31
0.0
  0
SOLID
  5
2C6E5
100
AcDbEntity
  8
0
  6
BYBLOCK
 62
     0
100
AcDbTrace
 10
462.180223
 20
182.153832
 30
0.0
 11
463.013557
 21
182.153832
 31
0.0
 12
462.59689
 22
179.653832
 32
0.0
 13
462.59689
 23
179.653832
 33
0.0
  0
SOLID
  5
2C6E6
100
AcDbEntity
  8
0
  6
BYBLOCK
 62
     0
100
AcDbTrace
 10
462.180223
 20
199.443594
 30
0.0
 11
463.013557
 21
199.443594
 31
0.0
 12
462.59689
 22
201.943594
 32
0.0
 13
462.59689
 23
201.943594
 33
0.0
  0
MTEXT
  5
2C6E7
100
AcDbEntity
  8
0
  6
BYBLOCK
 62
     0
100
AcDbMText
 10
461.25689
 20
190.798713
 30
0.0
 40
2.5
 41
0.0
 71
     5
 72
     1
  1
\A1;22
 11
0.0
 21
1.0
 31
0.0
  0
POINT
  5
2C6E8
100
AcDbEntity
  8
DEFPOINTS
  6
BYBLOCK
 62
     0
100
AcDbPoint
 10
477.852601
 20
179.653832
 30
0.0
  0
POINT
  5
2C6E9
100
AcDbEntity
  8
DEFPOINTS
  6
BYBLOCK
 62
     0
100
AcDbPoint
 10
511.817792
 20
201.943594
 30
0.0
  0
POINT
  5
2C6EA
100
AcDbEntity
  8
DEFPOINTS
  6
BYBLOCK
 62
     0
100
AcDbPoint
 10
462.59689
 20
201.943594
 30
0.0
  0
ENDBLK
  5
2C6EB
100
AcDbEntity
  8
0
100
AcDbBlockEnd
  0
BLOCK
  5
2C6ED
100
AcDbEntity
  8
0
100
AcDbBlockBegin
  2
*D11
 70
     1
 10
0.0
 20
0.0
 30
0.0
  3
*D11
  1

  0
LINE
  5
2C6EE
100
AcDbEntity
  8
0
  6
BYBLOCK
 62
     0
100
AcDbLine
 10
511.817792
 20
202.043594
 30
0.0
 11
511.817792
 21
221.634754
 31
0.0
  0
LINE
  5
2C6EF
100
AcDbEntity
  8
0
  6
BYBLOCK
 62
     0
100
AcDbLine
 10
552.317792
 20
206.20693
 30
0.0
 11
552.317792
 21
221.634754
 31
0.0
  0
LINE
  5
2C6F0
100
AcDbEntity
  8
0
  6
BYBLOCK
 62
     0
100
AcDbLine
 10
514.317792
 20
221.634754
 30
0.0
 11
549.817792
 21
221.634754
 31
0.0
  0
SOLID
  5
2C6F1
100
AcDbEntity
  8
0
  6
BYBLOCK
 62
     0
100
AcDbTrace
 10
514.317792
 20
222.05142
 30
0.0
 11
514.317792
 21
221.218087
 31
0.0
 12
511.817792
 22
221.634754
 32
0.0
 13
511.817792
 23
221.634754
 33
0.0
  0
SOLID
  5
2C6F2
100
AcDbEntity
  8
0
  6
BYBLOCK
 62
     0
100
AcDbTrace
 10
549.817792
 20
222.05142
 30
0.0
 11
549.817792
 21
221.218087
 31
0.0
 12
552.317792
 22
221.634754
 32
0.0
 13
552.317792
 23
221.634754
 33
0.0
  0
MTEXT
  5
2C6F3
100
AcDbEntity
  8
0
  6
BYBLOCK
 62
     0
100
AcDbMText
 10
532.067792
 20
222.974754
 30
0.0
 40
2.5
 41
0.0
 71
     5
 72
     1
  1
\A1;40.5
  0
POINT
  5
2C6F4
100
AcDbEntity
  8
DEFPOINTS
  6
BYBLOCK
 62
     0
100
AcDbPoint
 10
511.817792
 20
201.943594
 30
0.0
  0
POINT
  5
2C6F5
100
AcDbEntity
  8
DEFPOINTS
  6
BYBLOCK
 62
     0
100
AcDbPoint
 10
552.317792
 20
206.10693
 30
0.0
  0
POINT
  5
2C6F6
100
AcDbEntity
  8
DEFPOINTS
  6
BYBLOCK
 62
     0
100
AcDbPoint
 10
552.317792
 20
221.634754
 30
0.0
  0
ENDBLK
  5
2C6F7
100
AcDbEntity
  8
0
100
AcDbBlockEnd
  0
BLOCK
  5
2C6F9
100
AcDbEntity
  8
0
100
AcDbBlockBegin
  2
*D12
 70
     1
 10
0.0
 20
0.0
 30
0.0
  3
*D12
  1

  0
LINE
  5
2C6FA
100
AcDbEntity
  8
0
  6
BYBLOCK
 62
     0
100
AcDbLine
 10
489.963471
 20
204.560348
 30
0.0
 11
489.963471
 21
229.264472
 31
0.0
  0
LINE
  5
2C6FB
100
AcDbEntity
  8
0
  6
BYBLOCK
 62
     0
100
AcDbLine
 10
552.317792
 20
206.20693
 30
0.0
 11
552.317792
 21
229.264472
 31
0.0
  0
LINE
  5
2C6FC
100
AcDbEntity
  8
0
  6
BYBLOCK
 62
     0
100
AcDbLine
 10
492.463471
 20
229.264472
 30
0.0
 11
549.817792
 21
229.264472
 31
0.0
  0
SOLID
  5
2C6FD
100
AcDbEntity
  8
0
  6
BYBLOCK
 62
     0
100
AcDbTrace
 10
492.463471
 20
229.681138
 30
0.0
 11
492.463471
 21
228.847805
 31
0.0
 12
489.963471
 22
229.264472
 32
0.0
 13
489.963471
 23
229.264472
 33
0.0
  0
SOLID
  5
2C6FE
100
AcDbEntity
  8
0
  6
BYBLOCK
 62
     0
100
AcDbTrace
 10
549.817792
 20
229.681138
 30
0.0
 11
549.817792
 21
228.847805
 31
0.0
 12
552.317792
 22
229.264472
 32
0.0
 13
552.317792
 23
229.264472
 33
0.0
  0
MTEXT
  5
2C6FF
100
AcDbEntity
  8
0
  6
BYBLOCK
 62
     0
100
AcDbMText
 10
521.140631
 20
230.604472
 30
0.0
 40
2.5
 41
0.0
 71
     5
 72
     1
  1
\A1;62.5
  0
POINT
  5
2C700
100
AcDbEntity
  8
DEFPOINTS
  6
BYBLOCK
 62
     0
100
AcDbPoint
 10
489.963471
 20
204.460348
 30
0.0
  0
POINT
  5
2C701
100
AcDbEntity
  8
DEFPOINTS
  6
BYBLOCK
 62
     0
100
AcDbPoint
 10
552.317792
 20
206.10693
 30
0.0
  0
POINT
  5
2C702
100
AcDbEntity
  8
DEFPOINTS
  6
BYBLOCK
 62
     0
100
AcDbPoint
 10
552.317792
 20
229.264472
 30
0.0
  0
ENDBLK
  5
2C703
100
AcDbEntity
  8
0
100
AcDbBlockEnd
  0
BLOCK
  5
2C720
100
AcDbEntity
  8
0
100
AcDbBlockBegin
  2
*D13
 70
     1
 10
0.0
 20
0.0
 30
0.0
  3
*D13
  1

  0
LINE
  5
2C721
100
AcDbEntity
  8
0
  6
BYBLOCK
 62
     0
100
AcDbLine
 10
273.541931
 20
204.360348
 30
0.0
 11
273.541931
 21
221.612184
 31
0.0
  0
LINE
  5
2C722
100
AcDbEntity
  8
0
  6
BYBLOCK
 62
     0
100
AcDbLine
 10
295.396252
 20
202.143594
 30
0.0
 11
295.396252
 21
221.612184
 31
0.0
  0
LINE
  5
2C723
100
AcDbEntity
  8
0
  6
BYBLOCK
 62
     0
100
AcDbLine
 10
276.041931
 20
221.612184
 30
0.0
 11
292.896252
 21
221.612184
 31
0.0
  0
SOLID
  5
2C724
100
AcDbEntity
  8
0
  6
BYBLOCK
 62
     0
100
AcDbTrace
 10
276.041931
 20
222.028851
 30
0.0
 11
276.041931
 21
221.195517
 31
0.0
 12
273.541931
 22
221.612184
 32
0.0
 13
273.541931
 23
221.612184
 33
0.0
  0
SOLID
  5
2C725
100
AcDbEntity
  8
0
  6
BYBLOCK
 62
     0
100
AcDbTrace
 10
292.896252
 20
222.028851
 30
0.0
 11
292.896252
 21
221.195517
 31
0.0
 12
295.396252
 22
221.612184
 32
0.0
 13
295.396252
 23
221.612184
 33
0.0
  0
MTEXT
  5
2C726
100
AcDbEntity
  8
0
  6
BYBLOCK
 62
     0
100
AcDbMText
 10
284.469092
 20
222.952184
 30
0.0
 40
2.5
 41
0.0
 71
     5
 72
     1
  1
\A1;22
  0
POINT
  5
2C727
100
AcDbEntity
  8
DEFPOINTS
  6
BYBLOCK
 62
     0
100
AcDbPoint
 10
273.541931
 20
204.260348
 30
0.0
  0
POINT
  5
2C728
100
AcDbEntity
  8
DEFPOINTS
  6
BYBLOCK
 62
     0
100
AcDbPoint
 10
295.396252
 20
202.043594
 30
0.0
  0
POINT
  5
2C729
100
AcDbEntity
  8
DEFPOINTS
  6
BYBLOCK
 62
     0
100
AcDbPoint
 10
295.396252
 20
221.612184
 30
0.0
  0
ENDBLK
  5
2C72A
100
AcDbEntity
  8
0
100
AcDbBlockEnd
  0
ENDSEC
  0
SECTION
  2
ENTITIES
  0
INSERT
  5
3
100
AcDbEntity
  8
ASHADE
 62
     1
100
AcDbBlockReference
  2
AVE_RENDER
 10
0.0
 20
0.0
 30
0.0
1001
AVE_RENDER
1002
{
1070
     2
1000
Pref
1070
    30
1070
    20
1070
     0
1070
     0
1000

1070
    10
1070
     0
1070
    30
1040
1.0
1070
     1
1040
0.3
1040
0.7
1040
0.0
1040
10.0
1010
-1.0
1020
-1.0
1030
-1.0
1040
0.3
1070
    49
1002
}
  0
INSERT
  5
4
100
AcDbEntity
  8
ASHADE
 62
     3
100
AcDbBlockReference
  2
AVE_RENDER
 10
0.0
 20
0.0
 30
0.0
1001
AVE_RENDER
1002
{
1070
     0
1000
Full Opt
1070
     0
1070
     1
1070
     1
1070
     1
1070
     0
1070
     0
1070
     0
1070
     1
1070
     1
1040
0.0001
1040
0.0001
1002
}
  0
INSERT
  5
5
100
AcDbEntity
  8
ASHADE
 62
     4
100
AcDbBlockReference
  2
AVE_RENDER
 10
0.0
 20
0.0
 30
0.0
1001
AVE_RENDER
1002
{
1070
     0
1000
Quick Opt
1070
     0
1070
     1
1070
     1
1070
     1
1070
     0
1070
     0
1070
     1
1002
}
  0
INSERT
  5
2C05D
100
AcDbEntity
  8
ASHADE
 62
     1
100
AcDbBlockReference
  2
AVE_RENDER
 10
270.940925
 20
11.46059
 30
0.0
1001
AVE_RENDER
1002
{
1070
     2
1000
Pref
1070
    30
1070
    20
1070
     0
1070
     0
1000

1070
    10
1070
     0
1070
    30
1040
1.0
1070
     1
1040
0.3
1040
0.7
1040
0.0
1040
10.0
1010
-1.0
1020
-1.0
1030
-1.0
1040
0.3
1070
    49
1002
}
  0
INSERT
  5
2C05E
100
AcDbEntity
  8
ASHADE
 62
     3
100
AcDbBlockReference
  2
AVE_RENDER
 10
270.940925
 20
11.46059
 30
0.0
1001
AVE_RENDER
1002
{
1070
     0
1000
Full Opt
1070
     0
1070
     1
1070
     1
1070
     1
1070
     0
1070
     0
1070
     0
1070
     1
1070
     1
1040
0.0001
1040
0.0001
1002
}
  0
INSERT
  5
2C05F
100
AcDbEntity
  8
ASHADE
 62
     4
100
AcDbBlockReference
  2
AVE_RENDER
 10
270.940925
 20
11.46059
 30
0.0
1001
AVE_RENDER
1002
{
1070
     0
1000
Quick Opt
1070
     0
1070
     1
1070
     1
1070
     1
1070
     0
1070
     0
1070
     1
1002
}
  0
INSERT
  5
2C402
100
AcDbEntity
  8
MASSE
  6
CONTINUOUS
100
AcDbBlockReference
 66
     1
  2
DINA4MK
 10
194.048839
 20
0.686345
 30
0.0
  0
ATTRIB
  5
2C403
100
AcDbEntity
  8
MASSE
100
AcDbText
 10
122.940039
 20
56.015967
 30
0.0
 40
2.0
  1
1:1
  7
ROMANS
100
AcDbAttribute
  2
MAßSTAB
 70
     0
  0
ATTRIB
  5
2C404
100
AcDbEntity
  8
MASSE
100
AcDbText
 10
106.667719
 20
31.849771
 30
0.0
 40
3.0
  1
Anca-Band 2-teilig
  7
ROMANS
100
AcDbAttribute
  2
BEZEICHNUNG 1
 70
     0
  0
ATTRIB
  5
2C405
100
AcDbEntity
  8
MASSE
100
AcDbText
 10
106.583403
 20
45.905434
 30
0.0
 40
3.0
  1
Alu
  7
ROMANS
100
AcDbAttribute
  2
WERKSTOFF
 70
     0
  0
ATTRIB
  5
2C406
100
AcDbEntity
  8
MASSE
100
AcDbText
 10
106.243466
 20
10.326064
 30
0.0
 40
3.0
  1
AC262
  7
ROMANS
100
AcDbAttribute
  2
ZEICHNUNGS.NR.
 70
     0
  0
ATTRIB
  5
2C407
100
AcDbEntity
  8
MASSE
100
AcDbText
 10
0.657856
 20
49.712848
 30
0.0
 40
3.0
  1

  7
ROMANS
100
AcDbAttribute
  2
VERWENDUNG
 70
     0
  0
ATTRIB
  5
2C408
100
AcDbEntity
  8
MASSE
100
AcDbText
 10
117.041254
 20
1.764119
 30
0.0
 40
2.0
  1

  7
ROMANS
100
AcDbAttribute
  2
ERSATZ
 70
     0
  0
ATTRIB
  5
2C409
100
AcDbEntity
  8
MASSE
100
AcDbText
 10
70.694244
 20
33.054604
 30
0.0
 40
2.0
  1
30.11.06
  7
ROMANS
100
AcDbAttribute
  2
DATUM
 70
     0
  0
ATTRIB
  5
2C40A
100
AcDbEntity
  8
MASSE
100
AcDbText
 10
85.78247
 20
33.054604
 30
0.0
 40
2.0
  1
V.Lesar
  7
ROMANS
100
AcDbAttribute
  2
NAME
 70
     0
  0
ATTRIB
  5
2C40B
100
AcDbEntity
  8
MASSE
100
AcDbText
 10
71.820232
 20
44.085063
 30
0.0
 40
2.5
  1
mK
  7
ROMANS
100
AcDbAttribute
  2
NORM
 70
     0
  0
ATTRIB
  5
2C40C
100
AcDbEntity
  8
MASSE
100
AcDbText
 10
180.365374
 20
11.218798
 30
0.0
 40
2.0
  1

  7
ROMANS
100
AcDbAttribute
  2
BLATT
 70
     0
  0
ATTRIB
  5
2C40D
100
AcDbEntity
  8
MASSE
100
AcDbText
 10
180.365375
 20
6.716571
 30
0.0
 40
2.0
  1

  7
ROMANS
100
AcDbAttribute
  2
BL
 70
     0
  0
ATTRIB
  5
2C40E
100
AcDbEntity
  8
MASSE
100
AcDbText
 10
164.112006
 20
56.088247
 30
0.0
 40
2.0
  1

  7
ROMANS
100
AcDbAttribute
  2
WERKZEUGNUMMER
 70
     0
  0
ATTRIB
  5
2C40F
100
AcDbEntity
  8
MASSE
100
AcDbText
 10
150.841652
 20
1.924202
 30
0.0
 40
2.0
  1

  7
ROMANS
100
AcDbAttribute
  2
DATEINAME
 70
     0
  0
ATTRIB
  5
2C410
100
AcDbEntity
  8
MASSE
100
AcDbText
 10
106.669915
 20
24.369696
 30
0.0
 40
3.0
  1
AC262
  7
ROMANS
100
AcDbAttribute
  2
BEZEICHNUNG 2
 70
     0
  0
SEQEND
  5
2C411
100
AcDbEntity
  8
MASSE
  6
CONTINUOUS
  0
DIMENSION
  5
2C412
100
AcDbEntity
  8
MASSE
  6
CONTINUOUS
100
AcDbDimension
  2
*D6
 10
151.804785
 20
95.787903
 30
0.0
 11
150.464785
 21
88.287903
 31
0.0
 12
-216.536618
 22
-30.03046
 32
0.0
 70
    32
  1
15
  3
STANDARD
100
AcDbAlignedDimension
 13
106.355621
 23
80.787903
 33
0.0
 14
82.0013
 24
95.787903
 34
0.0
 50
90.0
100
AcDbRotatedDimension
1001
ACAD
1000
DSTYLE
1002
{
1070
   140
1040
2.5
1070
    74
1070
     0
1070
    73
1070
     0
1070
   146
1040
0.8
1070
    77
1070
     1
1070
    42
1040
0.1
1070
    44
1040
0.0
1070
    43
1040
7.0
1070
   141
1040
1.5
1070
    41
1040
2.5
1002
}
  0
DIMENSION
  5
2C413
100
AcDbEntity
  8
MASSE
  6
CONTINUOUS
100
AcDbDimension
  2
*D5
 10
151.804785
 20
117.787903
 30
0.0
 11
150.464785
 21
106.787903
 31
0.0
 12
-216.536618
 22
-30.03046
 32
0.0
 70
    32
  1
22
  3
STANDARD
100
AcDbAlignedDimension
 13
82.0013
 23
95.787903
 33
0.0
 14
82.0013
 24
117.787903
 34
0.0
 50
90.0
100
AcDbRotatedDimension
1001
ACAD
1000
DSTYLE
1002
{
1070
   140
1040
2.5
1070
    74
1070
     0
1070
    73
1070
     0
1070
   146
1040
0.8
1070
    77
1070
     1
1070
    42
1040
0.1
1070
    44
1040
0.0
1070
    43
1040
7.0
1070
   141
1040
1.5
1070
    41
1040
2.5
1002
}
  0
DIMENSION
  5
2C414
100
AcDbEntity
  8
MASSE
  6
CONTINUOUS
100
AcDbDimension
  2
*D4
 10
172.953744
 20
145.287903
 30
0.0
 11
171.613744
 21
131.537903
 31
0.0
 12
-216.536618
 22
-30.03046
 32
0.0
 70
    32
  1
27.5
  3
STANDARD
100
AcDbAlignedDimension
 13
65.0013
 23
117.787903
 33
0.0
 14
161.495375
 24
145.287903
 34
0.0
 50
90.0
100
AcDbRotatedDimension
1001
ACAD
1000
DSTYLE
1002
{
1070
   140
1040
2.5
1070
    74
1070
     0
1070
    73
1070
     0
1070
   146
1040
0.8
1070
    77
1070
     1
1070
    42
1040
0.1
1070
    44
1040
0.0
1070
    43
1040
7.0
1070
   141
1040
1.5
1070
    41
1040
2.5
1002
}
  0
LINE
  5
2C415
100
AcDbEntity
  8
MASSE
  6
VERDECKT
 62
     3
100
AcDbLine
 10
85.855621
 20
88.787903
 30
0.0
 11
101.855621
 21
88.787903
 31
0.0
  0
LINE
  5
2C416
100
AcDbEntity
  8
MASSE
  6
VERDECKT
 62
     3
100
AcDbLine
 10
85.855621
 20
92.787903
 30
0.0
 11
101.855621
 21
92.787903
 31
0.0
  0
ARC
  5
2C417
100
AcDbEntity
  8
MASSE
  6
CONTINUOUS
 62
     1
100
AcDbCircle
 10
93.855621
 20
118.248435
 30
0.0
 40
39.49103
100
AcDbArc
 50
251.546943
 51
288.453057
  0
LINE
  5
2C418
100
AcDbEntity
  8
MASSE
  6
CONTINUOUS
 62
     1
100
AcDbLine
 10
57.855621
 20
80.787903
 30
0.0
 11
106.355621
 21
80.787903
 31
0.0
  0
LINE
  5
2C419
100
AcDbEntity
  8
MASSE
  6
CONTINUOUS
 62
     1
100
AcDbLine
 10
57.855621
 20
132.787903
 30
0.0
 11
106.355621
 21
132.787903
 31
0.0
  0
LINE
  5
2C41A
100
AcDbEntity
  8
MASSE
  6
CONTINUOUS
 62
     1
100
AcDbLine
 10
81.355621
 20
135.287903
 30
0.0
 11
153.355621
 21
135.287903
 31
0.0
  0
LINE
  5
2C41B
100
AcDbEntity
  8
MASSE
  6
CONTINUOUS
 62
     1
100
AcDbLine
 10
81.355621
 20
177.287903
 30
0.0
 11
153.355621
 21
177.287903
 31
0.0
  0
DIMENSION
  5
2C41E
100
AcDbEntity
  8
MASSE
  6
CONTINUOUS
100
AcDbDimension
  2
*D7
 10
40.584858
 20
132.787903
 30
0.0
 11
39.244858
 21
106.787903
 31
0.0
 12
-216.536618
 22
-30.03046
 32
0.0
 70
    32
  1
52
  3
STANDARD
100
AcDbAlignedDimension
 13
57.855621
 23
80.787903
 33
0.0
 14
57.855621
 24
132.787903
 34
0.0
 50
90.0
100
AcDbRotatedDimension
1001
ACAD
1000
DSTYLE
1002
{
1070
   140
1040
2.5
1070
    74
1070
     0
1070
    73
1070
     0
1070
   146
1040
0.8
1070
    77
1070
     1
1070
    42
1040
0.1
1070
    44
1040
0.0
1070
    43
1040
7.0
1070
   141
1040
1.5
1070
    41
1040
2.5
1002
}
  0
LINE
  5
2C41F
100
AcDbEntity
  8
MASSE
  6
VERDECKT
 62
     3
100
AcDbLine
 10
85.855621
 20
80.787903
 30
0.0
 11
85.855621
 21
132.787903
 31
0.0
  0
LINE
  5
2C420
100
AcDbEntity
  8
MASSE
  6
VERDECKT
 62
     3
100
AcDbLine
 10
87.855621
 20
80.787903
 30
0.0
 11
87.855621
 21
177.287903
 31
0.0
  0
LINE
  5
2C421
100
AcDbEntity
  8
MASSE
  6
CONTINUOUS
 62
     1
100
AcDbLine
 10
81.355621
 20
80.787903
 30
0.0
 11
81.355621
 21
132.787903
 31
0.0
  0
LINE
  5
2C422
100
AcDbEntity
  8
MASSE
  6
STRICHPUNKT
 62
     2
100
AcDbLine
 10
72.0013
 20
80.787903
 30
0.0
 11
72.0013
 21
132.787903
 31
0.0
  0
LINE
  5
2C423
100
AcDbEntity
  8
MASSE
100
AcDbLine
 10
59.264502
 20
80.787903
 30
0.0
 11
59.264502
 21
132.787903
 31
0.0
  0
LINE
  5
2C424
100
AcDbEntity
  8
MASSE
  6
STRICHPUNKT
 62
     2
100
AcDbLine
 10
93.855621
 20
70.220035
 30
0.0
 11
93.855621
 21
198.670675
 31
0.0
  0
LINE
  5
2C425
100
AcDbEntity
  8
MASSE
  6
CONTINUOUS
 62
     1
100
AcDbLine
 10
57.855621
 20
80.787903
 30
0.0
 11
57.855621
 21
132.787903
 31
0.0
  0
LINE
  5
2C427
100
AcDbEntity
  8
MASSE
  6
STRICHPUNKT
 62
     2
100
AcDbLine
 10
82.0013
 20
95.787903
 30
0.0
 11
51.564235
 21
95.787903
 31
0.0
  0
DIMENSION
  5
2C42B
100
AcDbEntity
  8
MASSE
  6
CONTINUOUS
100
AcDbDimension
  2
*D9
 10
40.302977
 20
135.287903
 30
0.0
 11
38.962977
 21
156.287903
 31
0.0
 12
-216.536618
 22
-30.03046
 32
0.0
 70
    32
  1
42
  3
STANDARD
100
AcDbAlignedDimension
 13
81.355621
 23
177.287903
 33
0.0
 14
81.355621
 24
135.287903
 34
0.0
 50
90.0
100
AcDbRotatedDimension
1001
ACAD
1000
DSTYLE
1002
{
1070
   140
1040
2.5
1070
    74
1070
     0
1070
    73
1070
     0
1070
   146
1040
0.8
1070
    77
1070
     1
1070
    42
1040
0.1
1070
    44
1040
0.0
1070
    43
1040
7.0
1070
   141
1040
1.5
1070
    41
1040
2.5
1002
}
  0
LINE
  5
2C42C
100
AcDbEntity
  8
MASSE
  6
CONTINUOUS
 62
     1
100
AcDbLine
 10
81.355621
 20
135.287903
 30
0.0
 11
81.355621
 21
177.287903
 31
0.0
  0
DIMENSION
  5
2C42D
100
AcDbEntity
  8
MASSE
  6
CONTINUOUS
100
AcDbDimension
  2
*D8
 10
50.732589
 20
135.287903
 30
0.0
 11
49.392589
 21
142.877903
 31
0.0
 12
-216.536618
 22
-30.03046
 32
0.0
 70
    32
  1
2.5
  3
STANDARD
100
AcDbAlignedDimension
 13
57.755621
 23
132.787903
 33
0.0
 14
82.355621
 24
135.287903
 34
0.0
 50
90.0
100
AcDbRotatedDimension
1001
ACAD
1000
DSTYLE
1002
{
1070
   140
1040
2.5
1070
    74
1070
     0
1070
    73
1070
     0
1070
   146
1040
0.8
1070
    77
1070
     1
1070
    42
1040
0.1
1070
    44
1040
0.0
1070
    43
1040
7.0
1070
   141
1040
1.5
1070
    41
1040
2.5
1002
}
  0
LINE
  5
2C42E
100
AcDbEntity
  8
MASSE
  6
CONTINUOUS
 62
     1
100
AcDbLine
 10
81.355621
 20
135.287903
 30
0.0
 11
81.355621
 21
138.697678
 31
0.0
  0
LINE
  5
2C42F
100
AcDbEntity
  8
MASSE
  6
STRICHPUNKT
 62
     2
100
AcDbLine
 10
82.0013
 20
117.787903
 30
0.0
 11
51.564235
 21
117.787903
 31
0.0
  0
LINE
  5
2C430
100
AcDbEntity
  8
MASSE
  6
CONTINUOUS
 62
     1
100
AcDbLine
 10
81.355621
 20
135.287903
 30
0.0
 11
94.287091
 21
135.287903
 31
0.0
  0
LINE
  5
2C431
100
AcDbEntity
  8
MASSE
  6
CONTINUOUS
 62
     1
100
AcDbLine
 10
82.355621
 20
132.787903
 30
0.0
 11
82.355621
 21
135.287903
 31
0.0
  0
LINE
  5
2C432
100
AcDbEntity
  8
MASSE
  6
CONTINUOUS
 62
     1
100
AcDbLine
 10
93.365301
 20
135.287903
 30
0.0
 11
93.365301
 21
132.787903
 31
0.0
  0
LINE
  5
2C433
100
AcDbEntity
  8
MASSE
  6
CONTINUOUS
 62
     1
100
AcDbLine
 10
94.287091
 20
135.287903
 30
0.0
 11
94.287091
 21
132.787903
 31
0.0
  0
LINE
  5
2C435
100
AcDbEntity
  8
MASSE
  6
VERDECKT
 62
     3
100
AcDbLine
 10
101.855621
 20
80.787903
 30
0.0
 11
101.855621
 21
132.787903
 31
0.0
  0
LINE
  5
2C436
100
AcDbEntity
  8
MASSE
  6
VERDECKT
 62
     3
100
AcDbLine
 10
99.855621
 20
80.787903
 30
0.0
 11
99.855621
 21
177.287903
 31
0.0
  0
LINE
  5
2C437
100
AcDbEntity
  8
MASSE
  6
CONTINUOUS
 62
     1
100
AcDbLine
 10
106.355621
 20
80.787903
 30
0.0
 11
106.355621
 21
132.787903
 31
0.0
  0
DIMENSION
  5
2C43D
100
AcDbEntity
  8
MASSE
  6
CONTINUOUS
100
AcDbDimension
  2
*D3
 10
172.95375
 20
145.287903
 30
0.0
 11
171.61375
 21
156.277138
 31
0.0
 12
-216.536618
 22
-30.03046
 32
0.0
 70
    32
  1
22
  3
STANDARD
100
AcDbAlignedDimension
 13
153.455621
 23
167.266373
 33
0.0
 14
161.495375
 24
145.287903
 34
0.0
 50
90.0
100
AcDbRotatedDimension
1001
ACAD
1000
DSTYLE
1002
{
1070
   140
1040
2.5
1070
    74
1070
     0
1070
    73
1070
     0
1070
   146
1040
0.8
1070
    77
1070
     1
1070
    42
1040
0.1
1070
    44
1040
0.0
1070
    43
1040
7.0
1070
   141
1040
1.5
1070
    41
1040
2.5
1002
}
  0
LINE
  5
2C43E
100
AcDbEntity
  8
MASSE
  6
CONTINUOUS
 62
     1
100
AcDbLine
 10
106.355621
 20
135.287903
 30
0.0
 11
106.355621
 21
177.287903
 31
0.0
  0
LINE
  5
2C43F
100
AcDbEntity
  8
MASSE
  6
STRICHPUNKT
 62
     2
100
AcDbLine
 10
134.355621
 20
135.287903
 30
0.0
 11
134.355621
 21
177.287903
 31
0.0
  0
LINE
  5
2C440
100
AcDbEntity
  8
MASSE
100
AcDbLine
 10
149.723862
 20
135.287903
 30
0.0
 11
149.723862
 21
177.287903
 31
0.0
  0
LINE
  5
2C441
100
AcDbEntity
  8
MASSE
  6
CONTINUOUS
 62
     1
100
AcDbLine
 10
153.355621
 20
135.287903
 30
0.0
 11
153.355621
 21
177.287903
 31
0.0
  0
LINE
  5
2C442
100
AcDbEntity
  8
MASSE
  6
STRICHPUNKT
 62
     2
100
AcDbLine
 10
134.355621
 20
145.287903
 30
0.0
 11
161.495375
 21
145.287903
 31
0.0
  0
LINE
  5
2C443
100
AcDbEntity
  8
MASSE
  6
CONTINUOUS
 62
     1
100
AcDbLine
 10
105.355621
 20
132.787903
 30
0.0
 11
105.355621
 21
135.287903
 31
0.0
  0
LINE
  5
2C444
100
AcDbEntity
  8
MASSE
  6
STRICHPUNKT
 62
     2
100
AcDbLine
 10
134.355621
 20
145.287903
 30
0.0
 11
114.849553
 21
145.287903
 31
0.0
  0
LINE
  5
2C445
100
AcDbEntity
  8
MASSE
  6
STRICHPUNKT
 62
     2
100
AcDbLine
 10
134.355621
 20
167.287903
 30
0.0
 11
161.495375
 21
167.287903
 31
0.0
  0
LINE
  5
2C446
100
AcDbEntity
  8
MASSE
  6
STRICHPUNKT
 62
     2
100
AcDbLine
 10
134.355621
 20
167.287903
 30
0.0
 11
114.849553
 21
167.287903
 31
0.0
  0
DIMENSION
  5
2C447
100
AcDbEntity
  8
MASSE
  6
CONTINUOUS
100
AcDbDimension
  2
*D2
 10
172.95375
 20
167.266373
 30
0.0
 11
171.61375
 21
172.277138
 31
0.0
 12
-216.536618
 22
-30.03046
 32
0.0
 70
    32
  1
10
  3
STANDARD
100
AcDbAlignedDimension
 13
153.355621
 23
177.287903
 33
0.0
 14
153.355621
 24
167.266373
 34
0.0
 50
90.0
100
AcDbRotatedDimension
1001
ACAD
1000
DSTYLE
1002
{
1070
   140
1040
2.5
1070
    74
1070
     0
1070
    73
1070
     0
1070
   146
1040
0.8
1070
    77
1070
     1
1070
    42
1040
0.1
1070
    44
1040
0.0
1070
    43
1040
7.0
1070
   141
1040
1.5
1070
    41
1040
2.5
1002
}
  0
DIMENSION
  5
2C5B1
100
AcDbEntity
  8
MASSE
  6
CONTINUOUS
 62
     9
100
AcDbDimension
  2
*D12
 10
134.355621
 20
262.10486
 30
0.0
 11
103.178461
 21
263.44486
 31
0.0
 12
-417.96217
 22
32.840389
 32
0.0
 70
    32
  1
62.5
  3
STANDARD
100
AcDbAlignedDimension
 13
72.0013
 23
237.300737
 33
0.0
 14
134.355621
 24
238.947319
 34
0.0
100
AcDbRotatedDimension
1001
ACAD
1000
DSTYLE
1002
{
1070
   140
1040
2.5
1070
    74
1070
     0
1070
    73
1070
     0
1070
   146
1040
0.8
1070
    77
1070
     1
1070
    42
1040
0.1
1070
    44
1040
0.0
1070
    43
1040
7.0
1070
   141
1040
1.5
1070
    41
1040
2.5
1002
}
  0
DIMENSION
  5
2C5B2
100
AcDbEntity
  8
MASSE
  6
CONTINUOUS
 62
     9
100
AcDbDimension
  2
*D10
 10
44.63472
 20
234.783983
 30
0.0
 11
43.29472
 21
223.639102
 31
0.0
 12
-417.96217
 22
32.840389
 32
0.0
 70
    32
  1
22
  3
STANDARD
100
AcDbAlignedDimension
 13
59.89043
 23
212.494221
 33
0.0
 14
93.855621
 24
234.783983
 34
0.0
 50
90.0
100
AcDbRotatedDimension
1001
ACAD
1000
DSTYLE
1002
{
1070
   140
1040
2.5
1070
    74
1070
     0
1070
    73
1070
     0
1070
   146
1040
0.8
1070
    77
1070
     1
1070
    42
1040
0.1
1070
    44
1040
0.0
1070
    43
1040
7.0
1070
   141
1040
1.5
1070
    41
1040
2.5
1002
}
  0
LINE
  5
2C5B9
100
AcDbEntity
  8
MASSE
  6
CONTINUOUS
 62
     1
100
AcDbLine
 10
85.855621
 20
215.494221
 30
0.0
 11
101.581776
 21
223.164379
 31
0.0
  0
LINE
  5
2C5BA
100
AcDbEntity
  8
V
  6
VERDECKT
 62
     1
100
AcDbLine
 10
95.467107
 20
219.407494
 30
0.0
 11
94.557681
 21
219.738499
 31
0.0
  0
ARC
  5
2C5C0
100
AcDbEntity
  8
1
 62
     1
100
AcDbCircle
 10
89.855621
 20
238.494221
 30
0.0
 40
8.5
100
AcDbArc
 50
90.0
 51
186.542928
  0
LINE
  5
2C5C8
100
AcDbEntity
  8
MASSE
  6
CONTINUOUS
 62
     1
100
AcDbLine
 10
57.855621
 20
218.194221
 30
0.0
 11
57.855621
 21
226.894221
 31
0.0
  0
LINE
  5
2C5DD
100
AcDbEntity
  8
1
 62
     1
100
AcDbLine
 10
67.8013
 20
215.494221
 30
0.0
 11
59.855621
 21
215.494221
 31
0.0
  0
LINE
  5
2C5DE
100
AcDbEntity
  8
MASSE
  6
CONTINUOUS
 62
     1
100
AcDbLine
 10
61.355621
 20
212.494221
 30
0.0
 11
82.355621
 21
212.494221
 31
0.0
  0
LINE
  5
2C5DF
100
AcDbEntity
  8
1
 62
     1
100
AcDbLine
 10
57.855621
 20
212.994221
 30
0.0
 11
57.855621
 21
218.194221
 31
0.0
  0
LINE
  5
2C5E0
100
AcDbEntity
  8
1
 62
     1
100
AcDbLine
 10
61.105621
 20
213.419221
 30
0.0
 11
61.180621
 21
213.369221
 31
0.0
  0
LINE
  5
2C5E1
100
AcDbEntity
  8
1
 62
     1
100
AcDbLine
 10
60.955621
 20
213.494221
 30
0.0
 11
61.105621
 21
213.419221
 31
0.0
  0
LINE
  5
2C5E2
100
AcDbEntity
  8
1
 62
     1
100
AcDbLine
 10
60.855621
 20
213.494221
 30
0.0
 11
60.955621
 21
213.494221
 31
0.0
  0
LINE
  5
2C5E3
100
AcDbEntity
  8
1
 62
     1
100
AcDbLine
 10
59.855621
 20
213.494221
 30
0.0
 11
60.855621
 21
213.494221
 31
0.0
  0
LINE
  5
2C5E4
100
AcDbEntity
  8
MASSE
  6
CONTINUOUS
 62
     1
100
AcDbLine
 10
61.355621
 20
214.494221
 30
0.0
 11
59.855621
 21
214.494221
 31
0.0
  0
LINE
  5
2C5E5
100
AcDbEntity
  8
1
 62
     1
100
AcDbLine
 10
61.355621
 20
212.994221
 30
0.0
 11
61.330621
 21
212.869221
 31
0.0
  0
LINE
  5
2C5E6
100
AcDbEntity
  8
1
 62
     1
100
AcDbLine
 10
60.955621
 20
212.494221
 30
0.0
 11
60.855621
 21
212.494221
 31
0.0
  0
LINE
  5
2C5E7
100
AcDbEntity
  8
1
 62
     1
100
AcDbLine
 10
61.105621
 20
212.569221
 30
0.0
 11
60.955621
 21
212.494221
 31
0.0
  0
LINE
  5
2C5E8
100
AcDbEntity
  8
1
 62
     1
100
AcDbLine
 10
61.180621
 20
212.644221
 30
0.0
 11
61.105621
 21
212.569221
 31
0.0
  0
LINE
  5
2C5E9
100
AcDbEntity
  8
1
 62
     1
100
AcDbLine
 10
61.280621
 20
212.744221
 30
0.0
 11
61.180621
 21
212.644221
 31
0.0
  0
LINE
  5
2C5EA
100
AcDbEntity
  8
1
 62
     1
100
AcDbLine
 10
61.330621
 20
212.869221
 30
0.0
 11
61.280621
 21
212.744221
 31
0.0
  0
LINE
  5
2C5EB
100
AcDbEntity
  8
1
 62
     1
100
AcDbLine
 10
57.855621
 20
212.869221
 30
0.0
 11
57.855621
 21
212.994221
 31
0.0
  0
LINE
  5
2C5EC
100
AcDbEntity
  8
1
 62
     1
100
AcDbLine
 10
57.905621
 20
212.744221
 30
0.0
 11
57.855621
 21
212.869221
 31
0.0
  0
LINE
  5
2C5ED
100
AcDbEntity
  8
1
 62
     1
100
AcDbLine
 10
58.005621
 20
212.644221
 30
0.0
 11
57.905621
 21
212.744221
 31
0.0
  0
LINE
  5
2C5EE
100
AcDbEntity
  8
1
 62
     1
100
AcDbLine
 10
58.105621
 20
212.569221
 30
0.0
 11
58.005621
 21
212.644221
 31
0.0
  0
LINE
  5
2C5EF
100
AcDbEntity
  8
1
 62
     1
100
AcDbLine
 10
58.205621
 20
212.494221
 30
0.0
 11
58.105621
 21
212.569221
 31
0.0
  0
LINE
  5
2C5F0
100
AcDbEntity
  8
1
 62
     1
100
AcDbLine
 10
58.355621
 20
212.494221
 30
0.0
 11
58.205621
 21
212.494221
 31
0.0
  0
LINE
  5
2C5F1
100
AcDbEntity
  8
1
 62
     1
100
AcDbLine
 10
58.355621
 20
212.494221
 30
0.0
 11
60.855621
 21
212.494221
 31
0.0
  0
LINE
  5
2C5F2
100
AcDbEntity
  8
1
 62
     1
100
AcDbLine
 10
61.280621
 20
213.244221
 30
0.0
 11
61.330621
 21
213.144221
 31
0.0
  0
LINE
  5
2C5F3
100
AcDbEntity
  8
1
 62
     1
100
AcDbLine
 10
61.330621
 20
213.144221
 30
0.0
 11
61.355621
 21
212.994221
 31
0.0
  0
LINE
  5
2C5F4
100
AcDbEntity
  8
1
 62
     1
100
AcDbLine
 10
61.180621
 20
213.369221
 30
0.0
 11
61.280621
 21
213.244221
 31
0.0
  0
LINE
  5
2C5F5
100
AcDbEntity
  8
MASSE
  6
CONTINUOUS
 62
     1
100
AcDbLine
 10
61.355621
 20
212.494221
 30
0.0
 11
61.355621
 21
214.494221
 31
0.0
  0
LINE
  5
2C5F6
100
AcDbEntity
  8
1
 62
     1
100
AcDbLine
 10
59.855621
 20
215.494221
 30
0.0
 11
59.855621
 21
213.494221
 31
0.0
  0
LINE
  5
2C5FD
100
AcDbEntity
  8
MASSE
  6
VERDECKT
 62
     1
100
AcDbLine
 10
72.0013
 20
212.494221
 30
0.0
 11
79.5013
 21
212.494221
 31
0.0
  0
LINE
  5
2C5FE
100
AcDbEntity
  8
1
  6
CONTINUOUS
 62
     1
100
AcDbLine
 10
76.3013
 20
215.494221
 30
0.0
 11
67.8013
 21
215.494221
 31
0.0
  0
LINE
  5
2C601
100
AcDbEntity
  8
MASSE
  6
VERDECKT
 62
     1
100
AcDbLine
 10
72.0013
 20
212.494221
 30
0.0
 11
64.5013
 21
212.494221
 31
0.0
  0
LINE
  5
2C606
100
AcDbEntity
  8
MASSE
  6
CONTINUOUS
 62
     1
100
AcDbLine
 10
76.3013
 20
215.494221
 30
0.0
 11
83.879626
 21
215.494221
 31
0.0
  0
LINE
  5
2C609
100
AcDbEntity
  8
1
 62
     1
100
AcDbLine
 10
83.455621
 20
213.494221
 30
0.0
 11
83.355621
 21
213.494221
 31
0.0
  0
LINE
  5
2C60A
100
AcDbEntity
  8
1
 62
     1
100
AcDbLine
 10
83.605621
 20
213.569221
 30
0.0
 11
83.455621
 21
213.494221
 31
0.0
  0
LINE
  5
2C60B
100
AcDbEntity
  8
1
 62
     1
100
AcDbLine
 10
83.680621
 20
213.644221
 30
0.0
 11
83.605621
 21
213.569221
 31
0.0
  0
LINE
  5
2C60C
100
AcDbEntity
  8
1
 62
     1
100
AcDbLine
 10
83.780621
 20
213.744221
 30
0.0
 11
83.680621
 21
213.644221
 31
0.0
  0
LINE
  5
2C60D
100
AcDbEntity
  8
1
 62
     1
100
AcDbLine
 10
83.830621
 20
213.869221
 30
0.0
 11
83.780621
 21
213.744221
 31
0.0
  0
LINE
  5
2C60E
100
AcDbEntity
  8
1
 62
     1
100
AcDbLine
 10
83.855621
 20
213.994221
 30
0.0
 11
83.830621
 21
213.869221
 31
0.0
  0
LINE
  5
2C60F
100
AcDbEntity
  8
1
 62
     1
100
AcDbLine
 10
82.705621
 20
213.494221
 30
0.0
 11
82.855621
 21
213.494221
 31
0.0
  0
LINE
  5
2C610
100
AcDbEntity
  8
1
 62
     1
100
AcDbLine
 10
82.605621
 20
213.419221
 30
0.0
 11
82.705621
 21
213.494221
 31
0.0
  0
LINE
  5
2C611
100
AcDbEntity
  8
1
 62
     1
100
AcDbLine
 10
82.505621
 20
213.369221
 30
0.0
 11
82.605621
 21
213.419221
 31
0.0
  0
LINE
  5
2C612
100
AcDbEntity
  8
1
 62
     1
100
AcDbLine
 10
83.355621
 20
213.494221
 30
0.0
 11
82.855621
 21
213.494221
 31
0.0
  0
LINE
  5
2C613
100
AcDbEntity
  8
MASSE
  6
CONTINUOUS
 62
     1
100
AcDbLine
 10
82.355621
 20
214.494221
 30
0.0
 11
83.855621
 21
214.494221
 31
0.0
  0
LINE
  5
2C614
100
AcDbEntity
  8
1
 62
     1
100
AcDbLine
 10
85.855621
 20
212.994221
 30
0.0
 11
85.830621
 21
212.869221
 31
0.0
  0
LINE
  5
2C615
100
AcDbEntity
  8
1
 62
     1
100
AcDbLine
 10
85.455621
 20
212.494221
 30
0.0
 11
85.355621
 21
212.494221
 31
0.0
  0
LINE
  5
2C616
100
AcDbEntity
  8
1
 62
     1
100
AcDbLine
 10
85.605621
 20
212.569221
 30
0.0
 11
85.455621
 21
212.494221
 31
0.0
  0
LINE
  5
2C617
100
AcDbEntity
  8
1
 62
     1
100
AcDbLine
 10
85.680621
 20
212.644221
 30
0.0
 11
85.605621
 21
212.569221
 31
0.0
  0
LINE
  5
2C618
100
AcDbEntity
  8
1
 62
     1
100
AcDbLine
 10
85.780621
 20
212.744221
 30
0.0
 11
85.680621
 21
212.644221
 31
0.0
  0
LINE
  5
2C619
100
AcDbEntity
  8
1
 62
     1
100
AcDbLine
 10
85.830621
 20
212.869221
 30
0.0
 11
85.780621
 21
212.744221
 31
0.0
  0
LINE
  5
2C61A
100
AcDbEntity
  8
1
 62
     1
100
AcDbLine
 10
82.605621
 20
212.569221
 30
0.0
 11
82.505621
 21
212.644221
 31
0.0
  0
LINE
  5
2C61B
100
AcDbEntity
  8
1
 62
     1
100
AcDbLine
 10
82.705621
 20
212.494221
 30
0.0
 11
82.605621
 21
212.569221
 31
0.0
  0
LINE
  5
2C61C
100
AcDbEntity
  8
1
 62
     1
100
AcDbLine
 10
82.855621
 20
212.494221
 30
0.0
 11
82.705621
 21
212.494221
 31
0.0
  0
LINE
  5
2C61D
100
AcDbEntity
  8
1
 62
     1
100
AcDbLine
 10
85.355621
 20
212.494221
 30
0.0
 11
82.855621
 21
212.494221
 31
0.0
  0
LINE
  5
2C61E
100
AcDbEntity
  8
1
 62
     1
100
AcDbLine
 10
82.355621
 20
212.869221
 30
0.0
 11
82.355621
 21
212.994221
 31
0.0
  0
LINE
  5
2C61F
100
AcDbEntity
  8
1
 62
     1
100
AcDbLine
 10
82.405621
 20
212.744221
 30
0.0
 11
82.355621
 21
212.869221
 31
0.0
  0
LINE
  5
2C620
100
AcDbEntity
  8
1
 62
     1
100
AcDbLine
 10
82.355621
 20
212.994221
 30
0.0
 11
82.355621
 21
212.994221
 31
0.0
  0
LINE
  5
2C621
100
AcDbEntity
  8
1
 62
     1
100
AcDbLine
 10
82.505621
 20
212.644221
 30
0.0
 11
82.405621
 21
212.744221
 31
0.0
  0
LINE
  5
2C622
100
AcDbEntity
  8
1
 62
     1
100
AcDbLine
 10
82.355621
 20
213.144221
 30
0.0
 11
82.405621
 21
213.244221
 31
0.0
  0
LINE
  5
2C623
100
AcDbEntity
  8
1
 62
     1
100
AcDbLine
 10
82.355621
 20
212.994221
 30
0.0
 11
82.355621
 21
213.144221
 31
0.0
  0
LINE
  5
2C624
100
AcDbEntity
  8
1
 62
     1
100
AcDbLine
 10
82.405621
 20
213.244221
 30
0.0
 11
82.505621
 21
213.369221
 31
0.0
  0
LINE
  5
2C625
100
AcDbEntity
  8
MASSE
  6
CONTINUOUS
 62
     1
100
AcDbLine
 10
82.355621
 20
212.494221
 30
0.0
 11
82.355621
 21
214.494221
 31
0.0
  0
LINE
  5
2C626
100
AcDbEntity
  8
1
 62
     1
100
AcDbLine
 10
83.855621
 20
215.494221
 30
0.0
 11
83.855621
 21
213.994221
 31
0.0
  0
LINE
  5
2C627
100
AcDbEntity
  8
1
 62
     1
100
AcDbLine
 10
85.855621
 20
215.494221
 30
0.0
 11
85.855621
 21
212.994221
 31
0.0
  0
LINE
  5
2C62A
100
AcDbEntity
  8
1
 62
     1
100
AcDbLine
 10
63.355621
 20
223.394221
 30
0.0
 11
59.855621
 21
223.394221
 31
0.0
  0
ARC
  5
2C62B
100
AcDbEntity
  8
MASSE
  6
CONTINUOUS
 62
     1
100
AcDbCircle
 10
62.704958
 20
224.056319
 30
0.0
 40
0.5
100
AcDbArc
 50
270.0
 51
0.0
  0
LINE
  5
2C62C
100
AcDbEntity
  8
MASSE
  6
CONTINUOUS
 62
     1
100
AcDbLine
 10
82.629644
 20
237.495945
 30
0.0
 11
59.264502
 21
230.2672
 31
0.0
  0
LINE
  5
2C62D
100
AcDbEntity
  8
MASSE
  6
CONTINUOUS
 62
     1
100
AcDbLine
 10
61.355621
 20
225.894221
 30
0.0
 11
61.355621
 21
226.894221
 31
0.0
  0
LINE
  5
2C62E
100
AcDbEntity
  8
MASSE
  6
CONTINUOUS
 62
     1
100
AcDbLine
 10
61.493734
 20
225.894221
 30
0.0
 11
61.493734
 21
226.994221
 31
0.0
  0
LINE
  5
2C62F
100
AcDbEntity
  8
MASSE
  6
CONTINUOUS
 62
     1
100
AcDbLine
 10
59.855621
 20
223.394221
 30
0.0
 11
59.855621
 21
225.394221
 31
0.0
  0
ARC
  5
2C630
100
AcDbEntity
  8
1
  6
CONTINUOUS
 62
     1
100
AcDbCircle
 10
60.855621
 20
225.894221
 30
0.0
 40
0.5
100
AcDbArc
 50
270.0
 51
0.0
  0
LINE
  5
2C631
100
AcDbEntity
  8
1
 62
     1
100
AcDbLine
 10
60.993734
 20
225.394221
 30
0.0
 11
59.855621
 21
225.394221
 31
0.0
  0
LINE
  5
2C632
100
AcDbEntity
  8
1
 62
     1
100
AcDbLine
 10
62.704958
 20
223.556319
 30
0.0
 11
60.550214
 21
223.556319
 31
0.0
  0
LINE
  5
2C633
100
AcDbEntity
  8
MASSE
  6
CONTINUOUS
 62
     1
100
AcDbLine
 10
60.050214
 20
224.056319
 30
0.0
 11
60.050214
 21
224.894221
 31
0.0
  0
ARC
  5
2C634
100
AcDbEntity
  8
MASSE
  6
CONTINUOUS
 62
     1
100
AcDbCircle
 10
60.550214
 20
224.056319
 30
0.0
 40
0.5
100
AcDbArc
 50
180.0
 51
270.0
  0
ARC
  5
2C635
100
AcDbEntity
  8
MASSE
  6
CONTINUOUS
 62
     1
100
AcDbCircle
 10
60.993734
 20
225.894221
 30
0.0
 40
0.5
100
AcDbArc
 50
270.0
 51
360.0
  0
ARC
  5
2C636
100
AcDbEntity
  8
MASSE
  6
CONTINUOUS
 62
     1
100
AcDbCircle
 10
60.550214
 20
224.894221
 30
0.0
 40
0.5
100
AcDbArc
 50
90.0
 51
180.0
  0
ARC
  5
2C637
100
AcDbEntity
  8
1
  6
CONTINUOUS
 62
     1
100
AcDbCircle
 10
60.855621
 20
226.894221
 30
0.0
 40
0.5
100
AcDbArc
 50
0.0
 51
90.0
  0
LINE
  5
2C638
100
AcDbEntity
  8
1
 62
     1
100
AcDbLine
 10
58.205621
 20
227.394221
 30
0.0
 11
58.355621
 21
227.394221
 31
0.0
  0
LINE
  5
2C639
100
AcDbEntity
  8
1
 62
     1
100
AcDbLine
 10
58.105621
 20
227.344221
 30
0.0
 11
58.205621
 21
227.394221
 31
0.0
  0
LINE
  5
2C63A
100
AcDbEntity
  8
1
 62
     1
100
AcDbLine
 10
58.005621
 20
227.244221
 30
0.0
 11
58.105621
 21
227.344221
 31
0.0
  0
LINE
  5
2C63B
100
AcDbEntity
  8
1
 62
     1
100
AcDbLine
 10
57.905621
 20
227.144221
 30
0.0
 11
58.005621
 21
227.244221
 31
0.0
  0
LINE
  5
2C63C
100
AcDbEntity
  8
1
 62
     1
100
AcDbLine
 10
57.855621
 20
227.019221
 30
0.0
 11
57.905621
 21
227.144221
 31
0.0
  0
LINE
  5
2C63D
100
AcDbEntity
  8
1
 62
     1
100
AcDbLine
 10
57.855621
 20
226.894221
 30
0.0
 11
57.855621
 21
227.019221
 31
0.0
  0
LINE
  5
2C63E
100
AcDbEntity
  8
1
 62
     1
100
AcDbLine
 10
58.355621
 20
227.394221
 30
0.0
 11
58.205621
 21
227.419221
 31
0.0
  0
LINE
  5
2C63F
100
AcDbEntity
  8
1
 62
     1
100
AcDbLine
 10
60.855621
 20
227.394221
 30
0.0
 11
58.355621
 21
227.394221
 31
0.0
  0
LINE
  5
2C640
100
AcDbEntity
  8
MASSE
  6
CONTINUOUS
 62
     1
100
AcDbLine
 10
60.993734
 20
227.494221
 30
0.0
 11
58.355621
 21
227.494221
 31
0.0
  0
LINE
  5
2C641
100
AcDbEntity
  8
MASSE
  6
CONTINUOUS
 62
     1
100
AcDbLine
 10
57.855621
 20
227.994221
 30
0.0
 11
57.855621
 21
228.356551
 31
0.0
  0
ARC
  5
2C642
100
AcDbEntity
  8
MASSE
  6
CONTINUOUS
 62
     1
100
AcDbCircle
 10
59.855621
 20
228.356551
 30
0.0
 40
2.0
100
AcDbArc
 50
107.191107
 51
180.0
  0
ARC
  5
2C643
100
AcDbEntity
  8
MASSE
  6
CONTINUOUS
 62
     1
100
AcDbCircle
 10
58.355621
 20
227.994221
 30
0.0
 40
0.5
100
AcDbArc
 50
180.0
 51
270.0
  0
ARC
  5
2C644
100
AcDbEntity
  8
MASSE
  6
CONTINUOUS
 62
     1
100
AcDbCircle
 10
60.993734
 20
226.994221
 30
0.0
 40
0.5
100
AcDbArc
 50
0.0
 51
90.0
  0
LINE
  5
2C64C
100
AcDbEntity
  8
1
  6
CONTINUOUS
 62
     1
100
AcDbLine
 10
83.395508
 20
227.494221
 30
0.0
 11
63.855621
 21
227.494221
 31
0.0
  0
LINE
  5
2C64E
100
AcDbEntity
  8
MASSE
  6
CONTINUOUS
 62
     1
100
AcDbLine
 10
63.355621
 20
223.394221
 30
0.0
 11
63.355621
 21
226.994221
 31
0.0
  0
LINE
  5
2C64F
100
AcDbEntity
  8
MASSE
  6
CONTINUOUS
 62
     1
100
AcDbLine
 10
63.204958
 20
224.056319
 30
0.0
 11
63.204958
 21
226.994221
 31
0.0
  0
ARC
  5
2C651
100
AcDbEntity
  8
1
  6
CONTINUOUS
 62
     1
100
AcDbCircle
 10
63.855621
 20
226.994221
 30
0.0
 40
0.5
100
AcDbArc
 50
90.0
 51
180.0
  0
ARC
  5
2C654
100
AcDbEntity
  8
MASSE
  6
CONTINUOUS
 62
     1
100
AcDbCircle
 10
63.704958
 20
226.994221
 30
0.0
 40
0.5
100
AcDbArc
 50
90.0
 51
180.0
  0
ARC
  5
2C662
100
AcDbEntity
  8
MASSE
  6
CONTINUOUS
 62
     1
100
AcDbCircle
 10
81.70903
 20
237.55985
 30
0.0
 40
0.3
100
AcDbArc
 50
186.542928
 51
285.0
  0
LINE
  5
2C663
100
AcDbEntity
  8
MASSE
  6
CONTINUOUS
 62
     1
100
AcDbLine
 10
82.629644
 20
237.495945
 30
0.0
 11
81.786676
 21
237.270073
 31
0.0
  0
ARC
  5
2C664
100
AcDbEntity
  8
MASSE
  6
CONTINUOUS
 62
     1
100
AcDbCircle
 10
82.811103
 20
237.030035
 30
0.0
 40
0.5
100
AcDbArc
 50
346.879118
 51
111.279604
  0
LINE
  5
2C669
100
AcDbEntity
  8
K7
 62
     1
100
AcDbLine
 10
152.069263
 20
219.171023
 30
0.0
 11
151.094253
 21
221.901052
 31
0.0
  0
LINE
  5
2C66B
100
AcDbEntity
  8
K7
 62
     1
100
AcDbLine
 10
148.855621
 20
226.469221
 30
0.0
 11
148.855621
 21
218.969221
 31
0.0
  0
LINE
  5
2C670
100
AcDbEntity
  8
K7
 62
     1
100
AcDbLine
 10
153.855621
 20
212.369221
 30
0.0
 11
153.855621
 21
222.069221
 31
0.0
  0
LINE
  5
2C682
100
AcDbEntity
  8
K7
 62
     1
100
AcDbLine
 10
116.355621
 20
215.369221
 30
0.0
 11
152.355621
 21
215.369221
 31
0.0
  0
LINE
  5
2C683
100
AcDbEntity
  8
MASSE
  6
CONTINUOUS
 62
     1
100
AcDbLine
 10
118.855621
 20
212.369221
 30
0.0
 11
149.855621
 21
212.369221
 31
0.0
  0
LINE
  5
2C684
100
AcDbEntity
  8
K7
 62
     1
100
AcDbLine
 10
116.355621
 20
215.369221
 30
0.0
 11
152.355621
 21
215.369221
 31
0.0
1001
ACAD
1000
ASC_BOUNDS
1002
{
1070
    19
1002
}
  0
LINE
  5
2C68B
100
AcDbEntity
  8
K7
 62
     1
100
AcDbLine
 10
131.855621
 20
215.369221
 30
0.0
 11
116.355621
 21
215.369221
 31
0.0
  0
LINE
  5
2C68C
100
AcDbEntity
  8
K7
 62
     1
100
AcDbLine
 10
98.855621
 20
215.369221
 30
0.0
 11
95.467107
 21
219.407494
 31
0.0
  0
LINE
  5
2C690
100
AcDbEntity
  8
K7
  6
CONTINUOUS
 62
     1
100
AcDbLine
 10
116.355621
 20
213.869221
 30
0.0
 11
118.855621
 21
213.869221
 31
0.0
1001
ACAD
1000
ASC_BOUNDS
1002
{
1070
    19
1002
}
  0
LINE
  5
2C691
100
AcDbEntity
  8
K7
 62
     1
100
AcDbLine
 10
118.355621
 20
212.369221
 30
0.0
 11
114.855621
 21
212.369221
 31
0.0
1001
ACAD
1000
ASC_BOUNDS
1002
{
1070
    19
1002
}
  0
LINE
  5
2C692
100
AcDbEntity
  8
K7
 62
     1
100
AcDbLine
 10
116.355621
 20
213.369221
 30
0.0
 11
118.355621
 21
213.369221
 31
0.0
1001
ACAD
1000
ASC_BOUNDS
1002
{
1070
    19
1002
}
  0
LINE
  5
2C693
100
AcDbEntity
  8
K7
 62
     1
100
AcDbLine
 10
114.855621
 20
212.369221
 30
0.0
 11
114.855621
 21
215.369221
 31
0.0
1001
ACAD
1000
ASC_BOUNDS
1002
{
1070
    19
1002
}
  0
LINE
  5
2C694
100
AcDbEntity
  8
K7
 62
     1
100
AcDbLine
 10
116.355621
 20
215.369221
 30
0.0
 11
116.355621
 21
213.369221
 31
0.0
1001
ACAD
1000
ASC_BOUNDS
1002
{
1070
    19
1002
}
  0
LINE
  5
2C695
100
AcDbEntity
  8
K7
  6
CONTINUOUS
 62
     1
100
AcDbLine
 10
118.855621
 20
212.369221
 30
0.0
 11
118.855621
 21
213.869221
 31
0.0
1001
ACAD
1000
ASC_BOUNDS
1002
{
1070
    19
1002
}
  0
LINE
  5
2C696
100
AcDbEntity
  8
K7
 62
     1
100
AcDbLine
 10
118.355621
 20
212.369221
 30
0.0
 11
118.355621
 21
213.369221
 31
0.0
1001
ACAD
1000
ASC_BOUNDS
1002
{
1070
    19
1002
}
  0
LINE
  5
2C6A9
100
AcDbEntity
  8
K7
  6
CONTINUOUS
 62
     1
100
AcDbLine
 10
149.855621
 20
212.369221
 30
0.0
 11
149.855621
 21
213.869221
 31
0.0
1001
ACAD
1000
ASC_BOUNDS
1002
{
1070
    19
1002
}
  0
LINE
  5
2C6AA
100
AcDbEntity
  8
K7
  6
CONTINUOUS
 62
     1
100
AcDbLine
 10
149.855621
 20
213.869221
 30
0.0
 11
152.355621
 21
213.869221
 31
0.0
1001
ACAD
1000
ASC_BOUNDS
1002
{
1070
    19
1002
}
  0
LINE
  5
2C6AB
100
AcDbEntity
  8
K7
 62
     1
100
AcDbLine
 10
150.355621
 20
213.369221
 30
0.0
 11
152.355621
 21
213.369221
 31
0.0
  0
LINE
  5
2C6AC
100
AcDbEntity
  8
K7
 62
     1
100
AcDbLine
 10
153.855621
 20
212.369221
 30
0.0
 11
150.355621
 21
212.369221
 31
0.0
  0
LINE
  5
2C6AD
100
AcDbEntity
  8
K7
 62
     1
100
AcDbLine
 10
150.355621
 20
212.369221
 30
0.0
 11
150.355621
 21
213.369221
 31
0.0
  0
LINE
  5
2C6AE
100
AcDbEntity
  8
K7
 62
     1
100
AcDbLine
 10
152.355621
 20
215.369221
 30
0.0
 11
152.355621
 21
213.369221
 31
0.0
  0
LINE
  5
2C6AF
100
AcDbEntity
  8
K7
 62
     1
100
AcDbLine
 10
149.455621
 20
218.369221
 30
0.0
 11
151.504218
 21
218.369221
 31
0.0
  0
ARC
  5
2C6B0
100
AcDbEntity
  8
K7
 62
     1
100
AcDbCircle
 10
149.455621
 20
218.969221
 30
0.0
 40
0.6
100
AcDbArc
 50
180.0
 51
270.0
  0
ARC
  5
2C6B1
100
AcDbEntity
  8
K7
 62
     1
100
AcDbCircle
 10
151.504218
 20
218.969221
 30
0.0
 40
0.6
100
AcDbArc
 50
270.0
 51
19.653824
  0
LINE
  5
2C6B3
100
AcDbEntity
  8
MASSE
  6
CONTINUOUS
 62
     1
100
AcDbLine
 10
149.723862
 20
230.45223
 30
0.0
 11
106.33436
 21
237.978451
 31
0.0
  0
LINE
  5
2C6B5
100
AcDbEntity
  8
K7
 62
     1
100
AcDbLine
 10
143.751468
 20
227.369221
 30
0.0
 11
115.160508
 21
227.369221
 31
0.0
  0
DIMENSION
  5
2C6B6
100
AcDbEntity
  8
MASSE
  6
CONTINUOUS
 62
     9
100
AcDbDimension
  2
*D11
 10
134.355621
 20
254.475142
 30
0.0
 11
114.105621
 21
255.815142
 31
0.0
 12
-417.96217
 22
32.840389
 32
0.0
 70
    32
  1
40.5
  3
STANDARD
100
AcDbAlignedDimension
 13
93.855621
 23
234.783983
 33
0.0
 14
134.355621
 24
238.947319
 34
0.0
100
AcDbRotatedDimension
1001
ACAD
1000
DSTYLE
1002
{
1070
   140
1040
2.5
1070
    74
1070
     0
1070
    73
1070
     0
1070
   146
1040
0.8
1070
    77
1070
     1
1070
    42
1040
0.1
1070
    44
1040
0.0
1070
    43
1040
7.0
1070
   141
1040
1.5
1070
    41
1040
2.5
1002
}
  0
LINE
  5
2C6B7
100
AcDbEntity
  8
MASSE
  6
CONTINUOUS
 62
     9
100
AcDbLine
 10
93.855621
 20
246.406043
 30
0.0
 11
93.855621
 21
221.549469
 31
0.0
  0
LINE
  5
2C6B8
100
AcDbEntity
  8
0
  6
STRICHPUNKT
 62
     9
100
AcDbLine
 10
93.855621
 20
243.994221
 30
0.0
 11
93.855621
 21
224.994221
 31
0.0
  0
ARC
  5
2C6B9
100
AcDbEntity
  8
1
 62
     1
100
AcDbCircle
 10
97.855621
 20
238.494221
 30
0.0
 40
8.5
100
AcDbArc
 50
0.0
 51
90.0
  0
LINE
  5
2C6BB
100
AcDbEntity
  8
MASSE
  6
CONTINUOUS
 62
     1
100
AcDbLine
 10
115.160508
 20
227.369221
 30
0.0
 11
105.630672
 21
227.369221
 31
0.0
  0
LINE
  5
2C6BE
100
AcDbEntity
  8
1
 62
     1
100
AcDbLine
 10
106.355621
 20
230.804128
 30
0.0
 11
106.355621
 21
238.494221
 31
0.0
  0
ARC
  5
2C6C4
100
AcDbEntity
  8
MASSE
  6
CONTINUOUS
 62
     1
100
AcDbCircle
 10
97.855621
 20
230.804128
 30
0.0
 40
8.5
100
AcDbArc
 50
296.0
 51
0.0
  0
LINE
  5
2C6C5
100
AcDbEntity
  8
K7
 62
     1
100
AcDbLine
 10
106.355621
 20
238.189459
 30
0.0
 11
106.355621
 21
236.189459
 31
0.0
1001
ACAD
1000
ASC_BOUNDS
1002
{
1070
    19
1002
}
  0
LINE
  5
2C6C6
100
AcDbEntity
  8
K7
 62
     1
100
AcDbLine
 10
106.355621
 20
235.836043
 30
0.0
 11
106.355621
 21
236.106043
 31
0.0
  0
LINE
  5
2C6C7
100
AcDbEntity
  8
K7
 62
     1
100
AcDbLine
 10
106.355621
 20
236.106043
 30
0.0
 11
106.355621
 21
235.836043
 31
0.0
  0
LINE
  5
2C6C8
100
AcDbEntity
  8
K7
 62
     1
100
AcDbLine
 10
106.355621
 20
235.836043
 30
0.0
 11
106.355621
 21
232.494221
 31
0.0
1001
ACAD
1000
ASC_BOUNDS
1002
{
1070
    19
1002
}
  0
LINE
  5
2C6CA
100
AcDbEntity
  8
1
 62
     1
100
AcDbLine
 10
89.855621
 20
246.994221
 30
0.0
 11
97.855621
 21
246.994221
 31
0.0
  0
LINE
  5
2C6CD
100
AcDbEntity
  8
K7
 62
     1
100
AcDbLine
 10
148.855621
 20
226.469221
 30
0.0
 11
143.751468
 21
227.369221
 31
0.0
  0
ARC
  5
2C6CF
100
AcDbEntity
  8
K7
 62
     1
100
AcDbCircle
 10
148.855621
 20
225.528191
 30
0.0
 40
5.0
100
AcDbArc
 50
0.0
 51
80.0
  0
ARC
  5
2C6D0
100
AcDbEntity
  8
K7
 62
     1
100
AcDbCircle
 10
153.355621
 20
222.069221
 30
0.0
 40
0.5
100
AcDbArc
 50
0.0
 51
90.0
  0
ARC
  5
2C6D1
100
AcDbEntity
  8
K7
 62
     1
100
AcDbCircle
 10
151.707024
 20
221.969221
 30
0.0
 40
0.6
100
AcDbArc
 50
90.0
 51
199.653824
  0
LINE
  5
2C6D2
100
AcDbEntity
  8
K7
 62
     1
100
AcDbLine
 10
153.855621
 20
222.569221
 30
0.0
 11
151.565124
 21
222.569221
 31
0.0
  0
LINE
  5
2C6D3
100
AcDbEntity
  8
K7
 62
     1
100
AcDbLine
 10
153.855621
 20
222.569221
 30
0.0
 11
153.855621
 21
225.528191
 31
0.0
  0
LINE
  5
2C71C
100
AcDbEntity
  8
MASSE
  6
STRICHPUNKT
 62
     2
100
AcDbLine
 39
1.0
 10
79.363761
 20
231.499112
 30
0.0
 11
94.819349
 21
216.084624
 31
0.0
  0
DIMENSION
  5
2C72B
100
AcDbEntity
  8
MASSE
  6
CONTINUOUS
100
AcDbDimension
  2
*D13
 10
93.855621
 20
254.452573
 30
0.0
 11
82.928461
 21
255.792573
 31
0.0
 12
-201.540631
 22
32.840389
 32
0.0
 70
    32
  1
22
  3
STANDARD
100
AcDbAlignedDimension
 13
72.0013
 23
237.100737
 33
0.0
 14
93.855621
 24
234.883983
 34
0.0
100
AcDbRotatedDimension
1001
ACAD
1000
DSTYLE
1002
{
1070
   140
1040
2.5
1070
    74
1070
     0
1070
    73
1070
     0
1070
   146
1040
0.8
1070
    77
1070
     1
1070
    42
1040
0.1
1070
    44
1040
0.0
1070
    43
1040
7.0
1070
   141
1040
1.5
1070
    41
1040
2.5
1002
}
  0
ARC
  5
2C98B
100
AcDbEntity
  8
K7
 62
     1
100
AcDbCircle
 10
149.455621
 20
218.969221
 30
0.0
 40
0.6
100
AcDbArc
 50
180.0
 51
270.0
  0
LINE
  5
2C990
100
AcDbEntity
  8
MASSE
  6
CONTINUOUS
 62
     1
100
AcDbLine
 10
151.004218
 20
218.369221
 30
0.0
 11
151.504218
 21
218.369221
 31
0.0
  0
LINE
  5
2C992
100
AcDbEntity
  8
K7
 62
     1
100
AcDbLine
 10
149.455621
 20
218.369221
 30
0.0
 11
151.004218
 21
218.369221
 31
0.0
  0
LINE
  5
2C9B0
100
AcDbEntity
  8
MASSE
  6
CONTINUOUS
 62
     1
100
AcDbLine
 10
129.855621
 20
209.369221
 30
0.0
 11
138.855621
 21
209.369221
 31
0.0
  0
LINE
  5
2C9B3
100
AcDbEntity
  8
MASSE
  6
CONTINUOUS
 62
     1
100
AcDbLine
 10
140.355621
 20
212.369221
 30
0.0
 11
140.355621
 21
210.869221
 31
0.0
  0
LINE
  5
2C9B4
100
AcDbEntity
  8
MASSE
  6
CONTINUOUS
 62
     1
100
AcDbLine
 10
128.355621
 20
212.369221
 30
0.0
 11
128.355621
 21
210.869221
 31
0.0
  0
LINE
  5
2C9B5
100
AcDbEntity
  8
MASSE
  6
CONTINUOUS
 62
     1
100
AcDbLine
 10
128.355621
 20
210.869221
 30
0.0
 11
129.855621
 21
209.369221
 31
0.0
  0
LINE
  5
2C9B6
100
AcDbEntity
  8
MASSE
  6
CONTINUOUS
 62
     1
100
AcDbLine
 10
138.855621
 20
209.369221
 30
0.0
 11
140.355621
 21
210.869221
 31
0.0
  0
LINE
  5
2C9B7
100
AcDbEntity
  8
MASSE
  6
CONTINUOUS
100
AcDbLine
 10
128.355621
 20
210.869221
 30
0.0
 11
140.355621
 21
210.869221
 31
0.0
  0
LINE
  5
2C9B9
100
AcDbEntity
  8
MASSE
  6
CONTINUOUS
 62
     1
100
AcDbLine
 10
76.355621
 20
209.494221
 30
0.0
 11
77.855621
 21
210.994221
 31
0.0
  0
LINE
  5
2C9BA
100
AcDbEntity
  8
MASSE
  6
CONTINUOUS
 62
     1
100
AcDbLine
 10
65.855621
 20
210.994221
 30
0.0
 11
67.355621
 21
209.494221
 31
0.0
  0
LINE
  5
2C9BB
100
AcDbEntity
  8
MASSE
  6
CONTINUOUS
 62
     1
100
AcDbLine
 10
67.355621
 20
209.494221
 30
0.0
 11
76.355621
 21
209.494221
 31
0.0
  0
LINE
  5
2C9BC
100
AcDbEntity
  8
MASSE
  6
CONTINUOUS
100
AcDbLine
 10
65.855621
 20
210.994221
 30
0.0
 11
77.855621
 21
210.994221
 31
0.0
  0
LINE
  5
2C9BD
100
AcDbEntity
  8
MASSE
  6
CONTINUOUS
 62
     1
100
AcDbLine
 10
65.855621
 20
212.494221
 30
0.0
 11
65.855621
 21
210.994221
 31
0.0
  0
LINE
  5
2C9BE
100
AcDbEntity
  8
MASSE
  6
CONTINUOUS
 62
     1
100
AcDbLine
 10
77.855621
 20
212.494221
 30
0.0
 11
77.855621
 21
210.994221
 31
0.0
  0
LINE
  5
2C9BF
100
AcDbEntity
  8
MASSE
  6
CONTINUOUS
100
AcDbLine
 10
134.355621
 20
239.047319
 30
0.0
 11
134.355621
 21
212.369221
 31
0.0
  0
LINE
  5
2C9C0
100
AcDbEntity
  8
MASSE
  6
CONTINUOUS
100
AcDbLine
 10
72.0013
 20
212.494221
 30
0.0
 11
72.0013
 21
237.400737
 31
0.0
  0
CIRCLE
  5
2C9C9
100
AcDbEntity
  8
MASSE
  6
CONTINUOUS
 62
     1
100
AcDbCircle
 10
93.755621
 20
234.783983
 30
0.0
 40
10.0
  0
LINE
  5
2C9CC
100
AcDbEntity
  8
MASSE
  6
CONTINUOUS
 62
     1
100
AcDbLine
 10
83.29805
 20
236.916532
 30
0.0
 11
83.37933
 21
227.494221
 31
0.0
  0
LINE
  5
2C9CD
100
AcDbEntity
  8
K7
 62
     1
100
AcDbLine
 10
114.855621
 20
215.369221
 30
0.0
 11
98.855621
 21
215.369221
 31
0.0
  0
ARC
  5
2C9CE
100
AcDbEntity
  8
K7
 62
     1
100
AcDbCircle
 10
151.565124
 20
222.069221
 30
0.0
 40
0.5
100
AcDbArc
 50
90.0
 51
199.653824
  0
ENDSEC
  0
SECTION
  2
OBJECTS
  0
DICTIONARY
  5
2801F
100
AcDbDictionary
  3
ACAD_GROUP
350
28020
  3
ACAD_MLINESTYLE
350
28021
  3
ACDBVARIABLEDICTIONARY
350
2BA60
  0
DICTIONARY
  5
28020
102
{ACAD_REACTORS
330
2801F
102
}
100
AcDbDictionary
  0
DICTIONARY
  5
28021
102
{ACAD_REACTORS
330
2801F
102
}
100
AcDbDictionary
  3
STANDARD
350
2802E
  0
DICTIONARY
  5
2BA60
102
{ACAD_REACTORS
330
2801F
102
}
100
AcDbDictionary
  3
SORTENTS
350
2BA61
  0
MLINESTYLE
  5
2802E
102
{ACAD_REACTORS
330
28021
102
}
100
AcDbMlineStyle
  2
STANDARD
 70
     0
  3

 62
     0
 51
90.0
 52
90.0
 71
     2
 49
0.5
 62
   256
  6
BYLAYER
 49
-0.5
 62
   256
  6
BYLAYER
  0
DICTIONARYVAR
  5
2BA61
102
{ACAD_REACTORS
330
2BA60
102
}
100
DictionaryVariables
280
     0
  1
96
  0
ENDSEC
  0
EOF
