  0
SECTION
  2
HEADER
  9
$ACADVER
  1
AC1014
  9
$ACADMAINTVER
 70
     0
  9
$DWGCODEPAGE
  3
ANSI_1252
  9
$INSBASE
 10
0.0
 20
0.0
 30
0.0
  9
$EXTMIN
 10
-435.238927
 20
-0.740455
 30
0.0
  9
$EXTMAX
 10
206.991558
 20
284.259545
 30
0.0
  9
$LIMMIN
 10
0.0
 20
0.0
  9
$LIMMAX
 10
410.0
 20
287.0
  9
$ORTHOMODE
 70
     1
  9
$REGENMODE
 70
     1
  9
$FILLMODE
 70
     1
  9
$QTEXTMODE
 70
     0
  9
$MIRRTEXT
 70
     1
  9
$DRAGMODE
 70
     2
  9
$LTSCALE
 40
25.0
  9
$OSMODE
 70
    39
  9
$ATTMODE
 70
     1
  9
$TEXTSIZE
 40
2.5
  9
$TRACEWID
 40
1.0
  9
$TEXTSTYLE
  7
STANDARD
  9
$CLAYER
  8
MASSE
  9
$CELTYPE
  6
CONTINUOUS
  9
$CECOLOR
 62
   256
  9
$CELTSCALE
 40
1.0
  9
$DELOBJ
 70
     1
  9
$DISPSILH
 70
     0
  9
$DIMSCALE
 40
1.0
  9
$DIMASZ
 40
2.5
  9
$DIMEXO
 40
0.1
  9
$DIMDLI
 40
7.0
  9
$DIMRND
 40
0.0
  9
$DIMDLE
 40
0.0
  9
$DIMEXE
 40
0.0
  9
$DIMTP
 40
0.0
  9
$DIMTM
 40
0.0
  9
$DIMTXT
 40
2.5
  9
$DIMCEN
 40
1.5
  9
$DIMTSZ
 40
0.0
  9
$DIMTOL
 70
     0
  9
$DIMLIM
 70
     0
  9
$DIMTIH
 70
     0
  9
$DIMTOH
 70
     0
  9
$DIMSE1
 70
     0
  9
$DIMSE2
 70
     0
  9
$DIMTAD
 70
     1
  9
$DIMZIN
 70
     0
  9
$DIMBLK
  1

  9
$DIMASO
 70
     1
  9
$DIMSHO
 70
     0
  9
$DIMPOST
  1

  9
$DIMAPOST
  1

  9
$DIMALT
 70
     0
  9
$DIMALTD
 70
     2
  9
$DIMALTF
 40
25.4
  9
$DIMLFAC
 40
1.0
  9
$DIMTOFL
 70
     0
  9
$DIMTVP
 40
0.0
  9
$DIMTIX
 70
     0
  9
$DIMSOXD
 70
     0
  9
$DIMSAH
 70
     0
  9
$DIMBLK1
  1

  9
$DIMBLK2
  1

  9
$DIMSTYLE
  2
STANDARD
  9
$DIMCLRD
 70
     0
  9
$DIMCLRE
 70
     0
  9
$DIMCLRT
 70
     0
  9
$DIMTFAC
 40
0.8
  9
$DIMGAP
 40
0.09
  9
$DIMJUST
 70
     0
  9
$DIMSD1
 70
     0
  9
$DIMSD2
 70
     0
  9
$DIMTOLJ
 70
     1
  9
$DIMTZIN
 70
     0
  9
$DIMALTZ
 70
     0
  9
$DIMALTTZ
 70
     0
  9
$DIMFIT
 70
     3
  9
$DIMUPT
 70
     0
  9
$DIMUNIT
 70
     2
  9
$DIMDEC
 70
     4
  9
$DIMTDEC
 70
     4
  9
$DIMALTU
 70
     2
  9
$DIMALTTD
 70
     2
  9
$DIMTXSTY
  7
STANDARD
  9
$DIMAUNIT
 70
     0
  9
$LUNITS
 70
     2
  9
$LUPREC
 70
     2
  9
$SKETCHINC
 40
1.0
  9
$FILLETRAD
 40
2.0
  9
$AUNITS
 70
     0
  9
$AUPREC
 70
     0
  9
$MENU
  1
acad
  9
$ELEVATION
 40
0.0
  9
$PELEVATION
 40
0.0
  9
$THICKNESS
 40
0.0
  9
$LIMCHECK
 70
     0
  9
$BLIPMODE
 70
     1
  9
$CHAMFERA
 40
0.0
  9
$CHAMFERB
 40
0.0
  9
$CHAMFERC
 40
0.0
  9
$CHAMFERD
 40
0.0
  9
$SKPOLY
 70
     0
  9
$TDCREATE
 40
2450270.392151388
  9
$TDUPDATE
 40
2454435.621078819
  9
$TDINDWG
 40
1.0114340278
  9
$TDUSRTIMER
 40
1.0114340278
  9
$USRTIMER
 70
     1
  9
$ANGBASE
 50
0.0
  9
$ANGDIR
 70
     0
  9
$PDMODE
 70
     0
  9
$PDSIZE
 40
0.0
  9
$PLINEWID
 40
0.0
  9
$COORDS
 70
     2
  9
$SPLFRAME
 70
     0
  9
$SPLINETYPE
 70
     6
  9
$SPLINESEGS
 70
     8
  9
$ATTDIA
 70
     0
  9
$ATTREQ
 70
     1
  9
$HANDLING
 70
     1
  9
$HANDSEED
  5
2D530
  9
$SURFTAB1
 70
     6
  9
$SURFTAB2
 70
     6
  9
$SURFTYPE
 70
     6
  9
$SURFU
 70
     6
  9
$SURFV
 70
     6
  9
$UCSNAME
  2

  9
$UCSORG
 10
0.0
 20
0.0
 30
0.0
  9
$UCSXDIR
 10
1.0
 20
0.0
 30
0.0
  9
$UCSYDIR
 10
0.0
 20
1.0
 30
0.0
  9
$PUCSNAME
  2

  9
$PUCSORG
 10
0.0
 20
0.0
 30
0.0
  9
$PUCSXDIR
 10
1.0
 20
0.0
 30
0.0
  9
$PUCSYDIR
 10
0.0
 20
1.0
 30
0.0
  9
$USERI1
 70
     0
  9
$USERI2
 70
     0
  9
$USERI3
 70
     0
  9
$USERI4
 70
     0
  9
$USERI5
 70
     0
  9
$USERR1
 40
0.0
  9
$USERR2
 40
0.0
  9
$USERR3
 40
0.0
  9
$USERR4
 40
0.0
  9
$USERR5
 40
0.0
  9
$WORLDVIEW
 70
     1
  9
$SHADEDGE
 70
     3
  9
$SHADEDIF
 70
    70
  9
$TILEMODE
 70
     1
  9
$MAXACTVP
 70
    16
  9
$PINSBASE
 10
0.0
 20
0.0
 30
0.0
  9
$PLIMCHECK
 70
     0
  9
$PEXTMIN
 10
1.000000E+20
 20
1.000000E+20
 30
1.000000E+20
  9
$PEXTMAX
 10
-1.000000E+20
 20
-1.000000E+20
 30
-1.000000E+20
  9
$PLIMMIN
 10
0.0
 20
0.0
  9
$PLIMMAX
 10
12.0
 20
9.0
  9
$UNITMODE
 70
     0
  9
$VISRETAIN
 70
     0
  9
$PLINEGEN
 70
     0
  9
$PSLTSCALE
 70
     0
  9
$TREEDEPTH
 70
  3020
  9
$PICKSTYLE
 70
     1
  9
$CMLSTYLE
  2
STANDARD
  9
$CMLJUST
 70
     0
  9
$CMLSCALE
 40
1.0
  9
$PROXYGRAPHICS
 70
     1
  9
$MEASUREMENT
 70
     0
  0
ENDSEC
  0
SECTION
  2
CLASSES
  0
CLASS
  1
DICTIONARYVAR
  2
AcDbDictionaryVar
  3
"AutoCAD"
 90
        0
280
     0
281
     0
  0
CLASS
  1
HATCH
  2
AcDbHatch
  3
"ACAD_SEDONA"
 90
        0
280
     0
281
     1
  0
CLASS
  1
LWPOLYLINE
  2
AcDbPolyline
  3
"AutoCAD"
 90
        0
280
     0
281
     1
  0
ENDSEC
  0
SECTION
  2
TABLES
  0
TABLE
  2
VPORT
  5
2801B
100
AcDbSymbolTable
 70
     3
  0
VPORT
  5
2D52F
100
AcDbSymbolTableRecord
100
AcDbViewportTableRecord
  2
*ACTIVE
 70
     0
 10
0.0
 20
0.0
 11
1.0
 21
1.0
 12
5.63474
 22
142.052651
 13
0.0
 23
0.0
 14
1.0
 24
1.0
 15
10.0
 25
10.0
 16
0.0
 26
0.0
 36
1.0
 17
0.0
 27
0.0
 37
0.0
 40
340.824045
 41
1.727941
 42
50.0
 43
0.0
 44
0.0
 50
0.0
 51
0.0
 71
     0
 72
   100
 73
     1
 74
     1
 75
     0
 76
     0
 77
     0
 78
     0
  0
ENDTAB
  0
TABLE
  2
LTYPE
  5
28018
100
AcDbSymbolTable
 70
     3
  0
LTYPE
  5
28025
100
AcDbSymbolTableRecord
100
AcDbLinetypeTableRecord
  2
BYBLOCK
 70
     0
  3

 72
    65
 73
     0
 40
0.0
  0
LTYPE
  5
28026
100
AcDbSymbolTableRecord
100
AcDbLinetypeTableRecord
  2
BYLAYER
 70
     0
  3

 72
    65
 73
     0
 40
0.0
  0
LTYPE
  5
28027
100
AcDbSymbolTableRecord
100
AcDbLinetypeTableRecord
  2
CONTINUOUS
 70
     0
  3
Solid Line
 72
    65
 73
     0
 40
0.0
  0
LTYPE
  5
2807D
100
AcDbSymbolTableRecord
100
AcDbLinetypeTableRecord
  2
STRICHPUNKT
 70
     0
  3
__ . __ . __ . __ . __ . __ . __ . __ . __ . __
 72
    65
 73
     4
 40
1.0
 49
0.5
 74
     0
 49
-0.25
 74
     0
 49
0.0
 74
     0
 49
-0.25
 74
     0
  0
LTYPE
  5
294E7
100
AcDbSymbolTableRecord
100
AcDbLinetypeTableRecord
  2
VERDECKT
 70
     0
  3
_ _ _ _ _ _ _ _ _ _ _ _ _ _ _ _ _ _ _ _ _ _ _
 72
    65
 73
     2
 40
0.375
 49
0.25
 74
     0
 49
-0.125
 74
     0
  0
ENDTAB
  0
TABLE
  2
LAYER
  5
28015
100
AcDbSymbolTable
 70
     9
  0
LAYER
  5
28022
100
AcDbSymbolTableRecord
100
AcDbLayerTableRecord
  2
0
 70
     0
 62
     9
  6
CONTINUOUS
  0
LAYER
  5
28046
100
AcDbSymbolTableRecord
100
AcDbLayerTableRecord
  2
ASHADE
 70
     0
 62
     1
  6
CONTINUOUS
  0
LAYER
  5
28048
100
AcDbSymbolTableRecord
100
AcDbLayerTableRecord
  2
1
 70
     0
 62
     5
  6
CONTINUOUS
  0
LAYER
  5
2804B
100
AcDbSymbolTableRecord
100
AcDbLayerTableRecord
  2
MASSE
 70
     0
 62
     9
  6
CONTINUOUS
  0
LAYER
  5
294EB
100
AcDbSymbolTableRecord
100
AcDbLayerTableRecord
  2
K7
 70
     0
 62
     2
  6
CONTINUOUS
  0
LAYER
  5
294EC
100
AcDbSymbolTableRecord
100
AcDbLayerTableRecord
  2
K3
 70
     0
 62
     4
  6
CONTINUOUS
  0
LAYER
  5
294ED
100
AcDbSymbolTableRecord
100
AcDbLayerTableRecord
  2
V
 70
     0
 62
     4
  6
VERDECKT
  0
LAYER
  5
2B4FD
100
AcDbSymbolTableRecord
100
AcDbLayerTableRecord
  2
DEFPOINTS
 70
     0
 62
     7
  6
CONTINUOUS
  0
LAYER
  5
2B5B4
100
AcDbSymbolTableRecord
100
AcDbLayerTableRecord
  2
KOPF
 70
     0
 62
     3
  6
CONTINUOUS
  0
ENDTAB
  0
TABLE
  2
STYLE
  5
28016
100
AcDbSymbolTable
 70
     2
  0
STYLE
  5
28023
100
AcDbSymbolTableRecord
100
AcDbTextStyleTableRecord
  2
STANDARD
 70
     0
 40
0.0
 41
1.0
 50
0.0
 71
     0
 42
2.5
  3
txt
  4

  0
STYLE
  5
2B5B5
100
AcDbSymbolTableRecord
100
AcDbTextStyleTableRecord
  2
ROMANS
 70
     0
 40
2.0
 41
1.0
 50
0.0
 71
     0
 42
2.0
  3
romans
  4

  0
ENDTAB
  0
TABLE
  2
VIEW
  5
28019
100
AcDbSymbolTable
 70
     0
  0
ENDTAB
  0
TABLE
  2
UCS
  5
2801A
100
AcDbSymbolTable
 70
     0
  0
ENDTAB
  0
TABLE
  2
APPID
  5
2801C
100
AcDbSymbolTable
 70
     2
  0
APPID
  5
28024
100
AcDbSymbolTableRecord
100
AcDbRegAppTableRecord
  2
ACAD
 70
     0
  0
APPID
  5
28045
100
AcDbSymbolTableRecord
100
AcDbRegAppTableRecord
  2
AVE_RENDER
 70
     0
  0
ENDTAB
  0
TABLE
  2
DIMSTYLE
  5
2801D
100
AcDbSymbolTable
 70
     1
  0
DIMSTYLE
105
28053
102
{ACAD_REACTORS
330
2BD5C
330
2BD37
330
2BD41
330
2BD49
330
2BD3F
330
2BD36
330
2BD35
330
2BDCF
330
2BDFF
330
2BE0C
330
2BE19
330
2BE26
330
2D3D9
330
2D3D0
330
2D3D8
330
2D3D7
102
}
100
AcDbSymbolTableRecord
100
AcDbDimStyleTableRecord
  2
STANDARD
 70
     0
  3

  4

  5

  6

  7

 40
1.0
 41
0.18
 42
0.0625
 43
0.38
 44
0.18
 45
0.0
 46
0.0
 47
0.0
 48
0.0
140
0.18
141
0.09
142
0.0
143
25.4
144
1.0
145
0.0
146
1.0
147
0.09
 71
     0
 72
     0
 73
     1
 74
     1
 75
     0
 76
     0
 77
     0
 78
     0
170
     0
171
     2
172
     0
173
     0
174
     0
175
     0
176
     0
177
     0
178
     0
270
     2
271
     4
272
     4
273
     2
274
     2
340
28023
275
     0
280
     0
281
     0
282
     0
283
     1
284
     0
285
     0
286
     0
287
     3
288
     0
  0
ENDTAB
  0
TABLE
  2
BLOCK_RECORD
  5
28014
100
AcDbSymbolTable
 70
    27
  0
BLOCK_RECORD
  5
2802B
100
AcDbSymbolTableRecord
100
AcDbBlockTableRecord
  2
*MODEL_SPACE
  0
BLOCK_RECORD
  5
28028
100
AcDbSymbolTableRecord
100
AcDbBlockTableRecord
  2
*PAPER_SPACE
  0
BLOCK_RECORD
  5
2802F
100
AcDbSymbolTableRecord
100
AcDbBlockTableRecord
  2
AVE_RENDER
  0
BLOCK_RECORD
  5
281CE
100
AcDbSymbolTableRecord
100
AcDbBlockTableRecord
  2
*X1
  0
BLOCK_RECORD
  5
281F2
100
AcDbSymbolTableRecord
100
AcDbBlockTableRecord
  2
*X2
  0
BLOCK_RECORD
  5
28218
100
AcDbSymbolTableRecord
100
AcDbBlockTableRecord
  2
*X3
  0
BLOCK_RECORD
  5
2B510
100
AcDbSymbolTableRecord
100
AcDbBlockTableRecord
  2
*D4
  0
BLOCK_RECORD
  5
2B52A
100
AcDbSymbolTableRecord
100
AcDbBlockTableRecord
  2
*D5
  0
BLOCK_RECORD
  5
2B614
100
AcDbSymbolTableRecord
100
AcDbBlockTableRecord
  2
*D6
  0
BLOCK_RECORD
  5
2B621
100
AcDbSymbolTableRecord
100
AcDbBlockTableRecord
  2
*D7
  0
BLOCK_RECORD
  5
2B878
100
AcDbSymbolTableRecord
100
AcDbBlockTableRecord
  2
*X8
  0
BLOCK_RECORD
  5
2B8DB
100
AcDbSymbolTableRecord
100
AcDbBlockTableRecord
  2
*X9
  0
BLOCK_RECORD
  5
2BD6E
100
AcDbSymbolTableRecord
100
AcDbBlockTableRecord
  2
*D10
  0
BLOCK_RECORD
  5
2BD7A
100
AcDbSymbolTableRecord
100
AcDbBlockTableRecord
  2
*D11
  0
BLOCK_RECORD
  5
2BD86
100
AcDbSymbolTableRecord
100
AcDbBlockTableRecord
  2
*D12
  0
BLOCK_RECORD
  5
2BD92
100
AcDbSymbolTableRecord
100
AcDbBlockTableRecord
  2
*D13
  0
BLOCK_RECORD
  5
2BD9E
100
AcDbSymbolTableRecord
100
AcDbBlockTableRecord
  2
*D14
  0
BLOCK_RECORD
  5
2BDAA
100
AcDbSymbolTableRecord
100
AcDbBlockTableRecord
  2
*D15
  0
BLOCK_RECORD
  5
2BDB7
100
AcDbSymbolTableRecord
100
AcDbBlockTableRecord
  2
*D16
  0
BLOCK_RECORD
  5
2BDD5
100
AcDbSymbolTableRecord
100
AcDbBlockTableRecord
  2
*D17
  0
BLOCK_RECORD
  5
2BDF3
100
AcDbSymbolTableRecord
100
AcDbBlockTableRecord
  2
*D18
  0
BLOCK_RECORD
  5
2BE00
100
AcDbSymbolTableRecord
100
AcDbBlockTableRecord
  2
*D19
  0
BLOCK_RECORD
  5
2BE0D
100
AcDbSymbolTableRecord
100
AcDbBlockTableRecord
  2
*D20
  0
BLOCK_RECORD
  5
2BE1A
100
AcDbSymbolTableRecord
100
AcDbBlockTableRecord
  2
*D21
  0
BLOCK_RECORD
  5
2BE2B
100
AcDbSymbolTableRecord
100
AcDbBlockTableRecord
  2
DINA4MK
  0
BLOCK_RECORD
  5
2D4B3
100
AcDbSymbolTableRecord
100
AcDbBlockTableRecord
  2
*D23
  0
BLOCK_RECORD
  5
2D4BF
100
AcDbSymbolTableRecord
100
AcDbBlockTableRecord
  2
*D24
  0
BLOCK_RECORD
  5
2D4CB
100
AcDbSymbolTableRecord
100
AcDbBlockTableRecord
  2
*D25
  0
BLOCK_RECORD
  5
2D4D7
100
AcDbSymbolTableRecord
100
AcDbBlockTableRecord
  2
*D26
  0
ENDTAB
  0
ENDSEC
  0
SECTION
  2
BLOCKS
  0
BLOCK
  5
28051
100
AcDbEntity
  8
0
100
AcDbBlockBegin
  2
*MODEL_SPACE
 70
     0
 10
0.0
 20
0.0
 30
0.0
  3
*MODEL_SPACE
  1

  0
ENDBLK
  5
28052
100
AcDbEntity
  8
0
100
AcDbBlockEnd
  0
BLOCK
  5
2804F
100
AcDbEntity
 67
     1
  8
0
100
AcDbBlockBegin
  2
*PAPER_SPACE
 70
     0
 10
0.0
 20
0.0
 30
0.0
  3
*PAPER_SPACE
  1

  0
ENDBLK
  5
28050
100
AcDbEntity
 67
     1
  8
0
100
AcDbBlockEnd
  0
BLOCK
  5
1
100
AcDbEntity
  8
0
100
AcDbBlockBegin
  2
AVE_RENDER
 70
     0
 10
0.0
 20
0.0
 30
0.0
  3
AVE_RENDER
  1
AVE_RENDER
  0
ENDBLK
  5
2
100
AcDbEntity
  8
0
100
AcDbBlockEnd
  0
BLOCK
  5
281F0
100
AcDbEntity
  8
0
100
AcDbBlockBegin
  2
*X1
 70
     1
 10
0.0
 20
0.0
 30
0.0
  3
*X1
  1

  0
LINE
  5
281CF
100
AcDbEntity
  8
0
  6
CONTINUOUS
 62
     0
100
AcDbLine
 10
-104.312523
 20
123.729414
 30
0.0
 11
-103.336971
 21
124.704966
 31
0.0
  0
LINE
  5
281D0
100
AcDbEntity
  8
0
  6
CONTINUOUS
 62
     0
100
AcDbLine
 10
-105.196407
 20
124.613297
 30
0.0
 11
-103.336971
 21
126.472733
 31
0.0
  0
LINE
  5
281D1
100
AcDbEntity
  8
0
  6
CONTINUOUS
 62
     0
100
AcDbLine
 10
-106.08029
 20
125.497181
 30
0.0
 11
-103.336971
 21
128.2405
 31
0.0
  0
LINE
  5
281D2
100
AcDbEntity
  8
0
  6
CONTINUOUS
 62
     0
100
AcDbLine
 10
-101.014936
 20
130.562535
 30
0.0
 11
-100.586971
 21
130.9905
 31
0.0
  0
LINE
  5
281D3
100
AcDbEntity
  8
0
  6
CONTINUOUS
 62
     0
100
AcDbLine
 10
-106.964174
 20
126.381064
 30
0.0
 11
-103.336971
 21
130.008267
 31
0.0
  0
LINE
  5
281D4
100
AcDbEntity
  8
0
  6
CONTINUOUS
 62
     0
100
AcDbLine
 10
-102.782703
 20
130.562535
 30
0.0
 11
-100.586971
 21
132.758267
 31
0.0
  0
LINE
  5
281D5
100
AcDbEntity
  8
0
  6
CONTINUOUS
 62
     0
100
AcDbLine
 10
-107.848057
 20
127.264948
 30
0.0
 11
-100.586971
 21
134.526034
 31
0.0
  0
LINE
  5
281D6
100
AcDbEntity
  8
0
  6
CONTINUOUS
 62
     0
100
AcDbLine
 10
-108.731941
 20
128.148831
 30
0.0
 11
-101.318236
 21
135.562535
 31
0.0
  0
LINE
  5
281D7
100
AcDbEntity
  8
0
  6
CONTINUOUS
 62
     0
100
AcDbLine
 10
-109.615824
 20
129.032715
 30
0.0
 11
-103.086003
 21
135.562535
 31
0.0
  0
LINE
  5
281D8
100
AcDbEntity
  8
0
  6
CONTINUOUS
 62
     0
100
AcDbLine
 10
-110.499708
 20
129.916598
 30
0.0
 11
-104.85377
 21
135.562535
 31
0.0
  0
LINE
  5
281D9
100
AcDbEntity
  8
0
  6
CONTINUOUS
 62
     0
100
AcDbLine
 10
-111.383591
 20
130.800482
 30
0.0
 11
-106.621537
 21
135.562535
 31
0.0
  0
LINE
  5
281DA
100
AcDbEntity
  8
0
  6
CONTINUOUS
 62
     0
100
AcDbLine
 10
-111.913921
 20
132.037918
 30
0.0
 11
-108.141292
 21
135.810548
 31
0.0
  0
LINE
  5
281DB
100
AcDbEntity
  8
0
  6
CONTINUOUS
 62
     0
100
AcDbLine
 10
-112.797805
 20
132.921802
 30
0.0
 11
-110.172095
 21
135.547512
 31
0.0
  0
LINE
  5
281DC
100
AcDbEntity
  8
0
  6
CONTINUOUS
 62
     0
100
AcDbLine
 10
-110.141292
 20
135.578315
 30
0.0
 11
-107.157071
 21
138.562535
 31
0.0
  0
LINE
  5
281DD
100
AcDbEntity
  8
0
  6
CONTINUOUS
 62
     0
100
AcDbLine
 10
-113.681688
 20
133.805685
 30
0.0
 11
-113.622962
 21
133.864411
 31
0.0
  0
LINE
  5
281DE
100
AcDbEntity
  8
0
  6
CONTINUOUS
 62
     0
100
AcDbLine
 10
-110.141292
 20
137.346082
 30
0.0
 11
-108.924838
 21
138.562535
 31
0.0
  0
LINE
  5
281DF
100
AcDbEntity
  8
0
  6
CONTINUOUS
 62
     0
100
AcDbLine
 10
-92.086971
 20
134.187199
 30
0.0
 11
-90.711635
 21
135.562535
 31
0.0
  0
LINE
  5
281E0
100
AcDbEntity
  8
0
  6
CONTINUOUS
 62
     0
100
AcDbLine
 10
-92.086971
 20
132.419432
 30
0.0
 11
-88.943868
 21
135.562535
 31
0.0
  0
LINE
  5
281E1
100
AcDbEntity
  8
0
  6
CONTINUOUS
 62
     0
100
AcDbLine
 10
-92.086971
 20
130.651666
 30
0.0
 11
-87.176101
 21
135.562535
 31
0.0
  0
LINE
  5
281E2
100
AcDbEntity
  8
0
  6
CONTINUOUS
 62
     0
100
AcDbLine
 10
-85.176101
 20
137.562535
 30
0.0
 11
-84.176101
 21
138.562535
 31
0.0
  0
LINE
  5
281E3
100
AcDbEntity
  8
0
  6
CONTINUOUS
 62
     0
100
AcDbLine
 10
-90.408334
 20
130.562535
 30
0.0
 11
-85.408334
 21
135.562535
 31
0.0
  0
LINE
  5
281E4
100
AcDbEntity
  8
0
  6
CONTINUOUS
 62
     0
100
AcDbLine
 10
-84.141292
 20
136.829577
 30
0.0
 11
-82.443887
 21
138.526982
 31
0.0
  0
LINE
  5
281E5
100
AcDbEntity
  8
0
  6
CONTINUOUS
 62
     0
100
AcDbLine
 10
-89.336971
 20
129.866132
 30
0.0
 11
-82.141292
 21
137.061811
 31
0.0
  0
LINE
  5
281E6
100
AcDbEntity
  8
0
  6
CONTINUOUS
 62
     0
100
AcDbLine
 10
-89.336971
 20
128.098365
 30
0.0
 11
-82.141292
 21
135.294044
 31
0.0
  0
LINE
  5
281E7
100
AcDbEntity
  8
0
  6
CONTINUOUS
 62
     0
100
AcDbLine
 10
-89.336971
 20
126.330598
 30
0.0
 11
-82.141292
 21
133.526277
 31
0.0
  0
LINE
  5
281E8
100
AcDbEntity
  8
0
  6
CONTINUOUS
 62
     0
100
AcDbLine
 10
-89.336971
 20
124.562831
 30
0.0
 11
-87.641292
 21
126.25851
 31
0.0
  0
LINE
  5
281E9
100
AcDbEntity
  8
0
  6
CONTINUOUS
 62
     0
100
AcDbLine
 10
-86.237266
 20
127.662535
 30
0.0
 11
-82.141292
 21
131.75851
 31
0.0
  0
LINE
  5
281EA
100
AcDbEntity
  8
0
  6
CONTINUOUS
 62
     0
100
AcDbLine
 10
-88.569499
 20
123.562535
 30
0.0
 11
-87.641292
 21
124.490743
 31
0.0
  0
LINE
  5
281EB
100
AcDbEntity
  8
0
  6
CONTINUOUS
 62
     0
100
AcDbLine
 10
-84.469499
 20
127.662535
 30
0.0
 11
-82.141292
 21
129.990743
 31
0.0
  0
LINE
  5
281EC
100
AcDbEntity
  8
0
  6
CONTINUOUS
 62
     0
100
AcDbLine
 10
-85.641292
 20
124.722976
 30
0.0
 11
-84.701732
 21
125.662535
 31
0.0
  0
LINE
  5
281ED
100
AcDbEntity
  8
0
  6
CONTINUOUS
 62
     0
100
AcDbLine
 10
-84.141292
 20
126.222976
 30
0.0
 11
-82.141292
 21
128.222976
 31
0.0
  0
LINE
  5
281EE
100
AcDbEntity
  8
0
  6
CONTINUOUS
 62
     0
100
AcDbLine
 10
-84.933965
 20
123.662535
 30
0.0
 11
-82.141292
 21
126.455209
 31
0.0
  0
LINE
  5
281EF
100
AcDbEntity
  8
0
  6
CONTINUOUS
 62
     0
100
AcDbLine
 10
-83.166198
 20
123.662535
 30
0.0
 11
-82.141292
 21
124.687442
 31
0.0
  0
ENDBLK
  5
281F1
100
AcDbEntity
  8
0
100
AcDbBlockEnd
  0
BLOCK
  5
28216
100
AcDbEntity
  8
0
100
AcDbBlockBegin
  2
*X2
 70
     1
 10
0.0
 20
0.0
 30
0.0
  3
*X2
  1

  0
LINE
  5
281F3
100
AcDbEntity
  8
0
  6
CONTINUOUS
 62
     0
100
AcDbLine
 10
-128.352805
 20
106.7602
 30
0.0
 11
-124.063314
 21
111.049691
 31
0.0
  0
LINE
  5
281F4
100
AcDbEntity
  8
0
  6
CONTINUOUS
 62
     0
100
AcDbLine
 10
-112.615948
 20
122.497057
 30
0.0
 11
-111.356735
 21
123.75627
 31
0.0
  0
LINE
  5
281F5
100
AcDbEntity
  8
0
  6
CONTINUOUS
 62
     0
100
AcDbLine
 10
-129.14079
 20
107.739982
 30
0.0
 11
-124.845487
 21
112.035284
 31
0.0
  0
LINE
  5
281F6
100
AcDbEntity
  8
0
  6
CONTINUOUS
 62
     0
100
AcDbLine
 10
-113.601541
 20
123.279231
 30
0.0
 11
-112.240618
 21
124.640154
 31
0.0
  0
LINE
  5
281F7
100
AcDbEntity
  8
0
  6
CONTINUOUS
 62
     0
100
AcDbLine
 10
-129.791219
 20
108.85732
 30
0.0
 11
-125.48235
 21
113.166188
 31
0.0
  0
LINE
  5
281F8
100
AcDbEntity
  8
0
  6
CONTINUOUS
 62
     0
100
AcDbLine
 10
-114.732445
 20
123.916094
 30
0.0
 11
-113.124502
 21
125.524037
 31
0.0
  0
LINE
  5
281F9
100
AcDbEntity
  8
0
  6
CONTINUOUS
 62
     0
100
AcDbLine
 10
-130.285905
 20
110.130401
 30
0.0
 11
-125.952244
 21
114.464062
 31
0.0
  0
LINE
  5
281FA
100
AcDbEntity
  8
0
  6
CONTINUOUS
 62
     0
100
AcDbLine
 10
-116.030318
 20
124.385988
 30
0.0
 11
-114.008385
 21
126.407921
 31
0.0
  0
LINE
  5
281FB
100
AcDbEntity
  8
0
  6
CONTINUOUS
 62
     0
100
AcDbLine
 10
-130.586357
 20
111.597716
 30
0.0
 11
-126.207565
 21
115.976508
 31
0.0
  0
LINE
  5
281FC
100
AcDbEntity
  8
0
  6
CONTINUOUS
 62
     0
100
AcDbLine
 10
-116.625556
 20
125.558517
 30
0.0
 11
-114.892269
 21
127.291804
 31
0.0
  0
LINE
  5
281FD
100
AcDbEntity
  8
0
  6
CONTINUOUS
 62
     0
100
AcDbLine
 10
-130.641292
 20
113.310548
 30
0.0
 11
-126.130357
 21
117.821482
 31
0.0
  0
LINE
  5
281FE
100
AcDbEntity
  8
0
  6
CONTINUOUS
 62
     0
100
AcDbLine
 10
-117.616092
 20
126.335747
 30
0.0
 11
-116.156562
 21
127.795278
 31
0.0
  0
LINE
  5
281FF
100
AcDbEntity
  8
0
  6
CONTINUOUS
 62
     0
100
AcDbLine
 10
-130.641292
 20
115.078315
 30
0.0
 11
-125.191887
 21
120.52772
 31
0.0
  0
LINE
  5
28200
100
AcDbEntity
  8
0
  6
CONTINUOUS
 62
     0
100
AcDbLine
 10
-122.093976
 20
123.62563
 30
0.0
 11
-117.040445
 21
128.679161
 31
0.0
  0
LINE
  5
28201
100
AcDbEntity
  8
0
  6
CONTINUOUS
 62
     0
100
AcDbLine
 10
-130.641292
 20
116.846082
 30
0.0
 11
-117.924329
 21
129.563045
 31
0.0
  0
LINE
  5
28202
100
AcDbEntity
  8
0
  6
CONTINUOUS
 62
     0
100
AcDbLine
 10
-130.641292
 20
118.613849
 30
0.0
 11
-118.808212
 21
130.446928
 31
0.0
  0
LINE
  5
28203
100
AcDbEntity
  8
0
  6
CONTINUOUS
 62
     0
100
AcDbLine
 10
-130.640298
 20
120.38261
 30
0.0
 11
-120.524697
 21
130.49821
 31
0.0
  0
LINE
  5
28204
100
AcDbEntity
  8
0
  6
CONTINUOUS
 62
     0
100
AcDbLine
 10
-130.3566
 20
122.434074
 30
0.0
 11
-123.975565
 21
128.815109
 31
0.0
  0
LINE
  5
28205
100
AcDbEntity
  8
0
  6
CONTINUOUS
 62
     0
100
AcDbLine
 10
-127.433895
 20
105.911343
 30
0.0
 11
-123.14363
 21
110.201608
 31
0.0
  0
LINE
  5
28206
100
AcDbEntity
  8
0
  6
CONTINUOUS
 62
     0
100
AcDbLine
 10
-111.767864
 20
121.577374
 30
0.0
 11
-110.472851
 21
122.872387
 31
0.0
  0
LINE
  5
28207
100
AcDbEntity
  8
0
  6
CONTINUOUS
 62
     0
100
AcDbLine
 10
-126.381688
 20
105.195783
 30
0.0
 11
-122.083758
 21
109.493713
 31
0.0
  0
LINE
  5
28208
100
AcDbEntity
  8
0
  6
CONTINUOUS
 62
     0
100
AcDbLine
 10
-111.05997
 20
120.517501
 30
0.0
 11
-109.588968
 21
121.988503
 31
0.0
  0
LINE
  5
28209
100
AcDbEntity
  8
0
  6
CONTINUOUS
 62
     0
100
AcDbLine
 10
-125.183938
 20
104.625766
 30
0.0
 11
-120.869432
 21
108.940272
 31
0.0
  0
LINE
  5
2820A
100
AcDbEntity
  8
0
  6
CONTINUOUS
 62
     0
100
AcDbLine
 10
-110.506529
 20
119.303175
 30
0.0
 11
-108.705084
 21
121.10462
 31
0.0
  0
LINE
  5
2820B
100
AcDbEntity
  8
0
  6
CONTINUOUS
 62
     0
100
AcDbLine
 10
-123.813326
 20
104.228611
 30
0.0
 11
-119.467937
 21
108.574
 31
0.0
  0
LINE
  5
2820C
100
AcDbEntity
  8
0
  6
CONTINUOUS
 62
     0
100
AcDbLine
 10
-110.140257
 20
117.90168
 30
0.0
 11
-107.821201
 21
120.220736
 31
0.0
  0
LINE
  5
2820D
100
AcDbEntity
  8
0
  6
CONTINUOUS
 62
     0
100
AcDbLine
 10
-122.211346
 20
104.062824
 30
0.0
 11
-117.805167
 21
108.469003
 31
0.0
  0
LINE
  5
2820E
100
AcDbEntity
  8
0
  6
CONTINUOUS
 62
     0
100
AcDbLine
 10
-110.035259
 20
116.238911
 30
0.0
 11
-107.630303
 21
118.643867
 31
0.0
  0
LINE
  5
2820F
100
AcDbEntity
  8
0
  6
CONTINUOUS
 62
     0
100
AcDbLine
 10
-120.443868
 20
104.062535
 30
0.0
 11
-115.657747
 21
108.848656
 31
0.0
  0
LINE
  5
28210
100
AcDbEntity
  8
0
  6
CONTINUOUS
 62
     0
100
AcDbLine
 10
-110.414912
 20
114.091491
 30
0.0
 11
-107.612206
 21
116.894197
 31
0.0
  0
LINE
  5
28211
100
AcDbEntity
  8
0
  6
CONTINUOUS
 62
     0
100
AcDbLine
 10
-118.676101
 20
104.062535
 30
0.0
 11
-107.594108
 21
115.144528
 31
0.0
  0
LINE
  5
28212
100
AcDbEntity
  8
0
  6
CONTINUOUS
 62
     0
100
AcDbLine
 10
-116.908334
 20
104.062535
 30
0.0
 11
-107.36568
 21
113.605189
 31
0.0
  0
LINE
  5
28213
100
AcDbEntity
  8
0
  6
CONTINUOUS
 62
     0
100
AcDbLine
 10
-115.140567
 20
104.062535
 30
0.0
 11
-105.694145
 21
113.508957
 31
0.0
  0
LINE
  5
28214
100
AcDbEntity
  8
0
  6
CONTINUOUS
 62
     0
100
AcDbLine
 10
-113.334416
 20
104.100919
 30
0.0
 11
-105.679675
 21
111.75566
 31
0.0
  0
LINE
  5
28215
100
AcDbEntity
  8
0
  6
CONTINUOUS
 62
     0
100
AcDbLine
 10
-111.00544
 20
104.662128
 30
0.0
 11
-106.240884
 21
109.426684
 31
0.0
  0
ENDBLK
  5
28217
100
AcDbEntity
  8
0
100
AcDbBlockEnd
  0
BLOCK
  5
28223
100
AcDbEntity
  8
0
100
AcDbBlockBegin
  2
*X3
 70
     1
 10
0.0
 20
0.0
 30
0.0
  3
*X3
  1

  0
LINE
  5
28219
100
AcDbEntity
  8
0
  6
CONTINUOUS
 62
     0
100
AcDbLine
 10
-1843.647686
 20
-519.856731
 30
0.0
 11
-1845.997135
 21
-517.507281
 31
0.0
  0
LINE
  5
2821A
100
AcDbEntity
  8
0
  6
CONTINUOUS
 62
     0
100
AcDbLine
 10
-1844.53931
 20
-520.732873
 30
0.0
 11
-1846.559075
 21
-518.713108
 31
0.0
  0
LINE
  5
2821B
100
AcDbEntity
  8
0
  6
CONTINUOUS
 62
     0
100
AcDbLine
 10
-1844.995682
 20
-522.044268
 30
0.0
 11
-1847.109273
 21
-519.930677
 31
0.0
  0
LINE
  5
2821C
100
AcDbEntity
  8
0
  6
CONTINUOUS
 62
     0
100
AcDbLine
 10
-1844.713777
 20
-524.09394
 30
0.0
 11
-1847.64757
 21
-521.160147
 31
0.0
  0
LINE
  5
2821D
100
AcDbEntity
  8
0
  6
CONTINUOUS
 62
     0
100
AcDbLine
 10
-1846.481544
 20
-524.09394
 30
0.0
 11
-1848.173802
 21
-522.401682
 31
0.0
  0
LINE
  5
2821E
100
AcDbEntity
  8
0
  6
CONTINUOUS
 62
     0
100
AcDbLine
 10
-1848.249311
 20
-524.09394
 30
0.0
 11
-1848.687794
 21
-523.655457
 31
0.0
  0
LINE
  5
2821F
100
AcDbEntity
  8
0
  6
CONTINUOUS
 62
     0
100
AcDbLine
 10
-1842.336291
 20
-519.400359
 30
0.0
 11
-1845.4236
 21
-516.313049
 31
0.0
  0
LINE
  5
28220
100
AcDbEntity
  8
0
  6
CONTINUOUS
 62
     0
100
AcDbLine
 10
-1840.329585
 20
-519.639297
 30
0.0
 11
-1844.736071
 21
-515.232812
 31
0.0
  0
LINE
  5
28221
100
AcDbEntity
  8
0
  6
CONTINUOUS
 62
     0
100
AcDbLine
 10
-1840.348061
 20
-517.853055
 30
0.0
 11
-1843.385993
 21
-514.815122
 31
0.0
  0
LINE
  5
28222
100
AcDbEntity
  8
0
  6
CONTINUOUS
 62
     0
100
AcDbLine
 10
-1840.366536
 20
-516.066812
 30
0.0
 11
-1842.035915
 21
-514.397433
 31
0.0
  0
ENDBLK
  5
28224
100
AcDbEntity
  8
0
100
AcDbBlockEnd
  0
BLOCK
  5
2B511
100
AcDbEntity
  8
0
100
AcDbBlockBegin
  2
*D4
 70
     1
 10
0.0
 20
0.0
 30
0.0
  3
*D4
  1

  0
LINE
  5
2B512
100
AcDbEntity
  8
0
  6
BYBLOCK
 62
     0
100
AcDbLine
 10
-777.642534
 20
750.135071
 30
0.0
 11
-777.642534
 21
767.117036
 31
0.0
  0
LINE
  5
2B513
100
AcDbEntity
  8
0
  6
BYBLOCK
 62
     0
100
AcDbLine
 10
-755.590681
 20
750.135071
 30
0.0
 11
-755.590681
 21
767.117036
 31
0.0
  0
LINE
  5
2B514
100
AcDbEntity
  8
0
  6
BYBLOCK
 62
     0
100
AcDbLine
 10
-775.142534
 20
767.117036
 30
0.0
 11
-758.090681
 21
767.117036
 31
0.0
  0
SOLID
  5
2B515
100
AcDbEntity
  8
0
  6
BYBLOCK
 62
     0
100
AcDbTrace
 10
-775.142534
 20
767.533703
 30
0.0
 11
-775.142534
 21
766.700369
 31
0.0
 12
-777.642534
 22
767.117036
 32
0.0
 13
-777.642534
 23
767.117036
 33
0.0
  0
SOLID
  5
2B516
100
AcDbEntity
  8
0
  6
BYBLOCK
 62
     0
100
AcDbTrace
 10
-758.090681
 20
767.533703
 30
0.0
 11
-758.090681
 21
766.700369
 31
0.0
 12
-755.590681
 22
767.117036
 32
0.0
 13
-755.590681
 23
767.117036
 33
0.0
  0
MTEXT
  5
2B517
100
AcDbEntity
  8
0
  6
BYBLOCK
 62
     0
100
AcDbMText
 10
-766.616608
 20
768.457036
 30
0.0
 40
2.5
 41
0.0
 71
     5
 72
     5
  1
\A1;22
  0
POINT
  5
2B518
100
AcDbEntity
  8
DEFPOINTS
  6
BYBLOCK
 62
     0
100
AcDbPoint
 10
-777.642534
 20
750.035071
 30
0.0
  0
POINT
  5
2B519
100
AcDbEntity
  8
DEFPOINTS
  6
BYBLOCK
 62
     0
100
AcDbPoint
 10
-755.590681
 20
750.035071
 30
0.0
  0
POINT
  5
2B51A
100
AcDbEntity
  8
DEFPOINTS
  6
BYBLOCK
 62
     0
100
AcDbPoint
 10
-755.590681
 20
767.117036
 30
0.0
  0
ENDBLK
  5
2B51B
100
AcDbEntity
  8
0
100
AcDbBlockEnd
  0
BLOCK
  5
2B52B
100
AcDbEntity
  8
0
100
AcDbBlockBegin
  2
*D5
 70
     1
 10
0.0
 20
0.0
 30
0.0
  3
*D5
  1

  0
LINE
  5
2B52C
100
AcDbEntity
  8
0
  6
BYBLOCK
 62
     0
100
AcDbLine
 10
-789.853404
 20
725.328555
 30
0.0
 11
-805.009115
 21
725.328555
 31
0.0
  0
LINE
  5
2B52D
100
AcDbEntity
  8
0
  6
BYBLOCK
 62
     0
100
AcDbLine
 10
-755.888213
 20
747.618317
 30
0.0
 11
-805.009115
 21
747.618317
 31
0.0
  0
LINE
  5
2B52E
100
AcDbEntity
  8
0
  6
BYBLOCK
 62
     0
100
AcDbLine
 10
-805.009115
 20
727.828555
 30
0.0
 11
-805.009115
 21
745.118317
 31
0.0
  0
SOLID
  5
2B52F
100
AcDbEntity
  8
0
  6
BYBLOCK
 62
     0
100
AcDbTrace
 10
-805.425782
 20
727.828555
 30
0.0
 11
-804.592448
 21
727.828555
 31
0.0
 12
-805.009115
 22
725.328555
 32
0.0
 13
-805.009115
 23
725.328555
 33
0.0
  0
SOLID
  5
2B530
100
AcDbEntity
  8
0
  6
BYBLOCK
 62
     0
100
AcDbTrace
 10
-805.425782
 20
745.118317
 30
0.0
 11
-804.592448
 21
745.118317
 31
0.0
 12
-805.009115
 22
747.618317
 32
0.0
 13
-805.009115
 23
747.618317
 33
0.0
  0
MTEXT
  5
2B531
100
AcDbEntity
  8
0
  6
BYBLOCK
 62
     0
100
AcDbMText
 10
-806.349115
 20
736.473436
 30
0.0
 40
2.5
 41
0.0
 71
     5
 72
     5
  1
\A1;22
 11
0.0
 21
1.0
 31
0.0
  0
POINT
  5
2B532
100
AcDbEntity
  8
DEFPOINTS
  6
BYBLOCK
 62
     0
100
AcDbPoint
 10
-789.753404
 20
725.328555
 30
0.0
  0
POINT
  5
2B533
100
AcDbEntity
  8
DEFPOINTS
  6
BYBLOCK
 62
     0
100
AcDbPoint
 10
-755.788213
 20
747.618317
 30
0.0
  0
POINT
  5
2B534
100
AcDbEntity
  8
DEFPOINTS
  6
BYBLOCK
 62
     0
100
AcDbPoint
 10
-805.009115
 20
747.618317
 30
0.0
  0
ENDBLK
  5
2B535
100
AcDbEntity
  8
0
100
AcDbBlockEnd
  0
BLOCK
  5
2B615
100
AcDbEntity
  8
0
100
AcDbBlockBegin
  2
*D6
 70
     1
 10
0.0
 20
0.0
 30
0.0
  3
*D6
  1

  0
LINE
  5
2B616
100
AcDbEntity
  8
0
  6
BYBLOCK
 62
     0
100
AcDbLine
 10
-114.619026
 20
232.953843
 30
0.0
 11
-114.619026
 21
252.545002
 31
0.0
  0
LINE
  5
2B617
100
AcDbEntity
  8
0
  6
BYBLOCK
 62
     0
100
AcDbLine
 10
-74.119026
 20
237.117179
 30
0.0
 11
-74.119026
 21
252.545002
 31
0.0
  0
LINE
  5
2B618
100
AcDbEntity
  8
0
  6
BYBLOCK
 62
     0
100
AcDbLine
 10
-112.119026
 20
252.545002
 30
0.0
 11
-76.619026
 21
252.545002
 31
0.0
  0
SOLID
  5
2B619
100
AcDbEntity
  8
0
  6
BYBLOCK
 62
     0
100
AcDbTrace
 10
-112.119026
 20
252.961669
 30
0.0
 11
-112.119026
 21
252.128336
 31
0.0
 12
-114.619026
 22
252.545002
 32
0.0
 13
-114.619026
 23
252.545002
 33
0.0
  0
SOLID
  5
2B61A
100
AcDbEntity
  8
0
  6
BYBLOCK
 62
     0
100
AcDbTrace
 10
-76.619026
 20
252.961669
 30
0.0
 11
-76.619026
 21
252.128336
 31
0.0
 12
-74.119026
 22
252.545002
 32
0.0
 13
-74.119026
 23
252.545002
 33
0.0
  0
MTEXT
  5
2B61B
100
AcDbEntity
  8
0
  6
BYBLOCK
 62
     0
100
AcDbMText
 10
-94.369026
 20
253.885002
 30
0.0
 40
2.5
 41
0.0
 71
     5
 72
     5
  1
\A1;40.5
  0
POINT
  5
2B61C
100
AcDbEntity
  8
DEFPOINTS
  6
BYBLOCK
 62
     0
100
AcDbPoint
 10
-114.619026
 20
232.853843
 30
0.0
  0
POINT
  5
2B61D
100
AcDbEntity
  8
DEFPOINTS
  6
BYBLOCK
 62
     0
100
AcDbPoint
 10
-74.119026
 20
237.017179
 30
0.0
  0
POINT
  5
2B61E
100
AcDbEntity
  8
DEFPOINTS
  6
BYBLOCK
 62
     0
100
AcDbPoint
 10
-74.119026
 20
252.545002
 30
0.0
  0
ENDBLK
  5
2B61F
100
AcDbEntity
  8
0
100
AcDbBlockEnd
  0
BLOCK
  5
2B622
100
AcDbEntity
  8
0
100
AcDbBlockBegin
  2
*D7
 70
     1
 10
0.0
 20
0.0
 30
0.0
  3
*D7
  1

  0
LINE
  5
2B623
100
AcDbEntity
  8
0
  6
BYBLOCK
 62
     0
100
AcDbLine
 10
-136.473347
 20
235.470597
 30
0.0
 11
-136.473347
 21
260.17472
 31
0.0
  0
LINE
  5
2B624
100
AcDbEntity
  8
0
  6
BYBLOCK
 62
     0
100
AcDbLine
 10
-74.119026
 20
237.117179
 30
0.0
 11
-74.119026
 21
260.17472
 31
0.0
  0
LINE
  5
2B625
100
AcDbEntity
  8
0
  6
BYBLOCK
 62
     0
100
AcDbLine
 10
-133.973347
 20
260.17472
 30
0.0
 11
-76.619026
 21
260.17472
 31
0.0
  0
SOLID
  5
2B626
100
AcDbEntity
  8
0
  6
BYBLOCK
 62
     0
100
AcDbTrace
 10
-133.973347
 20
260.591387
 30
0.0
 11
-133.973347
 21
259.758054
 31
0.0
 12
-136.473347
 22
260.17472
 32
0.0
 13
-136.473347
 23
260.17472
 33
0.0
  0
SOLID
  5
2B627
100
AcDbEntity
  8
0
  6
BYBLOCK
 62
     0
100
AcDbTrace
 10
-76.619026
 20
260.591387
 30
0.0
 11
-76.619026
 21
259.758054
 31
0.0
 12
-74.119026
 22
260.17472
 32
0.0
 13
-74.119026
 23
260.17472
 33
0.0
  0
MTEXT
  5
2B628
100
AcDbEntity
  8
0
  6
BYBLOCK
 62
     0
100
AcDbMText
 10
-105.296186
 20
261.51472
 30
0.0
 40
2.5
 41
0.0
 71
     5
 72
     5
  1
\A1;62.5
  0
POINT
  5
2B629
100
AcDbEntity
  8
DEFPOINTS
  6
BYBLOCK
 62
     0
100
AcDbPoint
 10
-136.473347
 20
235.370597
 30
0.0
  0
POINT
  5
2B62A
100
AcDbEntity
  8
DEFPOINTS
  6
BYBLOCK
 62
     0
100
AcDbPoint
 10
-74.119026
 20
237.017179
 30
0.0
  0
POINT
  5
2B62B
100
AcDbEntity
  8
DEFPOINTS
  6
BYBLOCK
 62
     0
100
AcDbPoint
 10
-74.119026
 20
260.17472
 30
0.0
  0
ENDBLK
  5
2B62C
100
AcDbEntity
  8
0
100
AcDbBlockEnd
  0
BLOCK
  5
2B879
100
AcDbEntity
  8
0
100
AcDbBlockBegin
  2
*X8
 70
     1
 10
0.0
 20
0.0
 30
0.0
  3
*X8
  1

  0
LINE
  5
2B87B
100
AcDbEntity
  8
0
  6
CONTINUOUS
 62
     0
100
AcDbLine
 10
-78.714423
 20
225.439081
 30
0.0
 11
-86.633972
 21
233.358629
 31
0.0
  0
LINE
  5
2B87C
100
AcDbEntity
  8
0
  6
CONTINUOUS
 62
     0
100
AcDbLine
 10
-80.48219
 20
225.439081
 30
0.0
 11
-88.772721
 21
233.729611
 31
0.0
  0
LINE
  5
2B87D
100
AcDbEntity
  8
0
  6
CONTINUOUS
 62
     0
100
AcDbLine
 10
-82.249957
 20
225.439081
 30
0.0
 11
-90.911469
 21
234.100592
 31
0.0
  0
LINE
  5
2B87E
100
AcDbEntity
  8
0
  6
CONTINUOUS
 62
     0
100
AcDbLine
 10
-84.017724
 20
225.439081
 30
0.0
 11
-93.050217
 21
234.471573
 31
0.0
  0
LINE
  5
2B87F
100
AcDbEntity
  8
0
  6
CONTINUOUS
 62
     0
100
AcDbLine
 10
-85.785491
 20
225.439081
 30
0.0
 11
-95.188965
 21
234.842555
 31
0.0
  0
LINE
  5
2B880
100
AcDbEntity
  8
0
  6
CONTINUOUS
 62
     0
100
AcDbLine
 10
-87.553258
 20
225.439081
 30
0.0
 11
-97.327714
 21
235.213536
 31
0.0
  0
LINE
  5
2B881
100
AcDbEntity
  8
0
  6
CONTINUOUS
 62
     0
100
AcDbLine
 10
-89.321025
 20
225.439081
 30
0.0
 11
-99.466462
 21
235.584517
 31
0.0
  0
LINE
  5
2B882
100
AcDbEntity
  8
0
  6
CONTINUOUS
 62
     0
100
AcDbLine
 10
-91.088792
 20
225.439081
 30
0.0
 11
-101.60521
 21
235.955498
 31
0.0
  0
LINE
  5
2B883
100
AcDbEntity
  8
0
  6
CONTINUOUS
 62
     0
100
AcDbLine
 10
-92.856559
 20
225.439081
 30
0.0
 11
-102.119026
 21
234.701547
 31
0.0
  0
LINE
  5
2B884
100
AcDbEntity
  8
0
  6
CONTINUOUS
 62
     0
100
AcDbLine
 10
-94.624326
 20
225.439081
 30
0.0
 11
-102.119026
 21
232.93378
 31
0.0
  0
LINE
  5
2B885
100
AcDbEntity
  8
0
  6
CONTINUOUS
 62
     0
100
AcDbLine
 10
-96.392093
 20
225.439081
 30
0.0
 11
-102.119026
 21
231.166013
 31
0.0
  0
LINE
  5
2B886
100
AcDbEntity
  8
0
  6
CONTINUOUS
 62
     0
100
AcDbLine
 10
-98.15986
 20
225.439081
 30
0.0
 11
-102.119026
 21
229.398246
 31
0.0
  0
LINE
  5
2B887
100
AcDbEntity
  8
0
  6
CONTINUOUS
 62
     0
100
AcDbLine
 10
-99.927627
 20
225.439081
 30
0.0
 11
-102.199034
 21
227.710487
 31
0.0
  0
LINE
  5
2B888
100
AcDbEntity
  8
0
  6
CONTINUOUS
 62
     0
100
AcDbLine
 10
-101.695394
 20
225.439081
 30
0.0
 11
-102.527377
 21
226.271063
 31
0.0
  0
LINE
  5
2B889
100
AcDbEntity
  8
0
  6
CONTINUOUS
 62
     0
100
AcDbLine
 10
-76.946657
 20
225.439081
 30
0.0
 11
-84.495224
 21
232.987648
 31
0.0
  0
LINE
  5
2B88A
100
AcDbEntity
  8
0
  6
CONTINUOUS
 62
     0
100
AcDbLine
 10
-75.17889
 20
225.439081
 30
0.0
 11
-82.356476
 21
232.616667
 31
0.0
  0
LINE
  5
2B88B
100
AcDbEntity
  8
0
  6
CONTINUOUS
 62
     0
100
AcDbLine
 10
-73.411123
 20
225.439081
 30
0.0
 11
-74.119026
 21
226.146983
 31
0.0
  0
LINE
  5
2B88C
100
AcDbEntity
  8
0
  6
CONTINUOUS
 62
     0
100
AcDbLine
 10
-74.119026
 20
226.146983
 30
0.0
 11
-80.217728
 21
232.245686
 31
0.0
  0
LINE
  5
2B88D
100
AcDbEntity
  8
0
  6
CONTINUOUS
 62
     0
100
AcDbLine
 10
-71.643356
 20
225.439081
 30
0.0
 11
-74.119026
 21
227.91475
 31
0.0
  0
LINE
  5
2B88E
100
AcDbEntity
  8
0
  6
CONTINUOUS
 62
     0
100
AcDbLine
 10
-74.119026
 20
227.91475
 30
0.0
 11
-78.078979
 21
231.874704
 31
0.0
  0
LINE
  5
2B88F
100
AcDbEntity
  8
0
  6
CONTINUOUS
 62
     0
100
AcDbLine
 10
-69.875589
 20
225.439081
 30
0.0
 11
-74.119026
 21
229.682517
 31
0.0
  0
LINE
  5
2B890
100
AcDbEntity
  8
0
  6
CONTINUOUS
 62
     0
100
AcDbLine
 10
-74.119026
 20
229.682517
 30
0.0
 11
-75.940231
 21
231.503723
 31
0.0
  0
LINE
  5
2B891
100
AcDbEntity
  8
0
  6
CONTINUOUS
 62
     0
100
AcDbLine
 10
-59.115654
 20
216.446913
 30
0.0
 11
-59.611194
 21
216.942452
 31
0.0
  0
LINE
  5
2B892
100
AcDbEntity
  8
0
  6
CONTINUOUS
 62
     0
100
AcDbLine
 10
-68.107822
 20
225.439081
 30
0.0
 11
-73.801483
 21
231.132742
 31
0.0
  0
LINE
  5
2B893
100
AcDbEntity
  8
0
  6
CONTINUOUS
 62
     0
100
AcDbLine
 10
-58.051044
 20
217.15007
 30
0.0
 11
-59.619026
 21
218.718051
 31
0.0
  0
LINE
  5
2B894
100
AcDbEntity
  8
0
  6
CONTINUOUS
 62
     0
100
AcDbLine
 10
-66.340055
 20
225.439081
 30
0.0
 11
-71.662735
 21
230.76176
 31
0.0
  0
LINE
  5
2B895
100
AcDbEntity
  8
0
  6
CONTINUOUS
 62
     0
100
AcDbLine
 10
-58.051044
 20
218.917837
 30
0.0
 11
-59.619026
 21
220.485818
 31
0.0
  0
LINE
  5
2B896
100
AcDbEntity
  8
0
  6
CONTINUOUS
 62
     0
100
AcDbLine
 10
-64.539986
 20
225.406779
 30
0.0
 11
-69.523986
 21
230.390779
 31
0.0
  0
LINE
  5
2B897
100
AcDbEntity
  8
0
  6
CONTINUOUS
 62
     0
100
AcDbLine
 10
-58.004521
 20
220.639081
 30
0.0
 11
-59.619026
 21
222.253585
 31
0.0
  0
LINE
  5
2B898
100
AcDbEntity
  8
0
  6
CONTINUOUS
 62
     0
100
AcDbLine
 10
-62.393786
 20
225.028346
 30
0.0
 11
-67.385238
 21
230.019798
 31
0.0
  0
LINE
  5
2B899
100
AcDbEntity
  8
0
  6
CONTINUOUS
 62
     0
100
AcDbLine
 10
-56.236754
 20
220.639081
 30
0.0
 11
-59.619026
 21
224.021352
 31
0.0
  0
LINE
  5
2B89A
100
AcDbEntity
  8
0
  6
CONTINUOUS
 62
     0
100
AcDbLine
 10
-60.247586
 20
224.649913
 30
0.0
 11
-65.24649
 21
229.648816
 31
0.0
  0
LINE
  5
2B89B
100
AcDbEntity
  8
0
  6
CONTINUOUS
 62
     0
100
AcDbLine
 10
-54.619026
 20
220.789119
 30
0.0
 11
-63.107742
 21
229.277835
 31
0.0
  0
LINE
  5
2B89C
100
AcDbEntity
  8
0
  6
CONTINUOUS
 62
     0
100
AcDbLine
 10
-54.619026
 20
222.556886
 30
0.0
 11
-60.968993
 21
228.906854
 31
0.0
  0
LINE
  5
2B89D
100
AcDbEntity
  8
0
  6
CONTINUOUS
 62
     0
100
AcDbLine
 10
-54.681717
 20
224.387344
 30
0.0
 11
-58.830245
 21
228.535873
 31
0.0
  0
ENDBLK
  5
2B89E
100
AcDbEntity
  8
0
100
AcDbBlockEnd
  0
BLOCK
  5
2B8DC
100
AcDbEntity
  8
0
100
AcDbBlockBegin
  2
*X9
 70
     1
 10
0.0
 20
0.0
 30
0.0
  3
*X9
  1

  0
LINE
  5
2B8DE
100
AcDbEntity
  8
0
  6
CONTINUOUS
 62
     0
100
AcDbLine
 10
-83.119026
 20
213.93378
 30
0.0
 11
-94.624326
 21
225.439081
 31
0.0
  0
LINE
  5
2B8DF
100
AcDbEntity
  8
0
  6
CONTINUOUS
 62
     0
100
AcDbLine
 10
-86.15986
 20
213.439081
 30
0.0
 11
-98.15986
 21
225.439081
 31
0.0
  0
LINE
  5
2B8E0
100
AcDbEntity
  8
0
  6
CONTINUOUS
 62
     0
100
AcDbLine
 10
-89.695394
 20
213.439081
 30
0.0
 11
-101.695394
 21
225.439081
 31
0.0
  0
LINE
  5
2B8E1
100
AcDbEntity
  8
0
  6
CONTINUOUS
 62
     0
100
AcDbLine
 10
-93.230928
 20
213.439081
 30
0.0
 11
-103.711894
 21
223.920047
 31
0.0
  0
LINE
  5
2B8E2
100
AcDbEntity
  8
0
  6
CONTINUOUS
 62
     0
100
AcDbLine
 10
-96.766462
 20
213.439081
 30
0.0
 11
-105.45209
 21
222.124709
 31
0.0
  0
LINE
  5
2B8E3
100
AcDbEntity
  8
0
  6
CONTINUOUS
 62
     0
100
AcDbLine
 10
-100.301996
 20
213.439081
 30
0.0
 11
-107.702346
 21
220.839431
 31
0.0
  0
LINE
  5
2B8E4
100
AcDbEntity
  8
0
  6
CONTINUOUS
 62
     0
100
AcDbLine
 10
-103.837529
 20
213.439081
 30
0.0
 11
-110.078804
 21
219.680355
 31
0.0
  0
LINE
  5
2B8E5
100
AcDbEntity
  8
0
  6
CONTINUOUS
 62
     0
100
AcDbLine
 10
-107.373063
 20
213.439081
 30
0.0
 11
-112.455262
 21
218.521279
 31
0.0
  0
LINE
  5
2B8E6
100
AcDbEntity
  8
0
  6
CONTINUOUS
 62
     0
100
AcDbLine
 10
-83.119026
 20
217.469314
 30
0.0
 11
-84.088792
 21
218.439081
 31
0.0
  0
LINE
  5
2B8E7
100
AcDbEntity
  8
0
  6
CONTINUOUS
 62
     0
100
AcDbLine
 10
-86.619026
 20
220.969314
 30
0.0
 11
-91.088792
 21
225.439081
 31
0.0
  0
LINE
  5
2B8E8
100
AcDbEntity
  8
0
  6
CONTINUOUS
 62
     0
100
AcDbLine
 10
-86.619026
 20
224.504848
 30
0.0
 11
-87.553258
 21
225.439081
 31
0.0
  0
LINE
  5
2B8E9
100
AcDbEntity
  8
0
  6
CONTINUOUS
 62
     0
100
AcDbLine
 10
-64.946657
 20
213.439081
 30
0.0
 11
-65.119026
 21
213.61145
 31
0.0
  0
LINE
  5
2B8EA
100
AcDbEntity
  8
0
  6
CONTINUOUS
 62
     0
100
AcDbLine
 10
-61.411123
 20
213.439081
 30
0.0
 11
-65.119026
 21
217.146983
 31
0.0
  0
LINE
  5
2B8EB
100
AcDbEntity
  8
0
  6
CONTINUOUS
 62
     0
100
AcDbLine
 10
-54.875589
 20
210.439081
 30
0.0
 11
-56.119026
 21
211.682517
 31
0.0
  0
LINE
  5
2B8EC
100
AcDbEntity
  8
0
  6
CONTINUOUS
 62
     0
100
AcDbLine
 10
-57.875589
 20
213.439081
 30
0.0
 11
-62.875589
 21
218.439081
 31
0.0
  0
LINE
  5
2B8ED
100
AcDbEntity
  8
0
  6
CONTINUOUS
 62
     0
100
AcDbLine
 10
-54.619026
 20
213.718051
 30
0.0
 11
-57.340055
 21
216.439081
 31
0.0
  0
LINE
  5
2B8EE
100
AcDbEntity
  8
0
  6
CONTINUOUS
 62
     0
100
AcDbLine
 10
-59.619026
 20
218.718051
 30
0.0
 11
-61.619026
 21
220.718051
 31
0.0
  0
LINE
  5
2B8EF
100
AcDbEntity
  8
0
  6
CONTINUOUS
 62
     0
100
AcDbLine
 10
-54.619026
 20
217.253585
 30
0.0
 11
-57.366411
 21
220.000971
 31
0.0
  0
LINE
  5
2B8F0
100
AcDbEntity
  8
0
  6
CONTINUOUS
 62
     0
100
AcDbLine
 10
-59.619026
 20
222.253585
 30
0.0
 11
-61.619026
 21
224.253585
 31
0.0
  0
ENDBLK
  5
2B8F1
100
AcDbEntity
  8
0
100
AcDbBlockEnd
  0
BLOCK
  5
2BD6F
100
AcDbEntity
  8
0
100
AcDbBlockBegin
  2
*D10
 70
     1
 10
0.0
 20
0.0
 30
0.0
  3
*D10
  1

  0
LINE
  5
2BD70
100
AcDbEntity
  8
0
  6
BYBLOCK
 62
     0
100
AcDbLine
 10
-54.919026
 20
169.231138
 30
0.0
 11
-35.520897
 21
169.231138
 31
0.0
  0
LINE
  5
2BD71
100
AcDbEntity
  8
0
  6
BYBLOCK
 62
     0
100
AcDbLine
 10
-46.879272
 20
147.252668
 30
0.0
 11
-35.520897
 21
147.252668
 31
0.0
  0
LINE
  5
2BD72
100
AcDbEntity
  8
0
  6
BYBLOCK
 62
     0
100
AcDbLine
 10
-35.520897
 20
166.731138
 30
0.0
 11
-35.520897
 21
149.752668
 31
0.0
  0
SOLID
  5
2BD73
100
AcDbEntity
  8
0
  6
BYBLOCK
 62
     0
100
AcDbTrace
 10
-35.937564
 20
166.731138
 30
0.0
 11
-35.10423
 21
166.731138
 31
0.0
 12
-35.520897
 22
169.231138
 32
0.0
 13
-35.520897
 23
169.231138
 33
0.0
  0
SOLID
  5
2BD74
100
AcDbEntity
  8
0
  6
BYBLOCK
 62
     0
100
AcDbTrace
 10
-35.937564
 20
149.752668
 30
0.0
 11
-35.10423
 21
149.752668
 31
0.0
 12
-35.520897
 22
147.252668
 32
0.0
 13
-35.520897
 23
147.252668
 33
0.0
  0
MTEXT
  5
2BD75
100
AcDbEntity
  8
0
  6
BYBLOCK
 62
     0
100
AcDbMText
 10
-36.860897
 20
158.241903
 30
0.0
 40
2.5
 41
0.0
 71
     5
 72
     1
  1
\A1;22
 11
0.0
 21
1.0
 31
0.0
  0
POINT
  5
2BD76
100
AcDbEntity
  8
DEFPOINTS
  6
BYBLOCK
 62
     0
100
AcDbPoint
 10
-55.019026
 20
169.231138
 30
0.0
  0
POINT
  5
2BD77
100
AcDbEntity
  8
DEFPOINTS
  6
BYBLOCK
 62
     0
100
AcDbPoint
 10
-46.979272
 20
147.252668
 30
0.0
  0
POINT
  5
2BD78
100
AcDbEntity
  8
DEFPOINTS
  6
BYBLOCK
 62
     0
100
AcDbPoint
 10
-35.520897
 20
147.252668
 30
0.0
  0
ENDBLK
  5
2BD79
100
AcDbEntity
  8
0
100
AcDbBlockEnd
  0
BLOCK
  5
2BD7B
100
AcDbEntity
  8
0
100
AcDbBlockBegin
  2
*D11
 70
     1
 10
0.0
 20
0.0
 30
0.0
  3
*D11
  1

  0
LINE
  5
2BD7C
100
AcDbEntity
  8
0
  6
BYBLOCK
 62
     0
100
AcDbLine
 10
-143.373347
 20
119.752668
 30
0.0
 11
-35.520903
 21
119.752668
 31
0.0
  0
LINE
  5
2BD7D
100
AcDbEntity
  8
0
  6
BYBLOCK
 62
     0
100
AcDbLine
 10
-46.879272
 20
147.252668
 30
0.0
 11
-35.520903
 21
147.252668
 31
0.0
  0
LINE
  5
2BD7E
100
AcDbEntity
  8
0
  6
BYBLOCK
 62
     0
100
AcDbLine
 10
-35.520903
 20
122.252668
 30
0.0
 11
-35.520903
 21
144.752668
 31
0.0
  0
SOLID
  5
2BD7F
100
AcDbEntity
  8
0
  6
BYBLOCK
 62
     0
100
AcDbTrace
 10
-35.93757
 20
122.252668
 30
0.0
 11
-35.104236
 21
122.252668
 31
0.0
 12
-35.520903
 22
119.752668
 32
0.0
 13
-35.520903
 23
119.752668
 33
0.0
  0
SOLID
  5
2BD80
100
AcDbEntity
  8
0
  6
BYBLOCK
 62
     0
100
AcDbTrace
 10
-35.93757
 20
144.752668
 30
0.0
 11
-35.104236
 21
144.752668
 31
0.0
 12
-35.520903
 22
147.252668
 32
0.0
 13
-35.520903
 23
147.252668
 33
0.0
  0
MTEXT
  5
2BD81
100
AcDbEntity
  8
0
  6
BYBLOCK
 62
     0
100
AcDbMText
 10
-36.860903
 20
133.502668
 30
0.0
 40
2.5
 41
0.0
 71
     5
 72
     1
  1
\A1;27.5
 11
0.0
 21
1.0
 31
0.0
  0
POINT
  5
2BD82
100
AcDbEntity
  8
DEFPOINTS
  6
BYBLOCK
 62
     0
100
AcDbPoint
 10
-143.473347
 20
119.752668
 30
0.0
  0
POINT
  5
2BD83
100
AcDbEntity
  8
DEFPOINTS
  6
BYBLOCK
 62
     0
100
AcDbPoint
 10
-46.979272
 20
147.252668
 30
0.0
  0
POINT
  5
2BD84
100
AcDbEntity
  8
DEFPOINTS
  6
BYBLOCK
 62
     0
100
AcDbPoint
 10
-35.520903
 20
147.252668
 30
0.0
  0
ENDBLK
  5
2BD85
100
AcDbEntity
  8
0
100
AcDbBlockEnd
  0
BLOCK
  5
2BD87
100
AcDbEntity
  8
0
100
AcDbBlockBegin
  2
*D12
 70
     1
 10
0.0
 20
0.0
 30
0.0
  3
*D12
  1

  0
LINE
  5
2BD88
100
AcDbEntity
  8
0
  6
BYBLOCK
 62
     0
100
AcDbLine
 10
-126.373347
 20
97.752668
 30
0.0
 11
-56.669862
 21
97.752668
 31
0.0
  0
LINE
  5
2BD89
100
AcDbEntity
  8
0
  6
BYBLOCK
 62
     0
100
AcDbLine
 10
-126.373347
 20
119.752668
 30
0.0
 11
-56.669862
 21
119.752668
 31
0.0
  0
LINE
  5
2BD8A
100
AcDbEntity
  8
0
  6
BYBLOCK
 62
     0
100
AcDbLine
 10
-56.669862
 20
100.252668
 30
0.0
 11
-56.669862
 21
117.252668
 31
0.0
  0
SOLID
  5
2BD8B
100
AcDbEntity
  8
0
  6
BYBLOCK
 62
     0
100
AcDbTrace
 10
-57.086529
 20
100.252668
 30
0.0
 11
-56.253195
 21
100.252668
 31
0.0
 12
-56.669862
 22
97.752668
 32
0.0
 13
-56.669862
 23
97.752668
 33
0.0
  0
SOLID
  5
2BD8C
100
AcDbEntity
  8
0
  6
BYBLOCK
 62
     0
100
AcDbTrace
 10
-57.086529
 20
117.252668
 30
0.0
 11
-56.253195
 21
117.252668
 31
0.0
 12
-56.669862
 22
119.752668
 32
0.0
 13
-56.669862
 23
119.752668
 33
0.0
  0
MTEXT
  5
2BD8D
100
AcDbEntity
  8
0
  6
BYBLOCK
 62
     0
100
AcDbMText
 10
-58.009862
 20
108.752668
 30
0.0
 40
2.5
 41
0.0
 71
     5
 72
     1
  1
\A1;22
 11
0.0
 21
1.0
 31
0.0
  0
POINT
  5
2BD8E
100
AcDbEntity
  8
DEFPOINTS
  6
BYBLOCK
 62
     0
100
AcDbPoint
 10
-126.473347
 20
97.752668
 30
0.0
  0
POINT
  5
2BD8F
100
AcDbEntity
  8
DEFPOINTS
  6
BYBLOCK
 62
     0
100
AcDbPoint
 10
-126.473347
 20
119.752668
 30
0.0
  0
POINT
  5
2BD90
100
AcDbEntity
  8
DEFPOINTS
  6
BYBLOCK
 62
     0
100
AcDbPoint
 10
-56.669862
 20
119.752668
 30
0.0
  0
ENDBLK
  5
2BD91
100
AcDbEntity
  8
0
100
AcDbBlockEnd
  0
BLOCK
  5
2BD93
100
AcDbEntity
  8
0
100
AcDbBlockBegin
  2
*D13
 70
     1
 10
0.0
 20
0.0
 30
0.0
  3
*D13
  1

  0
LINE
  5
2BD94
100
AcDbEntity
  8
0
  6
BYBLOCK
 62
     0
100
AcDbLine
 10
-102.019026
 20
82.752668
 30
0.0
 11
-56.669862
 21
82.752668
 31
0.0
  0
LINE
  5
2BD95
100
AcDbEntity
  8
0
  6
BYBLOCK
 62
     0
100
AcDbLine
 10
-126.373347
 20
97.752668
 30
0.0
 11
-56.669862
 21
97.752668
 31
0.0
  0
LINE
  5
2BD96
100
AcDbEntity
  8
0
  6
BYBLOCK
 62
     0
100
AcDbLine
 10
-56.669862
 20
85.252668
 30
0.0
 11
-56.669862
 21
95.252668
 31
0.0
  0
SOLID
  5
2BD97
100
AcDbEntity
  8
0
  6
BYBLOCK
 62
     0
100
AcDbTrace
 10
-57.086529
 20
85.252668
 30
0.0
 11
-56.253195
 21
85.252668
 31
0.0
 12
-56.669862
 22
82.752668
 32
0.0
 13
-56.669862
 23
82.752668
 33
0.0
  0
SOLID
  5
2BD98
100
AcDbEntity
  8
0
  6
BYBLOCK
 62
     0
100
AcDbTrace
 10
-57.086529
 20
95.252668
 30
0.0
 11
-56.253195
 21
95.252668
 31
0.0
 12
-56.669862
 22
97.752668
 32
0.0
 13
-56.669862
 23
97.752668
 33
0.0
  0
MTEXT
  5
2BD99
100
AcDbEntity
  8
0
  6
BYBLOCK
 62
     0
100
AcDbMText
 10
-58.009862
 20
90.252668
 30
0.0
 40
2.5
 41
0.0
 71
     5
 72
     1
  1
\A1;15
 11
0.0
 21
1.0
 31
0.0
  0
POINT
  5
2BD9A
100
AcDbEntity
  8
DEFPOINTS
  6
BYBLOCK
 62
     0
100
AcDbPoint
 10
-102.119026
 20
82.752668
 30
0.0
  0
POINT
  5
2BD9B
100
AcDbEntity
  8
DEFPOINTS
  6
BYBLOCK
 62
     0
100
AcDbPoint
 10
-126.473347
 20
97.752668
 30
0.0
  0
POINT
  5
2BD9C
100
AcDbEntity
  8
DEFPOINTS
  6
BYBLOCK
 62
     0
100
AcDbPoint
 10
-56.669862
 20
97.752668
 30
0.0
  0
ENDBLK
  5
2BD9D
100
AcDbEntity
  8
0
100
AcDbBlockEnd
  0
BLOCK
  5
2BD9F
100
AcDbEntity
  8
0
100
AcDbBlockBegin
  2
*D14
 70
     1
 10
0.0
 20
0.0
 30
0.0
  3
*D14
  1

  0
LINE
  5
2BDA0
100
AcDbEntity
  8
0
  6
BYBLOCK
 62
     0
100
AcDbLine
 10
-150.719026
 20
82.752668
 30
0.0
 11
-167.889789
 21
82.752668
 31
0.0
  0
LINE
  5
2BDA1
100
AcDbEntity
  8
0
  6
BYBLOCK
 62
     0
100
AcDbLine
 10
-150.719026
 20
134.752668
 30
0.0
 11
-167.889789
 21
134.752668
 31
0.0
  0
LINE
  5
2BDA2
100
AcDbEntity
  8
0
  6
BYBLOCK
 62
     0
100
AcDbLine
 10
-167.889789
 20
85.252668
 30
0.0
 11
-167.889789
 21
132.252668
 31
0.0
  0
SOLID
  5
2BDA3
100
AcDbEntity
  8
0
  6
BYBLOCK
 62
     0
100
AcDbTrace
 10
-168.306455
 20
85.252668
 30
0.0
 11
-167.473122
 21
85.252668
 31
0.0
 12
-167.889789
 22
82.752668
 32
0.0
 13
-167.889789
 23
82.752668
 33
0.0
  0
SOLID
  5
2BDA4
100
AcDbEntity
  8
0
  6
BYBLOCK
 62
     0
100
AcDbTrace
 10
-168.306455
 20
132.252668
 30
0.0
 11
-167.473122
 21
132.252668
 31
0.0
 12
-167.889789
 22
134.752668
 32
0.0
 13
-167.889789
 23
134.752668
 33
0.0
  0
MTEXT
  5
2BDA5
100
AcDbEntity
  8
0
  6
BYBLOCK
 62
     0
100
AcDbMText
 10
-169.229789
 20
108.752668
 30
0.0
 40
2.5
 41
0.0
 71
     5
 72
     1
  1
\A1;52
 11
0.0
 21
1.0
 31
0.0
  0
POINT
  5
2BDA6
100
AcDbEntity
  8
DEFPOINTS
  6
BYBLOCK
 62
     0
100
AcDbPoint
 10
-150.619026
 20
82.752668
 30
0.0
  0
POINT
  5
2BDA7
100
AcDbEntity
  8
DEFPOINTS
  6
BYBLOCK
 62
     0
100
AcDbPoint
 10
-150.619026
 20
134.752668
 30
0.0
  0
POINT
  5
2BDA8
100
AcDbEntity
  8
DEFPOINTS
  6
BYBLOCK
 62
     0
100
AcDbPoint
 10
-167.889789
 20
134.752668
 30
0.0
  0
ENDBLK
  5
2BDA9
100
AcDbEntity
  8
0
100
AcDbBlockEnd
  0
BLOCK
  5
2BDAB
100
AcDbEntity
  8
0
100
AcDbBlockBegin
  2
*D15
 70
     1
 10
0.0
 20
0.0
 30
0.0
  3
*D15
  1

  0
LINE
  5
2BDAC
100
AcDbEntity
  8
0
  6
BYBLOCK
 62
     0
100
AcDbLine
 10
-150.819026
 20
134.752668
 30
0.0
 11
-157.742058
 21
134.752668
 31
0.0
  0
LINE
  5
2BDAD
100
AcDbEntity
  8
0
  6
BYBLOCK
 62
     0
100
AcDbLine
 10
-126.219026
 20
137.252668
 30
0.0
 11
-157.742058
 21
137.252668
 31
0.0
  0
LINE
  5
2BDAE
100
AcDbEntity
  8
0
  6
BYBLOCK
 62
     0
100
AcDbLine
 10
-157.742058
 20
132.252668
 30
0.0
 11
-157.742058
 21
129.752668
 31
0.0
  0
LINE
  5
2BDAF
100
AcDbEntity
  8
0
  6
BYBLOCK
 62
     0
100
AcDbLine
 10
-157.742058
 20
139.752668
 30
0.0
 11
-157.742058
 21
147.432668
 31
0.0
  0
SOLID
  5
2BDB0
100
AcDbEntity
  8
0
  6
BYBLOCK
 62
     0
100
AcDbTrace
 10
-158.158725
 20
132.252668
 30
0.0
 11
-157.325391
 21
132.252668
 31
0.0
 12
-157.742058
 22
134.752668
 32
0.0
 13
-157.742058
 23
134.752668
 33
0.0
  0
SOLID
  5
2BDB1
100
AcDbEntity
  8
0
  6
BYBLOCK
 62
     0
100
AcDbTrace
 10
-158.158725
 20
139.752668
 30
0.0
 11
-157.325391
 21
139.752668
 31
0.0
 12
-157.742058
 22
137.252668
 32
0.0
 13
-157.742058
 23
137.252668
 33
0.0
  0
MTEXT
  5
2BDB2
100
AcDbEntity
  8
0
  6
BYBLOCK
 62
     0
100
AcDbMText
 10
-159.082058
 20
144.842668
 30
0.0
 40
2.5
 41
0.0
 71
     5
 72
     1
  1
\A1;2.5
 11
0.0
 21
1.0
 31
0.0
  0
POINT
  5
2BDB3
100
AcDbEntity
  8
DEFPOINTS
  6
BYBLOCK
 62
     0
100
AcDbPoint
 10
-150.719026
 20
134.752668
 30
0.0
  0
POINT
  5
2BDB4
100
AcDbEntity
  8
DEFPOINTS
  6
BYBLOCK
 62
     0
100
AcDbPoint
 10
-126.119026
 20
137.252668
 30
0.0
  0
POINT
  5
2BDB5
100
AcDbEntity
  8
DEFPOINTS
  6
BYBLOCK
 62
     0
100
AcDbPoint
 10
-157.742058
 20
137.252668
 30
0.0
  0
ENDBLK
  5
2BDB6
100
AcDbEntity
  8
0
100
AcDbBlockEnd
  0
BLOCK
  5
2BDB8
100
AcDbEntity
  8
0
100
AcDbBlockBegin
  2
*D16
 70
     1
 10
0.0
 20
0.0
 30
0.0
  3
*D16
  1

  0
LINE
  5
2BDB9
100
AcDbEntity
  8
0
  6
BYBLOCK
 62
     0
100
AcDbLine
 10
-127.219026
 20
179.252668
 30
0.0
 11
-168.17167
 21
179.252668
 31
0.0
  0
LINE
  5
2BDBA
100
AcDbEntity
  8
0
  6
BYBLOCK
 62
     0
100
AcDbLine
 10
-127.219026
 20
137.252668
 30
0.0
 11
-168.17167
 21
137.252668
 31
0.0
  0
LINE
  5
2BDBB
100
AcDbEntity
  8
0
  6
BYBLOCK
 62
     0
100
AcDbLine
 10
-168.17167
 20
176.752668
 30
0.0
 11
-168.17167
 21
139.752668
 31
0.0
  0
SOLID
  5
2BDBC
100
AcDbEntity
  8
0
  6
BYBLOCK
 62
     0
100
AcDbTrace
 10
-168.588337
 20
176.752668
 30
0.0
 11
-167.755003
 21
176.752668
 31
0.0
 12
-168.17167
 22
179.252668
 32
0.0
 13
-168.17167
 23
179.252668
 33
0.0
  0
SOLID
  5
2BDBD
100
AcDbEntity
  8
0
  6
BYBLOCK
 62
     0
100
AcDbTrace
 10
-168.588337
 20
139.752668
 30
0.0
 11
-167.755003
 21
139.752668
 31
0.0
 12
-168.17167
 22
137.252668
 32
0.0
 13
-168.17167
 23
137.252668
 33
0.0
  0
MTEXT
  5
2BDBE
100
AcDbEntity
  8
0
  6
BYBLOCK
 62
     0
100
AcDbMText
 10
-169.51167
 20
158.252668
 30
0.0
 40
2.5
 41
0.0
 71
     5
 72
     1
  1
\A1;42
 11
0.0
 21
1.0
 31
0.0
  0
POINT
  5
2BDBF
100
AcDbEntity
  8
DEFPOINTS
  6
BYBLOCK
 62
     0
100
AcDbPoint
 10
-127.119026
 20
179.252668
 30
0.0
  0
POINT
  5
2BDC0
100
AcDbEntity
  8
DEFPOINTS
  6
BYBLOCK
 62
     0
100
AcDbPoint
 10
-127.119026
 20
137.252668
 30
0.0
  0
POINT
  5
2BDC1
100
AcDbEntity
  8
DEFPOINTS
  6
BYBLOCK
 62
     0
100
AcDbPoint
 10
-168.17167
 20
137.252668
 30
0.0
  0
ENDBLK
  5
2BDC2
100
AcDbEntity
  8
0
100
AcDbBlockEnd
  0
BLOCK
  5
2BDE1
100
AcDbEntity
  8
0
100
AcDbBlockBegin
  2
*D17
 70
     1
 10
0.0
 20
0.0
 30
0.0
  3
*D17
  1

  0
LINE
  5
2BDE2
100
AcDbEntity
  8
0
  6
BYBLOCK
 62
     0
100
AcDbLine
 10
70.895597
 20
233.752668
 30
0.0
 11
53.724834
 21
233.752668
 31
0.0
  0
LINE
  5
2BDE3
100
AcDbEntity
  8
0
  6
BYBLOCK
 62
     0
100
AcDbLine
 10
70.895597
 20
181.752668
 30
0.0
 11
53.724834
 21
181.752668
 31
0.0
  0
LINE
  5
2BDE4
100
AcDbEntity
  8
0
  6
BYBLOCK
 62
     0
100
AcDbLine
 10
53.724834
 20
231.252668
 30
0.0
 11
53.724834
 21
184.252668
 31
0.0
  0
SOLID
  5
2BDE5
100
AcDbEntity
  8
0
  6
BYBLOCK
 62
     0
100
AcDbTrace
 10
53.308167
 20
231.252668
 30
0.0
 11
54.141501
 21
231.252668
 31
0.0
 12
53.724834
 22
233.752668
 32
0.0
 13
53.724834
 23
233.752668
 33
0.0
  0
SOLID
  5
2BDE6
100
AcDbEntity
  8
0
  6
BYBLOCK
 62
     0
100
AcDbTrace
 10
53.308167
 20
184.252668
 30
0.0
 11
54.141501
 21
184.252668
 31
0.0
 12
53.724834
 22
181.752668
 32
0.0
 13
53.724834
 23
181.752668
 33
0.0
  0
MTEXT
  5
2BDE7
100
AcDbEntity
  8
0
  6
BYBLOCK
 62
     0
100
AcDbMText
 10
52.384834
 20
207.752668
 30
0.0
 40
2.5
 41
0.0
 71
     5
 72
     1
  1
\A1;52
 11
0.0
 21
1.0
 31
0.0
  0
POINT
  5
2BDE8
100
AcDbEntity
  8
DEFPOINTS
  6
BYBLOCK
 62
     0
100
AcDbPoint
 10
70.995597
 20
233.752668
 30
0.0
  0
POINT
  5
2BDE9
100
AcDbEntity
  8
DEFPOINTS
  6
BYBLOCK
 62
     0
100
AcDbPoint
 10
70.995597
 20
181.752668
 30
0.0
  0
POINT
  5
2BDEA
100
AcDbEntity
  8
DEFPOINTS
  6
BYBLOCK
 62
     0
100
AcDbPoint
 10
53.724834
 20
181.752668
 30
0.0
  0
ENDBLK
  5
2BDEB
100
AcDbEntity
  8
0
100
AcDbBlockEnd
  0
BLOCK
  5
2BDF4
100
AcDbEntity
  8
0
100
AcDbBlockBegin
  2
*D18
 70
     1
 10
0.0
 20
0.0
 30
0.0
  3
*D18
  1

  0
LINE
  5
2BDF5
100
AcDbEntity
  8
0
  6
BYBLOCK
 62
     0
100
AcDbLine
 10
70.895597
 20
233.752668
 30
0.0
 11
41.122541
 21
233.752668
 31
0.0
  0
LINE
  5
2BDF6
100
AcDbEntity
  8
0
  6
BYBLOCK
 62
     0
100
AcDbLine
 10
70.895597
 20
82.752668
 30
0.0
 11
41.122541
 21
82.752668
 31
0.0
  0
LINE
  5
2BDF7
100
AcDbEntity
  8
0
  6
BYBLOCK
 62
     0
100
AcDbLine
 10
41.122541
 20
231.252668
 30
0.0
 11
41.122541
 21
85.252668
 31
0.0
  0
SOLID
  5
2BDF8
100
AcDbEntity
  8
0
  6
BYBLOCK
 62
     0
100
AcDbTrace
 10
40.705875
 20
231.252668
 30
0.0
 11
41.539208
 21
231.252668
 31
0.0
 12
41.122541
 22
233.752668
 32
0.0
 13
41.122541
 23
233.752668
 33
0.0
  0
SOLID
  5
2BDF9
100
AcDbEntity
  8
0
  6
BYBLOCK
 62
     0
100
AcDbTrace
 10
40.705875
 20
85.252668
 30
0.0
 11
41.539208
 21
85.252668
 31
0.0
 12
41.122541
 22
82.752668
 32
0.0
 13
41.122541
 23
82.752668
 33
0.0
  0
MTEXT
  5
2BDFA
100
AcDbEntity
  8
0
  6
BYBLOCK
 62
     0
100
AcDbMText
 10
39.782541
 20
158.252668
 30
0.0
 40
2.5
 41
0.0
 71
     5
 72
     1
  1
\A1;151
 11
0.0
 21
1.0
 31
0.0
  0
POINT
  5
2BDFB
100
AcDbEntity
  8
DEFPOINTS
  6
BYBLOCK
 62
     0
100
AcDbPoint
 10
70.995597
 20
233.752668
 30
0.0
  0
POINT
  5
2BDFC
100
AcDbEntity
  8
DEFPOINTS
  6
BYBLOCK
 62
     0
100
AcDbPoint
 10
70.995597
 20
82.752668
 30
0.0
  0
POINT
  5
2BDFD
100
AcDbEntity
  8
DEFPOINTS
  6
BYBLOCK
 62
     0
100
AcDbPoint
 10
41.122541
 20
82.752668
 30
0.0
  0
ENDBLK
  5
2BDFE
100
AcDbEntity
  8
0
100
AcDbBlockEnd
  0
BLOCK
  5
2BE01
100
AcDbEntity
  8
0
100
AcDbBlockBegin
  2
*D19
 70
     1
 10
0.0
 20
0.0
 30
0.0
  3
*D19
  1

  0
LINE
  5
2BE02
100
AcDbEntity
  8
0
  6
BYBLOCK
 62
     0
100
AcDbLine
 10
147.595597
 20
169.252668
 30
0.0
 11
185.881651
 21
169.252668
 31
0.0
  0
LINE
  5
2BE03
100
AcDbEntity
  8
0
  6
BYBLOCK
 62
     0
100
AcDbLine
 10
94.595597
 20
196.752668
 30
0.0
 11
185.881651
 21
196.752668
 31
0.0
  0
LINE
  5
2BE04
100
AcDbEntity
  8
0
  6
BYBLOCK
 62
     0
100
AcDbLine
 10
185.881651
 20
171.752668
 30
0.0
 11
185.881651
 21
194.252668
 31
0.0
  0
SOLID
  5
2BE05
100
AcDbEntity
  8
0
  6
BYBLOCK
 62
     0
100
AcDbTrace
 10
185.464984
 20
171.752668
 30
0.0
 11
186.298317
 21
171.752668
 31
0.0
 12
185.881651
 22
169.252668
 32
0.0
 13
185.881651
 23
169.252668
 33
0.0
  0
SOLID
  5
2BE06
100
AcDbEntity
  8
0
  6
BYBLOCK
 62
     0
100
AcDbTrace
 10
185.464984
 20
194.252668
 30
0.0
 11
186.298317
 21
194.252668
 31
0.0
 12
185.881651
 22
196.752668
 32
0.0
 13
185.881651
 23
196.752668
 33
0.0
  0
MTEXT
  5
2BE07
100
AcDbEntity
  8
0
  6
BYBLOCK
 62
     0
100
AcDbMText
 10
184.541651
 20
183.002668
 30
0.0
 40
2.5
 41
0.0
 71
     5
 72
     1
  1
\A1;27.5
 11
0.0
 21
1.0
 31
0.0
  0
POINT
  5
2BE08
100
AcDbEntity
  8
DEFPOINTS
  6
BYBLOCK
 62
     0
100
AcDbPoint
 10
147.495597
 20
169.252668
 30
0.0
  0
POINT
  5
2BE09
100
AcDbEntity
  8
DEFPOINTS
  6
BYBLOCK
 62
     0
100
AcDbPoint
 10
94.495597
 20
196.752668
 30
0.0
  0
POINT
  5
2BE0A
100
AcDbEntity
  8
DEFPOINTS
  6
BYBLOCK
 62
     0
100
AcDbPoint
 10
185.881651
 20
196.752668
 30
0.0
  0
ENDBLK
  5
2BE0B
100
AcDbEntity
  8
0
100
AcDbBlockEnd
  0
BLOCK
  5
2BE0E
100
AcDbEntity
  8
0
100
AcDbBlockBegin
  2
*D20
 70
     1
 10
0.0
 20
0.0
 30
0.0
  3
*D20
  1

  0
LINE
  5
2BE0F
100
AcDbEntity
  8
0
  6
BYBLOCK
 62
     0
100
AcDbLine
 10
94.595597
 20
218.752668
 30
0.0
 11
163.04532
 21
218.752668
 31
0.0
  0
LINE
  5
2BE10
100
AcDbEntity
  8
0
  6
BYBLOCK
 62
     0
100
AcDbLine
 10
95.241276
 20
196.752668
 30
0.0
 11
163.04532
 21
196.752668
 31
0.0
  0
LINE
  5
2BE11
100
AcDbEntity
  8
0
  6
BYBLOCK
 62
     0
100
AcDbLine
 10
163.04532
 20
216.252668
 30
0.0
 11
163.04532
 21
199.252668
 31
0.0
  0
SOLID
  5
2BE12
100
AcDbEntity
  8
0
  6
BYBLOCK
 62
     0
100
AcDbTrace
 10
162.628653
 20
216.252668
 30
0.0
 11
163.461987
 21
216.252668
 31
0.0
 12
163.04532
 22
218.752668
 32
0.0
 13
163.04532
 23
218.752668
 33
0.0
  0
SOLID
  5
2BE13
100
AcDbEntity
  8
0
  6
BYBLOCK
 62
     0
100
AcDbTrace
 10
162.628653
 20
199.252668
 30
0.0
 11
163.461987
 21
199.252668
 31
0.0
 12
163.04532
 22
196.752668
 32
0.0
 13
163.04532
 23
196.752668
 33
0.0
  0
MTEXT
  5
2BE14
100
AcDbEntity
  8
0
  6
BYBLOCK
 62
     0
100
AcDbMText
 10
161.70532
 20
207.752668
 30
0.0
 40
2.5
 41
0.0
 71
     5
 72
     1
  1
\A1;22
 11
0.0
 21
1.0
 31
0.0
  0
POINT
  5
2BE15
100
AcDbEntity
  8
DEFPOINTS
  6
BYBLOCK
 62
     0
100
AcDbPoint
 10
94.495597
 20
218.752668
 30
0.0
  0
POINT
  5
2BE16
100
AcDbEntity
  8
DEFPOINTS
  6
BYBLOCK
 62
     0
100
AcDbPoint
 10
95.141276
 20
196.752668
 30
0.0
  0
POINT
  5
2BE17
100
AcDbEntity
  8
DEFPOINTS
  6
BYBLOCK
 62
     0
100
AcDbPoint
 10
163.04532
 20
196.752668
 30
0.0
  0
ENDBLK
  5
2BE18
100
AcDbEntity
  8
0
100
AcDbBlockEnd
  0
BLOCK
  5
2BE1B
100
AcDbEntity
  8
0
100
AcDbBlockBegin
  2
*D21
 70
     1
 10
0.0
 20
0.0
 30
0.0
  3
*D21
  1

  0
LINE
  5
2BE1C
100
AcDbEntity
  8
0
  6
BYBLOCK
 62
     0
100
AcDbLine
 10
119.595597
 20
233.752668
 30
0.0
 11
163.04532
 21
233.752668
 31
0.0
  0
LINE
  5
2BE1D
100
AcDbEntity
  8
0
  6
BYBLOCK
 62
     0
100
AcDbLine
 10
95.241276
 20
218.752668
 30
0.0
 11
163.04532
 21
218.752668
 31
0.0
  0
LINE
  5
2BE1E
100
AcDbEntity
  8
0
  6
BYBLOCK
 62
     0
100
AcDbLine
 10
163.04532
 20
231.252668
 30
0.0
 11
163.04532
 21
221.252668
 31
0.0
  0
SOLID
  5
2BE1F
100
AcDbEntity
  8
0
  6
BYBLOCK
 62
     0
100
AcDbTrace
 10
162.628653
 20
231.252668
 30
0.0
 11
163.461987
 21
231.252668
 31
0.0
 12
163.04532
 22
233.752668
 32
0.0
 13
163.04532
 23
233.752668
 33
0.0
  0
SOLID
  5
2BE20
100
AcDbEntity
  8
0
  6
BYBLOCK
 62
     0
100
AcDbTrace
 10
162.628653
 20
221.252668
 30
0.0
 11
163.461987
 21
221.252668
 31
0.0
 12
163.04532
 22
218.752668
 32
0.0
 13
163.04532
 23
218.752668
 33
0.0
  0
MTEXT
  5
2BE21
100
AcDbEntity
  8
0
  6
BYBLOCK
 62
     0
100
AcDbMText
 10
161.70532
 20
226.252668
 30
0.0
 40
2.5
 41
0.0
 71
     5
 72
     1
  1
\A1;15
 11
0.0
 21
1.0
 31
0.0
  0
POINT
  5
2BE22
100
AcDbEntity
  8
DEFPOINTS
  6
BYBLOCK
 62
     0
100
AcDbPoint
 10
119.495597
 20
233.752668
 30
0.0
  0
POINT
  5
2BE23
100
AcDbEntity
  8
DEFPOINTS
  6
BYBLOCK
 62
     0
100
AcDbPoint
 10
95.141276
 20
218.752668
 30
0.0
  0
POINT
  5
2BE24
100
AcDbEntity
  8
DEFPOINTS
  6
BYBLOCK
 62
     0
100
AcDbPoint
 10
163.04532
 20
218.752668
 30
0.0
  0
ENDBLK
  5
2BE25
100
AcDbEntity
  8
0
100
AcDbBlockEnd
  0
BLOCK
  5
2BEAB
100
AcDbEntity
  8
0
100
AcDbBlockBegin
  2
DINA4MK
 70
     2
 10
0.0
 20
0.0
 30
0.0
  3
DINA4MK
  1

  0
ATTDEF
  5
2C6EC
100
AcDbEntity
  8
MASSE
100
AcDbText
 10
-71.1088
 20
55.329622
 30
0.0
 40
2.0
  1
1:1
  7
ROMANS
100
AcDbAttributeDefinition
  3
Maßstab
  2
MAßSTAB
 70
     0
  0
ATTDEF
  5
2C6ED
100
AcDbEntity
  8
MASSE
100
AcDbText
 10
-87.38112
 20
31.163426
 30
0.0
 40
3.0
  1

  7
ROMANS
100
AcDbAttributeDefinition
  3
Bezeichnung 1:
  2
BEZEICHNUNG 1
 70
     0
  0
ATTDEF
  5
2C6EE
100
AcDbEntity
  8
MASSE
100
AcDbText
 10
-87.465436
 20
45.219089
 30
0.0
 40
3.0
  1

  7
ROMANS
100
AcDbAttributeDefinition
  3
Werkstoff:
  2
WERKSTOFF
 70
     0
  0
ATTDEF
  5
2C6EF
100
AcDbEntity
  8
MASSE
100
AcDbText
 10
-87.805373
 20
9.639718
 30
0.0
 40
3.0
  1

  7
ROMANS
100
AcDbAttributeDefinition
  3
Zeichnungsnummer:
  2
ZEICHNUNGS.NR.
 70
     0
  0
LINE
  5
2C6F0
100
AcDbEntity
  8
KOPF
 62
     5
100
AcDbLine
 10
-198.0
 20
285.0
 30
0.0
 11
0.0
 21
285.0
 31
0.0
  0
LINE
  5
2C6F1
100
AcDbEntity
  8
KOPF
100
AcDbLine
 10
0.0
 20
53.0
 30
0.0
 11
-91.0
 21
53.0
 31
0.0
  0
LINE
  5
2C6F2
100
AcDbEntity
  8
KOPF
100
AcDbLine
 10
0.0
 20
40.5
 30
0.0
 11
-198.0
 21
40.5
 31
0.0
  0
LINE
  5
2C6F3
100
AcDbEntity
  8
KOPF
100
AcDbLine
 10
0.0
 20
18.0
 30
0.0
 11
-198.0
 21
18.0
 31
0.0
  0
LINE
  5
2C6F4
100
AcDbEntity
  8
KOPF
100
AcDbLine
 10
0.0
 20
4.5
 30
0.0
 11
-198.0
 21
4.5
 31
0.0
  0
LINE
  5
2C6F5
100
AcDbEntity
  8
KOPF
 62
     5
100
AcDbLine
 10
0.0
 20
60.0
 30
0.0
 11
-198.0
 21
60.0
 31
0.0
  0
LINE
  5
2C6F6
100
AcDbEntity
  8
KOPF
 62
     5
100
AcDbLine
 10
0.0
 20
0.0
 30
0.0
 11
-198.0
 21
0.0
 31
0.0
  0
LINE
  5
2C6F7
100
AcDbEntity
  8
KOPF
 62
     5
100
AcDbLine
 10
-198.0
 20
0.0
 30
0.0
 11
-198.0
 21
285.0
 31
0.0
  0
TEXT
  5
2C6F8
100
AcDbEntity
  8
KOPF
100
AcDbText
 10
-133.742947
 20
23.337808
 30
0.0
 40
2.2
  1
Norm
  7
ROMANS
 11
-133.742947
 21
24.437808
 31
0.0
100
AcDbText
 73
     2
  0
TEXT
  5
2C6F9
100
AcDbEntity
  8
KOPF
100
AcDbText
 10
-134.0
 20
32.25
 30
0.0
 40
2.2
  1
Bearb.
 41
0.994318
  7
ROMANS
 72
     5
 11
-124.0
 21
32.25
 31
0.0
100
AcDbText
  0
TEXT
  5
2C6FA
100
AcDbEntity
  8
KOPF
100
AcDbText
 10
-133.933423
 20
27.704474
 30
0.0
 40
2.2
  1
Gepr.
  7
ROMANS
 72
     4
 11
-129.742947
 21
28.437808
 31
0.0
100
AcDbText
  0
LINE
  5
2C6FB
100
AcDbEntity
  8
KOPF
100
AcDbLine
 10
-91.0
 20
36.0
 30
0.0
 11
-134.0
 21
36.0
 31
0.0
  0
LINE
  5
2C6FC
100
AcDbEntity
  8
KOPF
100
AcDbLine
 10
-101.0
 20
36.0
 30
0.0
 11
-134.0
 21
36.0
 31
0.0
  0
LINE
  5
2C6FD
100
AcDbEntity
  8
KOPF
100
AcDbLine
 10
-91.0
 20
31.5
 30
0.0
 11
-198.0
 21
31.5
 31
0.0
  0
LINE
  5
2C6FE
100
AcDbEntity
  8
KOPF
100
AcDbLine
 10
-91.0
 20
27.0
 30
0.0
 11
-198.0
 21
27.0
 31
0.0
  0
LINE
  5
2C6FF
100
AcDbEntity
  8
KOPF
100
AcDbLine
 10
-91.0
 20
22.5
 30
0.0
 11
-198.0
 21
22.5
 31
0.0
  0
LINE
  5
2C700
100
AcDbEntity
  8
KOPF
100
AcDbLine
 10
-149.0
 20
0.0
 30
0.0
 11
-149.0
 21
31.5
 31
0.0
  0
LINE
  5
2C701
100
AcDbEntity
  8
KOPF
100
AcDbLine
 10
-190.0
 20
0.0
 30
0.0
 11
-190.0
 21
31.5
 31
0.0
  0
LINE
  5
2C702
100
AcDbEntity
  8
KOPF
100
AcDbLine
 10
-165.0
 20
0.0
 30
0.0
 11
-165.0
 21
31.5
 31
0.0
  0
LINE
  5
2C703
100
AcDbEntity
  8
KOPF
100
AcDbLine
 10
-134.0
 20
0.0
 30
0.0
 11
-134.0
 21
60.0
 31
0.0
  0
LINE
  5
2C704
100
AcDbEntity
  8
KOPF
100
AcDbLine
 10
-134.0
 20
9.0
 30
0.0
 11
-198.0
 21
9.0
 31
0.0
  0
TEXT
  5
2C705
100
AcDbEntity
  8
KOPF
100
AcDbText
 10
-186.128661
 20
1.49495
 30
0.0
 40
2.2
  1
Änderung
  7
ROMANS
 72
     4
 11
-178.742947
 21
2.437808
 31
0.0
100
AcDbText
  0
TEXT
  5
2C706
100
AcDbEntity
  8
KOPF
100
AcDbText
 10
-197.883118
 20
1.320389
 30
0.0
 40
2.2
  1
Zust
  7
ROMANS
 72
     4
 11
-194.268833
 21
2.420389
 31
0.0
100
AcDbText
  0
TEXT
  5
2C707
100
AcDbEntity
  8
KOPF
100
AcDbText
 10
-162.35089
 20
1.337808
 30
0.0
 40
2.2
  1
Datum
  7
ROMANS
 72
     4
 11
-157.060414
 21
2.437808
 31
0.0
100
AcDbText
  0
TEXT
  5
2C708
100
AcDbEntity
  8
KOPF
100
AcDbText
 10
-149.033723
 20
1.351835
 30
0.0
 40
2.2
  1
Name
  7
ROMANS
 72
     4
 11
-144.319438
 21
2.451835
 31
0.0
100
AcDbText
  0
ATTDEF
  5
2C709
100
AcDbEntity
  8
MASSE
100
AcDbText
 10
-193.390984
 20
49.026503
 30
0.0
 40
3.0
  1

  7
ROMANS
100
AcDbAttributeDefinition
  3
Verwendungsbereich
  2
VERWENDUNG
 70
     0
  0
LINE
  5
2C70A
100
AcDbEntity
  8
KOPF
100
AcDbLine
 10
-134.0
 20
13.5
 30
0.0
 11
-198.0
 21
13.5
 31
0.0
  0
LINE
  5
2C70B
100
AcDbEntity
  8
KOPF
100
AcDbLine
 10
-91.0
 20
0.0
 30
0.0
 11
-91.0
 21
60.0
 31
0.0
  0
ATTDEF
  5
2C70C
100
AcDbEntity
  8
MASSE
100
AcDbText
 10
-77.007586
 20
1.077774
 30
0.0
 40
2.0
  1

  7
ROMANS
100
AcDbAttributeDefinition
  3
Ersatz für:
  2
ERSATZ
 70
     0
  0
TEXT
  5
2C70D
100
AcDbEntity
  8
KOPF
100
AcDbText
 10
-104.457232
 20
36.337808
 30
0.0
 40
2.2
  1
Name
  7
ROMANS
 72
     4
 11
-99.742947
 21
37.437808
 31
0.0
100
AcDbText
  0
LINE
  5
2C70E
100
AcDbEntity
  8
KOPF
100
AcDbLine
 10
-124.0
 20
22.5
 30
0.0
 11
-124.0
 21
40.5
 31
0.0
  0
TEXT
  5
2C70F
100
AcDbEntity
  8
KOPF
100
AcDbText
 10
-122.033423
 20
36.337808
 30
0.0
 40
2.2
  1
Datum
  7
ROMANS
 72
     4
 11
-116.742947
 21
37.437808
 31
0.0
100
AcDbText
  0
LINE
  5
2C710
100
AcDbEntity
  8
KOPF
100
AcDbLine
 10
-109.0
 20
18.0
 30
0.0
 11
-109.0
 21
60.0
 31
0.0
  0
ATTDEF
  5
2C711
100
AcDbEntity
  8
MASSE
100
AcDbText
 10
-123.354595
 20
32.368259
 30
0.0
 40
2.0
  1

  7
ROMANS
100
AcDbAttributeDefinition
  3
Datum:
  2
DATUM
 70
     0
  0
ATTDEF
  5
2C712
100
AcDbEntity
  8
MASSE
100
AcDbText
 10
-108.266369
 20
32.368259
 30
0.0
 40
2.0
  1

  7
ROMANS
100
AcDbAttributeDefinition
  3
Name:
  2
NAME
 70
     0
  0
ATTDEF
  5
2C713
100
AcDbEntity
  8
MASSE
100
AcDbText
 10
-122.228607
 20
43.398718
 30
0.0
 40
2.5
  1
mK
  7
ROMANS
100
AcDbAttributeDefinition
  3
Norm mittel(mK) oder fein(fH)
  2
NORM
 70
     0
  0
TEXT
  5
2C714
100
AcDbEntity
  8
KOPF
100
AcDbText
 10
-132.717246
 20
51.49641
 30
0.0
 40
2.5
  1
toleranzen
  7
ROMANS
100
AcDbText
  0
TEXT
  5
2C715
100
AcDbEntity
  8
KOPF
100
AcDbText
 10
-132.717246
 20
55.544029
 30
0.0
 40
2.5
  1
Allgemein-
  7
ROMANS
100
AcDbText
  0
TEXT
  5
2C716
100
AcDbEntity
  8
KOPF
100
AcDbText
 10
-132.717246
 20
47.448791
 30
0.0
 40
2.5
  1
DIN-ISO
  7
ROMANS
100
AcDbText
  0
TEXT
  5
2C717
100
AcDbEntity
  8
KOPF
100
AcDbText
 10
-132.717246
 20
43.401172
 30
0.0
 40
2.5
  1
2768
  7
ROMANS
100
AcDbText
  0
TEXT
  5
2C718
100
AcDbEntity
  8
KOPF
100
AcDbText
 10
-87.307222
 20
55.295291
 30
0.0
 40
2.2
  1
Maßstab
  7
ROMANS
 72
     4
 11
-80.550079
 21
56.395291
 31
0.0
100
AcDbText
  0
LINE
  5
2C719
100
AcDbEntity
  8
KOPF
 62
     5
100
AcDbLine
 10
0.0
 20
0.0
 30
0.0
 11
0.0
 21
285.0
 31
0.0
  0
LINE
  5
2C71A
100
AcDbEntity
  8
KOPF
100
AcDbLine
 10
-15.450851
 20
9.493772
 30
0.0
 11
0.081846
 21
9.493772
 31
0.0
  0
ATTDEF
  5
2C71B
100
AcDbEntity
  8
MASSE
100
AcDbText
 10
-13.683465
 20
10.532453
 30
0.0
 40
2.0
  1

  7
ROMANS
100
AcDbAttributeDefinition
  3
Blatt Nr.
  2
BLATT
 70
     0
  0
LINE
  5
2C71C
100
AcDbEntity
  8
KOPF
100
AcDbLine
 10
-15.450851
 20
18.122712
 30
0.0
 11
-15.450851
 21
4.602083
 31
0.0
  0
LINE
  5
2C71D
100
AcDbEntity
  8
KOPF
100
AcDbLine
 10
-44.19601
 20
0.0
 30
0.0
 11
-44.19601
 21
4.5
 31
0.0
  0
ATTDEF
  5
2C71E
100
AcDbEntity
  8
MASSE
100
AcDbText
 10
-13.683464
 20
6.030225
 30
0.0
 40
2.0
  1

  7
ROMANS
100
AcDbAttributeDefinition
  3
Satz besteht aus ? Blättern
  2
BL
 70
     0
  0
TEXT
  5
2C71F
100
AcDbEntity
  8
KOPF
100
AcDbText
 10
-6.836638
 20
5.692484
 30
0.0
 40
2.5
  1
BL
  7
ROMANS
100
AcDbText
  0
LINE
  5
2C720
100
AcDbEntity
  8
KOPF
100
AcDbLine
 10
-41.0
 20
53.0
 30
0.0
 11
-41.0
 21
60.0
 31
0.0
  0
TEXT
  5
2C721
100
AcDbEntity
  8
KOPF
100
AcDbText
 10
-14.009945
 20
14.375678
 30
0.0
 40
2.0
  1
Blatt
  7
ROMANS
100
AcDbText
  0
TEXT
  5
2C722
100
AcDbEntity
  8
KOPF
100
AcDbText
 10
-39.231617
 20
55.438362
 30
0.0
 40
2.0
  1
Wz.Nr:
  7
ROMANS
100
AcDbText
  0
ATTDEF
  5
2C723
100
AcDbEntity
  8
MASSE
100
AcDbText
 10
-29.936833
 20
55.401902
 30
0.0
 40
2.0
  1

  7
ROMANS
100
AcDbAttributeDefinition
  3
Werkzeugnummer:
  2
WERKZEUGNUMMER
 70
     0
  0
ATTDEF
  5
2C724
100
AcDbEntity
  8
MASSE
100
AcDbText
 10
-43.207188
 20
1.237857
 30
0.0
 40
2.0
  1

  7
ROMANS
100
AcDbAttributeDefinition
  3
Dateiname
  2
DATEINAME
 70
     0
  0
ATTDEF
  5
2C725
100
AcDbEntity
  8
MASSE
100
AcDbText
 10
-87.378924
 20
23.683351
 30
0.0
 40
3.0
  1

  7
ROMANS
100
AcDbAttributeDefinition
  3
Bezeichnung 2:
  2
BEZEICHNUNG 2
 70
     0
  0
TEXT
  5
2C726
100
AcDbEntity
  8
MASSE
  6
VERDECKT
 62
     3
100
AcDbText
 10
-87.372043
 20
37.350126
 30
0.0
 40
1.5
  1
Benennung:
  7
ROMANS
 11
-87.372043
 21
36.850126
 31
0.0
100
AcDbText
 73
     1
  0
TEXT
  5
2C727
100
AcDbEntity
  8
MASSE
100
AcDbText
 10
-195.32108
 20
36.919002
 30
0.0
 40
1.4
  1
Diese Zeichnung darf ohne unsere Genehmigung
  7
ROMANS
100
AcDbText
  0
TEXT
  5
2C728
100
AcDbEntity
  8
MASSE
100
AcDbText
 10
-195.32108
 20
33.680907
 30
0.0
 40
1.4
  1
weder kopiert noch dritten Personen mitgeteilt werden!
  7
ROMANS
100
AcDbText
  0
TEXT
  5
2C729
100
AcDbEntity
  8
KOPF
100
AcDbText
 10
-193.944964
 20
55.752433
 30
0.0
 40
1.5
  1
Verwendung/Abteilung
  7
ROMANS
 72
     4
 11
-181.694964
 21
56.395291
 31
0.0
100
AcDbText
  0
TEXT
  5
2C72A
100
AcDbEntity
  8
MASSE
  6
VERDECKT
 62
     3
100
AcDbText
 10
-87.372043
 20
50.295274
 30
0.0
 40
1.5
  1
Werkstoff:
  7
ROMANS
 11
-87.372043
 21
49.795274
 31
0.0
100
AcDbText
 73
     1
  0
TEXT
  5
2C72B
100
AcDbEntity
  8
MASSE
  6
VERDECKT
 62
     3
100
AcDbText
 10
-87.372044
 20
15.312846
 30
0.0
 40
1.5
  1
Zeichnungsnummer:
  7
ROMANS
 11
-87.372044
 21
14.812846
 31
0.0
100
AcDbText
 73
     1
  0
TEXT
  5
2C72C
100
AcDbEntity
  8
MASSE
  6
VERDECKT
 62
     3
100
AcDbText
 10
-90.140984
 20
1.369266
 30
0.0
 40
1.5
  1
Ersatz für:
  7
ROMANS
 11
-90.140984
 21
0.869266
 31
0.0
100
AcDbText
 73
     1
  0
TEXT
  5
2C72D
100
AcDbEntity
  8
KOPF
100
AcDbText
 10
-123.397245
 20
13.084419
 30
0.0
 40
2.5
  1
ANUBA  AG
  7
ROMANS
100
AcDbText
  0
TEXT
  5
2C72E
100
AcDbEntity
  8
KOPF
100
AcDbText
 10
-132.809306
 20
9.696954
 30
0.0
 40
1.8
  1
 D-78147 Vöhrenbach/Schwarzwald
 41
0.8
  7
ROMANS
100
AcDbText
  0
TEXT
  5
2C72F
100
AcDbEntity
  8
KOPF
100
AcDbText
 10
-131.723209
 20
6.379393
 30
0.0
 40
1.7
  1
Tel.(07727)920-0 Fax(07727)920222
 41
0.8
  7
ROMANS
100
AcDbText
  0
TEXT
  5
2C730
100
AcDbEntity
  8
0
  6
VERDECKT
 62
     3
100
AcDbText
 10
-130.834977
 20
1.293498
 30
0.0
 40
1.5
  1
CAD: Sys_5 / Konstr. V. Lesar
  7
ROMANS
 11
-130.834977
 21
0.793498
 31
0.0
100
AcDbText
 73
     1
  0
ENDBLK
  5
2BEAC
100
AcDbEntity
  8
0
100
AcDbBlockEnd
  0
BLOCK
  5
2D4B4
100
AcDbEntity
  8
0
100
AcDbBlockBegin
  2
*D23
 70
     1
 10
0.0
 20
0.0
 30
0.0
  3
*D23
  1

  0
LINE
  5
2D4B5
100
AcDbEntity
  8
0
  6
BYBLOCK
 62
     0
100
AcDbLine
 10
-454.716948
 20
172.788437
 30
0.0
 11
-454.716948
 21
189.770402
 31
0.0
  0
LINE
  5
2D4B6
100
AcDbEntity
  8
0
  6
BYBLOCK
 62
     0
100
AcDbLine
 10
-432.665095
 20
172.788437
 30
0.0
 11
-432.665095
 21
189.770402
 31
0.0
  0
LINE
  5
2D4B7
100
AcDbEntity
  8
0
  6
BYBLOCK
 62
     0
100
AcDbLine
 10
-452.216948
 20
189.770402
 30
0.0
 11
-435.165095
 21
189.770402
 31
0.0
  0
SOLID
  5
2D4B8
100
AcDbEntity
  8
0
  6
BYBLOCK
 62
     0
100
AcDbTrace
 10
-452.216948
 20
190.187069
 30
0.0
 11
-452.216948
 21
189.353735
 31
0.0
 12
-454.716948
 22
189.770402
 32
0.0
 13
-454.716948
 23
189.770402
 33
0.0
  0
SOLID
  5
2D4B9
100
AcDbEntity
  8
0
  6
BYBLOCK
 62
     0
100
AcDbTrace
 10
-435.165095
 20
190.187069
 30
0.0
 11
-435.165095
 21
189.353735
 31
0.0
 12
-432.665095
 22
189.770402
 32
0.0
 13
-432.665095
 23
189.770402
 33
0.0
  0
MTEXT
  5
2D4BA
100
AcDbEntity
  8
0
  6
BYBLOCK
 62
     0
100
AcDbMText
 10
-443.691021
 20
191.110402
 30
0.0
 40
2.5
 41
0.0
 71
     5
 72
     1
  1
\A1;22
  0
POINT
  5
2D4BB
100
AcDbEntity
  8
DEFPOINTS
  6
BYBLOCK
 62
     0
100
AcDbPoint
 10
-454.716948
 20
172.688437
 30
0.0
  0
POINT
  5
2D4BC
100
AcDbEntity
  8
DEFPOINTS
  6
BYBLOCK
 62
     0
100
AcDbPoint
 10
-432.665095
 20
172.688437
 30
0.0
  0
POINT
  5
2D4BD
100
AcDbEntity
  8
DEFPOINTS
  6
BYBLOCK
 62
     0
100
AcDbPoint
 10
-432.665095
 20
189.770402
 30
0.0
  0
ENDBLK
  5
2D4BE
100
AcDbEntity
  8
0
100
AcDbBlockEnd
  0
BLOCK
  5
2D4C0
100
AcDbEntity
  8
0
100
AcDbBlockBegin
  2
*D24
 70
     1
 10
0.0
 20
0.0
 30
0.0
  3
*D24
  1

  0
LINE
  5
2D4C1
100
AcDbEntity
  8
0
  6
BYBLOCK
 62
     0
100
AcDbLine
 10
-466.927818
 20
147.981921
 30
0.0
 11
-482.083529
 21
147.981921
 31
0.0
  0
LINE
  5
2D4C2
100
AcDbEntity
  8
0
  6
BYBLOCK
 62
     0
100
AcDbLine
 10
-432.962627
 20
170.271683
 30
0.0
 11
-482.083529
 21
170.271683
 31
0.0
  0
LINE
  5
2D4C3
100
AcDbEntity
  8
0
  6
BYBLOCK
 62
     0
100
AcDbLine
 10
-482.083529
 20
150.481921
 30
0.0
 11
-482.083529
 21
167.771683
 31
0.0
  0
SOLID
  5
2D4C4
100
AcDbEntity
  8
0
  6
BYBLOCK
 62
     0
100
AcDbTrace
 10
-482.500195
 20
150.481921
 30
0.0
 11
-481.666862
 21
150.481921
 31
0.0
 12
-482.083529
 22
147.981921
 32
0.0
 13
-482.083529
 23
147.981921
 33
0.0
  0
SOLID
  5
2D4C5
100
AcDbEntity
  8
0
  6
BYBLOCK
 62
     0
100
AcDbTrace
 10
-482.500195
 20
167.771683
 30
0.0
 11
-481.666862
 21
167.771683
 31
0.0
 12
-482.083529
 22
170.271683
 32
0.0
 13
-482.083529
 23
170.271683
 33
0.0
  0
MTEXT
  5
2D4C6
100
AcDbEntity
  8
0
  6
BYBLOCK
 62
     0
100
AcDbMText
 10
-483.423529
 20
159.126802
 30
0.0
 40
2.5
 41
0.0
 71
     5
 72
     1
  1
\A1;22
 11
0.0
 21
1.0
 31
0.0
  0
POINT
  5
2D4C7
100
AcDbEntity
  8
DEFPOINTS
  6
BYBLOCK
 62
     0
100
AcDbPoint
 10
-466.827818
 20
147.981921
 30
0.0
  0
POINT
  5
2D4C8
100
AcDbEntity
  8
DEFPOINTS
  6
BYBLOCK
 62
     0
100
AcDbPoint
 10
-432.862627
 20
170.271683
 30
0.0
  0
POINT
  5
2D4C9
100
AcDbEntity
  8
DEFPOINTS
  6
BYBLOCK
 62
     0
100
AcDbPoint
 10
-482.083529
 20
170.271683
 30
0.0
  0
ENDBLK
  5
2D4CA
100
AcDbEntity
  8
0
100
AcDbBlockEnd
  0
BLOCK
  5
2D4CC
100
AcDbEntity
  8
0
100
AcDbBlockBegin
  2
*D25
 70
     1
 10
0.0
 20
0.0
 30
0.0
  3
*D25
  1

  0
LINE
  5
2D4CD
100
AcDbEntity
  8
0
  6
BYBLOCK
 62
     0
100
AcDbLine
 10
-432.862627
 20
170.371683
 30
0.0
 11
-432.862627
 21
189.962843
 31
0.0
  0
LINE
  5
2D4CE
100
AcDbEntity
  8
0
  6
BYBLOCK
 62
     0
100
AcDbLine
 10
-392.362627
 20
174.53502
 30
0.0
 11
-392.362627
 21
189.962843
 31
0.0
  0
LINE
  5
2D4CF
100
AcDbEntity
  8
0
  6
BYBLOCK
 62
     0
100
AcDbLine
 10
-430.362627
 20
189.962843
 30
0.0
 11
-394.862627
 21
189.962843
 31
0.0
  0
SOLID
  5
2D4D0
100
AcDbEntity
  8
0
  6
BYBLOCK
 62
     0
100
AcDbTrace
 10
-430.362627
 20
190.37951
 30
0.0
 11
-430.362627
 21
189.546176
 31
0.0
 12
-432.862627
 22
189.962843
 32
0.0
 13
-432.862627
 23
189.962843
 33
0.0
  0
SOLID
  5
2D4D1
100
AcDbEntity
  8
0
  6
BYBLOCK
 62
     0
100
AcDbTrace
 10
-394.862627
 20
190.37951
 30
0.0
 11
-394.862627
 21
189.546176
 31
0.0
 12
-392.362627
 22
189.962843
 32
0.0
 13
-392.362627
 23
189.962843
 33
0.0
  0
MTEXT
  5
2D4D2
100
AcDbEntity
  8
0
  6
BYBLOCK
 62
     0
100
AcDbMText
 10
-412.612627
 20
191.302843
 30
0.0
 40
2.5
 41
0.0
 71
     5
 72
     1
  1
\A1;40.5
  0
POINT
  5
2D4D3
100
AcDbEntity
  8
DEFPOINTS
  6
BYBLOCK
 62
     0
100
AcDbPoint
 10
-432.862627
 20
170.271683
 30
0.0
  0
POINT
  5
2D4D4
100
AcDbEntity
  8
DEFPOINTS
  6
BYBLOCK
 62
     0
100
AcDbPoint
 10
-392.362627
 20
174.43502
 30
0.0
  0
POINT
  5
2D4D5
100
AcDbEntity
  8
DEFPOINTS
  6
BYBLOCK
 62
     0
100
AcDbPoint
 10
-392.362627
 20
189.962843
 30
0.0
  0
ENDBLK
  5
2D4D6
100
AcDbEntity
  8
0
100
AcDbBlockEnd
  0
BLOCK
  5
2D4D8
100
AcDbEntity
  8
0
100
AcDbBlockBegin
  2
*D26
 70
     1
 10
0.0
 20
0.0
 30
0.0
  3
*D26
  1

  0
LINE
  5
2D4D9
100
AcDbEntity
  8
0
  6
BYBLOCK
 62
     0
100
AcDbLine
 10
-454.716948
 20
172.888437
 30
0.0
 11
-454.716948
 21
197.592561
 31
0.0
  0
LINE
  5
2D4DA
100
AcDbEntity
  8
0
  6
BYBLOCK
 62
     0
100
AcDbLine
 10
-392.362627
 20
174.53502
 30
0.0
 11
-392.362627
 21
197.592561
 31
0.0
  0
LINE
  5
2D4DB
100
AcDbEntity
  8
0
  6
BYBLOCK
 62
     0
100
AcDbLine
 10
-452.216948
 20
197.592561
 30
0.0
 11
-394.862627
 21
197.592561
 31
0.0
  0
SOLID
  5
2D4DC
100
AcDbEntity
  8
0
  6
BYBLOCK
 62
     0
100
AcDbTrace
 10
-452.216948
 20
198.009228
 30
0.0
 11
-452.216948
 21
197.175894
 31
0.0
 12
-454.716948
 22
197.592561
 32
0.0
 13
-454.716948
 23
197.592561
 33
0.0
  0
SOLID
  5
2D4DD
100
AcDbEntity
  8
0
  6
BYBLOCK
 62
     0
100
AcDbTrace
 10
-394.862627
 20
198.009228
 30
0.0
 11
-394.862627
 21
197.175894
 31
0.0
 12
-392.362627
 22
197.592561
 32
0.0
 13
-392.362627
 23
197.592561
 33
0.0
  0
MTEXT
  5
2D4DE
100
AcDbEntity
  8
0
  6
BYBLOCK
 62
     0
100
AcDbMText
 10
-423.539787
 20
198.932561
 30
0.0
 40
2.5
 41
0.0
 71
     5
 72
     1
  1
\A1;62.5
  0
POINT
  5
2D4DF
100
AcDbEntity
  8
DEFPOINTS
  6
BYBLOCK
 62
     0
100
AcDbPoint
 10
-454.716948
 20
172.788437
 30
0.0
  0
POINT
  5
2D4E0
100
AcDbEntity
  8
DEFPOINTS
  6
BYBLOCK
 62
     0
100
AcDbPoint
 10
-392.362627
 20
174.43502
 30
0.0
  0
POINT
  5
2D4E1
100
AcDbEntity
  8
DEFPOINTS
  6
BYBLOCK
 62
     0
100
AcDbPoint
 10
-392.362627
 20
197.592561
 30
0.0
  0
ENDBLK
  5
2D4E2
100
AcDbEntity
  8
0
100
AcDbBlockEnd
  0
ENDSEC
  0
SECTION
  2
ENTITIES
  0
INSERT
  5
3
100
AcDbEntity
  8
ASHADE
 62
     1
100
AcDbBlockReference
  2
AVE_RENDER
 10
0.0
 20
0.0
 30
0.0
1001
AVE_RENDER
1002
{
1070
     2
1000
Pref
1070
    30
1070
    20
1070
     0
1070
     0
1000

1070
    10
1070
     0
1070
    30
1040
1.0
1070
     1
1040
0.3
1040
0.7
1040
0.0
1040
10.0
1010
-1.0
1020
-1.0
1030
-1.0
1040
0.3
1070
    49
1002
}
  0
INSERT
  5
4
100
AcDbEntity
  8
ASHADE
 62
     3
100
AcDbBlockReference
  2
AVE_RENDER
 10
0.0
 20
0.0
 30
0.0
1001
AVE_RENDER
1002
{
1070
     0
1000
Full Opt
1070
     0
1070
     1
1070
     1
1070
     1
1070
     0
1070
     0
1070
     0
1070
     1
1070
     1
1040
0.0001
1040
0.0001
1002
}
  0
INSERT
  5
5
100
AcDbEntity
  8
ASHADE
 62
     4
100
AcDbBlockReference
  2
AVE_RENDER
 10
0.0
 20
0.0
 30
0.0
1001
AVE_RENDER
1002
{
1070
     0
1000
Quick Opt
1070
     0
1070
     1
1070
     1
1070
     1
1070
     0
1070
     0
1070
     1
1002
}
  0
DIMENSION
  5
2BD35
100
AcDbEntity
  8
MASSE
  6
CONTINUOUS
100
AcDbDimension
  2
*D16
 10
53.442953
 20
137.252668
 30
0.0
 11
52.102953
 21
158.252668
 31
0.0
 12
221.614623
 22
0.0
 32
0.0
 70
    32
  1
42
  3
STANDARD
100
AcDbAlignedDimension
 13
94.495597
 23
179.252668
 33
0.0
 14
94.495597
 24
137.252668
 34
0.0
 50
90.0
100
AcDbRotatedDimension
1001
ACAD
1000
DSTYLE
1002
{
1070
   140
1040
2.5
1070
    74
1070
     0
1070
    73
1070
     0
1070
   146
1040
0.8
1070
    77
1070
     1
1070
    42
1040
0.1
1070
    44
1040
0.0
1070
    43
1040
7.0
1070
   141
1040
1.5
1070
    41
1040
2.5
1002
}
  0
DIMENSION
  5
2BD36
100
AcDbEntity
  8
MASSE
  6
CONTINUOUS
100
AcDbDimension
  2
*D15
 10
63.872565
 20
137.252668
 30
0.0
 11
62.532565
 21
144.842668
 31
0.0
 12
221.614623
 22
0.0
 32
0.0
 70
    32
  1
2.5
  3
STANDARD
100
AcDbAlignedDimension
 13
70.895597
 23
134.752668
 33
0.0
 14
95.495597
 24
137.252668
 34
0.0
 50
90.0
100
AcDbRotatedDimension
1001
ACAD
1000
DSTYLE
1002
{
1070
   140
1040
2.5
1070
    74
1070
     0
1070
    73
1070
     0
1070
   146
1040
0.8
1070
    77
1070
     1
1070
    42
1040
0.1
1070
    44
1040
0.0
1070
    43
1040
7.0
1070
   141
1040
1.5
1070
    41
1040
2.5
1002
}
  0
DIMENSION
  5
2BD37
100
AcDbEntity
  8
MASSE
  6
CONTINUOUS
100
AcDbDimension
  2
*D11
 10
186.09372
 20
147.252668
 30
0.0
 11
184.75372
 21
133.502668
 31
0.0
 12
221.614623
 22
0.0
 32
0.0
 70
    32
  1
27.5
  3
STANDARD
100
AcDbAlignedDimension
 13
78.141276
 23
119.752668
 33
0.0
 14
174.635351
 24
147.252668
 34
0.0
 50
90.0
100
AcDbRotatedDimension
1001
ACAD
1000
DSTYLE
1002
{
1070
   140
1040
2.5
1070
    74
1070
     0
1070
    73
1070
     0
1070
   146
1040
0.8
1070
    77
1070
     1
1070
    42
1040
0.1
1070
    44
1040
0.0
1070
    43
1040
7.0
1070
   141
1040
1.5
1070
    41
1040
2.5
1002
}
  0
LINE
  5
2BD38
100
AcDbEntity
  8
MASSE
  6
VERDECKT
 62
     3
100
AcDbLine
 10
100.995597
 20
82.752668
 30
0.0
 11
100.995597
 21
179.252668
 31
0.0
  0
LINE
  5
2BD39
100
AcDbEntity
  8
MASSE
  6
VERDECKT
 62
     3
100
AcDbLine
 10
112.995597
 20
82.752668
 30
0.0
 11
112.995597
 21
179.252668
 31
0.0
  0
LINE
  5
2BD3A
100
AcDbEntity
  8
MASSE
  6
CONTINUOUS
 62
     5
100
AcDbLine
 10
119.495597
 20
137.252668
 30
0.0
 11
119.495597
 21
179.252668
 31
0.0
  0
LINE
  5
2BD3B
100
AcDbEntity
  8
MASSE
  6
STRICHPUNKT
 62
     2
100
AcDbLine
 10
147.495597
 20
137.252668
 30
0.0
 11
147.495597
 21
179.252668
 31
0.0
  0
LINE
  5
2BD3C
100
AcDbEntity
  8
MASSE
100
AcDbLine
 10
162.863838
 20
137.252668
 30
0.0
 11
162.863838
 21
179.252668
 31
0.0
  0
LINE
  5
2BD3D
100
AcDbEntity
  8
MASSE
  6
CONTINUOUS
 62
     5
100
AcDbLine
 10
94.495597
 20
137.252668
 30
0.0
 11
94.495597
 21
179.252668
 31
0.0
  0
LINE
  5
2BD3E
100
AcDbEntity
  8
MASSE
  6
CONTINUOUS
 62
     5
100
AcDbLine
 10
166.495597
 20
137.252668
 30
0.0
 11
166.495597
 21
179.252668
 31
0.0
  0
DIMENSION
  5
2BD3F
100
AcDbEntity
  8
MASSE
  6
CONTINUOUS
100
AcDbDimension
  2
*D14
 10
53.724834
 20
134.752668
 30
0.0
 11
52.384834
 21
108.752668
 31
0.0
 12
221.614623
 22
0.0
 32
0.0
 70
    32
  1
52
  3
STANDARD
100
AcDbAlignedDimension
 13
70.995597
 23
82.752668
 33
0.0
 14
70.995597
 24
134.752668
 34
0.0
 50
90.0
100
AcDbRotatedDimension
1001
ACAD
1000
DSTYLE
1002
{
1070
   140
1040
2.5
1070
    74
1070
     0
1070
    73
1070
     0
1070
   146
1040
0.8
1070
    77
1070
     1
1070
    42
1040
0.1
1070
    44
1040
0.0
1070
    43
1040
7.0
1070
   141
1040
1.5
1070
    41
1040
2.5
1002
}
  0
DIMENSION
  5
2BD41
100
AcDbEntity
  8
MASSE
  6
CONTINUOUS
100
AcDbDimension
  2
*D12
 10
164.944761
 20
119.752668
 30
0.0
 11
163.604761
 21
108.752668
 31
0.0
 12
221.614623
 22
0.0
 32
0.0
 70
    32
  1
22
  3
STANDARD
100
AcDbAlignedDimension
 13
95.141276
 23
97.752668
 33
0.0
 14
95.141276
 24
119.752668
 34
0.0
 50
90.0
100
AcDbRotatedDimension
1001
ACAD
1000
DSTYLE
1002
{
1070
   140
1040
2.5
1070
    74
1070
     0
1070
    73
1070
     0
1070
   146
1040
0.8
1070
    77
1070
     1
1070
    42
1040
0.1
1070
    44
1040
0.0
1070
    43
1040
7.0
1070
   141
1040
1.5
1070
    41
1040
2.5
1002
}
  0
LINE
  5
2BD42
100
AcDbEntity
  8
MASSE
  6
VERDECKT
 62
     3
100
AcDbLine
 10
98.995597
 20
82.752668
 30
0.0
 11
98.995597
 21
134.752668
 31
0.0
  0
LINE
  5
2BD43
100
AcDbEntity
  8
MASSE
  6
VERDECKT
 62
     3
100
AcDbLine
 10
114.995597
 20
82.752668
 30
0.0
 11
114.995597
 21
134.752668
 31
0.0
  0
LINE
  5
2BD44
100
AcDbEntity
  8
MASSE
  6
CONTINUOUS
 62
     5
100
AcDbLine
 10
94.495597
 20
82.752668
 30
0.0
 11
94.495597
 21
134.752668
 31
0.0
  0
LINE
  5
2BD45
100
AcDbEntity
  8
MASSE
  6
STRICHPUNKT
 62
     2
100
AcDbLine
 10
85.141276
 20
82.752668
 30
0.0
 11
85.141276
 21
134.752668
 31
0.0
  0
LINE
  5
2BD46
100
AcDbEntity
  8
MASSE
100
AcDbLine
 10
72.404478
 20
82.752668
 30
0.0
 11
72.404478
 21
134.752668
 31
0.0
  0
LINE
  5
2BD47
100
AcDbEntity
  8
MASSE
  6
CONTINUOUS
 62
     5
100
AcDbLine
 10
119.495597
 20
82.752668
 30
0.0
 11
119.495597
 21
134.752668
 31
0.0
  0
LINE
  5
2BD48
100
AcDbEntity
  8
MASSE
  6
CONTINUOUS
 62
     5
100
AcDbLine
 10
70.995597
 20
82.752668
 30
0.0
 11
70.995597
 21
134.752668
 31
0.0
  0
DIMENSION
  5
2BD49
100
AcDbEntity
  8
MASSE
  6
CONTINUOUS
100
AcDbDimension
  2
*D13
 10
164.944761
 20
97.752668
 30
0.0
 11
163.604761
 21
90.252668
 31
0.0
 12
221.614623
 22
0.0
 32
0.0
 70
    32
  1
15
  3
STANDARD
100
AcDbAlignedDimension
 13
119.495597
 23
82.752668
 33
0.0
 14
95.141276
 24
97.752668
 34
0.0
 50
90.0
100
AcDbRotatedDimension
1001
ACAD
1000
DSTYLE
1002
{
1070
   140
1040
2.5
1070
    74
1070
     0
1070
    73
1070
     0
1070
   146
1040
0.8
1070
    77
1070
     1
1070
    42
1040
0.1
1070
    44
1040
0.0
1070
    43
1040
7.0
1070
   141
1040
1.5
1070
    41
1040
2.5
1002
}
  0
LINE
  5
2BD4A
100
AcDbEntity
  8
MASSE
  6
STRICHPUNKT
 62
     2
100
AcDbLine
 10
95.141276
 20
97.752668
 30
0.0
 11
64.704211
 21
97.752668
 31
0.0
  0
LINE
  5
2BD4B
100
AcDbEntity
  8
MASSE
  6
CONTINUOUS
 62
     5
100
AcDbLine
 10
70.995597
 20
82.752668
 30
0.0
 11
119.495597
 21
82.752668
 31
0.0
  0
ARC
  5
2BD4C
100
AcDbEntity
  8
MASSE
  6
CONTINUOUS
 62
     5
100
AcDbCircle
 10
106.995597
 20
120.213201
 30
0.0
 40
39.49103
100
AcDbArc
 50
251.546943
 51
288.453057
  0
LINE
  5
2BD4D
100
AcDbEntity
  8
MASSE
  6
VERDECKT
 62
     3
100
AcDbLine
 10
98.995597
 20
90.752668
 30
0.0
 11
114.995597
 21
90.752668
 31
0.0
  0
LINE
  5
2BD4E
100
AcDbEntity
  8
MASSE
  6
VERDECKT
 62
     3
100
AcDbLine
 10
98.995597
 20
94.752668
 30
0.0
 11
114.995597
 21
94.752668
 31
0.0
  0
LINE
  5
2BD4F
100
AcDbEntity
  8
MASSE
  6
CONTINUOUS
 62
     5
100
AcDbLine
 10
94.495597
 20
137.252668
 30
0.0
 11
166.495597
 21
137.252668
 31
0.0
  0
LINE
  5
2BD50
100
AcDbEntity
  8
MASSE
  6
STRICHPUNKT
 62
     2
100
AcDbLine
 10
95.141276
 20
119.752668
 30
0.0
 11
64.704211
 21
119.752668
 31
0.0
  0
LINE
  5
2BD52
100
AcDbEntity
  8
MASSE
  6
CONTINUOUS
 62
     5
100
AcDbLine
 10
70.995597
 20
134.752668
 30
0.0
 11
119.495597
 21
134.752668
 31
0.0
  0
LINE
  5
2BD53
100
AcDbEntity
  8
MASSE
  6
CONTINUOUS
 62
     5
100
AcDbLine
 10
94.495597
 20
137.252668
 30
0.0
 11
94.495597
 21
140.662444
 31
0.0
  0
LINE
  5
2BD54
100
AcDbEntity
  8
MASSE
  6
CONTINUOUS
 62
     5
100
AcDbLine
 10
94.495597
 20
137.252668
 30
0.0
 11
107.427067
 21
137.252668
 31
0.0
  0
LINE
  5
2BD55
100
AcDbEntity
  8
MASSE
  6
CONTINUOUS
 62
     5
100
AcDbLine
 10
95.495597
 20
134.752668
 30
0.0
 11
95.495597
 21
137.252668
 31
0.0
  0
LINE
  5
2BD56
100
AcDbEntity
  8
MASSE
  6
CONTINUOUS
 62
     5
100
AcDbLine
 10
106.505277
 20
137.252668
 30
0.0
 11
106.505277
 21
134.752668
 31
0.0
  0
LINE
  5
2BD57
100
AcDbEntity
  8
MASSE
  6
CONTINUOUS
 62
     5
100
AcDbLine
 10
107.427067
 20
137.252668
 30
0.0
 11
107.427067
 21
134.752668
 31
0.0
  0
LINE
  5
2BD58
100
AcDbEntity
  8
MASSE
  6
CONTINUOUS
 62
     5
100
AcDbLine
 10
118.495597
 20
134.752668
 30
0.0
 11
118.495597
 21
137.252668
 31
0.0
  0
LINE
  5
2BD59
100
AcDbEntity
  8
MASSE
  6
CONTINUOUS
 62
     5
100
AcDbLine
 10
94.495597
 20
179.252668
 30
0.0
 11
166.495597
 21
179.252668
 31
0.0
  0
DIMENSION
  5
2BD5C
100
AcDbEntity
  8
MASSE
  6
CONTINUOUS
100
AcDbDimension
  2
*D10
 10
186.093726
 20
147.252668
 30
0.0
 11
184.753726
 21
158.241903
 31
0.0
 12
221.614623
 22
0.0
 32
0.0
 70
    32
  1
22
  3
STANDARD
100
AcDbAlignedDimension
 13
166.595597
 23
169.231138
 33
0.0
 14
174.635351
 24
147.252668
 34
0.0
 50
90.0
100
AcDbRotatedDimension
1001
ACAD
1000
DSTYLE
1002
{
1070
   140
1040
2.5
1070
    74
1070
     0
1070
    73
1070
     0
1070
   146
1040
0.8
1070
    77
1070
     1
1070
    42
1040
0.1
1070
    44
1040
0.0
1070
    43
1040
7.0
1070
   141
1040
1.5
1070
    41
1040
2.5
1002
}
  0
LINE
  5
2BD5D
100
AcDbEntity
  8
MASSE
  6
STRICHPUNKT
 62
     2
100
AcDbLine
 10
147.495597
 20
147.252668
 30
0.0
 11
174.635351
 21
147.252668
 31
0.0
  0
LINE
  5
2BD5E
100
AcDbEntity
  8
MASSE
  6
STRICHPUNKT
 62
     2
100
AcDbLine
 10
147.495597
 20
147.252668
 30
0.0
 11
127.989529
 21
147.252668
 31
0.0
  0
LINE
  5
2BD5F
100
AcDbEntity
  8
MASSE
  6
STRICHPUNKT
 62
     2
100
AcDbLine
 10
147.495597
 20
169.252668
 30
0.0
 11
174.635351
 21
169.252668
 31
0.0
  0
LINE
  5
2BD60
100
AcDbEntity
  8
MASSE
  6
STRICHPUNKT
 62
     2
100
AcDbLine
 10
147.495597
 20
169.252668
 30
0.0
 11
127.989529
 21
169.252668
 31
0.0
  0
LINE
  5
2BDC4
100
AcDbEntity
  8
MASSE
  6
CONTINUOUS
 62
     5
100
AcDbLine
 10
70.995597
 20
181.752668
 30
0.0
 11
119.495597
 21
181.752668
 31
0.0
  0
LINE
  5
2BDC5
100
AcDbEntity
  8
MASSE
  6
VERDECKT
 62
     3
100
AcDbLine
 10
98.995597
 20
221.752668
 30
0.0
 11
114.995597
 21
221.752668
 31
0.0
  0
LINE
  5
2BDC6
100
AcDbEntity
  8
MASSE
  6
VERDECKT
 62
     3
100
AcDbLine
 10
98.995597
 20
225.752668
 30
0.0
 11
114.995597
 21
225.752668
 31
0.0
  0
ARC
  5
2BDC7
100
AcDbEntity
  8
MASSE
  6
CONTINUOUS
 62
     5
100
AcDbCircle
 10
106.995597
 20
196.292136
 30
0.0
 40
39.49103
100
AcDbArc
 50
71.546943
 51
108.453057
  0
LINE
  5
2BDC8
100
AcDbEntity
  8
MASSE
  6
CONTINUOUS
 62
     5
100
AcDbLine
 10
70.995597
 20
233.752668
 30
0.0
 11
119.495597
 21
233.752668
 31
0.0
  0
LINE
  5
2BDC9
100
AcDbEntity
  8
MASSE
  6
CONTINUOUS
 62
     5
100
AcDbLine
 10
70.995597
 20
233.752668
 30
0.0
 11
70.995597
 21
181.752668
 31
0.0
  0
LINE
  5
2BDCA
100
AcDbEntity
  8
MASSE
100
AcDbLine
 10
72.404478
 20
233.752668
 30
0.0
 11
72.404478
 21
181.752668
 31
0.0
  0
LINE
  5
2BDCB
100
AcDbEntity
  8
MASSE
  6
STRICHPUNKT
 62
     2
100
AcDbLine
 10
85.141276
 20
233.752668
 30
0.0
 11
85.141276
 21
181.752668
 31
0.0
  0
LINE
  5
2BDCC
100
AcDbEntity
  8
MASSE
  6
CONTINUOUS
 62
     5
100
AcDbLine
 10
94.495597
 20
233.752668
 30
0.0
 11
94.495597
 21
181.752668
 31
0.0
  0
LINE
  5
2BDCD
100
AcDbEntity
  8
MASSE
  6
VERDECKT
 62
     3
100
AcDbLine
 10
98.995597
 20
233.752668
 30
0.0
 11
98.995597
 21
181.752668
 31
0.0
  0
DIMENSION
  5
2BDCF
100
AcDbEntity
  8
MASSE
  6
CONTINUOUS
100
AcDbDimension
  2
*D17
 10
53.724834
 20
181.752668
 30
0.0
 11
52.384834
 21
207.752668
 31
0.0
 70
    32
  1
52
  3
STANDARD
100
AcDbAlignedDimension
 13
70.995597
 23
233.752668
 33
0.0
 14
70.995597
 24
181.752668
 34
0.0
 50
90.0
100
AcDbRotatedDimension
1001
ACAD
1000
DSTYLE
1002
{
1070
   140
1040
2.5
1070
    74
1070
     0
1070
    73
1070
     0
1070
   146
1040
0.8
1070
    77
1070
     1
1070
    42
1040
0.1
1070
    44
1040
0.0
1070
    43
1040
7.0
1070
   141
1040
1.5
1070
    41
1040
2.5
1002
}
  0
LINE
  5
2BDD0
100
AcDbEntity
  8
MASSE
  6
STRICHPUNKT
 62
     2
100
AcDbLine
 10
95.141276
 20
218.752668
 30
0.0
 11
64.704211
 21
218.752668
 31
0.0
  0
LINE
  5
2BDD1
100
AcDbEntity
  8
MASSE
  6
STRICHPUNKT
 62
     2
100
AcDbLine
 10
95.141276
 20
196.752668
 30
0.0
 11
64.704211
 21
196.752668
 31
0.0
  0
LINE
  5
2BDD3
100
AcDbEntity
  8
MASSE
  6
CONTINUOUS
 62
     5
100
AcDbLine
 10
119.495597
 20
233.752668
 30
0.0
 11
119.495597
 21
181.752668
 31
0.0
  0
LINE
  5
2BDD4
100
AcDbEntity
  8
MASSE
  6
VERDECKT
 62
     3
100
AcDbLine
 10
114.995597
 20
233.752668
 30
0.0
 11
114.995597
 21
181.752668
 31
0.0
  0
LINE
  5
2BDEC
100
AcDbEntity
  8
MASSE
  6
CONTINUOUS
 62
     5
100
AcDbLine
 10
107.427067
 20
179.252668
 30
0.0
 11
107.427067
 21
181.752668
 31
0.0
  0
LINE
  5
2BDED
100
AcDbEntity
  8
MASSE
  6
CONTINUOUS
 62
     5
100
AcDbLine
 10
106.505277
 20
179.252668
 30
0.0
 11
106.505277
 21
181.752668
 31
0.0
  0
LINE
  5
2BDEE
100
AcDbEntity
  8
MASSE
  6
CONTINUOUS
 62
     5
100
AcDbLine
 10
94.495597
 20
179.252668
 30
0.0
 11
107.427067
 21
179.252668
 31
0.0
  0
LINE
  5
2BDEF
100
AcDbEntity
  8
MASSE
  6
CONTINUOUS
 62
     5
100
AcDbLine
 10
95.495597
 20
181.752668
 30
0.0
 11
95.495597
 21
179.252668
 31
0.0
  0
LINE
  5
2BDF0
100
AcDbEntity
  8
MASSE
  6
CONTINUOUS
 62
     5
100
AcDbLine
 10
118.495597
 20
181.752668
 30
0.0
 11
118.495597
 21
179.252668
 31
0.0
  0
DIMENSION
  5
2BDFF
100
AcDbEntity
  8
MASSE
  6
CONTINUOUS
100
AcDbDimension
  2
*D18
 10
41.122541
 20
82.752668
 30
0.0
 11
39.782541
 21
158.252668
 31
0.0
 70
    32
  1
151
  3
STANDARD
100
AcDbAlignedDimension
 13
70.995597
 23
233.752668
 33
0.0
 14
70.995597
 24
82.752668
 34
0.0
 50
90.0
100
AcDbRotatedDimension
1001
ACAD
1000
DSTYLE
1002
{
1070
   140
1040
2.5
1070
    74
1070
     0
1070
    73
1070
     0
1070
   146
1040
0.8
1070
    77
1070
     1
1070
    42
1040
0.1
1070
    44
1040
0.0
1070
    43
1040
7.0
1070
   141
1040
1.5
1070
    41
1040
2.5
1002
}
  0
DIMENSION
  5
2BE0C
100
AcDbEntity
  8
MASSE
  6
CONTINUOUS
100
AcDbDimension
  2
*D19
 10
185.881651
 20
196.752668
 30
0.0
 11
184.541651
 21
183.002668
 31
0.0
 70
    32
  1
27.5
  3
STANDARD
100
AcDbAlignedDimension
 13
147.495597
 23
169.252668
 33
0.0
 14
94.495597
 24
196.752668
 34
0.0
 50
90.0
100
AcDbRotatedDimension
1001
ACAD
1000
DSTYLE
1002
{
1070
   140
1040
2.5
1070
    74
1070
     0
1070
    73
1070
     0
1070
   146
1040
0.8
1070
    77
1070
     1
1070
    42
1040
0.1
1070
    44
1040
0.0
1070
    43
1040
7.0
1070
   141
1040
1.5
1070
    41
1040
2.5
1002
}
  0
DIMENSION
  5
2BE19
100
AcDbEntity
  8
MASSE
  6
CONTINUOUS
100
AcDbDimension
  2
*D20
 10
163.04532
 20
196.752668
 30
0.0
 11
161.70532
 21
207.752668
 31
0.0
 70
    32
  1
22
  3
STANDARD
100
AcDbAlignedDimension
 13
94.495597
 23
218.752668
 33
0.0
 14
95.141276
 24
196.752668
 34
0.0
 50
90.0
100
AcDbRotatedDimension
1001
ACAD
1000
DSTYLE
1002
{
1070
   140
1040
2.5
1070
    74
1070
     0
1070
    73
1070
     0
1070
   146
1040
0.8
1070
    77
1070
     1
1070
    42
1040
0.1
1070
    44
1040
0.0
1070
    43
1040
7.0
1070
   141
1040
1.5
1070
    41
1040
2.5
1002
}
  0
DIMENSION
  5
2BE26
100
AcDbEntity
  8
MASSE
  6
CONTINUOUS
100
AcDbDimension
  2
*D21
 10
163.04532
 20
218.752668
 30
0.0
 11
161.70532
 21
226.252668
 31
0.0
 70
    32
  1
15
  3
STANDARD
100
AcDbAlignedDimension
 13
119.495597
 23
233.752668
 33
0.0
 14
95.141276
 24
218.752668
 34
0.0
 50
90.0
100
AcDbRotatedDimension
1001
ACAD
1000
DSTYLE
1002
{
1070
   140
1040
2.5
1070
    74
1070
     0
1070
    73
1070
     0
1070
   146
1040
0.8
1070
    77
1070
     1
1070
    42
1040
0.1
1070
    44
1040
0.0
1070
    43
1040
7.0
1070
   141
1040
1.5
1070
    41
1040
2.5
1002
}
  0
INSERT
  5
2C416
100
AcDbEntity
  8
ASHADE
 62
     1
100
AcDbBlockReference
  2
AVE_RENDER
 10
270.911347
 20
50.962618
 30
0.0
1001
AVE_RENDER
1002
{
1070
     2
1000
Pref
1070
    30
1070
    20
1070
     0
1070
     0
1000

1070
    10
1070
     0
1070
    30
1040
1.0
1070
     1
1040
0.3
1040
0.7
1040
0.0
1040
10.0
1010
-1.0
1020
-1.0
1030
-1.0
1040
0.3
1070
    49
1002
}
  0
INSERT
  5
2C417
100
AcDbEntity
  8
ASHADE
 62
     3
100
AcDbBlockReference
  2
AVE_RENDER
 10
270.911347
 20
50.962618
 30
0.0
1001
AVE_RENDER
1002
{
1070
     0
1000
Full Opt
1070
     0
1070
     1
1070
     1
1070
     1
1070
     0
1070
     0
1070
     0
1070
     1
1070
     1
1040
0.0001
1040
0.0001
1002
}
  0
INSERT
  5
2C418
100
AcDbEntity
  8
ASHADE
 62
     4
100
AcDbBlockReference
  2
AVE_RENDER
 10
270.911347
 20
50.962618
 30
0.0
1001
AVE_RENDER
1002
{
1070
     0
1000
Quick Opt
1070
     0
1070
     1
1070
     1
1070
     1
1070
     0
1070
     0
1070
     1
1002
}
  0
INSERT
  5
2C545
100
AcDbEntity
  8
ASHADE
 62
     1
100
AcDbBlockReference
  2
AVE_RENDER
 10
541.852272
 20
62.423209
 30
0.0
1001
AVE_RENDER
1002
{
1070
     2
1000
Pref
1070
    30
1070
    20
1070
     0
1070
     0
1000

1070
    10
1070
     0
1070
    30
1040
1.0
1070
     1
1040
0.3
1040
0.7
1040
0.0
1040
10.0
1010
-1.0
1020
-1.0
1030
-1.0
1040
0.3
1070
    49
1002
}
  0
INSERT
  5
2C546
100
AcDbEntity
  8
ASHADE
 62
     3
100
AcDbBlockReference
  2
AVE_RENDER
 10
541.852272
 20
62.423209
 30
0.0
1001
AVE_RENDER
1002
{
1070
     0
1000
Full Opt
1070
     0
1070
     1
1070
     1
1070
     1
1070
     0
1070
     0
1070
     0
1070
     1
1070
     1
1040
0.0001
1040
0.0001
1002
}
  0
INSERT
  5
2C547
100
AcDbEntity
  8
ASHADE
 62
     4
100
AcDbBlockReference
  2
AVE_RENDER
 10
541.852272
 20
62.423209
 30
0.0
1001
AVE_RENDER
1002
{
1070
     0
1000
Quick Opt
1070
     0
1070
     1
1070
     1
1070
     1
1070
     0
1070
     0
1070
     1
1002
}
  0
INSERT
  5
2C742
100
AcDbEntity
  8
MASSE
  6
CONTINUOUS
100
AcDbBlockReference
 66
     1
  2
DINA4MK
 10
206.909712
 20
-0.740455
 30
0.0
  0
ATTRIB
  5
2C743
100
AcDbEntity
  8
MASSE
100
AcDbText
 10
135.800912
 20
54.589166
 30
0.0
 40
2.0
  1
1:1
  7
ROMANS
100
AcDbAttribute
  2
MAßSTAB
 70
     0
  0
ATTRIB
  5
2C744
100
AcDbEntity
  8
MASSE
100
AcDbText
 10
119.528592
 20
30.42297
 30
0.0
 40
3.0
  1
Anca-Band 3-teilig
  7
ROMANS
100
AcDbAttribute
  2
BEZEICHNUNG 1
 70
     0
  0
ATTRIB
  5
2C745
100
AcDbEntity
  8
MASSE
100
AcDbText
 10
119.444276
 20
44.478634
 30
0.0
 40
3.0
  1
AlMgSi0.5
  7
ROMANS
100
AcDbAttribute
  2
WERKSTOFF
 70
     0
  0
ATTRIB
  5
2C746
100
AcDbEntity
  8
MASSE
100
AcDbText
 10
119.104339
 20
8.899263
 30
0.0
 40
3.0
  1
AC362
  7
ROMANS
100
AcDbAttribute
  2
ZEICHNUNGS.NR.
 70
     0
  0
ATTRIB
  5
2C747
100
AcDbEntity
  8
MASSE
100
AcDbText
 10
13.518728
 20
48.286048
 30
0.0
 40
3.0
  1

  7
ROMANS
100
AcDbAttribute
  2
VERWENDUNG
 70
     0
  0
ATTRIB
  5
2C748
100
AcDbEntity
  8
MASSE
100
AcDbText
 10
129.902126
 20
0.337319
 30
0.0
 40
2.0
  1

  7
ROMANS
100
AcDbAttribute
  2
ERSATZ
 70
     0
  0
ATTRIB
  5
2C749
100
AcDbEntity
  8
MASSE
100
AcDbText
 10
83.555117
 20
31.627804
 30
0.0
 40
2.0
  1
1-9-06
  7
ROMANS
100
AcDbAttribute
  2
DATUM
 70
     0
  0
ATTRIB
  5
2C74A
100
AcDbEntity
  8
MASSE
100
AcDbText
 10
98.643343
 20
31.627804
 30
0.0
 40
2.0
  1
V.Lesar
  7
ROMANS
100
AcDbAttribute
  2
NAME
 70
     0
  0
ATTRIB
  5
2C74B
100
AcDbEntity
  8
MASSE
100
AcDbText
 10
84.681105
 20
42.658262
 30
0.0
 40
2.5
  1
mK
  7
ROMANS
100
AcDbAttribute
  2
NORM
 70
     0
  0
ATTRIB
  5
2C74C
100
AcDbEntity
  8
MASSE
100
AcDbText
 10
193.226247
 20
9.791998
 30
0.0
 40
2.0
  1

  7
ROMANS
100
AcDbAttribute
  2
BLATT
 70
     0
  0
ATTRIB
  5
2C74D
100
AcDbEntity
  8
MASSE
100
AcDbText
 10
193.226248
 20
5.28977
 30
0.0
 40
2.0
  1

  7
ROMANS
100
AcDbAttribute
  2
BL
 70
     0
  0
ATTRIB
  5
2C74E
100
AcDbEntity
  8
MASSE
100
AcDbText
 10
176.972879
 20
54.661447
 30
0.0
 40
2.0
  1

  7
ROMANS
100
AcDbAttribute
  2
WERKZEUGNUMMER
 70
     0
  0
ATTRIB
  5
2C74F
100
AcDbEntity
  8
MASSE
100
AcDbText
 10
163.702524
 20
0.497402
 30
0.0
 40
2.0
  1

  7
ROMANS
100
AcDbAttribute
  2
DATEINAME
 70
     0
  0
ATTRIB
  5
2C750
100
AcDbEntity
  8
MASSE
100
AcDbText
 10
119.530788
 20
22.942896
 30
0.0
 40
3.0
  1
AC362
  7
ROMANS
100
AcDbAttribute
  2
BEZEICHNUNG 2
 70
     0
  0
SEQEND
  5
2C751
100
AcDbEntity
  8
MASSE
  6
CONTINUOUS
  0
INSERT
  5
2D3C0
100
AcDbEntity
  8
MASSE
  6
CONTINUOUS
100
AcDbBlockReference
 66
     1
  2
DINA4MK
 10
-10.757024
 20
-0.740455
 30
0.0
  0
ATTRIB
  5
2D3C1
100
AcDbEntity
  8
MASSE
100
AcDbText
 10
-81.865824
 20
54.589166
 30
0.0
 40
2.0
  1
1:1
  7
ROMANS
100
AcDbAttribute
  2
MAßSTAB
 70
     0
  0
ATTRIB
  5
2D3C2
100
AcDbEntity
  8
MASSE
100
AcDbText
 10
-98.138143
 20
30.42297
 30
0.0
 40
3.0
  1
Anca-Band 3-teilig
  7
ROMANS
100
AcDbAttribute
  2
BEZEICHNUNG 1
 70
     0
  0
ATTRIB
  5
2D3C3
100
AcDbEntity
  8
MASSE
100
AcDbText
 10
-98.22246
 20
44.478634
 30
0.0
 40
3.0
  1
AlMgSi0.5
  7
ROMANS
100
AcDbAttribute
  2
WERKSTOFF
 70
     0
  0
ATTRIB
  5
2D3C4
100
AcDbEntity
  8
MASSE
100
AcDbText
 10
-98.562397
 20
8.899263
 30
0.0
 40
3.0
  1
AC362
  7
ROMANS
100
AcDbAttribute
  2
ZEICHNUNGS.NR.
 70
     0
  0
ATTRIB
  5
2D3C5
100
AcDbEntity
  8
MASSE
100
AcDbText
 10
-204.148007
 20
48.286048
 30
0.0
 40
3.0
  1

  7
ROMANS
100
AcDbAttribute
  2
VERWENDUNG
 70
     0
  0
ATTRIB
  5
2D3C6
100
AcDbEntity
  8
MASSE
100
AcDbText
 10
-87.764609
 20
0.337319
 30
0.0
 40
2.0
  1

  7
ROMANS
100
AcDbAttribute
  2
ERSATZ
 70
     0
  0
ATTRIB
  5
2D3C7
100
AcDbEntity
  8
MASSE
100
AcDbText
 10
-134.111619
 20
31.627804
 30
0.0
 40
2.0
  1
1-9-06
  7
ROMANS
100
AcDbAttribute
  2
DATUM
 70
     0
  0
ATTRIB
  5
2D3C8
100
AcDbEntity
  8
MASSE
100
AcDbText
 10
-119.023393
 20
31.627804
 30
0.0
 40
2.0
  1
V.Lesar
  7
ROMANS
100
AcDbAttribute
  2
NAME
 70
     0
  0
ATTRIB
  5
2D3C9
100
AcDbEntity
  8
MASSE
100
AcDbText
 10
-132.985631
 20
42.658262
 30
0.0
 40
2.5
  1
mK
  7
ROMANS
100
AcDbAttribute
  2
NORM
 70
     0
  0
ATTRIB
  5
2D3CA
100
AcDbEntity
  8
MASSE
100
AcDbText
 10
-24.440489
 20
9.791998
 30
0.0
 40
2.0
  1

  7
ROMANS
100
AcDbAttribute
  2
BLATT
 70
     0
  0
ATTRIB
  5
2D3CB
100
AcDbEntity
  8
MASSE
100
AcDbText
 10
-24.440488
 20
5.28977
 30
0.0
 40
2.0
  1

  7
ROMANS
100
AcDbAttribute
  2
BL
 70
     0
  0
ATTRIB
  5
2D3CC
100
AcDbEntity
  8
MASSE
100
AcDbText
 10
-40.693857
 20
54.661447
 30
0.0
 40
2.0
  1

  7
ROMANS
100
AcDbAttribute
  2
WERKZEUGNUMMER
 70
     0
  0
ATTRIB
  5
2D3CD
100
AcDbEntity
  8
MASSE
100
AcDbText
 10
-53.964211
 20
0.497402
 30
0.0
 40
2.0
  1

  7
ROMANS
100
AcDbAttribute
  2
DATEINAME
 70
     0
  0
ATTRIB
  5
2D3CE
100
AcDbEntity
  8
MASSE
100
AcDbText
 10
-98.135947
 20
22.942896
 30
0.0
 40
3.0
  1
AC362
  7
ROMANS
100
AcDbAttribute
  2
BEZEICHNUNG 2
 70
     0
  0
SEQEND
  5
2D3CF
100
AcDbEntity
  8
MASSE
  6
CONTINUOUS
  0
DIMENSION
  5
2D3D0
100
AcDbEntity
  8
MASSE
  6
CONTINUOUS
100
AcDbDimension
  2
*D24
 10
-170.446273
 20
170.271683
 30
0.0
 11
-171.786273
 21
159.126802
 31
0.0
 12
311.637256
 22
0.0
 32
0.0
 70
    32
  1
22
  3
STANDARD
100
AcDbAlignedDimension
 13
-155.190562
 23
147.981921
 33
0.0
 14
-121.225371
 24
170.271683
 34
0.0
 50
90.0
100
AcDbRotatedDimension
1001
ACAD
1000
DSTYLE
1002
{
1070
   140
1040
2.5
1070
    74
1070
     0
1070
    73
1070
     0
1070
   146
1040
0.8
1070
    77
1070
     1
1070
    42
1040
0.1
1070
    44
1040
0.0
1070
    43
1040
7.0
1070
   141
1040
1.5
1070
    41
1040
2.5
1002
}
  0
LINE
  5
2D3D2
100
AcDbEntity
  8
K7
100
AcDbLine
 10
-61.225371
 20
162.856921
 30
0.0
 11
-64.65739
 21
162.856921
 31
0.0
  0
LINE
  5
2D3D3
100
AcDbEntity
  8
K7
100
AcDbLine
 10
-61.225371
 20
147.856921
 30
0.0
 11
-64.725371
 21
147.856921
 31
0.0
  0
DIMENSION
  5
2D3D7
100
AcDbEntity
  8
MASSE
  6
CONTINUOUS
100
AcDbDimension
  2
*D26
 10
-80.725371
 20
197.592561
 30
0.0
 11
-111.902532
 21
198.932561
 31
0.0
 12
311.637256
 22
0.0
 32
0.0
 70
    32
  1
62.5
  3
STANDARD
100
AcDbAlignedDimension
 13
-143.079692
 23
172.788437
 33
0.0
 14
-80.725371
 24
174.43502
 34
0.0
100
AcDbRotatedDimension
1001
ACAD
1000
DSTYLE
1002
{
1070
   140
1040
2.5
1070
    74
1070
     0
1070
    73
1070
     0
1070
   146
1040
0.8
1070
    77
1070
     1
1070
    42
1040
0.1
1070
    44
1040
0.0
1070
    43
1040
7.0
1070
   141
1040
1.5
1070
    41
1040
2.5
1002
}
  0
DIMENSION
  5
2D3D8
100
AcDbEntity
  8
MASSE
  6
CONTINUOUS
100
AcDbDimension
  2
*D25
 10
-80.725371
 20
189.962843
 30
0.0
 11
-100.975371
 21
191.302843
 31
0.0
 12
311.637256
 22
0.0
 32
0.0
 70
    32
  1
40.5
  3
STANDARD
100
AcDbAlignedDimension
 13
-121.225371
 23
170.271683
 33
0.0
 14
-80.725371
 24
174.43502
 34
0.0
100
AcDbRotatedDimension
1001
ACAD
1000
DSTYLE
1002
{
1070
   140
1040
2.5
1070
    74
1070
     0
1070
    73
1070
     0
1070
   146
1040
0.8
1070
    77
1070
     1
1070
    42
1040
0.1
1070
    44
1040
0.0
1070
    43
1040
7.0
1070
   141
1040
1.5
1070
    41
1040
2.5
1002
}
  0
DIMENSION
  5
2D3D9
100
AcDbEntity
  8
MASSE
  6
CONTINUOUS
100
AcDbDimension
  2
*D23
 10
-121.027839
 20
189.770402
 30
0.0
 11
-132.053766
 21
191.110402
 31
0.0
 12
311.637256
 22
0.0
 32
0.0
 70
    32
  1
22
  3
STANDARD
100
AcDbAlignedDimension
 13
-143.079692
 23
172.688437
 33
0.0
 14
-121.027839
 24
172.688437
 34
0.0
100
AcDbRotatedDimension
1001
ACAD
1000
DSTYLE
1002
{
1070
   140
1040
2.5
1070
    74
1070
     0
1070
    73
1070
     0
1070
   146
1040
0.8
1070
    77
1070
     1
1070
    42
1040
0.1
1070
    44
1040
0.0
1070
    43
1040
7.0
1070
   141
1040
1.5
1070
    41
1040
2.5
1002
}
  0
ARC
  5
2D3DA
100
AcDbEntity
  8
1
100
AcDbCircle
 10
-117.225371
 20
173.981921
 30
0.0
 40
8.5
100
AcDbArc
 50
0.0
 51
90.0
  0
LINE
  5
2D3DC
100
AcDbEntity
  8
K7
100
AcDbLine
 10
-83.225371
 20
150.856921
 30
0.0
 11
-98.725371
 21
150.856921
 31
0.0
  0
ARC
  5
2D3DD
100
AcDbEntity
  8
MASSE
  6
CONTINUOUS
 62
     5
100
AcDbCircle
 10
-117.225371
 20
166.291829
 30
0.0
 40
8.5
100
AcDbArc
 50
296.0
 51
0.0
  0
ARC
  5
2D3DF
100
AcDbEntity
  8
MASSE
  6
CONTINUOUS
 62
     5
100
AcDbCircle
 10
-155.225371
 20
163.844252
 30
0.0
 40
2.0
100
AcDbArc
 50
107.191107
 51
180.0
  0
LINE
  5
2D3E0
100
AcDbEntity
  8
MASSE
  6
STRICHPUNKT
 62
     2
100
AcDbLine
 10
-143.079692
 20
145.598151
 30
0.0
 11
-143.079692
 21
172.588437
 31
0.0
  0
LINE
  5
2D3E9
100
AcDbEntity
  8
MASSE
  6
CONTINUOUS
100
AcDbLine
 10
-121.225371
 20
181.893744
 30
0.0
 11
-121.225371
 21
157.03717
 31
0.0
  0
LINE
  5
2D3EA
100
AcDbEntity
  8
0
  6
STRICHPUNKT
 62
     2
100
AcDbLine
 10
-121.225371
 20
179.481921
 30
0.0
 11
-121.225371
 21
160.481921
 31
0.0
  0
CIRCLE
  5
2D3EB
100
AcDbEntity
  8
MASSE
  6
VERDECKT
 62
     3
100
AcDbCircle
 10
-121.225371
 20
170.271683
 30
0.0
 40
6.0
  0
ARC
  5
2D3EC
100
AcDbEntity
  8
MASSE
  6
CONTINUOUS
 62
     5
100
AcDbCircle
 10
-121.237871
 20
169.981921
 30
0.0
 40
8.1
100
AcDbArc
 50
282.40292
 51
257.59708
  0
LINE
  5
2D3EF
100
AcDbEntity
  8
MASSE
  6
CONTINUOUS
 62
     5
100
AcDbLine
 10
-138.779692
 20
150.981921
 30
0.0
 11
-131.201366
 21
150.981921
 31
0.0
  0
LINE
  5
2D3F1
100
AcDbEntity
  8
MASSE
  6
CONTINUOUS
100
AcDbLine
 10
-153.725371
 20
147.981921
 30
0.0
 11
-132.725371
 21
147.981921
 31
0.0
  0
LINE
  5
2D3F3
100
AcDbEntity
  8
MASSE
  6
CONTINUOUS
 62
     5
100
AcDbLine
 10
-157.225371
 20
153.681921
 30
0.0
 11
-157.225371
 21
162.381921
 31
0.0
  0
LINE
  5
2D3F5
100
AcDbEntity
  8
MASSE
  6
VERDECKT
 62
     9
100
AcDbLine
 10
-143.079692
 20
147.981921
 30
0.0
 11
-150.579692
 21
147.981921
 31
0.0
  0
LINE
  5
2D3F6
100
AcDbEntity
  8
MASSE
  6
CONTINUOUS
 62
     9
100
AcDbLine
 10
-149.075178
 20
146.400194
 30
0.0
 11
-137.079692
 21
146.365692
 31
0.0
  0
LINE
  5
2D3F7
100
AcDbEntity
  8
MASSE
  6
CONTINUOUS
 62
     9
100
AcDbLine
 10
-148.080947
 20
145.394458
 30
0.0
 11
-138.079692
 21
145.365692
 31
0.0
  0
LINE
  5
2D3F8
100
AcDbEntity
  8
1
  6
CONTINUOUS
100
AcDbLine
 10
-138.779692
 20
150.981921
 30
0.0
 11
-147.279692
 21
150.981921
 31
0.0
  0
LINE
  5
2D3F9
100
AcDbEntity
  8
1
100
AcDbLine
 10
-153.900371
 20
148.856921
 30
0.0
 11
-153.800371
 21
148.731921
 31
0.0
  0
LINE
  5
2D3FA
100
AcDbEntity
  8
MASSE
  6
CONTINUOUS
100
AcDbLine
 10
-153.725371
 20
147.981921
 30
0.0
 11
-153.725371
 21
149.981921
 31
0.0
  0
LINE
  5
2D3FB
100
AcDbEntity
  8
1
100
AcDbLine
 10
-157.225371
 20
148.481921
 30
0.0
 11
-157.225371
 21
153.681921
 31
0.0
  0
LINE
  5
2D3FC
100
AcDbEntity
  8
1
100
AcDbLine
 10
-153.750371
 20
148.356921
 30
0.0
 11
-153.800371
 21
148.231921
 31
0.0
  0
LINE
  5
2D3FD
100
AcDbEntity
  8
1
100
AcDbLine
 10
-153.800371
 20
148.731921
 30
0.0
 11
-153.750371
 21
148.631921
 31
0.0
  0
LINE
  5
2D3FE
100
AcDbEntity
  8
1
100
AcDbLine
 10
-154.125371
 20
147.981921
 30
0.0
 11
-154.225371
 21
147.981921
 31
0.0
  0
LINE
  5
2D3FF
100
AcDbEntity
  8
1
100
AcDbLine
 10
-153.975371
 20
148.056921
 30
0.0
 11
-154.125371
 21
147.981921
 31
0.0
  0
LINE
  5
2D400
100
AcDbEntity
  8
1
100
AcDbLine
 10
-153.900371
 20
148.131921
 30
0.0
 11
-153.975371
 21
148.056921
 31
0.0
  0
LINE
  5
2D401
100
AcDbEntity
  8
1
100
AcDbLine
 10
-153.800371
 20
148.231921
 30
0.0
 11
-153.900371
 21
148.131921
 31
0.0
  0
LINE
  5
2D402
100
AcDbEntity
  8
1
100
AcDbLine
 10
-153.725371
 20
148.481921
 30
0.0
 11
-153.750371
 21
148.356921
 31
0.0
  0
LINE
  5
2D403
100
AcDbEntity
  8
1
100
AcDbLine
 10
-153.750371
 20
148.631921
 30
0.0
 11
-153.725371
 21
148.481921
 31
0.0
  0
LINE
  5
2D404
100
AcDbEntity
  8
1
100
AcDbLine
 10
-157.225371
 20
148.356921
 30
0.0
 11
-157.225371
 21
148.481921
 31
0.0
  0
LINE
  5
2D405
100
AcDbEntity
  8
1
100
AcDbLine
 10
-157.175371
 20
148.231921
 30
0.0
 11
-157.225371
 21
148.356921
 31
0.0
  0
LINE
  5
2D406
100
AcDbEntity
  8
1
100
AcDbLine
 10
-157.075371
 20
148.131921
 30
0.0
 11
-157.175371
 21
148.231921
 31
0.0
  0
LINE
  5
2D407
100
AcDbEntity
  8
1
100
AcDbLine
 10
-156.975371
 20
148.056921
 30
0.0
 11
-157.075371
 21
148.131921
 31
0.0
  0
LINE
  5
2D408
100
AcDbEntity
  8
1
100
AcDbLine
 10
-156.875371
 20
147.981921
 30
0.0
 11
-156.975371
 21
148.056921
 31
0.0
  0
LINE
  5
2D409
100
AcDbEntity
  8
1
100
AcDbLine
 10
-156.725371
 20
147.981921
 30
0.0
 11
-156.875371
 21
147.981921
 31
0.0
  0
LINE
  5
2D40A
100
AcDbEntity
  8
1
100
AcDbLine
 10
-156.725371
 20
147.981921
 30
0.0
 11
-154.225371
 21
147.981921
 31
0.0
  0
LINE
  5
2D40B
100
AcDbEntity
  8
MASSE
  6
STRICHPUNKT
 62
     9
100
AcDbLine
 10
-149.075178
 20
146.400194
 30
0.0
 11
-149.06588
 21
148.016397
 31
0.0
  0
LINE
  5
2D40C
100
AcDbEntity
  8
MASSE
  6
CONTINUOUS
 62
     9
100
AcDbLine
 10
-148.080947
 20
145.394458
 30
0.0
 11
-149.075178
 21
146.400194
 31
0.0
  0
LINE
  5
2D40D
100
AcDbEntity
  8
1
100
AcDbLine
 10
-147.279692
 20
150.981921
 30
0.0
 11
-155.225371
 21
150.981921
 31
0.0
  0
LINE
  5
2D40E
100
AcDbEntity
  8
1
100
AcDbLine
 10
-153.975371
 20
148.906921
 30
0.0
 11
-153.900371
 21
148.856921
 31
0.0
  0
LINE
  5
2D40F
100
AcDbEntity
  8
1
100
AcDbLine
 10
-154.125371
 20
148.981921
 30
0.0
 11
-153.975371
 21
148.906921
 31
0.0
  0
LINE
  5
2D410
100
AcDbEntity
  8
1
100
AcDbLine
 10
-154.225371
 20
148.981921
 30
0.0
 11
-154.125371
 21
148.981921
 31
0.0
  0
LINE
  5
2D411
100
AcDbEntity
  8
1
100
AcDbLine
 10
-155.225371
 20
150.981921
 30
0.0
 11
-155.225371
 21
148.981921
 31
0.0
  0
LINE
  5
2D412
100
AcDbEntity
  8
MASSE
  6
CONTINUOUS
100
AcDbLine
 10
-153.725371
 20
149.981921
 30
0.0
 11
-155.225371
 21
149.981921
 31
0.0
  0
LINE
  5
2D413
100
AcDbEntity
  8
1
100
AcDbLine
 10
-155.225371
 20
148.981921
 30
0.0
 11
-154.225371
 21
148.981921
 31
0.0
  0
LINE
  5
2D414
100
AcDbEntity
  8
MASSE
  6
CONTINUOUS
 62
     9
100
AcDbLine
 10
-138.079692
 20
145.365692
 30
0.0
 11
-137.079692
 21
146.365692
 31
0.0
  0
LINE
  5
2D415
100
AcDbEntity
  8
MASSE
  6
STRICHPUNKT
 62
     9
100
AcDbLine
 10
-137.079692
 20
146.365692
 30
0.0
 11
-137.079692
 21
147.981921
 31
0.0
  0
LINE
  5
2D418
100
AcDbEntity
  8
1
  6
CONTINUOUS
100
AcDbLine
 10
-131.685484
 20
162.981921
 30
0.0
 11
-150.029692
 21
162.981921
 31
0.0
  0
LINE
  5
2D41A
100
AcDbEntity
  8
MASSE
  6
CONTINUOUS
 62
     5
100
AcDbLine
 10
-151.725371
 20
158.881921
 30
0.0
 11
-151.725371
 21
162.481921
 31
0.0
  0
LINE
  5
2D41B
100
AcDbEntity
  8
MASSE
  6
CONTINUOUS
 62
     5
100
AcDbLine
 10
-151.876034
 20
159.54402
 30
0.0
 11
-151.876034
 21
162.481921
 31
0.0
  0
LINE
  5
2D41C
100
AcDbEntity
  8
MASSE
  6
CONTINUOUS
 62
     5
100
AcDbLine
 10
-155.225371
 20
158.881921
 30
0.0
 11
-155.225371
 21
160.881921
 31
0.0
  0
LINE
  5
2D41D
100
AcDbEntity
  8
MASSE
  6
CONTINUOUS
 62
     5
100
AcDbLine
 10
-155.030778
 20
159.54402
 30
0.0
 11
-155.030778
 21
160.381921
 31
0.0
  0
ARC
  5
2D41E
100
AcDbEntity
  8
MASSE
  6
CONTINUOUS
 62
     5
100
AcDbCircle
 10
-152.376034
 20
159.54402
 30
0.0
 40
0.5
100
AcDbArc
 50
270.0
 51
0.0
  0
LINE
  5
2D41F
100
AcDbEntity
  8
1
100
AcDbLine
 10
-151.725371
 20
158.881921
 30
0.0
 11
-155.225371
 21
158.881921
 31
0.0
  0
LINE
  5
2D420
100
AcDbEntity
  8
1
100
AcDbLine
 10
-152.376034
 20
159.04402
 30
0.0
 11
-154.530778
 21
159.04402
 31
0.0
  0
ARC
  5
2D421
100
AcDbEntity
  8
MASSE
  6
CONTINUOUS
 62
     5
100
AcDbCircle
 10
-154.530778
 20
159.54402
 30
0.0
 40
0.5
100
AcDbArc
 50
180.0
 51
270.0
  0
ARC
  5
2D422
100
AcDbEntity
  8
1
  6
CONTINUOUS
100
AcDbCircle
 10
-154.225371
 20
161.381921
 30
0.0
 40
0.5
100
AcDbArc
 50
270.0
 51
0.0
  0
ARC
  5
2D423
100
AcDbEntity
  8
1
  6
CONTINUOUS
100
AcDbCircle
 10
-154.225371
 20
162.381921
 30
0.0
 40
0.5
100
AcDbArc
 50
0.0
 51
90.0
  0
ARC
  5
2D424
100
AcDbEntity
  8
MASSE
  6
CONTINUOUS
 62
     5
100
AcDbCircle
 10
-154.087258
 20
162.481921
 30
0.0
 40
0.5
100
AcDbArc
 50
0.0
 51
90.0
  0
ARC
  5
2D425
100
AcDbEntity
  8
MASSE
  6
CONTINUOUS
 62
     5
100
AcDbCircle
 10
-154.087258
 20
161.381921
 30
0.0
 40
0.5
100
AcDbArc
 50
270.0
 51
360.0
  0
LINE
  5
2D426
100
AcDbEntity
  8
MASSE
  6
CONTINUOUS
 62
     5
100
AcDbLine
 10
-153.725371
 20
161.381921
 30
0.0
 11
-153.725371
 21
162.381921
 31
0.0
  0
LINE
  5
2D427
100
AcDbEntity
  8
MASSE
  6
CONTINUOUS
 62
     5
100
AcDbLine
 10
-153.587258
 20
161.381921
 30
0.0
 11
-153.587258
 21
162.481921
 31
0.0
  0
LINE
  5
2D428
100
AcDbEntity
  8
1
100
AcDbLine
 10
-156.875371
 20
162.881921
 30
0.0
 11
-156.725371
 21
162.881921
 31
0.0
  0
LINE
  5
2D429
100
AcDbEntity
  8
1
100
AcDbLine
 10
-156.975371
 20
162.831921
 30
0.0
 11
-156.875371
 21
162.881921
 31
0.0
  0
LINE
  5
2D42A
100
AcDbEntity
  8
1
100
AcDbLine
 10
-157.075371
 20
162.731921
 30
0.0
 11
-156.975371
 21
162.831921
 31
0.0
  0
LINE
  5
2D42B
100
AcDbEntity
  8
1
100
AcDbLine
 10
-157.175371
 20
162.631921
 30
0.0
 11
-157.075371
 21
162.731921
 31
0.0
  0
LINE
  5
2D42C
100
AcDbEntity
  8
1
100
AcDbLine
 10
-157.225371
 20
162.506921
 30
0.0
 11
-157.175371
 21
162.631921
 31
0.0
  0
LINE
  5
2D42D
100
AcDbEntity
  8
1
100
AcDbLine
 10
-157.225371
 20
162.381921
 30
0.0
 11
-157.225371
 21
162.506921
 31
0.0
  0
LINE
  5
2D42E
100
AcDbEntity
  8
1
100
AcDbLine
 10
-156.725371
 20
162.881921
 30
0.0
 11
-156.875371
 21
162.906921
 31
0.0
  0
LINE
  5
2D42F
100
AcDbEntity
  8
MASSE
  6
CONTINUOUS
 62
     5
100
AcDbLine
 10
-157.225371
 20
163.481921
 30
0.0
 11
-157.225371
 21
163.844252
 31
0.0
  0
ARC
  5
2D430
100
AcDbEntity
  8
MASSE
  6
CONTINUOUS
 62
     5
100
AcDbCircle
 10
-156.725371
 20
163.481921
 30
0.0
 40
0.5
100
AcDbArc
 50
180.0
 51
270.0
  0
LINE
  5
2D431
100
AcDbEntity
  8
1
100
AcDbLine
 10
-154.087258
 20
160.881921
 30
0.0
 11
-155.225371
 21
160.881921
 31
0.0
  0
LINE
  5
2D432
100
AcDbEntity
  8
1
100
AcDbLine
 10
-154.225371
 20
162.881921
 30
0.0
 11
-156.725371
 21
162.881921
 31
0.0
  0
LINE
  5
2D433
100
AcDbEntity
  8
MASSE
  6
CONTINUOUS
 62
     5
100
AcDbLine
 10
-154.087258
 20
162.981921
 30
0.0
 11
-156.725371
 21
162.981921
 31
0.0
  0
ARC
  5
2D434
100
AcDbEntity
  8
MASSE
  6
CONTINUOUS
 62
     5
100
AcDbCircle
 10
-154.530778
 20
160.381921
 30
0.0
 40
0.5
100
AcDbArc
 50
90.0
 51
180.0
  0
ARC
  5
2D435
100
AcDbEntity
  8
1
  6
CONTINUOUS
100
AcDbCircle
 10
-151.225371
 20
162.481921
 30
0.0
 40
0.5
100
AcDbArc
 50
90.0
 51
180.0
  0
LINE
  5
2D436
100
AcDbEntity
  8
1
100
AcDbLine
 10
-151.225371
 20
162.981921
 30
0.0
 11
-150.029692
 21
162.981921
 31
0.0
  0
LINE
  5
2D437
100
AcDbEntity
  8
MASSE
  6
CONTINUOUS
 62
     5
100
AcDbLine
 10
-151.376034
 20
162.981921
 30
0.0
 11
-150.029692
 21
162.981921
 31
0.0
  0
ARC
  5
2D438
100
AcDbEntity
  8
MASSE
  6
CONTINUOUS
 62
     5
100
AcDbCircle
 10
-151.376034
 20
162.481921
 30
0.0
 40
0.5
100
AcDbArc
 50
90.0
 51
180.0
  0
LINE
  5
2D43A
100
AcDbEntity
  8
MASSE
100
AcDbLine
 10
-136.029692
 20
162.981921
 30
0.0
 11
-135.221018
 21
162.981921
 31
0.0
  0
LINE
  5
2D43B
100
AcDbEntity
  8
MASSE
  6
CONTINUOUS
 62
     5
100
AcDbLine
 10
-136.029692
 20
162.981921
 30
0.0
 11
-135.221018
 21
162.981921
 31
0.0
  0
LINE
  5
2D440
100
AcDbEntity
  8
MASSE
  6
CONTINUOUS
 62
     5
100
AcDbLine
 10
-129.225371
 20
150.981921
 30
0.0
 11
-113.499216
 21
158.652079
 31
0.0
  0
LINE
  5
2D441
100
AcDbEntity
  8
K7
100
AcDbLine
 10
-116.225371
 20
150.856921
 30
0.0
 11
-119.613885
 21
154.895195
 31
0.0
  0
LINE
  5
2D442
100
AcDbEntity
  8
1
100
AcDbLine
 10
-129.225371
 20
150.981921
 30
0.0
 11
-129.225371
 21
148.481921
 31
0.0
  0
LINE
  5
2D443
100
AcDbEntity
  8
1
100
AcDbLine
 10
-132.675371
 20
148.731921
 30
0.0
 11
-132.575371
 21
148.856921
 31
0.0
  0
LINE
  5
2D444
100
AcDbEntity
  8
MASSE
  6
CONTINUOUS
100
AcDbLine
 10
-132.725371
 20
147.981921
 30
0.0
 11
-132.725371
 21
149.981921
 31
0.0
  0
LINE
  5
2D445
100
AcDbEntity
  8
1
100
AcDbLine
 10
-129.225371
 20
148.481921
 30
0.0
 11
-129.250371
 21
148.356921
 31
0.0
  0
LINE
  5
2D446
100
AcDbEntity
  8
1
100
AcDbLine
 10
-129.625371
 20
147.981921
 30
0.0
 11
-129.725371
 21
147.981921
 31
0.0
  0
LINE
  5
2D447
100
AcDbEntity
  8
1
100
AcDbLine
 10
-129.475371
 20
148.056921
 30
0.0
 11
-129.625371
 21
147.981921
 31
0.0
  0
LINE
  5
2D448
100
AcDbEntity
  8
1
100
AcDbLine
 10
-129.400371
 20
148.131921
 30
0.0
 11
-129.475371
 21
148.056921
 31
0.0
  0
LINE
  5
2D449
100
AcDbEntity
  8
1
100
AcDbLine
 10
-129.300371
 20
148.231921
 30
0.0
 11
-129.400371
 21
148.131921
 31
0.0
  0
LINE
  5
2D44A
100
AcDbEntity
  8
1
100
AcDbLine
 10
-129.250371
 20
148.356921
 30
0.0
 11
-129.300371
 21
148.231921
 31
0.0
  0
LINE
  5
2D44B
100
AcDbEntity
  8
1
100
AcDbLine
 10
-132.475371
 20
148.056921
 30
0.0
 11
-132.575371
 21
148.131921
 31
0.0
  0
LINE
  5
2D44C
100
AcDbEntity
  8
1
100
AcDbLine
 10
-132.375371
 20
147.981921
 30
0.0
 11
-132.475371
 21
148.056921
 31
0.0
  0
LINE
  5
2D44D
100
AcDbEntity
  8
1
100
AcDbLine
 10
-132.225371
 20
147.981921
 30
0.0
 11
-132.375371
 21
147.981921
 31
0.0
  0
LINE
  5
2D44E
100
AcDbEntity
  8
1
100
AcDbLine
 10
-132.725371
 20
148.356921
 30
0.0
 11
-132.725371
 21
148.481921
 31
0.0
  0
LINE
  5
2D44F
100
AcDbEntity
  8
1
100
AcDbLine
 10
-132.675371
 20
148.231921
 30
0.0
 11
-132.725371
 21
148.356921
 31
0.0
  0
LINE
  5
2D450
100
AcDbEntity
  8
1
100
AcDbLine
 10
-132.725371
 20
148.481921
 30
0.0
 11
-132.725371
 21
148.481921
 31
0.0
  0
LINE
  5
2D451
100
AcDbEntity
  8
1
100
AcDbLine
 10
-132.575371
 20
148.131921
 30
0.0
 11
-132.675371
 21
148.231921
 31
0.0
  0
LINE
  5
2D452
100
AcDbEntity
  8
1
100
AcDbLine
 10
-132.725371
 20
148.631921
 30
0.0
 11
-132.675371
 21
148.731921
 31
0.0
  0
LINE
  5
2D453
100
AcDbEntity
  8
1
100
AcDbLine
 10
-132.725371
 20
148.481921
 30
0.0
 11
-132.725371
 21
148.631921
 31
0.0
  0
LINE
  5
2D454
100
AcDbEntity
  8
1
100
AcDbLine
 10
-129.725371
 20
147.981921
 30
0.0
 11
-132.225371
 21
147.981921
 31
0.0
  0
LINE
  5
2D455
100
AcDbEntity
  8
1
100
AcDbLine
 10
-131.625371
 20
148.981921
 30
0.0
 11
-131.725371
 21
148.981921
 31
0.0
  0
LINE
  5
2D456
100
AcDbEntity
  8
1
100
AcDbLine
 10
-131.475371
 20
149.056921
 30
0.0
 11
-131.625371
 21
148.981921
 31
0.0
  0
LINE
  5
2D457
100
AcDbEntity
  8
1
100
AcDbLine
 10
-131.400371
 20
149.131921
 30
0.0
 11
-131.475371
 21
149.056921
 31
0.0
  0
LINE
  5
2D458
100
AcDbEntity
  8
1
100
AcDbLine
 10
-131.300371
 20
149.231921
 30
0.0
 11
-131.400371
 21
149.131921
 31
0.0
  0
LINE
  5
2D459
100
AcDbEntity
  8
1
100
AcDbLine
 10
-131.250371
 20
149.356921
 30
0.0
 11
-131.300371
 21
149.231921
 31
0.0
  0
LINE
  5
2D45A
100
AcDbEntity
  8
1
100
AcDbLine
 10
-131.225371
 20
149.481921
 30
0.0
 11
-131.250371
 21
149.356921
 31
0.0
  0
LINE
  5
2D45B
100
AcDbEntity
  8
1
100
AcDbLine
 10
-132.375371
 20
148.981921
 30
0.0
 11
-132.225371
 21
148.981921
 31
0.0
  0
LINE
  5
2D45C
100
AcDbEntity
  8
1
100
AcDbLine
 10
-132.475371
 20
148.906921
 30
0.0
 11
-132.375371
 21
148.981921
 31
0.0
  0
LINE
  5
2D45D
100
AcDbEntity
  8
1
100
AcDbLine
 10
-132.575371
 20
148.856921
 30
0.0
 11
-132.475371
 21
148.906921
 31
0.0
  0
LINE
  5
2D45E
100
AcDbEntity
  8
1
100
AcDbLine
 10
-131.725371
 20
148.981921
 30
0.0
 11
-132.225371
 21
148.981921
 31
0.0
  0
LINE
  5
2D45F
100
AcDbEntity
  8
MASSE
  6
CONTINUOUS
100
AcDbLine
 10
-132.725371
 20
149.981921
 30
0.0
 11
-131.225371
 21
149.981921
 31
0.0
  0
LINE
  5
2D460
100
AcDbEntity
  8
1
100
AcDbLine
 10
-131.225371
 20
150.981921
 30
0.0
 11
-131.225371
 21
149.481921
 31
0.0
  0
ARC
  5
2D461
100
AcDbEntity
  8
MASSE
  6
CONTINUOUS
 62
     5
100
AcDbCircle
 10
-121.237871
 20
161.881921
 30
0.0
 40
1.75
100
AcDbArc
 50
173.79854
 51
6.20146
  0
ARC
  5
2D46D
100
AcDbEntity
  8
0
 62
     5
100
AcDbCircle
 10
-121.125371
 20
167.981921
 30
0.0
 40
6.0
100
AcDbArc
 50
221.409622
 51
221.409622
1001
ACAD
1000
ASC_BOUNDS
1002
{
1070
    19
1002
}
  0
ARC
  5
2D46E
100
AcDbEntity
  8
MASSE
 62
     5
100
AcDbCircle
 10
-121.225371
 20
167.981921
 30
0.0
 40
6.0
100
AcDbArc
 50
266.177446
 51
266.177446
1001
ACAD
1000
ASC_BOUNDS
1002
{
1070
    19
1002
}
  0
ARC
  5
2D470
100
AcDbEntity
  8
1
100
AcDbCircle
 10
-125.225371
 20
173.981921
 30
0.0
 40
8.5
100
AcDbArc
 50
90.0
 51
186.542928
  0
LINE
  5
2D472
100
AcDbEntity
  8
MASSE
  6
CONTINUOUS
 62
     5
100
AcDbLine
 10
-132.451349
 20
172.983646
 30
0.0
 11
-155.816491
 21
165.7549
 31
0.0
  0
LINE
  5
2D473
100
AcDbEntity
  8
MASSE
  6
CONTINUOUS
 62
     5
100
AcDbLine
 10
-131.782942
 20
172.404232
 30
0.0
 11
-131.685484
 21
162.981921
 31
0.0
  0
ARC
  5
2D47A
100
AcDbEntity
  8
MASSE
  6
CONTINUOUS
 62
     5
100
AcDbCircle
 10
-133.371962
 20
173.047551
 30
0.0
 40
0.3
100
AcDbArc
 50
186.542928
 51
285.0
  0
LINE
  5
2D47B
100
AcDbEntity
  8
MASSE
  6
CONTINUOUS
 62
     5
100
AcDbLine
 10
-132.451349
 20
172.983646
 30
0.0
 11
-133.294317
 21
172.757773
 31
0.0
  0
ARC
  5
2D47C
100
AcDbEntity
  8
MASSE
  6
CONTINUOUS
 62
     5
100
AcDbCircle
 10
-132.269889
 20
172.517736
 30
0.0
 40
0.5
100
AcDbArc
 50
346.879118
 51
111.279604
  0
LINE
  5
2D47E
100
AcDbEntity
  8
1
100
AcDbLine
 10
-125.225371
 20
182.481921
 30
0.0
 11
-117.225371
 21
182.481921
 31
0.0
  0
LINE
  5
2D481
100
AcDbEntity
  8
MASSE
  6
VERDECKT
 62
     9
100
AcDbLine
 10
-80.579692
 20
147.856921
 30
0.0
 11
-88.079692
 21
147.856921
 31
0.0
  0
LINE
  5
2D482
100
AcDbEntity
  8
K7
100
AcDbLine
 10
-66.225371
 20
162.856921
 30
0.0
 11
-99.920484
 21
162.856921
 31
0.0
  0
LINE
  5
2D483
100
AcDbEntity
  8
K7
100
AcDbLine
 10
-98.725371
 20
150.856921
 30
0.0
 11
-62.725371
 21
150.856921
 31
0.0
  0
LINE
  5
2D484
100
AcDbEntity
  8
MASSE
  6
CONTINUOUS
 62
     9
100
AcDbLine
 10
-96.225371
 20
147.856921
 30
0.0
 11
-65.225371
 21
147.856921
 31
0.0
  0
LINE
  5
2D485
100
AcDbEntity
  8
K7
100
AcDbLine
 10
-98.725371
 20
150.856921
 30
0.0
 11
-62.725371
 21
150.856921
 31
0.0
1001
ACAD
1000
ASC_BOUNDS
1002
{
1070
    19
1002
}
  0
LINE
  5
2D489
100
AcDbEntity
  8
K7
  6
CONTINUOUS
 62
     9
100
AcDbLine
 10
-98.725371
 20
149.356921
 30
0.0
 11
-96.225371
 21
149.356921
 31
0.0
1001
ACAD
1000
ASC_BOUNDS
1002
{
1070
    19
1002
}
  0
LINE
  5
2D48A
100
AcDbEntity
  8
K7
100
AcDbLine
 10
-98.725371
 20
148.856921
 30
0.0
 11
-96.725371
 21
148.856921
 31
0.0
1001
ACAD
1000
ASC_BOUNDS
1002
{
1070
    19
1002
}
  0
LINE
  5
2D48B
100
AcDbEntity
  8
K7
100
AcDbLine
 10
-96.725371
 20
147.856921
 30
0.0
 11
-100.225371
 21
147.856921
 31
0.0
1001
ACAD
1000
ASC_BOUNDS
1002
{
1070
    19
1002
}
  0
LINE
  5
2D48C
100
AcDbEntity
  8
K7
100
AcDbLine
 10
-100.225371
 20
147.856921
 30
0.0
 11
-100.225371
 21
150.856921
 31
0.0
1001
ACAD
1000
ASC_BOUNDS
1002
{
1070
    19
1002
}
  0
LINE
  5
2D48D
100
AcDbEntity
  8
K7
100
AcDbLine
 10
-98.725371
 20
150.856921
 30
0.0
 11
-98.725371
 21
148.856921
 31
0.0
1001
ACAD
1000
ASC_BOUNDS
1002
{
1070
    19
1002
}
  0
LINE
  5
2D48E
100
AcDbEntity
  8
K7
  6
CONTINUOUS
 62
     9
100
AcDbLine
 10
-96.225371
 20
147.856921
 30
0.0
 11
-96.225371
 21
149.356921
 31
0.0
1001
ACAD
1000
ASC_BOUNDS
1002
{
1070
    19
1002
}
  0
LINE
  5
2D48F
100
AcDbEntity
  8
K7
100
AcDbLine
 10
-96.725371
 20
147.856921
 30
0.0
 11
-96.725371
 21
148.856921
 31
0.0
1001
ACAD
1000
ASC_BOUNDS
1002
{
1070
    19
1002
}
  0
LINE
  5
2D490
100
AcDbEntity
  8
MASSE
  6
CONTINUOUS
 62
     2
100
AcDbLine
 10
-99.920484
 20
162.856921
 30
0.0
 11
-109.45032
 21
162.856921
 31
0.0
  0
ARC
  5
2D492
100
AcDbEntity
  8
K7
100
AcDbCircle
 10
-65.625371
 20
159.956921
 30
0.0
 40
0.6
100
AcDbArc
 50
180.0
 51
270.0
  0
LINE
  5
2D494
100
AcDbEntity
  8
K7
100
AcDbLine
 10
-64.65739
 20
162.856921
 30
0.0
 11
-64.65739
 21
159.856921
 31
0.0
  0
LINE
  5
2D496
100
AcDbEntity
  8
MASSE
  6
CONTINUOUS
 62
     9
100
AcDbLine
 10
-75.579692
 20
145.240692
 30
0.0
 11
-74.579692
 21
146.240692
 31
0.0
  0
LINE
  5
2D497
100
AcDbEntity
  8
MASSE
  6
CONTINUOUS
 62
     9
100
AcDbLine
 10
-86.575178
 20
146.275194
 30
0.0
 11
-74.579692
 21
146.240692
 31
0.0
  0
LINE
  5
2D498
100
AcDbEntity
  8
MASSE
  6
CONTINUOUS
 62
     9
100
AcDbLine
 10
-85.580947
 20
145.269458
 30
0.0
 11
-75.579692
 21
145.240692
 31
0.0
  0
LINE
  5
2D499
100
AcDbEntity
  8
K3
100
AcDbLine
 10
-80.725371
 20
146.240692
 30
0.0
 11
-80.725371
 21
145.240692
 31
0.0
  0
LINE
  5
2D49A
100
AcDbEntity
  8
MASSE
  6
CONTINUOUS
 62
     9
100
AcDbLine
 10
-85.580947
 20
145.269458
 30
0.0
 11
-86.575178
 21
146.275194
 31
0.0
  0
LINE
  5
2D49B
100
AcDbEntity
  8
MASSE
  6
STRICHPUNKT
 62
     9
100
AcDbLine
 10
-86.575178
 20
146.275194
 30
0.0
 11
-86.56588
 21
147.891397
 31
0.0
  0
LINE
  5
2D49C
100
AcDbEntity
  8
K7
  6
CONTINUOUS
 62
     9
100
AcDbLine
 10
-65.225371
 20
147.856921
 30
0.0
 11
-65.225371
 21
149.356921
 31
0.0
1001
ACAD
1000
ASC_BOUNDS
1002
{
1070
    19
1002
}
  0
LINE
  5
2D49D
100
AcDbEntity
  8
K7
100
AcDbLine
 10
-64.725371
 20
147.856921
 30
0.0
 11
-64.725371
 21
148.856921
 31
0.0
  0
LINE
  5
2D49E
100
AcDbEntity
  8
MASSE
  6
STRICHPUNKT
 62
     9
100
AcDbLine
 10
-74.579692
 20
146.240692
 30
0.0
 11
-74.579692
 21
147.856921
 31
0.0
  0
LINE
  5
2D49F
100
AcDbEntity
  8
K7
  6
CONTINUOUS
 62
     9
100
AcDbLine
 10
-65.225371
 20
149.356921
 30
0.0
 11
-62.725371
 21
149.356921
 31
0.0
1001
ACAD
1000
ASC_BOUNDS
1002
{
1070
    19
1002
}
  0
LINE
  5
2D4A0
100
AcDbEntity
  8
K7
100
AcDbLine
 10
-64.725371
 20
148.856921
 30
0.0
 11
-62.725371
 21
148.856921
 31
0.0
  0
ARC
  5
2D4A1
100
AcDbEntity
  8
K7
100
AcDbCircle
 10
-65.15739
 20
159.856921
 30
0.0
 40
0.5
100
AcDbArc
 50
270.0
 51
0.0
  0
LINE
  5
2D4A2
100
AcDbEntity
  8
K7
100
AcDbLine
 10
-62.725371
 20
150.856921
 30
0.0
 11
-62.725371
 21
148.856921
 31
0.0
  0
LINE
  5
2D4A3
100
AcDbEntity
  8
K7
100
AcDbLine
 10
-66.225371
 20
159.356921
 30
0.0
 11
-62.725371
 21
159.356921
 31
0.0
  0
LINE
  5
2D4A4
100
AcDbEntity
  8
K7
100
AcDbLine
 10
-66.225371
 20
162.856921
 30
0.0
 11
-66.225371
 21
159.356921
 31
0.0
  0
LINE
  5
2D4A9
100
AcDbEntity
  8
MASSE
  6
CONTINUOUS
 62
     2
100
AcDbLine
 10
-62.883561
 20
165.510872
 30
0.0
 11
-108.746632
 21
173.466152
 31
0.0
  0
LINE
  5
2D4AB
100
AcDbEntity
  8
1
 62
     5
100
AcDbLine
 10
-108.725371
 20
166.291829
 30
0.0
 11
-108.725371
 21
173.981921
 31
0.0
  0
LINE
  5
2D4AC
100
AcDbEntity
  8
K7
 62
     5
100
AcDbLine
 10
-108.725371
 20
171.323744
 30
0.0
 11
-108.725371
 21
167.981921
 31
0.0
1001
ACAD
1000
ASC_BOUNDS
1002
{
1070
    19
1002
}
  0
LINE
  5
2D4AD
100
AcDbEntity
  8
K7
100
AcDbLine
 10
-108.725371
 20
171.323744
 30
0.0
 11
-108.725371
 21
171.593744
 31
0.0
  0
LINE
  5
2D4AE
100
AcDbEntity
  8
K7
100
AcDbLine
 10
-108.725371
 20
171.593744
 30
0.0
 11
-108.725371
 21
171.323744
 31
0.0
  0
LINE
  5
2D4AF
100
AcDbEntity
  8
K7
100
AcDbLine
 10
-108.725371
 20
173.677159
 30
0.0
 11
-108.725371
 21
171.677159
 31
0.0
1001
ACAD
1000
ASC_BOUNDS
1002
{
1070
    19
1002
}
  0
LINE
  5
2D4B0
100
AcDbEntity
  8
K7
100
AcDbLine
 10
-61.225371
 20
147.856921
 30
0.0
 11
-61.225371
 21
162.356921
 31
0.0
  0
ARC
  5
2D4B2
100
AcDbEntity
  8
K7
 62
     2
100
AcDbCircle
 10
-61.725371
 20
162.356921
 30
0.0
 40
0.5
100
AcDbArc
 50
0.0
 51
90.0
  0
LINE
  5
2D4E4
100
AcDbEntity
  8
MASSE
  6
CONTINUOUS
100
AcDbLine
 10
-119.613885
 20
154.895195
 30
0.0
 11
-120.523312
 21
155.226199
 31
0.0
  0
LINE
  5
2D4E8
100
AcDbEntity
  8
K7
100
AcDbLine
 10
-62.725371
 20
161.356921
 30
0.0
 11
-63.725371
 21
161.356921
 31
0.0
  0
LINE
  5
2D4E9
100
AcDbEntity
  8
K7
100
AcDbLine
 10
-62.725371
 20
159.356921
 30
0.0
 11
-62.725371
 21
161.356921
 31
0.0
  0
LINE
  5
2D4EA
100
AcDbEntity
  8
K7
100
AcDbLine
 10
-64.225371
 20
161.856921
 30
0.0
 11
-64.225371
 21
162.356921
 31
0.0
  0
ARC
  5
2D4EB
100
AcDbEntity
  8
K7
100
AcDbCircle
 10
-63.725371
 20
161.856921
 30
0.0
 40
0.5
100
AcDbArc
 50
180.0
 51
270.0
  0
ARC
  5
2D4EC
100
AcDbEntity
  8
K7
100
AcDbCircle
 10
-63.725371
 20
162.356921
 30
0.0
 40
0.5
100
AcDbArc
 50
90.0
 51
180.0
  0
LINE
  5
2D4EE
100
AcDbEntity
  8
MASSE
  6
CONTINUOUS
 62
     2
100
AcDbLine
 10
-61.225371
 20
162.856921
 30
0.0
 11
-61.225371
 21
163.540297
 31
0.0
  0
ARC
  5
2D4EF
100
AcDbEntity
  8
MASSE
  6
CONTINUOUS
 62
     2
100
AcDbCircle
 10
-63.225371
 20
163.540297
 30
0.0
 40
2.0
100
AcDbArc
 50
0.0
 51
80.159546
  0
LINE
  5
2D51B
100
AcDbEntity
  8
K7
100
AcDbLine
 10
-100.225371
 20
150.856921
 30
0.0
 11
-116.225371
 21
150.856921
 31
0.0
  0
LINE
  5
2D51C
100
AcDbEntity
  8
MASSE
  6
STRICHPUNKT
 62
     2
100
AcDbLine
 10
-80.579692
 20
145.473151
 30
0.0
 11
-80.579692
 21
172.463437
 31
0.0
  0
ENDSEC
  0
SECTION
  2
OBJECTS
  0
DICTIONARY
  5
2801F
100
AcDbDictionary
  3
ACAD_GROUP
350
28020
  3
ACAD_MLINESTYLE
350
28021
  3
ACDBVARIABLEDICTIONARY
350
2BA60
  0
DICTIONARY
  5
28020
102
{ACAD_REACTORS
330
2801F
102
}
100
AcDbDictionary
  0
DICTIONARY
  5
28021
102
{ACAD_REACTORS
330
2801F
102
}
100
AcDbDictionary
  3
STANDARD
350
2802E
  0
DICTIONARY
  5
2BA60
102
{ACAD_REACTORS
330
2801F
102
}
100
AcDbDictionary
  3
SORTENTS
350
2BA61
  0
MLINESTYLE
  5
2802E
102
{ACAD_REACTORS
330
28021
102
}
100
AcDbMlineStyle
  2
STANDARD
 70
     0
  3

 62
     0
 51
90.0
 52
90.0
 71
     2
 49
0.5
 62
   256
  6
BYLAYER
 49
-0.5
 62
   256
  6
BYLAYER
  0
DICTIONARYVAR
  5
2BA61
102
{ACAD_REACTORS
330
2BA60
102
}
100
DictionaryVariables
280
     0
  1
96
  0
ENDSEC
  0
EOF
