  0
SECTION
  2
HEADER
  9
$ACADVER
  1
AC1015
  9
$ACADMAINTVER
 70
    13
  9
$DWGCODEPAGE
  3
ANSI_1252
  9
$INSBASE
 10
0.0
 20
0.0
 30
0.0
  9
$EXTMIN
 10
13.71546254881104
 20
110.8141549848132
 30
-0.0000000000000058
  9
$EXTMAX
 10
310.749105840121
 20
320.8445947134532
 30
0.0000000000000104
  9
$LIMMIN
 10
6.839589919785566
 20
63.6302196850745
  9
$LIMMAX
 10
303.8395899197855
 20
273.6302196850745
  9
$ORTHOMODE
 70
     0
  9
$REGENMODE
 70
     0
  9
$FILLMODE
 70
     1
  9
$QTEXTMODE
 70
     0
  9
$MIRRTEXT
 70
     0
  9
$LTSCALE
 40
1.0
  9
$ATTMODE
 70
     1
  9
$TEXTSIZE
 40
2.0
  9
$TRACEWID
 40
0.05
  9
$TEXTSTYLE
  7
ROMANS
  9
$CLAYER
  8
AM_0
  9
$CELTYPE
  6
BYLAYER
  9
$CECOLOR
 62
   256
  9
$CELTSCALE
 40
1.0
  9
$DISPSILH
 70
     0
  9
$DIMSCALE
 40
1.0
  9
$DIMASZ
 40
2.5
  9
$DIMEXO
 40
1.0
  9
$DIMDLI
 40
10.0
  9
$DIMRND
 40
0.0
  9
$DIMDLE
 40
0.0
  9
$DIMEXE
 40
1.0
  9
$DIMTP
 40
0.1
  9
$DIMTM
 40
0.1
  9
$DIMTXT
 40
3.5
  9
$DIMCEN
 40
0.0
  9
$DIMTSZ
 40
0.0
  9
$DIMTOL
 70
     0
  9
$DIMLIM
 70
     0
  9
$DIMTIH
 70
     0
  9
$DIMTOH
 70
     0
  9
$DIMSE1
 70
     0
  9
$DIMSE2
 70
     0
  9
$DIMTAD
 70
     1
  9
$DIMZIN
 70
     8
  9
$DIMBLK
  1

  9
$DIMASO
 70
     1
  9
$DIMSHO
 70
     1
  9
$DIMPOST
  1

  9
$DIMAPOST
  1
"
  9
$DIMALT
 70
     0
  9
$DIMALTD
 70
     2
  9
$DIMALTF
 40
0.0393701
  9
$DIMLFAC
 40
1.0
  9
$DIMTOFL
 70
     1
  9
$DIMTVP
 40
0.0
  9
$DIMTIX
 70
     0
  9
$DIMSOXD
 70
     0
  9
$DIMSAH
 70
     0
  9
$DIMBLK1
  1

  9
$DIMBLK2
  1

  9
$DIMSTYLE
  2
AM_ISO
  9
$DIMCLRD
 70
   256
  9
$DIMCLRE
 70
   256
  9
$DIMCLRT
 70
     2
  9
$DIMTFAC
 40
0.71
  9
$DIMGAP
 40
1.5
  9
$DIMJUST
 70
     0
  9
$DIMSD1
 70
     0
  9
$DIMSD2
 70
     0
  9
$DIMTOLJ
 70
     0
  9
$DIMTZIN
 70
     8
  9
$DIMALTZ
 70
     0
  9
$DIMALTTZ
 70
     0
  9
$DIMUPT
 70
     0
  9
$DIMDEC
 70
     2
  9
$DIMTDEC
 70
     3
  9
$DIMALTU
 70
     2
  9
$DIMALTTD
 70
     4
  9
$DIMTXSTY
  7
STANDARD
  9
$DIMAUNIT
 70
     0
  9
$DIMADEC
 70
     0
  9
$DIMALTRND
 40
0.0
  9
$DIMAZIN
 70
     2
  9
$DIMDSEP
 70
    46
  9
$DIMATFIT
 70
     3
  9
$DIMFRAC
 70
     0
  9
$DIMLDRBLK
  1

  9
$DIMLUNIT
 70
     2
  9
$DIMLWD
 70
    -1
  9
$DIMLWE
 70
    -1
  9
$DIMTMOVE
 70
     0
  9
$LUNITS
 70
     2
  9
$LUPREC
 70
     2
  9
$SKETCHINC
 40
0.1
  9
$FILLETRAD
 40
2.5
  9
$AUNITS
 70
     0
  9
$AUPREC
 70
     2
  9
$MENU
  1
C:\CADMEC13\ASM_ITA
  9
$ELEVATION
 40
0.0
  9
$PELEVATION
 40
0.0
  9
$THICKNESS
 40
0.0
  9
$LIMCHECK
 70
     0
  9
$CHAMFERA
 40
2.5
  9
$CHAMFERB
 40
2.5
  9
$CHAMFERC
 40
0.0
  9
$CHAMFERD
 40
0.0
  9
$SKPOLY
 70
     0
  9
$TDCREATE
 40
2450457.860426388
  9
$TDUCREATE
 40
2450457.777093055
  9
$TDUPDATE
 40
2453095.408148310
  9
$TDUUPDATE
 40
2453095.324814976
  9
$TDINDWG
 40
1.0992554167
  9
$TDUSRTIMER
 40
1.0992554167
  9
$USRTIMER
 70
     1
  9
$ANGBASE
 50
0.0
  9
$ANGDIR
 70
     0
  9
$PDMODE
 70
     0
  9
$PDSIZE
 40
0.0
  9
$PLINEWID
 40
0.0
  9
$SPLFRAME
 70
     0
  9
$SPLINETYPE
 70
     6
  9
$SPLINESEGS
 70
     8
  9
$HANDSEED
  5
1862B
  9
$SURFTAB1
 70
     6
  9
$SURFTAB2
 70
     6
  9
$SURFTYPE
 70
     6
  9
$SURFU
 70
     6
  9
$SURFV
 70
     6
  9
$UCSBASE
  2

  9
$UCSNAME
  2

  9
$UCSORG
 10
0.0
 20
0.0
 30
0.0
  9
$UCSXDIR
 10
1.0
 20
0.0
 30
0.0
  9
$UCSYDIR
 10
0.0
 20
1.0
 30
0.0
  9
$UCSORTHOREF
  2

  9
$UCSORTHOVIEW
 70
     0
  9
$UCSORGTOP
 10
0.0
 20
0.0
 30
0.0
  9
$UCSORGBOTTOM
 10
0.0
 20
0.0
 30
0.0
  9
$UCSORGLEFT
 10
0.0
 20
0.0
 30
0.0
  9
$UCSORGRIGHT
 10
0.0
 20
0.0
 30
0.0
  9
$UCSORGFRONT
 10
0.0
 20
0.0
 30
0.0
  9
$UCSORGBACK
 10
0.0
 20
0.0
 30
0.0
  9
$PUCSBASE
  2

  9
$PUCSNAME
  2

  9
$PUCSORG
 10
0.0
 20
0.0
 30
0.0
  9
$PUCSXDIR
 10
1.0
 20
0.0
 30
0.0
  9
$PUCSYDIR
 10
0.0
 20
1.0
 30
0.0
  9
$PUCSORTHOREF
  2

  9
$PUCSORTHOVIEW
 70
     0
  9
$PUCSORGTOP
 10
0.0
 20
0.0
 30
0.0
  9
$PUCSORGBOTTOM
 10
0.0
 20
0.0
 30
0.0
  9
$PUCSORGLEFT
 10
0.0
 20
0.0
 30
0.0
  9
$PUCSORGRIGHT
 10
0.0
 20
0.0
 30
0.0
  9
$PUCSORGFRONT
 10
0.0
 20
0.0
 30
0.0
  9
$PUCSORGBACK
 10
0.0
 20
0.0
 30
0.0
  9
$USERI1
 70
     0
  9
$USERI2
 70
     0
  9
$USERI3
 70
     0
  9
$USERI4
 70
     0
  9
$USERI5
 70
     0
  9
$USERR1
 40
0.0
  9
$USERR2
 40
0.0
  9
$USERR3
 40
0.0
  9
$USERR4
 40
0.0
  9
$USERR5
 40
0.0
  9
$WORLDVIEW
 70
     1
  9
$SHADEDGE
 70
     3
  9
$SHADEDIF
 70
    70
  9
$TILEMODE
 70
     1
  9
$MAXACTVP
 70
    16
  9
$PINSBASE
 10
0.0
 20
0.0
 30
0.0
  9
$PLIMCHECK
 70
     0
  9
$PEXTMIN
 10
1.000000000000000E+20
 20
1.000000000000000E+20
 30
1.000000000000000E+20
  9
$PEXTMAX
 10
-1.000000000000000E+20
 20
-1.000000000000000E+20
 30
-1.000000000000000E+20
  9
$PLIMMIN
 10
0.0
 20
0.0
  9
$PLIMMAX
 10
12.0
 20
9.0
  9
$UNITMODE
 70
     0
  9
$VISRETAIN
 70
     0
  9
$PLINEGEN
 70
     0
  9
$PSLTSCALE
 70
     1
  9
$TREEDEPTH
 70
  3020
  9
$CMLSTYLE
  2
STANDARD
  9
$CMLJUST
 70
     0
  9
$CMLSCALE
 40
1.0
  9
$PROXYGRAPHICS
 70
     1
  9
$MEASUREMENT
 70
     1
  9
$CELWEIGHT
370
    -1
  9
$ENDCAPS
280
     0
  9
$JOINSTYLE
280
     0
  9
$LWDISPLAY
290
     0
  9
$INSUNITS
 70
     0
  9
$HYPERLINKBASE
  1

  9
$STYLESHEET
  1
monochrome.ctb
  9
$XEDIT
290
     1
  9
$CEPSNTYPE
380
     0
  9
$PSTYLEMODE
290
     1
  9
$FINGERPRINTGUID
  2
{38ED20B6-5A49-11D5-9C06-0002B30B9BEF}
  9
$VERSIONGUID
  2
{534EC238-5222-4FFF-B911-BBE3AE3304A8}
  9
$EXTNAMES
290
     1
  9
$PSVPSCALE
 40
0.0
  9
$OLESTARTUP
290
     0
  0
ENDSEC
  0
SECTION
  2
CLASSES
  0
CLASS
  1
LWPOLYLINE
  2
AcDbPolyline
  3
AutoCAD 2000
 90
    32768
280
     0
281
     1
  0
CLASS
  1
HATCH
  2
AcDbHatch
  3
AutoCAD 2000
 90
    32768
280
     0
281
     1
  0
CLASS
  1
ACDBDICTIONARYWDFLT
  2
AcDbDictionaryWithDefault
  3
AutoCAD 2000
 90
        0
280
     0
281
     0
  0
CLASS
  1
ACDBPLACEHOLDER
  2
AcDbPlaceHolder
  3
AutoCAD 2000
 90
        0
280
     0
281
     0
  0
CLASS
  1
LAYOUT
  2
AcDbLayout
  3
AutoCAD 2000
 90
        0
280
     0
281
     0
  0
CLASS
  1
ACME_DOCUMENT
  2
AcMeDbDoc
  3
AcMeServices
 90
        0
280
     0
281
     0
  0
CLASS
  1
AMGSETTINGSOBJ
  2
AmgSettingsObj
  3
"AcadM|Product Description: AutoCAD Mechanical 2000|Company: Autodesk"
 90
        0
280
     0
281
     0
  0
CLASS
  1
AMGOBJPROPCFG
  2
AmgObjPropCfg
  3
"AmgLay|Product Description: AutoCAD Mechanical 2000|Company: Autodesk"
 90
        1
280
     0
281
     0
  0
CLASS
  1
ACMESCOPE
  2
AcMeScope
  3
AcMeServices
 90
        0
280
     0
281
     0
  0
CLASS
  1
ACMECOMMANDHISTORY
  2
AcMeCommandHistory
  3
AcMeServices
 90
        0
280
     0
281
     0
  0
CLASS
  1
DICTIONARYVAR
  2
AcDbDictionaryVar
  3
AutoCAD 2000
 90
        0
280
     0
281
     0
  0
CLASS
  1
ACIMSYSVARMAN
  2
AcImSysVarManager
  3
AcMeServices
 90
        0
280
     0
281
     0
  0
CLASS
  1
ACIMREALSYSVAR
  2
AcImRealSysVar
  3
AcMeServices
 90
        0
280
     0
281
     0
  0
CLASS
  1
ACIMINTSYSVAR
  2
AcImIntSysVar
  3
AcMeServices
 90
        0
280
     0
281
     0
  0
CLASS
  1
ACMEDRAWINGMAN
  2
AcMeDrawingMan
  3
AcMeServices
 90
        0
280
     0
281
     0
  0
CLASS
  1
ACMEVIEW
  2
AcMeView
  3
AcMeServices
 90
        0
280
     0
281
     0
  0
CLASS
  1
ACDBENTITYCACHE
  2
AcMeEntityCache
  3
AcMeServices
 90
        0
280
     0
281
     0
  0
CLASS
  1
GSMANAGER
  2
AcMeGSManager
  3
AcMeServices
 90
        0
280
     0
281
     0
  0
CLASS
  1
AMDTINTERNALREACTOR
  2
AmdtInternalReactor
  3
AcMeServices
 90
        0
280
     0
281
     0
  0
CLASS
  1
ACMESTATEMGR
  2
AcMeStateMgr
  3
AcMeServices
 90
        0
280
     0
281
     0
  0
CLASS
  1
ACGREFMASTER
  2
AcGrefMaster
  3
AcAttribServices
 90
        0
280
     0
281
     0
  0
CLASS
  1
ACME_DATABASE
  2
AcMeDbDatabase
  3
AcMeServices
 90
        0
280
     0
281
     0
  0
CLASS
  1
ACRFINSADJUSTERMGR
  2
AcRfInsAdjusterMgr
  3
AcMeServices
 90
        0
280
     0
281
     0
  0
CLASS
  1
ACGREFACADMASTER
  2
AcGrefacadMaster
  3
AcGrefServices
 90
        0
280
     0
281
     0
  0
CLASS
  1
AMIMASTER
  2
AmiMaster
  3
AmiServices
 90
        0
280
     0
281
     0
  0
CLASS
  1
ACMDATADICTIONARY
  2
AcmDataDictionary
  3
"AcmSymBB|Product Description: AutoCAD Mechanical 2000|Company: Autodesk"
 90
        0
280
     0
281
     0
  0
CLASS
  1
ACMDATAENTRYBLOCK
  2
AcmDataEntryBlock
  3
"AcmSymBB|Product Description: AutoCAD Mechanical 2000|Company: Autodesk"
 90
        0
280
     0
281
     0
  0
CLASS
  1
ACMSTANDARDISO
  2
AcmStandardISO
  3
"Amdt_StdImp|Product Description: AutoCAD Mechanical 2000|Company: Autodesk"
 90
        0
280
     0
281
     0
  0
CLASS
  1
AMDTEDGESTANDARDISO
  2
AmdtEdgeStdISO
  3
"Amdt_StdImp|Product Description: AutoCAD Mechanical 2000|Company: Autodesk"
 90
        0
280
     0
281
     0
  0
CLASS
  1
ACMSURFSTANDARDISO
  2
AcmSurfTextStdISO
  3
"Amdt_StdImp|Product Description: AutoCAD Mechanical 2000|Company: Autodesk"
 90
        0
280
     0
281
     0
  0
CLASS
  1
ACMFCFSTANDARDISO
  2
AcmFCFStdISO
  3
"Amdt_StdImp|Product Description: AutoCAD Mechanical 2000|Company: Autodesk"
 90
        0
280
     0
281
     0
  0
CLASS
  1
ACMWELDSTANDARDISO
  2
AcmWeldingStdISO
  3
"Amdt_StdImp|Product Description: AutoCAD Mechanical 2000|Company: Autodesk"
 90
        0
280
     0
281
     0
  0
CLASS
  1
ACMIDSTANDARDISO
  2
AcmIdStdISO
  3
"Amdt_StdImp|Product Description: AutoCAD Mechanical 2000|Company: Autodesk"
 90
        0
280
     0
281
     0
  0
CLASS
  1
ACMDATUMSTANDARDISO
  2
AcmDatumStdISO
  3
"Amdt_StdImp|Product Description: AutoCAD Mechanical 2000|Company: Autodesk"
 90
        0
280
     0
281
     0
  0
CLASS
  1
ACMBOMSTANDARDISO
  2
AcmBOMStdISO
  3
"Amdt_StdImp|Product Description: AutoCAD Mechanical 2000|Company: Autodesk"
 90
        0
280
     0
281
     0
  0
CLASS
  1
ACMDETAILSTANDARDISO
  2
AmdtDetailSymStdISO
  3
"Amdt_StdImp|Product Description: AutoCAD Mechanical 2000|Company: Autodesk"
 90
        0
280
     0
281
     0
  0
CLASS
  1
ACMSECTIONSTANDARDISO
  2
AmdtSectionSymStdISO
  3
"Amdt_StdImp|Product Description: AutoCAD Mechanical 2000|Company: Autodesk"
 90
        0
280
     0
281
     0
  0
CLASS
  1
ACMCENTERLINESTANDARDISO
  2
AmdtCenterLineStdISO
  3
"Amdt_StdImp|Product Description: AutoCAD Mechanical 2000|Company: Autodesk"
 90
        0
280
     0
281
     0
  0
CLASS
  1
ACMTHREADLINESTANDARDISO
  2
AmdtThreadLineStdISO
  3
"Amdt_StdImp|Product Description: AutoCAD Mechanical 2000|Company: Autodesk"
 90
        0
280
     0
281
     0
  0
CLASS
  1
ACAMGLAYSTD
  2
AcAmgLayStd
  3
"AcAmgLayStd|Product Description: AutoCAD Mechanical 2000|Company: Autodesk"
 90
        0
280
     0
281
     0
  0
CLASS
  1
ACAMGDIMSTD
  2
AcAmgDimStd
  3
"AcAmgDimStd|Product Description: AutoCAD Mechanical 2000|Company: Autodesk"
 90
        0
280
     0
281
     0
  0
CLASS
  1
ACAMGTITLESTD
  2
AcAmgTitleStd
  3
"TITLEAPP"
 90
        0
280
     0
281
     0
  0
CLASS
  1
ACIMSTRSYSVAR
  2
AcImStrSysVar
  3
AcMeServices
 90
        0
280
     0
281
     0
  0
CLASS
  1
ACAMGFILTERDAT
  2
AcAmgFilterDat
  3
"AcadM|Product Description: AutoCAD Mechanical 2000|Company: Autodesk"
 90
        0
280
     0
281
     0
  0
CLASS
  1
LAYER_INDEX
  2
AcDbLayerIndex
  3
AutoCAD 2000
 90
        0
280
     0
281
     0
  0
CLASS
  1
IDBUFFER
  2
AcDbIdBuffer
  3
AutoCAD 2000
 90
        0
280
     0
281
     0
  0
CLASS
  1
AMDTFORMULAUPDATEDISPATCHER
  2
AmdtFormulaUpdateDispatcher
  3
AcMeServices
 90
        0
280
     0
281
     0
  0
CLASS
  1
ACMNOTESTANDARDISO
  2
AmdtNoteStdISO
  3
"Amdt_StdImp|Product Description: AutoCAD Mechanical 2000|Company: Autodesk"
 90
        0
280
     0
281
     0
  0
CLASS
  1
ACAMGHOLECHARTSTDISO
  2
AcAmgHoleChartStdISO
  3
ACMSYMBB_MODULE_NAME
 90
        0
280
     0
281
     0
  0
ENDSEC
  0
SECTION
  2
TABLES
  0
TABLE
  2
VPORT
  5
13
330
0
100
AcDbSymbolTable
 70
    13
  0
VPORT
  5
1862A
330
13
100
AcDbSymbolTableRecord
100
AcDbViewportTableRecord
  2
*Active
 70
     0
 10
0.0
 20
0.0
 11
1.0
 21
1.0
 12
162.232284194466
 22
215.8293748491332
 13
0.0
 23
0.0
 14
2.5
 24
2.5
 15
10.0
 25
10.0
 16
0.0
 26
0.0
 36
1.0
 17
0.0
 27
0.0
 37
0.0
 40
211.6543864275727
 41
1.540645161290322
 42
50.0
 43
0.0
 44
0.0
 50
0.0
 51
0.0
 71
    16
 72
   500
 73
     1
 74
     0
 75
     0
 76
     0
 77
     0
 78
     0
281
     0
 65
     1
110
0.0
120
0.0
130
0.0
111
1.0
121
0.0
131
0.0
112
0.0
122
1.0
132
0.0
 79
     0
146
0.0
  0
ENDTAB
  0
TABLE
  2
LTYPE
  5
F
330
0
100
AcDbSymbolTable
 70
    18
  0
LTYPE
  5
10
330
F
100
AcDbSymbolTableRecord
100
AcDbLinetypeTableRecord
  2
BYBLOCK
 70
     0
  3

 72
    65
 73
     0
 40
0.0
  0
LTYPE
  5
6
330
F
100
AcDbSymbolTableRecord
100
AcDbLinetypeTableRecord
  2
BYLAYER
 70
     0
  3

 72
    65
 73
     0
 40
0.0
  0
LTYPE
  5
5
330
F
100
AcDbSymbolTableRecord
100
AcDbLinetypeTableRecord
  2
CONTINUOUS
 70
     0
  3
Solid line
 72
    65
 73
     0
 40
0.0
  0
LTYPE
  5
180E0
330
F
100
AcDbSymbolTableRecord
100
AcDbLinetypeTableRecord
  2
AM_ISO02W050
 70
     0
  3
__ __ __ __ __ __ __ __ __ __ __ __ __ __ __
 72
    65
 73
     2
 40
7.5
 49
6.0
 74
     0
 49
-1.5
 74
     0
  0
LTYPE
  5
180E1
330
F
100
AcDbSymbolTableRecord
100
AcDbLinetypeTableRecord
  2
AM_ISO08W050
 70
     0
  3
____ . ____ . ____ . ____ . ____ . ____ . ____
 72
    65
 73
     4
 40
18.0
 49
12.0
 74
     0
 49
-1.5
 74
     0
 49
3.0
 74
     0
 49
-1.5
 74
     0
  0
LTYPE
  5
180E2
330
F
100
AcDbSymbolTableRecord
100
AcDbLinetypeTableRecord
  2
AM_ISO09W050
 70
     0
  3
_____ . . _____ . . _____ . . ____ .. ____
 72
    65
 73
     6
 40
22.5
 49
12.0
 74
     0
 49
-1.5
 74
     0
 49
3.0
 74
     0
 49
-1.5
 74
     0
 49
3.0
 74
     0
 49
-1.5
 74
     0
  0
LTYPE
  5
180E3
330
F
100
AcDbSymbolTableRecord
100
AcDbLinetypeTableRecord
  2
Amconstr
 70
     0
  3
_______________________
 72
    65
 73
     2
 40
9999.0
 49
9999.0
 74
     0
 49
0.0
 74
     0
  0
LTYPE
  5
180E4
330
F
100
AcDbSymbolTableRecord
100
AcDbLinetypeTableRecord
  2
AM_ISO08W050x2
 70
     0
  3
__ . __ . __ . __ . __ . __
 72
    65
 73
     4
 40
9.0
 49
6.0
 74
     0
 49
-0.75
 74
     0
 49
1.5
 74
     0
 49
-0.75
 74
     0
  0
LTYPE
  5
180E5
330
F
100
AcDbSymbolTableRecord
100
AcDbLinetypeTableRecord
  2
AM_ISO02W050x2
 70
     0
  3
 _ _ _ _ _ _ _ _ _ _ _ _
 72
    65
 73
     2
 40
3.75
 49
3.0
 74
     0
 49
-0.75
 74
     0
  0
LTYPE
  5
180E6
330
F
100
AcDbSymbolTableRecord
100
AcDbLinetypeTableRecord
  2
Amzigzag
 70
     0
  3
/\/-/\/-/\/-/\/-/\/-/\/
 72
    65
 73
     2
 40
11.00009999999999
 49
0.0001
 74
     4
 75
   135
340
180E7
 46
0.04
 50
0.0
 44
0.0
 45
0.0
 49
-11.0
 74
     0
  0
LTYPE
  5
1810F
330
F
100
AcDbSymbolTableRecord
100
AcDbLinetypeTableRecord
  2
ACISOWELD
 70
     0
  3
_ _ _ _ _
 72
    65
 73
     2
 40
2.0
 49
2.0
 74
     0
 49
-1.0
 74
     0
  0
LTYPE
  5
18112
330
F
100
AcDbSymbolTableRecord
100
AcDbLinetypeTableRecord
  2
ACISOTGB
 70
     0
  3
__ . . __ . .
 72
    65
 73
     6
 40
9.0
 49
4.0
 74
     0
 49
-1.0
 74
     0
 49
1.0
 74
     0
 49
-1.0
 74
     0
 49
1.0
 74
     0
 49
-1.0
 74
     0
  0
LTYPE
  5
18113
330
F
100
AcDbSymbolTableRecord
100
AcDbLinetypeTableRecord
  2
ACISOTGL
 70
     0
  3
_ _ _ _ _
 72
    65
 73
     2
 40
3.0
 49
2.0
 74
     0
 49
-1.0
 74
     0
  0
LTYPE
  5
18117
330
F
100
AcDbSymbolTableRecord
100
AcDbLinetypeTableRecord
  2
CENTER
 70
     0
  3
__ . __
 72
    65
 73
     4
 40
7.0
 49
4.0
 74
     0
 49
-1.0
 74
     0
 49
1.0
 74
     0
 49
-1.0
 74
     0
  0
LTYPE
  5
18517
330
F
100
AcDbSymbolTableRecord
100
AcDbLinetypeTableRecord
  2
gen3
 70
     0
  3
-- -- -- -- -- -- -- -- -- -- -- -- -- -- --
 72
    65
 73
     2
 40
6.25
 49
4.75
 74
     0
 49
-1.5
 74
     0
  0
LTYPE
  5
18518
330
F
100
AcDbSymbolTableRecord
100
AcDbLinetypeTableRecord
  2
gen7
 70
     0
  3
____ . ____ . ____ . ____ . ____ . ____ . ____
 72
    65
 73
     4
 40
13.75
 49
9.75
 74
     0
 49
-1.5
 74
     0
 49
1.0
 74
     0
 49
-1.5
 74
     0
  0
LTYPE
  5
18519
330
F
100
AcDbSymbolTableRecord
100
AcDbLinetypeTableRecord
  2
gen3a
 70
     0
  3
 - - - - -
 72
    65
 73
     2
 40
3.125
 49
2.25
 74
     0
 49
-0.875
 74
     0
  0
LTYPE
  5
1851A
330
F
100
AcDbSymbolTableRecord
100
AcDbLinetypeTableRecord
  2
gen7a
 70
     0
  3
__ . __ . __
 72
    65
 73
     4
 40
6.875
 49
4.75
 74
     0
 49
-0.875
 74
     0
 49
0.375
 74
     0
 49
-0.875
 74
     0
  0
LTYPE
  5
1851B
330
F
100
AcDbSymbolTableRecord
100
AcDbLinetypeTableRecord
  2
gen4a
 70
     0
  3
_____ . . _____ . . _____ . . ____ .. ____
 72
    65
 73
     6
 40
16.25
 49
9.75
 74
     0
 49
-1.5
 74
     0
 49
1.0
 74
     0
 49
-1.5
 74
     0
 49
1.0
 74
     0
 49
-1.5
 74
     0
  0
LTYPE
  5
1851C
330
F
100
AcDbSymbolTableRecord
100
AcDbLinetypeTableRecord
  2
genzigzag
 70
     0
  3
/\/-/\/-/\/-/\/-/\/-/\/
 72
    65
 73
     2
 40
12.0001
 49
0.0001
 74
     4
 75
   135
340
1851D
 46
2.0
 50
0.0
 44
0.0
 45
0.0
 49
-12.0
 74
     0
  0
ENDTAB
  0
TABLE
  2
LAYER
  5
B
330
0
100
AcDbSymbolTable
 70
    13
  0
LAYER
  5
C
330
B
100
AcDbSymbolTableRecord
100
AcDbLayerTableRecord
  2
0
 70
     0
 62
     7
  6
CONTINUOUS
370
    -3
390
180C5
  0
LAYER
  5
62
330
B
100
AcDbSymbolTableRecord
100
AcDbLayerTableRecord
  2
DEFPOINTS
 70
     0
 62
     7
  6
CONTINUOUS
290
     0
370
    -3
390
180C5
  0
LAYER
  5
3EDF
330
B
100
AcDbSymbolTableRecord
100
AcDbLayerTableRecord
  2
AME_FRZ
 70
     0
 62
     7
  6
CONTINUOUS
370
    -3
390
180C5
  0
LAYER
  5
1830C
330
B
100
AcDbSymbolTableRecord
100
AcDbLayerTableRecord
  2
AM_0
 70
     0
 62
     7
  6
CONTINUOUS
370
    30
390
180C5
  0
LAYER
  5
1830D
330
B
100
AcDbSymbolTableRecord
100
AcDbLayerTableRecord
  2
AM_5
 70
     0
 62
     3
  6
CONTINUOUS
370
    15
390
180C5
  0
LAYER
  5
1830E
330
B
100
AcDbSymbolTableRecord
100
AcDbLayerTableRecord
  2
AM_6
 70
     0
 62
     2
  6
CONTINUOUS
370
    30
390
180C5
  0
LAYER
  5
18314
330
B
100
AcDbSymbolTableRecord
100
AcDbLayerTableRecord
  2
AM_PAREF
 70
     0
 62
     4
  6
CONTINUOUS
290
     0
370
    15
390
180C5
  0
LAYER
  5
18315
330
B
100
AcDbSymbolTableRecord
100
AcDbLayerTableRecord
  2
AM_4
 70
     0
 62
     3
  6
CONTINUOUS
370
    15
390
180C5
  0
LAYER
  5
18316
330
B
100
AcDbSymbolTableRecord
100
AcDbLayerTableRecord
  2
AM_3
 70
     0
 62
     6
  6
AM_ISO02W050
370
    30
390
180C5
  0
LAYER
  5
18317
330
B
100
AcDbSymbolTableRecord
100
AcDbLayerTableRecord
  2
AM_2
 70
     0
 62
     5
  6
CONTINUOUS
370
    30
390
180C5
  0
LAYER
  5
18318
330
B
100
AcDbSymbolTableRecord
100
AcDbLayerTableRecord
  2
AM_7
 70
     0
 62
     4
  6
AM_ISO08W050
370
    15
390
180C5
  0
LAYER
  5
1835D
330
B
100
AcDbSymbolTableRecord
100
AcDbLayerTableRecord
  2
AM_BOR
 70
     0
 62
     7
  6
CONTINUOUS
370
    30
390
180C5
  0
LAYER
  5
185E1
330
B
100
AcDbSymbolTableRecord
100
AcDbLayerTableRecord
  2
AM_CL
 70
     0
 62
     1
  6
Amconstr
370
    15
390
180C5
  0
ENDTAB
  0
TABLE
  2
STYLE
  5
D
330
0
100
AcDbSymbolTable
 70
    14
  0
STYLE
  5
E
330
D
100
AcDbSymbolTableRecord
100
AcDbTextStyleTableRecord
  2
STANDARD
 70
     0
 40
0.0
 41
1.0
 50
0.0
 71
     0
 42
2.5
  3
ISOCP.SHX
  4

  0
STYLE
  5
11D
330
D
100
AcDbSymbolTableRecord
100
AcDbTextStyleTableRecord
  2
ISO
 70
     0
 40
0.0
 41
1.0
 50
0.0
 71
     0
 42
3.0
  3
ISO8.SHX
  4

  0
STYLE
  5
109
330
D
100
AcDbSymbolTableRecord
100
AcDbTextStyleTableRecord
  2
COMPLEX
 70
     0
 40
0.0
 41
1.0
 50
0.0
 71
     0
 42
3.0
  3
COMPLEX8.SHX
  4

  0
STYLE
  5
1D
330
D
100
AcDbSymbolTableRecord
100
AcDbTextStyleTableRecord
  2
ROMANS
 70
     0
 40
2.0
 41
1.0
 50
8.0
 71
     0
 42
2.0
  3
\ROMANS.SHX
  4

  0
STYLE
  5
23
330
D
100
AcDbSymbolTableRecord
100
AcDbTextStyleTableRecord
  2
QUOTE
 70
     0
 40
0.0
 41
0.8
 50
0.0
 71
     0
 42
6.0
  3
romans
  4

  0
STYLE
  5
26
330
D
100
AcDbSymbolTableRecord
100
AcDbTextStyleTableRecord
  2
CART
 70
     0
 40
2.5
 41
0.8
 50
20.0
 71
     0
 42
2.5
  3
ROMANS
  4

  0
STYLE
  5
439
330
D
100
AcDbSymbolTableRecord
100
AcDbTextStyleTableRecord
  2
25RMS
 70
     0
 40
2.5
 41
0.8
 50
20.0
 71
     0
 42
2.0
  3
romans
  4

  0
STYLE
  5
180E7
330
D
100
AcDbSymbolTableRecord
100
AcDbTextStyleTableRecord
  2

 70
     1
 40
0.0
 41
1.0
 50
0.0
 71
     0
 42
2.5
  3
ltypeshp.shx
  4

  0
STYLE
  5
18109
330
D
100
AcDbSymbolTableRecord
100
AcDbTextStyleTableRecord
  2
ACISOTS
 70
     0
 40
1.0
 41
1.0
 50
0.0
 71
     0
 42
2.5
  3
isocp.shx
  4

  0
STYLE
  5
1810D
330
D
100
AcDbSymbolTableRecord
100
AcDbTextStyleTableRecord
  2
ACISOGDT
 70
     0
 40
0.0
 41
1.0
 50
0.0
 71
     0
 42
2.5
  3
amgdt.shx
  4

  0
STYLE
  5
1851D
330
D
100
AcDbSymbolTableRecord
100
AcDbTextStyleTableRecord
  2

 70
     1
 40
0.0
 41
1.0
 50
0.0
 71
     0
 42
2.5
  3
genltshp.shx
  4

  0
STYLE
  5
1851E
330
D
100
AcDbSymbolTableRecord
100
AcDbTextStyleTableRecord
  2
USER1
 70
     0
 40
0.0
 41
1.0
 50
0.0
 71
     0
 42
2.5
  3
TXT.SHX
  4

  0
STYLE
  5
1851F
330
D
100
AcDbSymbolTableRecord
100
AcDbTextStyleTableRecord
  2
USER2
 70
     0
 40
0.0
 41
1.0
 50
0.0
 71
     0
 42
2.5
  3
SIMPLEX.SHX
  4

  0
STYLE
  5
18520
330
D
100
AcDbSymbolTableRecord
100
AcDbTextStyleTableRecord
  2
USER3
 70
     0
 40
0.0
 41
1.0
 50
0.0
 71
     0
 42
2.5
  3
ITALIC.SHX
  4

  0
ENDTAB
  0
TABLE
  2
VIEW
  5
11
330
0
100
AcDbSymbolTable
 70
    12
  0
VIEW
  5
1D01
330
11
100
AcDbSymbolTableRecord
100
AcDbViewTableRecord
  2
GEN1
 70
     0
 40
148.5
 10
126.0790759010939
 20
286.3802196850745
 41
238.4789719626168
 11
0.0
 21
0.0
 31
1.0
 12
0.0
 22
0.0
 32
0.0
 42
50.0
 43
0.0
 44
0.0
 50
0.0
 71
     0
281
     0
 72
     0
  0
VIEW
  5
1D02
330
11
100
AcDbSymbolTableRecord
100
AcDbViewTableRecord
  2
GEN2
 70
     0
 40
148.5
 10
307.6001039384771
 20
286.3802196850745
 41
238.4789719626168
 11
0.0
 21
0.0
 31
1.0
 12
0.0
 22
0.0
 32
0.0
 42
50.0
 43
0.0
 44
0.0
 50
0.0
 71
     0
281
     0
 72
     0
  0
VIEW
  5
1D03
330
11
100
AcDbSymbolTableRecord
100
AcDbViewTableRecord
  2
GEN3
 70
     0
 40
148.5
 10
126.0790759010939
 20
137.8802196850745
 41
238.4789719626168
 11
0.0
 21
0.0
 31
1.0
 12
0.0
 22
0.0
 32
0.0
 42
50.0
 43
0.0
 44
0.0
 50
0.0
 71
     0
281
     0
 72
     0
  0
VIEW
  5
1D04
330
11
100
AcDbSymbolTableRecord
100
AcDbViewTableRecord
  2
GEN4
 70
     0
 40
148.5
 10
307.6001039384771
 20
137.8802196850745
 41
238.4789719626168
 11
0.0
 21
0.0
 31
1.0
 12
0.0
 22
0.0
 32
0.0
 42
50.0
 43
0.0
 44
0.0
 50
0.0
 71
     0
281
     0
 72
     0
  0
VIEW
  5
1D05
330
11
100
AcDbSymbolTableRecord
100
AcDbViewTableRecord
  2
GEN5
 70
     0
 40
148.5
 10
216.8395899197855
 20
212.1302196850745
 41
238.4789719626168
 11
0.0
 21
0.0
 31
1.0
 12
0.0
 22
0.0
 32
0.0
 42
50.0
 43
0.0
 44
0.0
 50
0.0
 71
     0
281
     0
 72
     0
  0
VIEW
  5
1D06
330
11
100
AcDbSymbolTableRecord
100
AcDbViewTableRecord
  2
GEN6
 70
     0
 40
296.9970299999999
 10
216.8395899197855
 20
212.1302196850745
 41
476.9531743457944
 11
0.0
 21
0.0
 31
1.0
 12
0.0
 22
0.0
 32
0.0
 42
50.0
 43
0.0
 44
0.0
 50
0.0
 71
     0
281
     0
 72
     0
  0
VIEW
  5
185D5
330
11
100
AcDbSymbolTableRecord
100
AcDbViewTableRecord
  2
AM_VIEW1
 70
     0
 40
105.0
 10
87.68688373421856
 20
221.1302196850744
 41
161.6945876288659
 11
0.0
 21
0.0
 31
1.0
 12
0.0
 22
0.0
 32
0.0
 42
50.0
 43
0.0
 44
0.0
 50
0.0
 71
    16
281
     0
 72
     0
  0
VIEW
  5
185D6
330
11
100
AcDbSymbolTableRecord
100
AcDbViewTableRecord
  2
AM_VIEW2
 70
     0
 40
105.0
 10
222.9922961053525
 20
221.1302196850744
 41
161.6945876288659
 11
0.0
 21
0.0
 31
1.0
 12
0.0
 22
0.0
 32
0.0
 42
50.0
 43
0.0
 44
0.0
 50
0.0
 71
    16
281
     0
 72
     0
  0
VIEW
  5
185D7
330
11
100
AcDbSymbolTableRecord
100
AcDbViewTableRecord
  2
AM_VIEW3
 70
     0
 40
105.0
 10
87.68688373421856
 20
116.1302196850745
 41
161.6945876288659
 11
0.0
 21
0.0
 31
1.0
 12
0.0
 22
0.0
 32
0.0
 42
50.0
 43
0.0
 44
0.0
 50
0.0
 71
    16
281
     0
 72
     0
  0
VIEW
  5
185D8
330
11
100
AcDbSymbolTableRecord
100
AcDbViewTableRecord
  2
AM_VIEW4
 70
     0
 40
105.0
 10
222.9922961053525
 20
116.1302196850745
 41
161.6945876288659
 11
0.0
 21
0.0
 31
1.0
 12
0.0
 22
0.0
 32
0.0
 42
50.0
 43
0.0
 44
0.0
 50
0.0
 71
    16
281
     0
 72
     0
  0
VIEW
  5
185D9
330
11
100
AcDbSymbolTableRecord
100
AcDbViewTableRecord
  2
AM_VIEW5
 70
     0
 40
105.0
 10
155.3395899197855
 20
168.6302196850745
 41
161.6945876288659
 11
0.0
 21
0.0
 31
1.0
 12
0.0
 22
0.0
 32
0.0
 42
50.0
 43
0.0
 44
0.0
 50
0.0
 71
    16
281
     0
 72
     0
  0
VIEW
  5
185DA
330
11
100
AcDbSymbolTableRecord
100
AcDbViewTableRecord
  2
AM_VIEW6
 70
     0
 40
209.9979
 10
155.3395899197855
 20
168.6302196850745
 41
323.3859413659793
 11
0.0
 21
0.0
 31
1.0
 12
0.0
 22
0.0
 32
0.0
 42
50.0
 43
0.0
 44
0.0
 50
0.0
 71
    16
281
     0
 72
     0
  0
ENDTAB
  0
TABLE
  2
UCS
  5
12
330
0
100
AcDbSymbolTable
 70
     0
  0
ENDTAB
  0
TABLE
  2
APPID
  5
15
330
0
100
AcDbSymbolTable
 70
   189
  0
APPID
  5
16
330
15
100
AcDbSymbolTableRecord
100
AcDbRegAppTableRecord
  2
ACAD
 70
     0
  0
APPID
  5
4C
330
15
100
AcDbSymbolTableRecord
100
AcDbRegAppTableRecord
  2
ASM_CADM_ALBERO
 70
     0
  0
APPID
  5
444
330
15
100
AcDbSymbolTableRecord
100
AcDbRegAppTableRecord
  2
ASM_GOLE
 70
     0
  0
APPID
  5
445
330
15
100
AcDbSymbolTableRecord
100
AcDbRegAppTableRecord
  2
ASM_CADM_VER_12_00
 70
     0
  0
APPID
  5
446
330
15
100
AcDbSymbolTableRecord
100
AcDbRegAppTableRecord
  2
ASM_BASE
 70
     0
  0
APPID
  5
447
330
15
100
AcDbSymbolTableRecord
100
AcDbRegAppTableRecord
  2
ASM_EXPLO_VER_2_00
 70
     0
  0
APPID
  5
448
330
15
100
AcDbSymbolTableRecord
100
AcDbRegAppTableRecord
  2
ASM_GRUPPI
 70
     0
  0
APPID
  5
449
330
15
100
AcDbSymbolTableRecord
100
AcDbRegAppTableRecord
  2
ASM_BASEFORO
 70
     0
  0
APPID
  5
44A
330
15
100
AcDbSymbolTableRecord
100
AcDbRegAppTableRecord
  2
ASM_BASETRAVI
 70
     0
  0
APPID
  5
44B
330
15
100
AcDbSymbolTableRecord
100
AcDbRegAppTableRecord
  2
ASM_BASETRAVI1
 70
     0
  0
APPID
  5
183A
330
15
100
AcDbSymbolTableRecord
100
AcDbRegAppTableRecord
  2
GENIUS_GENCFG_13
 70
     0
1001
GENIUS_GENCFG0_13
1000
GEN@INFO_POS@XLATE
1001
GENIUS_GENCFG1_13
1000
GEN@INFO_POS
1001
GENIUS_GENCFG2_13
1000
GEN@LAYER@DEFS
1001
GENIUS_GENCFG3_13
1000
GEN@LAYER@ENTSORT
1001
GENIUS_GENCFG4_13
1000
GEN
1001
GENIUS_GEVCFG0_13
1000
GEV
1001
GENIUS_GEFCFG0_13
1000
GEF
  0
APPID
  5
183B
330
15
100
AcDbSymbolTableRecord
100
AcDbRegAppTableRecord
  2
GENIUS_GENCFG0_13
 70
     0
1001
GENIUS_GENCFG_13
1071
950252878
1000
183B
1000
GEN@INFO_POS@XLATE
1070
     7
1000
GenCfgObject
1000
GenCfgShort
1000
GenCfgReal
1000
GenCfgBool
1000
GenCfgString
1000
GenCfgDim
1000
GenCfgAttrInf
1000
INFOPOINTS
1070
     0
1002
{
1000
GENINF14
1070
     0
1002
{
1000
2GENINF
1070
     4
1000
2
1002
{
1002
}
1000
3GENINF
1070
     4
1000
3
1002
{
1002
}
1000
4GENINF
1070
     4
1000
4
1002
{
1002
}
1000
5GENINF
1070
     4
1000
5
1002
{
1002
}
1000
6GENINF
1070
     4
1000
6
1002
{
1002
}
1000
7GENINF
1070
     4
1000
7
1002
{
1002
}
1000
8GENINF
1070
     4
1000
8
1002
{
1002
}
1000
9GENINF
1070
     4
1000
9
1002
{
1002
}
1000
10GENINF
1070
     4
1000
10
1002
{
1002
}
1000
11GENINF
1070
     4
1000
11
1002
{
1002
}
1000
12GENINF
1070
     4
1000
12
1002
{
1002
}
1000
13GENINF
1070
     4
1000
13
1002
{
1002
}
1000
14GENINF
1070
     4
1000
14
1002
{
1002
}
1000
15GENINF
1070
     4
1000
15
1002
{
1002
}
1000
16GENINF
1070
     4
1000
16
1002
{
1002
}
1000
17GENINF
1070
     4
1000
17
1002
{
1002
}
1000
18GENINF
1070
     4
1000
18
1002
{
1002
}
1000
19GENINF
1070
     4
1000
19
1002
{
1002
}
1000
20GENINF
1070
     4
1000
20
1002
{
1002
}
1000
21GENINF
1070
     4
1000
21
1002
{
1002
}
1000
22GENINF
1070
     4
1000
22
1002
{
1002
}
1000
23GENINF
1070
     4
1000
23
1002
{
1002
}
1000
24GENINF
1070
     4
1000
24
1002
{
1002
}
1000
25GENINF
1070
     4
1000
25
1002
{
1002
}
1000
26GENINF
1070
     4
1000
26
1002
{
1002
}
1000
27GENINF
1070
     4
1000
27
1002
{
1002
}
1000
0GENINF
1070
     4
1000
0
1002
{
1002
}
1002
}
1000
GENINF13
1070
     0
1002
{
1000
2GENINF
1070
     4
1000
2
1002
{
1002
}
1000
3GENINF
1070
     4
1000
3
1002
{
1002
}
1000
4GENINF
1070
     4
1000
4
1002
{
1002
}
1000
5GENINF
1070
     4
1000
5
1002
{
1002
}
1000
6GENINF
1070
     4
1000
6
1002
{
1002
}
1000
7GENINF
1070
     4
1000
7
1002
{
1002
}
1000
8GENINF
1070
     4
1000
8
1002
{
1002
}
1000
9GENINF
1070
     4
1000
9
1002
{
1002
}
1000
10GENINF
1070
     4
1000
10
1002
{
1002
}
1000
11GENINF
1070
     4
1000
11
1002
{
1002
}
1000
12GENINF
1070
     4
1000
12
1002
{
1002
}
1000
13GENINF
1070
     4
1000
13
1002
{
1002
}
1000
14GENINF
1070
     4
1000
14
1002
{
1002
}
1000
15GENINF
1070
     4
1000
15
1002
{
1002
}
1000
16GENINF
1070
     4
1000
16
1002
{
1002
}
1000
17GENINF
1070
     4
1000
17
1002
{
1002
}
1000
18GENINF
1070
     4
1000
18
1002
{
1002
}
1000
19GENINF
1070
     4
1000
19
1002
{
1002
}
1000
20GENINF
1070
     4
1000
20
1002
{
1002
}
1000
21GENINF
1070
     4
1000
21
1002
{
1002
}
1000
22GENINF
1070
     4
1000
22
1002
{
1002
}
1000
23GENINF
1070
     4
1000
23
1002
{
1002
}
1000
24GENINF
1070
     4
1000
24
1002
{
1002
}
1000
0GENINF
1070
     4
1000
0
1002
{
1002
}
1002
}
1000
GENINFO
1070
     0
1002
{
1000
3GENINF
1070
     4
1000
3
1002
{
1002
}
1000
4GENINF
1070
     4
1000
4
1002
{
1002
}
1000
5GENINF
1070
     4
1000
5
1002
{
1002
}
1000
6GENINF
1070
     4
1000
6
1002
{
1002
}
1000
7GENINF
1070
     4
1000
7
1002
{
1002
}
1000
8GENINF
1070
     4
1000
8
1002
{
1002
}
1000
9GENINF
1070
     4
1000
9
1002
{
1002
}
1000
10GENINF
1070
     4
1000
10
1002
{
1002
}
1000
11GENINF
1070
     4
1000
11
1002
{
1002
}
1000
12GENINF
1070
     4
1000
12
1002
{
1002
}
1000
13GENINF
1070
     4
1000
13
1002
{
1002
}
1000
14GENINF
1070
     4
1000
14
1002
{
1002
}
1000
15GENINF
1070
     4
1000
15
1002
{
1002
}
1000
16GENINF
1070
     4
1000
16
1002
{
1002
}
1000
17GENINF
1070
     4
1000
17
1002
{
1002
}
1000
18GENINF
1070
     4
1000
18
1002
{
1002
}
1000
19GENINF
1070
     4
1000
19
1002
{
1002
}
1000
20GENINF
1070
     4
1000
20
1002
{
1002
}
1000
21GENINF
1070
     4
1000
21
1002
{
1002
}
1000
22GENINF
1070
     4
1000
22
1002
{
1002
}
1002
}
1000
DININFO
1070
     0
1002
{
1000
ST-NAME1
1070
     4
1000
5
1002
{
1002
}
1000
ST-NAME2
1070
     4
1000
6
1002
{
1002
}
1000
ST-NORM1
1070
     4
1000
7
1002
{
1002
}
1000
ST-NORM2
1070
     4
1000
8
1002
{
1002
}
1000
ST-MAT1
1070
     4
1000
9
1002
{
1002
}
1000
ST-MAT2
1070
     4
1000
10
1002
{
1002
}
1002
}
1002
}
1000
POS_NUMBERS
1070
     0
1002
{
1000
GENPOS14
1070
     0
1002
{
1000
1GENPOS
1070
     4
1000
1
1002
{
1002
}
1000
2GENPOS
1070
     4
1000
2
1002
{
1002
}
1000
3GENPOS
1070
     4
1000
3
1002
{
1002
}
1000
4GENPOS
1070
     4
1000
4
1002
{
1002
}
1000
5GENPOS
1070
     4
1000
5
1002
{
1002
}
1000
6GENPOS
1070
     4
1000
6
1002
{
1002
}
1000
7GENPOS
1070
     4
1000
7
1002
{
1002
}
1000
8GENPOS
1070
     4
1000
8
1002
{
1002
}
1000
9GENPOS
1070
     4
1000
9
1002
{
1002
}
1000
10GENPOS
1070
     4
1000
10
1002
{
1002
}
1000
11GENPOS
1070
     4
1000
11
1002
{
1002
}
1000
12GENPOS
1070
     4
1000
12
1002
{
1002
}
1000
13GENPOS
1070
     4
1000
13
1002
{
1002
}
1000
14GENPOS
1070
     4
1000
14
1002
{
1002
}
1000
15GENPOS
1070
     4
1000
15
1002
{
1002
}
1000
16GENPOS
1070
     4
1000
16
1002
{
1002
}
1000
17GENPOS
1070
     4
1000
17
1002
{
1002
}
1000
18GENPOS
1070
     4
1000
18
1002
{
1002
}
1000
19GENPOS
1070
     4
1000
19
1002
{
1002
}
1000
20GENPOS
1070
     4
1000
20
1002
{
1002
}
1000
21GENPOS
1070
     4
1000
21
1002
{
1002
}
1000
22GENPOS
1070
     4
1000
22
1002
{
1002
}
1000
23GENPOS
1070
     4
1000
23
1002
{
1002
}
1000
24GENPOS
1070
     4
1000
24
1002
{
1002
}
1000
25GENPOS
1070
     4
1000
25
1002
{
1002
}
1000
26GENPOS
1070
     4
1000
26
1002
{
1002
}
1000
27GENPOS
1070
     4
1000
27
1002
{
1002
}
1000
0GENPOS
1070
     4
1000
0
1002
{
1002
}
1002
}
1000
GENPOS13
1070
     0
1002
{
1000
1GENPOS
1070
     4
1000
1
1002
{
1002
}
1000
2GENPOS
1070
     4
1000
2
1002
{
1002
}
1000
3GENPOS
1070
     4
1000
3
1002
{
1002
}
1000
4GENPOS
1070
     4
1000
4
1002
{
1002
}
1000
5GENPOS
1070
     4
1000
5
1002
{
1002
}
1000
6GENPOS
1070
     4
1000
6
1002
{
1002
}
1000
7GENPOS
1070
     4
1000
7
1002
{
1002
}
1000
8GENPOS
1070
     4
1000
8
1002
{
1002
}
1000
9GENPOS
1070
     4
1000
9
1002
{
1002
}
1000
10GENPOS
1070
     4
1000
10
1002
{
1002
}
1000
11GENPOS
1070
     4
1000
11
1002
{
1002
}
1000
12GENPOS
1070
     4
1000
12
1002
{
1002
}
1000
13GENPOS
1070
     4
1000
13
1002
{
1002
}
1000
14GENPOS
1070
     4
1000
14
1002
{
1002
}
1000
15GENPOS
1070
     4
1000
15
1002
{
1002
}
1000
16GENPOS
1070
     4
1000
16
1002
{
1002
}
1000
17GENPOS
1070
     4
1000
17
1002
{
1002
}
1000
18GENPOS
1070
     4
1000
18
1002
{
1002
}
1000
19GENPOS
1070
     4
1000
19
1002
{
1002
}
1000
20GENPOS
1070
     4
1000
20
1002
{
1002
}
1000
21GENPOS
1070
     4
1000
21
1002
{
1002
}
1000
22GENPOS
1070
     4
1000
22
1002
{
1002
}
1000
23GENPOS
1070
     4
1000
23
1002
{
1002
}
1000
24GENPOS
1070
     4
1000
24
1002
{
1002
}
1000
0GENPOS
1070
     4
1000
0
1002
{
1002
}
1002
}
1000
GENPOS
1070
     0
1002
{
1000
1GENPOS
1070
     4
1000
1
1002
{
1002
}
1000
2GENPOS
1070
     4
1000
2
1002
{
1002
}
1000
3GENPOS
1070
     4
1000
3
1002
{
1002
}
1000
4GENPOS
1070
     4
1000
4
1002
{
1002
}
1000
5GENPOS
1070
     4
1000
5
1002
{
1002
}
1000
6GENPOS
1070
     4
1000
6
1002
{
1002
}
1000
7GENPOS
1070
     4
1000
7
1002
{
1002
}
1000
8GENPOS
1070
     4
1000
8
1002
{
1002
}
1000
9GENPOS
1070
     4
1000
9
1002
{
1002
}
1000
10GENPOS
1070
     4
1000
10
1002
{
1002
}
1000
11GENPOS
1070
     4
1000
11
1002
{
1002
}
1000
12GENPOS
1070
     4
1000
12
1002
{
1002
}
1000
13GENPOS
1070
     4
1000
13
1002
{
1002
}
1000
14GENPOS
1070
     4
1000
14
1002
{
1002
}
1000
15GENPOS
1070
     4
1000
15
1002
{
1002
}
1000
16GENPOS
1070
     4
1000
16
1002
{
1002
}
1000
17GENPOS
1070
     4
1000
17
1002
{
1002
}
1000
18GENPOS
1070
     4
1000
18
1002
{
1002
}
1000
19GENPOS
1070
     4
1000
19
1002
{
1002
}
1000
20GENPOS
1070
     4
1000
20
1002
{
1002
}
1000
21GENPOS
1070
     4
1000
21
1002
{
1002
}
1000
22GENPOS
1070
     4
1000
22
1002
{
1002
}
1000
23GENPOS
1070
     4
1000
23
1002
{
1002
}
1002
}
1000
DIN985
1070
     0
1002
{
1000
POSITION
1070
     4
1000
1
1002
{
1002
}
1000
MENGE
1070
     4
1000
2
1002
{
1002
}
1000
BLATT
1070
     4
1000
3
1002
{
1002
}
1000
BENENN
1070
     4
1000
5
1002
{
1002
}
1000
BENENN2
1070
     4
1000
6
1002
{
1002
}
1000
NORM
1070
     4
1000
7
1002
{
1002
}
1000
NORM2
1070
     4
1000
8
1002
{
1002
}
1000
WERKSTOFF
1070
     4
1000
9
1002
{
1002
}
1000
WERKSTOFF2
1070
     4
1000
10
1002
{
1002
}
1002
}
1000
DIN986
1070
     0
1002
{
1000
POSITION
1070
     4
1000
1
1002
{
1002
}
1000
MENGE
1070
     4
1000
2
1002
{
1002
}
1000
BLATT
1070
     4
1000
3
1002
{
1002
}
1000
BENENN
1070
     4
1000
5
1002
{
1002
}
1000
BENENN2
1070
     4
1000
6
1002
{
1002
}
1000
NORM
1070
     4
1000
7
1002
{
1002
}
1000
NORM2
1070
     4
1000
8
1002
{
1002
}
1000
WERKSTOFF
1070
     4
1000
9
1002
{
1002
}
1000
WERKSTOFF2
1070
     4
1000
10
1002
{
1002
}
1002
}
1000
DIN987
1070
     0
1002
{
1000
POSITION
1070
     4
1000
1
1002
{
1002
}
1000
MENGE
1070
     4
1000
2
1002
{
1002
}
1000
BLATT
1070
     4
1000
3
1002
{
1002
}
1000
BENENN
1070
     4
1000
5
1002
{
1002
}
1000
BENENN2
1070
     4
1000
6
1002
{
1002
}
1000
NORM
1070
     4
1000
7
1002
{
1002
}
1000
NORM2
1070
     4
1000
8
1002
{
1002
}
1000
WERKSTOFF
1070
     4
1000
9
1002
{
1002
}
1000
WERKSTOFF2
1070
     4
1000
10
1002
{
1002
}
1002
}
1002
}
  0
APPID
  5
183C
330
15
100
AcDbSymbolTableRecord
100
AcDbRegAppTableRecord
  2
GENIUS_GENCFG1_13
 70
     0
1001
GENIUS_GENCFG_13
1071
950252878
1000
183C
1000
GEN@INFO_POS
1070
     7
1000
GenCfgObject
1000
GenCfgShort
1000
GenCfgReal
1000
GenCfgBool
1000
GenCfgString
1000
GenCfgDim
1000
GenCfgAttrInf
1000
DescrText
1070
     4
1000
5, ,6, ,7, ,8
1002
{
1002
}
1000
DescrText2
1070
     4
1000
26
1002
{
1002
}
1000
VisibleAttr1
1070
     4
1000
1
1002
{
1002
}
1000
VisibleAttr2
1070
     4
1000
26
1002
{
1002
}
1000
UpdateBlock
1070
     3
1070
     1
1002
{
1002
}
1000
Attrib
1070
     0
1002
{
1000
0
1070
     6
1002
{
1000
Prompt
1070
     4
1000
(genmsg gendwg 103)
1002
{
1002
}
1000
Value
1070
     4
1000

1002
{
1002
}
1000
EditFlag
1070
     1
1070
     0
1002
{
1002
}
1000
PosInDDATTE
1070
     1
1070
    27
1002
{
1002
}
1000
FieldLen
1070
     1
1070
    -1
1002
{
1002
}
1002
}
1000
1
1070
     6
1002
{
1000
Prompt
1070
     4
1000
(genmsg gendwg 31)
1002
{
1002
}
1000
Value
1070
     4
1000
1
1002
{
1002
}
1000
EditFlag
1070
     1
1070
     1
1002
{
1002
}
1000
PosInDDATTE
1070
     1
1070
     1
1002
{
1002
}
1000
FieldLen
1070
     1
1070
    -1
1002
{
1002
}
1002
}
1000
2
1070
     6
1002
{
1000
Prompt
1070
     4
1000
(genmsg gendwg 32)
1002
{
1002
}
1000
Value
1070
     4
1000
1
1002
{
1002
}
1000
EditFlag
1070
     1
1070
     1
1002
{
1002
}
1000
PosInDDATTE
1070
     1
1070
     2
1002
{
1002
}
1000
FieldLen
1070
     1
1070
    -1
1002
{
1002
}
1002
}
1000
3
1070
     6
1002
{
1000
Prompt
1070
     4
1000
(genmsg gendwg 33)
1002
{
1002
}
1000
Value
1070
     4
1000

1002
{
1002
}
1000
EditFlag
1070
     1
1070
     1
1002
{
1002
}
1000
PosInDDATTE
1070
     1
1070
     3
1002
{
1002
}
1000
FieldLen
1070
     1
1070
    -1
1002
{
1002
}
1002
}
1000
4
1070
     6
1002
{
1000
Prompt
1070
     4
1000
(genmsg gendwg 34)
1002
{
1002
}
1000
Value
1070
     4
1000

1002
{
1002
}
1000
EditFlag
1070
     1
1070
     1
1002
{
1002
}
1000
PosInDDATTE
1070
     1
1070
     4
1002
{
1002
}
1000
FieldLen
1070
     1
1070
    -1
1002
{
1002
}
1002
}
1000
5
1070
     6
1002
{
1000
Prompt
1070
     4
1000
(genmsg gendwg 35)
1002
{
1002
}
1000
Value
1070
     4
1000

1002
{
1002
}
1000
EditFlag
1070
     1
1070
     1
1002
{
1002
}
1000
PosInDDATTE
1070
     1
1070
     5
1002
{
1002
}
1000
FieldLen
1070
     1
1070
    -1
1002
{
1002
}
1002
}
1000
6
1070
     6
1002
{
1000
Prompt
1070
     4
1000
(genmsg gendwg 36)
1002
{
1002
}
1000
Value
1070
     4
1000

1002
{
1002
}
1000
EditFlag
1070
     1
1070
     1
1002
{
1002
}
1000
PosInDDATTE
1070
     1
1070
     6
1002
{
1002
}
1000
FieldLen
1070
     1
1070
    -1
1002
{
1002
}
1002
}
1000
7
1070
     6
1002
{
1000
Prompt
1070
     4
1000
(genmsg gendwg 37)
1002
{
1002
}
1000
Value
1070
     4
1000

1002
{
1002
}
1000
EditFlag
1070
     1
1070
     1
1002
{
1002
}
1000
PosInDDATTE
1070
     1
1070
     7
1002
{
1002
}
1000
FieldLen
1070
     1
1070
    -1
1002
{
1002
}
1002
}
1000
8
1070
     6
1002
{
1000
Prompt
1070
     4
1000
(genmsg gendwg 38)
1002
{
1002
}
1000
Value
1070
     4
1000

1002
{
1002
}
1000
EditFlag
1070
     1
1070
     1
1002
{
1002
}
1000
PosInDDATTE
1070
     1
1070
     8
1002
{
1002
}
1000
FieldLen
1070
     1
1070
    -1
1002
{
1002
}
1002
}
1000
9
1070
     6
1002
{
1000
Prompt
1070
     4
1000
(genmsg gendwg 39)
1002
{
1002
}
1000
Value
1070
     4
1000

1002
{
1002
}
1000
EditFlag
1070
     1
1070
     1
1002
{
1002
}
1000
PosInDDATTE
1070
     1
1070
     9
1002
{
1002
}
1000
FieldLen
1070
     1
1070
    -1
1002
{
1002
}
1002
}
1000
10
1070
     6
1002
{
1000
Prompt
1070
     4
1000
(genmsg gendwg 40)
1002
{
1002
}
1000
Value
1070
     4
1000

1002
{
1002
}
1000
EditFlag
1070
     1
1070
     1
1002
{
1002
}
1000
PosInDDATTE
1070
     1
1070
    10
1002
{
1002
}
1000
FieldLen
1070
     1
1070
    -1
1002
{
1002
}
1002
}
1000
11
1070
     6
1002
{
1000
Prompt
1070
     4
1000
(genmsg gendwg 41)
1002
{
1002
}
1000
Value
1070
     4
1000

1002
{
1002
}
1000
EditFlag
1070
     1
1070
     1
1002
{
1002
}
1000
PosInDDATTE
1070
     1
1070
    11
1002
{
1002
}
1000
FieldLen
1070
     1
1070
    -1
1002
{
1002
}
1002
}
1000
12
1070
     6
1002
{
1000
Prompt
1070
     4
1000
(genmsg gendwg 42)
1002
{
1002
}
1000
Value
1070
     4
1000

1002
{
1002
}
1000
EditFlag
1070
     1
1070
     1
1002
{
1002
}
1000
PosInDDATTE
1070
     1
1070
    12
1002
{
1002
}
1000
FieldLen
1070
     1
1070
    -1
1002
{
1002
}
1002
}
1000
13
1070
     6
1002
{
1000
Prompt
1070
     4
1000
(genmsg gendwg 43)
1002
{
1002
}
1000
Value
1070
     4
1000

1002
{
1002
}
1000
EditFlag
1070
     1
1070
     1
1002
{
1002
}
1000
PosInDDATTE
1070
     1
1070
    13
1002
{
1002
}
1000
FieldLen
1070
     1
1070
    -1
1002
{
1002
}
1002
}
1000
14
1070
     6
1002
{
1000
Prompt
1070
     4
1000
(genmsg gendwg 44)
1002
{
1002
}
1000
Value
1070
     4
1000

1002
{
1002
}
1000
EditFlag
1070
     1
1070
     1
1002
{
1002
}
1000
PosInDDATTE
1070
     1
1070
    14
1002
{
1002
}
1000
FieldLen
1070
     1
1070
    -1
1002
{
1002
}
1002
}
1000
15
1070
     6
1002
{
1000
Prompt
1070
     4
1000
(genmsg gendwg 45)
1002
{
1002
}
1000
Value
1070
     4
1000

1002
{
1002
}
1000
EditFlag
1070
     1
1070
     1
1002
{
1002
}
1000
PosInDDATTE
1070
     1
1070
    15
1002
{
1002
}
1000
FieldLen
1070
     1
1070
    -1
1002
{
1002
}
1002
}
1000
16
1070
     6
1002
{
1000
Prompt
1070
     4
1000
(genmsg gendwg 46)
1002
{
1002
}
1000
Value
1070
     4
1000

1002
{
1002
}
1000
EditFlag
1070
     1
1070
     1
1002
{
1002
}
1000
PosInDDATTE
1070
     1
1070
    16
1002
{
1002
}
1000
FieldLen
1070
     1
1070
    -1
1002
{
1002
}
1002
}
1000
17
1070
     6
1002
{
1000
Prompt
1070
     4
1000
(genmsg gendwg 47)
1002
{
1002
}
1000
Value
1070
     4
1000

1002
{
1002
}
1000
EditFlag
1070
     1
1070
     1
1002
{
1002
}
1000
PosInDDATTE
1070
     1
1070
    17
1002
{
1002
}
1000
FieldLen
1070
     1
1070
    -1
1002
{
1002
}
1002
}
1000
18
1070
     6
1002
{
1000
Prompt
1070
     4
1000
(genmsg gendwg 48)
1002
{
1002
}
1000
Value
1070
     4
1000

1002
{
1002
}
1000
EditFlag
1070
     1
1070
     1
1002
{
1002
}
1000
PosInDDATTE
1070
     1
1070
    18
1002
{
1002
}
1000
FieldLen
1070
     1
1070
    -1
1002
{
1002
}
1002
}
1000
19
1070
     6
1002
{
1000
Prompt
1070
     4
1000
(genmsg gendwg 99)
1002
{
1002
}
1000
Value
1070
     4
1000

1002
{
1002
}
1000
EditFlag
1070
     1
1070
     1
1002
{
1002
}
1000
PosInDDATTE
1070
     1
1070
    19
1002
{
1002
}
1000
FieldLen
1070
     1
1070
    -1
1002
{
1002
}
1002
}
1000
20
1070
     6
1002
{
1000
Prompt
1070
     4
1000
(genmsg gendwg 100)
1002
{
1002
}
1000
Value
1070
     4
1000

1002
{
1002
}
1000
EditFlag
1070
     1
1070
     1
1002
{
1002
}
1000
PosInDDATTE
1070
     1
1070
    20
1002
{
1002
}
1000
FieldLen
1070
     1
1070
    -1
1002
{
1002
}
1002
}
1000
21
1070
     6
1002
{
1000
Prompt
1070
     4
1000
(genmsg gendwg 101)
1002
{
1002
}
1000
Value
1070
     4
1000

1002
{
1002
}
1000
EditFlag
1070
     1
1070
     1
1002
{
1002
}
1000
PosInDDATTE
1070
     1
1070
    21
1002
{
1002
}
1000
FieldLen
1070
     1
1070
    -1
1002
{
1002
}
1002
}
1000
22
1070
     6
1002
{
1000
Prompt
1070
     4
1000
(genmsg gendwg 102)
1002
{
1002
}
1000
Value
1070
     4
1000

1002
{
1002
}
1000
EditFlag
1070
     1
1070
     1
1002
{
1002
}
1000
PosInDDATTE
1070
     1
1070
    22
1002
{
1002
}
1000
FieldLen
1070
     1
1070
    -1
1002
{
1002
}
1002
}
1000
23
1070
     6
1002
{
1000
Prompt
1070
     4
1000
(genmsg gendwg 30)
1002
{
1002
}
1000
Value
1070
     4
1000

1002
{
1002
}
1000
EditFlag
1070
     1
1070
     1
1002
{
1002
}
1000
PosInDDATTE
1070
     1
1070
    23
1002
{
1002
}
1000
FieldLen
1070
     1
1070
    -1
1002
{
1002
}
1002
}
1000
24
1070
     6
1002
{
1000
Prompt
1070
     4
1000
(genmsg gendwg 104)
1002
{
1002
}
1000
Value
1070
     4
1000

1002
{
1002
}
1000
EditFlag
1070
     1
1070
     1
1002
{
1002
}
1000
PosInDDATTE
1070
     1
1070
    24
1002
{
1002
}
1000
FieldLen
1070
     1
1070
    -1
1002
{
1002
}
1002
}
1000
25
1070
     6
1002
{
1000
Prompt
1070
     4
1000
(genmsg gendwg 105)
1002
{
1002
}
1000
Value
1070
     4
1000

1002
{
1002
}
1000
EditFlag
1070
     1
1070
     1
1002
{
1002
}
1000
PosInDDATTE
1070
     1
1070
    25
1002
{
1002
}
1000
FieldLen
1070
     1
1070
    -1
1002
{
1002
}
1002
}
1000
26
1070
     6
1002
{
1000
Prompt
1070
     4
1000
(genmsg gendwg 106)
1002
{
1002
}
1000
Value
1070
     4
1000

1002
{
1002
}
1000
EditFlag
1070
     1
1070
     1
1002
{
1002
}
1000
PosInDDATTE
1070
     1
1070
    26
1002
{
1002
}
1000
FieldLen
1070
     1
1070
    -1
1002
{
1002
}
1002
}
1000
27
1070
     6
1002
{
1000
Prompt
1070
     4
1000
(genmsg gendwg 109)
1002
{
1002
}
1000
Value
1070
     4
1000

1002
{
1002
}
1000
EditFlag
1070
     1
1070
     2
1002
{
1002
}
1000
PosInDDATTE
1070
     1
1070
    27
1002
{
1002
}
1000
FieldLen
1070
     1
1070
    -1
1002
{
1002
}
1002
}
1002
}
1000
Xlate
1070
     0
1002
{
1000
>
1002
}
  0
APPID
  5
183D
330
15
100
AcDbSymbolTableRecord
100
AcDbRegAppTableRecord
  2
GENIUS_GENCFG2_13
 70
     0
1001
GENIUS_GENCFG_13
1071
950252878
1000
183D
1000
GEN@LAYER@DEFS
1070
     9
1000
GenCfgObject
1000
GenCfgShort
1000
GenCfgReal
1000
GenCfgBool
1000
GenCfgString
1000
GenCfgDim
1000
GenCfgAttrInf
1000
GenCfgLaySection
1000
GenCfgLayer
1000
Basic
1070
     0
1002
{
1000
0
1070
     8
1000
0
1002
{
1000
Color
1070
     1
1070
     7
1002
{
1002
}
1000
LType
1070
     4
1000
CONTINUOUS
1002
{
1002
}
1000
Base
1070
     3
1070
     0
1002
{
1002
}
1002
}
1000
1
1070
     8
1000
1
1002
{
1000
Color
1070
     1
1070
    14
1002
{
1002
}
1000
LType
1070
     4
1000
CONTINUOUS
1002
{
1002
}
1000
Base
1070
     3
1070
     0
1002
{
1002
}
1002
}
1000
2
1070
     8
1000
2
1002
{
1000
Color
1070
     1
1070
     5
1002
{
1002
}
1000
LType
1070
     4
1000
CONTINUOUS
1002
{
1002
}
1000
Base
1070
     3
1070
     0
1002
{
1002
}
1002
}
1000
3
1070
     8
1000
3
1002
{
1000
Color
1070
     1
1070
     6
1002
{
1002
}
1000
LType
1070
     4
1000
GEN3
1002
{
1002
}
1000
Base
1070
     3
1070
     0
1002
{
1002
}
1002
}
1000
4
1070
     8
1000
4
1002
{
1000
Color
1070
     1
1070
     3
1002
{
1002
}
1000
LType
1070
     4
1000
CONTINUOUS
1002
{
1002
}
1000
Base
1070
     3
1070
     0
1002
{
1002
}
1002
}
1000
5
1070
     8
1000
5
1002
{
1000
Color
1070
     1
1070
     3
1002
{
1002
}
1000
LType
1070
     4
1000
CONTINUOUS
1002
{
1002
}
1000
Base
1070
     3
1070
     0
1002
{
1002
}
1002
}
1000
6
1070
     8
1000
6
1002
{
1000
Color
1070
     1
1070
     2
1002
{
1002
}
1000
LType
1070
     4
1000
CONTINUOUS
1002
{
1002
}
1000
Base
1070
     3
1070
     0
1002
{
1002
}
1002
}
1000
7
1070
     8
1000
7
1002
{
1000
Color
1070
     1
1070
     4
1002
{
1002
}
1000
LType
1070
     4
1000
GEN7
1002
{
1002
}
1000
Base
1070
     3
1070
     0
1002
{
1002
}
1002
}
1000
8
1070
     8
1000
8
1002
{
1000
Color
1070
     1
1070
     1
1002
{
1002
}
1000
LType
1070
     4
1000
CONTINUOUS
1002
{
1002
}
1000
Base
1070
     3
1070
     0
1002
{
1002
}
1002
}
1000
3A
1070
     8
1000
3A
1002
{
1000
Color
1070
     1
1070
     6
1002
{
1002
}
1000
LType
1070
     4
1000
GEN3A
1002
{
1002
}
1000
Base
1070
     3
1070
     0
1002
{
1002
}
1002
}
1000
7A
1070
     8
1000
7A
1002
{
1000
Color
1070
     1
1070
     4
1002
{
1002
}
1000
LType
1070
     4
1000
GEN7A
1002
{
1002
}
1000
Base
1070
     3
1070
     0
1002
{
1002
}
1002
}
1000
2A
1070
     8
1000
2A
1002
{
1000
Color
1070
     1
1070
     7
1002
{
1002
}
1000
LType
1070
     4
1000
GEN7
1002
{
1002
}
1000
Base
1070
     3
1070
     0
1002
{
1002
}
1002
}
1000
4A
1070
     8
1000
4A
1002
{
1000
Color
1070
     1
1070
     3
1002
{
1002
}
1000
LType
1070
     4
1000
GEN4A
1002
{
1002
}
1000
Base
1070
     3
1070
     0
1002
{
1002
}
1002
}
1000
9
1070
     8
1000
9
1002
{
1000
Color
1070
     1
1070
   253
1002
{
1002
}
1000
LType
1070
     4
1000
CONTINUOUS
1002
{
1002
}
1000
Base
1070
     3
1070
     0
1002
{
1002
}
1002
}
1000
IP
1070
     8
1000
IP
1002
{
1000
Color
1070
     1
1070
     7
1002
{
1002
}
1000
LType
1070
     4
1000
CONTINUOUS
1002
{
1002
}
1000
Base
1070
     3
1070
     0
1002
{
1002
}
1002
}
1002
}
1000
Standard
1070
     0
1002
{
1000
0N
1070
     8
1000
0N
1002
{
1000
Color
1070
     1
1070
     7
1002
{
1002
}
1000
LType
1070
     4
1000
CONTINUOUS
1002
{
1002
}
1000
Base
1070
     3
1070
     0
1002
{
1002
}
1002
}
1000
1N
1070
     8
1000
1N
1002
{
1000
Color
1070
     1
1070
    14
1002
{
1002
}
1000
LType
1070
     4
1000
CONTINUOUS
1002
{
1002
}
1000
Base
1070
     3
1070
     0
1002
{
1002
}
1002
}
1000
2N
1070
     8
1000
2N
1002
{
1000
Color
1070
     1
1070
     5
1002
{
1002
}
1000
LType
1070
     4
1000
CONTINUOUS
1002
{
1002
}
1000
Base
1070
     3
1070
     0
1002
{
1002
}
1002
}
1000
3N
1070
     8
1000
3N
1002
{
1000
Color
1070
     1
1070
     6
1002
{
1002
}
1000
LType
1070
     4
1000
GEN3
1002
{
1002
}
1000
Base
1070
     3
1070
     0
1002
{
1002
}
1002
}
1000
4N
1070
     8
1000
4N
1002
{
1000
Color
1070
     1
1070
     3
1002
{
1002
}
1000
LType
1070
     4
1000
CONTINUOUS
1002
{
1002
}
1000
Base
1070
     3
1070
     0
1002
{
1002
}
1002
}
1000
5N
1070
     8
1000
5N
1002
{
1000
Color
1070
     1
1070
     3
1002
{
1002
}
1000
LType
1070
     4
1000
CONTINUOUS
1002
{
1002
}
1000
Base
1070
     3
1070
     0
1002
{
1002
}
1002
}
1000
6N
1070
     8
1000
6N
1002
{
1000
Color
1070
     1
1070
     2
1002
{
1002
}
1000
LType
1070
     4
1000
CONTINUOUS
1002
{
1002
}
1000
Base
1070
     3
1070
     0
1002
{
1002
}
1002
}
1000
7N
1070
     8
1000
7N
1002
{
1000
Color
1070
     1
1070
     4
1002
{
1002
}
1000
LType
1070
     4
1000
GEN7
1002
{
1002
}
1000
Base
1070
     3
1070
     0
1002
{
1002
}
1002
}
1000
8N
1070
     8
1000
8N
1002
{
1000
Color
1070
     1
1070
     1
1002
{
1002
}
1000
LType
1070
     4
1000
CONTINUOUS
1002
{
1002
}
1000
Base
1070
     3
1070
     0
1002
{
1002
}
1002
}
1000
3AN
1070
     8
1000
3AN
1002
{
1000
Color
1070
     1
1070
     6
1002
{
1002
}
1000
LType
1070
     4
1000
GEN3A
1002
{
1002
}
1000
Base
1070
     3
1070
     0
1002
{
1002
}
1002
}
1000
7AN
1070
     8
1000
7AN
1002
{
1000
Color
1070
     1
1070
     4
1002
{
1002
}
1000
LType
1070
     4
1000
GEN7A
1002
{
1002
}
1000
Base
1070
     3
1070
     0
1002
{
1002
}
1002
}
1000
2AN
1070
     8
1000
2AN
1002
{
1000
Color
1070
     1
1070
     7
1002
{
1002
}
1000
LType
1070
     4
1000
GEN7
1002
{
1002
}
1000
Base
1070
     3
1070
     0
1002
{
1002
}
1002
}
1000
4AN
1070
     8
1000
4AN
1002
{
1000
Color
1070
     1
1070
     3
1002
{
1002
}
1000
LType
1070
     4
1000
GEN4A
1002
{
1002
}
1000
Base
1070
     3
1070
     0
1002
{
1002
}
1002
}
1000
9N
1070
     8
1000
9N
1002
{
1000
Color
1070
     1
1070
   253
1002
{
1002
}
1000
LType
1070
     4
1000
CONTINUOUS
1002
{
1002
}
1000
Base
1070
     3
1070
     0
1002
{
1002
}
1002
}
1000
IPN
1070
     8
1000
IPN
1002
{
1000
Color
1070
     1
1070
     7
1002
{
1002
}
1000
LType
1070
     4
1000
CONTINUOUS
1002
{
1002
}
1000
Base
1070
     3
1070
     0
1002
{
1002
}
1002
}
1002
}
1000
Extra
1070
     0
1002
{
1000
Klin
1070
     8
1000
KLIN
1002
{
1000
Color
1070
     1
1070
     1
1002
{
1002
}
1000
LType
1070
     4
1000
CONTINUOUS
1002
{
1002
}
1000
Base
1070
     3
1070
     1
1002
{
1002
}
1002
}
1000
Info
1070
     8
1000
INFO
1002
{
1000
Color
1070
     1
1070
     4
1002
{
1002
}
1000
LType
1070
     4
1000
CONTINUOUS
1002
{
1002
}
1000
Base
1070
     3
1070
     1
1002
{
1002
}
1002
}
1000
Rahm2
1070
     8
1000
RAHM2
1002
{
1000
Color
1070
     1
1070
     1
1002
{
1002
}
1000
LType
1070
     4
1000
CONTINUOUS
1002
{
1002
}
1000
Base
1070
     3
1070
     1
1002
{
1002
}
1002
}
1000
Rahm3
1070
     8
1000
RAHM3
1002
{
1000
Color
1070
     1
1070
     2
1002
{
1002
}
1000
LType
1070
     4
1000
CONTINUOUS
1002
{
1002
}
1000
Base
1070
     3
1070
     1
1002
{
1002
}
1002
}
1000
Rahm5
1070
     8
1000
RAHM5
1002
{
1000
Color
1070
     1
1070
     7
1002
{
1002
}
1000
LType
1070
     4
1000
CONTINUOUS
1002
{
1002
}
1000
Base
1070
     3
1070
     1
1002
{
1002
}
1002
}
1000
View
1070
     8
1000
VIEW
1002
{
1000
Color
1070
     1
1070
     1
1002
{
1002
}
1000
LType
1070
     4
1000
CONTINUOUS
1002
{
1002
}
1000
Base
1070
     3
1070
     1
1002
{
1002
}
1002
}
1000
Behind
1070
     8
1000
BEHIND
1002
{
1000
Color
1070
     1
1070
   253
1002
{
1002
}
1000
LType
1070
     4
1000
CONTINUOUS
1002
{
1002
}
1000
Base
1070
     3
1070
     1
1002
{
1002
}
1002
}
1002
}
  0
APPID
  5
183E
330
15
100
AcDbSymbolTableRecord
100
AcDbRegAppTableRecord
  2
GENIUS_GENCFG3_13
 70
     0
1001
GENIUS_GENCFG_13
1071
950252878
1000
183E
1000
GEN@LAYER@ENTSORT
1070
    10
1000
GenCfgObject
1000
GenCfgShort
1000
GenCfgReal
1000
GenCfgBool
1000
GenCfgString
1000
GenCfgDim
1000
GenCfgAttrInf
1000
GenCfgLaySection
1000
GenCfgLayer
1000
GenCfgEntSort
1000
ADDL
1070
     9
1000
5
1002
{
1000
Class
1070
     4
1000
SYM
1002
{
1002
}
1000
Color
1070
     1
1070
     1
1002
{
1002
}
1000
LType
1070
     4
1000
BYLAYER
1002
{
1002
}
1002
}
1000
ALTR
1070
     9
1000
4
1002
{
1000
Class
1070
     4
1000

1002
{
1002
}
1000
Color
1070
     1
1070
     7
1002
{
1002
}
1000
LType
1070
     4
1000
GEN3A
1002
{
1002
}
1002
}
1000
BELI
1070
     9
1000
4
1002
{
1000
Class
1070
     4
1000

1002
{
1002
}
1000
Color
1070
     1
1070
   256
1002
{
1002
}
1000
LType
1070
     4
1000
BYLAYER
1002
{
1002
}
1002
}
1000
BHNV
1070
     9
1000
9
1002
{
1000
Class
1070
     4
1000
INV
1002
{
1002
}
1000
Color
1070
     1
1070
   256
1002
{
1002
}
1000
LType
1070
     4
1000
BYLAYER
1002
{
1002
}
1002
}
1000
BHNVS
1070
     9
1000
BEHIND
1002
{
1000
Class
1070
     4
1000
INV
1002
{
1002
}
1000
Color
1070
     1
1070
   256
1002
{
1002
}
1000
LType
1070
     4
1000
BYLAYER
1002
{
1002
}
1002
}
1000
BLID
1070
     9
1000
4A
1002
{
1000
Class
1070
     4
1000

1002
{
1002
}
1000
Color
1070
     1
1070
   256
1002
{
1002
}
1000
LType
1070
     4
1000
BYLAYER
1002
{
1002
}
1002
}
1000
BOAP
1070
     9
1000
4A
1002
{
1000
Class
1070
     4
1000

1002
{
1002
}
1000
Color
1070
     1
1070
   256
1002
{
1002
}
1000
LType
1070
     4
1000
BYLAYER
1002
{
1002
}
1002
}
1000
BOR2
1070
     9
1000
RAHM2
1002
{
1000
Class
1070
     4
1000
SPZ,SYM
1002
{
1002
}
1000
Color
1070
     1
1070
   256
1002
{
1002
}
1000
LType
1070
     4
1000
BYLAYER
1002
{
1002
}
1002
}
1000
BOR3
1070
     9
1000
RAHM3
1002
{
1000
Class
1070
     4
1000
SPZ,SYM
1002
{
1002
}
1000
Color
1070
     1
1070
   256
1002
{
1002
}
1000
LType
1070
     4
1000
BYLAYER
1002
{
1002
}
1002
}
1000
BOR5
1070
     9
1000
RAHM5
1002
{
1000
Class
1070
     4
1000
SPZ,SYM
1002
{
1002
}
1000
Color
1070
     1
1070
   256
1002
{
1002
}
1000
LType
1070
     4
1000
BYLAYER
1002
{
1002
}
1002
}
1000
BOR7
1070
     9
1000
RAHM5
1002
{
1000
Class
1070
     4
1000
SPZ,SYM
1002
{
1002
}
1000
Color
1070
     1
1070
     7
1002
{
1002
}
1000
LType
1070
     4
1000
CONTINUOUS
1002
{
1002
}
1002
}
1000
BPAP
1070
     9
1000
4A
1002
{
1000
Class
1070
     4
1000

1002
{
1002
}
1000
Color
1070
     1
1070
   256
1002
{
1002
}
1000
LType
1070
     4
1000
BYLAYER
1002
{
1002
}
1002
}
1000
BPEX
1070
     9
1000
4A
1002
{
1000
Class
1070
     4
1000

1002
{
1002
}
1000
Color
1070
     1
1070
   256
1002
{
1002
}
1000
LType
1070
     4
1000
BYLAYER
1002
{
1002
}
1002
}
1000
BTDI
1070
     9
1000
5
1002
{
1000
Class
1070
     4
1000
DIM,SYM
1002
{
1002
}
1000
Color
1070
     1
1070
   256
1002
{
1002
}
1000
LType
1070
     4
1000
BYLAYER
1002
{
1002
}
1002
}
1000
CAL2
1070
     9
1000
4
1002
{
1000
Class
1070
     4
1000
SYM
1002
{
1002
}
1000
Color
1070
     1
1070
   256
1002
{
1002
}
1000
LType
1070
     4
1000
BYLAYER
1002
{
1002
}
1002
}
1000
CAL3
1070
     9
1000
4
1002
{
1000
Class
1070
     4
1000
SYM
1002
{
1002
}
1000
Color
1070
     1
1070
     2
1002
{
1002
}
1000
LType
1070
     4
1000
BYLAYER
1002
{
1002
}
1002
}
1000
CAL5
1070
     9
1000
4
1002
{
1000
Class
1070
     4
1000
SYM
1002
{
1002
}
1000
Color
1070
     1
1070
     7
1002
{
1002
}
1000
LType
1070
     4
1000
BYLAYER
1002
{
1002
}
1002
}
1000
CAL7
1070
     9
1000
4
1002
{
1000
Class
1070
     4
1000
SYM
1002
{
1002
}
1000
Color
1070
     1
1070
     5
1002
{
1002
}
1000
LType
1070
     4
1000
BYLAYER
1002
{
1002
}
1002
}
1000
CENN
1070
     9
1000
7A
1002
{
1000
Class
1070
     4
1000
CEN
1002
{
1002
}
1000
Color
1070
     1
1070
   256
1002
{
1002
}
1000
LType
1070
     4
1000
BYLAYER
1002
{
1002
}
1002
}
1000
CENW
1070
     9
1000
7
1002
{
1000
Class
1070
     4
1000
CEN
1002
{
1002
}
1000
Color
1070
     1
1070
   256
1002
{
1002
}
1000
LType
1070
     4
1000
BYLAYER
1002
{
1002
}
1002
}
1000
CLIN
1070
     9
1000
KLIN
1002
{
1000
Class
1070
     4
1000
SPZ
1002
{
1002
}
1000
Color
1070
     1
1070
   256
1002
{
1002
}
1000
LType
1070
     4
1000
BYLAYER
1002
{
1002
}
1002
}
1000
CON1
1070
     9
1000
0
1002
{
1000
Class
1070
     4
1000
CON,BGD
1002
{
1002
}
1000
Color
1070
     1
1070
   256
1002
{
1002
}
1000
LType
1070
     4
1000
BYLAYER
1002
{
1002
}
1002
}
1000
CON2
1070
     9
1000
1
1002
{
1000
Class
1070
     4
1000
CON,BGD
1002
{
1002
}
1000
Color
1070
     1
1070
   256
1002
{
1002
}
1000
LType
1070
     4
1000
BYLAYER
1002
{
1002
}
1002
}
1000
CON3
1070
     9
1000
2
1002
{
1000
Class
1070
     4
1000
CON,BGD
1002
{
1002
}
1000
Color
1070
     1
1070
   256
1002
{
1002
}
1000
LType
1070
     4
1000
BYLAYER
1002
{
1002
}
1002
}
1000
CON4
1070
     9
1000
2
1002
{
1000
Class
1070
     4
1000
CON,BGD
1002
{
1002
}
1000
Color
1070
     1
1070
   256
1002
{
1002
}
1000
LType
1070
     4
1000
BYLAYER
1002
{
1002
}
1002
}
1000
DERP
1070
     9
1000
4
1002
{
1000
Class
1070
     4
1000

1002
{
1002
}
1000
Color
1070
     1
1070
   256
1002
{
1002
}
1000
LType
1070
     4
1000
BYLAYER
1002
{
1002
}
1002
}
1000
DETA
1070
     9
1000
4
1002
{
1000
Class
1070
     4
1000

1002
{
1002
}
1000
Color
1070
     1
1070
   256
1002
{
1002
}
1000
LType
1070
     4
1000
BYLAYER
1002
{
1002
}
1002
}
1000
DIAG
1070
     9
1000
5
1002
{
1000
Class
1070
     4
1000
SYM
1002
{
1002
}
1000
Color
1070
     1
1070
   256
1002
{
1002
}
1000
LType
1070
     4
1000
BYLAYER
1002
{
1002
}
1002
}
1000
DILI
1070
     9
1000
5
1002
{
1000
Class
1070
     4
1000
DIM,SYM
1002
{
1002
}
1000
Color
1070
     1
1070
   256
1002
{
1002
}
1000
LType
1070
     4
1000
BYLAYER
1002
{
1002
}
1002
}
1000
DITO2
1070
     9
1000
5
1002
{
1000
Class
1070
     4
1000
DIM,SYM
1002
{
1002
}
1000
Color
1070
     1
1070
     3
1002
{
1002
}
1000
LType
1070
     4
1000
BYLAYER
1002
{
1002
}
1002
}
1000
DITO3
1070
     9
1000
5
1002
{
1000
Class
1070
     4
1000
DIM,SYM
1002
{
1002
}
1000
Color
1070
     1
1070
     2
1002
{
1002
}
1000
LType
1070
     4
1000
BYLAYER
1002
{
1002
}
1002
}
1000
DITX
1070
     9
1000
5
1002
{
1000
Class
1070
     4
1000
DIM,SYM
1002
{
1002
}
1000
Color
1070
     1
1070
     7
1002
{
1002
}
1000
LType
1070
     4
1000
CONTINUOUS
1002
{
1002
}
1002
}
1000
DIXL
1070
     9
1000
5
1002
{
1000
Class
1070
     4
1000
DIM,SYM
1002
{
1002
}
1000
Color
1070
     1
1070
   256
1002
{
1002
}
1000
LType
1070
     4
1000
BYLAYER
1002
{
1002
}
1002
}
1000
EXMP
1070
     9
1000
4A
1002
{
1000
Class
1070
     4
1000

1002
{
1002
}
1000
Color
1070
     1
1070
   256
1002
{
1002
}
1000
LType
1070
     4
1000
BYLAYER
1002
{
1002
}
1002
}
1000
FEMN
1070
     9
1000
8
1002
{
1000
Class
1070
     4
1000

1002
{
1002
}
1000
Color
1070
     1
1070
   256
1002
{
1002
}
1000
LType
1070
     4
1000
BYLAYER
1002
{
1002
}
1002
}
1000
FEMPN
1070
     9
1000
8
1002
{
1000
Class
1070
     4
1000
SYM
1002
{
1002
}
1000
Color
1070
     1
1070
     3
1002
{
1002
}
1000
LType
1070
     4
1000
BYLAYER
1002
{
1002
}
1002
}
1000
FEMSP
1070
     9
1000
4A
1002
{
1000
Class
1070
     4
1000

1002
{
1002
}
1000
Color
1070
     1
1070
   256
1002
{
1002
}
1000
LType
1070
     4
1000
CONTINUOUS
1002
{
1002
}
1002
}
1000
FEMST
1070
     9
1000
4A
1002
{
1000
Class
1070
     4
1000
SYM
1002
{
1002
}
1000
Color
1070
     1
1070
     3
1002
{
1002
}
1000
LType
1070
     4
1000
BYLAYER
1002
{
1002
}
1002
}
1000
FEMVN
1070
     9
1000
2
1002
{
1000
Class
1070
     4
1000
CON
1002
{
1002
}
1000
Color
1070
     1
1070
   256
1002
{
1002
}
1000
LType
1070
     4
1000
BYLAYER
1002
{
1002
}
1002
}
1000
FEMVT
1070
     9
1000
2
1002
{
1000
Class
1070
     4
1000
SYM
1002
{
1002
}
1000
Color
1070
     1
1070
     3
1002
{
1002
}
1000
LType
1070
     4
1000
BYLAYER
1002
{
1002
}
1002
}
1000
FLAT
1070
     9
1000
0
1002
{
1000
Class
1070
     4
1000

1002
{
1002
}
1000
Color
1070
     1
1070
   256
1002
{
1002
}
1000
LType
1070
     4
1000
BYLAYER
1002
{
1002
}
1002
}
1000
FRAR
1070
     9
1000
4A
1002
{
1000
Class
1070
     4
1000

1002
{
1002
}
1000
Color
1070
     1
1070
   256
1002
{
1002
}
1000
LType
1070
     4
1000
BYLAYER
1002
{
1002
}
1002
}
1000
GRLI
1070
     9
1000
5
1002
{
1000
Class
1070
     4
1000
SYM
1002
{
1002
}
1000
Color
1070
     1
1070
   256
1002
{
1002
}
1000
LType
1070
     4
1000
BYLAYER
1002
{
1002
}
1002
}
1000
GVLI
1070
     9
1000
4A
1002
{
1000
Class
1070
     4
1000

1002
{
1002
}
1000
Color
1070
     1
1070
   256
1002
{
1002
}
1000
LType
1070
     4
1000
BYLAYER
1002
{
1002
}
1002
}
1000
HATC
1070
     9
1000
8
1002
{
1000
Class
1070
     4
1000
HTC,BGD
1002
{
1002
}
1000
Color
1070
     1
1070
   256
1002
{
1002
}
1000
LType
1070
     4
1000
BYLAYER
1002
{
1002
}
1002
}
1000
HIDN
1070
     9
1000
3A
1002
{
1000
Class
1070
     4
1000
HID,BGD
1002
{
1002
}
1000
Color
1070
     1
1070
   256
1002
{
1002
}
1000
LType
1070
     4
1000
BYLAYER
1002
{
1002
}
1002
}
1000
HIDW
1070
     9
1000
3
1002
{
1000
Class
1070
     4
1000
HID,BGD
1002
{
1002
}
1000
Color
1070
     1
1070
   256
1002
{
1002
}
1000
LType
1070
     4
1000
BYLAYER
1002
{
1002
}
1002
}
1000
HLIN
1070
     9
1000
4
1002
{
1000
Class
1070
     4
1000
BGD
1002
{
1002
}
1000
Color
1070
     1
1070
   256
1002
{
1002
}
1000
LType
1070
     4
1000
BYLAYER
1002
{
1002
}
1002
}
1000
HOCN
1070
     9
1000
7A
1002
{
1000
Class
1070
     4
1000
CEN
1002
{
1002
}
1000
Color
1070
     1
1070
   256
1002
{
1002
}
1000
LType
1070
     4
1000
BYLAYER
1002
{
1002
}
1002
}
1000
HOCW
1070
     9
1000
7
1002
{
1000
Class
1070
     4
1000
CEN
1002
{
1002
}
1000
Color
1070
     1
1070
   256
1002
{
1002
}
1000
LType
1070
     4
1000
BYLAYER
1002
{
1002
}
1002
}
1000
INFO
1070
     9
1000
INFO
1002
{
1000
Class
1070
     4
1000
SPZ,SYM
1002
{
1002
}
1000
Color
1070
     1
1070
   256
1002
{
1002
}
1000
LType
1070
     4
1000
BYLAYER
1002
{
1002
}
1002
}
1000
LADI
1070
     9
1000
4
1002
{
1000
Class
1070
     4
1000
BGD
1002
{
1002
}
1000
Color
1070
     1
1070
   256
1002
{
1002
}
1000
LType
1070
     4
1000
BYLAYER
1002
{
1002
}
1002
}
1000
LEAD
1070
     9
1000
5
1002
{
1000
Class
1070
     4
1000
SYM
1002
{
1002
}
1000
Color
1070
     1
1070
   256
1002
{
1002
}
1000
LType
1070
     4
1000
BYLAYER
1002
{
1002
}
1002
}
1000
N_ADDL
1070
     9
1000
5N
1002
{
1000
Class
1070
     4
1000
SYM
1002
{
1002
}
1000
Color
1070
     1
1070
     1
1002
{
1002
}
1000
LType
1070
     4
1000
BYLAYER
1002
{
1002
}
1002
}
1000
N_BHNV
1070
     9
1000
9N
1002
{
1000
Class
1070
     4
1000
INV
1002
{
1002
}
1000
Color
1070
     1
1070
   256
1002
{
1002
}
1000
LType
1070
     4
1000
BYLAYER
1002
{
1002
}
1002
}
1000
N_CON1
1070
     9
1000
0N
1002
{
1000
Class
1070
     4
1000
CON,BGD
1002
{
1002
}
1000
Color
1070
     1
1070
   256
1002
{
1002
}
1000
LType
1070
     4
1000
BYLAYER
1002
{
1002
}
1002
}
1000
N_CON2
1070
     9
1000
1N
1002
{
1000
Class
1070
     4
1000
CON,BGD
1002
{
1002
}
1000
Color
1070
     1
1070
   256
1002
{
1002
}
1000
LType
1070
     4
1000
BYLAYER
1002
{
1002
}
1002
}
1000
N_CON3
1070
     9
1000
2N
1002
{
1000
Class
1070
     4
1000
CON,BGD
1002
{
1002
}
1000
Color
1070
     1
1070
   256
1002
{
1002
}
1000
LType
1070
     4
1000
BYLAYER
1002
{
1002
}
1002
}
1000
N_CON4
1070
     9
1000
2N
1002
{
1000
Class
1070
     4
1000
CON,BGD
1002
{
1002
}
1000
Color
1070
     1
1070
   256
1002
{
1002
}
1000
LType
1070
     4
1000
BYLAYER
1002
{
1002
}
1002
}
1000
N_CENN
1070
     9
1000
7AN
1002
{
1000
Class
1070
     4
1000
CEN
1002
{
1002
}
1000
Color
1070
     1
1070
   256
1002
{
1002
}
1000
LType
1070
     4
1000
BYLAYER
1002
{
1002
}
1002
}
1000
N_CENW
1070
     9
1000
7N
1002
{
1000
Class
1070
     4
1000
CEN
1002
{
1002
}
1000
Color
1070
     1
1070
   256
1002
{
1002
}
1000
LType
1070
     4
1000
BYLAYER
1002
{
1002
}
1002
}
1000
N_DILI
1070
     9
1000
5N
1002
{
1000
Class
1070
     4
1000
DIM,SYM
1002
{
1002
}
1000
Color
1070
     1
1070
   256
1002
{
1002
}
1000
LType
1070
     4
1000
BYLAYER
1002
{
1002
}
1002
}
1000
N_DITX
1070
     9
1000
5N
1002
{
1000
Class
1070
     4
1000
DIM,SYM
1002
{
1002
}
1000
Color
1070
     1
1070
     2
1002
{
1002
}
1000
LType
1070
     4
1000
CONTINUOUS
1002
{
1002
}
1002
}
1000
N_DIXL
1070
     9
1000
5N
1002
{
1000
Class
1070
     4
1000
DIM,SYM
1002
{
1002
}
1000
Color
1070
     1
1070
   256
1002
{
1002
}
1000
LType
1070
     4
1000
BYLAYER
1002
{
1002
}
1002
}
1000
N_HATC
1070
     9
1000
8N
1002
{
1000
Class
1070
     4
1000
HTC,BGD
1002
{
1002
}
1000
Color
1070
     1
1070
   256
1002
{
1002
}
1000
LType
1070
     4
1000
BYLAYER
1002
{
1002
}
1002
}
1000
N_HIDN
1070
     9
1000
3AN
1002
{
1000
Class
1070
     4
1000
HID,BGD
1002
{
1002
}
1000
Color
1070
     1
1070
   256
1002
{
1002
}
1000
LType
1070
     4
1000
BYLAYER
1002
{
1002
}
1002
}
1000
N_HIDW
1070
     9
1000
3N
1002
{
1000
Class
1070
     4
1000
HID,BGD
1002
{
1002
}
1000
Color
1070
     1
1070
   256
1002
{
1002
}
1000
LType
1070
     4
1000
BYLAYER
1002
{
1002
}
1002
}
1000
N_NGIP
1070
     9
1000
IPN
1002
{
1000
Class
1070
     4
1000

1002
{
1002
}
1000
Color
1070
     1
1070
   256
1002
{
1002
}
1000
LType
1070
     4
1000
BYLAYER
1002
{
1002
}
1002
}
1000
N_PHAN
1070
     9
1000
4AN
1002
{
1000
Class
1070
     4
1000

1002
{
1002
}
1000
Color
1070
     1
1070
   256
1002
{
1002
}
1000
LType
1070
     4
1000
BYLAYER
1002
{
1002
}
1002
}
1000
N_POSL
1070
     9
1000
5N
1002
{
1000
Class
1070
     4
1000
SYM
1002
{
1002
}
1000
Color
1070
     1
1070
   256
1002
{
1002
}
1000
LType
1070
     4
1000
BYLAYER
1002
{
1002
}
1002
}
1000
N_TCON
1070
     9
1000
0N
1002
{
1000
Class
1070
     4
1000
CON,BGD
1002
{
1002
}
1000
Color
1070
     1
1070
   256
1002
{
1002
}
1000
LType
1070
     4
1000
BYLAYER
1002
{
1002
}
1002
}
1000
N_THLI
1070
     9
1000
4N
1002
{
1000
Class
1070
     4
1000
BGD
1002
{
1002
}
1000
Color
1070
     1
1070
   256
1002
{
1002
}
1000
LType
1070
     4
1000
BYLAYER
1002
{
1002
}
1002
}
1000
N_TLEN
1070
     9
1000
0N
1002
{
1000
Class
1070
     4
1000
CON,BGD
1002
{
1002
}
1000
Color
1070
     1
1070
   256
1002
{
1002
}
1000
LType
1070
     4
1000
BYLAYER
1002
{
1002
}
1002
}
1000
N_TXT3
1070
     9
1000
6N
1002
{
1000
Class
1070
     4
1000
SYM
1002
{
1002
}
1000
Color
1070
     1
1070
   256
1002
{
1002
}
1000
LType
1070
     4
1000
BYLAYER
1002
{
1002
}
1002
}
1000
N_VPLI
1070
     9
1000
2AN
1002
{
1000
Class
1070
     4
1000

1002
{
1002
}
1000
Color
1070
     1
1070
   256
1002
{
1002
}
1000
LType
1070
     4
1000
BYLAYER
1002
{
1002
}
1002
}
1000
NGIP
1070
     9
1000
IP
1002
{
1000
Class
1070
     4
1000

1002
{
1002
}
1000
Color
1070
     1
1070
   256
1002
{
1002
}
1000
LType
1070
     4
1000
BYLAYER
1002
{
1002
}
1002
}
1000
PAL2
1070
     9
1000
RAHM2
1002
{
1000
Class
1070
     4
1000
SPZ,SYM
1002
{
1002
}
1000
Color
1070
     1
1070
   256
1002
{
1002
}
1000
LType
1070
     4
1000
BYLAYER
1002
{
1002
}
1002
}
1000
PAL3
1070
     9
1000
RAHM3
1002
{
1000
Class
1070
     4
1000
SPZ,SYM
1002
{
1002
}
1000
Color
1070
     1
1070
   256
1002
{
1002
}
1000
LType
1070
     4
1000
BYLAYER
1002
{
1002
}
1002
}
1000
PAL5
1070
     9
1000
RAHM5
1002
{
1000
Class
1070
     4
1000
SPZ,SYM
1002
{
1002
}
1000
Color
1070
     1
1070
   256
1002
{
1002
}
1000
LType
1070
     4
1000
BYLAYER
1002
{
1002
}
1002
}
1000
PAL7
1070
     9
1000
RAHM5
1002
{
1000
Class
1070
     4
1000
SPZ,SYM
1002
{
1002
}
1000
Color
1070
     1
1070
     7
1002
{
1002
}
1000
LType
1070
     4
1000
CONTINUOUS
1002
{
1002
}
1002
}
1000
PHAN
1070
     9
1000
4A
1002
{
1000
Class
1070
     4
1000

1002
{
1002
}
1000
Color
1070
     1
1070
   256
1002
{
1002
}
1000
LType
1070
     4
1000
BYLAYER
1002
{
1002
}
1002
}
1000
POSL
1070
     9
1000
5
1002
{
1000
Class
1070
     4
1000
SYM
1002
{
1002
}
1000
Color
1070
     1
1070
   256
1002
{
1002
}
1000
LType
1070
     4
1000
BYLAYER
1002
{
1002
}
1002
}
1000
POSN
1070
     9
1000
6
1002
{
1000
Class
1070
     4
1000
SYM
1002
{
1002
}
1000
Color
1070
     1
1070
     7
1002
{
1002
}
1000
LType
1070
     4
1000
BYLAYER
1002
{
1002
}
1002
}
1000
POSREF
1070
     9
1000
6
1002
{
1000
Class
1070
     4
1000
SYM
1002
{
1002
}
1000
Color
1070
     1
1070
     5
1002
{
1002
}
1000
LType
1070
     4
1000
BYLAYER
1002
{
1002
}
1002
}
1000
POSX
1070
     9
1000
5
1002
{
1000
Class
1070
     4
1000
SYM
1002
{
1002
}
1000
Color
1070
     1
1070
     2
1002
{
1002
}
1000
LType
1070
     4
1000
CONTINUOUS
1002
{
1002
}
1002
}
1000
PSEC
1070
     9
1000
4A
1002
{
1000
Class
1070
     4
1000

1002
{
1002
}
1000
Color
1070
     1
1070
   256
1002
{
1002
}
1000
LType
1070
     4
1000
BYLAYER
1002
{
1002
}
1002
}
1000
RCGN
1070
     9
1000
7A
1002
{
1000
Class
1070
     4
1000
CEN
1002
{
1002
}
1000
Color
1070
     1
1070
   256
1002
{
1002
}
1000
LType
1070
     4
1000
BYLAYER
1002
{
1002
}
1002
}
1000
RCGW
1070
     9
1000
7
1002
{
1000
Class
1070
     4
1000
CEN
1002
{
1002
}
1000
Color
1070
     1
1070
   256
1002
{
1002
}
1000
LType
1070
     4
1000
BYLAYER
1002
{
1002
}
1002
}
1000
RFDI
1070
     9
1000
4
1002
{
1000
Class
1070
     4
1000
BGD
1002
{
1002
}
1000
Color
1070
     1
1070
   256
1002
{
1002
}
1000
LType
1070
     4
1000
BYLAYER
1002
{
1002
}
1002
}
1000
RQTR
1070
     9
1000
4
1002
{
1000
Class
1070
     4
1000

1002
{
1002
}
1000
Color
1070
     1
1070
     7
1002
{
1002
}
1000
LType
1070
     4
1000
GEN7A
1002
{
1002
}
1002
}
1000
RSBO
1070
     9
1000
4
1002
{
1000
Class
1070
     4
1000
BGD
1002
{
1002
}
1000
Color
1070
     1
1070
   256
1002
{
1002
}
1000
LType
1070
     4
1000
BYLAYER
1002
{
1002
}
1002
}
1000
SBRK
1070
     9
1000
4
1002
{
1000
Class
1070
     4
1000
BGD
1002
{
1002
}
1000
Color
1070
     1
1070
   256
1002
{
1002
}
1000
LType
1070
     4
1000
BYLAYER
1002
{
1002
}
1002
}
1000
SCEN
1070
     9
1000
7
1002
{
1000
Class
1070
     4
1000

1002
{
1002
}
1000
Color
1070
     1
1070
   256
1002
{
1002
}
1000
LType
1070
     4
1000
CONTINUOUS
1002
{
1002
}
1002
}
1000
SECT
1070
     9
1000
4
1002
{
1000
Class
1070
     4
1000
BGD
1002
{
1002
}
1000
Color
1070
     1
1070
   256
1002
{
1002
}
1000
LType
1070
     4
1000
BYLAYER
1002
{
1002
}
1002
}
1000
SELN
1070
     9
1000
7A
1002
{
1000
Class
1070
     4
1000

1002
{
1002
}
1000
Color
1070
     1
1070
   256
1002
{
1002
}
1000
LType
1070
     4
1000
BYLAYER
1002
{
1002
}
1002
}
1000
SELW
1070
     9
1000
7
1002
{
1000
Class
1070
     4
1000

1002
{
1002
}
1000
Color
1070
     1
1070
   256
1002
{
1002
}
1000
LType
1070
     4
1000
BYLAYER
1002
{
1002
}
1002
}
1000
SSYS
1070
     9
1000
0
1002
{
1000
Class
1070
     4
1000

1002
{
1002
}
1000
Color
1070
     1
1070
   256
1002
{
1002
}
1000
LType
1070
     4
1000
BYLAYER
1002
{
1002
}
1002
}
1000
STLI
1070
     9
1000
4
1002
{
1000
Class
1070
     4
1000

1002
{
1002
}
1000
Color
1070
     1
1070
     7
1002
{
1002
}
1000
LType
1070
     4
1000
GEN3A
1002
{
1002
}
1002
}
1000
SYB1
1070
     9
1000
5
1002
{
1000
Class
1070
     4
1000
SYM
1002
{
1002
}
1000
Color
1070
     1
1070
   256
1002
{
1002
}
1000
LType
1070
     4
1000
BYLAYER
1002
{
1002
}
1002
}
1000
SYB2
1070
     9
1000
5
1002
{
1000
Class
1070
     4
1000
SYM
1002
{
1002
}
1000
Color
1070
     1
1070
   256
1002
{
1002
}
1000
LType
1070
     4
1000
BYLAYER
1002
{
1002
}
1002
}
1000
SYB3
1070
     9
1000
6
1002
{
1000
Class
1070
     4
1000
SYM
1002
{
1002
}
1000
Color
1070
     1
1070
   256
1002
{
1002
}
1000
LType
1070
     4
1000
CONTINUOUS
1002
{
1002
}
1002
}
1000
SYB5
1070
     9
1000
5
1002
{
1000
Class
1070
     4
1000
SYM
1002
{
1002
}
1000
Color
1070
     1
1070
     7
1002
{
1002
}
1000
LType
1070
     4
1000
BYLAYER
1002
{
1002
}
1002
}
1000
SYMN
1070
     9
1000
7A
1002
{
1000
Class
1070
     4
1000
CEN
1002
{
1002
}
1000
Color
1070
     1
1070
   256
1002
{
1002
}
1000
LType
1070
     4
1000
BYLAYER
1002
{
1002
}
1002
}
1000
SYMW
1070
     9
1000
7
1002
{
1000
Class
1070
     4
1000
CEN
1002
{
1002
}
1000
Color
1070
     1
1070
   256
1002
{
1002
}
1000
LType
1070
     4
1000
BYLAYER
1002
{
1002
}
1002
}
1000
TCON
1070
     9
1000
0
1002
{
1000
Class
1070
     4
1000
CON,BGD
1002
{
1002
}
1000
Color
1070
     1
1070
   256
1002
{
1002
}
1000
LType
1070
     4
1000
BYLAYER
1002
{
1002
}
1002
}
1000
THLI
1070
     9
1000
4
1002
{
1000
Class
1070
     4
1000
BGD
1002
{
1002
}
1000
Color
1070
     1
1070
   256
1002
{
1002
}
1000
LType
1070
     4
1000
BYLAYER
1002
{
1002
}
1002
}
1000
TIT2
1070
     9
1000
RAHM2
1002
{
1000
Class
1070
     4
1000
SPZ,SYM
1002
{
1002
}
1000
Color
1070
     1
1070
   256
1002
{
1002
}
1000
LType
1070
     4
1000
BYLAYER
1002
{
1002
}
1002
}
1000
TIT3
1070
     9
1000
RAHM3
1002
{
1000
Class
1070
     4
1000
SPZ,SYM
1002
{
1002
}
1000
Color
1070
     1
1070
   256
1002
{
1002
}
1000
LType
1070
     4
1000
BYLAYER
1002
{
1002
}
1002
}
1000
TIT5
1070
     9
1000
RAHM5
1002
{
1000
Class
1070
     4
1000
SPZ,SYM
1002
{
1002
}
1000
Color
1070
     1
1070
   256
1002
{
1002
}
1000
LType
1070
     4
1000
BYLAYER
1002
{
1002
}
1002
}
1000
TIT7
1070
     9
1000
RAHM5
1002
{
1000
Class
1070
     4
1000
SPZ,SYM
1002
{
1002
}
1000
Color
1070
     1
1070
     7
1002
{
1002
}
1000
LType
1070
     4
1000
CONTINUOUS
1002
{
1002
}
1002
}
1000
TLEN
1070
     9
1000
0
1002
{
1000
Class
1070
     4
1000
CON,BGD
1002
{
1002
}
1000
Color
1070
     1
1070
   256
1002
{
1002
}
1000
LType
1070
     4
1000
BYLAYER
1002
{
1002
}
1002
}
1000
TRKN
1070
     9
1000
7A
1002
{
1000
Class
1070
     4
1000

1002
{
1002
}
1000
Color
1070
     1
1070
   256
1002
{
1002
}
1000
LType
1070
     4
1000
BYLAYER
1002
{
1002
}
1002
}
1000
TRKW
1070
     9
1000
7
1002
{
1000
Class
1070
     4
1000

1002
{
1002
}
1000
Color
1070
     1
1070
   256
1002
{
1002
}
1000
LType
1070
     4
1000
BYLAYER
1002
{
1002
}
1002
}
1000
TRLI
1070
     9
1000
4
1002
{
1000
Class
1070
     4
1000
BGD
1002
{
1002
}
1000
Color
1070
     1
1070
   256
1002
{
1002
}
1000
LType
1070
     4
1000
BYLAYER
1002
{
1002
}
1002
}
1000
TXT1
1070
     9
1000
6
1002
{
1000
Class
1070
     4
1000
SYM
1002
{
1002
}
1000
Color
1070
     1
1070
     2
1002
{
1002
}
1000
LType
1070
     4
1000
BYLAYER
1002
{
1002
}
1002
}
1000
TXT2
1070
     9
1000
6
1002
{
1000
Class
1070
     4
1000
SYM
1002
{
1002
}
1000
Color
1070
     1
1070
     2
1002
{
1002
}
1000
LType
1070
     4
1000
BYLAYER
1002
{
1002
}
1002
}
1000
TXT3
1070
     9
1000
6
1002
{
1000
Class
1070
     4
1000
SYM
1002
{
1002
}
1000
Color
1070
     1
1070
   256
1002
{
1002
}
1000
LType
1070
     4
1000
BYLAYER
1002
{
1002
}
1002
}
1000
TXT5
1070
     9
1000
6
1002
{
1000
Class
1070
     4
1000
SYM
1002
{
1002
}
1000
Color
1070
     1
1070
     7
1002
{
1002
}
1000
LType
1070
     4
1000
BYLAYER
1002
{
1002
}
1002
}
1000
TXT7
1070
     9
1000
6
1002
{
1000
Class
1070
     4
1000
SYM
1002
{
1002
}
1000
Color
1070
     1
1070
     7
1002
{
1002
}
1000
LType
1070
     4
1000
BYLAYER
1002
{
1002
}
1002
}
1000
VIEW
1070
     9
1000
VIEW
1002
{
1000
Class
1070
     4
1000
SPZ
1002
{
1002
}
1000
Color
1070
     1
1070
   256
1002
{
1002
}
1000
LType
1070
     4
1000
BYLAYER
1002
{
1002
}
1002
}
1000
VPLI
1070
     9
1000
2A
1002
{
1000
Class
1070
     4
1000

1002
{
1002
}
1000
Color
1070
     1
1070
   256
1002
{
1002
}
1000
LType
1070
     4
1000
BYLAYER
1002
{
1002
}
1002
}
1000
ZIZA
1070
     9
1000
4
1002
{
1000
Class
1070
     4
1000
BGD
1002
{
1002
}
1000
Color
1070
     1
1070
   256
1002
{
1002
}
1000
LType
1070
     4
1000
GENZIGZAG
1002
{
1002
}
1002
}
  0
APPID
  5
183F
330
15
100
AcDbSymbolTableRecord
100
AcDbRegAppTableRecord
  2
GENIUS_GENCFG4_13
 70
     0
1001
GENIUS_GENCFG_13
1071
950252916
1000
183F
1000
GEN
1070
     9
1000
GenCfgObject
1000
GenCfgShort
1000
GenCfgReal
1000
GenCfgBool
1000
GenCfgString
1000
GenCfgDim
1000
GenCfgLaySection
1000
GenCfgLType
1000
GenCfgFilter
1000
Balloon
1070
     0
1002
{
1000
GenIF
1070
     1
1070
     0
1002
{
1002
}
1000
GenPosInc
1070
     1
1070
     1
1002
{
1002
}
1000
GenPosBlk
1070
     1
1070
     6
1002
{
1002
}
1000
GenPosVar
1070
     1
1070
     4
1002
{
1002
}
1000
GenZiCir
1070
     2
1040
1.5
1002
{
1002
}
1000
MaxCharForCenteredText
1070
     1
1070
    30
1002
{
1002
}
1000
Snap
1070
     0
1002
{
1000
ActivationRadius
1070
     2
1040
1.0
1002
{
1002
}
1000
M
1070
     0
1002
{
1000
SnapStepX
1070
     2
1040
20.0
1002
{
1002
}
1000
SnapStepY
1070
     2
1040
10.0
1002
{
1002
}
1002
}
1000
I
1070
     0
1002
{
1000
SnapStepX
1070
     2
1040
1.0
1002
{
1002
}
1000
SnapStepY
1070
     2
1040
0.5
1002
{
1002
}
1002
}
1002
}
1002
}
1000
Centerline
1070
     0
1002
{
1000
ScaleNot
1070
     3
1070
     0
1002
{
1002
}
1000
M
1070
     0
1002
{
1000
GenCenAng
1070
     4
1000
45|90|135
1002
{
1002
}
1000
GenCenDia
1070
     2
1040
65.65249269999999
1002
{
1002
}
1000
GenCenDias
1070
     4
1000
10|20|30
1002
{
1002
}
1000
GenCenDist
1070
     2
1040
3.0
1002
{
1002
}
1000
GenCenLen
1070
     2
1040
10.0
1002
{
1002
}
1000
GenCenOff
1070
     2
1040
10.0
1002
{
1002
}
1000
GENCENOFF1
1070
     2
1040
10.0
1002
{
1002
}
1000
GENCENOFF2
1070
     2
1040
10.0
1002
{
1002
}
1002
}
1000
I
1070
     0
1002
{
1000
GenCenAng
1070
     4
1000
45|90|135
1002
{
1002
}
1000
GenCenDia
1070
     2
1040
0.5
1002
{
1002
}
1000
GenCenDias
1070
     4
1000
0.5|1.0|1.5
1002
{
1002
}
1000
GenCenDist
1070
     2
1040
0.125
1002
{
1002
}
1000
GenCenLen
1070
     2
1040
0.5
1002
{
1002
}
1000
GenCenOff
1070
     2
1040
0.5
1002
{
1002
}
1002
}
1002
}
1000
CLine
1070
     0
1002
{
1000
CAngArray
1070
     4
1000
30|45|60
1002
{
1002
}
1000
Typ
1070
     4
1000
XLINE
1002
{
1002
}
1000
M
1070
     0
1002
{
1000
CLinArray
1070
     4
1000
5
1002
{
1002
}
1002
}
1000
I
1070
     0
1002
{
1000
CLinArray
1070
     4
1000
0.125|0.25|0.5
1002
{
1002
}
1002
}
1002
}
1000
Detail
1070
     0
1002
{
1002
}
1000
Dimension
1070
     5
1002
{
1000
DIMALT
1070
     1
1070
     0
1002
{
1002
}
1000
DIMALTD
1070
     1
1070
     2
1002
{
1002
}
1000
DIMALTTD
1070
     1
1070
     4
1002
{
1002
}
1000
DIMALTTZ
1070
     1
1070
     0
1002
{
1002
}
1000
DIMALTU
1070
     1
1070
     2
1002
{
1002
}
1000
DIMALTZ
1070
     1
1070
     0
1002
{
1002
}
1000
DIMAUNIT
1070
     1
1070
     0
1002
{
1002
}
1000
DIMBLK
1070
     4
1000

1002
{
1002
}
1000
DIMBLK1
1070
     4
1000

1002
{
1002
}
1000
DIMBLK2
1070
     4
1000

1002
{
1002
}
1000
DIMCLRD
1070
     1
1070
   256
1002
{
1002
}
1000
DIMCLRE
1070
     1
1070
   256
1002
{
1002
}
1000
DIMCLRT
1070
     1
1070
     7
1002
{
1002
}
1000
DIMDLE
1070
     2
1040
0.0
1002
{
1002
}
1000
DIMFIT
1070
     1
1070
     3
1002
{
1002
}
1000
DIMJUST
1070
     1
1070
     0
1002
{
1002
}
1000
DIMLFAC
1070
     2
1040
1.0
1002
{
1002
}
1000
DIMLIM
1070
     1
1070
     0
1002
{
1002
}
1000
DIMPOST
1070
     4
1000
<>
1002
{
1002
}
1000
DIMRND
1070
     2
1040
0.0
1002
{
1002
}
1000
DIMSAH
1070
     1
1070
     0
1002
{
1002
}
1000
DIMSCALE
1070
     2
1040
1.0
1002
{
1002
}
1000
DIMSD1
1070
     1
1070
     0
1002
{
1002
}
1000
DIMSD2
1070
     1
1070
     0
1002
{
1002
}
1000
DIMSE1
1070
     1
1070
     0
1002
{
1002
}
1000
DIMSE2
1070
     1
1070
     0
1002
{
1002
}
1000
DIMSOXD
1070
     1
1070
     0
1002
{
1002
}
1000
DIMTAD
1070
     1
1070
     0
1002
{
1002
}
1000
DIMTFAC
1070
     2
1040
0.71
1002
{
1002
}
1000
DIMTIH
1070
     1
1070
     0
1002
{
1002
}
1000
DIMTIX
1070
     1
1070
     0
1002
{
1002
}
1000
DIMTM
1070
     2
1040
0.1
1002
{
1002
}
1000
DIMTOFL
1070
     1
1070
     0
1002
{
1002
}
1000
DIMTOH
1070
     1
1070
     0
1002
{
1002
}
1000
DIMTOL
1070
     1
1070
     0
1002
{
1002
}
1000
DIMTOLJ
1070
     1
1070
     1
1002
{
1002
}
1000
DIMTP
1070
     2
1040
0.1
1002
{
1002
}
1000
DIMTSZ
1070
     2
1040
0.0
1002
{
1002
}
1000
DIMTVP
1070
     2
1040
0.0
1002
{
1002
}
1000
DIMTXSTY
1070
     4
1000
ROMANS
1002
{
1002
}
1000
DIMTZIN
1070
     1
1070
     0
1002
{
1002
}
1000
DIMUNIT
1070
     1
1070
     2
1002
{
1002
}
1000
DIMUPT
1070
     1
1070
     0
1002
{
1002
}
1000
M
1070
     0
1002
{
1000
DIMALTF
1070
     2
1040
0.0393701
1002
{
1002
}
1000
DIMAPOST
1070
     4
1000
"
1002
{
1002
}
1000
DIMASZ
1070
     2
1040
1.5
1002
{
1002
}
1000
DIMCEN
1070
     2
1040
1.0
1002
{
1002
}
1000
DIMDEC
1070
     1
1070
     2
1002
{
1002
}
1000
DIMDLI
1070
     2
1040
10.0
1002
{
1002
}
1000
DIMEXE
1070
     2
1040
1.0
1002
{
1002
}
1000
DIMEXO
1070
     2
1040
1.0
1002
{
1002
}
1000
DIMGAP
1070
     2
1040
0.6
1002
{
1002
}
1000
DIMTDEC
1070
     1
1070
     3
1002
{
1002
}
1000
DIMTXT
1070
     2
1040
2.0
1002
{
1002
}
1000
DIMZIN
1070
     1
1070
     8
1002
{
1002
}
1002
}
1000
I
1070
     0
1002
{
1000
DIMALTF
1070
     2
1040
25.4
1002
{
1002
}
1000
DIMAPOST
1070
     4
1000
mm
1002
{
1002
}
1000
DIMASZ
1070
     2
1040
0.1
1002
{
1002
}
1000
DIMCEN
1070
     2
1040
0.0
1002
{
1002
}
1000
DIMDEC
1070
     1
1070
     4
1002
{
1002
}
1000
DIMDLI
1070
     2
1040
0.5
1002
{
1002
}
1000
DIMEXE
1070
     2
1040
0.1
1002
{
1002
}
1000
DIMEXO
1070
     2
1040
0.05
1002
{
1002
}
1000
DIMGAP
1070
     2
1040
0.06
1002
{
1002
}
1000
DIMTDEC
1070
     1
1070
     4
1002
{
1002
}
1000
DIMTXT
1070
     2
1040
0.12
1002
{
1002
}
1000
DIMZIN
1070
     1
1070
     7
1002
{
1002
}
1002
}
1000
GEN-ISO
1070
     5
1002
{
1000
NAME
1070
     4
1000
GEN-ISO
1002
{
1002
}
1000
DIMTAD
1070
     1
1070
     1
1002
{
1002
}
1000
DIMTOLJ
1070
     1
1070
     0
1002
{
1002
}
1000
DIMTOFL
1070
     1
1070
     1
1002
{
1002
}
1000
M
1070
     0
1002
{
1000
DIMGAP
1070
     2
1040
0.6
1002
{
1002
}
1000
DIMTXT
1070
     2
1040
1.0
1002
{
1002
}
1002
}
1000
I
1070
     0
1002
{
1002
}
1000
DIMCLRT
1070
     1
1070
   255
1002
{
1002
}
1000
DIMTXSTY
1070
     4
1000
ROMANS
1002
{
1002
}
1002
}
1000
GEN-ISO-POS
1070
     5
1002
{
1000
NAME
1070
     4
1000
GEN-ISO-POS
1002
{
1002
}
1000
DIMTOLJ
1070
     1
1070
     0
1002
{
1002
}
1000
DIMTXSTY
1070
     4
1000
STANDARD
1002
{
1002
}
1000
M
1070
     0
1002
{
1000
DIMASZ
1070
     2
1040
2.5
1002
{
1002
}
1000
DIMGAP
1070
     2
1040
1.5
1002
{
1002
}
1000
DIMTXT
1070
     2
1040
5.0
1002
{
1002
}
1002
}
1000
I
1070
     0
1002
{
1000
DIMASZ
1070
     2
1040
0.1
1002
{
1002
}
1000
DIMGAP
1070
     2
1040
0.06
1002
{
1002
}
1000
DIMTXT
1070
     2
1040
0.2
1002
{
1002
}
1002
}
1002
}
1000
GEN-ISO-CIR
1070
     5
1002
{
1000
NAME
1070
     4
1000
GEN-ISO$3
1002
{
1002
}
1000
DIMFIT
1070
     1
1070
     0
1002
{
1002
}
1000
DIMTAD
1070
     1
1070
     1
1002
{
1002
}
1000
DIMTIH
1070
     1
1070
     0
1002
{
1002
}
1000
DIMTIX
1070
     1
1070
     0
1002
{
1002
}
1000
DIMTOH
1070
     1
1070
     1
1002
{
1002
}
1000
DIMTOLJ
1070
     1
1070
     0
1002
{
1002
}
1000
DIMTOFL
1070
     1
1070
     0
1002
{
1002
}
1000
DIMUPT
1070
     1
1070
     1
1002
{
1002
}
1000
M
1070
     0
1002
{
1002
}
1000
I
1070
     0
1002
{
1002
}
1002
}
1000
GEN-ISO-RAD
1070
     5
1002
{
1000
NAME
1070
     4
1000
GEN-ISO$4
1002
{
1002
}
1000
DIMFIT
1070
     1
1070
     0
1002
{
1002
}
1000
DIMTAD
1070
     1
1070
     1
1002
{
1002
}
1000
DIMTIH
1070
     1
1070
     0
1002
{
1002
}
1000
DIMTIX
1070
     1
1070
     0
1002
{
1002
}
1000
DIMTOH
1070
     1
1070
     1
1002
{
1002
}
1000
DIMTOLJ
1070
     1
1070
     0
1002
{
1002
}
1000
DIMTOFL
1070
     1
1070
     0
1002
{
1002
}
1000
DIMUPT
1070
     1
1070
     1
1002
{
1002
}
1000
M
1070
     0
1002
{
1002
}
1000
I
1070
     0
1002
{
1002
}
1002
}
1000
GEN-ISO-ORD
1070
     5
1002
{
1000
NAME
1070
     4
1000
GEN-ISO$6
1002
{
1002
}
1000
DIMTOLJ
1070
     1
1070
     0
1002
{
1002
}
1000
M
1070
     0
1002
{
1002
}
1000
I
1070
     0
1002
{
1002
}
1002
}
1000
GEN-ISO-AXE-F
1070
     5
1002
{
1000
NAME
1070
     4
1000
GEN-ISO-AXE-F
1002
{
1002
}
1000
DIMSE1
1070
     1
1070
     1
1002
{
1002
}
1000
DIMSE2
1070
     1
1070
     1
1002
{
1002
}
1000
DIMTAD
1070
     1
1070
     1
1002
{
1002
}
1000
DIMTOLJ
1070
     1
1070
     0
1002
{
1002
}
1000
DIMTOFL
1070
     1
1070
     1
1002
{
1002
}
1000
M
1070
     0
1002
{
1002
}
1000
I
1070
     0
1002
{
1002
}
1002
}
1000
GEN-ISO-AXE-H
1070
     5
1002
{
1000
NAME
1070
     4
1000
GEN-ISO-AXE-H
1002
{
1002
}
1000
DIMBLK1
1070
     4
1000
GENAXEH
1002
{
1002
}
1000
DIMLFAC
1070
     2
1040
2.0
1002
{
1002
}
1000
DIMSAH
1070
     1
1070
     1
1002
{
1002
}
1000
DIMSE1
1070
     1
1070
     1
1002
{
1002
}
1000
DIMSE2
1070
     1
1070
     1
1002
{
1002
}
1000
DIMTAD
1070
     1
1070
     1
1002
{
1002
}
1000
DIMTOLJ
1070
     1
1070
     0
1002
{
1002
}
1000
DIMTOFL
1070
     1
1070
     1
1002
{
1002
}
1000
M
1070
     0
1002
{
1002
}
1000
I
1070
     0
1002
{
1002
}
1002
}
1000
GEN-ANSI
1070
     5
1002
{
1000
NAME
1070
     4
1000
GEN-ANSI
1002
{
1002
}
1000
DIMTIH
1070
     1
1070
     1
1002
{
1002
}
1000
DIMTOH
1070
     1
1070
     1
1002
{
1002
}
1000
DIMTAD
1070
     1
1070
     0
1002
{
1002
}
1000
DIMTOLJ
1070
     1
1070
     1
1002
{
1002
}
1000
M
1070
     0
1002
{
1002
}
1000
I
1070
     0
1002
{
1002
}
1002
}
1000
GEN-ANSI-POS
1070
     5
1002
{
1000
NAME
1070
     4
1000
GEN-ANSI-POS
1002
{
1002
}
1000
DIMTOLJ
1070
     1
1070
     1
1002
{
1002
}
1000
DIMTXSTY
1070
     4
1000
STANDARD
1002
{
1002
}
1000
M
1070
     0
1002
{
1000
DIMASZ
1070
     2
1040
2.5
1002
{
1002
}
1000
DIMGAP
1070
     2
1040
1.5
1002
{
1002
}
1000
DIMTXT
1070
     2
1040
5.0
1002
{
1002
}
1002
}
1000
I
1070
     0
1002
{
1000
DIMASZ
1070
     2
1040
0.1
1002
{
1002
}
1000
DIMGAP
1070
     2
1040
0.06
1002
{
1002
}
1000
DIMTXT
1070
     2
1040
0.2
1002
{
1002
}
1002
}
1002
}
1000
GEN-ANSI-CIR
1070
     5
1002
{
1000
NAME
1070
     4
1000
GEN-ANSI$3
1002
{
1002
}
1000
DIMFIT
1070
     1
1070
     0
1002
{
1002
}
1000
DIMTAD
1070
     1
1070
     0
1002
{
1002
}
1000
DIMTIH
1070
     1
1070
     1
1002
{
1002
}
1000
DIMTIX
1070
     1
1070
     0
1002
{
1002
}
1000
DIMTOFL
1070
     1
1070
     0
1002
{
1002
}
1000
DIMTOH
1070
     1
1070
     1
1002
{
1002
}
1000
DIMTOLJ
1070
     1
1070
     1
1002
{
1002
}
1000
DIMUPT
1070
     1
1070
     1
1002
{
1002
}
1000
M
1070
     0
1002
{
1002
}
1000
I
1070
     0
1002
{
1002
}
1002
}
1000
GEN-ANSI-RAD
1070
     5
1002
{
1000
NAME
1070
     4
1000
GEN-ANSI$4
1002
{
1002
}
1000
DIMFIT
1070
     1
1070
     0
1002
{
1002
}
1000
DIMTAD
1070
     1
1070
     0
1002
{
1002
}
1000
DIMTIH
1070
     1
1070
     1
1002
{
1002
}
1000
DIMTIX
1070
     1
1070
     0
1002
{
1002
}
1000
DIMTOFL
1070
     1
1070
     0
1002
{
1002
}
1000
DIMTOH
1070
     1
1070
     1
1002
{
1002
}
1000
DIMTOLJ
1070
     1
1070
     1
1002
{
1002
}
1000
DIMUPT
1070
     1
1070
     1
1002
{
1002
}
1000
M
1070
     0
1002
{
1002
}
1000
I
1070
     0
1002
{
1002
}
1002
}
1000
GEN-ANSI-ORD
1070
     5
1002
{
1000
NAME
1070
     4
1000
GEN-ANSI$6
1002
{
1002
}
1000
DIMTAD
1070
     1
1070
     0
1002
{
1002
}
1000
DIMTIH
1070
     1
1070
     1
1002
{
1002
}
1000
DIMTOH
1070
     1
1070
     1
1002
{
1002
}
1000
DIMTOLJ
1070
     1
1070
     1
1002
{
1002
}
1000
M
1070
     0
1002
{
1002
}
1000
I
1070
     0
1002
{
1002
}
1002
}
1000
GEN-ANSI-AXE-F
1070
     5
1002
{
1000
NAME
1070
     4
1000
GEN-ANSI-AXE-F
1002
{
1002
}
1000
DIMBLK1
1070
     4
1000
GENAXEH
1002
{
1002
}
1000
DIMSAH
1070
     1
1070
     1
1002
{
1002
}
1000
DIMSE1
1070
     1
1070
     1
1002
{
1002
}
1000
DIMSE2
1070
     1
1070
     1
1002
{
1002
}
1000
DIMTAD
1070
     1
1070
     0
1002
{
1002
}
1000
DIMTIH
1070
     1
1070
     1
1002
{
1002
}
1000
DIMTOH
1070
     1
1070
     1
1002
{
1002
}
1000
DIMTOLJ
1070
     1
1070
     1
1002
{
1002
}
1000
M
1070
     0
1002
{
1002
}
1000
I
1070
     0
1002
{
1002
}
1002
}
1000
GEN-ANSI-AXE-H
1070
     5
1002
{
1000
NAME
1070
     4
1000
GEN-ANSI-AXE-H
1002
{
1002
}
1000
DIMBLK1
1070
     4
1000
GENAXEH
1002
{
1002
}
1000
DIMLFAC
1070
     2
1040
2.0
1002
{
1002
}
1000
DIMSAH
1070
     1
1070
     1
1002
{
1002
}
1000
DIMSE1
1070
     1
1070
     1
1002
{
1002
}
1000
DIMSE2
1070
     1
1070
     1
1002
{
1002
}
1000
DIMTAD
1070
     1
1070
     0
1002
{
1002
}
1000
DIMTOFL
1070
     1
1070
     1
1002
{
1002
}
1000
DIMTOLJ
1070
     1
1070
     1
1002
{
1002
}
1000
M
1070
     0
1002
{
1002
}
1000
I
1070
     0
1002
{
1002
}
1002
}
1002
}
1000
DimSet
1070
     0
1002
{
1000
ChainSum
1070
     3
1070
     0
1002
{
1002
}
1000
DimDclTyp0
1070
     4
1000
dim23
1002
{
1002
}
1000
HorBra
1070
     3
1070
     0
1002
{
1002
}
1000
StrDia
1070
     4
1000
%%c<>
1002
{
1002
}
1000
StrRad
1070
     4
1000
R<>
1002
{
1002
}
1000
TextMinus
1070
     4
1000
<>
1002
{
1002
}
1000
TextPlus
1070
     4
1000
<>
1002
{
1002
}
1000
M
1070
     0
1002
{
1000
DimdliFirst
1070
     2
1040
12.0
1002
{
1002
}
1000
PointMakeDist
1070
     2
1040
10.0
1002
{
1002
}
1002
}
1000
I
1070
     0
1002
{
1000
DimdliFirst
1070
     2
1040
0.5
1002
{
1002
}
1000
PointMakeDist
1070
     2
1040
0.5
1002
{
1002
}
1002
}
1002
}
1000
Drawing
1070
     0
1002
{
1000
ChamferDimMode
1070
     1
1070
     2
1002
{
1002
}
1000
Gen_Fiso
1070
    -3
1040
1.0
1002
{
1002
}
1000
GenDimStil
1070
     4
1000
ISO
1002
{
1002
}
1000
GenDwgUScale
1070
     2
1040
1.0
1002
{
1002
}
1000
GenInch
1070
     4
1000
M
1002
{
1002
}
1000
GenPlotScale
1070
     4
1000
1:1
1002
{
1002
}
1000
Revisi
1070
     4
1000
0
1002
{
1002
}
1000
Version
1070
    -5
1000
14.01/May 26 1998
1002
{
1002
}
1000
Platform
1070
    -5
1000
WIN
1002
{
1002
}
1002
}
1000
DwgVar
1070
     0
1002
{
1000
M
1070
     0
1002
{
1002
}
1000
I
1070
     0
1002
{
1002
}
1002
}
1000
Hatch
1070
     0
1002
{
1000
GenHtcFlag
1070
     3
1070
     0
1002
{
1002
}
1002
}
1000
Info_Pos
1070
     0
1002
{
1000
>
1002
}
1000
Layer
1070
     6
1002
{
1000
Defs
1070
     0
1002
{
1000
>
1002
}
1000
EntSort
1070
     0
1002
{
1000
>
1002
}
1000
Match
1070
     0
1002
{
1002
}
1000
Settings
1070
     0
1002
{
1000
FocGrNC
1070
     3
1070
     1
1002
{
1002
}
1000
FocGrLo
1070
     3
1070
     0
1002
{
1002
}
1000
FocLoNC
1070
     3
1070
     0
1002
{
1002
}
1000
FocusCol
1070
     1
1070
     6
1002
{
1002
}
1000
GenStdLG
1070
     4
1000

1002
{
1002
}
1000
LayMatch
1070
     3
1070
     0
1002
{
1002
}
1000
LgOff
1070
     3
1070
     0
1002
{
1002
}
1000
CurLG
1070
    -5
1000

1002
{
1002
}
1002
}
1002
}
1000
LType
1070
     0
1002
{
1000
GEN3
1070
     7
1000
genius.lin
1002
{
1002
}
1000
GEN7
1070
     7
1000
genius.lin
1002
{
1002
}
1000
GEN4A
1070
     7
1000
genius.lin
1002
{
1002
}
1000
GEN3A
1070
     7
1000
genius.lin
1002
{
1002
}
1000
GEN7A
1070
     7
1000
genius.lin
1002
{
1002
}
1000
GENZIGZAG
1070
     7
1000
genius.lin
1002
{
1002
}
1002
}
1000
Objecter
1070
     0
1002
{
1000
CreateGroups
1070
     3
1070
     0
1002
{
1002
}
1000
LaySwitch
1070
     3
1070
     1
1002
{
1002
}
1000
LastObj
1070
    -5
1000
14352
1002
{
1002
}
1000
TimeStamp
1070
    -5
1000
20000211.08083274
1002
{
1002
}
1002
}
1000
OSWiz
1070
     0
1002
{
1000
Filter
1070
     0
1002
{
1000
HATCH
1070
     8
1002
{
1000
EntityType
1070
     4
1000
LINE
1002
{
1002
}
1000
Layer
1070
     4
1000
8,8N,*-8,*-8N
1002
{
1002
}
1000
Linetype
1070
     4
1000
*
1002
{
1002
}
1000
Color
1070
     4
1000
*
1002
{
1002
}
1000
ApplyInDims
1070
     3
1070
     1
1002
{
1002
}
1002
}
1000
SYMBOLS
1070
     8
1002
{
1000
EntityType
1070
     4
1000
*
1002
{
1002
}
1000
Layer
1070
     4
1000
[5-6],[5-6]N,*-[5-6],*-[5-6]N
1002
{
1002
}
1000
Linetype
1070
     4
1000
*
1002
{
1002
}
1000
Color
1070
     4
1000
*
1002
{
1002
}
1000
ApplyInDims
1070
     3
1070
     1
1002
{
1002
}
1002
}
1000
FEM
1070
     8
1002
{
1000
EntityType
1070
     4
1000
*
1002
{
1002
}
1000
Layer
1070
     4
1000
4A,4AN,*-4A,*-4AN
1002
{
1002
}
1000
Linetype
1070
     4
1000
*
1002
{
1002
}
1000
Color
1070
     4
1000
*
1002
{
1002
}
1000
ApplyInDims
1070
     3
1070
     1
1002
{
1002
}
1002
}
1002
}
1002
}
1000
PaList
1070
     0
1002
{
1000
AutoUpdatePartList
1070
     1
1070
     0
1002
{
1002
}
1000
ReadInfoPoint
1070
     3
1070
     0
1002
{
1002
}
1000
ReadPosNr
1070
     3
1070
     1
1002
{
1002
}
1000
RevStr
1070
     4
1000
0
1002
{
1002
}
1002
}
1000
Paper
1070
     0
1002
{
1000
Layer
1070
    -5
1000
KLIN,KLIN,KLIN,KLIN,KLIN,KLIN,3A,KLIN,KLIN,KLIN,KLIN,KLIN,3A,5
1002
{
1002
}
1002
}
1000
PartDB
1070
     0
1002
{
1000
GenDbOwner
1070
     4
1000

1002
{
1002
}
1002
}
1000
System
1070
     0
1002
{
1000
Menu
1070
     4
1000
GEV
1002
{
1002
}
1000
GenGlobCheck
1070
     1
1070
     7
1002
{
1002
}
1002
}
1000
Title
1070
     0
1002
{
1000
MakeView
1070
     1
1070
     2
1002
{
1002
}
1002
}
1000
Tools
1070
     0
1002
{
1000
Trans
1070
     0
1002
{
1000
Drawingtranslation
1070
    -4
1070
     1
1002
{
1002
}
1000
upreserve
1070
     3
1070
     0
1002
{
1002
}
1000
originally_on
1070
    -4
1070
     0
1002
{
1002
}
1000
sourcelang
1070
    -5
1000
I
1002
{
1002
}
1002
}
1002
}
  0
APPID
  5
1840
330
15
100
AcDbSymbolTableRecord
100
AcDbRegAppTableRecord
  2
GENIUS_GEVCFG0_13
 70
     0
1001
GENIUS_GENCFG_13
1071
950252878
1000
1840
1000
GEV
1070
     1
1000
GenCfgObject
1000
VED
1070
     0
1002
{
1002
}
  0
APPID
  5
1843
330
15
100
AcDbSymbolTableRecord
100
AcDbRegAppTableRecord
  2
GENIUS_GENOENT_13
 70
     0
  0
APPID
  5
18D3
330
15
100
AcDbSymbolTableRecord
100
AcDbRegAppTableRecord
  2
GEV_VCCNULL_SWITCH_OFF
 70
     0
  0
APPID
  5
18DF
330
15
100
AcDbSymbolTableRecord
100
AcDbRegAppTableRecord
  2
GENIUS_GENDTOL_13
 70
     0
  0
APPID
  5
1CEC
330
15
100
AcDbSymbolTableRecord
100
AcDbRegAppTableRecord
  2
GENIUS_GENREC_14
 70
     0
  0
APPID
  5
1CED
330
15
100
AcDbSymbolTableRecord
100
AcDbRegAppTableRecord
  2
GENIUS_GENODEF_13
 70
     0
  0
APPID
  5
1CEE
330
15
100
AcDbSymbolTableRecord
100
AcDbRegAppTableRecord
  2
GENIUS_GENOBJ-N-REC_13
 70
     0
  0
APPID
  5
1D19
330
15
100
AcDbSymbolTableRecord
100
AcDbRegAppTableRecord
  2
GENIUS_GEFCFG0_13
 70
     0
1001
GENIUS_GENCFG_13
1071
945871596
1000
1D19
1000
GEF
1070
     5
1000
GenCfgObject
1000
GenCfgString
1000
GenCfgReal
1000
GenCfgShort
1000
GenCfgBool
1000
System
1070
     0
1002
{
1002
}
1000
Prese
1070
     0
1002
{
1000
Funk
1070
     1
1000

1002
{
1002
}
1000
FunkDef
1070
     1
1000

1002
{
1002
}
1000
GefIso
1070
     1
1000
DIN
1002
{
1002
}
1002
}
1000
FEM
1070
     0
1002
{
1000
LayGroup
1070
     1
1000
FEM
1002
{
1002
}
1000
IncrCoef
1070
     2
1040
0.0
1002
{
1002
}
1002
}
1000
Shaft
1070
     0
1002
{
1000
Interrupt
1070
     3
1070
     0
1002
{
1002
}
1002
}
1000
PartDb
1070
     0
1002
{
1000
PartCreate
1070
     0
1002
{
1002
}
1000
SCP
1070
     0
1002
{
1002
}
1000
Symbol
1070
     0
1002
{
1002
}
1002
}
1000
Symbol
1070
     0
1002
{
1000
WeldStyle
1070
     1
1000
ISO
1002
{
1002
}
1000
WeldSize
1070
     2
1040
1.0
1002
{
1002
}
1000
WeldFlag
1070
     4
1070
     1
1002
{
1002
}
1000
WeldOffset
1070
     4
1070
     1
1002
{
1002
}
1000
TolCType
1070
     1
1000
ISO
1002
{
1002
}
1000
TolCSize
1070
     2
1040
1.0
1002
{
1002
}
1000
STextureSize
1070
     2
1040
1.0
1002
{
1002
}
1000
SurfaceType
1070
     1
1000

1002
{
1002
}
1000
M
1070
     0
1002
{
1000
WeldWidth
1070
     2
1040
3.0
1002
{
1002
}
1002
}
1000
I
1070
     0
1002
{
1000
WeldWidth
1070
     2
1040
0.125
1002
{
1002
}
1002
}
1002
}
  0
APPID
  5
1F99
330
15
100
AcDbSymbolTableRecord
100
AcDbRegAppTableRecord
  2
GENIUS_GENOBJ-N-TIT_13
 70
     0
  0
APPID
  5
1F9A
330
15
100
AcDbSymbolTableRecord
100
AcDbRegAppTableRecord
  2
GENIUS_GENTITLE_13
 70
     0
  0
APPID
  5
1F9B
330
15
100
AcDbSymbolTableRecord
100
AcDbRegAppTableRecord
  2
GENIUS_GENOREF_13
 70
     0
  0
APPID
  5
1F9C
330
15
100
AcDbSymbolTableRecord
100
AcDbRegAppTableRecord
  2
GENIUS_GENOLIS_13
 70
     0
  0
APPID
  5
1F9D
330
15
100
AcDbSymbolTableRecord
100
AcDbRegAppTableRecord
  2
GENIUS_GENZVEED_13
 70
     0
  0
APPID
  5
1F9E
330
15
100
AcDbSymbolTableRecord
100
AcDbRegAppTableRecord
  2
GENIUS_GENOBJ-N-SDF_13
 70
     0
  0
APPID
  5
1F9F
330
15
100
AcDbSymbolTableRecord
100
AcDbRegAppTableRecord
  2
GENIUS_GENSCREG_13
 70
     0
  0
APPID
  5
3F06
330
15
100
AcDbSymbolTableRecord
100
AcDbRegAppTableRecord
  2
AME_SOL
 70
     0
  0
APPID
  5
3F07
330
15
100
AcDbSymbolTableRecord
100
AcDbRegAppTableRecord
  2
GENIUS_GENOBJ-N-CEN_13
 70
     0
  0
APPID
  5
3F08
330
15
100
AcDbSymbolTableRecord
100
AcDbRegAppTableRecord
  2
ASM_EXPLO_PROJECT
 70
     0
  0
APPID
  5
3F09
330
15
100
AcDbSymbolTableRecord
100
AcDbRegAppTableRecord
  2
ASM_EXPLO_PROJECT_BASE
 70
     0
  0
APPID
  5
3F0A
330
15
100
AcDbSymbolTableRecord
100
AcDbRegAppTableRecord
  2
ASM_EXPLO_FILLET
 70
     0
  0
APPID
  5
3F0B
330
15
100
AcDbSymbolTableRecord
100
AcDbRegAppTableRecord
  2
ASM_EXPLO_FOR_FILLET
 70
     0
  0
APPID
  5
3F0C
330
15
100
AcDbSymbolTableRecord
100
AcDbRegAppTableRecord
  2
ASM
 70
     0
  0
APPID
  5
3F0D
330
15
100
AcDbSymbolTableRecord
100
AcDbRegAppTableRecord
  2
GENIUS_GENDREL_13
 70
     0
  0
APPID
  5
3F0E
330
15
100
AcDbSymbolTableRecord
100
AcDbRegAppTableRecord
  2
GENIUS_GENOBJ-N-FIL_13
 70
     0
  0
APPID
  5
3F0F
330
15
100
AcDbSymbolTableRecord
100
AcDbRegAppTableRecord
  2
GENIUS_GENOBJ-F-SUF_13
 70
     0
  0
APPID
  5
3F10
330
15
100
AcDbSymbolTableRecord
100
AcDbRegAppTableRecord
  2
GENIUS_GENOBJ-F-SUL_13
 70
     0
  0
APPID
  5
3F11
330
15
100
AcDbSymbolTableRecord
100
AcDbRegAppTableRecord
  2
GENIUS_GENOBJ-N-SEC_13
 70
     0
  0
APPID
  5
3F12
330
15
100
AcDbSymbolTableRecord
100
AcDbRegAppTableRecord
  2
GENIUS_GENOBJ-N-HTC_13
 70
     0
  0
APPID
  5
3F13
330
15
100
AcDbSymbolTableRecord
100
AcDbRegAppTableRecord
  2
GENIUS_GENHATCH_13
 70
     0
  0
APPID
  5
3F14
330
15
100
AcDbSymbolTableRecord
100
AcDbRegAppTableRecord
  2
GENIUS_GENBH_13
 70
     0
  0
APPID
  5
3F15
330
15
100
AcDbSymbolTableRecord
100
AcDbRegAppTableRecord
  2
GENIUS_GENOBJ-NBEHI-BHF_13
 70
     0
  0
APPID
  5
3F16
330
15
100
AcDbSymbolTableRecord
100
AcDbRegAppTableRecord
  2
GENIUS_GENOBJ-NBEHI-BHB_13
 70
     0
  0
APPID
  5
3F17
330
15
100
AcDbSymbolTableRecord
100
AcDbRegAppTableRecord
  2
GEVID919184144
 70
     0
  0
APPID
  5
3F18
330
15
100
AcDbSymbolTableRecord
100
AcDbRegAppTableRecord
  2
GEVDC
 70
     0
  0
APPID
  5
3F19
330
15
100
AcDbSymbolTableRecord
100
AcDbRegAppTableRecord
  2
GEVCON
 70
     0
  0
APPID
  5
3F1A
330
15
100
AcDbSymbolTableRecord
100
AcDbRegAppTableRecord
  2
VCC
 70
     0
  0
APPID
  5
3F1B
330
15
100
AcDbSymbolTableRecord
100
AcDbRegAppTableRecord
  2
GEVPT
 70
     0
  0
APPID
  5
3F1C
330
15
100
AcDbSymbolTableRecord
100
AcDbRegAppTableRecord
  2
GEVIT
 70
     0
  0
APPID
  5
3F1D
330
15
100
AcDbSymbolTableRecord
100
AcDbRegAppTableRecord
  2
GENBH
 70
     0
  0
APPID
  5
3F1E
330
15
100
AcDbSymbolTableRecord
100
AcDbRegAppTableRecord
  2
GEVMK
 70
     0
  0
APPID
  5
3F1F
330
15
100
AcDbSymbolTableRecord
100
AcDbRegAppTableRecord
  2
GENIUS_GENOBJ-F-DESC_13
 70
     0
  0
APPID
  5
3F20
330
15
100
AcDbSymbolTableRecord
100
AcDbRegAppTableRecord
  2
GENIUS_GEFDESC_14
 70
     0
  0
APPID
  5
3F21
330
15
100
AcDbSymbolTableRecord
100
AcDbRegAppTableRecord
  2
GENIUS_GENOBJ-F-PART_13
 70
     0
  0
APPID
  5
3F22
330
15
100
AcDbSymbolTableRecord
100
AcDbRegAppTableRecord
  2
GENIUS_GEFSTDP_13
 70
     0
  0
APPID
  5
3F23
330
15
100
AcDbSymbolTableRecord
100
AcDbRegAppTableRecord
  2
GENIUS_GEFPARTINS_13
 70
     0
  0
APPID
  5
3F24
330
15
100
AcDbSymbolTableRecord
100
AcDbRegAppTableRecord
  2
GENIUS_GENTRA_14
 70
     0
  0
APPID
  5
3F25
330
15
100
AcDbSymbolTableRecord
100
AcDbRegAppTableRecord
  2
GENIUS_GENINF13_13
 70
     0
  0
APPID
  5
3F26
330
15
100
AcDbSymbolTableRecord
100
AcDbRegAppTableRecord
  2
GENIUS_GENOBJ-N-INFOPT_13
 70
     0
  0
APPID
  5
3F27
330
15
100
AcDbSymbolTableRecord
100
AcDbRegAppTableRecord
  2
GENIUS_GENOBJ-N-RSSYM_13
 70
     0
  0
APPID
  5
3F28
330
15
100
AcDbSymbolTableRecord
100
AcDbRegAppTableRecord
  2
GENIUS_GENSYMENT_13
 70
     0
  0
APPID
  5
3F29
330
15
100
AcDbSymbolTableRecord
100
AcDbRegAppTableRecord
  2
GENIUS_GENSCSYM_13
 70
     0
  0
APPID
  5
3F2A
330
15
100
AcDbSymbolTableRecord
100
AcDbRegAppTableRecord
  2
GENIUS_GEFINFNAM_13
 70
     0
  0
APPID
  5
3F2B
330
15
100
AcDbSymbolTableRecord
100
AcDbRegAppTableRecord
  2
GEVID919184145
 70
     0
  0
APPID
  5
3F2C
330
15
100
AcDbSymbolTableRecord
100
AcDbRegAppTableRecord
  2
GEVID919184146
 70
     0
  0
APPID
  5
3F2D
330
15
100
AcDbSymbolTableRecord
100
AcDbRegAppTableRecord
  2
GEVID919184147
 70
     0
  0
APPID
  5
3F2E
330
15
100
AcDbSymbolTableRecord
100
AcDbRegAppTableRecord
  2
GEVID919184148
 70
     0
  0
APPID
  5
3F2F
330
15
100
AcDbSymbolTableRecord
100
AcDbRegAppTableRecord
  2
GEVID919185332
 70
     0
  0
APPID
  5
3F30
330
15
100
AcDbSymbolTableRecord
100
AcDbRegAppTableRecord
  2
GEVID919186210
 70
     0
  0
APPID
  5
3F31
330
15
100
AcDbSymbolTableRecord
100
AcDbRegAppTableRecord
  2
GEVID919236534
 70
     0
  0
APPID
  5
3F32
330
15
100
AcDbSymbolTableRecord
100
AcDbRegAppTableRecord
  2
GEVID919236535
 70
     0
  0
APPID
  5
3F33
330
15
100
AcDbSymbolTableRecord
100
AcDbRegAppTableRecord
  2
GEVID919240341
 70
     0
  0
APPID
  5
3F34
330
15
100
AcDbSymbolTableRecord
100
AcDbRegAppTableRecord
  2
GEVID919240342
 70
     0
  0
APPID
  5
3F35
330
15
100
AcDbSymbolTableRecord
100
AcDbRegAppTableRecord
  2
GEVID919240343
 70
     0
  0
APPID
  5
3F36
330
15
100
AcDbSymbolTableRecord
100
AcDbRegAppTableRecord
  2
GEVID919240344
 70
     0
  0
APPID
  5
3F37
330
15
100
AcDbSymbolTableRecord
100
AcDbRegAppTableRecord
  2
GENIUS_GENOBJ-F-SHCL_13
 70
     0
  0
APPID
  5
3F38
330
15
100
AcDbSymbolTableRecord
100
AcDbRegAppTableRecord
  2
GENIUS_GEFMSH_13
 70
     0
  0
APPID
  5
3F39
330
15
100
AcDbSymbolTableRecord
100
AcDbRegAppTableRecord
  2
GENIUS_GEFSH_13
 70
     0
  0
APPID
  5
3F3A
330
15
100
AcDbSymbolTableRecord
100
AcDbRegAppTableRecord
  2
GENIUS_GEFSHP_13
 70
     0
  0
APPID
  5
3F3B
330
15
100
AcDbSymbolTableRecord
100
AcDbRegAppTableRecord
  2
GENIUS_GENOBJ-F-SHS_13
 70
     0
  0
APPID
  5
3F3C
330
15
100
AcDbSymbolTableRecord
100
AcDbRegAppTableRecord
  2
GENIUS_GENOBJ-F-SHSS_13
 70
     0
  0
APPID
  5
3F3D
330
15
100
AcDbSymbolTableRecord
100
AcDbRegAppTableRecord
  2
GEVID919243987
 70
     0
  0
APPID
  5
3F3E
330
15
100
AcDbSymbolTableRecord
100
AcDbRegAppTableRecord
  2
GEVID919243988
 70
     0
  0
APPID
  5
3F3F
330
15
100
AcDbSymbolTableRecord
100
AcDbRegAppTableRecord
  2
GEVID919243989
 70
     0
  0
APPID
  5
3F40
330
15
100
AcDbSymbolTableRecord
100
AcDbRegAppTableRecord
  2
GEVID919243990
 70
     0
  0
APPID
  5
3F41
330
15
100
AcDbSymbolTableRecord
100
AcDbRegAppTableRecord
  2
GEVID919243991
 70
     0
  0
APPID
  5
3F42
330
15
100
AcDbSymbolTableRecord
100
AcDbRegAppTableRecord
  2
GEVID919266371
 70
     0
  0
APPID
  5
3F43
330
15
100
AcDbSymbolTableRecord
100
AcDbRegAppTableRecord
  2
GEVID919243992
 70
     0
  0
APPID
  5
3F44
330
15
100
AcDbSymbolTableRecord
100
AcDbRegAppTableRecord
  2
GEVID919243993
 70
     0
  0
APPID
  5
3F45
330
15
100
AcDbSymbolTableRecord
100
AcDbRegAppTableRecord
  2
GEVID919243994
 70
     0
  0
APPID
  5
3F46
330
15
100
AcDbSymbolTableRecord
100
AcDbRegAppTableRecord
  2
GEVID919271867
 70
     0
  0
APPID
  5
3F47
330
15
100
AcDbSymbolTableRecord
100
AcDbRegAppTableRecord
  2
GEVID919271870
 70
     0
  0
APPID
  5
3F48
330
15
100
AcDbSymbolTableRecord
100
AcDbRegAppTableRecord
  2
GEVID919271881
 70
     0
  0
APPID
  5
3F49
330
15
100
AcDbSymbolTableRecord
100
AcDbRegAppTableRecord
  2
GEVID919271882
 70
     0
  0
APPID
  5
3F4A
330
15
100
AcDbSymbolTableRecord
100
AcDbRegAppTableRecord
  2
GEVID919271883
 70
     0
  0
APPID
  5
3F4B
330
15
100
AcDbSymbolTableRecord
100
AcDbRegAppTableRecord
  2
GEVID919271884
 70
     0
  0
APPID
  5
3F4C
330
15
100
AcDbSymbolTableRecord
100
AcDbRegAppTableRecord
  2
GEVID919271885
 70
     0
  0
APPID
  5
3F4D
330
15
100
AcDbSymbolTableRecord
100
AcDbRegAppTableRecord
  2
GEVID919271886
 70
     0
  0
APPID
  5
3F4E
330
15
100
AcDbSymbolTableRecord
100
AcDbRegAppTableRecord
  2
GEVID919271887
 70
     0
  0
APPID
  5
3F4F
330
15
100
AcDbSymbolTableRecord
100
AcDbRegAppTableRecord
  2
GEVID919271888
 70
     0
  0
APPID
  5
3F50
330
15
100
AcDbSymbolTableRecord
100
AcDbRegAppTableRecord
  2
GEVID919271889
 70
     0
  0
APPID
  5
3F51
330
15
100
AcDbSymbolTableRecord
100
AcDbRegAppTableRecord
  2
GEVID910617597
 70
     0
  0
APPID
  5
3F52
330
15
100
AcDbSymbolTableRecord
100
AcDbRegAppTableRecord
  2
GENIUS_GENOBJ-F-FEAT_13
 70
     0
  0
APPID
  5
3F53
330
15
100
AcDbSymbolTableRecord
100
AcDbRegAppTableRecord
  2
GENIUS_GEFFEAT_14
 70
     0
  0
APPID
  5
3F54
330
15
100
AcDbSymbolTableRecord
100
AcDbRegAppTableRecord
  2
GENIUS_GENOBJ-N-CRS_13
 70
     0
  0
APPID
  5
3F55
330
15
100
AcDbSymbolTableRecord
100
AcDbRegAppTableRecord
  2
GEVID910617598
 70
     0
  0
APPID
  5
3F56
330
15
100
AcDbSymbolTableRecord
100
AcDbRegAppTableRecord
  2
GENIUS_GENHINW_13
 70
     0
  0
APPID
  5
3F57
330
15
100
AcDbSymbolTableRecord
100
AcDbRegAppTableRecord
  2
GENIUS_FIRSTVISTXT_14
 70
     0
  0
APPID
  5
3F58
330
15
100
AcDbSymbolTableRecord
100
AcDbRegAppTableRecord
  2
GENIUS_GENOBJ-N-LEADER_13
 70
     0
  0
APPID
  5
3F59
330
15
100
AcDbSymbolTableRecord
100
AcDbRegAppTableRecord
  2
GEVID918830714
 70
     0
  0
APPID
  5
3F5A
330
15
100
AcDbSymbolTableRecord
100
AcDbRegAppTableRecord
  2
GENIUS_GENBH_14
 70
     0
  0
APPID
  5
3F5B
330
15
100
AcDbSymbolTableRecord
100
AcDbRegAppTableRecord
  2
GENIUS_GENFIL_13
 70
     0
  0
APPID
  5
3F5C
330
15
100
AcDbSymbolTableRecord
100
AcDbRegAppTableRecord
  2
GENIUS_GENOBJ-N-CHA_13
 70
     0
  0
APPID
  5
3F5D
330
15
100
AcDbSymbolTableRecord
100
AcDbRegAppTableRecord
  2
GEVID918830715
 70
     0
  0
APPID
  5
3F5E
330
15
100
AcDbSymbolTableRecord
100
AcDbRegAppTableRecord
  2
GENIUS_GENDIM_13
 70
     0
  0
APPID
  5
3F5F
330
15
100
AcDbSymbolTableRecord
100
AcDbRegAppTableRecord
  2
GENIUS_GENOBJ-N-DIS_13
 70
     0
  0
APPID
  5
3F60
330
15
100
AcDbSymbolTableRecord
100
AcDbRegAppTableRecord
  2
GENIUS_GENDIMSH_14
 70
     0
  0
APPID
  5
3F61
330
15
100
AcDbSymbolTableRecord
100
AcDbRegAppTableRecord
  2
GENIUS_GENOBJ-N-DIM_13
 70
     0
  0
APPID
  5
3F62
330
15
100
AcDbSymbolTableRecord
100
AcDbRegAppTableRecord
  2
GEVID919088539
 70
     0
  0
APPID
  5
3F63
330
15
100
AcDbSymbolTableRecord
100
AcDbRegAppTableRecord
  2
GEVID919088540
 70
     0
  0
APPID
  5
3F64
330
15
100
AcDbSymbolTableRecord
100
AcDbRegAppTableRecord
  2
GEVID919088542
 70
     0
  0
APPID
  5
3F65
330
15
100
AcDbSymbolTableRecord
100
AcDbRegAppTableRecord
  2
GEVID919088543
 70
     0
  0
APPID
  5
3F66
330
15
100
AcDbSymbolTableRecord
100
AcDbRegAppTableRecord
  2
GEVID919088544
 70
     0
  0
APPID
  5
3F67
330
15
100
AcDbSymbolTableRecord
100
AcDbRegAppTableRecord
  2
GEVID919088545
 70
     0
  0
APPID
  5
3F68
330
15
100
AcDbSymbolTableRecord
100
AcDbRegAppTableRecord
  2
GEVID919088546
 70
     0
  0
APPID
  5
3F69
330
15
100
AcDbSymbolTableRecord
100
AcDbRegAppTableRecord
  2
GEVID919324356
 70
     0
  0
APPID
  5
3F6A
330
15
100
AcDbSymbolTableRecord
100
AcDbRegAppTableRecord
  2
GEVID919088547
 70
     0
  0
APPID
  5
3F6B
330
15
100
AcDbSymbolTableRecord
100
AcDbRegAppTableRecord
  2
GEVID928918755
 70
     0
  0
APPID
  5
3F6C
330
15
100
AcDbSymbolTableRecord
100
AcDbRegAppTableRecord
  2
GEVID928918786
 70
     0
  0
APPID
  5
3F6D
330
15
100
AcDbSymbolTableRecord
100
AcDbRegAppTableRecord
  2
GEVID928918919
 70
     0
  0
APPID
  5
3F6E
330
15
100
AcDbSymbolTableRecord
100
AcDbRegAppTableRecord
  2
GEVID928918943
 70
     0
  0
APPID
  5
3F6F
330
15
100
AcDbSymbolTableRecord
100
AcDbRegAppTableRecord
  2
GEVID940325432
 70
     0
  0
APPID
  5
3F70
330
15
100
AcDbSymbolTableRecord
100
AcDbRegAppTableRecord
  2
GENIUS_GEFWELD_13
 70
     0
  0
APPID
  5
3F71
330
15
100
AcDbSymbolTableRecord
100
AcDbRegAppTableRecord
  2
GENIUS_GENOBJ-F-WELS_13
 70
     0
  0
APPID
  5
3F72
330
15
100
AcDbSymbolTableRecord
100
AcDbRegAppTableRecord
  2
GEVID927807498
 70
     0
  0
APPID
  5
3F73
330
15
100
AcDbSymbolTableRecord
100
AcDbRegAppTableRecord
  2
GEVID930154407
 70
     0
  0
APPID
  5
3F74
330
15
100
AcDbSymbolTableRecord
100
AcDbRegAppTableRecord
  2
GEVID930207636
 70
     0
  0
APPID
  5
3F75
330
15
100
AcDbSymbolTableRecord
100
AcDbRegAppTableRecord
  2
GEVID937560397
 70
     0
  0
APPID
  5
3F76
330
15
100
AcDbSymbolTableRecord
100
AcDbRegAppTableRecord
  2
GEVID940325603
 70
     0
  0
APPID
  5
3F77
330
15
100
AcDbSymbolTableRecord
100
AcDbRegAppTableRecord
  2
GEVID940325604
 70
     0
  0
APPID
  5
3F78
330
15
100
AcDbSymbolTableRecord
100
AcDbRegAppTableRecord
  2
GEVID940325607
 70
     0
  0
APPID
  5
3F79
330
15
100
AcDbSymbolTableRecord
100
AcDbRegAppTableRecord
  2
GEVID940325631
 70
     0
  0
APPID
  5
3F7A
330
15
100
AcDbSymbolTableRecord
100
AcDbRegAppTableRecord
  2
GEVID940325632
 70
     0
  0
APPID
  5
3F7B
330
15
100
AcDbSymbolTableRecord
100
AcDbRegAppTableRecord
  2
GEVID940325633
 70
     0
  0
APPID
  5
3F7C
330
15
100
AcDbSymbolTableRecord
100
AcDbRegAppTableRecord
  2
GEVID943435734
 70
     0
  0
APPID
  5
3F7D
330
15
100
AcDbSymbolTableRecord
100
AcDbRegAppTableRecord
  2
GEVID943435735
 70
     0
  0
APPID
  5
3F7E
330
15
100
AcDbSymbolTableRecord
100
AcDbRegAppTableRecord
  2
GEVID910782132
 70
     0
  0
APPID
  5
3F7F
330
15
100
AcDbSymbolTableRecord
100
AcDbRegAppTableRecord
  2
GEVID910782133
 70
     0
  0
APPID
  5
3F80
330
15
100
AcDbSymbolTableRecord
100
AcDbRegAppTableRecord
  2
GEVID910782135
 70
     0
  0
APPID
  5
3F81
330
15
100
AcDbSymbolTableRecord
100
AcDbRegAppTableRecord
  2
GEVID910782136
 70
     0
  0
APPID
  5
3F82
330
15
100
AcDbSymbolTableRecord
100
AcDbRegAppTableRecord
  2
GEVID910782137
 70
     0
  0
APPID
  5
3F83
330
15
100
AcDbSymbolTableRecord
100
AcDbRegAppTableRecord
  2
GEVID910780395
 70
     0
  0
APPID
  5
3F84
330
15
100
AcDbSymbolTableRecord
100
AcDbRegAppTableRecord
  2
GEVID910780396
 70
     0
  0
APPID
  5
3F85
330
15
100
AcDbSymbolTableRecord
100
AcDbRegAppTableRecord
  2
GEVID910780397
 70
     0
  0
APPID
  5
3F86
330
15
100
AcDbSymbolTableRecord
100
AcDbRegAppTableRecord
  2
GEVID910780398
 70
     0
  0
APPID
  5
3F87
330
15
100
AcDbSymbolTableRecord
100
AcDbRegAppTableRecord
  2
GEVID910780399
 70
     0
  0
APPID
  5
3F88
330
15
100
AcDbSymbolTableRecord
100
AcDbRegAppTableRecord
  2
GEVID910780400
 70
     0
  0
APPID
  5
3F89
330
15
100
AcDbSymbolTableRecord
100
AcDbRegAppTableRecord
  2
GEVID910780401
 70
     0
  0
APPID
  5
3F8A
330
15
100
AcDbSymbolTableRecord
100
AcDbRegAppTableRecord
  2
GEVID910780403
 70
     0
  0
APPID
  5
3F8B
330
15
100
AcDbSymbolTableRecord
100
AcDbRegAppTableRecord
  2
GEVID910782126
 70
     0
  0
APPID
  5
3F8C
330
15
100
AcDbSymbolTableRecord
100
AcDbRegAppTableRecord
  2
GEVID910782205
 70
     0
  0
APPID
  5
3F8D
330
15
100
AcDbSymbolTableRecord
100
AcDbRegAppTableRecord
  2
GEVID910782127
 70
     0
  0
APPID
  5
3F8E
330
15
100
AcDbSymbolTableRecord
100
AcDbRegAppTableRecord
  2
GEVID910782128
 70
     0
  0
APPID
  5
3F8F
330
15
100
AcDbSymbolTableRecord
100
AcDbRegAppTableRecord
  2
GEVID910782129
 70
     0
  0
APPID
  5
3F90
330
15
100
AcDbSymbolTableRecord
100
AcDbRegAppTableRecord
  2
GEVID910782130
 70
     0
  0
APPID
  5
3F91
330
15
100
AcDbSymbolTableRecord
100
AcDbRegAppTableRecord
  2
GEVID910782131
 70
     0
  0
APPID
  5
3F92
330
15
100
AcDbSymbolTableRecord
100
AcDbRegAppTableRecord
  2
GENIUS_GENBLKED_14
 70
     0
  0
APPID
  5
3F93
330
15
100
AcDbSymbolTableRecord
100
AcDbRegAppTableRecord
  2
GENIUS_DUMCFG0_13
 70
     0
  0
APPID
  5
E0CF
330
15
100
AcDbSymbolTableRecord
100
AcDbRegAppTableRecord
  2
GEVID913620478
 70
     0
  0
APPID
  5
E0D0
330
15
100
AcDbSymbolTableRecord
100
AcDbRegAppTableRecord
  2
GENIUS_GENBHRL_14
 70
     0
  0
APPID
  5
E0D1
330
15
100
AcDbSymbolTableRecord
100
AcDbRegAppTableRecord
  2
GENIUS_GENOBJ-N-ZOO_13
 70
     0
  0
APPID
  5
E0D2
330
15
100
AcDbSymbolTableRecord
100
AcDbRegAppTableRecord
  2
GENIUS_GENZOO_13
 70
     0
  0
APPID
  5
137D9
330
15
100
AcDbSymbolTableRecord
100
AcDbRegAppTableRecord
  2
GEVID918481383
 70
     0
  0
APPID
  5
137DA
330
15
100
AcDbSymbolTableRecord
100
AcDbRegAppTableRecord
  2
GEVRADREF
 70
     0
  0
APPID
  5
13BBB
330
15
100
AcDbSymbolTableRecord
100
AcDbRegAppTableRecord
  2
GEVID945699651
 70
     0
  0
APPID
  5
13CFC
330
15
100
AcDbSymbolTableRecord
100
AcDbRegAppTableRecord
  2
GEVID918481384
 70
     0
  0
APPID
  5
140FC
330
15
100
AcDbSymbolTableRecord
100
AcDbRegAppTableRecord
  2
GEVID945699684
 70
     0
  0
APPID
  5
1429F
330
15
100
AcDbSymbolTableRecord
100
AcDbRegAppTableRecord
  2
GEVID945699793
 70
     0
  0
APPID
  5
143E9
330
15
100
AcDbSymbolTableRecord
100
AcDbRegAppTableRecord
  2
GEVID945699873
 70
     0
  0
APPID
  5
180D7
330
15
100
AcDbSymbolTableRecord
100
AcDbRegAppTableRecord
  2
MCAD_NO_VIS
 70
     0
  0
APPID
  5
180D8
330
15
100
AcDbSymbolTableRecord
100
AcDbRegAppTableRecord
  2
ACAD_TEMP_GRAPHIC
 70
     0
  0
APPID
  5
180D9
330
15
100
AcDbSymbolTableRecord
100
AcDbRegAppTableRecord
  2
ACATTRIBSERVICES
 70
     0
  0
APPID
  5
180DA
330
15
100
AcDbSymbolTableRecord
100
AcDbRegAppTableRecord
  2
GENIUS_GENSCREG_15
 70
     0
  0
APPID
  5
18310
330
15
100
AcDbSymbolTableRecord
100
AcDbRegAppTableRecord
  2
GENLAYCOLOR
 70
     0
  0
ENDTAB
  0
TABLE
  2
DIMSTYLE
  5
17
330
0
100
AcDbSymbolTable
 70
    16
100
AcDbDimStyleTable
 71
     1
340
18125
  0
DIMSTYLE
105
186C
102
{ACAD_REACTORS
330
18051
330
17C43
330
17C46
330
18144
330
18141
330
1813F
330
18146
102
}
330
17
100
AcDbSymbolTableRecord
100
AcDbDimStyleTableRecord
  2
GEN-ISO
 70
     0
  3
<>
  4
"
 41
1.5
 42
1.0
 43
10.0
 44
1.0
 47
0.1
 48
0.1
 73
     0
 74
     0
 77
     1
 78
     8
140
1.0
141
1.0
143
0.0393701
146
0.71
147
0.6
172
     1
176
   256
177
   256
178
     7
271
     2
272
     3
274
     4
283
     0
340
1D
  0
DIMSTYLE
105
1D12
330
17
100
AcDbSymbolTableRecord
100
AcDbDimStyleTableRecord
  2
STANDARD
 70
     0
340
E
  0
DIMSTYLE
105
18125
330
17
100
AcDbSymbolTableRecord
100
AcDbDimStyleTableRecord
  2
AM_ISO
 70
     0
  4
"
 41
2.5
 42
1.0
 43
10.0
 44
1.0
 47
0.1
 48
0.1
 73
     0
 74
     0
 77
     1
 78
     8
 79
     2
140
3.5
141
0.0
143
0.0393701
146
0.71
147
1.5
172
     1
176
   256
177
   256
178
     2
271
     2
272
     3
274
     4
283
     0
284
     8
340
E
371
    -1
372
    -1
  0
DIMSTYLE
105
18126
330
17
100
AcDbSymbolTableRecord
100
AcDbDimStyleTableRecord
  2
AM_ISO$3
 70
     0
  4
"
 41
2.5
 42
1.0
 43
10.0
 44
1.0
 47
0.1
 48
0.1
 73
     0
 77
     1
 78
     8
 79
     2
140
3.5
141
0.0
143
0.0393701
146
0.71
147
1.5
176
   256
177
   256
178
     2
271
     2
272
     3
274
     4
283
     0
284
     8
288
     1
289
     0
340
E
371
    -1
372
    -1
  0
DIMSTYLE
105
18127
330
17
100
AcDbSymbolTableRecord
100
AcDbDimStyleTableRecord
  2
AM_ISO$4
 70
     0
  4
"
 41
2.5
 42
1.0
 43
10.0
 44
1.0
 47
0.1
 48
0.1
 73
     0
 77
     1
 78
     8
 79
     2
140
3.5
141
0.0
143
0.0393701
146
0.71
147
1.5
176
   256
177
   256
178
     2
271
     2
272
     3
274
     4
283
     0
284
     8
288
     1
289
     0
340
E
371
    -1
372
    -1
  0
DIMSTYLE
105
18128
330
17
100
AcDbSymbolTableRecord
100
AcDbDimStyleTableRecord
  2
AM_ISO$6
 70
     0
  4
"
 41
2.5
 42
1.0
 43
10.0
 44
1.0
 47
0.1
 48
0.1
 73
     0
 74
     0
 78
     8
 79
     2
140
3.5
141
0.0
143
0.0393701
146
0.71
147
1.5
172
     1
176
   256
177
   256
178
     2
271
     2
272
     3
274
     4
283
     0
284
     8
340
E
371
    -1
372
    -1
  0
DIMSTYLE
105
18129
330
17
100
AcDbSymbolTableRecord
100
AcDbDimStyleTableRecord
  2
AM_ISO$7
 70
     0
  4
"
 41
2.5
 42
1.0
 43
10.0
 44
1.0
 47
0.1
 48
0.1
 73
     0
 74
     0
 77
     1
 78
     8
 79
     2
140
5.0
141
0.0
143
0.0393701
146
0.71
147
1.5
172
     1
176
   256
177
   256
178
     2
271
     2
272
     3
274
     4
283
     0
284
     8
340
E
371
    -1
372
    -1
  0
DIMSTYLE
105
1812A
330
17
100
AcDbSymbolTableRecord
100
AcDbDimStyleTableRecord
  2
AM_ISO$SF
 70
     0
  4
"
 41
2.5
 42
1.0
 43
10.0
 44
1.0
 47
0.1
 48
0.1
 73
     0
 74
     0
 75
     1
 76
     1
 77
     1
 78
     8
 79
     2
140
3.5
141
0.0
143
0.0393701
146
0.71
147
1.5
172
     1
176
   256
177
   256
178
     2
271
     2
272
     3
274
     4
283
     0
284
     8
340
E
371
    -1
372
    -1
  0
DIMSTYLE
105
1812B
330
17
100
AcDbSymbolTableRecord
100
AcDbDimStyleTableRecord
  2
AM_ISO$SH
 70
     0
  4
"
 41
2.5
 42
1.0
 43
10.0
 44
1.0
 47
0.1
 48
0.1
 73
     0
 74
     0
 75
     1
 76
     1
 77
     1
 78
     8
 79
     2
140
3.5
141
0.0
143
0.0393701
144
2.0
146
0.71
147
1.5
172
     1
173
     1
176
   256
177
   256
178
     2
271
     2
272
     3
274
     4
283
     0
284
     8
340
E
343
1812C
371
    -1
372
    -1
  0
DIMSTYLE
105
18521
330
17
100
AcDbSymbolTableRecord
100
AcDbDimStyleTableRecord
  2
GEN-ISO$3
 70
     0
  4
"
 41
2.5
 42
1.0
 43
10.0
 44
1.0
 47
0.1
 48
0.1
 73
     0
 77
     1
 78
     8
140
3.5
141
0.0
143
0.0393701
146
0.71
147
1.5
176
   256
177
   256
178
     2
271
     2
272
     3
274
     4
283
     0
288
     1
289
     0
340
E
  0
DIMSTYLE
105
18522
330
17
100
AcDbSymbolTableRecord
100
AcDbDimStyleTableRecord
  2
GEN-ISO$4
 70
     0
  4
"
 41
2.5
 42
1.0
 43
10.0
 44
1.0
 47
0.1
 48
0.1
 73
     0
 77
     1
 78
     8
140
3.5
141
0.0
143
0.0393701
146
0.71
147
1.5
176
   256
177
   256
178
     2
271
     2
272
     3
274
     4
283
     0
288
     1
289
     0
340
E
  0
DIMSTYLE
105
18523
330
17
100
AcDbSymbolTableRecord
100
AcDbDimStyleTableRecord
  2
GEN-ISO$6
 70
     0
  4
"
 41
2.5
 42
1.0
 43
10.0
 44
1.0
 47
0.1
 48
0.1
 73
     0
 74
     0
 78
     8
140
3.5
141
0.0
143
0.0393701
146
0.71
147
1.5
176
   256
177
   256
178
     2
271
     2
272
     3
274
     4
283
     0
340
E
  0
DIMSTYLE
105
18524
330
17
100
AcDbSymbolTableRecord
100
AcDbDimStyleTableRecord
  2
GEN-ISO-POS
 70
     0
  4
"
 41
2.5
 42
1.0
 43
10.0
 44
1.0
 47
0.1
 48
0.1
 73
     0
 74
     0
 78
     8
140
5.0
141
0.0
143
0.0393701
146
0.71
147
1.5
176
   256
177
   256
178
     2
271
     2
272
     3
274
     4
283
     0
340
E
  0
DIMSTYLE
105
18525
330
17
100
AcDbSymbolTableRecord
100
AcDbDimStyleTableRecord
  2
GEN-ISO-AXE-F
 70
     0
  4
"
 41
2.5
 42
1.0
 43
10.0
 44
1.0
 47
0.1
 48
0.1
 73
     0
 74
     0
 75
     1
 76
     1
 77
     1
 78
     8
140
3.5
141
0.0
143
0.0393701
146
0.71
147
1.5
172
     1
176
   256
177
   256
178
     2
271
     2
272
     3
274
     4
283
     0
340
E
  0
DIMSTYLE
105
18526
330
17
100
AcDbSymbolTableRecord
100
AcDbDimStyleTableRecord
  2
GEN-ISO-AXE-H
 70
     0
  4
"
 41
2.5
 42
1.0
 43
10.0
 44
1.0
 47
0.1
 48
0.1
 73
     0
 74
     0
 75
     1
 76
     1
 77
     1
 78
     8
140
3.5
141
0.0
143
0.0393701
144
2.0
146
0.71
147
1.5
172
     1
173
     1
176
   256
177
   256
178
     2
271
     2
272
     3
274
     4
283
     0
340
E
343
1812C
  0
DIMSTYLE
105
18527
330
17
100
AcDbSymbolTableRecord
100
AcDbDimStyleTableRecord
  2
ISO-25
 70
     0
 41
2.5
 42
0.625
 43
3.75
 44
1.25
 73
     0
 74
     0
 77
     1
 78
     8
140
2.5
141
2.5
143
0.03937007874016
147
0.625
171
     3
172
     1
271
     2
272
     2
274
     3
278
    44
283
     0
284
     8
340
E
  0
ENDTAB
  0
TABLE
  2
BLOCK_RECORD
  5
1
330
0
100
AcDbSymbolTable
 70
    17
  0
BLOCK_RECORD
  5
2
102
{ACAD_XDICTIONARY
360
18216
102
}
330
1
100
AcDbSymbolTableRecord
100
AcDbBlockTableRecord
  2
*MODEL_SPACE
340
180C8
  0
BLOCK_RECORD
  5
8
330
1
100
AcDbSymbolTableRecord
100
AcDbBlockTableRecord
  2
*PAPER_SPACE
340
180C9
  0
BLOCK_RECORD
  5
1D07
330
1
100
AcDbSymbolTableRecord
100
AcDbBlockTableRecord
  2
LAYER-GENIUS
340
0
102
{BLKREFS
331
1FA2
331
3FC1
331
3FCE
331
3FCF
331
4002
331
4003
331
401A
331
4021
331
4028
331
4029
331
4030
331
4031
331
4035
331
4040
331
4041
331
4042
331
4043
331
407F
331
408A
331
408B
331
40BE
331
40BF
331
40D6
331
40DD
331
40E4
331
40E5
331
40EC
331
40ED
331
40F1
331
40FC
331
40FD
331
40FE
331
40FF
331
412D
331
419C
331
4724
331
63DC
331
80CB
331
9733
331
A043
331
B04E
331
B0CF
331
B181
331
CC3F
331
CC44
331
CC50
331
D251
331
D252
331
D253
331
D254
331
F1C6
331
10159
331
10701
331
1199D
331
12EE2
331
13B09
331
1402C
331
156D6
331
15EE3
331
17192
331
17CAF
102
}
  0
BLOCK_RECORD
  5
20B7
330
1
100
AcDbSymbolTableRecord
100
AcDbBlockTableRecord
  2
ASM_TOLL
340
0
102
{BLKREFS
331
F038
331
F055
331
F06B
102
}
  0
BLOCK_RECORD
  5
261E
330
1
100
AcDbSymbolTableRecord
100
AcDbBlockTableRecord
  2
AME_NIL
340
0
102
{BLKREFS
331
3FB0
331
3FB2
331
3FB4
331
3FB6
331
3FB8
331
3FC4
331
3FC6
331
3FC8
331
3FCA
331
3FCC
331
3FD0
331
3FD2
331
3FD4
331
3FD6
331
3FD8
331
3FDA
331
3FDC
331
3FDE
331
3FE0
331
3FE2
331
3FE4
331
3FE6
331
3FE8
331
3FEA
331
3FEC
331
3FEE
331
3FF0
331
3FF3
331
3FF5
331
3FF7
331
3FF9
331
3FFB
331
3FFD
331
3FFF
331
4036
331
4038
331
403A
331
403C
331
403E
331
4075
331
4077
331
4079
331
407B
331
407D
331
4080
331
4082
331
4084
331
4086
331
4088
331
408C
331
408E
331
4090
331
4092
331
4094
331
4096
331
4098
331
409A
331
409C
331
409E
331
40A0
331
40A2
331
40A4
331
40A6
331
40A8
331
40AA
331
40AC
331
40AF
331
40B1
331
40B3
331
40B5
331
40B7
331
40B9
331
40BB
331
40F2
331
40F4
331
40F6
331
40F8
331
40FA
102
}
  0
BLOCK_RECORD
  5
2621
330
1
100
AcDbSymbolTableRecord
100
AcDbBlockTableRecord
  2
AME_SOL
340
0
102
{BLKREFS
331
3FB1
331
3FB3
331
3FB5
331
3FB7
331
3FB9
331
3FC5
331
3FC7
331
3FC9
331
3FCB
331
3FCD
331
3FD1
331
3FD3
331
3FD5
331
3FD7
331
3FD9
331
3FDB
331
3FDD
331
3FDF
331
3FE1
331
3FE3
331
3FE5
331
3FE7
331
3FE9
331
3FEB
331
3FED
331
3FEF
331
3FF1
331
3FF4
331
3FF6
331
3FF8
331
3FFA
331
3FFC
331
3FFE
331
4000
331
4037
331
4039
331
403B
331
403D
331
403F
331
4076
331
4078
331
407A
331
407C
331
407E
331
4081
331
4083
331
4085
331
4087
331
4089
331
408D
331
408F
331
4091
331
4093
331
4095
331
4097
331
4099
331
409B
331
409D
331
409F
331
40A1
331
40A3
331
40A5
331
40A7
331
40A9
331
40AB
331
40AD
331
40B0
331
40B2
331
40B4
331
40B6
331
40B8
331
40BA
331
40BC
331
40F3
331
40F5
331
40F7
331
40F9
331
40FB
102
}
  0
BLOCK_RECORD
  5
29E9
330
1
100
AcDbSymbolTableRecord
100
AcDbBlockTableRecord
  2
A3-ORIZZONTALE
340
0
102
{BLKREFS
331
7723
102
}
  0
BLOCK_RECORD
  5
17C7A
330
1
100
AcDbSymbolTableRecord
100
AcDbBlockTableRecord
  2
*D5
340
0
  0
BLOCK_RECORD
  5
17C93
330
1
100
AcDbSymbolTableRecord
100
AcDbBlockTableRecord
  2
*D6
340
0
  0
BLOCK_RECORD
  5
18052
330
1
100
AcDbSymbolTableRecord
100
AcDbBlockTableRecord
  2
*D7
340
0
  0
BLOCK_RECORD
  5
1812C
330
1
100
AcDbSymbolTableRecord
100
AcDbBlockTableRecord
  2
GENAXEH
340
0
  0
BLOCK_RECORD
  5
18163
330
1
100
AcDbSymbolTableRecord
100
AcDbBlockTableRecord
  2
*D9
340
0
  0
BLOCK_RECORD
  5
1816F
330
1
100
AcDbSymbolTableRecord
100
AcDbBlockTableRecord
  2
*D10
340
0
  0
BLOCK_RECORD
  5
1817D
330
1
100
AcDbSymbolTableRecord
100
AcDbBlockTableRecord
  2
*D11
340
0
  0
BLOCK_RECORD
  5
1818A
330
1
100
AcDbSymbolTableRecord
100
AcDbBlockTableRecord
  2
*D12
340
0
  0
BLOCK_RECORD
  5
18408
330
1
100
AcDbSymbolTableRecord
100
AcDbBlockTableRecord
  2
COMUNELLO
340
0
102
{BLKREFS
331
1840C
102
}
  0
BLOCK_RECORD
  5
18514
330
1
100
AcDbSymbolTableRecord
100
AcDbBlockTableRecord
  2
Prova
340
0
102
{BLKREFS
331
18536
102
}
  0
BLOCK_RECORD
  5
18528
330
1
100
AcDbSymbolTableRecord
100
AcDbBlockTableRecord
  2
A4-ORIZZONTALE
340
0
102
{BLKREFS
331
1853A
102
}
  0
BLOCK_RECORD
  5
1853D
330
1
100
AcDbSymbolTableRecord
100
AcDbBlockTableRecord
  2
ASM_C4
340
0
102
{BLKREFS
331
185B9
102
}
  0
ENDTAB
  0
ENDSEC
  0
SECTION
  2
BLOCKS
  0
BLOCK
  5
3
330
2
100
AcDbEntity
  8
0
100
AcDbBlockBegin
  2
*MODEL_SPACE
 70
     0
 10
0.0
 20
0.0
 30
0.0
  3
*MODEL_SPACE
  1

  0
ENDBLK
  5
7
330
2
100
AcDbEntity
  8
0
100
AcDbBlockEnd
  0
BLOCK
  5
9
330
8
100
AcDbEntity
 67
     1
  8
0
100
AcDbBlockBegin
  2
*PAPER_SPACE
 70
     0
 10
0.0
 20
0.0
 30
0.0
  3
*PAPER_SPACE
  1

  0
ENDBLK
  5
A
330
8
100
AcDbEntity
 67
     1
  8
0
100
AcDbBlockEnd
  0
BLOCK
  5
1D08
330
1D07
100
AcDbEntity
  8
0
100
AcDbBlockBegin
  2
LAYER-GENIUS
 70
     0
 10
0.0
 20
0.0
 30
0.0
  3
LAYER-GENIUS
  1

  0
ENDBLK
  5
1D09
330
1D07
100
AcDbEntity
  8
0
100
AcDbBlockEnd
  0
BLOCK
  5
20BA
330
20B7
100
AcDbEntity
  8
0
100
AcDbBlockBegin
  2
ASM_TOLL
 70
     2
 10
0.0
 20
0.0
 30
0.0
  3
ASM_TOLL
  1

  0
ATTDEF
  5
20B8
330
20B7
100
AcDbEntity
  8
0
100
AcDbText
 10
0.0
 20
0.8062584376203858
 30
0.0
 40
0.57
  1
+0.1
  7
ISO
100
AcDbAttributeDefinition
  3
Immetti lo scostamento superiore:
  2
SCOSTSUP
 70
     0
  0
ATTDEF
  5
20B9
330
20B7
100
AcDbEntity
  8
0
100
AcDbText
 10
0.0
 20
0.0
 30
0.0
 40
0.57
  1
-0.1
  7
ISO
100
AcDbAttributeDefinition
  3
Immetti lo scostamento inferiore:
  2
SCOSTINF
 70
     0
  0
ENDBLK
  5
20BB
330
20B7
100
AcDbEntity
  8
0
100
AcDbBlockEnd
  0
BLOCK
  5
261F
330
261E
100
AcDbEntity
  8
0
100
AcDbBlockBegin
  2
AME_NIL
 70
     0
 10
0.0
 20
0.0
 30
0.0
  3
AME_NIL
  1
AME_NIL
  0
ENDBLK
  5
2620
330
261E
100
AcDbEntity
  8
0
100
AcDbBlockEnd
  0
BLOCK
  5
2622
330
2621
100
AcDbEntity
  8
0
100
AcDbBlockBegin
  2
AME_SOL
 70
     0
 10
0.0
 20
0.0
 30
0.0
  3
AME_SOL
  1
AME_SOL
  0
ENDBLK
  5
2623
330
2621
100
AcDbEntity
  8
0
100
AcDbBlockEnd
  0
BLOCK
  5
29F7
330
29E9
100
AcDbEntity
  8
0
100
AcDbBlockBegin
  2
A3-ORIZZONTALE
 70
     0
 10
0.0
 20
0.0
 30
0.0
  3
A3-ORIZZONTALE
  1

  0
LINE
  5
29EA
330
29E9
100
AcDbEntity
  8
AM_BOR
 62
     7
100
AcDbLine
 10
400.0
 20
277.0
 30
0.0
 11
0.0
 21
277.0
 31
0.0
1001
GENIUS_GENREC_14
1002
{
1000
PYDIR
1011
-10.0
1021
-10.0
1031
0.0
1002
}
1002
{
1000
PXDIR
1011
410.0
1021
287.0
1031
0.0
1002
}
1002
{
1000
PORI
1011
410.0
1021
-10.0
1031
0.0
1002
}
1002
{
1000
PINS
1011
410.0
1021
95.0
1031
0.0
1002
}
1002
{
1000
HVAL
1000
297
1002
}
1002
{
1000
H
1070
     2
1002
}
1002
{
1000
WVAL
1000
210
1002
}
1002
{
1000
W
1070
     2
1002
}
1002
{
1000
C
1070
     2
1002
}
1001
GENIUS_GENODEF_13
1002
{
1000
HIER
1070
     0
1002
}
1002
{
1000
MANEDIT
1070
     0
1002
}
1002
{
1000
NOSEL
1070
     0
1002
}
1002
{
1000
BEHIND
1070
     0
1002
}
1002
{
1000
REACTOR
1002
}
1001
GENIUS_GENOBJ-N-REC_13
1002
{
1000
OWNER
1000
GEN
1002
}
  0
LINE
  5
29EB
330
29E9
100
AcDbEntity
  8
AM_BOR
 62
     7
100
AcDbLine
 10
0.0
 20
0.0
 30
0.0
 11
400.0
 21
0.0
 31
0.0
1001
GENIUS_GENREC_14
1002
{
1000
PYDIR
1011
-10.0
1021
-10.0
1031
0.0
1002
}
1002
{
1000
PXDIR
1011
410.0
1021
200.0
1031
0.0
1002
}
1002
{
1000
PORI
1011
410.0
1021
-10.0
1031
0.0
1002
}
1002
{
1000
PINS
1011
410.0
1021
95.0
1031
0.0
1002
}
1002
{
1000
HVAL
1000
297
1002
}
1002
{
1000
H
1070
     2
1002
}
1002
{
1000
WVAL
1000
210
1002
}
1002
{
1000
W
1070
     2
1002
}
1002
{
1000
C
1070
     2
1002
}
1001
GENIUS_GENODEF_13
1002
{
1000
HIER
1070
     0
1002
}
1002
{
1000
MANEDIT
1070
     0
1002
}
1002
{
1000
NOSEL
1070
     0
1002
}
1002
{
1000
BEHIND
1070
     0
1002
}
1002
{
1000
REACTOR
1002
}
1001
GENIUS_GENOBJ-N-REC_13
1002
{
1000
OWNER
1000
GEN
1002
}
  0
LINE
  5
29EC
330
29E9
100
AcDbEntity
  8
AM_BOR
 62
     7
100
AcDbLine
 10
0.0
 20
277.0
 30
0.0
 11
0.0
 21
0.0
 31
0.0
1001
GENIUS_GENREC_14
1002
{
1000
PYDIR
1011
-10.0
1021
-10.0
1031
0.0
1002
}
1002
{
1000
PXDIR
1011
287.0
1021
287.0
1031
0.0
1002
}
1002
{
1000
PORI
1011
287.0
1021
-10.0
1031
0.0
1002
}
1002
{
1000
PINS
1011
287.0
1021
95.0
1031
0.0
1002
}
1002
{
1000
HVAL
1000
297
1002
}
1002
{
1000
H
1070
     2
1002
}
1002
{
1000
WVAL
1000
210
1002
}
1002
{
1000
W
1070
     2
1002
}
1002
{
1000
C
1070
     2
1002
}
1001
GENIUS_GENODEF_13
1002
{
1000
HIER
1070
     0
1002
}
1002
{
1000
MANEDIT
1070
     0
1002
}
1002
{
1000
NOSEL
1070
     0
1002
}
1002
{
1000
BEHIND
1070
     0
1002
}
1002
{
1000
REACTOR
1002
}
1001
GENIUS_GENOBJ-N-REC_13
1002
{
1000
OWNER
1000
GEN
1002
}
  0
LINE
  5
29ED
330
29E9
100
AcDbEntity
  8
AM_BOR
 62
     4
100
AcDbLine
 10
-10.0
 20
-10.0
 30
0.0
 11
0.0
 21
-10.0
 31
0.0
  0
LINE
  5
29EE
330
29E9
100
AcDbEntity
  8
AM_BOR
 62
     4
100
AcDbLine
 10
-10.0
 20
10.0
 30
0.0
 11
-10.0
 21
-10.0
 31
0.0
  0
LINE
  5
29EF
330
29E9
100
AcDbEntity
  8
AM_BOR
 62
     4
100
AcDbLine
 10
0.0
 20
287.0
 30
0.0
 11
-10.0
 21
287.0
 31
0.0
  0
LINE
  5
29F0
330
29E9
100
AcDbEntity
  8
AM_BOR
 62
     4
100
AcDbLine
 10
-10.0
 20
287.0
 30
0.0
 11
-10.0
 21
267.0
 31
0.0
  0
LINE
  5
29F1
330
29E9
100
AcDbEntity
  8
AM_BOR
 62
     7
100
AcDbLine
 10
400.0
 20
0.0
 30
0.0
 11
400.0
 21
277.0
 31
0.0
1001
GENIUS_GENREC_14
1002
{
1000
PYDIR
1011
-10.0
1021
-10.0
1031
0.0
1002
}
1002
{
1000
PXDIR
1011
410.0
1021
287.0
1031
0.0
1002
}
1002
{
1000
PORI
1011
410.0
1021
-10.0
1031
0.0
1002
}
1002
{
1000
PINS
1011
410.0
1021
95.0
1031
0.0
1002
}
1002
{
1000
HVAL
1000
297
1002
}
1002
{
1000
H
1070
     2
1002
}
1002
{
1000
WVAL
1000
210
1002
}
1002
{
1000
W
1070
     2
1002
}
1002
{
1000
C
1070
     2
1002
}
1001
GENIUS_GENODEF_13
1002
{
1000
HIER
1070
     0
1002
}
1002
{
1000
MANEDIT
1070
     0
1002
}
1002
{
1000
NOSEL
1070
     0
1002
}
1002
{
1000
BEHIND
1070
     0
1002
}
1002
{
1000
REACTOR
1002
}
1001
GENIUS_GENOBJ-N-REC_13
1002
{
1000
OWNER
1000
GEN
1002
}
  0
LINE
  5
29F2
330
29E9
100
AcDbEntity
  8
AM_BOR
 62
     4
100
AcDbLine
 10
410.0
 20
-10.0
 30
0.0
 11
410.0
 21
10.0
 31
0.0
  0
LINE
  5
29F3
330
29E9
100
AcDbEntity
  8
AM_BOR
 62
     4
100
AcDbLine
 10
400.0
 20
-10.0
 30
0.0
 11
410.0
 21
-10.0
 31
0.0
  0
TEXT
  5
29F4
330
29E9
100
AcDbEntity
  8
AM_BOR
 62
     1
 60
     1
370
    25
100
AcDbText
 10
400.0
 20
0.0
 30
0.0
 40
2.5
  1
!GENTITLE-INSERT
100
AcDbText
  0
LINE
  5
29F5
330
29E9
100
AcDbEntity
  8
AM_BOR
 62
     4
100
AcDbLine
 10
410.0
 20
267.0
 30
0.0
 11
410.0
 21
287.0
 31
0.0
  0
LINE
  5
29F6
330
29E9
100
AcDbEntity
  8
AM_BOR
 62
     4
100
AcDbLine
 10
410.0
 20
287.0
 30
0.0
 11
400.0
 21
287.0
 31
0.0
  0
ENDBLK
  5
29F8
330
29E9
100
AcDbEntity
  8
0
100
AcDbBlockEnd
  0
BLOCK
  5
17E9B
330
17C7A
100
AcDbEntity
  8
0
100
AcDbBlockBegin
  2
*D5
 70
     1
 10
0.0
 20
0.0
 30
0.0
  3
*D5
  1

  0
LINE
  5
185ED
330
17C7A
100
AcDbEntity
  8
AM_5
370
    -2
100
AcDbLine
 10
160.9854708988369
 20
138.6107435638173
 30
0.0
 11
149.5594708988369
 21
138.6107435638173
 31
0.0
  0
LINE
  5
185EE
330
17C7A
100
AcDbEntity
  8
AM_5
370
    -2
100
AcDbLine
 10
160.9854708988369
 20
146.1707435638173
 30
0.0
 11
149.5594708988369
 21
146.1707435638173
 31
0.0
  0
LINE
  5
185EF
330
17C7A
100
AcDbEntity
  8
AM_5
370
    -2
100
AcDbLine
 10
150.5594708988369
 20
140.1107435638173
 30
0.0
 11
150.5594708988369
 21
144.6707435638173
 31
0.0
  0
SOLID
  5
185F0
330
17C7A
100
AcDbEntity
  8
AM_5
100
AcDbTrace
 10
150.3094708988369
 20
140.1107435638173
 30
0.0
 11
150.8094708988369
 21
140.1107435638173
 31
0.0
 12
150.5594708988369
 22
138.6107435638173
 32
0.0
 13
150.5594708988369
 23
138.6107435638173
 33
0.0
  0
SOLID
  5
185F1
330
17C7A
100
AcDbEntity
  8
AM_5
100
AcDbTrace
 10
150.3094708988369
 20
144.6707435638173
 30
0.0
 11
150.8094708988369
 21
144.6707435638173
 31
0.0
 12
150.5594708988369
 22
146.1707435638173
 32
0.0
 13
150.5594708988369
 23
146.1707435638173
 33
0.0
  0
MTEXT
  5
185F2
330
17C7A
100
AcDbEntity
  8
AM_5
 62
     7
100
AcDbMText
 10
148.9594708988369
 20
142.3907435638173
 30
0.0
 40
2.0
 41
0.0
 71
     5
 72
     1
  1
C
  7
ROMANS
 11
0.0000000000000001
 21
1.0
 31
0.0
 73
     1
 44
1.0
  0
POINT
  5
185F3
330
17C7A
100
AcDbEntity
  8
DEFPOINTS
 62
     0
100
AcDbPoint
 10
161.9854708988369
 20
138.6107435638173
 30
0.0
  0
POINT
  5
185F4
330
17C7A
100
AcDbEntity
  8
DEFPOINTS
 62
     0
100
AcDbPoint
 10
161.9854708988369
 20
146.1707435638173
 30
0.0
  0
POINT
  5
185F5
330
17C7A
100
AcDbEntity
  8
DEFPOINTS
 62
     0
100
AcDbPoint
 10
150.5594708988369
 20
146.1707435638173
 30
0.0
  0
ENDBLK
  5
17EA5
330
17C7A
100
AcDbEntity
  8
0
100
AcDbBlockEnd
  0
BLOCK
  5
17EAA
330
17C93
100
AcDbEntity
  8
0
100
AcDbBlockBegin
  2
*D6
 70
     1
 10
0.0
 20
0.0
 30
0.0
  3
*D6
  1

  0
LINE
  5
18601
330
17C93
100
AcDbEntity
  8
AM_5
370
    -2
100
AcDbLine
 10
158.2054708988369
 20
141.3907435638173
 30
0.0
 11
158.2054708988369
 21
133.6248534298174
 31
0.0
  0
LINE
  5
18602
330
17C93
100
AcDbEntity
  8
AM_5
370
    -2
100
AcDbLine
 10
168.4114708988369
 20
139.8787435638173
 30
0.0
 11
168.4114708988369
 21
133.6248534298174
 31
0.0
  0
LINE
  5
18603
330
17C93
100
AcDbEntity
  8
AM_5
370
    -2
100
AcDbLine
 10
159.7054708988369
 20
134.6248534298174
 30
0.0
 11
166.9114708988369
 21
134.6248534298174
 31
0.0
  0
SOLID
  5
18604
330
17C93
100
AcDbEntity
  8
AM_5
100
AcDbTrace
 10
159.7054708988369
 20
134.8748534298174
 30
0.0
 11
159.7054708988369
 21
134.3748534298174
 31
0.0
 12
158.2054708988369
 22
134.6248534298174
 32
0.0
 13
158.2054708988369
 23
134.6248534298174
 33
0.0
  0
SOLID
  5
18605
330
17C93
100
AcDbEntity
  8
AM_5
100
AcDbTrace
 10
166.9114708988369
 20
134.8748534298174
 30
0.0
 11
166.9114708988369
 21
134.3748534298174
 31
0.0
 12
168.4114708988369
 22
134.6248534298174
 32
0.0
 13
168.4114708988369
 23
134.6248534298174
 33
0.0
  0
MTEXT
  5
18606
330
17C93
100
AcDbEntity
  8
AM_5
 62
     7
100
AcDbMText
 10
163.3084708988369
 20
136.2248534298174
 30
0.0
 40
2.0
 41
0.0
 71
     5
 72
     1
  1
E
  7
ROMANS
 73
     1
 44
1.0
  0
POINT
  5
18607
330
17C93
100
AcDbEntity
  8
DEFPOINTS
 62
     0
100
AcDbPoint
 10
158.2054708988369
 20
142.3907435638173
 30
0.0
  0
POINT
  5
18608
330
17C93
100
AcDbEntity
  8
DEFPOINTS
 62
     0
100
AcDbPoint
 10
168.4114708988369
 20
140.8787435638173
 30
0.0
  0
POINT
  5
18609
330
17C93
100
AcDbEntity
  8
DEFPOINTS
 62
     0
100
AcDbPoint
 10
168.4114708988369
 20
134.6248534298174
 30
0.0
  0
ENDBLK
  5
17EB4
330
17C93
100
AcDbEntity
  8
0
100
AcDbBlockEnd
  0
BLOCK
  5
18097
330
18052
100
AcDbEntity
  8
0
100
AcDbBlockBegin
  2
*D7
 70
     1
 10
0.0
 20
0.0
 30
0.0
  3
*D7
  1

  0
LINE
  5
185F6
330
18052
100
AcDbEntity
  8
AM_5
370
    -2
100
AcDbLine
 10
169.4114708988369
 20
140.8787435638173
 30
0.0
 11
174.4114708988369
 21
140.8787435638173
 31
0.0
  0
LINE
  5
185F7
330
18052
100
AcDbEntity
  8
AM_5
370
    -2
100
AcDbLine
 10
169.4114708988369
 20
143.9027435638172
 30
0.0
 11
174.4114708988369
 21
143.9027435638172
 31
0.0
  0
LINE
  5
185F8
330
18052
100
AcDbEntity
  8
AM_5
370
    -2
100
AcDbLine
 10
173.4114708988369
 20
139.3787435638173
 30
0.0
 11
173.4114708988369
 21
137.8787435638173
 31
0.0
  0
LINE
  5
185F9
330
18052
100
AcDbEntity
  8
AM_5
370
    -2
100
AcDbLine
 10
173.4114708988369
 20
145.4027435638173
 30
0.0
 11
173.4114708988369
 21
146.9027435638172
 31
0.0
  0
LINE
  5
185FA
330
18052
100
AcDbEntity
  8
AM_5
370
    -2
100
AcDbLine
 10
173.4114708988369
 20
140.8787435638173
 30
0.0
 11
173.4114708988369
 21
143.9027435638172
 31
0.0
  0
SOLID
  5
185FB
330
18052
100
AcDbEntity
  8
AM_5
100
AcDbTrace
 10
173.1614708988369
 20
139.3787435638173
 30
0.0
 11
173.6614708988369
 21
139.3787435638173
 31
0.0
 12
173.4114708988369
 22
140.8787435638173
 32
0.0
 13
173.4114708988369
 23
140.8787435638173
 33
0.0
  0
SOLID
  5
185FC
330
18052
100
AcDbEntity
  8
AM_5
100
AcDbTrace
 10
173.1614708988369
 20
145.4027435638173
 30
0.0
 11
173.6614708988369
 21
145.4027435638173
 31
0.0
 12
173.4114708988369
 22
143.9027435638172
 32
0.0
 13
173.4114708988369
 23
143.9027435638172
 33
0.0
  0
MTEXT
  5
185FD
330
18052
100
AcDbEntity
  8
AM_5
 62
     7
100
AcDbMText
 10
171.8114708988369
 20
142.3907435638173
 30
0.0
 40
2.0
 41
0.0
 71
     5
 72
     1
  1
B
  7
ROMANS
 11
0.0000000000000001
 21
1.0
 31
0.0
 73
     1
 44
1.0
  0
POINT
  5
185FE
330
18052
100
AcDbEntity
  8
DEFPOINTS
 62
     0
100
AcDbPoint
 10
168.4114708988369
 20
140.8787435638173
 30
0.0
  0
POINT
  5
185FF
330
18052
100
AcDbEntity
  8
DEFPOINTS
 62
     0
100
AcDbPoint
 10
168.4114708988369
 20
143.9027435638172
 30
0.0
  0
POINT
  5
18600
330
18052
100
AcDbEntity
  8
DEFPOINTS
 62
     0
100
AcDbPoint
 10
173.4114708988369
 20
143.9027435638172
 30
0.0
  0
ENDBLK
  5
180A3
330
18052
100
AcDbEntity
  8
0
100
AcDbBlockEnd
  0
BLOCK
  5
18309
330
1812C
100
AcDbEntity
  8
0
100
AcDbBlockBegin
  2
GENAXEH
 70
     0
 10
0.0
 20
0.0
 30
0.0
  3
GENAXEH
  1

  0
LINE
  5
18308
330
1812C
100
AcDbEntity
  8
0
100
AcDbLine
 10
-1.0
 20
0.0
 30
0.0
 11
1.0
 21
0.0
 31
0.0
  0
ENDBLK
  5
1830A
330
1812C
100
AcDbEntity
  8
0
100
AcDbBlockEnd
  0
BLOCK
  5
1816D
330
18163
100
AcDbEntity
  8
0
100
AcDbBlockBegin
  2
*D9
 70
     1
 10
0.0
 20
0.0
 30
0.0
  3
*D9
  1

  0
LINE
  5
18613
330
18163
100
AcDbEntity
  8
AM_5
370
    -2
100
AcDbLine
 10
169.4166912514649
 20
197.3491326680505
 30
0.0
 11
174.4166912514649
 21
197.3491326680505
 31
0.0
  0
LINE
  5
18614
330
18163
100
AcDbEntity
  8
AM_5
370
    -2
100
AcDbLine
 10
169.4166912514649
 20
177.6931326680505
 30
0.0
 11
174.4166912514649
 21
177.6931326680505
 31
0.0
  0
LINE
  5
18615
330
18163
100
AcDbEntity
  8
AM_5
370
    -2
100
AcDbLine
 10
173.4166912514649
 20
195.8491326680505
 30
0.0
 11
173.4166912514649
 21
179.1931326680504
 31
0.0
  0
SOLID
  5
18616
330
18163
100
AcDbEntity
  8
AM_5
100
AcDbTrace
 10
173.1666912514649
 20
195.8491326680505
 30
0.0
 11
173.6666912514649
 21
195.8491326680505
 31
0.0
 12
173.4166912514649
 22
197.3491326680505
 32
0.0
 13
173.4166912514649
 23
197.3491326680505
 33
0.0
  0
SOLID
  5
18617
330
18163
100
AcDbEntity
  8
AM_5
100
AcDbTrace
 10
173.1666912514649
 20
179.1931326680504
 30
0.0
 11
173.6666912514649
 21
179.1931326680504
 31
0.0
 12
173.4166912514649
 22
177.6931326680505
 32
0.0
 13
173.4166912514649
 23
177.6931326680505
 33
0.0
  0
MTEXT
  5
18618
330
18163
100
AcDbEntity
  8
AM_5
 62
     7
100
AcDbMText
 10
171.8166912514649
 20
187.5211326680505
 30
0.0
 40
2.0
 41
0.0
 71
     5
 72
     1
  1
A
  7
ROMANS
 11
0.0000000000000001
 21
1.0
 31
0.0
 73
     1
 44
1.0
  0
POINT
  5
18619
330
18163
100
AcDbEntity
  8
DEFPOINTS
 62
     0
100
AcDbPoint
 10
168.4166912514649
 20
197.3491326680505
 30
0.0
  0
POINT
  5
1861A
330
18163
100
AcDbEntity
  8
DEFPOINTS
 62
     0
100
AcDbPoint
 10
168.4166912514649
 20
177.6931326680505
 30
0.0
  0
POINT
  5
1861B
330
18163
100
AcDbEntity
  8
DEFPOINTS
 62
     0
100
AcDbPoint
 10
173.4166912514649
 20
177.6931326680505
 30
0.0
  0
ENDBLK
  5
1816E
330
18163
100
AcDbEntity
  8
0
100
AcDbBlockEnd
  0
BLOCK
  5
1817B
330
1816F
100
AcDbEntity
  8
0
100
AcDbBlockBegin
  2
*D10
 70
     1
 10
0.0
 20
0.0
 30
0.0
  3
*D10
  1

  0
LINE
  5
1861C
330
1816F
100
AcDbEntity
  8
AM_5
370
    -2
100
AcDbLine
 10
169.4166912514649
 20
177.6931326680505
 30
0.0
 11
174.4166912514649
 21
177.6931326680505
 31
0.0
  0
LINE
  5
1861D
330
1816F
100
AcDbEntity
  8
AM_5
370
    -2
100
AcDbLine
 10
166.7706912514649
 20
176.1811326680505
 30
0.0
 11
174.4166912514649
 21
176.1811326680505
 31
0.0
  0
LINE
  5
1861E
330
1816F
100
AcDbEntity
  8
AM_5
370
    -2
100
AcDbLine
 10
173.4166912514649
 20
179.1931326680504
 30
0.0
 11
173.4166912514649
 21
180.6931326680505
 31
0.0
  0
LINE
  5
1861F
330
1816F
100
AcDbEntity
  8
AM_5
370
    -2
100
AcDbLine
 10
173.4166912514649
 20
174.6811326680505
 30
0.0
 11
173.4166912514649
 21
170.2286740648553
 31
0.0
  0
LINE
  5
18620
330
1816F
100
AcDbEntity
  8
AM_5
370
    -2
100
AcDbLine
 10
173.4166912514649
 20
177.6931326680505
 30
0.0
 11
173.4166912514649
 21
176.1811326680505
 31
0.0
  0
SOLID
  5
18621
330
1816F
100
AcDbEntity
  8
AM_5
100
AcDbTrace
 10
173.1666912514649
 20
179.1931326680504
 30
0.0
 11
173.6666912514649
 21
179.1931326680504
 31
0.0
 12
173.4166912514649
 22
177.6931326680505
 32
0.0
 13
173.4166912514649
 23
177.6931326680505
 33
0.0
  0
SOLID
  5
18622
330
1816F
100
AcDbEntity
  8
AM_5
100
AcDbTrace
 10
173.1666912514649
 20
174.6811326680505
 30
0.0
 11
173.6666912514649
 21
174.6811326680505
 31
0.0
 12
173.4166912514649
 22
176.1811326680505
 32
0.0
 13
173.4166912514649
 23
176.1811326680505
 33
0.0
  0
MTEXT
  5
18623
330
1816F
100
AcDbEntity
  8
AM_5
 62
     7
100
AcDbMText
 10
171.8166912514649
 20
171.5957270420237
 30
0.0
 40
2.0
 41
0.0
 71
     5
 72
     1
  1
S
  7
ROMANS
 11
0.0000000000000001
 21
1.0
 31
0.0
 73
     1
 44
1.0
  0
POINT
  5
18624
330
1816F
100
AcDbEntity
  8
DEFPOINTS
 62
     0
100
AcDbPoint
 10
168.4166912514649
 20
177.6931326680505
 30
0.0
  0
POINT
  5
18625
330
1816F
100
AcDbEntity
  8
DEFPOINTS
 62
     0
100
AcDbPoint
 10
165.7706912514649
 20
176.1811326680505
 30
0.0
  0
POINT
  5
18626
330
1816F
100
AcDbEntity
  8
DEFPOINTS
 62
     0
100
AcDbPoint
 10
173.4166912514649
 20
176.1811326680505
 30
0.0
  0
ENDBLK
  5
1817C
330
1816F
100
AcDbEntity
  8
0
100
AcDbBlockEnd
  0
BLOCK
  5
18188
330
1817D
100
AcDbEntity
  8
0
100
AcDbBlockBegin
  2
*D11
 70
     1
 10
0.0
 20
0.0
 30
0.0
  3
*D11
  1

  0
LINE
  5
185E3
330
1817D
100
AcDbEntity
  8
AM_5
370
    -2
100
AcDbLine
 10
164.1452912514649
 20
155.2228510309875
 30
0.0
 11
164.1452912514649
 21
149.7692510309875
 31
0.0
  0
LINE
  5
185E4
330
1817D
100
AcDbEntity
  8
AM_5
370
    -2
100
AcDbLine
 10
159.8360912514649
 20
155.2228510309875
 30
0.0
 11
159.8360912514649
 21
149.7692510309875
 31
0.0
  0
LINE
  5
185E5
330
1817D
100
AcDbEntity
  8
AM_5
370
    -2
100
AcDbLine
 10
162.6452912514649
 20
150.7692510309875
 30
0.0
 11
161.3360912514649
 21
150.7692510309875
 31
0.0
  0
LINE
  5
185E6
330
1817D
100
AcDbEntity
  8
AM_5
370
    -2
100
AcDbLine
 10
159.8360912514649
 20
150.7692510309875
 30
0.0
 11
153.9110715731402
 21
150.7692510309875
 31
0.0
  0
SOLID
  5
185E7
330
1817D
100
AcDbEntity
  8
AM_5
100
AcDbTrace
 10
162.6452912514649
 20
151.0192510309875
 30
0.0
 11
162.6452912514649
 21
150.5192510309875
 31
0.0
 12
164.1452912514649
 22
150.7692510309875
 32
0.0
 13
164.1452912514649
 23
150.7692510309875
 33
0.0
  0
SOLID
  5
185E8
330
1817D
100
AcDbEntity
  8
AM_5
100
AcDbTrace
 10
161.3360912514649
 20
151.0192510309875
 30
0.0
 11
161.3360912514649
 21
150.5192510309875
 31
0.0
 12
159.8360912514649
 22
150.7692510309875
 32
0.0
 13
159.8360912514649
 23
150.7692510309875
 33
0.0
  0
MTEXT
  5
185E9
330
1817D
100
AcDbEntity
  8
AM_5
 62
     7
100
AcDbMText
 10
155.2647397089083
 20
152.3692510309875
 30
0.0
 40
2.0
 41
0.0
 71
     5
 72
     1
  1
D
  7
ROMANS
 73
     1
 44
1.0
  0
POINT
  5
185EA
330
1817D
100
AcDbEntity
  8
DEFPOINTS
 62
     0
100
AcDbPoint
 10
164.1452912514649
 20
156.2228510309875
 30
0.0
  0
POINT
  5
185EB
330
1817D
100
AcDbEntity
  8
DEFPOINTS
 62
     0
100
AcDbPoint
 10
159.8360912514649
 20
156.2228510309875
 30
0.0
  0
POINT
  5
185EC
330
1817D
100
AcDbEntity
  8
DEFPOINTS
 62
     0
100
AcDbPoint
 10
159.8360912514649
 20
150.7692510309875
 30
0.0
  0
ENDBLK
  5
18189
330
1817D
100
AcDbEntity
  8
0
100
AcDbBlockEnd
  0
BLOCK
  5
18194
330
1818A
100
AcDbEntity
  8
0
100
AcDbBlockBegin
  2
*D12
 70
     1
 10
0.0
 20
0.0
 30
0.0
  3
*D12
  1

  0
LINE
  5
1860A
330
1818A
100
AcDbEntity
  8
AM_5
370
    -2
100
AcDbLine
 10
158.898121661987
 20
199.6171326680505
 30
0.0
 11
149.5646912514649
 21
199.6171326680505
 31
0.0
  0
LINE
  5
1860B
330
1818A
100
AcDbEntity
  8
AM_5
370
    -2
100
AcDbLine
 10
159.2896912514649
 20
155.7692510309875
 30
0.0
 11
149.5646912514649
 21
155.7692510309875
 31
0.0
  0
LINE
  5
1860C
330
1818A
100
AcDbEntity
  8
AM_5
370
    -2
100
AcDbLine
 10
150.5646912514649
 20
198.1171326680505
 30
0.0
 11
150.5646912514649
 21
157.2692510309875
 31
0.0
  0
SOLID
  5
1860D
330
1818A
100
AcDbEntity
  8
AM_5
100
AcDbTrace
 10
150.3146912514649
 20
198.1171326680505
 30
0.0
 11
150.8146912514649
 21
198.1171326680505
 31
0.0
 12
150.5646912514649
 22
199.6171326680505
 32
0.0
 13
150.5646912514649
 23
199.6171326680505
 33
0.0
  0
SOLID
  5
1860E
330
1818A
100
AcDbEntity
  8
AM_5
100
AcDbTrace
 10
150.3146912514649
 20
157.2692510309875
 30
0.0
 11
150.8146912514649
 21
157.2692510309875
 31
0.0
 12
150.5646912514649
 22
155.7692510309875
 32
0.0
 13
150.5646912514649
 23
155.7692510309875
 33
0.0
  0
MTEXT
  5
1860F
330
1818A
100
AcDbEntity
  8
AM_5
 62
     7
100
AcDbMText
 10
148.9646912514649
 20
177.693191849519
 30
0.0
 40
2.0
 41
0.0
 71
     5
 72
     1
  1
L
  7
ROMANS
 11
0.0000000000000001
 21
1.0
 31
0.0
 73
     1
 44
1.0
  0
POINT
  5
18610
330
1818A
100
AcDbEntity
  8
DEFPOINTS
 62
     0
100
AcDbPoint
 10
159.898121661987
 20
199.6171326680505
 30
0.0
  0
POINT
  5
18611
330
1818A
100
AcDbEntity
  8
DEFPOINTS
 62
     0
100
AcDbPoint
 10
160.2896912514649
 20
155.7692510309875
 30
0.0
  0
POINT
  5
18612
330
1818A
100
AcDbEntity
  8
DEFPOINTS
 62
     0
100
AcDbPoint
 10
150.5646912514649
 20
155.7692510309875
 30
0.0
  0
ENDBLK
  5
18195
330
1818A
100
AcDbEntity
  8
0
100
AcDbBlockEnd
  0
BLOCK
  5
18409
330
18408
100
AcDbEntity
  8
0
100
AcDbBlockBegin
  2
COMUNELLO
 70
     0
 10
0.0
 20
0.0
 30
0.0
  3
COMUNELLO
  1

  0
ENDBLK
  5
1840A
330
18408
100
AcDbEntity
  8
0
100
AcDbBlockEnd
  0
BLOCK
  5
18515
330
18514
100
AcDbEntity
  8
0
100
AcDbBlockBegin
  2
Prova
 70
     0
 10
0.0
 20
0.0
 30
0.0
  3
Prova
  1

  0
ENDBLK
  5
18516
330
18514
100
AcDbEntity
  8
0
100
AcDbBlockEnd
  0
BLOCK
  5
18537
330
18528
100
AcDbEntity
  8
0
100
AcDbBlockBegin
  2
A4-ORIZZONTALE
 70
     0
 10
0.0
 20
0.0
 30
0.0
  3
A4-ORIZZONTALE
  1

  0
LINE
  5
18529
330
18528
100
AcDbEntity
  8
AM_BOR
 62
     7
100
AcDbLine
 10
10.0
 20
10.0
 30
0.0
 11
287.0
 21
10.0
 31
0.0
1001
GENIUS_GENREC_14
1002
{
1000
PYDIR
1011
0.0
1021
0.0
1031
0.0
1002
}
1002
{
1000
PXDIR
1011
297.0
1021
210.0
1031
0.0
1002
}
1002
{
1000
PORI
1011
297.0
1021
0.0
1031
0.0
1002
}
1002
{
1000
PINS
1011
297.0
1021
105.0
1031
0.0
1002
}
1002
{
1000
HVAL
1000
297
1002
}
1002
{
1000
H
1070
     2
1002
}
1002
{
1000
WVAL
1000
210
1002
}
1002
{
1000
W
1070
     2
1002
}
1002
{
1000
C
1070
     2
1002
}
1001
GENIUS_GENODEF_13
1002
{
1000
HIER
1070
     0
1002
}
1002
{
1000
MANEDIT
1070
     0
1002
}
1002
{
1000
NOSEL
1070
     0
1002
}
1002
{
1000
BEHIND
1070
     0
1002
}
1002
{
1000
REACTOR
1002
}
1001
GENIUS_GENOBJ-N-REC_13
1002
{
1000
OWNER
1000
GEN
1002
}
  0
LINE
  5
1852A
330
18528
100
AcDbEntity
  8
AM_BOR
 62
     7
100
AcDbLine
 10
287.0
 20
200.0
 30
0.0
 11
10.0
 21
200.0
 31
0.0
1001
GENIUS_GENREC_14
1002
{
1000
PYDIR
1011
0.0
1021
0.0
1031
0.0
1002
}
1002
{
1000
PXDIR
1011
297.0
1021
210.0
1031
0.0
1002
}
1002
{
1000
PORI
1011
297.0
1021
0.0
1031
0.0
1002
}
1002
{
1000
PINS
1011
297.0
1021
105.0
1031
0.0
1002
}
1002
{
1000
HVAL
1000
297
1002
}
1002
{
1000
H
1070
     2
1002
}
1002
{
1000
WVAL
1000
210
1002
}
1002
{
1000
W
1070
     2
1002
}
1002
{
1000
C
1070
     2
1002
}
1001
GENIUS_GENODEF_13
1002
{
1000
HIER
1070
     0
1002
}
1002
{
1000
MANEDIT
1070
     0
1002
}
1002
{
1000
NOSEL
1070
     0
1002
}
1002
{
1000
BEHIND
1070
     0
1002
}
1002
{
1000
REACTOR
1002
}
1001
GENIUS_GENOBJ-N-REC_13
1002
{
1000
OWNER
1000
GEN
1002
}
  0
LINE
  5
1852B
330
18528
100
AcDbEntity
  8
AM_BOR
 62
     7
100
AcDbLine
 10
10.0
 20
200.0
 30
0.0
 11
10.0
 21
10.0
 31
0.0
1001
GENIUS_GENREC_14
1002
{
1000
PYDIR
1011
0.0
1021
0.0
1031
0.0
1002
}
1002
{
1000
PXDIR
1011
297.0
1021
210.0
1031
0.0
1002
}
1002
{
1000
PORI
1011
297.0
1021
0.0
1031
0.0
1002
}
1002
{
1000
PINS
1011
297.0
1021
105.0
1031
0.0
1002
}
1002
{
1000
HVAL
1000
297
1002
}
1002
{
1000
H
1070
     2
1002
}
1002
{
1000
WVAL
1000
210
1002
}
1002
{
1000
W
1070
     2
1002
}
1002
{
1000
C
1070
     2
1002
}
1001
GENIUS_GENODEF_13
1002
{
1000
HIER
1070
     0
1002
}
1002
{
1000
MANEDIT
1070
     0
1002
}
1002
{
1000
NOSEL
1070
     0
1002
}
1002
{
1000
BEHIND
1070
     0
1002
}
1002
{
1000
REACTOR
1002
}
1001
GENIUS_GENOBJ-N-REC_13
1002
{
1000
OWNER
1000
GEN
1002
}
  0
LINE
  5
1852C
330
18528
100
AcDbEntity
  8
AM_BOR
 62
     4
100
AcDbLine
 10
0.0
 20
0.0
 30
0.0
 11
10.0
 21
0.0
 31
0.0
  0
LINE
  5
1852D
330
18528
100
AcDbEntity
  8
AM_BOR
 62
     4
100
AcDbLine
 10
0.0
 20
20.0
 30
0.0
 11
0.0
 21
0.0
 31
0.0
  0
LINE
  5
1852E
330
18528
100
AcDbEntity
  8
AM_BOR
 62
     4
100
AcDbLine
 10
10.0
 20
210.0
 30
0.0
 11
0.0
 21
210.0
 31
0.0
  0
LINE
  5
1852F
330
18528
100
AcDbEntity
  8
AM_BOR
 62
     4
100
AcDbLine
 10
0.0
 20
210.0
 30
0.0
 11
0.0
 21
190.0
 31
0.0
  0
LINE
  5
18530
330
18528
100
AcDbEntity
  8
AM_BOR
 62
     7
100
AcDbLine
 10
287.0
 20
10.0
 30
0.0
 11
287.0
 21
200.0
 31
0.0
1001
GENIUS_GENREC_14
1002
{
1000
PYDIR
1011
0.0
1021
0.0
1031
0.0
1002
}
1002
{
1000
PXDIR
1011
297.0
1021
210.0
1031
0.0
1002
}
1002
{
1000
PORI
1011
297.0
1021
0.0
1031
0.0
1002
}
1002
{
1000
PINS
1011
297.0
1021
105.0
1031
0.0
1002
}
1002
{
1000
HVAL
1000
297
1002
}
1002
{
1000
H
1070
     2
1002
}
1002
{
1000
WVAL
1000
210
1002
}
1002
{
1000
W
1070
     2
1002
}
1002
{
1000
C
1070
     2
1002
}
1001
GENIUS_GENODEF_13
1002
{
1000
HIER
1070
     0
1002
}
1002
{
1000
MANEDIT
1070
     0
1002
}
1002
{
1000
NOSEL
1070
     0
1002
}
1002
{
1000
BEHIND
1070
     0
1002
}
1002
{
1000
REACTOR
1002
}
1001
GENIUS_GENOBJ-N-REC_13
1002
{
1000
OWNER
1000
GEN
1002
}
  0
TEXT
  5
18531
330
18528
100
AcDbEntity
  8
AM_BOR
 62
     1
 60
     1
100
AcDbText
 10
287.0
 20
10.0
 30
0.0
 40
2.5
  1
!GENTITLE-INSERT
100
AcDbText
  0
LINE
  5
18532
330
18528
100
AcDbEntity
  8
AM_BOR
 62
     4
100
AcDbLine
 10
297.0
 20
0.0
 30
0.0
 11
297.0
 21
20.0
 31
0.0
  0
LINE
  5
18533
330
18528
100
AcDbEntity
  8
AM_BOR
 62
     4
100
AcDbLine
 10
287.0
 20
0.0
 30
0.0
 11
297.0
 21
0.0
 31
0.0
  0
LINE
  5
18534
330
18528
100
AcDbEntity
  8
AM_BOR
 62
     4
100
AcDbLine
 10
297.0
 20
190.0
 30
0.0
 11
297.0
 21
210.0
 31
0.0
  0
LINE
  5
18535
330
18528
100
AcDbEntity
  8
AM_BOR
 62
     4
100
AcDbLine
 10
297.0
 20
210.0
 30
0.0
 11
287.0
 21
210.0
 31
0.0
  0
INSERT
  5
18536
330
18528
100
AcDbEntity
  8
AM_0
100
AcDbBlockReference
  2
Prova
 10
0.0
 20
0.0
 30
0.0
  0
ENDBLK
  5
18538
330
18528
100
AcDbEntity
  8
0
100
AcDbBlockEnd
  0
BLOCK
  5
185B3
330
1853D
100
AcDbEntity
  8
0
100
AcDbBlockBegin
  2
ASM_C4
 70
     2
 10
0.0
 20
0.0
 30
0.0
  3
ASM_C4
  1

  0
MTEXT
  5
1853E
330
1853D
100
AcDbEntity
  8
AM_0
100
AcDbMText
 10
-101.1329575317798
 20
26.37414633253953
 30
0.0
 40
2.1
 41
36.09
 71
     1
 72
     5
  1
{\fArial|b0|i0|c0|p34;Via Cassola , 64\P36027 Rosa' (VI)\PITALY\PTel.0424/585111\PFax.0424/533417\Pwww.comunello.com}
 73
     1
 44
1.0
  0
TEXT
  5
1853F
330
1853D
100
AcDbEntity
  8
AM_BOR
 62
     3
100
AcDbText
 10
-87.35047619047614
 20
41.50000000000011
 30
0.0
 40
2.5
  1
Trattamento
 41
0.8
  7
QUOTE
100
AcDbText
  0
TEXT
  5
18540
330
1853D
100
AcDbEntity
  8
AM_BOR
100
AcDbText
 10
-189.0
 20
1.302472478823688
 30
0.0
 40
2.5
  1
La F.LLI COMUNELLO si riserva a termini di legge la proprieta' del presente disegno con divieto di riprodurlo o comunicarlo a terzi senza sua autorizzazione.
 41
0.8375497215592698
  7
ISO
 72
     5
 11
-1.0
 21
1.302472478823688
 31
0.0
100
AcDbText
  0
LINE
  5
18541
330
1853D
100
AcDbEntity
  8
AM_BOR
100
AcDbLine
 10
-190.0
 20
0.0
 30
0.0
 11
0.0
 21
0.0
 31
0.0
  0
LINE
  5
18542
330
1853D
100
AcDbEntity
  8
AM_BOR
100
AcDbLine
 10
-190.0
 20
4.5
 30
0.0
 11
0.0
 21
4.5
 31
0.0
  0
LINE
  5
18543
330
1853D
100
AcDbEntity
  8
AM_BOR
100
AcDbLine
 10
-190.0
 20
28.49999997550006
 30
0.0
 11
0.0000000000001421
 21
28.49999997550006
 31
0.0
  0
LINE
  5
18544
330
1853D
100
AcDbEntity
  8
AM_BOR
100
AcDbLine
 10
-190.0
 20
36.49999997550014
 30
0.0
 11
0.0000000000001421
 21
36.49999997550014
 31
0.0
  0
LINE
  5
18545
330
1853D
100
AcDbEntity
  8
AM_BOR
100
AcDbLine
 10
-190.0
 20
44.5
 30
0.0
 11
0.0000000000001137
 21
44.5
 31
0.0
  0
LINE
  5
18546
330
1853D
100
AcDbEntity
  8
AM_BOR
100
AcDbLine
 10
-190.0
 20
49.5
 30
0.0
 11
0.0
 21
49.5
 31
0.0
  0
LINE
  5
18547
330
1853D
100
AcDbEntity
  8
AM_BOR
100
AcDbLine
 10
0.0
 20
57.5
 30
0.0
 11
-190.0
 21
57.5
 31
0.0
  0
LINE
  5
18548
330
1853D
100
AcDbEntity
  8
AM_BOR
100
AcDbLine
 10
-88.35047619047619
 20
57.5
 30
0.0
 11
-88.35047619047623
 21
28.4999999755002
 31
0.0
  0
LINE
  5
18549
330
1853D
100
AcDbEntity
  8
AM_BOR
100
AcDbLine
 10
-117.285238095238
 20
57.5
 30
0.0
 11
-117.285238095238
 21
28.49999997550005
 31
0.0
  0
LINE
  5
1854A
330
1853D
100
AcDbEntity
  8
AM_BOR
100
AcDbLine
 10
-190.0
 20
0.0
 30
0.0
 11
-190.0
 21
57.5
 31
0.0
  0
HATCH
  5
1854B
330
1853D
100
AcDbEntity
  8
AM_0
100
AcDbHatch
 10
0.0
 20
0.0
 30
0.0
210
0.0
220
0.0
230
1.0
  2
SOLID
 70
     1
 71
     1
 91
        1
 92
        7
 72
     1
 73
     1
 93
        8
 10
-190.0
 20
16.74999998775003
 42
0.0
 10
-189.9999999999998
 20
16.24999998775003
 42
0.0
 10
-183.4749377501092
 20
16.24999998775003
 42
0.200356615422539
 10
-172.1250555175808
 20
16.24999998775003
 42
0.0
 10
-104.9422870460472
 20
16.24999998775003
 42
0.0
 10
-104.9422870460472
 20
16.74999998775001
 42
0.0
 10
-172.2261339984467
 20
16.74999998775003
 42
-0.2039899561851438
 10
-183.3738592692433
 20
16.74999998775003
 42
0.0
 97
        8
330
18567
330
18568
330
18566
330
1855D
330
1854C
330
18581
330
1854D
330
1855E
 75
     0
 76
     1
 47
0.0837474085199163
 98
        1
 10
-190.9512595196649
 20
16.5781913483155
  0
LINE
  5
1854C
102
{ACAD_REACTORS
330
1854B
102
}
330
1853D
100
AcDbEntity
  8
AM_0
100
AcDbLine
 10
-172.1250555175808
 20
16.24999998775003
 30
0.0
 11
-104.9422870460472
 21
16.24999998775003
 31
0.0
  0
LINE
  5
1854D
102
{ACAD_REACTORS
330
1854B
102
}
330
1853D
100
AcDbEntity
  8
AM_0
100
AcDbLine
 10
-172.2261339984466
 20
16.74999998775003
 30
0.0
 11
-104.9422870460472
 21
16.74999998775001
 31
0.0
  0
HATCH
  5
1854E
330
1853D
100
AcDbEntity
  8
AM_0
100
AcDbHatch
 10
0.0
 20
0.0
 30
0.0
210
0.0
220
0.0
230
1.0
  2
SOLID
 70
     1
 71
     1
 91
        2
 92
        7
 72
     1
 73
     1
 93
        6
 10
-183.0220216617666
 20
14.84297924086208
 42
0.0
 10
-188.2999091127343
 20
14.84297924086208
 42
0.0
 10
-188.2999091127344
 20
8.093035504433164
 42
0.0
 10
-167.3000841549557
 20
8.093035504433162
 42
0.0
 10
-167.3000841549557
 20
14.84297924086208
 42
0.0
 10
-172.5779716059233
 20
14.84297924086208
 42
-0.2010697463675001
 97
        6
330
18554
330
18561
330
18564
330
1855A
330
18559
330
1856B
 92
       22
 72
     1
 73
     1
 93
        6
 10
-172.2277903941854
 20
13.04299424448096
 42
0.0
 10
-169.1000691513368
 20
13.04299424448096
 42
0.0
 10
-169.1000691513367
 20
9.893020500814165
 42
0.0
 10
-186.4999241163533
 20
9.893020500814275
 42
0.0
 10
-186.4999241163533
 20
13.04299424448096
 42
0.0
 10
-183.3722028735046
 20
13.04299424448096
 42
0.1884336657203522
 97
        6
330
18552
330
18579
330
18558
330
18565
330
18563
330
18562
 75
     0
 76
     1
 47
0.0434113165432333
 98
        2
 10
-175.1093714947233
 20
13.2812740545475
 10
-175.1093714947233
 20
13.2812740545475
  0
HATCH
  5
1854F
330
1853D
100
AcDbEntity
  8
AM_0
100
AcDbHatch
 10
0.0
 20
0.0
 30
0.0
210
0.0
220
0.0
230
1.0
  2
SOLID
 70
     1
 71
     1
 91
        2
 92
        7
 72
     1
 73
     1
 93
        6
 10
-188.2999091127343
 20
24.73292297729091
 42
0.0
 10
-188.2999091127343
 20
17.98297924086199
 42
0.0
 10
-182.899954123591
 20
17.98297924086199
 42
0.2058823529411692
 10
-172.7000391440989
 20
17.98297924086199
 42
0.0
 10
-167.3000841549557
 20
17.98297924086199
 42
0.0
 10
-167.3000841549557
 20
24.73292297729091
 42
0.0
 97
        6
330
18557
330
1855C
330
18569
330
18560
330
18555
330
18576
 92
       22
 72
     1
 73
     1
 93
        6
 10
-169.1000691513367
 20
22.93293798090991
 42
0.0
 10
-169.1000691513367
 20
19.7829642372431
 42
0.0
 10
-173.085165840258
 20
19.7829642372431
 42
-0.222699667041523
 10
-182.5148274274319
 20
19.7829642372431
 42
0.0
 10
-186.4999241163532
 20
19.78296423724311
 42
0.0
 10
-186.4999241163532
 20
22.93293798090991
 42
0.0
 97
        6
330
18577
330
18553
330
1856A
330
1855F
330
1855B
330
18556
 75
     0
 76
     1
 47
0.0434113165432333
 98
        2
 10
-176.0648603854307
 20
23.61316742875459
 10
-176.0648603854307
 20
23.61316742875459
  0
TEXT
  5
18550
330
1853D
100
AcDbEntity
  8
AM_BOR
 62
     3
100
AcDbText
 10
-189.0522490983589
 20
33.49999997550026
 30
0.0
 40
2.5
  1
Sostituisce il
 41
0.8
  7
QUOTE
100
AcDbText
  0
TEXT
  5
18551
330
1853D
100
AcDbEntity
  8
AM_BOR
 62
     3
100
AcDbText
 10
-189.0142146823992
 20
41.50000000000011
 30
0.0
 40
2.5
  1
Tolleranze generali
 41
0.8
  7
QUOTE
100
AcDbText
  0
LINE
  5
18552
102
{ACAD_REACTORS
330
1854E
102
}
330
1853D
100
AcDbEntity
  8
AM_0
100
AcDbLine
 10
-172.2277903941853
 20
13.04299424448096
 30
0.0
 11
-169.1000691513367
 21
13.04299424448096
 31
0.0
  0
LINE
  5
18553
102
{ACAD_REACTORS
330
1854F
102
}
330
1853D
100
AcDbEntity
  8
AM_BOR
100
AcDbLine
 10
-173.085165840258
 20
19.7829642372431
 30
0.0
 11
-169.1000691513367
 21
19.7829642372431
 31
0.0
  0
LINE
  5
18554
102
{ACAD_REACTORS
330
1854E
102
}
330
1853D
100
AcDbEntity
  8
AM_BOR
100
AcDbLine
 10
-172.5779716059234
 20
14.84297924086208
 30
0.0
 11
-167.3000841549557
 21
14.84297924086208
 31
0.0
  0
LINE
  5
18555
102
{ACAD_REACTORS
330
1854F
102
}
330
1853D
100
AcDbEntity
  8
AM_BOR
100
AcDbLine
 10
-172.7000391440987
 20
17.98297924086199
 30
0.0
 11
-167.3000841549557
 21
17.98297924086199
 31
0.0
  0
LINE
  5
18556
102
{ACAD_REACTORS
330
1854F
102
}
330
1853D
100
AcDbEntity
  8
AM_BOR
100
AcDbLine
 10
-169.1000691513367
 20
22.93293798090991
 30
0.0
 11
-186.4999241163532
 21
22.93293798090991
 31
0.0
  0
LINE
  5
18557
102
{ACAD_REACTORS
330
1854F
102
}
330
1853D
100
AcDbEntity
  8
AM_0
100
AcDbLine
 10
-167.3000841549557
 20
24.73292297729091
 30
0.0
 11
-188.2999091127343
 21
24.73292297729091
 31
0.0
  0
LINE
  5
18558
102
{ACAD_REACTORS
330
1854E
102
}
330
1853D
100
AcDbEntity
  8
AM_0
100
AcDbLine
 10
-169.1000691513367
 20
9.893020500814163
 30
0.0
 11
-186.4999241163533
 21
9.893020500814277
 31
0.0
  0
LINE
  5
18559
102
{ACAD_REACTORS
330
1854E
102
}
330
1853D
100
AcDbEntity
  8
AM_0
100
AcDbLine
 10
-167.3000841549557
 20
8.093035504433164
 30
0.0
 11
-188.2999091127343
 21
8.093035504433164
 31
0.0
  0
LINE
  5
1855A
102
{ACAD_REACTORS
330
1854E
102
}
330
1853D
100
AcDbEntity
  8
AM_BOR
100
AcDbLine
 10
-188.2999091127343
 20
8.093035504433164
 30
0.0
 11
-188.2999091127343
 21
14.84297924086208
 31
0.0
  0
LINE
  5
1855B
102
{ACAD_REACTORS
330
1854F
102
}
330
1853D
100
AcDbEntity
  8
AM_BOR
100
AcDbLine
 10
-186.4999241163533
 20
19.7829642372431
 30
0.0
 11
-186.4999241163532
 21
22.93293798090991
 31
0.0
  0
LINE
  5
1855C
102
{ACAD_REACTORS
330
1854F
102
}
330
1853D
100
AcDbEntity
  8
AM_BOR
100
AcDbLine
 10
-188.2999091127343
 20
17.98297924086199
 30
0.0
 11
-188.2999091127343
 21
24.73292297729091
 31
0.0
  0
ARC
  5
1855D
102
{ACAD_REACTORS
330
1854B
102
}
330
1853D
100
AcDbEntity
  8
AM_BOR
100
AcDbCircle
 10
-177.799996633845
 20
29.8435946634442
 30
0.0
 40
14.73060667047107
100
AcDbArc
 50
247.3408443660875
 51
292.6591556339125
  0
ARC
  5
1855E
102
{ACAD_REACTORS
330
1854B
102
}
330
1853D
100
AcDbEntity
  8
AM_BOR
100
AcDbCircle
 10
-177.799996633845
 20
29.8435946634442
 30
0.0
 40
14.23060667047107
100
AcDbArc
 50
246.9408441772613
 51
293.0591558227387
  0
LINE
  5
1855F
102
{ACAD_REACTORS
330
1854F
102
}
330
1853D
100
AcDbEntity
  8
AM_BOR
100
AcDbLine
 10
-186.4999241163533
 20
19.7829642372431
 30
0.0
 11
-182.514827427432
 21
19.7829642372431
 31
0.0
  0
ARC
  5
18560
102
{ACAD_REACTORS
330
1854F
102
}
330
1853D
100
AcDbEntity
  8
AM_BOR
100
AcDbCircle
 10
-177.799996633845
 20
29.8435946634442
 30
0.0
 40
12.91060667047107
100
AcDbArc
 50
246.732732002119
 51
293.2672679978809
  0
ARC
  5
18561
102
{ACAD_REACTORS
330
1854E
102
}
330
1853D
100
AcDbEntity
  8
AM_0
100
AcDbCircle
 10
-177.799996633845
 20
27.30358966223788
 30
0.0
 40
13.51060166926475
100
AcDbArc
 50
247.2622901981336
 51
292.7377098018663
  0
ARC
  5
18562
102
{ACAD_REACTORS
330
1854E
102
}
330
1853D
100
AcDbEntity
  8
AM_0
100
AcDbCircle
 10
-177.799996633845
 20
27.30358966223788
 30
0.0
 40
15.31058666564578
100
AcDbArc
 50
248.6573503713684
 51
291.3426496286314
  0
LINE
  5
18563
102
{ACAD_REACTORS
330
1854E
102
}
330
1853D
100
AcDbEntity
  8
AM_BOR
100
AcDbLine
 10
-186.4999241163533
 20
13.04299424448096
 30
0.0
 11
-183.3722028735047
 21
13.04299424448096
 31
0.0
  0
LINE
  5
18564
102
{ACAD_REACTORS
330
1854E
102
}
330
1853D
100
AcDbEntity
  8
AM_BOR
100
AcDbLine
 10
-188.2999091127343
 20
14.84297924086208
 30
0.0
 11
-183.0220216617667
 21
14.84297924086208
 31
0.0
  0
LINE
  5
18565
102
{ACAD_REACTORS
330
1854E
102
}
330
1853D
100
AcDbEntity
  8
AM_BOR
100
AcDbLine
 10
-186.4999241163533
 20
9.893020500814277
 30
0.0
 11
-186.4999241163533
 21
13.04299424448096
 31
0.0
  0
LINE
  5
18566
102
{ACAD_REACTORS
330
1854B
102
}
330
1853D
100
AcDbEntity
  8
AM_0
100
AcDbLine
 10
-183.4749377501091
 20
16.24999998775003
 30
0.0
 11
-189.9999999999998
 21
16.24999998775003
 31
0.0
  0
LINE
  5
18567
102
{ACAD_REACTORS
330
1854B
102
}
330
1853D
100
AcDbEntity
  8
AM_0
100
AcDbLine
 10
-183.3738592692434
 20
16.74999998775003
 30
0.0
 11
-190.0
 21
16.74999998775003
 31
0.0
  0
LINE
  5
18568
102
{ACAD_REACTORS
330
1854B
102
}
330
1853D
100
AcDbEntity
  8
AM_0
100
AcDbLine
 10
-190.0
 20
16.74999998775003
 30
0.0
 11
-189.9999999999998
 21
16.24999998775003
 31
0.0
  0
LINE
  5
18569
102
{ACAD_REACTORS
330
1854F
102
}
330
1853D
100
AcDbEntity
  8
AM_BOR
100
AcDbLine
 10
-188.2999091127343
 20
17.98297924086199
 30
0.0
 11
-182.8999541235913
 21
17.98297924086199
 31
0.0
  0
ARC
  5
1856A
102
{ACAD_REACTORS
330
1854F
102
}
330
1853D
100
AcDbEntity
  8
AM_BOR
100
AcDbCircle
 10
-177.799996633845
 20
29.8435946634442
 30
0.0
 40
11.11062167409004
100
AcDbArc
 50
244.8902533520527
 51
295.1097466479472
  0
LINE
  5
1856B
102
{ACAD_REACTORS
330
1854E
102
}
330
1853D
100
AcDbEntity
  8
AM_0
100
AcDbLine
 10
-167.3000841549557
 20
8.093035504433164
 30
0.0
 11
-167.3000841549557
 21
14.84297924086208
 31
0.0
  0
CIRCLE
  5
1856C
330
1853D
100
AcDbEntity
  8
AM_0
100
AcDbCircle
 10
-124.380293346984
 20
32.4999999755001
 30
0.0
 40
1.8
  0
CIRCLE
  5
1856D
330
1853D
100
AcDbEntity
  8
AM_0
100
AcDbCircle
 10
-124.380293346984
 20
32.4999999755001
 30
0.0
 40
2.700000000000038
  0
LINE
  5
1856E
330
1853D
100
AcDbEntity
  8
AM_7
  6
AM_ISO08W050x2
100
AcDbLine
 10
-138.1049065250949
 20
32.4999999755001
 30
0.0
 11
-120.9604255617827
 21
32.4999999755001
 31
0.0
1001
GENIUS_GENODEF_13
1002
{
1000
HIER
1070
     0
1002
}
1002
{
1000
MANEDIT
1070
     0
1002
}
1002
{
1000
NOSEL
1070
     0
1002
}
1002
{
1000
BEHIND
1070
     0
1002
}
1002
{
1000
REACTOR
1002
}
1001
GENIUS_GENOBJ-N-CEN_13
1002
{
1000
OWNER
1000
GEN
1002
}
  0
MTEXT
  5
1856F
330
1853D
100
AcDbEntity
  8
AM_0
100
AcDbMText
 10
-166.0331969893245
 20
14.52172519111269
 30
0.0
 40
2.376
 41
71.14
 71
     1
 72
     5
  1
{\fISOCTEUR|b0|i0|c0|p49;Accessories for fittings}
 73
     1
 44
1.0
  0
MTEXT
  5
18570
330
1853D
100
AcDbEntity
  8
AM_0
100
AcDbMText
 10
-166.2858627232913
 20
21.86895223194097
 30
0.0
 40
3.564
 41
80.45999999999999
 71
     1
 72
     5
  1
{\fArial Black|b0|i0|c0|p34;Fratelli Comunello }
  7
ACISOTS
 73
     1
 44
1.0
  0
LINE
  5
18571
330
1853D
100
AcDbEntity
  8
AM_7
  6
AM_ISO08W050x2
100
AcDbLine
 10
-124.380293346984
 20
35.98912961192911
 30
0.0
 11
-124.380293346984
 21
29.01126421122319
 31
0.0
1001
GENIUS_GENODEF_13
1002
{
1000
HIER
1070
     0
1002
}
1002
{
1000
MANEDIT
1070
     0
1002
}
1002
{
1000
NOSEL
1070
     0
1002
}
1002
{
1000
BEHIND
1070
     0
1002
}
1002
{
1000
REACTOR
1002
}
1001
GENIUS_GENOBJ-N-CEN_13
1002
{
1000
OWNER
1000
GEN
1002
}
  0
LINE
  5
18572
330
1853D
100
AcDbEntity
  8
AM_0
100
AcDbLine
 10
-137.284782198657
 20
30.6999999755001
 30
0.0
 11
-137.284782198657
 21
34.2999999755001
 31
0.0
  0
LINE
  5
18573
330
1853D
100
AcDbEntity
  8
AM_0
100
AcDbLine
 10
-129.9383386702092
 20
29.79999997550006
 30
0.0
 11
-129.9383386702092
 21
35.19999997550014
 31
0.0
  0
LINE
  5
18574
330
1853D
100
AcDbEntity
  8
AM_BOR
100
AcDbLine
 10
-141.523492063492
 20
36.49999997550014
 30
0.0
 11
-141.523492063492
 21
28.49999997550003
 31
0.0
  0
LINE
  5
18575
330
1853D
100
AcDbEntity
  8
AM_BOR
100
AcDbLine
 10
-165.761746031746
 20
36.49999997550014
 30
0.0
 11
-165.761746031746
 21
28.49999997550006
 31
0.0
  0
LINE
  5
18576
102
{ACAD_REACTORS
330
1854F
102
}
330
1853D
100
AcDbEntity
  8
AM_BOR
100
AcDbLine
 10
-167.3000841549557
 20
17.9829792408621
 30
0.0
 11
-167.3000841549557
 21
24.73292297729091
 31
0.0
  0
LINE
  5
18577
102
{ACAD_REACTORS
330
1854F
102
}
330
1853D
100
AcDbEntity
  8
AM_BOR
100
AcDbLine
 10
-169.1000691513367
 20
19.7829642372431
 30
0.0
 11
-169.1000691513367
 21
22.93293798090991
 31
0.0
  0
LINE
  5
18578
330
1853D
100
AcDbEntity
  8
AM_BOR
100
AcDbLine
 10
-169.1000691513366
 20
19.7829642372431
 30
0.0
 11
-169.1000691513366
 21
22.93293798090991
 31
0.0
  0
LINE
  5
18579
102
{ACAD_REACTORS
330
1854E
102
}
330
1853D
100
AcDbEntity
  8
AM_0
100
AcDbLine
 10
-169.1000691513367
 20
9.893020500814163
 30
0.0
 11
-169.1000691513367
 21
13.04299424448096
 31
0.0
  0
LINE
  5
1857A
330
1853D
100
AcDbEntity
  8
AM_0
100
AcDbLine
 10
-137.284782198657
 20
30.6999999755001
 30
0.0
 11
-129.9383386702092
 21
29.79999997550006
 31
0.0
  0
TEXT
  5
1857B
330
1853D
100
AcDbEntity
  8
AM_BOR
 62
     3
100
AcDbText
 10
-164.8514948529634
 20
33.49999997550026
 30
0.0
 40
2.5
  1
Sostituito dal
 41
0.8
  7
QUOTE
100
AcDbText
  0
TEXT
  5
1857C
330
1853D
100
AcDbEntity
  8
AM_BOR
 62
     3
100
AcDbText
 10
-164.8330952380952
 20
45.75
 30
0.0
 40
2.5
  1
Denominazione
 41
0.8
  7
QUOTE
 72
     4
 11
-153.642619047619
 21
47.0
 31
0.0
100
AcDbText
  0
LINE
  5
1857D
330
1853D
100
AcDbEntity
  8
AM_0
100
AcDbLine
 10
-137.284782198657
 20
34.2999999755001
 30
0.0
 11
-129.9383386702092
 21
35.19999997550014
 31
0.0
  0
MTEXT
  5
1857E
330
1853D
100
AcDbEntity
  8
AM_0
100
AcDbMText
 10
-115.7246700667165
 20
20.45426878249846
 30
0.0
 40
2.28096
 41
51.4944
 71
     1
 72
     5
  1
{\fArial Black|b0|i0|c0|p34;S.p.A}
  7
ACISOTS
 73
     1
 44
1.0
  0
TEXT
  5
1857F
330
1853D
100
AcDbEntity
  8
AM_6
100
AcDbText
 10
-106.7664486163646
 20
20.06804143302904
 30
0.0
 40
0.9628044757499999
  1
R
 41
0.8
  7
QUOTE
 72
     4
 11
-106.3629876931932
 21
20.54944367090404
 31
0.0
100
AcDbText
  0
CIRCLE
  5
18580
330
1853D
100
AcDbEntity
  8
AM_6
100
AcDbCircle
 10
-106.3629876931932
 20
20.54944367090404
 30
0.0
 40
0.7019941485886019
  0
LINE
  5
18581
102
{ACAD_REACTORS
330
1854B
102
}
330
1853D
100
AcDbEntity
  8
AM_BOR
100
AcDbLine
 10
-104.9422870460472
 20
16.74999998775001
 30
0.0
 11
-104.9422870460472
 21
16.24999998775003
 31
0.0
  0
TEXT
  5
18582
330
1853D
100
AcDbEntity
  8
AM_BOR
 62
     3
100
AcDbText
 10
-113.7205821618971
 20
41.1815065028598
 30
0.0
 40
2.5
  1
Peso Unit.(Kg)
 41
0.8
  7
QUOTE
100
AcDbText
  0
TEXT
  5
18583
330
1853D
100
AcDbEntity
  8
AM_BOR
 62
     3
100
AcDbText
 10
-114.4845238095238
 20
46.16666666666666
 30
0.0
 40
2.5
  1
Codice Disegno
 41
0.8
  7
QUOTE
 72
     4
 11
-102.8178571428571
 21
47.0
 31
0.0
100
AcDbText
  0
TEXT
  5
18584
330
1853D
100
AcDbEntity
  8
AM_BOR
 62
     3
100
AcDbText
 10
-116.5976286418845
 20
33.49999997550026
 30
0.0
 40
2.5
  1
Scala
 41
0.8
  7
QUOTE
100
AcDbText
  0
LINE
  5
18585
330
1853D
100
AcDbEntity
  8
AM_BOR
100
AcDbLine
 10
0.0
 20
57.5
 30
0.0
 11
0.0
 21
0.0
 31
0.0
  0
LINE
  5
18586
330
1853D
100
AcDbEntity
  8
AM_BOR
100
AcDbLine
 10
-23.06702380952381
 20
57.5
 30
0.0
 11
-23.06702380952381
 21
12.5
 31
0.0
  0
LINE
  5
18587
330
1853D
100
AcDbEntity
  8
AM_BOR
100
AcDbLine
 10
-73.49967888540709
 20
36.49999997550014
 30
0.0
 11
-73.49967888540709
 21
4.5
 31
0.0
  0
LINE
  5
18588
330
1853D
100
AcDbEntity
  8
AM_BOR
100
AcDbLine
 10
-73.49967888540709
 20
12.5
 30
0.0
 11
0.0
 21
12.5
 31
0.0
  0
LINE
  5
18589
330
1853D
100
AcDbEntity
  8
AM_BOR
100
AcDbLine
 10
-73.49967888540709
 20
20.5
 30
0.0
 11
0.0
 21
20.5
 31
0.0
  0
LINE
  5
1858A
330
1853D
100
AcDbEntity
  8
AM_BOR
100
AcDbLine
 10
-40.1931463101742
 20
36.49999997550014
 30
0.0
 11
-40.1931463101742
 21
12.5
 31
0.0
  0
TEXT
  5
1858B
330
1853D
100
AcDbEntity
  8
AM_BOR
 62
     3
100
AcDbText
 10
-72.58464640884369
 20
17.50000000000011
 30
0.0
 40
2.5
  1
Approvato
 41
0.8
  7
QUOTE
100
AcDbText
  0
TEXT
  5
1858C
330
1853D
100
AcDbEntity
  8
AM_BOR
 62
     3
100
AcDbText
 10
-72.89800933888016
 20
9.494654529804051
 30
0.0
 40
2.5
  1
Nr.Art.
 41
0.8
  7
QUOTE
 72
     1
 11
-68.23134267221348
 21
9.494654529804051
 31
0.0
100
AcDbText
  0
TEXT
  5
1858D
330
1853D
100
AcDbEntity
  8
AM_BOR
 62
     3
100
AcDbText
 10
-72.58464640884369
 20
25.49999997550014
 30
0.0
 40
2.5
  1
Verificato
 41
0.8
  7
QUOTE
100
AcDbText
  0
TEXT
  5
1858E
330
1853D
100
AcDbEntity
  8
AM_BOR
 62
     3
100
AcDbText
 10
-39.55566753525067
 20
17.50000000000019
 30
0.0
 40
2.5
  1
Data 
 41
0.8
  7
QUOTE
100
AcDbText
  0
TEXT
  5
1858F
330
1853D
100
AcDbEntity
  8
AM_BOR
 62
     3
100
AcDbText
 10
-39.55566753525067
 20
25.49999997550023
 30
0.0
 40
2.5
  1
Data 
 41
0.8
  7
QUOTE
100
AcDbText
  0
TEXT
  5
18590
330
1853D
100
AcDbEntity
  8
AM_BOR
 62
     3
100
AcDbText
 10
-68.04208333333334
 20
45.75
 30
0.0
 40
2.5
  1
Materiale - UNI
 41
0.8
  7
QUOTE
 72
     4
 11
-55.70875
 21
47.0
 31
0.0
100
AcDbText
  0
TEXT
  5
18591
330
1853D
100
AcDbEntity
  8
AM_BOR
 62
     3
100
AcDbText
 10
-72.87265296633268
 20
33.49999997550026
 30
0.0
 40
2.5
  1
Disegnato
 41
0.8
  7
QUOTE
100
AcDbText
  0
TEXT
  5
18592
330
1853D
100
AcDbEntity
  8
AM_BOR
 62
     3
100
AcDbText
 10
-39.55566753525067
 20
33.49999997550026
 30
0.0
 40
2.5
  1
Data 
 41
0.8
  7
QUOTE
100
AcDbText
  0
TEXT
  5
18593
330
1853D
100
AcDbEntity
  8
AM_BOR
 62
     3
100
AcDbText
 10
-22.1635143838539
 20
17.49580658048648
 30
0.0
 40
2.5
  1
Attrezzatura 3
 41
0.8
  7
QUOTE
 72
     1
 11
-11.30637152671104
 21
17.49580658048648
 31
0.0
100
AcDbText
  0
TEXT
  5
18594
330
1853D
100
AcDbEntity
  8
AM_BOR
 62
     3
100
AcDbText
 10
-22.17065620663248
 20
25.50335030888863
 30
0.0
 40
2.5
  1
Attrezzatura 2
 41
0.8
  7
QUOTE
100
AcDbText
  0
TEXT
  5
18595
330
1853D
100
AcDbEntity
  8
AM_BOR
 62
     3
100
AcDbText
 10
-22.17065620663248
 20
33.50335030888871
 30
0.0
 40
2.5
  1
Attrezzatura 1
 41
0.8
  7
QUOTE
100
AcDbText
  0
TEXT
  5
18596
330
1853D
100
AcDbEntity
  8
AM_BOR
 62
     3
100
AcDbText
 10
-22.36310222305411
 20
41.49279756757721
 30
0.0
 40
2.5
  1
Coeff.Impiego
 41
0.8
  7
QUOTE
100
AcDbText
  0
TEXT
  5
18597
330
1853D
100
AcDbEntity
  8
AM_BOR
 62
     3
100
AcDbText
 10
-20.48590476190476
 20
45.75
 30
0.0
 40
2.5
  1
Codice Mat.
 41
0.8
  7
QUOTE
 72
     4
 11
-11.53352380952381
 21
47.0
 31
0.0
100
AcDbText
  0
ATTDEF
  5
18598
330
1853D
100
AcDbEntity
  8
AM_BOR
 62
     2
100
AcDbText
 10
-188.7603193669182
 20
53.99987316562778
 30
0.0
 40
2.0
  1

  7
ISO
100
AcDbAttributeDefinition
  3
DENOMINAZIONE 1(MAX 40)
  2
DENOMINAZIONE1
 70
     0
  0
ATTDEF
  5
18599
330
1853D
100
AcDbEntity
  8
AM_BOR
 62
     2
100
AcDbText
 10
-188.7603193669182
 20
50.49987316562777
 30
0.0
 40
2.0
  1

  7
ISO
100
AcDbAttributeDefinition
  3
DENOMINAZIONE 2(MAX 40)
  2
DENOMINAZIONE2
 70
     0
  0
ATTDEF
  5
1859A
330
1853D
100
AcDbEntity
  8
AM_BOR
 62
     2
100
AcDbText
 10
-102.8178571428571
 20
53.49987316562778
 30
0.0
 40
3.5
  1

  7
ISO
 72
     4
 11
-102.8178571428571
 21
53.49987316562778
 31
0.0
100
AcDbAttributeDefinition
  3
CODICE DISEGNO(MAX 8)
  2
CODICEDIS.
 70
     0
  0
ATTDEF
  5
1859B
330
1853D
100
AcDbEntity
  8
AM_BOR
 62
     2
100
AcDbText
 10
-102.8178571428571
 20
37.18137966848746
 30
0.0
 40
2.5
  1

  7
ISO
 72
     1
 11
-102.8178571428571
 21
37.18137966848746
 31
0.0
100
AcDbAttributeDefinition
  3
PESO UNITARIO(MAX 12)
  2
PESOUNITARIO
 70
     0
  0
ATTDEF
  5
1859C
330
1853D
100
AcDbEntity
  8
AM_BOR
 62
     2
100
AcDbText
 10
-87.33297217149113
 20
53.99987316562778
 30
0.0
 40
2.0
  1

  7
ISO
100
AcDbAttributeDefinition
  3
MATERIALE 1(MAX 40)
  2
MATERIALE1
 70
     0
  0
ATTDEF
  5
1859D
330
1853D
100
AcDbEntity
  8
AM_BOR
 62
     2
100
AcDbText
 10
-87.33297217149113
 20
50.49987316562777
 30
0.0
 40
2.0
  1

  7
ISO
100
AcDbAttributeDefinition
  3
MATERIALE 2(MAX 40)
  2
MATERIALE2
 70
     0
  0
ATTDEF
  5
1859E
330
1853D
100
AcDbEntity
  8
AM_BOR
 62
     2
100
AcDbText
 10
-11.53397217149108
 20
53.49987316562778
 30
0.0
 40
2.5
  1

  7
ISO
 72
     4
 11
-11.53397217149108
 21
53.49987316562778
 31
0.0
100
AcDbAttributeDefinition
  3
CODICE MATERIALE(MAX 13)
  2
CODICEMAT.
 70
     0
  0
ATTDEF
  5
1859F
330
1853D
100
AcDbEntity
  8
AM_BOR
 62
     2
100
AcDbText
 10
-11.53397217149108
 20
37.49987316562777
 30
0.0
 40
2.5
  1

  7
ISO
 72
     1
 11
-11.53397217149108
 21
37.49987316562777
 31
0.0
100
AcDbAttributeDefinition
  3
COEFF.D'IMPIEGO(MAX 12)
  2
COEFF.IMPIEGO
 70
     0
  0
ATTDEF
  5
185A0
330
1853D
100
AcDbEntity
  8
AM_BOR
 62
     2
100
AcDbText
 10
-68.60697217149109
 20
40.99987316562777
 30
0.0
 40
2.5
  1

  7
ISO
100
AcDbAttributeDefinition
  3
TRATTAMENTO 1(MAX 23)
  2
TRATTAMENTO1
 70
     0
  0
ATTDEF
  5
185A1
330
1853D
100
AcDbEntity
  8
AM_BOR
 62
     2
100
AcDbText
 10
-87.35097217149109
 20
37.49987316562777
 30
0.0
 40
2.5
  1

  7
ISO
100
AcDbAttributeDefinition
  3
TRATTAMENTO 2(MAX 32)
  2
TRATTAMENTO2
 70
     0
  0
ATTDEF
  5
185A2
330
1853D
100
AcDbEntity
  8
AM_BOR
 62
     2
100
AcDbText
 10
-102.8178571428571
 20
29.49987316562777
 30
0.0
 40
2.5
  1

  7
ISO
 72
     1
 11
-102.8178571428571
 21
29.49987316562777
 31
0.0
100
AcDbAttributeDefinition
  3
SCALA(MAX 7)
  2
SCALA
 70
     0
  0
ATTDEF
  5
185A3
330
1853D
100
AcDbEntity
  8
AM_BOR
 62
     2
100
AcDbText
 10
-80.92507753794166
 20
32.49987316562777
 30
0.0
 40
3.5
  1

  7
ISO
 72
     4
 11
-80.92507753794166
 21
32.49987316562777
 31
0.0
100
AcDbAttributeDefinition
  3
FORMATO FOGLIO(MAX 2)
  2
FORMATOFOGLIO
 70
     0
  0
ATTDEF
  5
185A4
330
1853D
100
AcDbEntity
  8
AM_BOR
 62
     2
100
AcDbText
 10
-56.8459721714911
 20
29.49987316562777
 30
0.0
 40
2.5
  1

  7
ISO
 72
     1
 11
-56.8459721714911
 21
29.49987316562777
 31
0.0
100
AcDbAttributeDefinition
  3
DISEGNATO(MAX 16)
  2
DISEGNATO
 70
     0
  0
ATTDEF
  5
185A5
330
1853D
100
AcDbEntity
  8
AM_BOR
 62
     2
100
AcDbText
 10
-31.62997217149111
 20
29.49987316562777
 30
0.0
 40
2.5
  1

  7
ISO
 72
     1
 11
-31.62997217149111
 21
29.49987316562777
 31
0.0
100
AcDbAttributeDefinition
  3
DATA DISEGNO(MAX 8)
  2
DATADISEGNO
 70
     0
  0
ATTDEF
  5
185A6
330
1853D
100
AcDbEntity
  8
AM_BOR
 62
     2
100
AcDbText
 10
-56.8459721714911
 20
21.49987316562777
 30
0.0
 40
2.5
  1

  7
ISO
 72
     1
 11
-56.8459721714911
 21
21.49987316562777
 31
0.0
100
AcDbAttributeDefinition
  3
VERIFICATO(MAX 16)
  2
VERIFICATO
 70
     0
  0
ATTDEF
  5
185A7
330
1853D
100
AcDbEntity
  8
AM_BOR
 62
     2
100
AcDbText
 10
-31.62997217149111
 20
21.49987316562777
 30
0.0
 40
2.5
  1

  7
ISO
 72
     1
 11
-31.62997217149111
 21
21.49987316562777
 31
0.0
100
AcDbAttributeDefinition
  3
DATA VERIFICA(MAX 8)
  2
DATAVERIFICA
 70
     0
  0
ATTDEF
  5
185A8
330
1853D
100
AcDbEntity
  8
AM_BOR
 62
     2
100
AcDbText
 10
-56.8459721714911
 20
13.49987316562777
 30
0.0
 40
2.5
  1

  7
ISO
 72
     1
 11
-56.8459721714911
 21
13.49987316562777
 31
0.0
100
AcDbAttributeDefinition
  3
APPROVATO(MAX 16)
  2
APPROVATO
 70
     0
  0
ATTDEF
  5
185A9
330
1853D
100
AcDbEntity
  8
AM_BOR
 62
     2
100
AcDbText
 10
-31.62997217149111
 20
13.49987316562777
 30
0.0
 40
2.5
  1

  7
ISO
 72
     1
 11
-31.62997217149111
 21
13.49987316562777
 31
0.0
100
AcDbAttributeDefinition
  3
DATA APPROVAZIONE(MAX 8)
  2
DATAAPPROVAZIONE
 70
     0
  0
ATTDEF
  5
185AA
330
1853D
100
AcDbEntity
  8
AM_BOR
 62
     2
100
AcDbText
 10
-62.94997217149111
 20
8.999873165627775
 30
0.0
 40
2.5
  1

  7
ISO
100
AcDbAttributeDefinition
  3
NUMERO ARTICOLO 1(MAX 31)
  2
NR.ART.1
 70
     0
  0
ATTDEF
  5
185AB
330
1853D
100
AcDbEntity
  8
AM_BOR
 62
     2
100
AcDbText
 10
-72.49997217149112
 20
5.499873165627775
 30
0.0
 40
2.5
  1

  7
ISO
100
AcDbAttributeDefinition
  3
NUMERO ARTICOLO 2(MAX 36)
  2
NR.ART.2
 70
     0
  0
ATTDEF
  5
185AC
330
1853D
100
AcDbEntity
  8
AM_BOR
 62
     2
100
AcDbText
 10
-11.53397217149108
 20
29.49987316562777
 30
0.0
 40
2.5
  1

  7
ISO
 72
     1
 11
-11.53397217149108
 21
29.49987316562777
 31
0.0
100
AcDbAttributeDefinition
  3
ATTREZZATURA 1(MAX 13)
  2
ATTREZZATURA1
 70
     0
  0
ATTDEF
  5
185AD
330
1853D
100
AcDbEntity
  8
AM_BOR
 62
     2
100
AcDbText
 10
-11.53397217149108
 20
21.49987316562777
 30
0.0
 40
2.5
  1

  7
ISO
 72
     1
 11
-11.53397217149108
 21
21.49987316562777
 31
0.0
100
AcDbAttributeDefinition
  3
ATTREZZATURA 2(MAX 13)
  2
ATTREZZATURA2
 70
     0
  0
ATTDEF
  5
185AE
330
1853D
100
AcDbEntity
  8
AM_BOR
 62
     2
100
AcDbText
 10
-11.53397217149108
 20
13.49987316562777
 30
0.0
 40
2.5
  1

  7
ISO
 72
     1
 11
-11.53397217149108
 21
13.49987316562777
 31
0.0
100
AcDbAttributeDefinition
  3
ATTREZZATURA 3(MAX 13)
  2
ATTREZZATURA3
 70
     0
  0
ATTDEF
  5
185AF
330
1853D
100
AcDbEntity
  8
AM_BOR
 62
     2
100
AcDbText
 10
-153.9686864572054
 20
40.99987316562777
 30
0.0
 40
2.5
  1
GRADO DI PRECISIONE:
  7
ISO
 72
     1
 11
-139.0579721714911
 21
40.99987316562777
 31
0.0
100
AcDbAttributeDefinition
  3

  2
TOLLERANZEGENERALI
 70
     2
  0
ATTDEF
  5
185B0
330
1853D
100
AcDbEntity
  8
AM_BOR
 62
     2
100
AcDbText
 10
-188.9999721714911
 20
37.49987316562777
 30
0.0
 40
2.5
  1
UNI-EN 22768-m
  7
ISO
100
AcDbAttributeDefinition
  3
TOLL.GENERALI(MAX 36)
  2
TOLLERANZEGENERALI
 70
     0
  0
ATTDEF
  5
185B1
330
1853D
100
AcDbEntity
  8
AM_BOR
 62
     2
100
AcDbText
 10
-177.880972171491
 20
29.49987316562777
 30
0.0
 40
2.5
  1

  7
ISO
 72
     1
 11
-177.880972171491
 21
29.49987316562777
 31
0.0
100
AcDbAttributeDefinition
  3
SOSTITUISCE IL(MAX 13)
  2
SOSTITUISCEIL
 70
     0
  0
ATTDEF
  5
185B2
330
1853D
100
AcDbEntity
  8
AM_BOR
 62
     2
100
AcDbText
 10
-153.6429721714911
 20
29.49987316562777
 30
0.0
 40
2.5
  1

  7
ISO
 72
     1
 11
-153.6429721714911
 21
29.49987316562777
 31
0.0
100
AcDbAttributeDefinition
  3
SOSTITUITO DAL(MAX 13)
  2
SOSTITUITODAL
 70
     0
  0
ENDBLK
  5
185B4
330
1853D
100
AcDbEntity
  8
0
100
AcDbBlockEnd
  0
ENDSEC
  0
SECTION
  2
ENTITIES
  0
TEXT
  5
1412
330
2
100
AcDbEntity
  8
AM_0
100
AcDbText
 10
135.7407754016489
 20
268.2176915762885
 30
0.0
 40
3.5
  1
ART.402 CERNIERA 2 ALI
 41
0.8
  7
QUOTE
100
AcDbText
  0
LINE
  5
1418
330
2
100
AcDbEntity
  8
AM_0
100
AcDbLine
 10
50.26924692525992
 20
247.148872707655
 30
0.0
 11
274.2067564308986
 21
247.148872707655
 31
0.0
  0
LINE
  5
141A
330
2
100
AcDbEntity
  8
AM_0
100
AcDbLine
 10
50.26924692525992
 20
253.7488727076551
 30
0.0
 11
274.2067564308986
 21
253.7488727076551
 31
0.0
  0
LINE
  5
141B
330
2
100
AcDbEntity
  8
AM_0
100
AcDbLine
 10
50.26924692525992
 20
260.269695490447
 30
0.0
 11
274.2067564308986
 21
260.269695490447
 31
0.0
  0
LINE
  5
1430
330
2
100
AcDbEntity
  8
AM_0
100
AcDbLine
 10
177.2380016780792
 20
287.8645595424711
 30
0.0
 11
177.2380016780792
 21
297.8645595424712
 31
0.0
  0
LINE
  5
1431
330
2
100
AcDbEntity
  8
AM_0
100
AcDbLine
 10
178.2380016780792
 20
286.8645595424711
 30
0.0
 11
178.2380016780792
 21
298.8645595424711
 31
0.0
  0
LINE
  5
1432
330
2
100
AcDbEntity
  8
AM_0
100
AcDbLine
 10
146.2380016780793
 20
298.8645595424711
 30
0.0
 11
146.2380016780793
 21
286.8645595424711
 31
0.0
  0
LINE
  5
1433
330
2
100
AcDbEntity
  8
AM_0
100
AcDbLine
 10
147.2380016780792
 20
297.8645595424712
 30
0.0
 11
147.2380016780792
 21
287.8645595424711
 31
0.0
  0
TEXT
  5
1435
330
2
100
AcDbEntity
  8
AM_5
100
AcDbText
 10
108.6733201266211
 20
218.8954513343155
 30
0.0
 40
2.999999997
  1

 41
0.8
 51
20.0
  7
CART
 72
     4
 11
108.6733201266211
 21
218.8954513343155
 31
0.0
100
AcDbText
  0
TEXT
  5
1447
330
2
100
AcDbEntity
  8
AM_5
100
AcDbText
 10
51.20149287875095
 20
254.7862677331752
 30
0.0
 40
3.2999999967
  1
CODICE ARTICOLO
 41
0.8
 51
20.0
  7
CART
 72
     4
 11
68.67577857556239
 21
256.4362677315252
 31
0.0
100
AcDbText
  0
LINE
  5
1448
330
2
100
AcDbEntity
  8
AM_0
100
AcDbLine
 10
50.26924692525992
 20
260.269695490447
 30
0.0
 11
50.26924692525992
 21
220.9072271420711
 31
0.0
  0
TEXT
  5
144A
330
2
100
AcDbEntity
  8
AM_5
100
AcDbText
 10
58.43006430009381
 20
248.3446630845194
 30
0.0
 40
3.2999999967
  1
11604206
 41
0.8
 51
20.0
  7
CART
 72
     4
 11
68.67577857556239
 21
249.9946630828694
 31
0.0
100
AcDbText
  0
LINE
  5
1452
330
2
100
AcDbEntity
  8
AM_0
100
AcDbLine
 10
146.2380016780793
 20
286.8645595424711
 30
0.0
 11
178.2380016780792
 21
286.8645595424711
 31
0.0
  0
LINE
  5
1453
330
2
100
AcDbEntity
  8
AM_0
100
AcDbLine
 10
147.2380016780792
 20
287.8645595424711
 30
0.0
 11
177.2380016780792
 21
287.8645595424711
 31
0.0
  0
LINE
  5
147A
330
2
100
AcDbEntity
  8
AM_0
100
AcDbLine
 10
178.2380016780792
 20
298.8645595424711
 30
0.0
 11
146.2380016780793
 21
298.8645595424711
 31
0.0
  0
LINE
  5
147B
330
2
100
AcDbEntity
  8
AM_0
100
AcDbLine
 10
177.2380016780792
 20
297.8645595424712
 30
0.0
 11
147.2380016780792
 21
297.8645595424712
 31
0.0
  0
TEXT
  5
147C
330
2
100
AcDbEntity
  8
AM_0
100
AcDbText
 10
155.1571431530792
 20
290.2490347126223
 30
0.0
 40
5.0
  1
402
  7
COMPLEX
100
AcDbText
  0
TEXT
  5
1488
330
2
100
AcDbEntity
  8
AM_5
100
AcDbText
 10
223.9429417487027
 20
254.7862677331752
 30
0.0
 40
3.2999999967
  1
CONFEZ.
 41
0.8
 51
20.0
  7
CART
 72
     4
 11
232.1772274547541
 21
256.4362677315252
 31
0.0
100
AcDbText
  0
TEXT
  5
1498
330
2
100
AcDbEntity
  8
AM_5
100
AcDbText
 10
225.5317347008906
 20
248.4424003529284
 30
0.0
 40
3.2999999967
  1
Pz.10
 41
0.8
 51
20.0
  7
CART
 72
     4
 11
231.126020409582
 21
250.0924003512784
 31
0.0
100
AcDbText
  0
TEXT
  5
149C
330
2
100
AcDbEntity
  8
AM_5
100
AcDbText
 10
245.5290022548809
 20
254.7862677331752
 30
0.0
 40
3.2999999967
  1
PESO LORDO
 41
0.8
 51
20.0
  7
CART
 72
     4
 11
258.540430813298
 21
256.4362677315252
 31
0.0
100
AcDbText
  0
LINE
  5
149D
330
2
100
AcDbEntity
  8
AM_0
100
AcDbLine
 10
243.4514917887383
 20
260.269695490447
 30
0.0
 11
243.4514917887382
 21
220.9072271420711
 31
0.0
  0
LINE
  5
149E
330
2
100
AcDbEntity
  8
AM_0
100
AcDbLine
 10
274.2067564308986
 20
260.269695490447
 30
0.0
 11
274.2067564308986
 21
220.9072271420711
 31
0.0
  0
TEXT
  5
14A0
330
2
100
AcDbEntity
  8
AM_5
100
AcDbText
 10
248.4881538253393
 20
248.4097848243541
 30
0.0
 40
3.2999999967
  1
0,375 Kg.
 41
0.8
 51
20.0
  7
CART
 72
     4
 11
258.545296672425
 21
249.509784823254
 31
0.0
100
AcDbText
1001
GENIUS_GENTRA_14
1002
{
1070
     1
1000
/
1000
1,500 Kg.
1000
ITA
1070
     0
1040
0.8
1070
     0
1002
}
  0
INSERT
  5
1FA2
330
2
100
AcDbEntity
  8
AM_0
100
AcDbBlockReference
  2
LAYER-GENIUS
 10
0.0
 20
0.0
 30
0.0
  0
INSERT
  5
3FB0
330
2
100
AcDbEntity
  8
AME_FRZ
100
AcDbBlockReference
  2
AME_NIL
 10
665.1749266138454
 20
256.8822605998164
 30
0.0
  0
INSERT
  5
3FB1
330
2
100
AcDbEntity
  8
AME_FRZ
100
AcDbBlockReference
  2
AME_SOL
 10
665.1749266138454
 20
256.8822605998164
 30
0.0
1001
AME_SOL
1000
R2.1
1000
AME2
1000
cm^ 2
1070
     3
1070
     0
1070
     3
1000
wire
1040
45.0
1000
U
1040
1.0
1000
cm
1000
gm
1000
MILD_STEEL
1070
    25
1000
CSG
1070
     1
1070
     3
1070
     3
1070
     3
1070
     0
1000
cm^ 3
1070
     1
1070
     0
1005
3FB0
  0
INSERT
  5
3FB2
330
2
100
AcDbEntity
  8
AME_FRZ
100
AcDbBlockReference
  2
AME_NIL
 10
1254.907169502587
 20
272.8384396118305
 30
0.0
  0
INSERT
  5
3FB3
330
2
100
AcDbEntity
  8
AME_FRZ
100
AcDbBlockReference
  2
AME_SOL
 10
1254.907169502587
 20
272.8384396118305
 30
0.0
1001
AME_SOL
1000
R2.1
1000
AME2
1000
cm^ 2
1070
     3
1070
     0
1070
     3
1000
wire
1040
45.0
1000
U
1040
1.0
1000
cm
1000
gm
1000
MILD_STEEL
1070
    25
1000
CSG
1070
     1
1070
     3
1070
     3
1070
     3
1070
     0
1000
cm^ 3
1070
     1
1070
     0
1005
3FB2
  0
INSERT
  5
3FB4
330
2
100
AcDbEntity
  8
AME_FRZ
100
AcDbBlockReference
  2
AME_NIL
 10
1233.778243790486
 20
260.9259284382069
 30
0.0
  0
INSERT
  5
3FB5
330
2
100
AcDbEntity
  8
AME_FRZ
100
AcDbBlockReference
  2
AME_SOL
 10
1233.778243790486
 20
260.9259284382069
 30
0.0
1001
AME_SOL
1000
R2.1
1000
AME2
1000
cm^ 2
1070
     3
1070
     0
1070
     3
1000
wire
1040
45.0
1000
U
1040
1.0
1000
cm
1000
gm
1000
MILD_STEEL
1070
    25
1000
CSG
1070
     1
1070
     3
1070
     3
1070
     3
1070
     0
1000
cm^ 3
1070
     1
1070
     0
1005
3FB4
  0
INSERT
  5
3FB6
330
2
100
AcDbEntity
  8
AME_FRZ
100
AcDbBlockReference
  2
AME_NIL
 10
791.2522438810989
 20
295.8633801377737
 30
0.0
  0
INSERT
  5
3FB7
330
2
100
AcDbEntity
  8
AME_FRZ
100
AcDbBlockReference
  2
AME_SOL
 10
791.2522438810989
 20
295.8633801377737
 30
0.0
1001
AME_SOL
1000
R2.1
1000
AME2
1000
cm^ 2
1070
     3
1070
     0
1070
     3
1000
wire
1040
45.0
1000
U
1040
1.0
1000
cm
1000
gm
1000
MILD_STEEL
1070
    25
1000
CSG
1070
     1
1070
     3
1070
     3
1070
     3
1070
     0
1000
cm^ 3
1070
     1
1070
     0
1005
3FB6
  0
INSERT
  5
3FB8
330
2
100
AcDbEntity
  8
AME_FRZ
100
AcDbBlockReference
  2
AME_NIL
 10
791.2522438810989
 20
295.8633801377737
 30
0.0
  0
INSERT
  5
3FB9
330
2
100
AcDbEntity
  8
AME_FRZ
100
AcDbBlockReference
  2
AME_SOL
 10
791.2522438810989
 20
295.8633801377737
 30
0.0
1001
AME_SOL
1000
R2.1
1000
AME2
1000
cm^ 2
1070
     3
1070
     0
1070
     3
1000
wire
1040
45.0
1000
U
1040
1.0
1000
cm
1000
gm
1000
MILD_STEEL
1070
    25
1000
CSG
1070
     1
1070
     3
1070
     3
1070
     3
1070
     0
1000
cm^ 3
1070
     1
1070
     0
1005
3FB8
  0
INSERT
  5
3FC1
330
2
100
AcDbEntity
  8
AM_0
100
AcDbBlockReference
  2
LAYER-GENIUS
 10
409.2547617965424
 20
68.91854397087673
 30
0.0
  0
INSERT
  5
3FC4
330
2
100
AcDbEntity
  8
AME_FRZ
100
AcDbBlockReference
  2
AME_NIL
 10
1063.146634195381
 20
251.3962524136537
 30
0.0
  0
INSERT
  5
3FC5
330
2
100
AcDbEntity
  8
AME_FRZ
100
AcDbBlockReference
  2
AME_SOL
 10
1063.146634195381
 20
251.3962524136537
 30
0.0
1001
AME_SOL
1000
R2.1
1000
AME2
1000
cm^ 2
1070
     3
1070
     0
1070
     3
1000
wire
1040
45.0
1000
U
1040
1.0
1000
cm
1000
gm
1000
MILD_STEEL
1070
    25
1000
CSG
1070
     1
1070
     3
1070
     3
1070
     3
1070
     0
1000
cm^ 3
1070
     1
1070
     0
1005
3FC4
  0
INSERT
  5
3FC6
330
2
100
AcDbEntity
  8
AME_FRZ
100
AcDbBlockReference
  2
AME_NIL
 10
1652.878877084122
 20
267.3524314256677
 30
0.0
  0
INSERT
  5
3FC7
330
2
100
AcDbEntity
  8
AME_FRZ
100
AcDbBlockReference
  2
AME_SOL
 10
1652.878877084122
 20
267.3524314256677
 30
0.0
1001
AME_SOL
1000
R2.1
1000
AME2
1000
cm^ 2
1070
     3
1070
     0
1070
     3
1000
wire
1040
45.0
1000
U
1040
1.0
1000
cm
1000
gm
1000
MILD_STEEL
1070
    25
1000
CSG
1070
     1
1070
     3
1070
     3
1070
     3
1070
     0
1000
cm^ 3
1070
     1
1070
     0
1005
3FC6
  0
INSERT
  5
3FC8
330
2
100
AcDbEntity
  8
AME_FRZ
100
AcDbBlockReference
  2
AME_NIL
 10
1631.749951372022
 20
255.439920252044
 30
0.0
  0
INSERT
  5
3FC9
330
2
100
AcDbEntity
  8
AME_FRZ
100
AcDbBlockReference
  2
AME_SOL
 10
1631.749951372022
 20
255.439920252044
 30
0.0
1001
AME_SOL
1000
R2.1
1000
AME2
1000
cm^ 2
1070
     3
1070
     0
1070
     3
1000
wire
1040
45.0
1000
U
1040
1.0
1000
cm
1000
gm
1000
MILD_STEEL
1070
    25
1000
CSG
1070
     1
1070
     3
1070
     3
1070
     3
1070
     0
1000
cm^ 3
1070
     1
1070
     0
1005
3FC8
  0
INSERT
  5
3FCA
330
2
100
AcDbEntity
  8
AME_FRZ
100
AcDbBlockReference
  2
AME_NIL
 10
1189.223951462634
 20
290.3773719516109
 30
0.0
  0
INSERT
  5
3FCB
330
2
100
AcDbEntity
  8
AME_FRZ
100
AcDbBlockReference
  2
AME_SOL
 10
1189.223951462634
 20
290.3773719516109
 30
0.0
1001
AME_SOL
1000
R2.1
1000
AME2
1000
cm^ 2
1070
     3
1070
     0
1070
     3
1000
wire
1040
45.0
1000
U
1040
1.0
1000
cm
1000
gm
1000
MILD_STEEL
1070
    25
1000
CSG
1070
     1
1070
     3
1070
     3
1070
     3
1070
     0
1000
cm^ 3
1070
     1
1070
     0
1005
3FCA
  0
INSERT
  5
3FCC
330
2
100
AcDbEntity
  8
AME_FRZ
100
AcDbBlockReference
  2
AME_NIL
 10
1189.223951462634
 20
290.3773719516109
 30
0.0
  0
INSERT
  5
3FCD
330
2
100
AcDbEntity
  8
AME_FRZ
100
AcDbBlockReference
  2
AME_SOL
 10
1189.223951462634
 20
290.3773719516109
 30
0.0
1001
AME_SOL
1000
R2.1
1000
AME2
1000
cm^ 2
1070
     3
1070
     0
1070
     3
1000
wire
1040
45.0
1000
U
1040
1.0
1000
cm
1000
gm
1000
MILD_STEEL
1070
    25
1000
CSG
1070
     1
1070
     3
1070
     3
1070
     3
1070
     0
1000
cm^ 3
1070
     1
1070
     0
1005
3FCC
  0
INSERT
  5
3FCE
330
2
100
AcDbEntity
  8
AM_0
100
AcDbBlockReference
  2
LAYER-GENIUS
 10
830.7451081354459
 20
76.89122877817908
 30
0.0
  0
INSERT
  5
3FCF
330
2
100
AcDbEntity
  8
AM_0
100
AcDbBlockReference
  2
LAYER-GENIUS
 10
1254.099227195936
 20
98.86978962510784
 30
0.0
  0
INSERT
  5
3FD0
330
2
100
AcDbEntity
  8
AME_FRZ
100
AcDbBlockReference
  2
AME_NIL
 10
1825.034618098377
 20
293.041010172431
 30
0.0
  0
INSERT
  5
3FD1
330
2
100
AcDbEntity
  8
AME_FRZ
100
AcDbBlockReference
  2
AME_SOL
 10
1825.034618098377
 20
293.041010172431
 30
0.0
1001
AME_SOL
1000
R2.1
1000
AME2
1000
cm^ 2
1070
     3
1070
     0
1070
     3
1000
wire
1040
45.0
1000
U
1040
1.0
1000
cm
1000
gm
1000
MILD_STEEL
1070
    25
1000
CSG
1070
     1
1070
     3
1070
     3
1070
     3
1070
     0
1000
cm^ 3
1070
     1
1070
     0
1005
3FD0
  0
INSERT
  5
3FD2
330
2
100
AcDbEntity
  8
AME_FRZ
100
AcDbBlockReference
  2
AME_NIL
 10
2414.76686098712
 20
308.997189184445
 30
0.0
  0
INSERT
  5
3FD3
330
2
100
AcDbEntity
  8
AME_FRZ
100
AcDbBlockReference
  2
AME_SOL
 10
2414.76686098712
 20
308.997189184445
 30
0.0
1001
AME_SOL
1000
R2.1
1000
AME2
1000
cm^ 2
1070
     3
1070
     0
1070
     3
1000
wire
1040
45.0
1000
U
1040
1.0
1000
cm
1000
gm
1000
MILD_STEEL
1070
    25
1000
CSG
1070
     1
1070
     3
1070
     3
1070
     3
1070
     0
1000
cm^ 3
1070
     1
1070
     0
1005
3FD2
  0
INSERT
  5
3FD4
330
2
100
AcDbEntity
  8
AME_FRZ
100
AcDbBlockReference
  2
AME_NIL
 10
2393.637935275019
 20
297.0846780108214
 30
0.0
  0
INSERT
  5
3FD5
330
2
100
AcDbEntity
  8
AME_FRZ
100
AcDbBlockReference
  2
AME_SOL
 10
2393.637935275019
 20
297.0846780108214
 30
0.0
1001
AME_SOL
1000
R2.1
1000
AME2
1000
cm^ 2
1070
     3
1070
     0
1070
     3
1000
wire
1040
45.0
1000
U
1040
1.0
1000
cm
1000
gm
1000
MILD_STEEL
1070
    25
1000
CSG
1070
     1
1070
     3
1070
     3
1070
     3
1070
     0
1000
cm^ 3
1070
     1
1070
     0
1005
3FD4
  0
INSERT
  5
3FD6
330
2
100
AcDbEntity
  8
AME_FRZ
100
AcDbBlockReference
  2
AME_NIL
 10
1951.111935365631
 20
332.0221297103882
 30
0.0
  0
INSERT
  5
3FD7
330
2
100
AcDbEntity
  8
AME_FRZ
100
AcDbBlockReference
  2
AME_SOL
 10
1951.111935365631
 20
332.0221297103882
 30
0.0
1001
AME_SOL
1000
R2.1
1000
AME2
1000
cm^ 2
1070
     3
1070
     0
1070
     3
1000
wire
1040
45.0
1000
U
1040
1.0
1000
cm
1000
gm
1000
MILD_STEEL
1070
    25
1000
CSG
1070
     1
1070
     3
1070
     3
1070
     3
1070
     0
1000
cm^ 3
1070
     1
1070
     0
1005
3FD6
  0
INSERT
  5
3FD8
330
2
100
AcDbEntity
  8
AME_FRZ
100
AcDbBlockReference
  2
AME_NIL
 10
1951.111935365631
 20
332.0221297103882
 30
0.0
  0
INSERT
  5
3FD9
330
2
100
AcDbEntity
  8
AME_FRZ
100
AcDbBlockReference
  2
AME_SOL
 10
1951.111935365631
 20
332.0221297103882
 30
0.0
1001
AME_SOL
1000
R2.1
1000
AME2
1000
cm^ 2
1070
     3
1070
     0
1070
     3
1000
wire
1040
45.0
1000
U
1040
1.0
1000
cm
1000
gm
1000
MILD_STEEL
1070
    25
1000
CSG
1070
     1
1070
     3
1070
     3
1070
     3
1070
     0
1000
cm^ 3
1070
     1
1070
     0
1005
3FD8
  0
INSERT
  5
3FDA
330
2
100
AcDbEntity
  8
AME_FRZ
100
AcDbBlockReference
  2
AME_NIL
 10
2036.98168399276
 20
344.2173611774476
 30
0.0
  0
INSERT
  5
3FDB
330
2
100
AcDbEntity
  8
AME_FRZ
100
AcDbBlockReference
  2
AME_SOL
 10
2036.98168399276
 20
344.2173611774476
 30
0.0
1001
AME_SOL
1000
R2.1
1000
AME2
1000
cm^ 2
1070
     3
1070
     0
1070
     3
1000
wire
1040
45.0
1000
U
1040
1.0
1000
cm
1000
gm
1000
MILD_STEEL
1070
    25
1000
CSG
1070
     1
1070
     3
1070
     3
1070
     3
1070
     0
1000
cm^ 3
1070
     1
1070
     0
1005
3FDA
  0
INSERT
  5
3FDC
330
2
100
AcDbEntity
  8
AME_FRZ
100
AcDbBlockReference
  2
AME_NIL
 10
2626.713926881502
 20
360.1735401894616
 30
0.0
  0
INSERT
  5
3FDD
330
2
100
AcDbEntity
  8
AME_FRZ
100
AcDbBlockReference
  2
AME_SOL
 10
2626.713926881502
 20
360.1735401894616
 30
0.0
1001
AME_SOL
1000
R2.1
1000
AME2
1000
cm^ 2
1070
     3
1070
     0
1070
     3
1000
wire
1040
45.0
1000
U
1040
1.0
1000
cm
1000
gm
1000
MILD_STEEL
1070
    25
1000
CSG
1070
     1
1070
     3
1070
     3
1070
     3
1070
     0
1000
cm^ 3
1070
     1
1070
     0
1005
3FDC
  0
INSERT
  5
3FDE
330
2
100
AcDbEntity
  8
AME_FRZ
100
AcDbBlockReference
  2
AME_NIL
 10
2605.585001169401
 20
348.261029015838
 30
0.0
  0
INSERT
  5
3FDF
330
2
100
AcDbEntity
  8
AME_FRZ
100
AcDbBlockReference
  2
AME_SOL
 10
2605.585001169401
 20
348.261029015838
 30
0.0
1001
AME_SOL
1000
R2.1
1000
AME2
1000
cm^ 2
1070
     3
1070
     0
1070
     3
1000
wire
1040
45.0
1000
U
1040
1.0
1000
cm
1000
gm
1000
MILD_STEEL
1070
    25
1000
CSG
1070
     1
1070
     3
1070
     3
1070
     3
1070
     0
1000
cm^ 3
1070
     1
1070
     0
1005
3FDE
  0
INSERT
  5
3FE0
330
2
100
AcDbEntity
  8
AME_FRZ
100
AcDbBlockReference
  2
AME_NIL
 10
2163.059001260013
 20
383.1984807154048
 30
0.0
  0
INSERT
  5
3FE1
330
2
100
AcDbEntity
  8
AME_FRZ
100
AcDbBlockReference
  2
AME_SOL
 10
2163.059001260013
 20
383.1984807154048
 30
0.0
1001
AME_SOL
1000
R2.1
1000
AME2
1000
cm^ 2
1070
     3
1070
     0
1070
     3
1000
wire
1040
45.0
1000
U
1040
1.0
1000
cm
1000
gm
1000
MILD_STEEL
1070
    25
1000
CSG
1070
     1
1070
     3
1070
     3
1070
     3
1070
     0
1000
cm^ 3
1070
     1
1070
     0
1005
3FE0
  0
INSERT
  5
3FE2
330
2
100
AcDbEntity
  8
AME_FRZ
100
AcDbBlockReference
  2
AME_NIL
 10
2163.059001260013
 20
383.1984807154048
 30
0.0
  0
INSERT
  5
3FE3
330
2
100
AcDbEntity
  8
AME_FRZ
100
AcDbBlockReference
  2
AME_SOL
 10
2163.059001260013
 20
383.1984807154048
 30
0.0
1001
AME_SOL
1000
R2.1
1000
AME2
1000
cm^ 2
1070
     3
1070
     0
1070
     3
1000
wire
1040
45.0
1000
U
1040
1.0
1000
cm
1000
gm
1000
MILD_STEEL
1070
    25
1000
CSG
1070
     1
1070
     3
1070
     3
1070
     3
1070
     0
1000
cm^ 3
1070
     1
1070
     0
1005
3FE2
  0
INSERT
  5
3FE4
330
2
100
AcDbEntity
  8
AME_FRZ
100
AcDbBlockReference
  2
AME_NIL
 10
2813.939383274503
 20
293.4389179443729
 30
0.0
  0
INSERT
  5
3FE5
330
2
100
AcDbEntity
  8
AME_FRZ
100
AcDbBlockReference
  2
AME_SOL
 10
2813.939383274503
 20
293.4389179443729
 30
0.0
1001
AME_SOL
1000
R2.1
1000
AME2
1000
cm^ 2
1070
     3
1070
     0
1070
     3
1000
wire
1040
45.0
1000
U
1040
1.0
1000
cm
1000
gm
1000
MILD_STEEL
1070
    25
1000
CSG
1070
     1
1070
     3
1070
     3
1070
     3
1070
     0
1000
cm^ 3
1070
     1
1070
     0
1005
3FE4
  0
INSERT
  5
3FE6
330
2
100
AcDbEntity
  8
AME_FRZ
100
AcDbBlockReference
  2
AME_NIL
 10
3403.671626163244
 20
309.3950969563869
 30
0.0
  0
INSERT
  5
3FE7
330
2
100
AcDbEntity
  8
AME_FRZ
100
AcDbBlockReference
  2
AME_SOL
 10
3403.671626163244
 20
309.3950969563869
 30
0.0
1001
AME_SOL
1000
R2.1
1000
AME2
1000
cm^ 2
1070
     3
1070
     0
1070
     3
1000
wire
1040
45.0
1000
U
1040
1.0
1000
cm
1000
gm
1000
MILD_STEEL
1070
    25
1000
CSG
1070
     1
1070
     3
1070
     3
1070
     3
1070
     0
1000
cm^ 3
1070
     1
1070
     0
1005
3FE6
  0
INSERT
  5
3FE8
330
2
100
AcDbEntity
  8
AME_FRZ
100
AcDbBlockReference
  2
AME_NIL
 10
3382.542700451145
 20
297.4825857827632
 30
0.0
  0
INSERT
  5
3FE9
330
2
100
AcDbEntity
  8
AME_FRZ
100
AcDbBlockReference
  2
AME_SOL
 10
3382.542700451145
 20
297.4825857827632
 30
0.0
1001
AME_SOL
1000
R2.1
1000
AME2
1000
cm^ 2
1070
     3
1070
     0
1070
     3
1000
wire
1040
45.0
1000
U
1040
1.0
1000
cm
1000
gm
1000
MILD_STEEL
1070
    25
1000
CSG
1070
     1
1070
     3
1070
     3
1070
     3
1070
     0
1000
cm^ 3
1070
     1
1070
     0
1005
3FE8
  0
INSERT
  5
3FEA
330
2
100
AcDbEntity
  8
AME_FRZ
100
AcDbBlockReference
  2
AME_NIL
 10
2954.65621800506
 20
245.9025069259583
 30
0.0
  0
INSERT
  5
3FEB
330
2
100
AcDbEntity
  8
AME_FRZ
100
AcDbBlockReference
  2
AME_SOL
 10
2954.65621800506
 20
245.9025069259583
 30
0.0
1001
AME_SOL
1000
R2.1
1000
AME2
1000
cm^ 2
1070
     3
1070
     0
1070
     3
1000
wire
1040
45.0
1000
U
1040
1.0
1000
cm
1000
gm
1000
MILD_STEEL
1070
    25
1000
CSG
1070
     1
1070
     3
1070
     3
1070
     3
1070
     0
1000
cm^ 3
1070
     1
1070
     0
1005
0
  0
INSERT
  5
3FEC
330
2
100
AcDbEntity
  8
AME_FRZ
100
AcDbBlockReference
  2
AME_NIL
 10
3544.388460893802
 20
261.8586859379723
 30
0.0
  0
INSERT
  5
3FED
330
2
100
AcDbEntity
  8
AME_FRZ
100
AcDbBlockReference
  2
AME_SOL
 10
3544.388460893802
 20
261.8586859379723
 30
0.0
1001
AME_SOL
1000
R2.1
1000
AME2
1000
cm^ 2
1070
     3
1070
     0
1070
     3
1000
wire
1040
45.0
1000
U
1040
1.0
1000
cm
1000
gm
1000
MILD_STEEL
1070
    25
1000
CSG
1070
     1
1070
     3
1070
     3
1070
     3
1070
     0
1000
cm^ 3
1070
     1
1070
     0
1005
0
  0
INSERT
  5
3FEE
330
2
100
AcDbEntity
  8
AME_FRZ
100
AcDbBlockReference
  2
AME_NIL
 10
3523.259535181701
 20
249.9461747643487
 30
0.0
  0
INSERT
  5
3FEF
330
2
100
AcDbEntity
  8
AME_FRZ
100
AcDbBlockReference
  2
AME_SOL
 10
3523.259535181701
 20
249.9461747643487
 30
0.0
1001
AME_SOL
1000
R2.1
1000
AME2
1000
cm^ 2
1070
     3
1070
     0
1070
     3
1000
wire
1040
45.0
1000
U
1040
1.0
1000
cm
1000
gm
1000
MILD_STEEL
1070
    25
1000
CSG
1070
     1
1070
     3
1070
     3
1070
     3
1070
     0
1000
cm^ 3
1070
     1
1070
     0
1005
0
  0
INSERT
  5
3FF0
330
2
100
AcDbEntity
  8
AME_FRZ
100
AcDbBlockReference
  2
AME_NIL
 10
2299.239881390849
 20
204.3948392644886
 30
0.0
  0
INSERT
  5
3FF1
330
2
100
AcDbEntity
  8
AME_FRZ
100
AcDbBlockReference
  2
AME_SOL
 10
2299.239881390849
 20
204.3948392644886
 30
0.0
1001
AME_SOL
1000
R2.1
1000
AME2
1000
cm^ 2
1070
     3
1070
     0
1070
     3
1000
wire
1040
45.0
1000
U
1040
1.0
1000
cm
1000
gm
1000
MILD_STEEL
1070
    25
1000
CSG
1070
     1
1070
     3
1070
     3
1070
     3
1070
     0
1000
cm^ 3
1070
     1
1070
     0
1005
0
  0
TEXT
  5
3FF2
330
2
100
AcDbEntity
  8
AM_6
100
AcDbText
 10
3569.878880092182
 20
208.8362139609365
 30
0.0
 40
1.25
  1

 41
0.8
 51
20.0
  7
25RMS
 72
     1
 11
3569.878880092182
 21
208.8362139609365
 31
0.0
100
AcDbText
  0
INSERT
  5
3FF3
330
2
100
AcDbEntity
  8
AME_FRZ
100
AcDbBlockReference
  2
AME_NIL
 10
2967.8854863597
 20
316.0391525673018
 30
0.0
  0
INSERT
  5
3FF4
330
2
100
AcDbEntity
  8
AME_FRZ
100
AcDbBlockReference
  2
AME_SOL
 10
2967.8854863597
 20
316.0391525673018
 30
0.0
1001
AME_SOL
1000
R2.1
1000
AME2
1000
cm^ 2
1070
     3
1070
     0
1070
     3
1000
wire
1040
45.0
1000
U
1040
1.0
1000
cm
1000
gm
1000
MILD_STEEL
1070
    25
1000
CSG
1070
     1
1070
     3
1070
     3
1070
     3
1070
     0
1000
cm^ 3
1070
     1
1070
     0
1005
3FF3
  0
INSERT
  5
3FF5
330
2
100
AcDbEntity
  8
AME_FRZ
100
AcDbBlockReference
  2
AME_NIL
 10
3557.617729248442
 20
331.9953315793158
 30
0.0
  0
INSERT
  5
3FF6
330
2
100
AcDbEntity
  8
AME_FRZ
100
AcDbBlockReference
  2
AME_SOL
 10
3557.617729248442
 20
331.9953315793158
 30
0.0
1001
AME_SOL
1000
R2.1
1000
AME2
1000
cm^ 2
1070
     3
1070
     0
1070
     3
1000
wire
1040
45.0
1000
U
1040
1.0
1000
cm
1000
gm
1000
MILD_STEEL
1070
    25
1000
CSG
1070
     1
1070
     3
1070
     3
1070
     3
1070
     0
1000
cm^ 3
1070
     1
1070
     0
1005
3FF5
  0
INSERT
  5
3FF7
330
2
100
AcDbEntity
  8
AME_FRZ
100
AcDbBlockReference
  2
AME_NIL
 10
3536.488803536341
 20
320.0828204056922
 30
0.0
  0
INSERT
  5
3FF8
330
2
100
AcDbEntity
  8
AME_FRZ
100
AcDbBlockReference
  2
AME_SOL
 10
3536.488803536341
 20
320.0828204056922
 30
0.0
1001
AME_SOL
1000
R2.1
1000
AME2
1000
cm^ 2
1070
     3
1070
     0
1070
     3
1000
wire
1040
45.0
1000
U
1040
1.0
1000
cm
1000
gm
1000
MILD_STEEL
1070
    25
1000
CSG
1070
     1
1070
     3
1070
     3
1070
     3
1070
     0
1000
cm^ 3
1070
     1
1070
     0
1005
3FF7
  0
INSERT
  5
3FF9
330
2
100
AcDbEntity
  8
AME_FRZ
100
AcDbBlockReference
  2
AME_NIL
 10
3108.602321090257
 20
268.5027415488872
 30
0.0
  0
INSERT
  5
3FFA
330
2
100
AcDbEntity
  8
AME_FRZ
100
AcDbBlockReference
  2
AME_SOL
 10
3108.602321090257
 20
268.5027415488872
 30
0.0
1001
AME_SOL
1000
R2.1
1000
AME2
1000
cm^ 2
1070
     3
1070
     0
1070
     3
1000
wire
1040
45.0
1000
U
1040
1.0
1000
cm
1000
gm
1000
MILD_STEEL
1070
    25
1000
CSG
1070
     1
1070
     3
1070
     3
1070
     3
1070
     0
1000
cm^ 3
1070
     1
1070
     0
1005
0
  0
INSERT
  5
3FFB
330
2
100
AcDbEntity
  8
AME_FRZ
100
AcDbBlockReference
  2
AME_NIL
 10
3698.334563978999
 20
284.4589205609011
 30
0.0
  0
INSERT
  5
3FFC
330
2
100
AcDbEntity
  8
AME_FRZ
100
AcDbBlockReference
  2
AME_SOL
 10
3698.334563978999
 20
284.4589205609011
 30
0.0
1001
AME_SOL
1000
R2.1
1000
AME2
1000
cm^ 2
1070
     3
1070
     0
1070
     3
1000
wire
1040
45.0
1000
U
1040
1.0
1000
cm
1000
gm
1000
MILD_STEEL
1070
    25
1000
CSG
1070
     1
1070
     3
1070
     3
1070
     3
1070
     0
1000
cm^ 3
1070
     1
1070
     0
1005
0
  0
INSERT
  5
3FFD
330
2
100
AcDbEntity
  8
AME_FRZ
100
AcDbBlockReference
  2
AME_NIL
 10
3677.205638266898
 20
272.5464093872776
 30
0.0
  0
INSERT
  5
3FFE
330
2
100
AcDbEntity
  8
AME_FRZ
100
AcDbBlockReference
  2
AME_SOL
 10
3677.205638266898
 20
272.5464093872776
 30
0.0
1001
AME_SOL
1000
R2.1
1000
AME2
1000
cm^ 2
1070
     3
1070
     0
1070
     3
1000
wire
1040
45.0
1000
U
1040
1.0
1000
cm
1000
gm
1000
MILD_STEEL
1070
    25
1000
CSG
1070
     1
1070
     3
1070
     3
1070
     3
1070
     0
1000
cm^ 3
1070
     1
1070
     0
1005
0
  0
INSERT
  5
3FFF
330
2
100
AcDbEntity
  8
AME_FRZ
100
AcDbBlockReference
  2
AME_NIL
 10
2453.185984476045
 20
226.9950738874174
 30
0.0
  0
INSERT
  5
4000
330
2
100
AcDbEntity
  8
AME_FRZ
100
AcDbBlockReference
  2
AME_SOL
 10
2453.185984476045
 20
226.9950738874174
 30
0.0
1001
AME_SOL
1000
R2.1
1000
AME2
1000
cm^ 2
1070
     3
1070
     0
1070
     3
1000
wire
1040
45.0
1000
U
1040
1.0
1000
cm
1000
gm
1000
MILD_STEEL
1070
    25
1000
CSG
1070
     1
1070
     3
1070
     3
1070
     3
1070
     0
1000
cm^ 3
1070
     1
1070
     0
1005
0
  0
TEXT
  5
4001
330
2
100
AcDbEntity
  8
AM_6
100
AcDbText
 10
3723.824983177378
 20
231.4364485838653
 30
0.0
 40
1.25
  1

 41
0.8
 51
20.0
  7
25RMS
 72
     1
 11
3723.824983177378
 21
231.4364485838653
 31
0.0
100
AcDbText
  0
INSERT
  5
4002
330
2
100
AcDbEntity
  8
AM_0
  6
Continuous
100
AcDbBlockReference
  2
LAYER-GENIUS
 10
2956.291618509498
 20
166.2350131271872
 30
0.0
  0
INSERT
  5
4003
330
2
100
AcDbEntity
  8
AM_0
100
AcDbBlockReference
  2
LAYER-GENIUS
 10
2350.462906663433
 20
160.0701021574279
 30
0.0
  0
POINT
  5
400A
330
2
100
AcDbEntity
  8
AM_7
  6
AM_ISO08W050x2
 60
     1
100
AcDbPoint
 10
2350.462906663433
 20
160.0701021574279
 30
0.0
  0
INSERT
  5
401A
330
2
100
AcDbEntity
  8
AM_0
100
AcDbBlockReference
  2
LAYER-GENIUS
 10
2274.508151883926
 20
167.1238823548758
 30
0.0
  0
INSERT
  5
4021
330
2
100
AcDbEntity
  8
AM_0
100
AcDbBlockReference
  2
LAYER-GENIUS
 10
2102.299865272061
 20
246.3308905953709
 30
0.0
  0
INSERT
  5
4028
330
2
100
AcDbEntity
  8
AM_0
100
AcDbBlockReference
  2
LAYER-GENIUS
 10
2102.299865272061
 20
246.3308905953709
 30
0.0
  0
INSERT
  5
4029
330
2
100
AcDbEntity
  8
AM_0
100
AcDbBlockReference
  2
LAYER-GENIUS
 10
2102.299865272061
 20
246.3308905953709
 30
0.0
  0
INSERT
  5
4030
330
2
100
AcDbEntity
  8
AM_0
100
AcDbBlockReference
  2
LAYER-GENIUS
 10
2606.585367774029
 20
274.0027861310154
 30
0.0
  0
INSERT
  5
4031
330
2
100
AcDbEntity
  8
AM_0
100
AcDbBlockReference
  2
LAYER-GENIUS
 10
2606.585367774029
 20
274.0027861310154
 30
0.0
  0
INSERT
  5
4035
330
2
100
AcDbEntity
  8
AM_PAREF
100
AcDbBlockReference
  2
LAYER-GENIUS
 10
1264.528009955466
 20
91.52071723576694
 30
0.0
  0
INSERT
  5
4036
330
2
100
AcDbEntity
  8
AME_FRZ
100
AcDbBlockReference
  2
AME_NIL
 10
2043.326871233375
 20
326.1029095410207
 30
0.0
  0
INSERT
  5
4037
330
2
100
AcDbEntity
  8
AME_FRZ
100
AcDbBlockReference
  2
AME_SOL
 10
2043.326871233375
 20
326.1029095410207
 30
0.0
1001
AME_SOL
1000
R2.1
1000
AME2
1000
cm^ 2
1070
     3
1070
     0
1070
     3
1000
wire
1040
45.0
1000
U
1040
1.0
1000
cm
1000
gm
1000
MILD_STEEL
1070
    25
1000
CSG
1070
     1
1070
     3
1070
     3
1070
     3
1070
     0
1000
cm^ 3
1070
     1
1070
     0
1005
4036
  0
INSERT
  5
4038
330
2
100
AcDbEntity
  8
AME_FRZ
100
AcDbBlockReference
  2
AME_NIL
 10
2633.059114122116
 20
342.0590885530347
 30
0.0
  0
INSERT
  5
4039
330
2
100
AcDbEntity
  8
AME_FRZ
100
AcDbBlockReference
  2
AME_SOL
 10
2633.059114122116
 20
342.0590885530347
 30
0.0
1001
AME_SOL
1000
R2.1
1000
AME2
1000
cm^ 2
1070
     3
1070
     0
1070
     3
1000
wire
1040
45.0
1000
U
1040
1.0
1000
cm
1000
gm
1000
MILD_STEEL
1070
    25
1000
CSG
1070
     1
1070
     3
1070
     3
1070
     3
1070
     0
1000
cm^ 3
1070
     1
1070
     0
1005
4038
  0
INSERT
  5
403A
330
2
100
AcDbEntity
  8
AME_FRZ
100
AcDbBlockReference
  2
AME_NIL
 10
2611.930188410015
 20
330.1465773794111
 30
0.0
  0
INSERT
  5
403B
330
2
100
AcDbEntity
  8
AME_FRZ
100
AcDbBlockReference
  2
AME_SOL
 10
2611.930188410015
 20
330.1465773794111
 30
0.0
1001
AME_SOL
1000
R2.1
1000
AME2
1000
cm^ 2
1070
     3
1070
     0
1070
     3
1000
wire
1040
45.0
1000
U
1040
1.0
1000
cm
1000
gm
1000
MILD_STEEL
1070
    25
1000
CSG
1070
     1
1070
     3
1070
     3
1070
     3
1070
     0
1000
cm^ 3
1070
     1
1070
     0
1005
403A
  0
INSERT
  5
403C
330
2
100
AcDbEntity
  8
AME_FRZ
100
AcDbBlockReference
  2
AME_NIL
 10
2169.404188500628
 20
365.0840290789779
 30
0.0
  0
INSERT
  5
403D
330
2
100
AcDbEntity
  8
AME_FRZ
100
AcDbBlockReference
  2
AME_SOL
 10
2169.404188500628
 20
365.0840290789779
 30
0.0
1001
AME_SOL
1000
R2.1
1000
AME2
1000
cm^ 2
1070
     3
1070
     0
1070
     3
1000
wire
1040
45.0
1000
U
1040
1.0
1000
cm
1000
gm
1000
MILD_STEEL
1070
    25
1000
CSG
1070
     1
1070
     3
1070
     3
1070
     3
1070
     0
1000
cm^ 3
1070
     1
1070
     0
1005
403C
  0
INSERT
  5
403E
330
2
100
AcDbEntity
  8
AME_FRZ
100
AcDbBlockReference
  2
AME_NIL
 10
2169.404188500628
 20
365.0840290789779
 30
0.0
  0
INSERT
  5
403F
330
2
100
AcDbEntity
  8
AME_FRZ
100
AcDbBlockReference
  2
AME_SOL
 10
2169.404188500628
 20
365.0840290789779
 30
0.0
1001
AME_SOL
1000
R2.1
1000
AME2
1000
cm^ 2
1070
     3
1070
     0
1070
     3
1000
wire
1040
45.0
1000
U
1040
1.0
1000
cm
1000
gm
1000
MILD_STEEL
1070
    25
1000
CSG
1070
     1
1070
     3
1070
     3
1070
     3
1070
     0
1000
cm^ 3
1070
     1
1070
     0
1005
403E
  0
INSERT
  5
4040
330
2
100
AcDbEntity
  8
AM_4
100
AcDbBlockReference
  2
LAYER-GENIUS
 10
1835.232389620288
 20
163.1295313716826
 30
0.0
  0
INSERT
  5
4041
330
2
100
AcDbEntity
  8
AM_0
100
AcDbBlockReference
  2
LAYER-GENIUS
 10
1981.108885514811
 20
183.6091698391063
 30
0.0
  0
INSERT
  5
4042
330
2
100
AcDbEntity
  8
AM_0
100
AcDbBlockReference
  2
LAYER-GENIUS
 10
1827.943802215376
 20
174.2435769450873
 30
0.0
  0
INSERT
  5
4043
330
2
100
AcDbEntity
  8
AM_0
100
AcDbBlockReference
  2
LAYER-GENIUS
 10
409.2547617965424
 20
68.91854397087673
 30
0.0
  0
INSERT
  5
4075
330
2
100
AcDbEntity
  8
AME_FRZ
100
AcDbBlockReference
  2
AME_NIL
 10
864.2404604262026
 20
290.5512572371178
 30
0.0
  0
INSERT
  5
4076
330
2
100
AcDbEntity
  8
AME_FRZ
100
AcDbBlockReference
  2
AME_SOL
 10
864.2404604262026
 20
290.5512572371178
 30
0.0
1001
AME_SOL
1000
R2.1
1000
AME2
1000
cm^ 2
1070
     3
1070
     0
1070
     3
1000
wire
1040
45.0
1000
U
1040
1.0
1000
cm
1000
gm
1000
MILD_STEEL
1070
    25
1000
CSG
1070
     1
1070
     3
1070
     3
1070
     3
1070
     0
1000
cm^ 3
1070
     1
1070
     0
1005
4075
  0
INSERT
  5
4077
330
2
100
AcDbEntity
  8
AME_FRZ
100
AcDbBlockReference
  2
AME_NIL
 10
1453.972703314944
 20
306.5074362491319
 30
0.0
  0
INSERT
  5
4078
330
2
100
AcDbEntity
  8
AME_FRZ
100
AcDbBlockReference
  2
AME_SOL
 10
1453.972703314944
 20
306.5074362491319
 30
0.0
1001
AME_SOL
1000
R2.1
1000
AME2
1000
cm^ 2
1070
     3
1070
     0
1070
     3
1000
wire
1040
45.0
1000
U
1040
1.0
1000
cm
1000
gm
1000
MILD_STEEL
1070
    25
1000
CSG
1070
     1
1070
     3
1070
     3
1070
     3
1070
     0
1000
cm^ 3
1070
     1
1070
     0
1005
4077
  0
INSERT
  5
4079
330
2
100
AcDbEntity
  8
AME_FRZ
100
AcDbBlockReference
  2
AME_NIL
 10
1432.843777602843
 20
294.5949250755083
 30
0.0
  0
INSERT
  5
407A
330
2
100
AcDbEntity
  8
AME_FRZ
100
AcDbBlockReference
  2
AME_SOL
 10
1432.843777602843
 20
294.5949250755083
 30
0.0
1001
AME_SOL
1000
R2.1
1000
AME2
1000
cm^ 2
1070
     3
1070
     0
1070
     3
1000
wire
1040
45.0
1000
U
1040
1.0
1000
cm
1000
gm
1000
MILD_STEEL
1070
    25
1000
CSG
1070
     1
1070
     3
1070
     3
1070
     3
1070
     0
1000
cm^ 3
1070
     1
1070
     0
1005
4079
  0
INSERT
  5
407B
330
2
100
AcDbEntity
  8
AME_FRZ
100
AcDbBlockReference
  2
AME_NIL
 10
990.3177776934562
 20
329.532376775075
 30
0.0
  0
INSERT
  5
407C
330
2
100
AcDbEntity
  8
AME_FRZ
100
AcDbBlockReference
  2
AME_SOL
 10
990.3177776934562
 20
329.532376775075
 30
0.0
1001
AME_SOL
1000
R2.1
1000
AME2
1000
cm^ 2
1070
     3
1070
     0
1070
     3
1000
wire
1040
45.0
1000
U
1040
1.0
1000
cm
1000
gm
1000
MILD_STEEL
1070
    25
1000
CSG
1070
     1
1070
     3
1070
     3
1070
     3
1070
     0
1000
cm^ 3
1070
     1
1070
     0
1005
407B
  0
INSERT
  5
407D
330
2
100
AcDbEntity
  8
AME_FRZ
100
AcDbBlockReference
  2
AME_NIL
 10
990.3177776934562
 20
329.532376775075
 30
0.0
  0
INSERT
  5
407E
330
2
100
AcDbEntity
  8
AME_FRZ
100
AcDbBlockReference
  2
AME_SOL
 10
990.3177776934562
 20
329.532376775075
 30
0.0
1001
AME_SOL
1000
R2.1
1000
AME2
1000
cm^ 2
1070
     3
1070
     0
1070
     3
1000
wire
1040
45.0
1000
U
1040
1.0
1000
cm
1000
gm
1000
MILD_STEEL
1070
    25
1000
CSG
1070
     1
1070
     3
1070
     3
1070
     3
1070
     0
1000
cm^ 3
1070
     1
1070
     0
1005
407D
  0
INSERT
  5
407F
330
2
100
AcDbEntity
  8
AM_0
100
AcDbBlockReference
  2
LAYER-GENIUS
 10
608.3202956088996
 20
102.587540608178
 30
0.0
  0
INSERT
  5
4080
330
2
100
AcDbEntity
  8
AME_FRZ
100
AcDbBlockReference
  2
AME_NIL
 10
1262.212168007738
 20
285.0652490509549
 30
0.0
  0
INSERT
  5
4081
330
2
100
AcDbEntity
  8
AME_FRZ
100
AcDbBlockReference
  2
AME_SOL
 10
1262.212168007738
 20
285.0652490509549
 30
0.0
1001
AME_SOL
1000
R2.1
1000
AME2
1000
cm^ 2
1070
     3
1070
     0
1070
     3
1000
wire
1040
45.0
1000
U
1040
1.0
1000
cm
1000
gm
1000
MILD_STEEL
1070
    25
1000
CSG
1070
     1
1070
     3
1070
     3
1070
     3
1070
     0
1000
cm^ 3
1070
     1
1070
     0
1005
4080
  0
INSERT
  5
4082
330
2
100
AcDbEntity
  8
AME_FRZ
100
AcDbBlockReference
  2
AME_NIL
 10
1851.94441089648
 20
301.021428062969
 30
0.0
  0
INSERT
  5
4083
330
2
100
AcDbEntity
  8
AME_FRZ
100
AcDbBlockReference
  2
AME_SOL
 10
1851.94441089648
 20
301.021428062969
 30
0.0
1001
AME_SOL
1000
R2.1
1000
AME2
1000
cm^ 2
1070
     3
1070
     0
1070
     3
1000
wire
1040
45.0
1000
U
1040
1.0
1000
cm
1000
gm
1000
MILD_STEEL
1070
    25
1000
CSG
1070
     1
1070
     3
1070
     3
1070
     3
1070
     0
1000
cm^ 3
1070
     1
1070
     0
1005
4082
  0
INSERT
  5
4084
330
2
100
AcDbEntity
  8
AME_FRZ
100
AcDbBlockReference
  2
AME_NIL
 10
1830.815485184379
 20
289.1089168893454
 30
0.0
  0
INSERT
  5
4085
330
2
100
AcDbEntity
  8
AME_FRZ
100
AcDbBlockReference
  2
AME_SOL
 10
1830.815485184379
 20
289.1089168893454
 30
0.0
1001
AME_SOL
1000
R2.1
1000
AME2
1000
cm^ 2
1070
     3
1070
     0
1070
     3
1000
wire
1040
45.0
1000
U
1040
1.0
1000
cm
1000
gm
1000
MILD_STEEL
1070
    25
1000
CSG
1070
     1
1070
     3
1070
     3
1070
     3
1070
     0
1000
cm^ 3
1070
     1
1070
     0
1005
4084
  0
INSERT
  5
4086
330
2
100
AcDbEntity
  8
AME_FRZ
100
AcDbBlockReference
  2
AME_NIL
 10
1388.289485274992
 20
324.0463685889122
 30
0.0
  0
INSERT
  5
4087
330
2
100
AcDbEntity
  8
AME_FRZ
100
AcDbBlockReference
  2
AME_SOL
 10
1388.289485274992
 20
324.0463685889122
 30
0.0
1001
AME_SOL
1000
R2.1
1000
AME2
1000
cm^ 2
1070
     3
1070
     0
1070
     3
1000
wire
1040
45.0
1000
U
1040
1.0
1000
cm
1000
gm
1000
MILD_STEEL
1070
    25
1000
CSG
1070
     1
1070
     3
1070
     3
1070
     3
1070
     0
1000
cm^ 3
1070
     1
1070
     0
1005
4086
  0
INSERT
  5
4088
330
2
100
AcDbEntity
  8
AME_FRZ
100
AcDbBlockReference
  2
AME_NIL
 10
1388.289485274992
 20
324.0463685889122
 30
0.0
  0
INSERT
  5
4089
330
2
100
AcDbEntity
  8
AME_FRZ
100
AcDbBlockReference
  2
AME_SOL
 10
1388.289485274992
 20
324.0463685889122
 30
0.0
1001
AME_SOL
1000
R2.1
1000
AME2
1000
cm^ 2
1070
     3
1070
     0
1070
     3
1000
wire
1040
45.0
1000
U
1040
1.0
1000
cm
1000
gm
1000
MILD_STEEL
1070
    25
1000
CSG
1070
     1
1070
     3
1070
     3
1070
     3
1070
     0
1000
cm^ 3
1070
     1
1070
     0
1005
4088
  0
INSERT
  5
408A
330
2
100
AcDbEntity
  8
AM_0
100
AcDbBlockReference
  2
LAYER-GENIUS
 10
1029.810641947803
 20
110.5602254154804
 30
0.0
  0
INSERT
  5
408B
330
2
100
AcDbEntity
  8
AM_0
100
AcDbBlockReference
  2
LAYER-GENIUS
 10
1453.164761008294
 20
132.5387862624092
 30
0.0
  0
INSERT
  5
408C
330
2
100
AcDbEntity
  8
AME_FRZ
100
AcDbBlockReference
  2
AME_NIL
 10
2024.100151910734
 20
326.7100068097323
 30
0.0
  0
INSERT
  5
408D
330
2
100
AcDbEntity
  8
AME_FRZ
100
AcDbBlockReference
  2
AME_SOL
 10
2024.100151910734
 20
326.7100068097323
 30
0.0
1001
AME_SOL
1000
R2.1
1000
AME2
1000
cm^ 2
1070
     3
1070
     0
1070
     3
1000
wire
1040
45.0
1000
U
1040
1.0
1000
cm
1000
gm
1000
MILD_STEEL
1070
    25
1000
CSG
1070
     1
1070
     3
1070
     3
1070
     3
1070
     0
1000
cm^ 3
1070
     1
1070
     0
1005
408C
  0
INSERT
  5
408E
330
2
100
AcDbEntity
  8
AME_FRZ
100
AcDbBlockReference
  2
AME_NIL
 10
2613.832394799477
 20
342.6661858217464
 30
0.0
  0
INSERT
  5
408F
330
2
100
AcDbEntity
  8
AME_FRZ
100
AcDbBlockReference
  2
AME_SOL
 10
2613.832394799477
 20
342.6661858217464
 30
0.0
1001
AME_SOL
1000
R2.1
1000
AME2
1000
cm^ 2
1070
     3
1070
     0
1070
     3
1000
wire
1040
45.0
1000
U
1040
1.0
1000
cm
1000
gm
1000
MILD_STEEL
1070
    25
1000
CSG
1070
     1
1070
     3
1070
     3
1070
     3
1070
     0
1000
cm^ 3
1070
     1
1070
     0
1005
408E
  0
INSERT
  5
4090
330
2
100
AcDbEntity
  8
AME_FRZ
100
AcDbBlockReference
  2
AME_NIL
 10
2592.703469087376
 20
330.7536746481228
 30
0.0
  0
INSERT
  5
4091
330
2
100
AcDbEntity
  8
AME_FRZ
100
AcDbBlockReference
  2
AME_SOL
 10
2592.703469087376
 20
330.7536746481228
 30
0.0
1001
AME_SOL
1000
R2.1
1000
AME2
1000
cm^ 2
1070
     3
1070
     0
1070
     3
1000
wire
1040
45.0
1000
U
1040
1.0
1000
cm
1000
gm
1000
MILD_STEEL
1070
    25
1000
CSG
1070
     1
1070
     3
1070
     3
1070
     3
1070
     0
1000
cm^ 3
1070
     1
1070
     0
1005
4090
  0
INSERT
  5
4092
330
2
100
AcDbEntity
  8
AME_FRZ
100
AcDbBlockReference
  2
AME_NIL
 10
2150.177469177988
 20
365.6911263476895
 30
0.0
  0
INSERT
  5
4093
330
2
100
AcDbEntity
  8
AME_FRZ
100
AcDbBlockReference
  2
AME_SOL
 10
2150.177469177988
 20
365.6911263476895
 30
0.0
1001
AME_SOL
1000
R2.1
1000
AME2
1000
cm^ 2
1070
     3
1070
     0
1070
     3
1000
wire
1040
45.0
1000
U
1040
1.0
1000
cm
1000
gm
1000
MILD_STEEL
1070
    25
1000
CSG
1070
     1
1070
     3
1070
     3
1070
     3
1070
     0
1000
cm^ 3
1070
     1
1070
     0
1005
4092
  0
INSERT
  5
4094
330
2
100
AcDbEntity
  8
AME_FRZ
100
AcDbBlockReference
  2
AME_NIL
 10
2150.177469177988
 20
365.6911263476895
 30
0.0
  0
INSERT
  5
4095
330
2
100
AcDbEntity
  8
AME_FRZ
100
AcDbBlockReference
  2
AME_SOL
 10
2150.177469177988
 20
365.6911263476895
 30
0.0
1001
AME_SOL
1000
R2.1
1000
AME2
1000
cm^ 2
1070
     3
1070
     0
1070
     3
1000
wire
1040
45.0
1000
U
1040
1.0
1000
cm
1000
gm
1000
MILD_STEEL
1070
    25
1000
CSG
1070
     1
1070
     3
1070
     3
1070
     3
1070
     0
1000
cm^ 3
1070
     1
1070
     0
1005
4094
  0
INSERT
  5
4096
330
2
100
AcDbEntity
  8
AME_FRZ
100
AcDbBlockReference
  2
AME_NIL
 10
2236.047217805117
 20
377.8863578147489
 30
0.0
  0
INSERT
  5
4097
330
2
100
AcDbEntity
  8
AME_FRZ
100
AcDbBlockReference
  2
AME_SOL
 10
2236.047217805117
 20
377.8863578147489
 30
0.0
1001
AME_SOL
1000
R2.1
1000
AME2
1000
cm^ 2
1070
     3
1070
     0
1070
     3
1000
wire
1040
45.0
1000
U
1040
1.0
1000
cm
1000
gm
1000
MILD_STEEL
1070
    25
1000
CSG
1070
     1
1070
     3
1070
     3
1070
     3
1070
     0
1000
cm^ 3
1070
     1
1070
     0
1005
4096
  0
INSERT
  5
4098
330
2
100
AcDbEntity
  8
AME_FRZ
100
AcDbBlockReference
  2
AME_NIL
 10
2825.779460693859
 20
393.842536826763
 30
0.0
  0
INSERT
  5
4099
330
2
100
AcDbEntity
  8
AME_FRZ
100
AcDbBlockReference
  2
AME_SOL
 10
2825.779460693859
 20
393.842536826763
 30
0.0
1001
AME_SOL
1000
R2.1
1000
AME2
1000
cm^ 2
1070
     3
1070
     0
1070
     3
1000
wire
1040
45.0
1000
U
1040
1.0
1000
cm
1000
gm
1000
MILD_STEEL
1070
    25
1000
CSG
1070
     1
1070
     3
1070
     3
1070
     3
1070
     0
1000
cm^ 3
1070
     1
1070
     0
1005
4098
  0
INSERT
  5
409A
330
2
100
AcDbEntity
  8
AME_FRZ
100
AcDbBlockReference
  2
AME_NIL
 10
2804.650534981758
 20
381.9300256531393
 30
0.0
  0
INSERT
  5
409B
330
2
100
AcDbEntity
  8
AME_FRZ
100
AcDbBlockReference
  2
AME_SOL
 10
2804.650534981758
 20
381.9300256531393
 30
0.0
1001
AME_SOL
1000
R2.1
1000
AME2
1000
cm^ 2
1070
     3
1070
     0
1070
     3
1000
wire
1040
45.0
1000
U
1040
1.0
1000
cm
1000
gm
1000
MILD_STEEL
1070
    25
1000
CSG
1070
     1
1070
     3
1070
     3
1070
     3
1070
     0
1000
cm^ 3
1070
     1
1070
     0
1005
409A
  0
INSERT
  5
409C
330
2
100
AcDbEntity
  8
AME_FRZ
100
AcDbBlockReference
  2
AME_NIL
 10
2362.12453507237
 20
416.8674773527062
 30
0.0
  0
INSERT
  5
409D
330
2
100
AcDbEntity
  8
AME_FRZ
100
AcDbBlockReference
  2
AME_SOL
 10
2362.12453507237
 20
416.8674773527062
 30
0.0
1001
AME_SOL
1000
R2.1
1000
AME2
1000
cm^ 2
1070
     3
1070
     0
1070
     3
1000
wire
1040
45.0
1000
U
1040
1.0
1000
cm
1000
gm
1000
MILD_STEEL
1070
    25
1000
CSG
1070
     1
1070
     3
1070
     3
1070
     3
1070
     0
1000
cm^ 3
1070
     1
1070
     0
1005
409C
  0
INSERT
  5
409E
330
2
100
AcDbEntity
  8
AME_FRZ
100
AcDbBlockReference
  2
AME_NIL
 10
2362.12453507237
 20
416.8674773527062
 30
0.0
  0
INSERT
  5
409F
330
2
100
AcDbEntity
  8
AME_FRZ
100
AcDbBlockReference
  2
AME_SOL
 10
2362.12453507237
 20
416.8674773527062
 30
0.0
1001
AME_SOL
1000
R2.1
1000
AME2
1000
cm^ 2
1070
     3
1070
     0
1070
     3
1000
wire
1040
45.0
1000
U
1040
1.0
1000
cm
1000
gm
1000
MILD_STEEL
1070
    25
1000
CSG
1070
     1
1070
     3
1070
     3
1070
     3
1070
     0
1000
cm^ 3
1070
     1
1070
     0
1005
409E
  0
INSERT
  5
40A0
330
2
100
AcDbEntity
  8
AME_FRZ
100
AcDbBlockReference
  2
AME_NIL
 10
3013.00491708686
 20
327.1079145816742
 30
0.0
  0
INSERT
  5
40A1
330
2
100
AcDbEntity
  8
AME_FRZ
100
AcDbBlockReference
  2
AME_SOL
 10
3013.00491708686
 20
327.1079145816742
 30
0.0
1001
AME_SOL
1000
R2.1
1000
AME2
1000
cm^ 2
1070
     3
1070
     0
1070
     3
1000
wire
1040
45.0
1000
U
1040
1.0
1000
cm
1000
gm
1000
MILD_STEEL
1070
    25
1000
CSG
1070
     1
1070
     3
1070
     3
1070
     3
1070
     0
1000
cm^ 3
1070
     1
1070
     0
1005
40A0
  0
INSERT
  5
40A2
330
2
100
AcDbEntity
  8
AME_FRZ
100
AcDbBlockReference
  2
AME_NIL
 10
3602.737159975602
 20
343.0640935936882
 30
0.0
  0
INSERT
  5
40A3
330
2
100
AcDbEntity
  8
AME_FRZ
100
AcDbBlockReference
  2
AME_SOL
 10
3602.737159975602
 20
343.0640935936882
 30
0.0
1001
AME_SOL
1000
R2.1
1000
AME2
1000
cm^ 2
1070
     3
1070
     0
1070
     3
1000
wire
1040
45.0
1000
U
1040
1.0
1000
cm
1000
gm
1000
MILD_STEEL
1070
    25
1000
CSG
1070
     1
1070
     3
1070
     3
1070
     3
1070
     0
1000
cm^ 3
1070
     1
1070
     0
1005
40A2
  0
INSERT
  5
40A4
330
2
100
AcDbEntity
  8
AME_FRZ
100
AcDbBlockReference
  2
AME_NIL
 10
3581.608234263501
 20
331.1515824200646
 30
0.0
  0
INSERT
  5
40A5
330
2
100
AcDbEntity
  8
AME_FRZ
100
AcDbBlockReference
  2
AME_SOL
 10
3581.608234263501
 20
331.1515824200646
 30
0.0
1001
AME_SOL
1000
R2.1
1000
AME2
1000
cm^ 2
1070
     3
1070
     0
1070
     3
1000
wire
1040
45.0
1000
U
1040
1.0
1000
cm
1000
gm
1000
MILD_STEEL
1070
    25
1000
CSG
1070
     1
1070
     3
1070
     3
1070
     3
1070
     0
1000
cm^ 3
1070
     1
1070
     0
1005
40A4
  0
INSERT
  5
40A6
330
2
100
AcDbEntity
  8
AME_FRZ
100
AcDbBlockReference
  2
AME_NIL
 10
3153.721751817417
 20
279.5715035632596
 30
0.0
  0
INSERT
  5
40A7
330
2
100
AcDbEntity
  8
AME_FRZ
100
AcDbBlockReference
  2
AME_SOL
 10
3153.721751817417
 20
279.5715035632596
 30
0.0
1001
AME_SOL
1000
R2.1
1000
AME2
1000
cm^ 2
1070
     3
1070
     0
1070
     3
1000
wire
1040
45.0
1000
U
1040
1.0
1000
cm
1000
gm
1000
MILD_STEEL
1070
    25
1000
CSG
1070
     1
1070
     3
1070
     3
1070
     3
1070
     0
1000
cm^ 3
1070
     1
1070
     0
1005
0
  0
INSERT
  5
40A8
330
2
100
AcDbEntity
  8
AME_FRZ
100
AcDbBlockReference
  2
AME_NIL
 10
3743.453994706158
 20
295.5276825752737
 30
0.0
  0
INSERT
  5
40A9
330
2
100
AcDbEntity
  8
AME_FRZ
100
AcDbBlockReference
  2
AME_SOL
 10
3743.453994706158
 20
295.5276825752737
 30
0.0
1001
AME_SOL
1000
R2.1
1000
AME2
1000
cm^ 2
1070
     3
1070
     0
1070
     3
1000
wire
1040
45.0
1000
U
1040
1.0
1000
cm
1000
gm
1000
MILD_STEEL
1070
    25
1000
CSG
1070
     1
1070
     3
1070
     3
1070
     3
1070
     0
1000
cm^ 3
1070
     1
1070
     0
1005
0
  0
INSERT
  5
40AA
330
2
100
AcDbEntity
  8
AME_FRZ
100
AcDbBlockReference
  2
AME_NIL
 10
3722.325068994058
 20
283.6151714016501
 30
0.0
  0
INSERT
  5
40AB
330
2
100
AcDbEntity
  8
AME_FRZ
100
AcDbBlockReference
  2
AME_SOL
 10
3722.325068994058
 20
283.6151714016501
 30
0.0
1001
AME_SOL
1000
R2.1
1000
AME2
1000
cm^ 2
1070
     3
1070
     0
1070
     3
1000
wire
1040
45.0
1000
U
1040
1.0
1000
cm
1000
gm
1000
MILD_STEEL
1070
    25
1000
CSG
1070
     1
1070
     3
1070
     3
1070
     3
1070
     0
1000
cm^ 3
1070
     1
1070
     0
1005
0
  0
INSERT
  5
40AC
330
2
100
AcDbEntity
  8
AME_FRZ
100
AcDbBlockReference
  2
AME_NIL
 10
2498.305415203206
 20
238.0638359017899
 30
0.0
  0
INSERT
  5
40AD
330
2
100
AcDbEntity
  8
AME_FRZ
100
AcDbBlockReference
  2
AME_SOL
 10
2498.305415203206
 20
238.0638359017899
 30
0.0
1001
AME_SOL
1000
R2.1
1000
AME2
1000
cm^ 2
1070
     3
1070
     0
1070
     3
1000
wire
1040
45.0
1000
U
1040
1.0
1000
cm
1000
gm
1000
MILD_STEEL
1070
    25
1000
CSG
1070
     1
1070
     3
1070
     3
1070
     3
1070
     0
1000
cm^ 3
1070
     1
1070
     0
1005
0
  0
TEXT
  5
40AE
330
2
100
AcDbEntity
  8
AM_6
100
AcDbText
 10
3768.94441390454
 20
242.5052105982378
 30
0.0
 40
1.25
  1

 41
0.8
 51
20.0
  7
25RMS
 72
     1
 11
3768.94441390454
 21
242.5052105982378
 31
0.0
100
AcDbText
  0
INSERT
  5
40AF
330
2
100
AcDbEntity
  8
AME_FRZ
100
AcDbBlockReference
  2
AME_NIL
 10
3166.951020172057
 20
349.7081492046031
 30
0.0
  0
INSERT
  5
40B0
330
2
100
AcDbEntity
  8
AME_FRZ
100
AcDbBlockReference
  2
AME_SOL
 10
3166.951020172057
 20
349.7081492046031
 30
0.0
1001
AME_SOL
1000
R2.1
1000
AME2
1000
cm^ 2
1070
     3
1070
     0
1070
     3
1000
wire
1040
45.0
1000
U
1040
1.0
1000
cm
1000
gm
1000
MILD_STEEL
1070
    25
1000
CSG
1070
     1
1070
     3
1070
     3
1070
     3
1070
     0
1000
cm^ 3
1070
     1
1070
     0
1005
40AF
  0
INSERT
  5
40B1
330
2
100
AcDbEntity
  8
AME_FRZ
100
AcDbBlockReference
  2
AME_NIL
 10
3756.683263060799
 20
365.6643282166171
 30
0.0
  0
INSERT
  5
40B2
330
2
100
AcDbEntity
  8
AME_FRZ
100
AcDbBlockReference
  2
AME_SOL
 10
3756.683263060799
 20
365.6643282166171
 30
0.0
1001
AME_SOL
1000
R2.1
1000
AME2
1000
cm^ 2
1070
     3
1070
     0
1070
     3
1000
wire
1040
45.0
1000
U
1040
1.0
1000
cm
1000
gm
1000
MILD_STEEL
1070
    25
1000
CSG
1070
     1
1070
     3
1070
     3
1070
     3
1070
     0
1000
cm^ 3
1070
     1
1070
     0
1005
40B1
  0
INSERT
  5
40B3
330
2
100
AcDbEntity
  8
AME_FRZ
100
AcDbBlockReference
  2
AME_NIL
 10
3735.554337348698
 20
353.7518170429935
 30
0.0
  0
INSERT
  5
40B4
330
2
100
AcDbEntity
  8
AME_FRZ
100
AcDbBlockReference
  2
AME_SOL
 10
3735.554337348698
 20
353.7518170429935
 30
0.0
1001
AME_SOL
1000
R2.1
1000
AME2
1000
cm^ 2
1070
     3
1070
     0
1070
     3
1000
wire
1040
45.0
1000
U
1040
1.0
1000
cm
1000
gm
1000
MILD_STEEL
1070
    25
1000
CSG
1070
     1
1070
     3
1070
     3
1070
     3
1070
     0
1000
cm^ 3
1070
     1
1070
     0
1005
40B3
  0
INSERT
  5
40B5
330
2
100
AcDbEntity
  8
AME_FRZ
100
AcDbBlockReference
  2
AME_NIL
 10
3307.667854902614
 20
302.1717381861885
 30
0.0
  0
INSERT
  5
40B6
330
2
100
AcDbEntity
  8
AME_FRZ
100
AcDbBlockReference
  2
AME_SOL
 10
3307.667854902614
 20
302.1717381861885
 30
0.0
1001
AME_SOL
1000
R2.1
1000
AME2
1000
cm^ 2
1070
     3
1070
     0
1070
     3
1000
wire
1040
45.0
1000
U
1040
1.0
1000
cm
1000
gm
1000
MILD_STEEL
1070
    25
1000
CSG
1070
     1
1070
     3
1070
     3
1070
     3
1070
     0
1000
cm^ 3
1070
     1
1070
     0
1005
0
  0
INSERT
  5
40B7
330
2
100
AcDbEntity
  8
AME_FRZ
100
AcDbBlockReference
  2
AME_NIL
 10
3897.400097791356
 20
318.1279171982025
 30
0.0
  0
INSERT
  5
40B8
330
2
100
AcDbEntity
  8
AME_FRZ
100
AcDbBlockReference
  2
AME_SOL
 10
3897.400097791356
 20
318.1279171982025
 30
0.0
1001
AME_SOL
1000
R2.1
1000
AME2
1000
cm^ 2
1070
     3
1070
     0
1070
     3
1000
wire
1040
45.0
1000
U
1040
1.0
1000
cm
1000
gm
1000
MILD_STEEL
1070
    25
1000
CSG
1070
     1
1070
     3
1070
     3
1070
     3
1070
     0
1000
cm^ 3
1070
     1
1070
     0
1005
0
  0
INSERT
  5
40B9
330
2
100
AcDbEntity
  8
AME_FRZ
100
AcDbBlockReference
  2
AME_NIL
 10
3876.271172079255
 20
306.215406024579
 30
0.0
  0
INSERT
  5
40BA
330
2
100
AcDbEntity
  8
AME_FRZ
100
AcDbBlockReference
  2
AME_SOL
 10
3876.271172079255
 20
306.215406024579
 30
0.0
1001
AME_SOL
1000
R2.1
1000
AME2
1000
cm^ 2
1070
     3
1070
     0
1070
     3
1000
wire
1040
45.0
1000
U
1040
1.0
1000
cm
1000
gm
1000
MILD_STEEL
1070
    25
1000
CSG
1070
     1
1070
     3
1070
     3
1070
     3
1070
     0
1000
cm^ 3
1070
     1
1070
     0
1005
0
  0
INSERT
  5
40BB
330
2
100
AcDbEntity
  8
AME_FRZ
100
AcDbBlockReference
  2
AME_NIL
 10
2652.251518288403
 20
260.6640705247187
 30
0.0
  0
INSERT
  5
40BC
330
2
100
AcDbEntity
  8
AME_FRZ
100
AcDbBlockReference
  2
AME_SOL
 10
2652.251518288403
 20
260.6640705247187
 30
0.0
1001
AME_SOL
1000
R2.1
1000
AME2
1000
cm^ 2
1070
     3
1070
     0
1070
     3
1000
wire
1040
45.0
1000
U
1040
1.0
1000
cm
1000
gm
1000
MILD_STEEL
1070
    25
1000
CSG
1070
     1
1070
     3
1070
     3
1070
     3
1070
     0
1000
cm^ 3
1070
     1
1070
     0
1005
0
  0
TEXT
  5
40BD
330
2
100
AcDbEntity
  8
AM_6
100
AcDbText
 10
3922.890516989736
 20
265.1054452211667
 30
0.0
 40
1.25
  1

 41
0.8
 51
20.0
  7
25RMS
 72
     1
 11
3922.890516989736
 21
265.1054452211667
 31
0.0
100
AcDbText
  0
INSERT
  5
40BE
330
2
100
AcDbEntity
  8
AM_0
  6
Continuous
100
AcDbBlockReference
  2
LAYER-GENIUS
 10
3155.357152321855
 20
199.9040097644885
 30
0.0
  0
INSERT
  5
40BF
330
2
100
AcDbEntity
  8
AM_0
100
AcDbBlockReference
  2
LAYER-GENIUS
 10
2549.52844047579
 20
193.7390987947293
 30
0.0
  0
POINT
  5
40C6
330
2
100
AcDbEntity
  8
AM_7
  6
AM_ISO08W050x2
 60
     1
100
AcDbPoint
 10
2549.52844047579
 20
193.7390987947293
 30
0.0
  0
INSERT
  5
40D6
330
2
100
AcDbEntity
  8
AM_0
100
AcDbBlockReference
  2
LAYER-GENIUS
 10
2473.573685696283
 20
200.7928789921771
 30
0.0
  0
INSERT
  5
40DD
330
2
100
AcDbEntity
  8
AM_0
100
AcDbBlockReference
  2
LAYER-GENIUS
 10
2301.365399084418
 20
279.9998872326723
 30
0.0
  0
INSERT
  5
40E4
330
2
100
AcDbEntity
  8
AM_0
100
AcDbBlockReference
  2
LAYER-GENIUS
 10
2301.365399084418
 20
279.9998872326723
 30
0.0
  0
INSERT
  5
40E5
330
2
100
AcDbEntity
  8
AM_0
100
AcDbBlockReference
  2
LAYER-GENIUS
 10
2301.365399084418
 20
279.9998872326723
 30
0.0
  0
INSERT
  5
40EC
330
2
100
AcDbEntity
  8
AM_0
100
AcDbBlockReference
  2
LAYER-GENIUS
 10
2805.650901586387
 20
307.6717827683168
 30
0.0
  0
INSERT
  5
40ED
330
2
100
AcDbEntity
  8
AM_0
100
AcDbBlockReference
  2
LAYER-GENIUS
 10
2805.650901586387
 20
307.6717827683168
 30
0.0
  0
INSERT
  5
40F1
330
2
100
AcDbEntity
  8
AM_PAREF
100
AcDbBlockReference
  2
LAYER-GENIUS
 10
1463.593543767824
 20
125.1897138730682
 30
0.0
  0
INSERT
  5
40F2
330
2
100
AcDbEntity
  8
AME_FRZ
100
AcDbBlockReference
  2
AME_NIL
 10
2242.392405045731
 20
359.771906178322
 30
0.0
  0
INSERT
  5
40F3
330
2
100
AcDbEntity
  8
AME_FRZ
100
AcDbBlockReference
  2
AME_SOL
 10
2242.392405045731
 20
359.771906178322
 30
0.0
1001
AME_SOL
1000
R2.1
1000
AME2
1000
cm^ 2
1070
     3
1070
     0
1070
     3
1000
wire
1040
45.0
1000
U
1040
1.0
1000
cm
1000
gm
1000
MILD_STEEL
1070
    25
1000
CSG
1070
     1
1070
     3
1070
     3
1070
     3
1070
     0
1000
cm^ 3
1070
     1
1070
     0
1005
40F2
  0
INSERT
  5
40F4
330
2
100
AcDbEntity
  8
AME_FRZ
100
AcDbBlockReference
  2
AME_NIL
 10
2832.124647934473
 20
375.7280851903361
 30
0.0
  0
INSERT
  5
40F5
330
2
100
AcDbEntity
  8
AME_FRZ
100
AcDbBlockReference
  2
AME_SOL
 10
2832.124647934473
 20
375.7280851903361
 30
0.0
1001
AME_SOL
1000
R2.1
1000
AME2
1000
cm^ 2
1070
     3
1070
     0
1070
     3
1000
wire
1040
45.0
1000
U
1040
1.0
1000
cm
1000
gm
1000
MILD_STEEL
1070
    25
1000
CSG
1070
     1
1070
     3
1070
     3
1070
     3
1070
     0
1000
cm^ 3
1070
     1
1070
     0
1005
40F4
  0
INSERT
  5
40F6
330
2
100
AcDbEntity
  8
AME_FRZ
100
AcDbBlockReference
  2
AME_NIL
 10
2810.995722222372
 20
363.8155740167125
 30
0.0
  0
INSERT
  5
40F7
330
2
100
AcDbEntity
  8
AME_FRZ
100
AcDbBlockReference
  2
AME_SOL
 10
2810.995722222372
 20
363.8155740167125
 30
0.0
1001
AME_SOL
1000
R2.1
1000
AME2
1000
cm^ 2
1070
     3
1070
     0
1070
     3
1000
wire
1040
45.0
1000
U
1040
1.0
1000
cm
1000
gm
1000
MILD_STEEL
1070
    25
1000
CSG
1070
     1
1070
     3
1070
     3
1070
     3
1070
     0
1000
cm^ 3
1070
     1
1070
     0
1005
40F6
  0
INSERT
  5
40F8
330
2
100
AcDbEntity
  8
AME_FRZ
100
AcDbBlockReference
  2
AME_NIL
 10
2368.469722312985
 20
398.7530257162792
 30
0.0
  0
INSERT
  5
40F9
330
2
100
AcDbEntity
  8
AME_FRZ
100
AcDbBlockReference
  2
AME_SOL
 10
2368.469722312985
 20
398.7530257162792
 30
0.0
1001
AME_SOL
1000
R2.1
1000
AME2
1000
cm^ 2
1070
     3
1070
     0
1070
     3
1000
wire
1040
45.0
1000
U
1040
1.0
1000
cm
1000
gm
1000
MILD_STEEL
1070
    25
1000
CSG
1070
     1
1070
     3
1070
     3
1070
     3
1070
     0
1000
cm^ 3
1070
     1
1070
     0
1005
40F8
  0
INSERT
  5
40FA
330
2
100
AcDbEntity
  8
AME_FRZ
100
AcDbBlockReference
  2
AME_NIL
 10
2368.469722312985
 20
398.7530257162792
 30
0.0
  0
INSERT
  5
40FB
330
2
100
AcDbEntity
  8
AME_FRZ
100
AcDbBlockReference
  2
AME_SOL
 10
2368.469722312985
 20
398.7530257162792
 30
0.0
1001
AME_SOL
1000
R2.1
1000
AME2
1000
cm^ 2
1070
     3
1070
     0
1070
     3
1000
wire
1040
45.0
1000
U
1040
1.0
1000
cm
1000
gm
1000
MILD_STEEL
1070
    25
1000
CSG
1070
     1
1070
     3
1070
     3
1070
     3
1070
     0
1000
cm^ 3
1070
     1
1070
     0
1005
40FA
  0
INSERT
  5
40FC
330
2
100
AcDbEntity
  8
AM_4
100
AcDbBlockReference
  2
LAYER-GENIUS
 10
2034.297923432645
 20
196.798528008984
 30
0.0
  0
INSERT
  5
40FD
330
2
100
AcDbEntity
  8
AM_0
100
AcDbBlockReference
  2
LAYER-GENIUS
 10
2180.174419327168
 20
217.2781664764076
 30
0.0
  0
INSERT
  5
40FE
330
2
100
AcDbEntity
  8
AM_0
100
AcDbBlockReference
  2
LAYER-GENIUS
 10
2027.009336027733
 20
207.9125735823886
 30
0.0
  0
INSERT
  5
40FF
330
2
100
AcDbEntity
  8
AM_0
100
AcDbBlockReference
  2
LAYER-GENIUS
 10
608.3202956088996
 20
102.587540608178
 30
0.0
  0
INSERT
  5
412D
330
2
100
AcDbEntity
  8
AM_0
100
AcDbBlockReference
  2
LAYER-GENIUS
 10
897.3752580737473
 20
172.9927060285023
 30
0.0
  0
INSERT
  5
419C
330
2
100
AcDbEntity
  8
AM_0
100
AcDbBlockReference
  2
LAYER-GENIUS
 10
409.2547617965424
 20
68.91854397087673
 30
0.0
  0
INSERT
  5
4724
330
2
100
AcDbEntity
  8
AM_0
100
AcDbBlockReference
  2
LAYER-GENIUS
 10
0.0
 20
0.0
 30
0.0
  0
INSERT
  5
63DC
330
2
100
AcDbEntity
  8
AM_0
100
AcDbBlockReference
  2
LAYER-GENIUS
 10
0.0
 20
0.0
 30
0.0
  0
INSERT
  5
7723
330
2
100
AcDbEntity
  8
AM_0
370
     0
100
AcDbBlockReference
  2
A4-ORIZZONTALE
 10
13.73800167807928
 20
110.8364486050595
 30
0.0
1001
GENIUS_GENOREF_13
1005
7744
1001
GENIUS_GENODEF_13
1002
{
1000
HIER
1070
     0
1002
}
1002
{
1000
MANEDIT
1070
     0
1002
}
1002
{
1000
NOSEL
1070
     0
1002
}
1002
{
1000
BEHIND
1070
     0
1002
}
1002
{
1000
REACTOR
1002
}
1001
GENIUS_GENOBJ-N-SDF_13
1002
{
1000
OWNER
1000
GEN
1002
}
1001
GENIUS_GENSCREG_15
1040
1.0
1040
1.0
1011
13.73800167807928
1021
110.8364486050595
1031
0.0
1011
310.7380016780792
1021
320.8364486050595
1031
0.0
1070
     5
  0
POINT
  5
7744
330
2
100
AcDbEntity
  8
0
 60
     1
100
AcDbPoint
 10
0.0
 20
0.0
 30
0.0
1001
GENIUS_GENOBJ-N-TIT_13
1002
{
1000
OWNER
1000
GEN
1002
}
1001
GENIUS_GENOENT_13
1002
{
1000
MYREF
1005
7744
1002
}
1002
{
1000
GRP
1005
0
1002
}
1001
GENIUS_GENODEF_13
1002
{
1000
HIER
1070
     1
1002
}
1002
{
1000
MANEDIT
1070
     1
1002
}
1002
{
1000
NOSEL
1070
     0
1002
}
1002
{
1000
BEHIND
1070
     0
1002
}
1002
{
1000
REACTOR
1002
}
1001
GENIUS_GENOLIS_13
1002
{
1000
ENT
1005
7723
1005
185B9
1002
}
1001
GENIUS_GENTITLE_13
1002
{
1000
BORDER
1000
A4-ORIZZONTALE
1002
}
1002
{
1000
TITLE
1000
ASM_C4
1002
}
1002
{
1000
SCALE
1000
1:1
1002
}
1002
{
1000
TITLESTD
1000
ISO
1002
}
1002
{
1000
HRA
1005
7723
1002
}
1002
{
1000
HTIT
1005
185B9
1002
}
1002
{
1000
GENIUSID
1005
7744
1002
}
1002
{
1000
UNCHG
1002
{
1000
GEN-TITLE-SIZ
1000
GEN-TITLE-SCA
1002
}
1002
}
  0
INSERT
  5
80CB
330
2
100
AcDbEntity
  8
AM_3
100
AcDbBlockReference
  2
LAYER-GENIUS
 10
0.0
 20
0.0
 30
0.0
  0
LINE
  5
832A
330
2
100
AcDbEntity
  8
AM_2
100
AcDbLine
 10
117.2380016780792
 20
132.1004031704669
 30
0.0
 11
207.2380016780793
 21
132.1004031704669
 31
0.0
  0
LINE
  5
832B
330
2
100
AcDbEntity
  8
AM_2
100
AcDbLine
 10
207.2380016780793
 20
132.1004031704669
 30
0.0
 11
207.2380016780793
 21
202.1004031704669
 31
0.0
  0
LINE
  5
832C
330
2
100
AcDbEntity
  8
AM_2
100
AcDbLine
 10
207.2380016780793
 20
202.1004031704669
 30
0.0
 11
117.2380016780792
 21
202.1004031704669
 31
0.0
  0
LINE
  5
832D
330
2
100
AcDbEntity
  8
AM_2
100
AcDbLine
 10
117.2380016780792
 20
202.1004031704669
 30
0.0
 11
117.2380016780792
 21
132.1004031704669
 31
0.0
  0
INSERT
  5
9733
330
2
100
AcDbEntity
  8
AM_0
100
AcDbBlockReference
  2
LAYER-GENIUS
 10
0.0
 20
0.0
 30
0.0
  0
INSERT
  5
A043
330
2
100
AcDbEntity
  8
AM_0
100
AcDbBlockReference
  2
LAYER-GENIUS
 10
0.0
 20
0.0
 30
0.0
  0
INSERT
  5
B04E
330
2
100
AcDbEntity
  8
AM_0
100
AcDbBlockReference
  2
LAYER-GENIUS
 10
556.052966916658
 20
132.7200618458487
 30
0.0
  0
INSERT
  5
B0CF
330
2
100
AcDbEntity
  8
AM_0
100
AcDbBlockReference
  2
LAYER-GENIUS
 10
557.0678254172423
 20
489.8202836542663
 30
0.0
  0
INSERT
  5
B181
330
2
100
AcDbEntity
  8
AM_0
100
AcDbBlockReference
  2
LAYER-GENIUS
 10
228.3323710069125
 20
122.0480667272448
 30
0.0
  0
LINE
  5
BCBA
330
2
100
AcDbEntity
  8
AM_0
100
AcDbLine
 10
90.1271633301447
 20
260.269695490447
 30
0.0
 11
90.12716333014468
 21
220.9072271420711
 31
0.0
  0
INSERT
  5
CC3F
330
2
100
AcDbEntity
  8
AM_4
100
AcDbBlockReference
  2
LAYER-GENIUS
 10
204.9676449613566
 20
152.3975045482533
 30
0.0
  0
INSERT
  5
CC44
330
2
100
AcDbEntity
  8
AM_7
100
AcDbBlockReference
  2
LAYER-GENIUS
 10
204.9676449613566
 20
152.3975045482533
 30
0.0
  0
INSERT
  5
CC50
330
2
100
AcDbEntity
  8
AM_7
100
AcDbBlockReference
  2
LAYER-GENIUS
 10
204.9676449613566
 20
152.3975045482533
 30
0.0
  0
INSERT
  5
D251
330
2
100
AcDbEntity
  8
AM_4
100
AcDbBlockReference
  2
LAYER-GENIUS
 10
575.5216339091663
 20
156.7100973726139
 30
0.0
  0
INSERT
  5
D252
330
2
100
AcDbEntity
  8
AM_7
100
AcDbBlockReference
  2
LAYER-GENIUS
 10
575.5216339091663
 20
156.7100973726139
 30
0.0
  0
INSERT
  5
D253
330
2
100
AcDbEntity
  8
AM_7
100
AcDbBlockReference
  2
LAYER-GENIUS
 10
575.5216339091663
 20
156.7100973726139
 30
0.0
  0
INSERT
  5
D254
330
2
100
AcDbEntity
  8
AM_0
100
AcDbBlockReference
  2
LAYER-GENIUS
 10
433.4476938194921
 20
68.75810250396501
 30
0.0
  0
INSERT
  5
F038
330
2
100
AcDbEntity
  8
AM_5
100
AcDbBlockReference
 66
     1
  2
ASM_TOLL
 10
325.0882996839948
 20
182.6620318934151
 30
0.0
 41
3.5
 42
3.5
 43
3.5
1001
ASM_CADM_VER_12_00
1002
{
1005
0
1070
     0
1002
}
  0
ATTRIB
  5
F039
330
F038
100
AcDbEntity
  8
AM_0
 62
     0
100
AcDbText
 10
325.0882996839948
 20
185.4839364250864
 30
0.0
 40
1.994999999999999
  1

  7
ISO
100
AcDbAttribute
  2
SCOSTSUP
 70
     0
  0
ATTRIB
  5
F03A
330
F038
100
AcDbEntity
  8
AM_0
 62
     0
100
AcDbText
 10
325.0882996839948
 20
182.6620318934151
 30
0.0
 40
1.994999999999999
  1

  7
ISO
100
AcDbAttribute
  2
SCOSTINF
 70
     0
  0
SEQEND
  5
F03B
330
F038
100
AcDbEntity
  8
AM_5
 62
     7
  0
INSERT
  5
F055
330
2
100
AcDbEntity
  8
AM_5
100
AcDbBlockReference
 66
     1
  2
ASM_TOLL
 10
195.7045642109374
 20
182.453436321109
 30
0.0
 41
3.5
 42
3.5
 43
3.5
1001
ASM_CADM_VER_12_00
1002
{
1005
F054
1070
     0
1002
}
  0
ATTRIB
  5
F056
330
F055
100
AcDbEntity
  8
AM_0
 62
     0
100
AcDbText
 10
195.7045642109374
 20
185.2753408527804
 30
0.0
 40
1.994999999999999
  1

  7
ISO
100
AcDbAttribute
  2
SCOSTSUP
 70
     0
  0
ATTRIB
  5
F057
330
F055
100
AcDbEntity
  8
AM_0
 62
     0
100
AcDbText
 10
195.7045642109374
 20
182.453436321109
 30
0.0
 40
1.994999999999999
  1

  7
ISO
100
AcDbAttribute
  2
SCOSTINF
 70
     0
  0
SEQEND
  5
F058
330
F055
100
AcDbEntity
  8
AM_5
 62
     7
  0
INSERT
  5
F06B
330
2
100
AcDbEntity
  8
AM_5
100
AcDbBlockReference
 66
     1
  2
ASM_TOLL
 10
268.2906844545981
 20
183.0969456068299
 30
0.0
 41
3.5
 42
3.5
 43
3.5
1001
ASM_CADM_VER_12_00
1002
{
1005
F06A
1070
     0
1002
}
  0
ATTRIB
  5
F06C
330
F06B
100
AcDbEntity
  8
AM_0
 62
     0
100
AcDbText
 10
268.2906844545981
 20
185.9188501385013
 30
0.0
 40
1.994999999999999
  1

  7
ISO
100
AcDbAttribute
  2
SCOSTSUP
 70
     0
  0
ATTRIB
  5
F06D
330
F06B
100
AcDbEntity
  8
AM_0
 62
     0
100
AcDbText
 10
268.2906844545981
 20
183.0969456068299
 30
0.0
 40
1.994999999999999
  1

  7
ISO
100
AcDbAttribute
  2
SCOSTINF
 70
     0
  0
SEQEND
  5
F06E
330
F06B
100
AcDbEntity
  8
AM_5
 62
     7
  0
INSERT
  5
F1C6
330
2
100
AcDbEntity
  8
AM_0
100
AcDbBlockReference
  2
LAYER-GENIUS
 10
0.0
 20
0.0
 30
0.0
  0
INSERT
  5
10159
330
2
100
AcDbEntity
  8
AM_0
100
AcDbBlockReference
  2
LAYER-GENIUS
 10
240.4737490516074
 20
125.7815972676886
 30
0.0
  0
INSERT
  5
10701
330
2
100
AcDbEntity
  8
AM_0
100
AcDbBlockReference
  2
LAYER-GENIUS
 10
563.8631956694673
 20
126.4533797263752
 30
0.0
  0
INSERT
  5
1199D
330
2
100
AcDbEntity
  8
AM_0
100
AcDbBlockReference
  2
LAYER-GENIUS
 10
0.0
 20
0.0
 30
0.0
  0
INSERT
  5
12EE2
330
2
100
AcDbEntity
  8
AM_0
100
AcDbBlockReference
  2
LAYER-GENIUS
 10
0.0
 20
0.0
 30
0.0
  0
INSERT
  5
13B09
330
2
100
AcDbEntity
  8
AM_0
100
AcDbBlockReference
  2
LAYER-GENIUS
 10
453.7035242258748
 20
193.3186696682834
 30
0.0
  0
INSERT
  5
1402C
330
2
100
AcDbEntity
  8
AM_0
100
AcDbBlockReference
  2
LAYER-GENIUS
 10
600.142670509031
 20
77.40771383481626
 30
0.0
  0
INSERT
  5
156D6
330
2
100
AcDbEntity
  8
AM_0
100
AcDbBlockReference
  2
LAYER-GENIUS
 10
0.0
 20
0.0
 30
0.0
  0
TEXT
  5
15A3C
330
2
100
AcDbEntity
  8
AM_5
100
AcDbText
 10
134.472027404378
 20
254.7862677331752
 30
0.0
 40
3.2999999967
  1
A
 41
0.8
 51
20.0
  7
CART
 72
     4
 11
135.6034559746752
 21
256.4362677315252
 31
0.0
100
AcDbText
  0
LINE
  5
15A3D
330
2
100
AcDbEntity
  8
AM_0
100
AcDbLine
 10
222.2374401057769
 20
260.269695490447
 30
0.0
 11
222.2374401057769
 21
220.9072271420711
 31
0.0
  0
TEXT
  5
15A3E
330
2
100
AcDbEntity
  8
AM_5
100
AcDbText
 10
132.0379632177317
 20
248.4424003529284
 30
0.0
 40
3.2999999967
  1
26
 41
0.8
 51
20.0
  7
CART
 72
     4
 11
134.5522489295031
 21
250.0924003512784
 31
0.0
100
AcDbText
  0
INSERT
  5
15EE3
330
2
100
AcDbEntity
  8
AM_5
100
AcDbBlockReference
  2
LAYER-GENIUS
 10
0.0
 20
0.0
 30
0.0
  0
INSERT
  5
17192
330
2
100
AcDbEntity
  8
AM_5
100
AcDbBlockReference
  2
LAYER-GENIUS
 10
0.0
 20
0.0
 30
0.0
  0
CIRCLE
  5
17C30
330
2
100
AcDbEntity
  8
AM_0
100
AcDbCircle
 10
161.9854708988369
 20
142.3907435638172
 30
0.0
 40
2.092569589477914
  0
CIRCLE
  5
17C31
330
2
100
AcDbEntity
  8
AM_0
100
AcDbCircle
 10
161.9854708988369
 20
142.3907435638172
 30
0.0
 40
3.402
  0
ARC
  5
17C32
330
2
100
AcDbEntity
  8
AM_0
100
AcDbCircle
 10
161.9854708988369
 20
142.3907435638172
 30
0.0
 40
3.78
100
AcDbArc
 50
152.9643082105872
 51
332.9643082105868
  0
LINE
  5
17C33
330
2
100
AcDbEntity
  8
AM_0
100
AcDbLine
 10
168.4114708988369
 20
140.8787435638173
 30
0.0
 11
168.4114708988369
 21
143.9027435638172
 31
0.0
  0
LINE
  5
17C34
330
2
100
AcDbEntity
  8
AM_0
100
AcDbLine
 10
155.5594708988369
 20
140.8787435638173
 30
0.0
 11
155.5594708988369
 21
143.9027435638173
 31
0.0
  0
LINE
  5
17C35
330
2
100
AcDbEntity
  8
AM_0
100
AcDbLine
 10
168.4114708988369
 20
140.8787435638173
 30
0.0
 11
165.689099389925
 21
140.8787435638172
 31
0.0
  0
LINE
  5
17C36
330
2
100
AcDbEntity
  8
AM_0
100
AcDbLine
 10
168.4114708988369
 20
143.9027435638172
 30
0.0
 11
165.689099389925
 21
143.9027435638172
 31
0.0
  0
LINE
  5
17C37
330
2
100
AcDbEntity
  8
AM_0
100
AcDbLine
 10
158.2818424077489
 20
140.8787435638173
 30
0.0
 11
155.5594708988369
 21
140.8787435638173
 31
0.0
  0
LINE
  5
17C38
330
2
100
AcDbEntity
  8
AM_0
100
AcDbLine
 10
158.2818424077489
 20
143.9027435638173
 30
0.0
 11
155.5594708988369
 21
143.9027435638173
 31
0.0
  0
ARC
  5
17C39
330
2
100
AcDbEntity
  8
AM_0
100
AcDbCircle
 10
165.689099389925
 20
140.5007435638172
 30
0.0
 40
0.3780000000000001
100
AcDbArc
 50
90.0
 51
152.9643082105868
  0
ARC
  5
17C3A
330
2
100
AcDbEntity
  8
AM_0
100
AcDbCircle
 10
165.689099389925
 20
144.2807435638172
 30
0.0
 40
0.3780000000000001
100
AcDbArc
 50
207.0356917894131
 51
270.0
  0
ARC
  5
17C3B
330
2
100
AcDbEntity
  8
AM_0
100
AcDbCircle
 10
158.2818424077489
 20
144.2807435638172
 30
0.0
 40
0.3780000000000001
100
AcDbArc
 50
270.0
 51
332.9643082105876
  0
ARC
  5
17C3C
330
2
100
AcDbEntity
  8
AM_0
100
AcDbCircle
 10
158.2818424077489
 20
140.5007435638173
 30
0.0
 40
0.3780000000000001
100
AcDbArc
 50
27.03569178941388
 51
90.0
  0
ARC
  5
17C3D
330
2
100
AcDbEntity
  8
AM_0
100
AcDbCircle
 10
161.9854708988369
 20
142.3907435638172
 30
0.0
 40
3.78
100
AcDbArc
 50
27.03569178941309
 51
152.9643082105872
  0
LINE
  5
17C3E
330
2
100
AcDbEntity
  8
AM_0
100
AcDbLine
 10
168.4114708988369
 20
142.3907435638172
 30
0.0
 11
165.3874708988369
 21
142.3907435638172
 31
0.0
  0
LINE
  5
17C3F
330
2
100
AcDbEntity
  8
AM_7
  6
AM_ISO08W050x2
100
AcDbLine
 10
165.755030193581
 20
142.3907435638172
 30
0.0
 11
158.2054708988369
 21
142.3907435638173
 31
0.0
  0
LINE
  5
17C40
330
2
100
AcDbEntity
  8
AM_0
100
AcDbLine
 10
158.2054708988369
 20
142.3907435638173
 30
0.0
 11
155.5594708988369
 21
142.3907435638173
 31
0.0
  0
DIMENSION
  5
17C43
330
2
100
AcDbEntity
  8
AM_5
100
AcDbDimension
  2
*D5
 10
150.5594708988369
 20
146.1707435638173
 30
0.0
 11
148.9594708988369
 21
142.3907435638173
 31
0.0
 70
    32
  1
C
 71
     5
 42
7.560000000000002
  3
GEN-ISO
100
AcDbAlignedDimension
 13
161.9854708988369
 23
138.6107435638173
 33
0.0
 14
161.9854708988369
 24
146.1707435638173
 34
0.0
 50
270.0
100
AcDbRotatedDimension
1001
GENIUS_GENDTOL_13
1000

1000
h7
1000

1040
0.0
1000
C
  0
DIMENSION
  5
17C46
330
2
100
AcDbEntity
  8
AM_5
100
AcDbDimension
  2
*D6
 10
168.4114708988369
 20
134.6248534298174
 30
0.0
 11
163.3084708988369
 21
136.2248534298174
 31
0.0
 70
    32
  1
E
 71
     5
 42
10.20600000000001
  3
GEN-ISO
100
AcDbAlignedDimension
 13
158.2054708988369
 23
142.3907435638173
 33
0.0
 14
168.4114708988369
 24
140.8787435638173
 34
0.0
 50
180.0
100
AcDbRotatedDimension
1001
GENIUS_GENDTOL_13
1000

1000
h7
1000

1040
0.0
1000

  0
INSERT
  5
17CAF
330
2
100
AcDbEntity
  8
AM_0
100
AcDbBlockReference
  2
LAYER-GENIUS
 10
0.0
 20
0.0
 30
0.0
  0
TEXT
  5
17EB9
330
2
100
AcDbEntity
  8
AM_5
100
AcDbText
 10
248.4881538253393
 20
241.8493734329581
 30
0.0
 40
3.2999999967
  1
0,750 Kg.
 41
0.8
 51
20.0
  7
CART
 72
     4
 11
258.545296672425
 21
242.9493734318581
 31
0.0
100
AcDbText
1001
GENIUS_GENTRA_14
1002
{
1070
     1
1000
/
1000
3,000 Kg.
1000
ITA
1070
     0
1040
0.8
1070
     0
1002
}
  0
LINE
  5
17EBA
330
2
100
AcDbEntity
  8
AM_0
100
AcDbLine
 10
50.26924692525992
 20
240.588461316259
 30
0.0
 11
274.2067564308986
 21
240.588461316259
 31
0.0
  0
TEXT
  5
17EBC
330
2
100
AcDbEntity
  8
AM_5
100
AcDbText
 10
132.0379632177317
 20
241.8819889615324
 30
0.0
 40
3.2999999967
  1
38
 41
0.8
 51
20.0
  7
CART
 72
     4
 11
134.5522489295031
 21
243.5319889598825
 31
0.0
100
AcDbText
  0
TEXT
  5
17EBD
330
2
100
AcDbEntity
  8
AM_5
100
AcDbText
 10
58.43006430009381
 20
241.7842516931234
 30
0.0
 40
3.2999999967
  1
11604208
 41
0.8
 51
20.0
  7
CART
 72
     4
 11
68.67577857556239
 21
243.4342516914734
 31
0.0
100
AcDbText
  0
LINE
  5
17EBF
330
2
100
AcDbEntity
  8
AM_0
100
AcDbLine
 10
50.26924692525992
 20
234.0280499248631
 30
0.0
 11
274.2067564308986
 21
234.0280499248631
 31
0.0
  0
TEXT
  5
17EC0
330
2
100
AcDbEntity
  8
AM_5
100
AcDbText
 10
58.43006430009381
 20
235.2238403017274
 30
0.0
 40
3.2999999967
  1
11604210
 41
0.8
 51
20.0
  7
CART
 72
     4
 11
68.67577857556239
 21
236.8738403000774
 31
0.0
100
AcDbText
  0
TEXT
  5
17EC1
330
2
100
AcDbEntity
  8
AM_5
100
AcDbText
 10
248.2995823969565
 20
235.2889620415621
 30
0.0
 40
3.2999999967
  1
1,150 Kg.
 41
0.8
 51
20.0
  7
CART
 72
     4
 11
258.545296672425
 21
236.3889620404621
 31
0.0
100
AcDbText
1001
GENIUS_GENTRA_14
1002
{
1070
     1
1000
/
1000
4,600 Kg.
1000
ITA
1070
     0
1040
0.8
1070
     0
1002
}
  0
TEXT
  5
17EC2
330
2
100
AcDbEntity
  8
AM_5
100
AcDbText
 10
132.0379632177317
 20
235.3215775701364
 30
0.0
 40
3.2999999967
  1
48
 41
0.8
 51
20.0
  7
CART
 72
     4
 11
134.5522489295031
 21
236.9715775684865
 31
0.0
100
AcDbText
  0
LINE
  5
17EC4
330
2
100
AcDbEntity
  8
AM_0
100
AcDbLine
 10
50.26924692525992
 20
227.4676385334671
 30
0.0
 11
274.2067564308986
 21
227.4676385334671
 31
0.0
  0
TEXT
  5
17EC5
330
2
100
AcDbEntity
  8
AM_5
100
AcDbText
 10
58.43006430009381
 20
228.6634289103314
 30
0.0
 40
3.2999999967
  1
11604212
 41
0.8
 51
20.0
  7
CART
 72
     4
 11
68.67577857556239
 21
230.3134289086814
 31
0.0
100
AcDbText
  0
TEXT
  5
17EC6
330
2
100
AcDbEntity
  8
AM_5
100
AcDbText
 10
248.2995823969565
 20
228.7285506501662
 30
0.0
 40
3.2999999967
  1
1,800 Kg.
 41
0.8
 51
20.0
  7
CART
 72
     4
 11
258.545296672425
 21
229.8285506490661
 31
0.0
100
AcDbText
1001
GENIUS_GENTRA_14
1002
{
1070
     1
1000
/
1000
7,200 Kg.
1000
ITA
1070
     0
1040
0.8
1070
     0
1002
}
  0
TEXT
  5
17EC7
330
2
100
AcDbEntity
  8
AM_5
100
AcDbText
 10
132.0379632177317
 20
228.7611661787405
 30
0.0
 40
3.2999999967
  1
57
 41
0.8
 51
20.0
  7
CART
 72
     4
 11
134.5522489295031
 21
230.4111661770905
 31
0.0
100
AcDbText
  0
LINE
  5
17EC9
330
2
100
AcDbEntity
  8
AM_0
100
AcDbLine
 10
50.26924692525992
 20
220.9072271420712
 30
0.0
 11
274.2067564308986
 21
220.9072271420712
 31
0.0
  0
TEXT
  5
17ECA
330
2
100
AcDbEntity
  8
AM_5
100
AcDbText
 10
58.36720715729953
 20
222.1030175189354
 30
0.0
 40
3.2999999967
  1
11604214
 41
0.8
 51
20.0
  7
CART
 72
     4
 11
68.67577857556239
 21
223.7530175172855
 31
0.0
100
AcDbText
  0
TEXT
  5
17ECB
330
2
100
AcDbEntity
  8
AM_5
100
AcDbText
 10
248.4881538253393
 20
222.1681392587702
 30
0.0
 40
3.2999999967
  1
2,375 Kg.
 41
0.8
 51
20.0
  7
CART
 72
     4
 11
258.545296672425
 21
223.2681392576702
 31
0.0
100
AcDbText
1001
GENIUS_GENTRA_14
1002
{
1070
     1
1000
/
1000
9,500 Kg.
1000
ITA
1070
     0
1040
0.8
1070
     0
1002
}
  0
TEXT
  5
17ECC
330
2
100
AcDbEntity
  8
AM_5
100
AcDbText
 10
131.9751060749374
 20
222.2007547873445
 30
0.0
 40
3.2999999967
  1
68
 41
0.8
 51
20.0
  7
CART
 72
     4
 11
134.5522489295031
 21
223.8507547856945
 31
0.0
100
AcDbText
  0
TEXT
  5
17EDB
330
2
100
AcDbEntity
  8
AM_5
100
AcDbText
 10
156.2610026888842
 20
241.8819889615324
 30
0.0
 40
3.2999999967
  1
12
 41
0.8
 51
20.0
  7
CART
 72
     4
 11
158.9638598290385
 21
243.5319889598825
 31
0.0
100
AcDbText
  0
LINE
  5
17EDC
330
2
100
AcDbEntity
  8
AM_0
100
AcDbLine
 10
141.7671960312737
 20
260.269695490447
 30
0.0
 11
141.7671960312737
 21
220.9072271420711
 31
0.0
  0
TEXT
  5
17EDD
330
2
100
AcDbEntity
  8
AM_5
100
AcDbText
 10
154.3752884050556
 20
228.7611661787405
 30
0.0
 40
3.2999999967
  1
15.3
 41
0.8
 51
20.0
  7
CART
 72
     4
 11
158.9638598290385
 21
230.4111661770905
 31
0.0
100
AcDbText
  0
TEXT
  5
17EDE
330
2
100
AcDbEntity
  8
AM_5
100
AcDbText
 10
156.2610026888842
 20
222.2007547873445
 30
0.0
 40
3.2999999967
  1
16
 41
0.8
 51
20.0
  7
CART
 72
     4
 11
158.9638598290385
 21
223.8507547856945
 31
0.0
100
AcDbText
  0
TEXT
  5
17EDF
330
2
100
AcDbEntity
  8
AM_5
100
AcDbText
 10
156.2610026888842
 20
235.3215775701364
 30
0.0
 40
3.2999999967
  1
13
 41
0.8
 51
20.0
  7
CART
 72
     4
 11
158.9638598290385
 21
236.9715775684865
 31
0.0
100
AcDbText
  0
TEXT
  5
17EE0
330
2
100
AcDbEntity
  8
AM_5
100
AcDbText
 10
158.6950668755306
 20
254.7862677331752
 30
0.0
 40
3.2999999967
  1
C
 41
0.8
 51
20.0
  7
CART
 72
     4
 11
160.0150668742106
 21
256.4362677315252
 31
0.0
100
AcDbText
  0
TEXT
  5
17EE1
330
2
100
AcDbEntity
  8
AM_5
100
AcDbText
 10
156.2610026888842
 20
248.4424003529284
 30
0.0
 40
3.2999999967
  1
10
 41
0.8
 51
20.0
  7
CART
 72
     4
 11
158.9638598290385
 21
250.0924003512784
 31
0.0
100
AcDbText
  0
TEXT
  5
17EE2
330
2
100
AcDbEntity
  8
AM_5
100
AcDbText
 10
169.0928470839049
 20
241.8819889615324
 30
0.0
 40
3.2999999967
  1
%%C7.7
 41
0.8
 51
20.0
  7
CART
 72
     4
 11
173.4299899367106
 21
243.5319889598825
 31
0.0
100
AcDbText
1001
GENIUS_GENTRA_14
1002
{
1070
     1
1000
%%
1000
%%C7.7
1000
ITA
1070
     0
1040
0.8
1070
     0
1002
}
  0
LINE
  5
17EE3
330
2
100
AcDbEntity
  8
AM_0
100
AcDbLine
 10
166.6278972951836
 20
260.269695490447
 30
0.0
 11
166.6278972951836
 21
220.9072271420711
 31
0.0
  0
TEXT
  5
17EE4
330
2
100
AcDbEntity
  8
AM_5
100
AcDbText
 10
169.0928470839049
 20
228.7611661787405
 30
0.0
 40
3.2999999967
  1
%%C9.8
 41
0.8
 51
20.0
  7
CART
 72
     4
 11
173.4299899367106
 21
230.4111661770905
 31
0.0
100
AcDbText
1001
GENIUS_GENTRA_14
1002
{
1070
     1
1000
%%
1000
%%C9.8
1000
ITA
1070
     0
1040
0.8
1070
     0
1002
}
  0
TEXT
  5
17EE5
330
2
100
AcDbEntity
  8
AM_5
100
AcDbText
 10
167.8357042280192
 20
222.2007547873445
 30
0.0
 40
3.2999999967
  1
%%C10.7
 41
0.8
 51
20.0
  7
CART
 72
     4
 11
173.4299899367106
 21
223.8507547856945
 31
0.0
100
AcDbText
1001
GENIUS_GENTRA_14
1002
{
1070
     1
1000
%%
1000
%%C10.7
1000
ITA
1070
     0
1040
0.8
1070
     0
1002
}
  0
TEXT
  5
17EE6
330
2
100
AcDbEntity
  8
AM_5
100
AcDbText
 10
169.0928470839049
 20
235.3215775701364
 30
0.0
 40
3.2999999967
  1
%%C8.7
 41
0.8
 51
20.0
  7
CART
 72
     4
 11
173.4299899367106
 21
236.9715775684865
 31
0.0
100
AcDbText
1001
GENIUS_GENTRA_14
1002
{
1070
     1
1000
%%
1000
%%C8.7
1000
ITA
1070
     0
1040
0.8
1070
     0
1002
}
  0
TEXT
  5
17EE7
330
2
100
AcDbEntity
  8
AM_5
100
AcDbText
 10
173.0983398404084
 20
254.7862677331752
 30
0.0
 40
3.2999999967
  1
D
 41
0.8
 51
20.0
  7
CART
 72
     4
 11
174.4811969818827
 21
256.4362677315252
 31
0.0
100
AcDbText
  0
TEXT
  5
17EE8
330
2
100
AcDbEntity
  8
AM_5
100
AcDbText
 10
169.0928470839049
 20
248.4424003529284
 30
0.0
 40
3.2999999967
  1
%%C5.7
 41
0.8
 51
20.0
  7
CART
 72
     4
 11
173.4299899367106
 21
250.0924003512784
 31
0.0
100
AcDbText
1001
GENIUS_GENTRA_14
1002
{
1070
     1
1000
%%
1000
%%C5.7
1000
ITA
1070
     0
1040
0.8
1070
     0
1002
}
  0
TEXT
  5
17EE9
330
2
100
AcDbEntity
  8
AM_5
100
AcDbText
 10
184.5731069098007
 20
241.8819889615324
 30
0.0
 40
3.2999999967
  1
16.5
 41
0.8
 51
20.0
  7
CART
 72
     4
 11
189.1616783337836
 21
243.5319889598825
 31
0.0
100
AcDbText
  0
LINE
  5
17EEA
330
2
100
AcDbEntity
  8
AM_0
100
AcDbLine
 10
182.1112335461714
 20
260.269695490447
 30
0.0
 11
182.1112335461714
 21
220.9072271420711
 31
0.0
  0
TEXT
  5
17EEB
330
2
100
AcDbEntity
  8
AM_5
100
AcDbText
 10
187.0245354787779
 20
228.7611661787405
 30
0.0
 40
3.2999999967
  1
21
 41
0.8
 51
20.0
  7
CART
 72
     4
 11
189.1616783337836
 21
230.4111661770905
 31
0.0
100
AcDbText
  0
TEXT
  5
17EEC
330
2
100
AcDbEntity
  8
AM_5
100
AcDbText
 10
184.7616783381836
 20
222.2007547873445
 30
0.0
 40
3.2999999967
  1
21.5
 41
0.8
 51
20.0
  7
CART
 72
     4
 11
189.1616783337836
 21
223.8507547856945
 31
0.0
100
AcDbText
  0
TEXT
  5
17EED
330
2
100
AcDbEntity
  8
AM_5
100
AcDbText
 10
184.5731069098007
 20
235.3215775701364
 30
0.0
 40
3.2999999967
  1
17.5
 41
0.8
 51
20.0
  7
CART
 72
     4
 11
189.1616783337836
 21
236.9715775684865
 31
0.0
100
AcDbText
  0
TEXT
  5
17EEE
330
2
100
AcDbEntity
  8
AM_5
100
AcDbText
 10
188.8928853802757
 20
254.7862677331752
 30
0.0
 40
3.2999999967
  1
E
 41
0.8
 51
20.0
  7
CART
 72
     4
 11
190.2128853789557
 21
256.4362677315252
 31
0.0
100
AcDbText
  0
TEXT
  5
17EEF
330
2
100
AcDbEntity
  8
AM_5
100
AcDbText
 10
184.5731069098007
 20
248.4424003529284
 30
0.0
 40
3.2999999967
  1
13.5
 41
0.8
 51
20.0
  7
CART
 72
     4
 11
189.1616783337836
 21
250.0924003512784
 31
0.0
100
AcDbText
  0
TEXT
  5
17EF0
330
2
100
AcDbEntity
  8
AM_5
100
AcDbText
 10
200.7937618550377
 20
241.8819889615324
 30
0.0
 40
3.2999999967
  1
83
 41
0.8
 51
20.0
  7
CART
 72
     4
 11
203.3080475668092
 21
243.5319889598825
 31
0.0
100
AcDbText
  0
LINE
  5
17EF1
330
2
100
AcDbEntity
  8
AM_0
100
AcDbLine
 10
197.4993534151477
 20
260.269695490447
 30
0.0
 11
197.4993534151477
 21
220.9072271420711
 31
0.0
  0
TEXT
  5
17EF2
330
2
100
AcDbEntity
  8
AM_5
100
AcDbText
 10
199.3480475707691
 20
228.7611661787405
 30
0.0
 40
3.2999999967
  1
122
 41
0.8
 51
20.0
  7
CART
 72
     4
 11
203.3080475668092
 21
230.4111661770905
 31
0.0
100
AcDbText
  0
TEXT
  5
17EF3
330
2
100
AcDbEntity
  8
AM_5
100
AcDbText
 10
199.2851904279748
 20
222.2007547873445
 30
0.0
 40
3.2999999967
  1
144
 41
0.8
 51
20.0
  7
CART
 72
     4
 11
203.3080475668092
 21
223.8507547856945
 31
0.0
100
AcDbText
  0
TEXT
  5
17EF4
330
2
100
AcDbEntity
  8
AM_5
100
AcDbText
 10
199.2851904279748
 20
235.3215775701364
 30
0.0
 40
3.2999999967
  1
104
 41
0.8
 51
20.0
  7
CART
 72
     4
 11
203.3080475668092
 21
236.9715775684865
 31
0.0
100
AcDbText
  0
TEXT
  5
17EF5
330
2
100
AcDbEntity
  8
AM_5
100
AcDbText
 10
203.1021117560955
 20
254.7862677331752
 30
0.0
 40
3.2999999967
  1
L
 41
0.8
 51
20.0
  7
CART
 72
     4
 11
204.3592546119812
 21
256.4362677315252
 31
0.0
100
AcDbText
  0
TEXT
  5
17EF6
330
2
100
AcDbEntity
  8
AM_5
100
AcDbText
 10
200.7937618550377
 20
248.4424003529284
 30
0.0
 40
3.2999999967
  1
58
 41
0.8
 51
20.0
  7
CART
 72
     4
 11
203.3080475668092
 21
250.0924003512784
 31
0.0
100
AcDbText
  0
TEXT
  5
17EF7
330
2
100
AcDbEntity
  8
AM_5
100
AcDbText
 10
212.9642871878924
 20
241.8819889615324
 30
0.0
 40
3.2999999967
  1
2.5
 41
0.8
 51
20.0
  7
CART
 72
     4
 11
216.1071443276067
 21
243.5319889598825
 31
0.0
100
AcDbText
  0
LINE
  5
17EF8
330
2
100
AcDbEntity
  8
AM_0
100
AcDbLine
 10
210.2984501759452
 20
260.269695490447
 30
0.0
 11
210.2984501759452
 21
220.9072271420711
 31
0.0
  0
TEXT
  5
17EF9
330
2
100
AcDbEntity
  8
AM_5
100
AcDbText
 10
212.9642871878924
 20
228.7611661787405
 30
0.0
 40
3.2999999967
  1
2.5
 41
0.8
 51
20.0
  7
CART
 72
     4
 11
216.1071443276067
 21
230.4111661770905
 31
0.0
100
AcDbText
  0
TEXT
  5
17EFA
330
2
100
AcDbEntity
  8
AM_5
100
AcDbText
 10
212.9642871878924
 20
222.2007547873445
 30
0.0
 40
3.2999999967
  1
2.5
 41
0.8
 51
20.0
  7
CART
 72
     4
 11
216.1071443276067
 21
223.8507547856945
 31
0.0
100
AcDbText
  0
TEXT
  5
17EFB
330
2
100
AcDbEntity
  8
AM_5
100
AcDbText
 10
212.9642871878924
 20
235.3215775701364
 30
0.0
 40
3.2999999967
  1
2.5
 41
0.8
 51
20.0
  7
CART
 72
     4
 11
216.1071443276067
 21
236.9715775684865
 31
0.0
100
AcDbText
  0
TEXT
  5
17EFC
330
2
100
AcDbEntity
  8
AM_5
100
AcDbText
 10
214.8757508586572
 20
254.7862677331752
 30
0.0
 40
3.2999999967
  1
S
 41
0.8
 51
20.0
  7
CART
 72
     4
 11
216.1328937145429
 21
256.4362677315252
 31
0.0
100
AcDbText
  0
TEXT
  5
17EFD
330
2
100
AcDbEntity
  8
AM_5
100
AcDbText
 10
214.8500014717209
 20
248.4424003529284
 30
0.0
 40
3.2999999967
  1
2
 41
0.8
 51
20.0
  7
CART
 72
     4
 11
216.1071443276067
 21
250.0924003512784
 31
0.0
100
AcDbText
  0
TEXT
  5
17F46
330
2
100
AcDbEntity
  8
AM_5
100
AcDbText
 10
116.8662017203823
 20
241.8819889615324
 30
0.0
 40
3.2999999967
  1
8
 41
0.8
 51
20.0
  7
CART
 72
     4
 11
118.123344576268
 21
243.5319889598825
 31
0.0
100
AcDbText
  0
LINE
  5
17F47
330
2
100
AcDbEntity
  8
AM_0
100
AcDbLine
 10
128.9708216236934
 20
260.269695490447
 30
0.0
 11
128.9708216236934
 21
220.9072271420711
 31
0.0
  0
TEXT
  5
17F48
330
2
100
AcDbEntity
  8
AM_5
100
AcDbText
 10
115.4204874361137
 20
235.3215775701364
 30
0.0
 40
3.2999999967
  1
10
 41
0.8
 51
20.0
  7
CART
 72
     4
 11
118.123344576268
 21
236.9715775684865
 31
0.0
100
AcDbText
  0
TEXT
  5
17F49
330
2
100
AcDbEntity
  8
AM_5
100
AcDbText
 10
115.3576302933194
 20
222.2007547873445
 30
0.0
 40
3.2999999967
  1
14
 41
0.8
 51
20.0
  7
CART
 72
     4
 11
118.123344576268
 21
223.8507547856945
 31
0.0
100
AcDbText
  0
TEXT
  5
17F4A
330
2
100
AcDbEntity
  8
AM_5
100
AcDbText
 10
115.4204874361137
 20
228.7611661787405
 30
0.0
 40
3.2999999967
  1
12
 41
0.8
 51
20.0
  7
CART
 72
     4
 11
118.123344576268
 21
230.4111661770905
 31
0.0
100
AcDbText
  0
TEXT
  5
17F4B
330
2
100
AcDbEntity
  8
AM_5
100
AcDbText
 10
116.803344577588
 20
248.4424003529284
 30
0.0
 40
3.2999999967
  1
6
 41
0.8
 51
20.0
  7
CART
 72
     4
 11
118.123344576268
 21
250.0924003512784
 31
0.0
100
AcDbText
  0
TEXT
  5
17F4C
330
2
100
AcDbEntity
  8
AM_5
100
AcDbText
 10
111.8831230573029
 20
254.7862677331752
 30
0.0
 40
3.2999999967
  1
MISURA
 41
0.8
 51
20.0
  7
CART
 72
     4
 11
119.1745516214401
 21
256.4362677315252
 31
0.0
100
AcDbText
  0
DIMENSION
  5
18051
330
2
100
AcDbEntity
  8
AM_5
100
AcDbDimension
  2
*D7
 10
173.4114708988369
 20
143.9027435638172
 30
0.0
 11
171.8114708988369
 21
142.3907435638173
 31
0.0
 70
    32
  1
B
 71
     5
 42
3.023999999999972
  3
GEN-ISO
100
AcDbAlignedDimension
 13
168.4114708988369
 23
140.8787435638173
 33
0.0
 14
168.4114708988369
 24
143.9027435638172
 34
0.0
 50
90.0
100
AcDbRotatedDimension
1001
GENIUS_GENDTOL_13
1000

1000
h7
1000

1040
0.0
1000
B
  0
LINE
  5
180A5
330
2
100
AcDbEntity
  8
AM_0
100
AcDbLine
 10
152.1327298669292
 20
260.269695490447
 30
0.0
 11
152.1327298669292
 21
220.9072271420711
 31
0.0
  0
TEXT
  5
180A6
330
2
100
AcDbEntity
  8
AM_5
100
AcDbText
 10
145.1483478660675
 20
254.7862677331752
 30
0.0
 40
3.2999999967
  1
B
 41
0.8
 51
20.0
  7
CART
 72
     4
 11
146.5312050075418
 21
256.4362677315252
 31
0.0
100
AcDbText
  0
TEXT
  5
180A7
330
2
100
AcDbEntity
  8
AM_5
100
AcDbText
 10
144.9256257854103
 20
228.7611661787405
 30
0.0
 40
3.2999999967
  1
5
 41
0.8
 51
20.0
  7
CART
 72
     4
 11
146.182768641296
 21
230.4111661770905
 31
0.0
100
AcDbText
  0
TEXT
  5
180A8
330
2
100
AcDbEntity
  8
AM_5
100
AcDbText
 10
144.9256257854103
 20
222.2007547873445
 30
0.0
 40
3.2999999967
  1
5
 41
0.8
 51
20.0
  7
CART
 72
     4
 11
146.182768641296
 21
223.8507547856945
 31
0.0
100
AcDbText
  0
TEXT
  5
180A9
330
2
100
AcDbEntity
  8
AM_5
100
AcDbText
 10
144.862768642616
 20
241.8819889615324
 30
0.0
 40
3.2999999967
  1
4
 41
0.8
 51
20.0
  7
CART
 72
     4
 11
146.182768641296
 21
243.5319889598825
 31
0.0
100
AcDbText
  0
TEXT
  5
180AA
330
2
100
AcDbEntity
  8
AM_5
100
AcDbText
 10
144.862768642616
 20
235.3215775701364
 30
0.0
 40
3.2999999967
  1
4
 41
0.8
 51
20.0
  7
CART
 72
     4
 11
146.182768641296
 21
236.9715775684865
 31
0.0
100
AcDbText
  0
TEXT
  5
180AB
330
2
100
AcDbEntity
  8
AM_5
100
AcDbText
 10
144.862768642616
 20
248.4424003529284
 30
0.0
 40
3.2999999967
  1
4
 41
0.8
 51
20.0
  7
CART
 72
     4
 11
146.182768641296
 21
250.0924003512784
 31
0.0
100
AcDbText
  0
DIMENSION
  5
1813F
330
2
100
AcDbEntity
  8
AM_5
100
AcDbDimension
  2
*D11
 10
159.8360912514649
 20
150.7692510309875
 30
0.0
 11
155.2647397089083
 21
150.7692510309875
 31
0.0
 70
   160
  1
D
 71
     5
 42
4.309200000000032
  3
GEN-ISO
100
AcDbAlignedDimension
 13
164.1452912514649
 23
156.2228510309875
 33
0.0
 14
159.8360912514649
 24
156.2228510309875
 34
0.0
 50
180.0
100
AcDbRotatedDimension
1001
GENIUS_GENDTOL_13
1000

1000
h7
1000

1040
0.0
1000
D
  0
LINE
  5
18140
330
2
100
AcDbEntity
  8
AM_7
  6
AM_ISO08W050x2
100
AcDbLine
 10
161.9906912514649
 20
200.1969432257419
 30
0.0
 11
161.9906912514649
 21
137.873800675886
 31
0.0
  0
DIMENSION
  5
18141
330
2
100
AcDbEntity
  8
AM_5
100
AcDbDimension
  2
*D10
 10
173.4166912514649
 20
176.1811326680505
 30
0.0
 11
173.4166912514649
 21
171.5957270420237
 31
0.0
 70
   160
  1
S
 71
     5
 42
1.512
  3
GEN-ISO
100
AcDbAlignedDimension
 13
168.4166912514649
 23
177.6931326680505
 33
0.0
 14
165.7706912514649
 24
176.1811326680505
 34
0.0
 50
90.0
100
AcDbRotatedDimension
1001
GENIUS_GENDTOL_13
1000

1000
h7
1000

1040
0.0
1000
S
  0
LINE
  5
18142
330
2
100
AcDbEntity
  8
AM_0
100
AcDbLine
 10
158.2106912514649
 20
177.6931326680505
 30
0.0
 11
168.4166912514649
 21
177.6931326680505
 31
0.0
  0
LINE
  5
18143
330
2
100
AcDbEntity
  8
AM_0
100
AcDbLine
 10
158.2106912514649
 20
197.3491326680505
 30
0.0
 11
168.4166912514649
 21
197.3491326680505
 31
0.0
  0
DIMENSION
  5
18144
330
2
100
AcDbEntity
  8
AM_5
100
AcDbDimension
  2
*D9
 10
173.4166912514649
 20
177.6931326680505
 30
0.0
 11
171.8166912514649
 21
187.5211326680505
 31
0.0
 70
    32
  1
A
 71
     5
 42
19.656
  3
GEN-ISO
100
AcDbAlignedDimension
 13
168.4166912514649
 23
197.3491326680505
 33
0.0
 14
168.4166912514649
 24
177.6931326680505
 34
0.0
 50
90.0
100
AcDbRotatedDimension
1001
GENIUS_GENDTOL_13
1000

1000
h7
1000

1040
0.0
1000
A
  0
LINE
  5
18145
330
2
100
AcDbEntity
  8
AM_0
100
AcDbLine
 10
168.4166912514649
 20
197.3491326680505
 30
0.0
 11
168.4166912514649
 21
177.6931326680505
 31
0.0
  0
DIMENSION
  5
18146
330
2
100
AcDbEntity
  8
AM_5
100
AcDbDimension
  2
*D12
 10
150.5646912514649
 20
155.7692510309875
 30
0.0
 11
148.9646912514649
 21
177.693191849519
 31
0.0
 70
    32
  1
L
 71
     5
 42
43.84788163706298
  3
GEN-ISO
100
AcDbAlignedDimension
 13
159.898121661987
 23
199.6171326680505
 33
0.0
 14
160.2896912514649
 24
155.7692510309875
 34
0.0
 50
90.0
100
AcDbRotatedDimension
1001
GENIUS_GENDTOL_13
1000

1000
h7
1000

1040
0.0
1000
L
  0
LINE
  5
18147
330
2
100
AcDbEntity
  8
AM_0
100
AcDbLine
 10
165.3926912514649
 20
196.6770395312629
 30
0.0
 11
165.3926912514649
 21
178.7343603516253
 31
0.0
  0
LINE
  5
18148
330
2
100
AcDbEntity
  8
AM_3
  6
AM_ISO02W050x2
100
AcDbLine
 10
164.1452912514649
 20
197.3491326680505
 30
0.0
 11
164.1452912514649
 21
156.5251326680504
 31
0.0
  0
LINE
  5
18149
330
2
100
AcDbEntity
  8
AM_0
100
AcDbLine
 10
158.2106912514649
 20
197.3491326680505
 30
0.0
 11
158.2106912514649
 21
177.6931326680505
 31
0.0
  0
LINE
  5
1814A
330
2
100
AcDbEntity
  8
AM_3
  6
AM_ISO02W050x2
100
AcDbLine
 10
159.8360912514649
 20
197.3491326680505
 30
0.0
 11
159.8360912514649
 21
156.5251326680504
 31
0.0
  0
LINE
  5
1814B
330
2
100
AcDbEntity
  8
AM_0
100
AcDbLine
 10
165.7706912514649
 20
156.5251326680504
 30
0.0
 11
165.7706912514649
 21
176.1811326680505
 31
0.0
  0
LINE
  5
1814C
330
2
100
AcDbEntity
  8
AM_0
100
AcDbLine
 10
155.5646912514649
 20
156.5251326680504
 30
0.0
 11
155.5646912514649
 21
176.1811326680505
 31
0.0
  0
LINE
  5
1814D
330
2
100
AcDbEntity
  8
AM_0
100
AcDbLine
 10
158.5886912514649
 20
157.197225804838
 30
0.0
 11
158.5886912514649
 21
175.1399049844757
 31
0.0
  0
LINE
  5
1814E
330
2
100
AcDbEntity
  8
AM_0
100
AcDbLine
 10
165.7706912514649
 20
156.5251326680504
 30
0.0
 11
155.5646912514649
 21
156.5251326680504
 31
0.0
  0
LINE
  5
1814F
330
2
100
AcDbEntity
  8
AM_0
100
AcDbLine
 10
163.6916912514649
 20
155.7692510309875
 30
0.0
 11
161.9906912514649
 21
155.7692510309875
 31
0.0
  0
LINE
  5
18150
330
2
100
AcDbEntity
  8
AM_0
100
AcDbLine
 10
164.1452912514649
 20
156.2228510309875
 30
0.0
 11
161.9906912514649
 21
156.2228510309875
 31
0.0
  0
LINE
  5
18151
330
2
100
AcDbEntity
  8
AM_0
100
AcDbLine
 10
164.1452912514649
 20
156.5251326680504
 30
0.0
 11
164.1452912514649
 21
156.2228510309875
 31
0.0
  0
LINE
  5
18152
330
2
100
AcDbEntity
  8
AM_0
100
AcDbLine
 10
164.1452912514649
 20
156.2228510309875
 30
0.0
 11
163.6916912514649
 21
155.7692510309875
 31
0.0
  0
LINE
  5
18153
330
2
100
AcDbEntity
  8
AM_0
100
AcDbLine
 10
159.8360912514649
 20
156.5251326680504
 30
0.0
 11
159.8360912514649
 21
156.2228510309875
 31
0.0
  0
LINE
  5
18154
330
2
100
AcDbEntity
  8
AM_0
100
AcDbLine
 10
159.8360912514649
 20
156.2228510309875
 30
0.0
 11
161.9906912514649
 21
156.2228510309875
 31
0.0
  0
LINE
  5
18155
330
2
100
AcDbEntity
  8
AM_0
100
AcDbLine
 10
159.8360912514649
 20
156.2228510309875
 30
0.0
 11
160.2896912514649
 21
155.7692510309875
 31
0.0
  0
LINE
  5
18156
330
2
100
AcDbEntity
  8
AM_0
100
AcDbLine
 10
160.2896912514649
 20
155.7692510309875
 30
0.0
 11
161.9906912514649
 21
155.7692510309875
 31
0.0
  0
LINE
  5
18157
330
2
100
AcDbEntity
  8
AM_0
100
AcDbLine
 10
165.7706912514649
 20
176.1811326680505
 30
0.0
 11
155.5646912514649
 21
176.1811326680505
 31
0.0
  0
LINE
  5
18158
330
2
100
AcDbEntity
  8
AM_0
100
AcDbLine
 10
158.5886912514649
 20
176.1811326680505
 30
0.0
 11
165.3926912514649
 21
176.1811326680505
 31
0.0
  0
LINE
  5
18159
330
2
100
AcDbEntity
  8
AM_0
100
AcDbLine
 10
165.3926912514649
 20
177.6931326680505
 30
0.0
 11
165.3926912514649
 21
176.1811326680505
 31
0.0
  0
LINE
  5
1815A
330
2
100
AcDbEntity
  8
AM_0
100
AcDbLine
 10
158.5886912514649
 20
177.6931326680505
 30
0.0
 11
158.5886912514649
 21
176.1811326680505
 31
0.0
  0
LINE
  5
1815B
330
2
100
AcDbEntity
  8
AM_0
100
AcDbLine
 10
164.0832608409429
 20
199.6171326680505
 30
0.0
 11
161.9906912514649
 21
199.6171326680505
 31
0.0
  0
LINE
  5
1815C
330
2
100
AcDbEntity
  8
AM_0
100
AcDbLine
 10
165.3926912514649
 20
198.8611326680505
 30
0.0
 11
161.9906912514649
 21
198.8611326680505
 31
0.0
  0
LINE
  5
1815D
330
2
100
AcDbEntity
  8
AM_0
100
AcDbLine
 10
165.3926912514649
 20
198.8611326680505
 30
0.0
 11
165.3926912514649
 21
197.3491326680505
 31
0.0
  0
LINE
  5
1815E
330
2
100
AcDbEntity
  8
AM_0
100
AcDbLine
 10
165.3926912514649
 20
198.8611326680505
 30
0.0
 11
164.0832608409429
 21
199.6171326680505
 31
0.0
  0
LINE
  5
1815F
330
2
100
AcDbEntity
  8
AM_0
100
AcDbLine
 10
158.5886912514649
 20
198.8611326680505
 30
0.0
 11
159.898121661987
 21
199.6171326680505
 31
0.0
  0
LINE
  5
18160
330
2
100
AcDbEntity
  8
AM_0
100
AcDbLine
 10
158.5886912514649
 20
198.8611326680505
 30
0.0
 11
161.9906912514649
 21
198.8611326680505
 31
0.0
  0
LINE
  5
18161
330
2
100
AcDbEntity
  8
AM_0
100
AcDbLine
 10
159.898121661987
 20
199.6171326680505
 30
0.0
 11
161.9906912514649
 21
199.6171326680505
 31
0.0
  0
LINE
  5
18162
330
2
100
AcDbEntity
  8
AM_0
100
AcDbLine
 10
158.5886912514649
 20
198.8611326680505
 30
0.0
 11
158.5886912514649
 21
197.3491326680505
 31
0.0
  0
INSERT
  5
1840C
330
2
100
AcDbEntity
  8
AM_0
100
AcDbBlockReference
  2
COMUNELLO
 10
0.0
 20
0.0
 30
0.0
  0
TEXT
  5
184C7
330
2
100
AcDbEntity
  8
AM_5
100
AcDbText
 10
225.5317347008906
 20
241.8819889615325
 30
0.0
 40
3.2999999967
  1
Pz.10
 41
0.8
 51
20.0
  7
CART
 72
     4
 11
231.126020409582
 21
243.5319889598825
 31
0.0
100
AcDbText
  0
TEXT
  5
184C8
330
2
100
AcDbEntity
  8
AM_5
100
AcDbText
 10
225.5317347008905
 20
235.3215775701364
 30
0.0
 40
3.2999999967
  1
Pz.10
 41
0.8
 51
20.0
  7
CART
 72
     4
 11
231.126020409582
 21
236.9715775684865
 31
0.0
100
AcDbText
  0
TEXT
  5
184C9
330
2
100
AcDbEntity
  8
AM_5
100
AcDbText
 10
225.5317347008905
 20
228.7611661787405
 30
0.0
 40
3.2999999967
  1
Pz.10
 41
0.8
 51
20.0
  7
CART
 72
     4
 11
231.1260204095819
 21
230.4111661770905
 31
0.0
100
AcDbText
  0
TEXT
  5
184CA
330
2
100
AcDbEntity
  8
AM_5
100
AcDbText
 10
225.5317347008905
 20
222.2007547873445
 30
0.0
 40
3.2999999967
  1
Pz.10
 41
0.8
 51
20.0
  7
CART
 72
     4
 11
231.1260204095819
 21
223.8507547856945
 31
0.0
100
AcDbText
  0
LINE
  5
184D1
330
2
100
AcDbEntity
  8
AM_0
100
AcDbLine
 10
110.2829042923945
 20
260.269695490447
 30
0.0
 11
110.2829042923945
 21
220.9072271420711
 31
0.0
  0
TEXT
  5
184D2
330
2
100
AcDbEntity
  8
AM_5
100
AcDbText
 10
91.20477372610672
 20
254.7862677331752
 30
0.0
 40
3.2999999967
  1
FINITURA
 41
0.8
 51
20.0
  7
CART
 72
     4
 11
99.75334514612958
 21
256.4362677315252
 31
0.0
100
AcDbText
  0
TEXT
  5
184D4
330
2
100
AcDbEntity
  8
AM_5
100
AcDbText
 10
95.73048800729528
 20
248.1862677331752
 30
0.0
 40
3.2999999967
  1
Inox
 41
0.8
 51
20.0
  7
CART
 72
     4
 11
99.75334514612958
 21
249.8362677315252
 31
0.0
100
AcDbText
  0
TEXT
  5
184D6
330
2
100
AcDbEntity
  8
AM_5
100
AcDbText
 10
95.73048800729528
 20
241.6258563417792
 30
0.0
 40
3.2999999967
  1
Inox
 41
0.8
 51
20.0
  7
CART
 72
     4
 11
99.75334514612958
 21
243.2758563401292
 31
0.0
100
AcDbText
  0
TEXT
  5
184D7
330
2
100
AcDbEntity
  8
AM_5
100
AcDbText
 10
95.73048800729528
 20
235.0654449503832
 30
0.0
 40
3.2999999967
  1
Inox
 41
0.8
 51
20.0
  7
CART
 72
     4
 11
99.75334514612958
 21
236.7154449487333
 31
0.0
100
AcDbText
  0
TEXT
  5
184D8
330
2
100
AcDbEntity
  8
AM_5
100
AcDbText
 10
95.73048800729528
 20
228.5050335589873
 30
0.0
 40
3.2999999967
  1
Inox
 41
0.8
 51
20.0
  7
CART
 72
     4
 11
99.75334514612958
 21
230.1550335573373
 31
0.0
100
AcDbText
  0
TEXT
  5
184D9
330
2
100
AcDbEntity
  8
AM_5
100
AcDbText
 10
95.73048800729528
 20
221.9446221675913
 30
0.0
 40
3.2999999967
  1
Inox
 41
0.8
 51
20.0
  7
CART
 72
     4
 11
99.75334514612958
 21
223.5946221659413
 31
0.0
100
AcDbText
  0
ENDSEC
  0
SECTION
  2
OBJECTS
  0
DICTIONARY
  5
1B
330
0
100
AcDbDictionary
281
     1
  3
ACAD_GROUP
350
19
  3
ACAD_LAYOUT
350
180C6
  3
ACAD_MLINESTYLE
350
1A
  3
ACAD_PLOTSETTINGS
350
180C7
  3
ACAD_PLOTSTYLENAME
350
180C4
  3
AcDbVariableDictionary
350
180EE
  3
AcmDictionary
350
18100
  3
AMG
350
180D5
  3
AMGSNAPSETTINGS
350
18137
  3
DWGPROPS
350
1853C
  0
DICTIONARY
  5
18216
330
2
100
AcDbDictionary
280
     1
281
     1
  3
ACAD_INDEX
360
184EE
  0
DICTIONARY
  5
19
102
{ACAD_REACTORS
330
1B
102
}
330
1B
100
AcDbDictionary
281
     1
  3
*A1
350
3F94
  3
*A10
350
3F9C
  3
*A11
350
3F9D
  3
*A12
350
3F9E
  3
*A13
350
3F9F
  3
*A14
350
3F95
  3
*A15
350
3F96
  3
*A16
350
EF5E
  3
*A2
350
EF5F
  3
*A3
350
EF60
  3
*A4
350
EF61
  3
*A5
350
3F97
  3
*A6
350
3F98
  3
*A7
350
3F99
  3
*A8
350
3F9A
  3
*A9
350
3F9B
  0
DICTIONARY
  5
180C6
102
{ACAD_REACTORS
330
1B
102
}
330
1B
100
AcDbDictionary
281
     1
  3
Layout1
350
180C9
  3
Model
350
180C8
  0
DICTIONARY
  5
1A
102
{ACAD_REACTORS
330
1B
102
}
330
1B
100
AcDbDictionary
281
     1
  3
STANDARD
350
1E
  0
DICTIONARY
  5
180C7
102
{ACAD_REACTORS
330
1B
102
}
330
1B
100
AcDbDictionary
281
     1
  0
ACDBDICTIONARYWDFLT
  5
180C4
102
{ACAD_REACTORS
330
1B
102
}
330
1B
100
AcDbDictionary
281
     1
  3
Normal
350
180C5
100
AcDbDictionaryWithDefault
340
180C5
  0
DICTIONARY
  5
180EE
102
{ACAD_REACTORS
330
1B
102
}
330
1B
100
AcDbDictionary
281
     1
  3
DIMASSOC
350
18469
  3
INDEXCTL
350
180EF
  0
DICTIONARY
  5
18100
102
{ACAD_REACTORS
330
1B
102
}
330
1B
100
AcDbDictionary
281
     1
  3
AcmBOMDATA
350
18101
  3
AcmStdDictionary
350
18105
  0
DICTIONARY
  5
180D5
102
{ACAD_REACTORS
330
1B
102
}
330
1B
100
AcDbDictionary
281
     1
  3
AcMgSettings
350
180D6
  3
AMGLAYCFG
350
180DE
  0
DICTIONARY
  5
18137
102
{ACAD_REACTORS
330
1B
102
}
330
1B
100
AcDbDictionary
281
     1
  3
DIMENSION
350
18360
  3
FEA
350
18361
  3
HATCH (1)
350
18362
  3
HATCH (2)
350
18363
  3
SIMPLE WELD
350
18364
  3
SYMBOLS
350
18365
  0
XRECORD
  5
1853C
102
{ACAD_REACTORS
330
1B
102
}
330
1B
100
AcDbXrecord
280
     1
  1
DWGPROPS COOKIE
  2

  3

  4

  6

  7

  8
MAUFRI
  9

300
AmdtFileType=84
301
=
302
=
303
=
304
=
305
=
306
=
307
=
308
=
309
=
 40
1.098687743055555
 41
2450457.860426388
 42
2452887.442591134
  1

 90
        1
  0
DICTIONARY
  5
184EE
102
{ACAD_REACTORS
330
18216
102
}
330
18216
100
AcDbDictionary
281
     1
  3
*A1
350
184EF
  0
GROUP
  5
3F94
102
{ACAD_REACTORS
330
19
102
}
330
19
100
AcDbGroup
300

 70
     3
 71
     1
  0
GROUP
  5
3F9C
102
{ACAD_REACTORS
330
19
102
}
330
19
100
AcDbGroup
300

 70
     3
 71
     1
  0
GROUP
  5
3F9D
102
{ACAD_REACTORS
330
19
102
}
330
19
100
AcDbGroup
300

 70
     3
 71
     1
  0
GROUP
  5
3F9E
102
{ACAD_REACTORS
330
19
102
}
330
19
100
AcDbGroup
300

 70
     3
 71
     1
  0
GROUP
  5
3F9F
102
{ACAD_REACTORS
330
19
102
}
330
19
100
AcDbGroup
300

 70
     3
 71
     1
  0
GROUP
  5
3F95
102
{ACAD_REACTORS
330
19
102
}
330
19
100
AcDbGroup
300

 70
     3
 71
     1
  0
GROUP
  5
3F96
102
{ACAD_REACTORS
330
19
102
}
330
19
100
AcDbGroup
300

 70
     3
 71
     1
  0
GROUP
  5
EF5E
102
{ACAD_REACTORS
330
19
102
}
330
19
100
AcDbGroup
300

 70
     3
 71
     1
  0
GROUP
  5
EF5F
102
{ACAD_REACTORS
330
19
102
}
330
19
100
AcDbGroup
300

 70
     3
 71
     1
  0
GROUP
  5
EF60
102
{ACAD_REACTORS
330
19
102
}
330
19
100
AcDbGroup
300

 70
     3
 71
     1
  0
GROUP
  5
EF61
102
{ACAD_REACTORS
330
19
102
}
330
19
100
AcDbGroup
300

 70
     3
 71
     1
  0
GROUP
  5
3F97
102
{ACAD_REACTORS
330
19
102
}
330
19
100
AcDbGroup
300

 70
     3
 71
     1
  0
GROUP
  5
3F98
102
{ACAD_REACTORS
330
19
102
}
330
19
100
AcDbGroup
300

 70
     3
 71
     1
  0
GROUP
  5
3F99
102
{ACAD_REACTORS
330
19
102
}
330
19
100
AcDbGroup
300

 70
     3
 71
     1
  0
GROUP
  5
3F9A
102
{ACAD_REACTORS
330
19
102
}
330
19
100
AcDbGroup
300

 70
     3
 71
     1
  0
GROUP
  5
3F9B
102
{ACAD_REACTORS
330
19
102
}
330
19
100
AcDbGroup
300

 70
     3
 71
     1
  0
LAYOUT
  5
180C9
102
{ACAD_REACTORS
330
180C6
102
}
330
180C6
100
AcDbPlotSettings
  1

  2
\\NF5000\HP LaserJet 4V
  4

  6

 40
0.0
 41
0.0
 42
0.0
 43
0.0
 44
0.0
 45
0.0
 46
0.0
 47
0.0
 48
0.0
 49
0.0
140
0.0
141
0.0
142
1.0
143
1.0
 70
   688
 72
     0
 73
     0
 74
     5
  7
monochrome.ctb
 75
    16
147
1.0
148
0.0
149
0.0
100
AcDbLayout
  1
Layout1
 70
     1
 71
     1
 10
0.0
 20
0.0
 11
12.0
 21
9.0
 12
0.0
 22
0.0
 32
0.0
 14
1.000000000000000E+20
 24
1.000000000000000E+20
 34
1.000000000000000E+20
 15
-1.000000000000000E+20
 25
-1.000000000000000E+20
 35
-1.000000000000000E+20
146
0.0
 13
0.0
 23
0.0
 33
0.0
 16
1.0
 26
0.0
 36
0.0
 17
0.0
 27
1.0
 37
0.0
 76
     0
330
8
  0
LAYOUT
  5
180C8
102
{ACAD_REACTORS
330
180C6
102
}
330
180C6
100
AcDbPlotSettings
  1

  2
\\NF5000\HP LaserJet 5000 PCL 6
  4
A4
  6
GEN1
 40
6.011333465576171
 41
4.233341693878173
 42
6.011322021484375
 43
4.23333740234375
 44
209.9733276367187
 45
296.9259948730469
 46
0.0
 47
0.0
 48
6.839589919785566
 49
63.6302196850745
140
406.8395899197855
141
340.6302196850745
142
1.0
143
1.399338516974458
 70
 11952
 72
     1
 73
     1
 74
     4
  7
monochrome.ctb
 75
     0
147
0.714623365161221
148
-6.839589919785566
149
-63.6302196850745
100
AcDbLayout
  1
Model
 70
     1
 71
     0
 10
0.0
 20
0.0
 11
12.0
 21
9.0
 12
0.0
 22
0.0
 32
0.0
 14
0.0
 24
0.0
 34
0.0
 15
0.0
 25
0.0
 35
0.0
146
0.0
 13
0.0
 23
0.0
 33
0.0
 16
1.0
 26
0.0
 36
0.0
 17
0.0
 27
1.0
 37
0.0
 76
     0
330
2
  0
MLINESTYLE
  5
1E
102
{ACAD_REACTORS
330
1A
102
}
330
1A
100
AcDbMlineStyle
  2
STANDARD
 70
     0
  3

 62
     0
 51
90.0
 52
90.0
 71
     2
 49
0.5
 62
   256
  6
BYLAYER
 49
-0.5
 62
   256
  6
BYLAYER
  0
ACDBPLACEHOLDER
  5
180C5
102
{ACAD_REACTORS
330
180C4
102
}
330
180C4
  0
DICTIONARYVAR
  5
18469
102
{ACAD_REACTORS
330
180EE
102
}
330
180EE
100
DictionaryVariables
280
     0
  1
1
  0
DICTIONARYVAR
  5
180EF
102
{ACAD_REACTORS
330
180EE
102
}
330
180EE
100
DictionaryVariables
280
     0
  1
1
  0
ACMDATADICTIONARY
  5
18101
102
{ACAD_REACTORS
330
18100
102
}
330
18100
100
AcDbDictionary
281
     1
  3
*A1
350
18102
  3
*A2
350
18539
  3
*A3
350
185B5
100
AcmDataDictionary
  0
DICTIONARY
  5
18105
102
{ACAD_REACTORS
330
18100
102
}
330
18100
100
AcDbDictionary
281
     1
  3
ISO
350
18106
  0
DICTIONARY
  5
180D6
102
{ACAD_REACTORS
330
180D5
102
}
330
180D5
100
AcDbDictionary
281
     1
  3
DWGSETTINGS
350
180DB
  3
TRANSSETTINGS
350
180E8
  0
ACAMGFILTERDAT
  5
18360
102
{ACAD_REACTORS
330
18137
102
}
330
18137
100
AcAmgFilterDat
 70
    15
  1
DIMENSION,AMDT_*_DIM
  2
*
  3
*
  4
*
  5
*
290
     1
  0
ACAMGFILTERDAT
  5
18361
102
{ACAD_REACTORS
330
18137
102
}
330
18137
100
AcAmgFilterDat
 70
    15
  1
*
  2
AM_FEA-AM_*
  3
*
  4
*
  5
*
290
     1
  0
ACAMGFILTERDAT
  5
18362
102
{ACAD_REACTORS
330
18137
102
}
330
18137
100
AcAmgFilterDat
 70
    15
  1
HATCH
  2
*
  3
*
  4
*
  5
*
290
     1
  0
ACAMGFILTERDAT
  5
18363
102
{ACAD_REACTORS
330
18137
102
}
330
18137
100
AcAmgFilterDat
 70
    15
  1
LINE
  2
8,8N,*-8,*-8N,AM_8,AM_8N,*-AM_8,*-AM_8N
  3
*
  4
*
  5
INSERT,STDPART2D
290
     1
  0
ACAMGFILTERDAT
  5
18364
102
{ACAD_REACTORS
330
18137
102
}
330
18137
100
AcAmgFilterDat
 70
    15
  1
ARC
  2
AM_5
  3
*
  4
2
  5
INSERT
290
     0
  0
ACAMGFILTERDAT
  5
18365
102
{ACAD_REACTORS
330
18137
102
}
330
18137
100
AcAmgFilterDat
 70
    15
  1
ACMFCFRAME,ACMDATUMTARGET,ACMDATUMID,ACMWELDSYM,ACMSURFSYM,ACMFEATID,ACMPARTREF,ACMBALLOON,AMDTEDGESYM
  2
*
  3
*
  4
*
  5
*
290
     1
  0
LAYER_INDEX
  5
184EF
102
{ACAD_REACTORS
330
184EE
102
}
330
184EE
100
AcDbIndex
 40
2453095.40814831
100
AcDbLayerIndex
  8
0
360
184F0
 90
        1
  8
DEFPOINTS
360
184F1
 90
        0
  8
AME_FRZ
360
184F2
 90
      156
  8
AM_0
360
184F3
 90
      125
  8
AM_5
360
184F4
 90
       85
  8
AM_6
360
184F5
 90
        4
  8
AM_PAREF
360
184F6
 90
        2
  8
AM_4
360
184F7
 90
        4
  8
AM_3
360
184F8
 90
        3
  8
AM_2
360
184F9
 90
        4
  8
AM_7
360
184FA
 90
        8
  8
AM_BOR
360
184FB
 90
        0
  8
AM_CL
360
18628
 90
        0
  0
ACMDATAENTRYBLOCK
  5
18102
102
{ACAD_REACTORS
330
18101
102
}
330
18101
100
AcmDataEntry
100
AcmDataEntryBlock
  0
ACMDATAENTRYBLOCK
  5
18539
102
{ACAD_REACTORS
330
18101
102
}
330
18101
100
AcmDataEntry
100
AcmDataEntryBlock
  0
ACMDATAENTRYBLOCK
  5
185B5
102
{ACAD_REACTORS
330
18101
102
}
330
18101
100
AcmDataEntry
100
AcmDataEntryBlock
  0
IDBUFFER
  5
184F0
330
0
100
AcDbIdBuffer
330
7744
  0
IDBUFFER
  5
184F1
330
0
100
AcDbIdBuffer
  0
IDBUFFER
  5
184F2
330
0
100
AcDbIdBuffer
330
3FB0
330
3FB1
330
3FB2
330
3FB3
330
3FB4
330
3FB5
330
3FB6
330
3FB7
330
3FB8
330
3FB9
330
3FC4
330
3FC5
330
3FC6
330
3FC7
330
3FC8
330
3FC9
330
3FCA
330
3FCB
330
3FCC
330
3FCD
330
3FD0
330
3FD1
330
3FD2
330
3FD3
330
3FD4
330
3FD5
330
3FD6
330
3FD7
330
3FD8
330
3FD9
330
3FDA
330
3FDB
330
3FDC
330
3FDD
330
3FDE
330
3FDF
330
3FE0
330
3FE1
330
3FE2
330
3FE3
330
3FE4
330
3FE5
330
3FE6
330
3FE7
330
3FE8
330
3FE9
330
3FEA
330
3FEB
330
3FEC
330
3FED
330
3FEE
330
3FEF
330
3FF0
330
3FF1
330
3FF3
330
3FF4
330
3FF5
330
3FF6
330
3FF7
330
3FF8
330
3FF9
330
3FFA
330
3FFB
330
3FFC
330
3FFD
330
3FFE
330
3FFF
330
4000
330
4036
330
4037
330
4038
330
4039
330
403A
330
403B
330
403C
330
403D
330
403E
330
403F
330
4075
330
4076
330
4077
330
4078
330
4079
330
407A
330
407B
330
407C
330
407D
330
407E
330
4080
330
4081
330
4082
330
4083
330
4084
330
4085
330
4086
330
4087
330
4088
330
4089
330
408C
330
408D
330
408E
330
408F
330
4090
330
4091
330
4092
330
4093
330
4094
330
4095
330
4096
330
4097
330
4098
330
4099
330
409A
330
409B
330
409C
330
409D
330
409E
330
409F
330
40A0
330
40A1
330
40A2
330
40A3
330
40A4
330
40A5
330
40A6
330
40A7
330
40A8
330
40A9
330
40AA
330
40AB
330
40AC
330
40AD
330
40AF
330
40B0
330
40B1
330
40B2
330
40B3
330
40B4
330
40B5
330
40B6
330
40B7
330
40B8
330
40B9
330
40BA
330
40BB
330
40BC
330
40F2
330
40F3
330
40F4
330
40F5
330
40F6
330
40F7
330
40F8
330
40F9
330
40FA
330
40FB
  0
IDBUFFER
  5
184F3
330
0
100
AcDbIdBuffer
330
1412
330
1418
330
141A
330
141B
330
1430
330
1431
330
1432
330
1433
330
1448
330
1452
330
1453
330
147A
330
147B
330
147C
330
149D
330
149E
330
1FA2
330
3FC1
330
3FCE
330
3FCF
330
4002
330
4003
330
401A
330
4021
330
4028
330
4029
330
4030
330
4031
330
4041
330
4042
330
4043
330
407F
330
408A
330
408B
330
40BE
330
40BF
330
40D6
330
40DD
330
40E4
330
40E5
330
40EC
330
40ED
330
40FD
330
40FE
330
40FF
330
412D
330
419C
330
4724
330
63DC
330
7723
330
9733
330
A043
330
B04E
330
B0CF
330
B181
330
BCBA
330
D254
330
F1C6
330
10159
330
10701
330
1199D
330
12EE2
330
13B09
330
1402C
330
156D6
330
15A3D
330
17C30
330
17C31
330
17C32
330
17C33
330
17C34
330
17C35
330
17C36
330
17C37
330
17C38
330
17C39
330
17C3A
330
17C3B
330
17C3C
330
17C3D
330
17C3E
330
17C40
330
17CAF
330
17EBA
330
17EBF
330
17EC4
330
17EC9
330
17EDC
330
17EE3
330
17EEA
330
17EF1
330
17EF8
330
17F47
330
180A5
330
18142
330
18143
330
18145
330
18147
330
18149
330
1814B
330
1814C
330
1814D
330
1814E
330
1814F
330
18150
330
18151
330
18152
330
18153
330
18154
330
18155
330
18156
330
18157
330
18158
330
18159
330
1815A
330
1815B
330
1815C
330
1815D
330
1815E
330
1815F
330
18160
330
18161
330
18162
330
1840C
330
184D1
  0
IDBUFFER
  5
184F4
330
0
100
AcDbIdBuffer
330
1435
330
1447
330
144A
330
1488
330
1498
330
149C
330
14A0
330
F038
330
F055
330
F06B
330
15A3C
330
15A3E
330
15EE3
330
17192
330
17C43
330
17C46
330
17EB9
330
17EBC
330
17EBD
330
17EC0
330
17EC1
330
17EC2
330
17EC5
330
17EC6
330
17EC7
330
17ECA
330
17ECB
330
17ECC
330
17EDB
330
17EDD
330
17EDE
330
17EDF
330
17EE0
330
17EE1
330
17EE2
330
17EE4
330
17EE5
330
17EE6
330
17EE7
330
17EE8
330
17EE9
330
17EEB
330
17EEC
330
17EED
330
17EEE
330
17EEF
330
17EF0
330
17EF2
330
17EF3
330
17EF4
330
17EF5
330
17EF6
330
17EF7
330
17EF9
330
17EFA
330
17EFB
330
17EFC
330
17EFD
330
17F46
330
17F48
330
17F49
330
17F4A
330
17F4B
330
17F4C
330
18051
330
180A6
330
180A7
330
180A8
330
180A9
330
180AA
330
180AB
330
1813F
330
18141
330
18144
330
18146
330
184C7
330
184C8
330
184C9
330
184CA
330
184D2
330
184D4
330
184D6
330
184D7
330
184D8
330
184D9
  0
IDBUFFER
  5
184F5
330
0
100
AcDbIdBuffer
330
3FF2
330
4001
330
40AE
330
40BD
  0
IDBUFFER
  5
184F6
330
0
100
AcDbIdBuffer
330
4035
330
40F1
  0
IDBUFFER
  5
184F7
330
0
100
AcDbIdBuffer
330
4040
330
40FC
330
CC3F
330
D251
  0
IDBUFFER
  5
184F8
330
0
100
AcDbIdBuffer
330
80CB
330
18148
330
1814A
  0
IDBUFFER
  5
184F9
330
0
100
AcDbIdBuffer
330
832A
330
832B
330
832C
330
832D
  0
IDBUFFER
  5
184FA
330
0
100
AcDbIdBuffer
330
400A
330
40C6
330
CC44
330
CC50
330
D252
330
D253
330
17C3F
330
18140
  0
IDBUFFER
  5
184FB
330
0
100
AcDbIdBuffer
  0
IDBUFFER
  5
18628
330
0
100
AcDbIdBuffer
  0
ENDSEC
  0
EOF
