  0
SECTION
  2
HEADER
  9
$ACADVER
  1
AC1015
  9
$ACADMAINTVER
 70
    13
  9
$DWGCODEPAGE
  3
ANSI_1252
  9
$INSBASE
 10
0.0
 20
0.0
 30
0.0
  9
$EXTMIN
 10
-14.22577777919275
 20
101.4395313336832
 30
-0.0000000000000058
  9
$EXTMAX
 10
282.8170687573538
 20
311.4685992255998
 30
0.0000000000000104
  9
$LIMMIN
 10
-14.20745521226331
 20
101.4522103718465
  9
$LIMMAX
 10
282.7925447877366
 20
311.4522103718464
  9
$ORTHOMODE
 70
     0
  9
$REGENMODE
 70
     0
  9
$FILLMODE
 70
     1
  9
$QTEXTMODE
 70
     0
  9
$MIRRTEXT
 70
     0
  9
$LTSCALE
 40
1.0
  9
$ATTMODE
 70
     1
  9
$TEXTSIZE
 40
2.0
  9
$TRACEWID
 40
0.05
  9
$TEXTSTYLE
  7
ROMANS
  9
$CLAYER
  8
0
  9
$CELTYPE
  6
BYLAYER
  9
$CECOLOR
 62
   256
  9
$CELTSCALE
 40
1.0
  9
$DISPSILH
 70
     0
  9
$DIMSCALE
 40
1.0
  9
$DIMASZ
 40
2.5
  9
$DIMEXO
 40
1.0
  9
$DIMDLI
 40
10.0
  9
$DIMRND
 40
0.0
  9
$DIMDLE
 40
0.0
  9
$DIMEXE
 40
1.0
  9
$DIMTP
 40
0.1
  9
$DIMTM
 40
0.1
  9
$DIMTXT
 40
3.5
  9
$DIMCEN
 40
0.0
  9
$DIMTSZ
 40
0.0
  9
$DIMTOL
 70
     0
  9
$DIMLIM
 70
     0
  9
$DIMTIH
 70
     0
  9
$DIMTOH
 70
     0
  9
$DIMSE1
 70
     0
  9
$DIMSE2
 70
     0
  9
$DIMTAD
 70
     1
  9
$DIMZIN
 70
     8
  9
$DIMBLK
  1

  9
$DIMASO
 70
     1
  9
$DIMSHO
 70
     1
  9
$DIMPOST
  1

  9
$DIMAPOST
  1
"
  9
$DIMALT
 70
     0
  9
$DIMALTD
 70
     2
  9
$DIMALTF
 40
0.0393701
  9
$DIMLFAC
 40
1.0
  9
$DIMTOFL
 70
     1
  9
$DIMTVP
 40
0.0
  9
$DIMTIX
 70
     0
  9
$DIMSOXD
 70
     0
  9
$DIMSAH
 70
     0
  9
$DIMBLK1
  1

  9
$DIMBLK2
  1

  9
$DIMSTYLE
  2
AM_ISO
  9
$DIMCLRD
 70
   256
  9
$DIMCLRE
 70
   256
  9
$DIMCLRT
 70
     2
  9
$DIMTFAC
 40
0.71
  9
$DIMGAP
 40
1.5
  9
$DIMJUST
 70
     0
  9
$DIMSD1
 70
     0
  9
$DIMSD2
 70
     0
  9
$DIMTOLJ
 70
     0
  9
$DIMTZIN
 70
     8
  9
$DIMALTZ
 70
     0
  9
$DIMALTTZ
 70
     0
  9
$DIMUPT
 70
     0
  9
$DIMDEC
 70
     2
  9
$DIMTDEC
 70
     3
  9
$DIMALTU
 70
     2
  9
$DIMALTTD
 70
     4
  9
$DIMTXSTY
  7
STANDARD
  9
$DIMAUNIT
 70
     0
  9
$DIMADEC
 70
     0
  9
$DIMALTRND
 40
0.0
  9
$DIMAZIN
 70
     2
  9
$DIMDSEP
 70
    46
  9
$DIMATFIT
 70
     3
  9
$DIMFRAC
 70
     0
  9
$DIMLDRBLK
  1

  9
$DIMLUNIT
 70
     2
  9
$DIMLWD
 70
    -1
  9
$DIMLWE
 70
    -1
  9
$DIMTMOVE
 70
     0
  9
$LUNITS
 70
     2
  9
$LUPREC
 70
     2
  9
$SKETCHINC
 40
0.1
  9
$FILLETRAD
 40
2.5
  9
$AUNITS
 70
     0
  9
$AUPREC
 70
     2
  9
$MENU
  1
C:\CADMEC13\ASM_ITA
  9
$ELEVATION
 40
0.0
  9
$PELEVATION
 40
0.0
  9
$THICKNESS
 40
0.0
  9
$LIMCHECK
 70
     0
  9
$CHAMFERA
 40
2.5
  9
$CHAMFERB
 40
2.5
  9
$CHAMFERC
 40
0.0
  9
$CHAMFERD
 40
0.0
  9
$SKPOLY
 70
     0
  9
$TDCREATE
 40
2450457.860426388
  9
$TDUCREATE
 40
2450457.777093055
  9
$TDUPDATE
 40
2453095.409745717
  9
$TDUUPDATE
 40
2453095.326412384
  9
$TDINDWG
 40
1.0996795833
  9
$TDUSRTIMER
 40
1.0996795833
  9
$USRTIMER
 70
     1
  9
$ANGBASE
 50
0.0
  9
$ANGDIR
 70
     0
  9
$PDMODE
 70
     0
  9
$PDSIZE
 40
0.0
  9
$PLINEWID
 40
0.0
  9
$SPLFRAME
 70
     0
  9
$SPLINETYPE
 70
     6
  9
$SPLINESEGS
 70
     8
  9
$HANDSEED
  5
1BF36
  9
$SURFTAB1
 70
     6
  9
$SURFTAB2
 70
     6
  9
$SURFTYPE
 70
     6
  9
$SURFU
 70
     6
  9
$SURFV
 70
     6
  9
$UCSBASE
  2

  9
$UCSNAME
  2

  9
$UCSORG
 10
0.0
 20
0.0
 30
0.0
  9
$UCSXDIR
 10
1.0
 20
0.0
 30
0.0
  9
$UCSYDIR
 10
0.0
 20
1.0
 30
0.0
  9
$UCSORTHOREF
  2

  9
$UCSORTHOVIEW
 70
     0
  9
$UCSORGTOP
 10
0.0
 20
0.0
 30
0.0
  9
$UCSORGBOTTOM
 10
0.0
 20
0.0
 30
0.0
  9
$UCSORGLEFT
 10
0.0
 20
0.0
 30
0.0
  9
$UCSORGRIGHT
 10
0.0
 20
0.0
 30
0.0
  9
$UCSORGFRONT
 10
0.0
 20
0.0
 30
0.0
  9
$UCSORGBACK
 10
0.0
 20
0.0
 30
0.0
  9
$PUCSBASE
  2

  9
$PUCSNAME
  2

  9
$PUCSORG
 10
0.0
 20
0.0
 30
0.0
  9
$PUCSXDIR
 10
1.0
 20
0.0
 30
0.0
  9
$PUCSYDIR
 10
0.0
 20
1.0
 30
0.0
  9
$PUCSORTHOREF
  2

  9
$PUCSORTHOVIEW
 70
     0
  9
$PUCSORGTOP
 10
0.0
 20
0.0
 30
0.0
  9
$PUCSORGBOTTOM
 10
0.0
 20
0.0
 30
0.0
  9
$PUCSORGLEFT
 10
0.0
 20
0.0
 30
0.0
  9
$PUCSORGRIGHT
 10
0.0
 20
0.0
 30
0.0
  9
$PUCSORGFRONT
 10
0.0
 20
0.0
 30
0.0
  9
$PUCSORGBACK
 10
0.0
 20
0.0
 30
0.0
  9
$USERI1
 70
     0
  9
$USERI2
 70
     0
  9
$USERI3
 70
     0
  9
$USERI4
 70
     0
  9
$USERI5
 70
     0
  9
$USERR1
 40
0.0
  9
$USERR2
 40
0.0
  9
$USERR3
 40
0.0
  9
$USERR4
 40
0.0
  9
$USERR5
 40
0.0
  9
$WORLDVIEW
 70
     1
  9
$SHADEDGE
 70
     3
  9
$SHADEDIF
 70
    70
  9
$TILEMODE
 70
     1
  9
$MAXACTVP
 70
    16
  9
$PINSBASE
 10
0.0
 20
0.0
 30
0.0
  9
$PLIMCHECK
 70
     0
  9
$PEXTMIN
 10
1.000000000000000E+20
 20
1.000000000000000E+20
 30
1.000000000000000E+20
  9
$PEXTMAX
 10
-1.000000000000000E+20
 20
-1.000000000000000E+20
 30
-1.000000000000000E+20
  9
$PLIMMIN
 10
0.0
 20
0.0
  9
$PLIMMAX
 10
12.0
 20
9.0
  9
$UNITMODE
 70
     0
  9
$VISRETAIN
 70
     0
  9
$PLINEGEN
 70
     0
  9
$PSLTSCALE
 70
     1
  9
$TREEDEPTH
 70
  3020
  9
$CMLSTYLE
  2
STANDARD
  9
$CMLJUST
 70
     0
  9
$CMLSCALE
 40
1.0
  9
$PROXYGRAPHICS
 70
     1
  9
$MEASUREMENT
 70
     1
  9
$CELWEIGHT
370
    -1
  9
$ENDCAPS
280
     0
  9
$JOINSTYLE
280
     0
  9
$LWDISPLAY
290
     0
  9
$INSUNITS
 70
     0
  9
$HYPERLINKBASE
  1

  9
$STYLESHEET
  1

  9
$XEDIT
290
     1
  9
$CEPSNTYPE
380
     0
  9
$PSTYLEMODE
290
     1
  9
$FINGERPRINTGUID
  2
{94942BD5-5B12-11D5-9C07-0002B30B9BEF}
  9
$VERSIONGUID
  2
{E5206B78-9001-4D49-9A22-658FC5D16CAD}
  9
$EXTNAMES
290
     1
  9
$PSVPSCALE
 40
0.0
  9
$OLESTARTUP
290
     0
  0
ENDSEC
  0
SECTION
  2
CLASSES
  0
CLASS
  1
LWPOLYLINE
  2
AcDbPolyline
  3
AutoCAD 2000
 90
    32768
280
     0
281
     1
  0
CLASS
  1
HATCH
  2
AcDbHatch
  3
AutoCAD 2000
 90
    32768
280
     0
281
     1
  0
CLASS
  1
ACDBDICTIONARYWDFLT
  2
AcDbDictionaryWithDefault
  3
AutoCAD 2000
 90
        0
280
     0
281
     0
  0
CLASS
  1
ACDBPLACEHOLDER
  2
AcDbPlaceHolder
  3
AutoCAD 2000
 90
        0
280
     0
281
     0
  0
CLASS
  1
LAYOUT
  2
AcDbLayout
  3
AutoCAD 2000
 90
        0
280
     0
281
     0
  0
CLASS
  1
ACME_DOCUMENT
  2
AcMeDbDoc
  3
AcMeServices
 90
        0
280
     0
281
     0
  0
CLASS
  1
AMGSETTINGSOBJ
  2
AmgSettingsObj
  3
"AcadM|Product Description: AutoCAD Mechanical 2000|Company: Autodesk"
 90
        0
280
     0
281
     0
  0
CLASS
  1
AMGOBJPROPCFG
  2
AmgObjPropCfg
  3
"AmgLay|Product Description: AutoCAD Mechanical 2000|Company: Autodesk"
 90
        1
280
     0
281
     0
  0
CLASS
  1
ACMESCOPE
  2
AcMeScope
  3
AcMeServices
 90
        0
280
     0
281
     0
  0
CLASS
  1
ACMECOMMANDHISTORY
  2
AcMeCommandHistory
  3
AcMeServices
 90
        0
280
     0
281
     0
  0
CLASS
  1
DICTIONARYVAR
  2
AcDbDictionaryVar
  3
AutoCAD 2000
 90
        0
280
     0
281
     0
  0
CLASS
  1
ACIMSYSVARMAN
  2
AcImSysVarManager
  3
AcMeServices
 90
        0
280
     0
281
     0
  0
CLASS
  1
ACIMREALSYSVAR
  2
AcImRealSysVar
  3
AcMeServices
 90
        0
280
     0
281
     0
  0
CLASS
  1
ACIMINTSYSVAR
  2
AcImIntSysVar
  3
AcMeServices
 90
        0
280
     0
281
     0
  0
CLASS
  1
ACMEDRAWINGMAN
  2
AcMeDrawingMan
  3
AcMeServices
 90
        0
280
     0
281
     0
  0
CLASS
  1
ACMEVIEW
  2
AcMeView
  3
AcMeServices
 90
        0
280
     0
281
     0
  0
CLASS
  1
ACDBENTITYCACHE
  2
AcMeEntityCache
  3
AcMeServices
 90
        0
280
     0
281
     0
  0
CLASS
  1
GSMANAGER
  2
AcMeGSManager
  3
AcMeServices
 90
        0
280
     0
281
     0
  0
CLASS
  1
AMDTINTERNALREACTOR
  2
AmdtInternalReactor
  3
AcMeServices
 90
        0
280
     0
281
     0
  0
CLASS
  1
ACMESTATEMGR
  2
AcMeStateMgr
  3
AcMeServices
 90
        0
280
     0
281
     0
  0
CLASS
  1
ACGREFMASTER
  2
AcGrefMaster
  3
AcAttribServices
 90
        0
280
     0
281
     0
  0
CLASS
  1
ACME_DATABASE
  2
AcMeDbDatabase
  3
AcMeServices
 90
        0
280
     0
281
     0
  0
CLASS
  1
ACRFINSADJUSTERMGR
  2
AcRfInsAdjusterMgr
  3
AcMeServices
 90
        0
280
     0
281
     0
  0
CLASS
  1
ACGREFACADMASTER
  2
AcGrefacadMaster
  3
AcGrefServices
 90
        0
280
     0
281
     0
  0
CLASS
  1
AMIMASTER
  2
AmiMaster
  3
AmiServices
 90
        0
280
     0
281
     0
  0
CLASS
  1
ACMDATADICTIONARY
  2
AcmDataDictionary
  3
"AcmSymBB|Product Description: AutoCAD Mechanical 2000|Company: Autodesk"
 90
        0
280
     0
281
     0
  0
CLASS
  1
ACMDATAENTRYBLOCK
  2
AcmDataEntryBlock
  3
"AcmSymBB|Product Description: AutoCAD Mechanical 2000|Company: Autodesk"
 90
        0
280
     0
281
     0
  0
CLASS
  1
ACMSTANDARDISO
  2
AcmStandardISO
  3
"Amdt_StdImp|Product Description: AutoCAD Mechanical 2000|Company: Autodesk"
 90
        0
280
     0
281
     0
  0
CLASS
  1
AMDTEDGESTANDARDISO
  2
AmdtEdgeStdISO
  3
"Amdt_StdImp|Product Description: AutoCAD Mechanical 2000|Company: Autodesk"
 90
        0
280
     0
281
     0
  0
CLASS
  1
ACMSURFSTANDARDISO
  2
AcmSurfTextStdISO
  3
"Amdt_StdImp|Product Description: AutoCAD Mechanical 2000|Company: Autodesk"
 90
        0
280
     0
281
     0
  0
CLASS
  1
ACMFCFSTANDARDISO
  2
AcmFCFStdISO
  3
"Amdt_StdImp|Product Description: AutoCAD Mechanical 2000|Company: Autodesk"
 90
        0
280
     0
281
     0
  0
CLASS
  1
ACMWELDSTANDARDISO
  2
AcmWeldingStdISO
  3
"Amdt_StdImp|Product Description: AutoCAD Mechanical 2000|Company: Autodesk"
 90
        0
280
     0
281
     0
  0
CLASS
  1
ACMIDSTANDARDISO
  2
AcmIdStdISO
  3
"Amdt_StdImp|Product Description: AutoCAD Mechanical 2000|Company: Autodesk"
 90
        0
280
     0
281
     0
  0
CLASS
  1
ACMDATUMSTANDARDISO
  2
AcmDatumStdISO
  3
"Amdt_StdImp|Product Description: AutoCAD Mechanical 2000|Company: Autodesk"
 90
        0
280
     0
281
     0
  0
CLASS
  1
ACMBOMSTANDARDISO
  2
AcmBOMStdISO
  3
"Amdt_StdImp|Product Description: AutoCAD Mechanical 2000|Company: Autodesk"
 90
        0
280
     0
281
     0
  0
CLASS
  1
ACMDETAILSTANDARDISO
  2
AmdtDetailSymStdISO
  3
"Amdt_StdImp|Product Description: AutoCAD Mechanical 2000|Company: Autodesk"
 90
        0
280
     0
281
     0
  0
CLASS
  1
ACMSECTIONSTANDARDISO
  2
AmdtSectionSymStdISO
  3
"Amdt_StdImp|Product Description: AutoCAD Mechanical 2000|Company: Autodesk"
 90
        0
280
     0
281
     0
  0
CLASS
  1
ACMCENTERLINESTANDARDISO
  2
AmdtCenterLineStdISO
  3
"Amdt_StdImp|Product Description: AutoCAD Mechanical 2000|Company: Autodesk"
 90
        0
280
     0
281
     0
  0
CLASS
  1
ACMTHREADLINESTANDARDISO
  2
AmdtThreadLineStdISO
  3
"Amdt_StdImp|Product Description: AutoCAD Mechanical 2000|Company: Autodesk"
 90
        0
280
     0
281
     0
  0
CLASS
  1
ACAMGLAYSTD
  2
AcAmgLayStd
  3
"AcAmgLayStd|Product Description: AutoCAD Mechanical 2000|Company: Autodesk"
 90
        0
280
     0
281
     0
  0
CLASS
  1
ACAMGDIMSTD
  2
AcAmgDimStd
  3
"AcAmgDimStd|Product Description: AutoCAD Mechanical 2000|Company: Autodesk"
 90
        0
280
     0
281
     0
  0
CLASS
  1
ACAMGTITLESTD
  2
AcAmgTitleStd
  3
"TITLEAPP"
 90
        0
280
     0
281
     0
  0
CLASS
  1
ACIMSTRSYSVAR
  2
AcImStrSysVar
  3
AcMeServices
 90
        0
280
     0
281
     0
  0
CLASS
  1
ACAMGFILTERDAT
  2
AcAmgFilterDat
  3
"AcadM|Product Description: AutoCAD Mechanical 2000|Company: Autodesk"
 90
        0
280
     0
281
     0
  0
CLASS
  1
LAYER_INDEX
  2
AcDbLayerIndex
  3
AutoCAD 2000
 90
        0
280
     0
281
     0
  0
CLASS
  1
IDBUFFER
  2
AcDbIdBuffer
  3
AutoCAD 2000
 90
        0
280
     0
281
     0
  0
CLASS
  1
AMDTFORMULAUPDATEDISPATCHER
  2
AmdtFormulaUpdateDispatcher
  3
AcMeServices
 90
        0
280
     0
281
     0
  0
CLASS
  1
ACMNOTESTANDARDISO
  2
AmdtNoteStdISO
  3
"Amdt_StdImp|Product Description: AutoCAD Mechanical 2000|Company: Autodesk"
 90
        0
280
     0
281
     0
  0
ENDSEC
  0
SECTION
  2
TABLES
  0
TABLE
  2
VPORT
  5
13
330
0
100
AcDbSymbolTable
 70
    19
  0
VPORT
  5
1BF35
330
13
100
AcDbSymbolTableRecord
100
AcDbViewportTableRecord
  2
*Active
 70
     0
 10
0.0
 20
0.0
 11
1.0
 21
1.0
 12
134.2956454890805
 22
206.4540652796415
 13
0.0
 23
0.0
 14
2.5
 24
2.5
 15
10.0
 25
10.0
 16
0.0
 26
0.0
 36
1.0
 17
0.0
 27
0.0
 37
0.0
 40
211.6530039838644
 41
1.540645161290322
 42
50.0
 43
0.0
 44
0.0
 50
0.0
 51
0.0
 71
    16
 72
   500
 73
     1
 74
     0
 75
     0
 76
     0
 77
     0
 78
     0
281
     0
 65
     1
110
0.0
120
0.0
130
0.0
111
1.0
121
0.0
131
0.0
112
0.0
122
1.0
132
0.0
 79
     0
146
0.0
  0
ENDTAB
  0
TABLE
  2
LTYPE
  5
F
330
0
100
AcDbSymbolTable
 70
    18
  0
LTYPE
  5
10
330
F
100
AcDbSymbolTableRecord
100
AcDbLinetypeTableRecord
  2
BYBLOCK
 70
     0
  3

 72
    65
 73
     0
 40
0.0
  0
LTYPE
  5
6
330
F
100
AcDbSymbolTableRecord
100
AcDbLinetypeTableRecord
  2
BYLAYER
 70
     0
  3

 72
    65
 73
     0
 40
0.0
  0
LTYPE
  5
5
330
F
100
AcDbSymbolTableRecord
100
AcDbLinetypeTableRecord
  2
CONTINUOUS
 70
     0
  3
Solid line
 72
    65
 73
     0
 40
0.0
  0
LTYPE
  5
1B7DA
330
F
100
AcDbSymbolTableRecord
100
AcDbLinetypeTableRecord
  2
AM_ISO02W050
 70
     0
  3
__ __ __ __ __ __ __ __ __ __ __ __ __ __ __
 72
    65
 73
     2
 40
7.5
 49
6.0
 74
     0
 49
-1.5
 74
     0
  0
LTYPE
  5
1B7DB
330
F
100
AcDbSymbolTableRecord
100
AcDbLinetypeTableRecord
  2
AM_ISO08W050
 70
     0
  3
____ . ____ . ____ . ____ . ____ . ____ . ____
 72
    65
 73
     4
 40
18.0
 49
12.0
 74
     0
 49
-1.5
 74
     0
 49
3.0
 74
     0
 49
-1.5
 74
     0
  0
LTYPE
  5
1B7DC
330
F
100
AcDbSymbolTableRecord
100
AcDbLinetypeTableRecord
  2
AM_ISO09W050
 70
     0
  3
_____ . . _____ . . _____ . . ____ .. ____
 72
    65
 73
     6
 40
22.5
 49
12.0
 74
     0
 49
-1.5
 74
     0
 49
3.0
 74
     0
 49
-1.5
 74
     0
 49
3.0
 74
     0
 49
-1.5
 74
     0
  0
LTYPE
  5
1B7DD
330
F
100
AcDbSymbolTableRecord
100
AcDbLinetypeTableRecord
  2
Amconstr
 70
     0
  3
_______________________
 72
    65
 73
     2
 40
9999.0
 49
9999.0
 74
     0
 49
0.0
 74
     0
  0
LTYPE
  5
1B7DE
330
F
100
AcDbSymbolTableRecord
100
AcDbLinetypeTableRecord
  2
AM_ISO08W050x2
 70
     0
  3
__ . __ . __ . __ . __ . __
 72
    65
 73
     4
 40
9.0
 49
6.0
 74
     0
 49
-0.75
 74
     0
 49
1.5
 74
     0
 49
-0.75
 74
     0
  0
LTYPE
  5
1B7DF
330
F
100
AcDbSymbolTableRecord
100
AcDbLinetypeTableRecord
  2
AM_ISO02W050x2
 70
     0
  3
 _ _ _ _ _ _ _ _ _ _ _ _
 72
    65
 73
     2
 40
3.75
 49
3.0
 74
     0
 49
-0.75
 74
     0
  0
LTYPE
  5
1B7E0
330
F
100
AcDbSymbolTableRecord
100
AcDbLinetypeTableRecord
  2
Amzigzag
 70
     0
  3
/\/-/\/-/\/-/\/-/\/-/\/
 72
    65
 73
     2
 40
11.00009999999999
 49
0.0001
 74
     4
 75
   135
340
1B7E1
 46
0.04
 50
0.0
 44
0.0
 45
0.0
 49
-11.0
 74
     0
  0
LTYPE
  5
1B809
330
F
100
AcDbSymbolTableRecord
100
AcDbLinetypeTableRecord
  2
ACISOWELD
 70
     0
  3
_ _ _ _ _
 72
    65
 73
     2
 40
2.0
 49
2.0
 74
     0
 49
-1.0
 74
     0
  0
LTYPE
  5
1B80C
330
F
100
AcDbSymbolTableRecord
100
AcDbLinetypeTableRecord
  2
ACISOTGB
 70
     0
  3
__ . . __ . .
 72
    65
 73
     6
 40
9.0
 49
4.0
 74
     0
 49
-1.0
 74
     0
 49
1.0
 74
     0
 49
-1.0
 74
     0
 49
1.0
 74
     0
 49
-1.0
 74
     0
  0
LTYPE
  5
1B80D
330
F
100
AcDbSymbolTableRecord
100
AcDbLinetypeTableRecord
  2
ACISOTGL
 70
     0
  3
_ _ _ _ _
 72
    65
 73
     2
 40
3.0
 49
2.0
 74
     0
 49
-1.0
 74
     0
  0
LTYPE
  5
1B811
330
F
100
AcDbSymbolTableRecord
100
AcDbLinetypeTableRecord
  2
CENTER
 70
     0
  3
__ . __
 72
    65
 73
     4
 40
7.0
 49
4.0
 74
     0
 49
-1.0
 74
     0
 49
1.0
 74
     0
 49
-1.0
 74
     0
  0
LTYPE
  5
1BE09
330
F
100
AcDbSymbolTableRecord
100
AcDbLinetypeTableRecord
  2
gen3
 70
     0
  3
-- -- -- -- -- -- -- -- -- -- -- -- -- -- --
 72
    65
 73
     2
 40
6.25
 49
4.75
 74
     0
 49
-1.5
 74
     0
  0
LTYPE
  5
1BE0A
330
F
100
AcDbSymbolTableRecord
100
AcDbLinetypeTableRecord
  2
gen7
 70
     0
  3
____ . ____ . ____ . ____ . ____ . ____ . ____
 72
    65
 73
     4
 40
13.75
 49
9.75
 74
     0
 49
-1.5
 74
     0
 49
1.0
 74
     0
 49
-1.5
 74
     0
  0
LTYPE
  5
1BE0B
330
F
100
AcDbSymbolTableRecord
100
AcDbLinetypeTableRecord
  2
gen3a
 70
     0
  3
 - - - - -
 72
    65
 73
     2
 40
3.125
 49
2.25
 74
     0
 49
-0.875
 74
     0
  0
LTYPE
  5
1BE0C
330
F
100
AcDbSymbolTableRecord
100
AcDbLinetypeTableRecord
  2
gen7a
 70
     0
  3
__ . __ . __
 72
    65
 73
     4
 40
6.875
 49
4.75
 74
     0
 49
-0.875
 74
     0
 49
0.375
 74
     0
 49
-0.875
 74
     0
  0
LTYPE
  5
1BE0D
330
F
100
AcDbSymbolTableRecord
100
AcDbLinetypeTableRecord
  2
gen4a
 70
     0
  3
_____ . . _____ . . _____ . . ____ .. ____
 72
    65
 73
     6
 40
16.25
 49
9.75
 74
     0
 49
-1.5
 74
     0
 49
1.0
 74
     0
 49
-1.5
 74
     0
 49
1.0
 74
     0
 49
-1.5
 74
     0
  0
LTYPE
  5
1BE0E
330
F
100
AcDbSymbolTableRecord
100
AcDbLinetypeTableRecord
  2
genzigzag
 70
     0
  3
/\/-/\/-/\/-/\/-/\/-/\/
 72
    65
 73
     2
 40
12.0001
 49
0.0001
 74
     4
 75
   135
340
1BE0F
 46
2.0
 50
0.0
 44
0.0
 45
0.0
 49
-12.0
 74
     0
  0
ENDTAB
  0
TABLE
  2
LAYER
  5
B
330
0
100
AcDbSymbolTable
 70
    13
  0
LAYER
  5
C
330
B
100
AcDbSymbolTableRecord
100
AcDbLayerTableRecord
  2
0
 70
     0
 62
     7
  6
CONTINUOUS
370
    -3
390
1B7BF
  0
LAYER
  5
62
330
B
100
AcDbSymbolTableRecord
100
AcDbLayerTableRecord
  2
DEFPOINTS
 70
     0
 62
     7
  6
CONTINUOUS
290
     0
370
    -3
390
1B7BF
  0
LAYER
  5
3EDF
330
B
100
AcDbSymbolTableRecord
100
AcDbLayerTableRecord
  2
AME_FRZ
 70
     0
 62
     7
  6
CONTINUOUS
370
    -3
390
1B7BF
  0
LAYER
  5
1BBF2
330
B
100
AcDbSymbolTableRecord
100
AcDbLayerTableRecord
  2
AM_0
 70
     0
 62
     7
  6
CONTINUOUS
370
    30
390
1B7BF
  0
LAYER
  5
1BBF3
330
B
100
AcDbSymbolTableRecord
100
AcDbLayerTableRecord
  2
AM_5
 70
     0
 62
     3
  6
CONTINUOUS
370
    15
390
1B7BF
  0
LAYER
  5
1BBF4
330
B
100
AcDbSymbolTableRecord
100
AcDbLayerTableRecord
  2
AM_6
 70
     0
 62
     2
  6
CONTINUOUS
370
    30
390
1B7BF
  0
LAYER
  5
1BBFA
330
B
100
AcDbSymbolTableRecord
100
AcDbLayerTableRecord
  2
AM_PAREF
 70
     0
 62
     4
  6
CONTINUOUS
290
     0
370
    15
390
1B7BF
  0
LAYER
  5
1BBFB
330
B
100
AcDbSymbolTableRecord
100
AcDbLayerTableRecord
  2
AM_4
 70
     0
 62
     3
  6
CONTINUOUS
370
    15
390
1B7BF
  0
LAYER
  5
1BBFC
330
B
100
AcDbSymbolTableRecord
100
AcDbLayerTableRecord
  2
AM_3
 70
     0
 62
     6
  6
AM_ISO02W050
370
    30
390
1B7BF
  0
LAYER
  5
1BBFD
330
B
100
AcDbSymbolTableRecord
100
AcDbLayerTableRecord
  2
AM_2
 70
     0
 62
     5
  6
CONTINUOUS
370
    30
390
1B7BF
  0
LAYER
  5
1BBFE
330
B
100
AcDbSymbolTableRecord
100
AcDbLayerTableRecord
  2
AM_7
 70
     0
 62
     4
  6
AM_ISO08W050
370
    15
390
1B7BF
  0
LAYER
  5
1BC57
330
B
100
AcDbSymbolTableRecord
100
AcDbLayerTableRecord
  2
AM_BOR
 70
     0
 62
     7
  6
CONTINUOUS
370
    30
390
1B7BF
  0
LAYER
  5
1BDDA
330
B
100
AcDbSymbolTableRecord
100
AcDbLayerTableRecord
  2
AM_CL
 70
     0
 62
     1
  6
Amconstr
370
    15
390
1B7BF
  0
ENDTAB
  0
TABLE
  2
STYLE
  5
D
330
0
100
AcDbSymbolTable
 70
    14
  0
STYLE
  5
E
330
D
100
AcDbSymbolTableRecord
100
AcDbTextStyleTableRecord
  2
STANDARD
 70
     0
 40
0.0
 41
1.0
 50
0.0
 71
     0
 42
2.5
  3
ISOCP.SHX
  4

  0
STYLE
  5
11D
330
D
100
AcDbSymbolTableRecord
100
AcDbTextStyleTableRecord
  2
ISO
 70
     0
 40
0.0
 41
1.0
 50
0.0
 71
     0
 42
3.0
  3
ISO8.SHX
  4

  0
STYLE
  5
109
330
D
100
AcDbSymbolTableRecord
100
AcDbTextStyleTableRecord
  2
COMPLEX
 70
     0
 40
0.0
 41
1.0
 50
0.0
 71
     0
 42
3.0
  3
COMPLEX8.SHX
  4

  0
STYLE
  5
1D
330
D
100
AcDbSymbolTableRecord
100
AcDbTextStyleTableRecord
  2
ROMANS
 70
     0
 40
2.0
 41
1.0
 50
8.0
 71
     0
 42
2.0
  3
\ROMANS.SHX
  4

  0
STYLE
  5
23
330
D
100
AcDbSymbolTableRecord
100
AcDbTextStyleTableRecord
  2
QUOTE
 70
     0
 40
0.0
 41
0.8
 50
0.0
 71
     0
 42
6.0
  3
romans
  4

  0
STYLE
  5
26
330
D
100
AcDbSymbolTableRecord
100
AcDbTextStyleTableRecord
  2
CART
 70
     0
 40
2.5
 41
0.8
 50
20.0
 71
     0
 42
2.5
  3
ROMANS
  4

  0
STYLE
  5
439
330
D
100
AcDbSymbolTableRecord
100
AcDbTextStyleTableRecord
  2
25RMS
 70
     0
 40
2.5
 41
0.8
 50
20.0
 71
     0
 42
2.0
  3
romans
  4

  0
STYLE
  5
1B7E1
330
D
100
AcDbSymbolTableRecord
100
AcDbTextStyleTableRecord
  2

 70
     1
 40
0.0
 41
1.0
 50
0.0
 71
     0
 42
2.5
  3
ltypeshp.shx
  4

  0
STYLE
  5
1B803
330
D
100
AcDbSymbolTableRecord
100
AcDbTextStyleTableRecord
  2
ACISOTS
 70
     0
 40
1.0
 41
1.0
 50
0.0
 71
     0
 42
2.5
  3
isocp.shx
  4

  0
STYLE
  5
1B807
330
D
100
AcDbSymbolTableRecord
100
AcDbTextStyleTableRecord
  2
ACISOGDT
 70
     0
 40
0.0
 41
1.0
 50
0.0
 71
     0
 42
2.5
  3
amgdt.shx
  4

  0
STYLE
  5
1BE0F
330
D
100
AcDbSymbolTableRecord
100
AcDbTextStyleTableRecord
  2

 70
     1
 40
0.0
 41
1.0
 50
0.0
 71
     0
 42
2.5
  3
genltshp.shx
  4

  0
STYLE
  5
1BE10
330
D
100
AcDbSymbolTableRecord
100
AcDbTextStyleTableRecord
  2
USER1
 70
     0
 40
0.0
 41
1.0
 50
0.0
 71
     0
 42
2.5
  3
TXT.SHX
  4

  0
STYLE
  5
1BE11
330
D
100
AcDbSymbolTableRecord
100
AcDbTextStyleTableRecord
  2
USER2
 70
     0
 40
0.0
 41
1.0
 50
0.0
 71
     0
 42
2.5
  3
SIMPLEX.SHX
  4

  0
STYLE
  5
1BE12
330
D
100
AcDbSymbolTableRecord
100
AcDbTextStyleTableRecord
  2
USER3
 70
     0
 40
0.0
 41
1.0
 50
0.0
 71
     0
 42
2.5
  3
ITALIC.SHX
  4

  0
ENDTAB
  0
TABLE
  2
VIEW
  5
11
330
0
100
AcDbSymbolTable
 70
    12
  0
VIEW
  5
1D01
330
11
100
AcDbSymbolTableRecord
100
AcDbViewTableRecord
  2
GEN1
 70
     0
 40
148.5
 10
126.0790759010939
 20
286.3802196850745
 41
238.4789719626168
 11
0.0
 21
0.0
 31
1.0
 12
0.0
 22
0.0
 32
0.0
 42
50.0
 43
0.0
 44
0.0
 50
0.0
 71
     0
281
     0
 72
     0
  0
VIEW
  5
1D02
330
11
100
AcDbSymbolTableRecord
100
AcDbViewTableRecord
  2
GEN2
 70
     0
 40
148.5
 10
307.6001039384771
 20
286.3802196850745
 41
238.4789719626168
 11
0.0
 21
0.0
 31
1.0
 12
0.0
 22
0.0
 32
0.0
 42
50.0
 43
0.0
 44
0.0
 50
0.0
 71
     0
281
     0
 72
     0
  0
VIEW
  5
1D03
330
11
100
AcDbSymbolTableRecord
100
AcDbViewTableRecord
  2
GEN3
 70
     0
 40
148.5
 10
126.0790759010939
 20
137.8802196850745
 41
238.4789719626168
 11
0.0
 21
0.0
 31
1.0
 12
0.0
 22
0.0
 32
0.0
 42
50.0
 43
0.0
 44
0.0
 50
0.0
 71
     0
281
     0
 72
     0
  0
VIEW
  5
1D04
330
11
100
AcDbSymbolTableRecord
100
AcDbViewTableRecord
  2
GEN4
 70
     0
 40
148.5
 10
307.6001039384771
 20
137.8802196850745
 41
238.4789719626168
 11
0.0
 21
0.0
 31
1.0
 12
0.0
 22
0.0
 32
0.0
 42
50.0
 43
0.0
 44
0.0
 50
0.0
 71
     0
281
     0
 72
     0
  0
VIEW
  5
1D05
330
11
100
AcDbSymbolTableRecord
100
AcDbViewTableRecord
  2
GEN5
 70
     0
 40
148.5
 10
216.8395899197855
 20
212.1302196850745
 41
238.4789719626168
 11
0.0
 21
0.0
 31
1.0
 12
0.0
 22
0.0
 32
0.0
 42
50.0
 43
0.0
 44
0.0
 50
0.0
 71
     0
281
     0
 72
     0
  0
VIEW
  5
1D06
330
11
100
AcDbSymbolTableRecord
100
AcDbViewTableRecord
  2
GEN6
 70
     0
 40
296.9970299999999
 10
216.8395899197855
 20
212.1302196850745
 41
476.9531743457944
 11
0.0
 21
0.0
 31
1.0
 12
0.0
 22
0.0
 32
0.0
 42
50.0
 43
0.0
 44
0.0
 50
0.0
 71
     0
281
     0
 72
     0
  0
VIEW
  5
1BECE
330
11
100
AcDbSymbolTableRecord
100
AcDbViewTableRecord
  2
AM_VIEW1
 70
     0
 40
105.0
 10
66.63983860216967
 20
258.9522103718465
 41
161.6945876288659
 11
0.0
 21
0.0
 31
1.0
 12
0.0
 22
0.0
 32
0.0
 42
50.0
 43
0.0
 44
0.0
 50
0.0
 71
    16
281
     0
 72
     0
  0
VIEW
  5
1BECF
330
11
100
AcDbSymbolTableRecord
100
AcDbViewTableRecord
  2
AM_VIEW2
 70
     0
 40
105.0
 10
201.9452509733036
 20
258.9522103718465
 41
161.6945876288659
 11
0.0
 21
0.0
 31
1.0
 12
0.0
 22
0.0
 32
0.0
 42
50.0
 43
0.0
 44
0.0
 50
0.0
 71
    16
281
     0
 72
     0
  0
VIEW
  5
1BED0
330
11
100
AcDbSymbolTableRecord
100
AcDbViewTableRecord
  2
AM_VIEW3
 70
     0
 40
104.9999999999999
 10
66.63983860216967
 20
153.9522103718464
 41
161.6945876288659
 11
0.0
 21
0.0
 31
1.0
 12
0.0
 22
0.0
 32
0.0
 42
50.0
 43
0.0
 44
0.0
 50
0.0
 71
    16
281
     0
 72
     0
  0
VIEW
  5
1BED1
330
11
100
AcDbSymbolTableRecord
100
AcDbViewTableRecord
  2
AM_VIEW4
 70
     0
 40
104.9999999999999
 10
201.9452509733036
 20
153.9522103718464
 41
161.6945876288659
 11
0.0
 21
0.0
 31
1.0
 12
0.0
 22
0.0
 32
0.0
 42
50.0
 43
0.0
 44
0.0
 50
0.0
 71
    16
281
     0
 72
     0
  0
VIEW
  5
1BED2
330
11
100
AcDbSymbolTableRecord
100
AcDbViewTableRecord
  2
AM_VIEW5
 70
     0
 40
105.0
 10
134.2925447877366
 20
206.4522103718465
 41
161.6945876288659
 11
0.0
 21
0.0
 31
1.0
 12
0.0
 22
0.0
 32
0.0
 42
50.0
 43
0.0
 44
0.0
 50
0.0
 71
    16
281
     0
 72
     0
  0
VIEW
  5
1BED3
330
11
100
AcDbSymbolTableRecord
100
AcDbViewTableRecord
  2
AM_VIEW6
 70
     0
 40
209.9978999999999
 10
134.2925447877366
 20
206.4522103718465
 41
323.3859413659793
 11
0.0
 21
0.0
 31
1.0
 12
0.0
 22
0.0
 32
0.0
 42
50.0
 43
0.0
 44
0.0
 50
0.0
 71
    16
281
     0
 72
     0
  0
ENDTAB
  0
TABLE
  2
UCS
  5
12
330
0
100
AcDbSymbolTable
 70
     0
  0
ENDTAB
  0
TABLE
  2
APPID
  5
15
330
0
100
AcDbSymbolTable
 70
   189
  0
APPID
  5
16
330
15
100
AcDbSymbolTableRecord
100
AcDbRegAppTableRecord
  2
ACAD
 70
     0
  0
APPID
  5
4C
330
15
100
AcDbSymbolTableRecord
100
AcDbRegAppTableRecord
  2
ASM_CADM_ALBERO
 70
     0
  0
APPID
  5
444
330
15
100
AcDbSymbolTableRecord
100
AcDbRegAppTableRecord
  2
ASM_GOLE
 70
     0
  0
APPID
  5
445
330
15
100
AcDbSymbolTableRecord
100
AcDbRegAppTableRecord
  2
ASM_CADM_VER_12_00
 70
     0
  0
APPID
  5
446
330
15
100
AcDbSymbolTableRecord
100
AcDbRegAppTableRecord
  2
ASM_BASE
 70
     0
  0
APPID
  5
447
330
15
100
AcDbSymbolTableRecord
100
AcDbRegAppTableRecord
  2
ASM_EXPLO_VER_2_00
 70
     0
  0
APPID
  5
448
330
15
100
AcDbSymbolTableRecord
100
AcDbRegAppTableRecord
  2
ASM_GRUPPI
 70
     0
  0
APPID
  5
449
330
15
100
AcDbSymbolTableRecord
100
AcDbRegAppTableRecord
  2
ASM_BASEFORO
 70
     0
  0
APPID
  5
44A
330
15
100
AcDbSymbolTableRecord
100
AcDbRegAppTableRecord
  2
ASM_BASETRAVI
 70
     0
  0
APPID
  5
44B
330
15
100
AcDbSymbolTableRecord
100
AcDbRegAppTableRecord
  2
ASM_BASETRAVI1
 70
     0
  0
APPID
  5
183A
330
15
100
AcDbSymbolTableRecord
100
AcDbRegAppTableRecord
  2
GENIUS_GENCFG_13
 70
     0
1001
GENIUS_GENCFG0_13
1000
GEN@INFO_POS@XLATE
1001
GENIUS_GENCFG1_13
1000
GEN@INFO_POS
1001
GENIUS_GENCFG2_13
1000
GEN@LAYER@DEFS
1001
GENIUS_GENCFG3_13
1000
GEN@LAYER@ENTSORT
1001
GENIUS_GENCFG4_13
1000
GEN
1001
GENIUS_GEVCFG0_13
1000
GEV
1001
GENIUS_GEFCFG0_13
1000
GEF
  0
APPID
  5
183B
330
15
100
AcDbSymbolTableRecord
100
AcDbRegAppTableRecord
  2
GENIUS_GENCFG0_13
 70
     0
1001
GENIUS_GENCFG_13
1071
946969561
1000
183B
1000
GEN@INFO_POS@XLATE
1070
     7
1000
GenCfgObject
1000
GenCfgShort
1000
GenCfgReal
1000
GenCfgBool
1000
GenCfgString
1000
GenCfgDim
1000
GenCfgAttrInf
1000
INFOPOINTS
1070
     0
1002
{
1000
GENINF14
1070
     0
1002
{
1000
2GENINF
1070
     4
1000
2
1002
{
1002
}
1000
3GENINF
1070
     4
1000
3
1002
{
1002
}
1000
4GENINF
1070
     4
1000
4
1002
{
1002
}
1000
5GENINF
1070
     4
1000
5
1002
{
1002
}
1000
6GENINF
1070
     4
1000
6
1002
{
1002
}
1000
7GENINF
1070
     4
1000
7
1002
{
1002
}
1000
8GENINF
1070
     4
1000
8
1002
{
1002
}
1000
9GENINF
1070
     4
1000
9
1002
{
1002
}
1000
10GENINF
1070
     4
1000
10
1002
{
1002
}
1000
11GENINF
1070
     4
1000
11
1002
{
1002
}
1000
12GENINF
1070
     4
1000
12
1002
{
1002
}
1000
13GENINF
1070
     4
1000
13
1002
{
1002
}
1000
14GENINF
1070
     4
1000
14
1002
{
1002
}
1000
15GENINF
1070
     4
1000
15
1002
{
1002
}
1000
16GENINF
1070
     4
1000
16
1002
{
1002
}
1000
17GENINF
1070
     4
1000
17
1002
{
1002
}
1000
18GENINF
1070
     4
1000
18
1002
{
1002
}
1000
19GENINF
1070
     4
1000
19
1002
{
1002
}
1000
20GENINF
1070
     4
1000
20
1002
{
1002
}
1000
21GENINF
1070
     4
1000
21
1002
{
1002
}
1000
22GENINF
1070
     4
1000
22
1002
{
1002
}
1000
23GENINF
1070
     4
1000
23
1002
{
1002
}
1000
24GENINF
1070
     4
1000
24
1002
{
1002
}
1000
25GENINF
1070
     4
1000
25
1002
{
1002
}
1000
26GENINF
1070
     4
1000
26
1002
{
1002
}
1000
27GENINF
1070
     4
1000
27
1002
{
1002
}
1000
0GENINF
1070
     4
1000
0
1002
{
1002
}
1002
}
1000
GENINF13
1070
     0
1002
{
1000
2GENINF
1070
     4
1000
2
1002
{
1002
}
1000
3GENINF
1070
     4
1000
3
1002
{
1002
}
1000
4GENINF
1070
     4
1000
4
1002
{
1002
}
1000
5GENINF
1070
     4
1000
5
1002
{
1002
}
1000
6GENINF
1070
     4
1000
6
1002
{
1002
}
1000
7GENINF
1070
     4
1000
7
1002
{
1002
}
1000
8GENINF
1070
     4
1000
8
1002
{
1002
}
1000
9GENINF
1070
     4
1000
9
1002
{
1002
}
1000
10GENINF
1070
     4
1000
10
1002
{
1002
}
1000
11GENINF
1070
     4
1000
11
1002
{
1002
}
1000
12GENINF
1070
     4
1000
12
1002
{
1002
}
1000
13GENINF
1070
     4
1000
13
1002
{
1002
}
1000
14GENINF
1070
     4
1000
14
1002
{
1002
}
1000
15GENINF
1070
     4
1000
15
1002
{
1002
}
1000
16GENINF
1070
     4
1000
16
1002
{
1002
}
1000
17GENINF
1070
     4
1000
17
1002
{
1002
}
1000
18GENINF
1070
     4
1000
18
1002
{
1002
}
1000
19GENINF
1070
     4
1000
19
1002
{
1002
}
1000
20GENINF
1070
     4
1000
20
1002
{
1002
}
1000
21GENINF
1070
     4
1000
21
1002
{
1002
}
1000
22GENINF
1070
     4
1000
22
1002
{
1002
}
1000
23GENINF
1070
     4
1000
23
1002
{
1002
}
1000
24GENINF
1070
     4
1000
24
1002
{
1002
}
1000
0GENINF
1070
     4
1000
0
1002
{
1002
}
1002
}
1000
GENINFO
1070
     0
1002
{
1000
3GENINF
1070
     4
1000
3
1002
{
1002
}
1000
4GENINF
1070
     4
1000
4
1002
{
1002
}
1000
5GENINF
1070
     4
1000
5
1002
{
1002
}
1000
6GENINF
1070
     4
1000
6
1002
{
1002
}
1000
7GENINF
1070
     4
1000
7
1002
{
1002
}
1000
8GENINF
1070
     4
1000
8
1002
{
1002
}
1000
9GENINF
1070
     4
1000
9
1002
{
1002
}
1000
10GENINF
1070
     4
1000
10
1002
{
1002
}
1000
11GENINF
1070
     4
1000
11
1002
{
1002
}
1000
12GENINF
1070
     4
1000
12
1002
{
1002
}
1000
13GENINF
1070
     4
1000
13
1002
{
1002
}
1000
14GENINF
1070
     4
1000
14
1002
{
1002
}
1000
15GENINF
1070
     4
1000
15
1002
{
1002
}
1000
16GENINF
1070
     4
1000
16
1002
{
1002
}
1000
17GENINF
1070
     4
1000
17
1002
{
1002
}
1000
18GENINF
1070
     4
1000
18
1002
{
1002
}
1000
19GENINF
1070
     4
1000
19
1002
{
1002
}
1000
20GENINF
1070
     4
1000
20
1002
{
1002
}
1000
21GENINF
1070
     4
1000
21
1002
{
1002
}
1000
22GENINF
1070
     4
1000
22
1002
{
1002
}
1002
}
1000
DININFO
1070
     0
1002
{
1000
ST-NAME1
1070
     4
1000
5
1002
{
1002
}
1000
ST-NAME2
1070
     4
1000
6
1002
{
1002
}
1000
ST-NORM1
1070
     4
1000
7
1002
{
1002
}
1000
ST-NORM2
1070
     4
1000
8
1002
{
1002
}
1000
ST-MAT1
1070
     4
1000
9
1002
{
1002
}
1000
ST-MAT2
1070
     4
1000
10
1002
{
1002
}
1002
}
1002
}
1000
POS_NUMBERS
1070
     0
1002
{
1000
GENPOS14
1070
     0
1002
{
1000
1GENPOS
1070
     4
1000
1
1002
{
1002
}
1000
2GENPOS
1070
     4
1000
2
1002
{
1002
}
1000
3GENPOS
1070
     4
1000
3
1002
{
1002
}
1000
4GENPOS
1070
     4
1000
4
1002
{
1002
}
1000
5GENPOS
1070
     4
1000
5
1002
{
1002
}
1000
6GENPOS
1070
     4
1000
6
1002
{
1002
}
1000
7GENPOS
1070
     4
1000
7
1002
{
1002
}
1000
8GENPOS
1070
     4
1000
8
1002
{
1002
}
1000
9GENPOS
1070
     4
1000
9
1002
{
1002
}
1000
10GENPOS
1070
     4
1000
10
1002
{
1002
}
1000
11GENPOS
1070
     4
1000
11
1002
{
1002
}
1000
12GENPOS
1070
     4
1000
12
1002
{
1002
}
1000
13GENPOS
1070
     4
1000
13
1002
{
1002
}
1000
14GENPOS
1070
     4
1000
14
1002
{
1002
}
1000
15GENPOS
1070
     4
1000
15
1002
{
1002
}
1000
16GENPOS
1070
     4
1000
16
1002
{
1002
}
1000
17GENPOS
1070
     4
1000
17
1002
{
1002
}
1000
18GENPOS
1070
     4
1000
18
1002
{
1002
}
1000
19GENPOS
1070
     4
1000
19
1002
{
1002
}
1000
20GENPOS
1070
     4
1000
20
1002
{
1002
}
1000
21GENPOS
1070
     4
1000
21
1002
{
1002
}
1000
22GENPOS
1070
     4
1000
22
1002
{
1002
}
1000
23GENPOS
1070
     4
1000
23
1002
{
1002
}
1000
24GENPOS
1070
     4
1000
24
1002
{
1002
}
1000
25GENPOS
1070
     4
1000
25
1002
{
1002
}
1000
26GENPOS
1070
     4
1000
26
1002
{
1002
}
1000
27GENPOS
1070
     4
1000
27
1002
{
1002
}
1000
0GENPOS
1070
     4
1000
0
1002
{
1002
}
1002
}
1000
GENPOS13
1070
     0
1002
{
1000
1GENPOS
1070
     4
1000
1
1002
{
1002
}
1000
2GENPOS
1070
     4
1000
2
1002
{
1002
}
1000
3GENPOS
1070
     4
1000
3
1002
{
1002
}
1000
4GENPOS
1070
     4
1000
4
1002
{
1002
}
1000
5GENPOS
1070
     4
1000
5
1002
{
1002
}
1000
6GENPOS
1070
     4
1000
6
1002
{
1002
}
1000
7GENPOS
1070
     4
1000
7
1002
{
1002
}
1000
8GENPOS
1070
     4
1000
8
1002
{
1002
}
1000
9GENPOS
1070
     4
1000
9
1002
{
1002
}
1000
10GENPOS
1070
     4
1000
10
1002
{
1002
}
1000
11GENPOS
1070
     4
1000
11
1002
{
1002
}
1000
12GENPOS
1070
     4
1000
12
1002
{
1002
}
1000
13GENPOS
1070
     4
1000
13
1002
{
1002
}
1000
14GENPOS
1070
     4
1000
14
1002
{
1002
}
1000
15GENPOS
1070
     4
1000
15
1002
{
1002
}
1000
16GENPOS
1070
     4
1000
16
1002
{
1002
}
1000
17GENPOS
1070
     4
1000
17
1002
{
1002
}
1000
18GENPOS
1070
     4
1000
18
1002
{
1002
}
1000
19GENPOS
1070
     4
1000
19
1002
{
1002
}
1000
20GENPOS
1070
     4
1000
20
1002
{
1002
}
1000
21GENPOS
1070
     4
1000
21
1002
{
1002
}
1000
22GENPOS
1070
     4
1000
22
1002
{
1002
}
1000
23GENPOS
1070
     4
1000
23
1002
{
1002
}
1000
24GENPOS
1070
     4
1000
24
1002
{
1002
}
1000
0GENPOS
1070
     4
1000
0
1002
{
1002
}
1002
}
1000
GENPOS
1070
     0
1002
{
1000
1GENPOS
1070
     4
1000
1
1002
{
1002
}
1000
2GENPOS
1070
     4
1000
2
1002
{
1002
}
1000
3GENPOS
1070
     4
1000
3
1002
{
1002
}
1000
4GENPOS
1070
     4
1000
4
1002
{
1002
}
1000
5GENPOS
1070
     4
1000
5
1002
{
1002
}
1000
6GENPOS
1070
     4
1000
6
1002
{
1002
}
1000
7GENPOS
1070
     4
1000
7
1002
{
1002
}
1000
8GENPOS
1070
     4
1000
8
1002
{
1002
}
1000
9GENPOS
1070
     4
1000
9
1002
{
1002
}
1000
10GENPOS
1070
     4
1000
10
1002
{
1002
}
1000
11GENPOS
1070
     4
1000
11
1002
{
1002
}
1000
12GENPOS
1070
     4
1000
12
1002
{
1002
}
1000
13GENPOS
1070
     4
1000
13
1002
{
1002
}
1000
14GENPOS
1070
     4
1000
14
1002
{
1002
}
1000
15GENPOS
1070
     4
1000
15
1002
{
1002
}
1000
16GENPOS
1070
     4
1000
16
1002
{
1002
}
1000
17GENPOS
1070
     4
1000
17
1002
{
1002
}
1000
18GENPOS
1070
     4
1000
18
1002
{
1002
}
1000
19GENPOS
1070
     4
1000
19
1002
{
1002
}
1000
20GENPOS
1070
     4
1000
20
1002
{
1002
}
1000
21GENPOS
1070
     4
1000
21
1002
{
1002
}
1000
22GENPOS
1070
     4
1000
22
1002
{
1002
}
1000
23GENPOS
1070
     4
1000
23
1002
{
1002
}
1002
}
1000
DIN985
1070
     0
1002
{
1000
POSITION
1070
     4
1000
1
1002
{
1002
}
1000
MENGE
1070
     4
1000
2
1002
{
1002
}
1000
BLATT
1070
     4
1000
3
1002
{
1002
}
1000
BENENN
1070
     4
1000
5
1002
{
1002
}
1000
BENENN2
1070
     4
1000
6
1002
{
1002
}
1000
NORM
1070
     4
1000
7
1002
{
1002
}
1000
NORM2
1070
     4
1000
8
1002
{
1002
}
1000
WERKSTOFF
1070
     4
1000
9
1002
{
1002
}
1000
WERKSTOFF2
1070
     4
1000
10
1002
{
1002
}
1002
}
1000
DIN986
1070
     0
1002
{
1000
POSITION
1070
     4
1000
1
1002
{
1002
}
1000
MENGE
1070
     4
1000
2
1002
{
1002
}
1000
BLATT
1070
     4
1000
3
1002
{
1002
}
1000
BENENN
1070
     4
1000
5
1002
{
1002
}
1000
BENENN2
1070
     4
1000
6
1002
{
1002
}
1000
NORM
1070
     4
1000
7
1002
{
1002
}
1000
NORM2
1070
     4
1000
8
1002
{
1002
}
1000
WERKSTOFF
1070
     4
1000
9
1002
{
1002
}
1000
WERKSTOFF2
1070
     4
1000
10
1002
{
1002
}
1002
}
1000
DIN987
1070
     0
1002
{
1000
POSITION
1070
     4
1000
1
1002
{
1002
}
1000
MENGE
1070
     4
1000
2
1002
{
1002
}
1000
BLATT
1070
     4
1000
3
1002
{
1002
}
1000
BENENN
1070
     4
1000
5
1002
{
1002
}
1000
BENENN2
1070
     4
1000
6
1002
{
1002
}
1000
NORM
1070
     4
1000
7
1002
{
1002
}
1000
NORM2
1070
     4
1000
8
1002
{
1002
}
1000
WERKSTOFF
1070
     4
1000
9
1002
{
1002
}
1000
WERKSTOFF2
1070
     4
1000
10
1002
{
1002
}
1002
}
1002
}
  0
APPID
  5
183C
330
15
100
AcDbSymbolTableRecord
100
AcDbRegAppTableRecord
  2
GENIUS_GENCFG1_13
 70
     0
1001
GENIUS_GENCFG_13
1071
946969561
1000
183C
1000
GEN@INFO_POS
1070
     7
1000
GenCfgObject
1000
GenCfgShort
1000
GenCfgReal
1000
GenCfgBool
1000
GenCfgString
1000
GenCfgDim
1000
GenCfgAttrInf
1000
DescrText
1070
     4
1000
5, ,6, ,7, ,8
1002
{
1002
}
1000
DescrText2
1070
     4
1000
26
1002
{
1002
}
1000
VisibleAttr1
1070
     4
1000
1
1002
{
1002
}
1000
VisibleAttr2
1070
     4
1000
26
1002
{
1002
}
1000
UpdateBlock
1070
     3
1070
     1
1002
{
1002
}
1000
Attrib
1070
     0
1002
{
1000
0
1070
     6
1002
{
1000
Prompt
1070
     4
1000
(genmsg gendwg 103)
1002
{
1002
}
1000
Value
1070
     4
1000

1002
{
1002
}
1000
EditFlag
1070
     1
1070
     0
1002
{
1002
}
1000
PosInDDATTE
1070
     1
1070
    27
1002
{
1002
}
1000
FieldLen
1070
     1
1070
    -1
1002
{
1002
}
1002
}
1000
1
1070
     6
1002
{
1000
Prompt
1070
     4
1000
(genmsg gendwg 31)
1002
{
1002
}
1000
Value
1070
     4
1000
1
1002
{
1002
}
1000
EditFlag
1070
     1
1070
     1
1002
{
1002
}
1000
PosInDDATTE
1070
     1
1070
     1
1002
{
1002
}
1000
FieldLen
1070
     1
1070
    -1
1002
{
1002
}
1002
}
1000
2
1070
     6
1002
{
1000
Prompt
1070
     4
1000
(genmsg gendwg 32)
1002
{
1002
}
1000
Value
1070
     4
1000
1
1002
{
1002
}
1000
EditFlag
1070
     1
1070
     1
1002
{
1002
}
1000
PosInDDATTE
1070
     1
1070
     2
1002
{
1002
}
1000
FieldLen
1070
     1
1070
    -1
1002
{
1002
}
1002
}
1000
3
1070
     6
1002
{
1000
Prompt
1070
     4
1000
(genmsg gendwg 33)
1002
{
1002
}
1000
Value
1070
     4
1000

1002
{
1002
}
1000
EditFlag
1070
     1
1070
     1
1002
{
1002
}
1000
PosInDDATTE
1070
     1
1070
     3
1002
{
1002
}
1000
FieldLen
1070
     1
1070
    -1
1002
{
1002
}
1002
}
1000
4
1070
     6
1002
{
1000
Prompt
1070
     4
1000
(genmsg gendwg 34)
1002
{
1002
}
1000
Value
1070
     4
1000

1002
{
1002
}
1000
EditFlag
1070
     1
1070
     1
1002
{
1002
}
1000
PosInDDATTE
1070
     1
1070
     4
1002
{
1002
}
1000
FieldLen
1070
     1
1070
    -1
1002
{
1002
}
1002
}
1000
5
1070
     6
1002
{
1000
Prompt
1070
     4
1000
(genmsg gendwg 35)
1002
{
1002
}
1000
Value
1070
     4
1000

1002
{
1002
}
1000
EditFlag
1070
     1
1070
     1
1002
{
1002
}
1000
PosInDDATTE
1070
     1
1070
     5
1002
{
1002
}
1000
FieldLen
1070
     1
1070
    -1
1002
{
1002
}
1002
}
1000
6
1070
     6
1002
{
1000
Prompt
1070
     4
1000
(genmsg gendwg 36)
1002
{
1002
}
1000
Value
1070
     4
1000

1002
{
1002
}
1000
EditFlag
1070
     1
1070
     1
1002
{
1002
}
1000
PosInDDATTE
1070
     1
1070
     6
1002
{
1002
}
1000
FieldLen
1070
     1
1070
    -1
1002
{
1002
}
1002
}
1000
7
1070
     6
1002
{
1000
Prompt
1070
     4
1000
(genmsg gendwg 37)
1002
{
1002
}
1000
Value
1070
     4
1000

1002
{
1002
}
1000
EditFlag
1070
     1
1070
     1
1002
{
1002
}
1000
PosInDDATTE
1070
     1
1070
     7
1002
{
1002
}
1000
FieldLen
1070
     1
1070
    -1
1002
{
1002
}
1002
}
1000
8
1070
     6
1002
{
1000
Prompt
1070
     4
1000
(genmsg gendwg 38)
1002
{
1002
}
1000
Value
1070
     4
1000

1002
{
1002
}
1000
EditFlag
1070
     1
1070
     1
1002
{
1002
}
1000
PosInDDATTE
1070
     1
1070
     8
1002
{
1002
}
1000
FieldLen
1070
     1
1070
    -1
1002
{
1002
}
1002
}
1000
9
1070
     6
1002
{
1000
Prompt
1070
     4
1000
(genmsg gendwg 39)
1002
{
1002
}
1000
Value
1070
     4
1000

1002
{
1002
}
1000
EditFlag
1070
     1
1070
     1
1002
{
1002
}
1000
PosInDDATTE
1070
     1
1070
     9
1002
{
1002
}
1000
FieldLen
1070
     1
1070
    -1
1002
{
1002
}
1002
}
1000
10
1070
     6
1002
{
1000
Prompt
1070
     4
1000
(genmsg gendwg 40)
1002
{
1002
}
1000
Value
1070
     4
1000

1002
{
1002
}
1000
EditFlag
1070
     1
1070
     1
1002
{
1002
}
1000
PosInDDATTE
1070
     1
1070
    10
1002
{
1002
}
1000
FieldLen
1070
     1
1070
    -1
1002
{
1002
}
1002
}
1000
11
1070
     6
1002
{
1000
Prompt
1070
     4
1000
(genmsg gendwg 41)
1002
{
1002
}
1000
Value
1070
     4
1000

1002
{
1002
}
1000
EditFlag
1070
     1
1070
     1
1002
{
1002
}
1000
PosInDDATTE
1070
     1
1070
    11
1002
{
1002
}
1000
FieldLen
1070
     1
1070
    -1
1002
{
1002
}
1002
}
1000
12
1070
     6
1002
{
1000
Prompt
1070
     4
1000
(genmsg gendwg 42)
1002
{
1002
}
1000
Value
1070
     4
1000

1002
{
1002
}
1000
EditFlag
1070
     1
1070
     1
1002
{
1002
}
1000
PosInDDATTE
1070
     1
1070
    12
1002
{
1002
}
1000
FieldLen
1070
     1
1070
    -1
1002
{
1002
}
1002
}
1000
13
1070
     6
1002
{
1000
Prompt
1070
     4
1000
(genmsg gendwg 43)
1002
{
1002
}
1000
Value
1070
     4
1000

1002
{
1002
}
1000
EditFlag
1070
     1
1070
     1
1002
{
1002
}
1000
PosInDDATTE
1070
     1
1070
    13
1002
{
1002
}
1000
FieldLen
1070
     1
1070
    -1
1002
{
1002
}
1002
}
1000
14
1070
     6
1002
{
1000
Prompt
1070
     4
1000
(genmsg gendwg 44)
1002
{
1002
}
1000
Value
1070
     4
1000

1002
{
1002
}
1000
EditFlag
1070
     1
1070
     1
1002
{
1002
}
1000
PosInDDATTE
1070
     1
1070
    14
1002
{
1002
}
1000
FieldLen
1070
     1
1070
    -1
1002
{
1002
}
1002
}
1000
15
1070
     6
1002
{
1000
Prompt
1070
     4
1000
(genmsg gendwg 45)
1002
{
1002
}
1000
Value
1070
     4
1000

1002
{
1002
}
1000
EditFlag
1070
     1
1070
     1
1002
{
1002
}
1000
PosInDDATTE
1070
     1
1070
    15
1002
{
1002
}
1000
FieldLen
1070
     1
1070
    -1
1002
{
1002
}
1002
}
1000
16
1070
     6
1002
{
1000
Prompt
1070
     4
1000
(genmsg gendwg 46)
1002
{
1002
}
1000
Value
1070
     4
1000

1002
{
1002
}
1000
EditFlag
1070
     1
1070
     1
1002
{
1002
}
1000
PosInDDATTE
1070
     1
1070
    16
1002
{
1002
}
1000
FieldLen
1070
     1
1070
    -1
1002
{
1002
}
1002
}
1000
17
1070
     6
1002
{
1000
Prompt
1070
     4
1000
(genmsg gendwg 47)
1002
{
1002
}
1000
Value
1070
     4
1000

1002
{
1002
}
1000
EditFlag
1070
     1
1070
     1
1002
{
1002
}
1000
PosInDDATTE
1070
     1
1070
    17
1002
{
1002
}
1000
FieldLen
1070
     1
1070
    -1
1002
{
1002
}
1002
}
1000
18
1070
     6
1002
{
1000
Prompt
1070
     4
1000
(genmsg gendwg 48)
1002
{
1002
}
1000
Value
1070
     4
1000

1002
{
1002
}
1000
EditFlag
1070
     1
1070
     1
1002
{
1002
}
1000
PosInDDATTE
1070
     1
1070
    18
1002
{
1002
}
1000
FieldLen
1070
     1
1070
    -1
1002
{
1002
}
1002
}
1000
19
1070
     6
1002
{
1000
Prompt
1070
     4
1000
(genmsg gendwg 99)
1002
{
1002
}
1000
Value
1070
     4
1000

1002
{
1002
}
1000
EditFlag
1070
     1
1070
     1
1002
{
1002
}
1000
PosInDDATTE
1070
     1
1070
    19
1002
{
1002
}
1000
FieldLen
1070
     1
1070
    -1
1002
{
1002
}
1002
}
1000
20
1070
     6
1002
{
1000
Prompt
1070
     4
1000
(genmsg gendwg 100)
1002
{
1002
}
1000
Value
1070
     4
1000

1002
{
1002
}
1000
EditFlag
1070
     1
1070
     1
1002
{
1002
}
1000
PosInDDATTE
1070
     1
1070
    20
1002
{
1002
}
1000
FieldLen
1070
     1
1070
    -1
1002
{
1002
}
1002
}
1000
21
1070
     6
1002
{
1000
Prompt
1070
     4
1000
(genmsg gendwg 101)
1002
{
1002
}
1000
Value
1070
     4
1000

1002
{
1002
}
1000
EditFlag
1070
     1
1070
     1
1002
{
1002
}
1000
PosInDDATTE
1070
     1
1070
    21
1002
{
1002
}
1000
FieldLen
1070
     1
1070
    -1
1002
{
1002
}
1002
}
1000
22
1070
     6
1002
{
1000
Prompt
1070
     4
1000
(genmsg gendwg 102)
1002
{
1002
}
1000
Value
1070
     4
1000

1002
{
1002
}
1000
EditFlag
1070
     1
1070
     1
1002
{
1002
}
1000
PosInDDATTE
1070
     1
1070
    22
1002
{
1002
}
1000
FieldLen
1070
     1
1070
    -1
1002
{
1002
}
1002
}
1000
23
1070
     6
1002
{
1000
Prompt
1070
     4
1000
(genmsg gendwg 30)
1002
{
1002
}
1000
Value
1070
     4
1000

1002
{
1002
}
1000
EditFlag
1070
     1
1070
     1
1002
{
1002
}
1000
PosInDDATTE
1070
     1
1070
    23
1002
{
1002
}
1000
FieldLen
1070
     1
1070
    -1
1002
{
1002
}
1002
}
1000
24
1070
     6
1002
{
1000
Prompt
1070
     4
1000
(genmsg gendwg 104)
1002
{
1002
}
1000
Value
1070
     4
1000

1002
{
1002
}
1000
EditFlag
1070
     1
1070
     1
1002
{
1002
}
1000
PosInDDATTE
1070
     1
1070
    24
1002
{
1002
}
1000
FieldLen
1070
     1
1070
    -1
1002
{
1002
}
1002
}
1000
25
1070
     6
1002
{
1000
Prompt
1070
     4
1000
(genmsg gendwg 105)
1002
{
1002
}
1000
Value
1070
     4
1000

1002
{
1002
}
1000
EditFlag
1070
     1
1070
     1
1002
{
1002
}
1000
PosInDDATTE
1070
     1
1070
    25
1002
{
1002
}
1000
FieldLen
1070
     1
1070
    -1
1002
{
1002
}
1002
}
1000
26
1070
     6
1002
{
1000
Prompt
1070
     4
1000
(genmsg gendwg 106)
1002
{
1002
}
1000
Value
1070
     4
1000

1002
{
1002
}
1000
EditFlag
1070
     1
1070
     1
1002
{
1002
}
1000
PosInDDATTE
1070
     1
1070
    26
1002
{
1002
}
1000
FieldLen
1070
     1
1070
    -1
1002
{
1002
}
1002
}
1000
27
1070
     6
1002
{
1000
Prompt
1070
     4
1000
(genmsg gendwg 109)
1002
{
1002
}
1000
Value
1070
     4
1000

1002
{
1002
}
1000
EditFlag
1070
     1
1070
     2
1002
{
1002
}
1000
PosInDDATTE
1070
     1
1070
    27
1002
{
1002
}
1000
FieldLen
1070
     1
1070
    -1
1002
{
1002
}
1002
}
1002
}
1000
Xlate
1070
     0
1002
{
1000
>
1002
}
  0
APPID
  5
183D
330
15
100
AcDbSymbolTableRecord
100
AcDbRegAppTableRecord
  2
GENIUS_GENCFG2_13
 70
     0
1001
GENIUS_GENCFG_13
1071
946969561
1000
183D
1000
GEN@LAYER@DEFS
1070
     9
1000
GenCfgObject
1000
GenCfgShort
1000
GenCfgReal
1000
GenCfgBool
1000
GenCfgString
1000
GenCfgDim
1000
GenCfgAttrInf
1000
GenCfgLaySection
1000
GenCfgLayer
1000
Basic
1070
     0
1002
{
1000
0
1070
     8
1000
0
1002
{
1000
Color
1070
     1
1070
     7
1002
{
1002
}
1000
LType
1070
     4
1000
CONTINUOUS
1002
{
1002
}
1000
Base
1070
     3
1070
     0
1002
{
1002
}
1002
}
1000
1
1070
     8
1000
1
1002
{
1000
Color
1070
     1
1070
    14
1002
{
1002
}
1000
LType
1070
     4
1000
CONTINUOUS
1002
{
1002
}
1000
Base
1070
     3
1070
     0
1002
{
1002
}
1002
}
1000
2
1070
     8
1000
2
1002
{
1000
Color
1070
     1
1070
     5
1002
{
1002
}
1000
LType
1070
     4
1000
CONTINUOUS
1002
{
1002
}
1000
Base
1070
     3
1070
     0
1002
{
1002
}
1002
}
1000
3
1070
     8
1000
3
1002
{
1000
Color
1070
     1
1070
     6
1002
{
1002
}
1000
LType
1070
     4
1000
GEN3
1002
{
1002
}
1000
Base
1070
     3
1070
     0
1002
{
1002
}
1002
}
1000
4
1070
     8
1000
4
1002
{
1000
Color
1070
     1
1070
     3
1002
{
1002
}
1000
LType
1070
     4
1000
CONTINUOUS
1002
{
1002
}
1000
Base
1070
     3
1070
     0
1002
{
1002
}
1002
}
1000
5
1070
     8
1000
5
1002
{
1000
Color
1070
     1
1070
     3
1002
{
1002
}
1000
LType
1070
     4
1000
CONTINUOUS
1002
{
1002
}
1000
Base
1070
     3
1070
     0
1002
{
1002
}
1002
}
1000
6
1070
     8
1000
6
1002
{
1000
Color
1070
     1
1070
     2
1002
{
1002
}
1000
LType
1070
     4
1000
CONTINUOUS
1002
{
1002
}
1000
Base
1070
     3
1070
     0
1002
{
1002
}
1002
}
1000
7
1070
     8
1000
7
1002
{
1000
Color
1070
     1
1070
     4
1002
{
1002
}
1000
LType
1070
     4
1000
GEN7
1002
{
1002
}
1000
Base
1070
     3
1070
     0
1002
{
1002
}
1002
}
1000
8
1070
     8
1000
8
1002
{
1000
Color
1070
     1
1070
     1
1002
{
1002
}
1000
LType
1070
     4
1000
CONTINUOUS
1002
{
1002
}
1000
Base
1070
     3
1070
     0
1002
{
1002
}
1002
}
1000
3A
1070
     8
1000
3A
1002
{
1000
Color
1070
     1
1070
     6
1002
{
1002
}
1000
LType
1070
     4
1000
GEN3A
1002
{
1002
}
1000
Base
1070
     3
1070
     0
1002
{
1002
}
1002
}
1000
7A
1070
     8
1000
7A
1002
{
1000
Color
1070
     1
1070
     4
1002
{
1002
}
1000
LType
1070
     4
1000
GEN7A
1002
{
1002
}
1000
Base
1070
     3
1070
     0
1002
{
1002
}
1002
}
1000
2A
1070
     8
1000
2A
1002
{
1000
Color
1070
     1
1070
     7
1002
{
1002
}
1000
LType
1070
     4
1000
GEN7
1002
{
1002
}
1000
Base
1070
     3
1070
     0
1002
{
1002
}
1002
}
1000
4A
1070
     8
1000
4A
1002
{
1000
Color
1070
     1
1070
     3
1002
{
1002
}
1000
LType
1070
     4
1000
GEN4A
1002
{
1002
}
1000
Base
1070
     3
1070
     0
1002
{
1002
}
1002
}
1000
9
1070
     8
1000
9
1002
{
1000
Color
1070
     1
1070
   253
1002
{
1002
}
1000
LType
1070
     4
1000
CONTINUOUS
1002
{
1002
}
1000
Base
1070
     3
1070
     0
1002
{
1002
}
1002
}
1000
IP
1070
     8
1000
IP
1002
{
1000
Color
1070
     1
1070
     7
1002
{
1002
}
1000
LType
1070
     4
1000
CONTINUOUS
1002
{
1002
}
1000
Base
1070
     3
1070
     0
1002
{
1002
}
1002
}
1002
}
1000
Standard
1070
     0
1002
{
1000
0N
1070
     8
1000
0N
1002
{
1000
Color
1070
     1
1070
     7
1002
{
1002
}
1000
LType
1070
     4
1000
CONTINUOUS
1002
{
1002
}
1000
Base
1070
     3
1070
     0
1002
{
1002
}
1002
}
1000
1N
1070
     8
1000
1N
1002
{
1000
Color
1070
     1
1070
    14
1002
{
1002
}
1000
LType
1070
     4
1000
CONTINUOUS
1002
{
1002
}
1000
Base
1070
     3
1070
     0
1002
{
1002
}
1002
}
1000
2N
1070
     8
1000
2N
1002
{
1000
Color
1070
     1
1070
     5
1002
{
1002
}
1000
LType
1070
     4
1000
CONTINUOUS
1002
{
1002
}
1000
Base
1070
     3
1070
     0
1002
{
1002
}
1002
}
1000
3N
1070
     8
1000
3N
1002
{
1000
Color
1070
     1
1070
     6
1002
{
1002
}
1000
LType
1070
     4
1000
GEN3
1002
{
1002
}
1000
Base
1070
     3
1070
     0
1002
{
1002
}
1002
}
1000
4N
1070
     8
1000
4N
1002
{
1000
Color
1070
     1
1070
     3
1002
{
1002
}
1000
LType
1070
     4
1000
CONTINUOUS
1002
{
1002
}
1000
Base
1070
     3
1070
     0
1002
{
1002
}
1002
}
1000
5N
1070
     8
1000
5N
1002
{
1000
Color
1070
     1
1070
     3
1002
{
1002
}
1000
LType
1070
     4
1000
CONTINUOUS
1002
{
1002
}
1000
Base
1070
     3
1070
     0
1002
{
1002
}
1002
}
1000
6N
1070
     8
1000
6N
1002
{
1000
Color
1070
     1
1070
     2
1002
{
1002
}
1000
LType
1070
     4
1000
CONTINUOUS
1002
{
1002
}
1000
Base
1070
     3
1070
     0
1002
{
1002
}
1002
}
1000
7N
1070
     8
1000
7N
1002
{
1000
Color
1070
     1
1070
     4
1002
{
1002
}
1000
LType
1070
     4
1000
GEN7
1002
{
1002
}
1000
Base
1070
     3
1070
     0
1002
{
1002
}
1002
}
1000
8N
1070
     8
1000
8N
1002
{
1000
Color
1070
     1
1070
     1
1002
{
1002
}
1000
LType
1070
     4
1000
CONTINUOUS
1002
{
1002
}
1000
Base
1070
     3
1070
     0
1002
{
1002
}
1002
}
1000
3AN
1070
     8
1000
3AN
1002
{
1000
Color
1070
     1
1070
     6
1002
{
1002
}
1000
LType
1070
     4
1000
GEN3A
1002
{
1002
}
1000
Base
1070
     3
1070
     0
1002
{
1002
}
1002
}
1000
7AN
1070
     8
1000
7AN
1002
{
1000
Color
1070
     1
1070
     4
1002
{
1002
}
1000
LType
1070
     4
1000
GEN7A
1002
{
1002
}
1000
Base
1070
     3
1070
     0
1002
{
1002
}
1002
}
1000
2AN
1070
     8
1000
2AN
1002
{
1000
Color
1070
     1
1070
     7
1002
{
1002
}
1000
LType
1070
     4
1000
GEN7
1002
{
1002
}
1000
Base
1070
     3
1070
     0
1002
{
1002
}
1002
}
1000
4AN
1070
     8
1000
4AN
1002
{
1000
Color
1070
     1
1070
     3
1002
{
1002
}
1000
LType
1070
     4
1000
GEN4A
1002
{
1002
}
1000
Base
1070
     3
1070
     0
1002
{
1002
}
1002
}
1000
9N
1070
     8
1000
9N
1002
{
1000
Color
1070
     1
1070
   253
1002
{
1002
}
1000
LType
1070
     4
1000
CONTINUOUS
1002
{
1002
}
1000
Base
1070
     3
1070
     0
1002
{
1002
}
1002
}
1000
IPN
1070
     8
1000
IPN
1002
{
1000
Color
1070
     1
1070
     7
1002
{
1002
}
1000
LType
1070
     4
1000
CONTINUOUS
1002
{
1002
}
1000
Base
1070
     3
1070
     0
1002
{
1002
}
1002
}
1002
}
1000
Extra
1070
     0
1002
{
1000
Klin
1070
     8
1000
KLIN
1002
{
1000
Color
1070
     1
1070
     1
1002
{
1002
}
1000
LType
1070
     4
1000
CONTINUOUS
1002
{
1002
}
1000
Base
1070
     3
1070
     1
1002
{
1002
}
1002
}
1000
Info
1070
     8
1000
INFO
1002
{
1000
Color
1070
     1
1070
     4
1002
{
1002
}
1000
LType
1070
     4
1000
CONTINUOUS
1002
{
1002
}
1000
Base
1070
     3
1070
     1
1002
{
1002
}
1002
}
1000
Rahm2
1070
     8
1000
RAHM2
1002
{
1000
Color
1070
     1
1070
     1
1002
{
1002
}
1000
LType
1070
     4
1000
CONTINUOUS
1002
{
1002
}
1000
Base
1070
     3
1070
     1
1002
{
1002
}
1002
}
1000
Rahm3
1070
     8
1000
RAHM3
1002
{
1000
Color
1070
     1
1070
     2
1002
{
1002
}
1000
LType
1070
     4
1000
CONTINUOUS
1002
{
1002
}
1000
Base
1070
     3
1070
     1
1002
{
1002
}
1002
}
1000
Rahm5
1070
     8
1000
RAHM5
1002
{
1000
Color
1070
     1
1070
     7
1002
{
1002
}
1000
LType
1070
     4
1000
CONTINUOUS
1002
{
1002
}
1000
Base
1070
     3
1070
     1
1002
{
1002
}
1002
}
1000
View
1070
     8
1000
VIEW
1002
{
1000
Color
1070
     1
1070
     1
1002
{
1002
}
1000
LType
1070
     4
1000
CONTINUOUS
1002
{
1002
}
1000
Base
1070
     3
1070
     1
1002
{
1002
}
1002
}
1000
Behind
1070
     8
1000
BEHIND
1002
{
1000
Color
1070
     1
1070
   253
1002
{
1002
}
1000
LType
1070
     4
1000
CONTINUOUS
1002
{
1002
}
1000
Base
1070
     3
1070
     1
1002
{
1002
}
1002
}
1002
}
  0
APPID
  5
183E
330
15
100
AcDbSymbolTableRecord
100
AcDbRegAppTableRecord
  2
GENIUS_GENCFG3_13
 70
     0
1001
GENIUS_GENCFG_13
1071
946969561
1000
183E
1000
GEN@LAYER@ENTSORT
1070
    10
1000
GenCfgObject
1000
GenCfgShort
1000
GenCfgReal
1000
GenCfgBool
1000
GenCfgString
1000
GenCfgDim
1000
GenCfgAttrInf
1000
GenCfgLaySection
1000
GenCfgLayer
1000
GenCfgEntSort
1000
ADDL
1070
     9
1000
5
1002
{
1000
Class
1070
     4
1000
SYM
1002
{
1002
}
1000
Color
1070
     1
1070
     1
1002
{
1002
}
1000
LType
1070
     4
1000
BYLAYER
1002
{
1002
}
1002
}
1000
ALTR
1070
     9
1000
4
1002
{
1000
Class
1070
     4
1000

1002
{
1002
}
1000
Color
1070
     1
1070
     7
1002
{
1002
}
1000
LType
1070
     4
1000
GEN3A
1002
{
1002
}
1002
}
1000
BELI
1070
     9
1000
4
1002
{
1000
Class
1070
     4
1000

1002
{
1002
}
1000
Color
1070
     1
1070
   256
1002
{
1002
}
1000
LType
1070
     4
1000
BYLAYER
1002
{
1002
}
1002
}
1000
BHNV
1070
     9
1000
9
1002
{
1000
Class
1070
     4
1000
INV
1002
{
1002
}
1000
Color
1070
     1
1070
   256
1002
{
1002
}
1000
LType
1070
     4
1000
BYLAYER
1002
{
1002
}
1002
}
1000
BHNVS
1070
     9
1000
BEHIND
1002
{
1000
Class
1070
     4
1000
INV
1002
{
1002
}
1000
Color
1070
     1
1070
   256
1002
{
1002
}
1000
LType
1070
     4
1000
BYLAYER
1002
{
1002
}
1002
}
1000
BLID
1070
     9
1000
4A
1002
{
1000
Class
1070
     4
1000

1002
{
1002
}
1000
Color
1070
     1
1070
   256
1002
{
1002
}
1000
LType
1070
     4
1000
BYLAYER
1002
{
1002
}
1002
}
1000
BOAP
1070
     9
1000
4A
1002
{
1000
Class
1070
     4
1000

1002
{
1002
}
1000
Color
1070
     1
1070
   256
1002
{
1002
}
1000
LType
1070
     4
1000
BYLAYER
1002
{
1002
}
1002
}
1000
BOR2
1070
     9
1000
RAHM2
1002
{
1000
Class
1070
     4
1000
SPZ,SYM
1002
{
1002
}
1000
Color
1070
     1
1070
   256
1002
{
1002
}
1000
LType
1070
     4
1000
BYLAYER
1002
{
1002
}
1002
}
1000
BOR3
1070
     9
1000
RAHM3
1002
{
1000
Class
1070
     4
1000
SPZ,SYM
1002
{
1002
}
1000
Color
1070
     1
1070
   256
1002
{
1002
}
1000
LType
1070
     4
1000
BYLAYER
1002
{
1002
}
1002
}
1000
BOR5
1070
     9
1000
RAHM5
1002
{
1000
Class
1070
     4
1000
SPZ,SYM
1002
{
1002
}
1000
Color
1070
     1
1070
   256
1002
{
1002
}
1000
LType
1070
     4
1000
BYLAYER
1002
{
1002
}
1002
}
1000
BOR7
1070
     9
1000
RAHM5
1002
{
1000
Class
1070
     4
1000
SPZ,SYM
1002
{
1002
}
1000
Color
1070
     1
1070
     7
1002
{
1002
}
1000
LType
1070
     4
1000
CONTINUOUS
1002
{
1002
}
1002
}
1000
BPAP
1070
     9
1000
4A
1002
{
1000
Class
1070
     4
1000

1002
{
1002
}
1000
Color
1070
     1
1070
   256
1002
{
1002
}
1000
LType
1070
     4
1000
BYLAYER
1002
{
1002
}
1002
}
1000
BPEX
1070
     9
1000
4A
1002
{
1000
Class
1070
     4
1000

1002
{
1002
}
1000
Color
1070
     1
1070
   256
1002
{
1002
}
1000
LType
1070
     4
1000
BYLAYER
1002
{
1002
}
1002
}
1000
BTDI
1070
     9
1000
5
1002
{
1000
Class
1070
     4
1000
DIM,SYM
1002
{
1002
}
1000
Color
1070
     1
1070
   256
1002
{
1002
}
1000
LType
1070
     4
1000
BYLAYER
1002
{
1002
}
1002
}
1000
CAL2
1070
     9
1000
4
1002
{
1000
Class
1070
     4
1000
SYM
1002
{
1002
}
1000
Color
1070
     1
1070
   256
1002
{
1002
}
1000
LType
1070
     4
1000
BYLAYER
1002
{
1002
}
1002
}
1000
CAL3
1070
     9
1000
4
1002
{
1000
Class
1070
     4
1000
SYM
1002
{
1002
}
1000
Color
1070
     1
1070
     2
1002
{
1002
}
1000
LType
1070
     4
1000
BYLAYER
1002
{
1002
}
1002
}
1000
CAL5
1070
     9
1000
4
1002
{
1000
Class
1070
     4
1000
SYM
1002
{
1002
}
1000
Color
1070
     1
1070
     7
1002
{
1002
}
1000
LType
1070
     4
1000
BYLAYER
1002
{
1002
}
1002
}
1000
CAL7
1070
     9
1000
4
1002
{
1000
Class
1070
     4
1000
SYM
1002
{
1002
}
1000
Color
1070
     1
1070
     5
1002
{
1002
}
1000
LType
1070
     4
1000
BYLAYER
1002
{
1002
}
1002
}
1000
CENN
1070
     9
1000
7A
1002
{
1000
Class
1070
     4
1000
CEN
1002
{
1002
}
1000
Color
1070
     1
1070
   256
1002
{
1002
}
1000
LType
1070
     4
1000
BYLAYER
1002
{
1002
}
1002
}
1000
CENW
1070
     9
1000
7
1002
{
1000
Class
1070
     4
1000
CEN
1002
{
1002
}
1000
Color
1070
     1
1070
   256
1002
{
1002
}
1000
LType
1070
     4
1000
BYLAYER
1002
{
1002
}
1002
}
1000
CLIN
1070
     9
1000
KLIN
1002
{
1000
Class
1070
     4
1000
SPZ
1002
{
1002
}
1000
Color
1070
     1
1070
   256
1002
{
1002
}
1000
LType
1070
     4
1000
BYLAYER
1002
{
1002
}
1002
}
1000
CON1
1070
     9
1000
0
1002
{
1000
Class
1070
     4
1000
CON,BGD
1002
{
1002
}
1000
Color
1070
     1
1070
   256
1002
{
1002
}
1000
LType
1070
     4
1000
BYLAYER
1002
{
1002
}
1002
}
1000
CON2
1070
     9
1000
1
1002
{
1000
Class
1070
     4
1000
CON,BGD
1002
{
1002
}
1000
Color
1070
     1
1070
   256
1002
{
1002
}
1000
LType
1070
     4
1000
BYLAYER
1002
{
1002
}
1002
}
1000
CON3
1070
     9
1000
2
1002
{
1000
Class
1070
     4
1000
CON,BGD
1002
{
1002
}
1000
Color
1070
     1
1070
   256
1002
{
1002
}
1000
LType
1070
     4
1000
BYLAYER
1002
{
1002
}
1002
}
1000
CON4
1070
     9
1000
2
1002
{
1000
Class
1070
     4
1000
CON,BGD
1002
{
1002
}
1000
Color
1070
     1
1070
   256
1002
{
1002
}
1000
LType
1070
     4
1000
BYLAYER
1002
{
1002
}
1002
}
1000
DERP
1070
     9
1000
4
1002
{
1000
Class
1070
     4
1000

1002
{
1002
}
1000
Color
1070
     1
1070
   256
1002
{
1002
}
1000
LType
1070
     4
1000
BYLAYER
1002
{
1002
}
1002
}
1000
DETA
1070
     9
1000
4
1002
{
1000
Class
1070
     4
1000

1002
{
1002
}
1000
Color
1070
     1
1070
   256
1002
{
1002
}
1000
LType
1070
     4
1000
BYLAYER
1002
{
1002
}
1002
}
1000
DIAG
1070
     9
1000
5
1002
{
1000
Class
1070
     4
1000
SYM
1002
{
1002
}
1000
Color
1070
     1
1070
   256
1002
{
1002
}
1000
LType
1070
     4
1000
BYLAYER
1002
{
1002
}
1002
}
1000
DILI
1070
     9
1000
5
1002
{
1000
Class
1070
     4
1000
DIM,SYM
1002
{
1002
}
1000
Color
1070
     1
1070
   256
1002
{
1002
}
1000
LType
1070
     4
1000
BYLAYER
1002
{
1002
}
1002
}
1000
DITO2
1070
     9
1000
5
1002
{
1000
Class
1070
     4
1000
DIM,SYM
1002
{
1002
}
1000
Color
1070
     1
1070
     3
1002
{
1002
}
1000
LType
1070
     4
1000
BYLAYER
1002
{
1002
}
1002
}
1000
DITO3
1070
     9
1000
5
1002
{
1000
Class
1070
     4
1000
DIM,SYM
1002
{
1002
}
1000
Color
1070
     1
1070
     2
1002
{
1002
}
1000
LType
1070
     4
1000
BYLAYER
1002
{
1002
}
1002
}
1000
DITX
1070
     9
1000
5
1002
{
1000
Class
1070
     4
1000
DIM,SYM
1002
{
1002
}
1000
Color
1070
     1
1070
     7
1002
{
1002
}
1000
LType
1070
     4
1000
CONTINUOUS
1002
{
1002
}
1002
}
1000
DIXL
1070
     9
1000
5
1002
{
1000
Class
1070
     4
1000
DIM,SYM
1002
{
1002
}
1000
Color
1070
     1
1070
   256
1002
{
1002
}
1000
LType
1070
     4
1000
BYLAYER
1002
{
1002
}
1002
}
1000
EXMP
1070
     9
1000
4A
1002
{
1000
Class
1070
     4
1000

1002
{
1002
}
1000
Color
1070
     1
1070
   256
1002
{
1002
}
1000
LType
1070
     4
1000
BYLAYER
1002
{
1002
}
1002
}
1000
FEMN
1070
     9
1000
8
1002
{
1000
Class
1070
     4
1000

1002
{
1002
}
1000
Color
1070
     1
1070
   256
1002
{
1002
}
1000
LType
1070
     4
1000
BYLAYER
1002
{
1002
}
1002
}
1000
FEMPN
1070
     9
1000
8
1002
{
1000
Class
1070
     4
1000
SYM
1002
{
1002
}
1000
Color
1070
     1
1070
     3
1002
{
1002
}
1000
LType
1070
     4
1000
BYLAYER
1002
{
1002
}
1002
}
1000
FEMSP
1070
     9
1000
4A
1002
{
1000
Class
1070
     4
1000

1002
{
1002
}
1000
Color
1070
     1
1070
   256
1002
{
1002
}
1000
LType
1070
     4
1000
CONTINUOUS
1002
{
1002
}
1002
}
1000
FEMST
1070
     9
1000
4A
1002
{
1000
Class
1070
     4
1000
SYM
1002
{
1002
}
1000
Color
1070
     1
1070
     3
1002
{
1002
}
1000
LType
1070
     4
1000
BYLAYER
1002
{
1002
}
1002
}
1000
FEMVN
1070
     9
1000
2
1002
{
1000
Class
1070
     4
1000
CON
1002
{
1002
}
1000
Color
1070
     1
1070
   256
1002
{
1002
}
1000
LType
1070
     4
1000
BYLAYER
1002
{
1002
}
1002
}
1000
FEMVT
1070
     9
1000
2
1002
{
1000
Class
1070
     4
1000
SYM
1002
{
1002
}
1000
Color
1070
     1
1070
     3
1002
{
1002
}
1000
LType
1070
     4
1000
BYLAYER
1002
{
1002
}
1002
}
1000
FLAT
1070
     9
1000
0
1002
{
1000
Class
1070
     4
1000

1002
{
1002
}
1000
Color
1070
     1
1070
   256
1002
{
1002
}
1000
LType
1070
     4
1000
BYLAYER
1002
{
1002
}
1002
}
1000
FRAR
1070
     9
1000
4A
1002
{
1000
Class
1070
     4
1000

1002
{
1002
}
1000
Color
1070
     1
1070
   256
1002
{
1002
}
1000
LType
1070
     4
1000
BYLAYER
1002
{
1002
}
1002
}
1000
GRLI
1070
     9
1000
5
1002
{
1000
Class
1070
     4
1000
SYM
1002
{
1002
}
1000
Color
1070
     1
1070
   256
1002
{
1002
}
1000
LType
1070
     4
1000
BYLAYER
1002
{
1002
}
1002
}
1000
GVLI
1070
     9
1000
4A
1002
{
1000
Class
1070
     4
1000

1002
{
1002
}
1000
Color
1070
     1
1070
   256
1002
{
1002
}
1000
LType
1070
     4
1000
BYLAYER
1002
{
1002
}
1002
}
1000
HATC
1070
     9
1000
8
1002
{
1000
Class
1070
     4
1000
HTC,BGD
1002
{
1002
}
1000
Color
1070
     1
1070
   256
1002
{
1002
}
1000
LType
1070
     4
1000
BYLAYER
1002
{
1002
}
1002
}
1000
HIDN
1070
     9
1000
3A
1002
{
1000
Class
1070
     4
1000
HID,BGD
1002
{
1002
}
1000
Color
1070
     1
1070
   256
1002
{
1002
}
1000
LType
1070
     4
1000
BYLAYER
1002
{
1002
}
1002
}
1000
HIDW
1070
     9
1000
3
1002
{
1000
Class
1070
     4
1000
HID,BGD
1002
{
1002
}
1000
Color
1070
     1
1070
   256
1002
{
1002
}
1000
LType
1070
     4
1000
BYLAYER
1002
{
1002
}
1002
}
1000
HLIN
1070
     9
1000
4
1002
{
1000
Class
1070
     4
1000
BGD
1002
{
1002
}
1000
Color
1070
     1
1070
   256
1002
{
1002
}
1000
LType
1070
     4
1000
BYLAYER
1002
{
1002
}
1002
}
1000
HOCN
1070
     9
1000
7A
1002
{
1000
Class
1070
     4
1000
CEN
1002
{
1002
}
1000
Color
1070
     1
1070
   256
1002
{
1002
}
1000
LType
1070
     4
1000
BYLAYER
1002
{
1002
}
1002
}
1000
HOCW
1070
     9
1000
7
1002
{
1000
Class
1070
     4
1000
CEN
1002
{
1002
}
1000
Color
1070
     1
1070
   256
1002
{
1002
}
1000
LType
1070
     4
1000
BYLAYER
1002
{
1002
}
1002
}
1000
INFO
1070
     9
1000
INFO
1002
{
1000
Class
1070
     4
1000
SPZ,SYM
1002
{
1002
}
1000
Color
1070
     1
1070
   256
1002
{
1002
}
1000
LType
1070
     4
1000
BYLAYER
1002
{
1002
}
1002
}
1000
LADI
1070
     9
1000
4
1002
{
1000
Class
1070
     4
1000
BGD
1002
{
1002
}
1000
Color
1070
     1
1070
   256
1002
{
1002
}
1000
LType
1070
     4
1000
BYLAYER
1002
{
1002
}
1002
}
1000
LEAD
1070
     9
1000
5
1002
{
1000
Class
1070
     4
1000
SYM
1002
{
1002
}
1000
Color
1070
     1
1070
   256
1002
{
1002
}
1000
LType
1070
     4
1000
BYLAYER
1002
{
1002
}
1002
}
1000
N_ADDL
1070
     9
1000
5N
1002
{
1000
Class
1070
     4
1000
SYM
1002
{
1002
}
1000
Color
1070
     1
1070
     1
1002
{
1002
}
1000
LType
1070
     4
1000
BYLAYER
1002
{
1002
}
1002
}
1000
N_BHNV
1070
     9
1000
9N
1002
{
1000
Class
1070
     4
1000
INV
1002
{
1002
}
1000
Color
1070
     1
1070
   256
1002
{
1002
}
1000
LType
1070
     4
1000
BYLAYER
1002
{
1002
}
1002
}
1000
N_CON1
1070
     9
1000
0N
1002
{
1000
Class
1070
     4
1000
CON,BGD
1002
{
1002
}
1000
Color
1070
     1
1070
   256
1002
{
1002
}
1000
LType
1070
     4
1000
BYLAYER
1002
{
1002
}
1002
}
1000
N_CON2
1070
     9
1000
1N
1002
{
1000
Class
1070
     4
1000
CON,BGD
1002
{
1002
}
1000
Color
1070
     1
1070
   256
1002
{
1002
}
1000
LType
1070
     4
1000
BYLAYER
1002
{
1002
}
1002
}
1000
N_CON3
1070
     9
1000
2N
1002
{
1000
Class
1070
     4
1000
CON,BGD
1002
{
1002
}
1000
Color
1070
     1
1070
   256
1002
{
1002
}
1000
LType
1070
     4
1000
BYLAYER
1002
{
1002
}
1002
}
1000
N_CON4
1070
     9
1000
2N
1002
{
1000
Class
1070
     4
1000
CON,BGD
1002
{
1002
}
1000
Color
1070
     1
1070
   256
1002
{
1002
}
1000
LType
1070
     4
1000
BYLAYER
1002
{
1002
}
1002
}
1000
N_CENN
1070
     9
1000
7AN
1002
{
1000
Class
1070
     4
1000
CEN
1002
{
1002
}
1000
Color
1070
     1
1070
   256
1002
{
1002
}
1000
LType
1070
     4
1000
BYLAYER
1002
{
1002
}
1002
}
1000
N_CENW
1070
     9
1000
7N
1002
{
1000
Class
1070
     4
1000
CEN
1002
{
1002
}
1000
Color
1070
     1
1070
   256
1002
{
1002
}
1000
LType
1070
     4
1000
BYLAYER
1002
{
1002
}
1002
}
1000
N_DILI
1070
     9
1000
5N
1002
{
1000
Class
1070
     4
1000
DIM,SYM
1002
{
1002
}
1000
Color
1070
     1
1070
   256
1002
{
1002
}
1000
LType
1070
     4
1000
BYLAYER
1002
{
1002
}
1002
}
1000
N_DITX
1070
     9
1000
5N
1002
{
1000
Class
1070
     4
1000
DIM,SYM
1002
{
1002
}
1000
Color
1070
     1
1070
     2
1002
{
1002
}
1000
LType
1070
     4
1000
CONTINUOUS
1002
{
1002
}
1002
}
1000
N_DIXL
1070
     9
1000
5N
1002
{
1000
Class
1070
     4
1000
DIM,SYM
1002
{
1002
}
1000
Color
1070
     1
1070
   256
1002
{
1002
}
1000
LType
1070
     4
1000
BYLAYER
1002
{
1002
}
1002
}
1000
N_HATC
1070
     9
1000
8N
1002
{
1000
Class
1070
     4
1000
HTC,BGD
1002
{
1002
}
1000
Color
1070
     1
1070
   256
1002
{
1002
}
1000
LType
1070
     4
1000
BYLAYER
1002
{
1002
}
1002
}
1000
N_HIDN
1070
     9
1000
3AN
1002
{
1000
Class
1070
     4
1000
HID,BGD
1002
{
1002
}
1000
Color
1070
     1
1070
   256
1002
{
1002
}
1000
LType
1070
     4
1000
BYLAYER
1002
{
1002
}
1002
}
1000
N_HIDW
1070
     9
1000
3N
1002
{
1000
Class
1070
     4
1000
HID,BGD
1002
{
1002
}
1000
Color
1070
     1
1070
   256
1002
{
1002
}
1000
LType
1070
     4
1000
BYLAYER
1002
{
1002
}
1002
}
1000
N_NGIP
1070
     9
1000
IPN
1002
{
1000
Class
1070
     4
1000

1002
{
1002
}
1000
Color
1070
     1
1070
   256
1002
{
1002
}
1000
LType
1070
     4
1000
BYLAYER
1002
{
1002
}
1002
}
1000
N_PHAN
1070
     9
1000
4AN
1002
{
1000
Class
1070
     4
1000

1002
{
1002
}
1000
Color
1070
     1
1070
   256
1002
{
1002
}
1000
LType
1070
     4
1000
BYLAYER
1002
{
1002
}
1002
}
1000
N_POSL
1070
     9
1000
5N
1002
{
1000
Class
1070
     4
1000
SYM
1002
{
1002
}
1000
Color
1070
     1
1070
   256
1002
{
1002
}
1000
LType
1070
     4
1000
BYLAYER
1002
{
1002
}
1002
}
1000
N_TCON
1070
     9
1000
0N
1002
{
1000
Class
1070
     4
1000
CON,BGD
1002
{
1002
}
1000
Color
1070
     1
1070
   256
1002
{
1002
}
1000
LType
1070
     4
1000
BYLAYER
1002
{
1002
}
1002
}
1000
N_THLI
1070
     9
1000
4N
1002
{
1000
Class
1070
     4
1000
BGD
1002
{
1002
}
1000
Color
1070
     1
1070
   256
1002
{
1002
}
1000
LType
1070
     4
1000
BYLAYER
1002
{
1002
}
1002
}
1000
N_TLEN
1070
     9
1000
0N
1002
{
1000
Class
1070
     4
1000
CON,BGD
1002
{
1002
}
1000
Color
1070
     1
1070
   256
1002
{
1002
}
1000
LType
1070
     4
1000
BYLAYER
1002
{
1002
}
1002
}
1000
N_TXT3
1070
     9
1000
6N
1002
{
1000
Class
1070
     4
1000
SYM
1002
{
1002
}
1000
Color
1070
     1
1070
   256
1002
{
1002
}
1000
LType
1070
     4
1000
BYLAYER
1002
{
1002
}
1002
}
1000
N_VPLI
1070
     9
1000
2AN
1002
{
1000
Class
1070
     4
1000

1002
{
1002
}
1000
Color
1070
     1
1070
   256
1002
{
1002
}
1000
LType
1070
     4
1000
BYLAYER
1002
{
1002
}
1002
}
1000
NGIP
1070
     9
1000
IP
1002
{
1000
Class
1070
     4
1000

1002
{
1002
}
1000
Color
1070
     1
1070
   256
1002
{
1002
}
1000
LType
1070
     4
1000
BYLAYER
1002
{
1002
}
1002
}
1000
PAL2
1070
     9
1000
RAHM2
1002
{
1000
Class
1070
     4
1000
SPZ,SYM
1002
{
1002
}
1000
Color
1070
     1
1070
   256
1002
{
1002
}
1000
LType
1070
     4
1000
BYLAYER
1002
{
1002
}
1002
}
1000
PAL3
1070
     9
1000
RAHM3
1002
{
1000
Class
1070
     4
1000
SPZ,SYM
1002
{
1002
}
1000
Color
1070
     1
1070
   256
1002
{
1002
}
1000
LType
1070
     4
1000
BYLAYER
1002
{
1002
}
1002
}
1000
PAL5
1070
     9
1000
RAHM5
1002
{
1000
Class
1070
     4
1000
SPZ,SYM
1002
{
1002
}
1000
Color
1070
     1
1070
   256
1002
{
1002
}
1000
LType
1070
     4
1000
BYLAYER
1002
{
1002
}
1002
}
1000
PAL7
1070
     9
1000
RAHM5
1002
{
1000
Class
1070
     4
1000
SPZ,SYM
1002
{
1002
}
1000
Color
1070
     1
1070
     7
1002
{
1002
}
1000
LType
1070
     4
1000
CONTINUOUS
1002
{
1002
}
1002
}
1000
PHAN
1070
     9
1000
4A
1002
{
1000
Class
1070
     4
1000

1002
{
1002
}
1000
Color
1070
     1
1070
   256
1002
{
1002
}
1000
LType
1070
     4
1000
BYLAYER
1002
{
1002
}
1002
}
1000
POSL
1070
     9
1000
5
1002
{
1000
Class
1070
     4
1000
SYM
1002
{
1002
}
1000
Color
1070
     1
1070
   256
1002
{
1002
}
1000
LType
1070
     4
1000
BYLAYER
1002
{
1002
}
1002
}
1000
POSN
1070
     9
1000
6
1002
{
1000
Class
1070
     4
1000
SYM
1002
{
1002
}
1000
Color
1070
     1
1070
     7
1002
{
1002
}
1000
LType
1070
     4
1000
BYLAYER
1002
{
1002
}
1002
}
1000
POSREF
1070
     9
1000
6
1002
{
1000
Class
1070
     4
1000
SYM
1002
{
1002
}
1000
Color
1070
     1
1070
     5
1002
{
1002
}
1000
LType
1070
     4
1000
BYLAYER
1002
{
1002
}
1002
}
1000
POSX
1070
     9
1000
5
1002
{
1000
Class
1070
     4
1000
SYM
1002
{
1002
}
1000
Color
1070
     1
1070
     2
1002
{
1002
}
1000
LType
1070
     4
1000
CONTINUOUS
1002
{
1002
}
1002
}
1000
PSEC
1070
     9
1000
4A
1002
{
1000
Class
1070
     4
1000

1002
{
1002
}
1000
Color
1070
     1
1070
   256
1002
{
1002
}
1000
LType
1070
     4
1000
BYLAYER
1002
{
1002
}
1002
}
1000
RCGN
1070
     9
1000
7A
1002
{
1000
Class
1070
     4
1000
CEN
1002
{
1002
}
1000
Color
1070
     1
1070
   256
1002
{
1002
}
1000
LType
1070
     4
1000
BYLAYER
1002
{
1002
}
1002
}
1000
RCGW
1070
     9
1000
7
1002
{
1000
Class
1070
     4
1000
CEN
1002
{
1002
}
1000
Color
1070
     1
1070
   256
1002
{
1002
}
1000
LType
1070
     4
1000
BYLAYER
1002
{
1002
}
1002
}
1000
RFDI
1070
     9
1000
4
1002
{
1000
Class
1070
     4
1000
BGD
1002
{
1002
}
1000
Color
1070
     1
1070
   256
1002
{
1002
}
1000
LType
1070
     4
1000
BYLAYER
1002
{
1002
}
1002
}
1000
RQTR
1070
     9
1000
4
1002
{
1000
Class
1070
     4
1000

1002
{
1002
}
1000
Color
1070
     1
1070
     7
1002
{
1002
}
1000
LType
1070
     4
1000
GEN7A
1002
{
1002
}
1002
}
1000
RSBO
1070
     9
1000
4
1002
{
1000
Class
1070
     4
1000
BGD
1002
{
1002
}
1000
Color
1070
     1
1070
   256
1002
{
1002
}
1000
LType
1070
     4
1000
BYLAYER
1002
{
1002
}
1002
}
1000
SBRK
1070
     9
1000
4
1002
{
1000
Class
1070
     4
1000
BGD
1002
{
1002
}
1000
Color
1070
     1
1070
   256
1002
{
1002
}
1000
LType
1070
     4
1000
BYLAYER
1002
{
1002
}
1002
}
1000
SCEN
1070
     9
1000
7
1002
{
1000
Class
1070
     4
1000

1002
{
1002
}
1000
Color
1070
     1
1070
   256
1002
{
1002
}
1000
LType
1070
     4
1000
CONTINUOUS
1002
{
1002
}
1002
}
1000
SECT
1070
     9
1000
4
1002
{
1000
Class
1070
     4
1000
BGD
1002
{
1002
}
1000
Color
1070
     1
1070
   256
1002
{
1002
}
1000
LType
1070
     4
1000
BYLAYER
1002
{
1002
}
1002
}
1000
SELN
1070
     9
1000
7A
1002
{
1000
Class
1070
     4
1000

1002
{
1002
}
1000
Color
1070
     1
1070
   256
1002
{
1002
}
1000
LType
1070
     4
1000
BYLAYER
1002
{
1002
}
1002
}
1000
SELW
1070
     9
1000
7
1002
{
1000
Class
1070
     4
1000

1002
{
1002
}
1000
Color
1070
     1
1070
   256
1002
{
1002
}
1000
LType
1070
     4
1000
BYLAYER
1002
{
1002
}
1002
}
1000
SSYS
1070
     9
1000
0
1002
{
1000
Class
1070
     4
1000

1002
{
1002
}
1000
Color
1070
     1
1070
   256
1002
{
1002
}
1000
LType
1070
     4
1000
BYLAYER
1002
{
1002
}
1002
}
1000
STLI
1070
     9
1000
4
1002
{
1000
Class
1070
     4
1000

1002
{
1002
}
1000
Color
1070
     1
1070
     7
1002
{
1002
}
1000
LType
1070
     4
1000
GEN3A
1002
{
1002
}
1002
}
1000
SYB1
1070
     9
1000
5
1002
{
1000
Class
1070
     4
1000
SYM
1002
{
1002
}
1000
Color
1070
     1
1070
   256
1002
{
1002
}
1000
LType
1070
     4
1000
BYLAYER
1002
{
1002
}
1002
}
1000
SYB2
1070
     9
1000
5
1002
{
1000
Class
1070
     4
1000
SYM
1002
{
1002
}
1000
Color
1070
     1
1070
   256
1002
{
1002
}
1000
LType
1070
     4
1000
BYLAYER
1002
{
1002
}
1002
}
1000
SYB3
1070
     9
1000
6
1002
{
1000
Class
1070
     4
1000
SYM
1002
{
1002
}
1000
Color
1070
     1
1070
   256
1002
{
1002
}
1000
LType
1070
     4
1000
CONTINUOUS
1002
{
1002
}
1002
}
1000
SYB5
1070
     9
1000
5
1002
{
1000
Class
1070
     4
1000
SYM
1002
{
1002
}
1000
Color
1070
     1
1070
     7
1002
{
1002
}
1000
LType
1070
     4
1000
BYLAYER
1002
{
1002
}
1002
}
1000
SYMN
1070
     9
1000
7A
1002
{
1000
Class
1070
     4
1000
CEN
1002
{
1002
}
1000
Color
1070
     1
1070
   256
1002
{
1002
}
1000
LType
1070
     4
1000
BYLAYER
1002
{
1002
}
1002
}
1000
SYMW
1070
     9
1000
7
1002
{
1000
Class
1070
     4
1000
CEN
1002
{
1002
}
1000
Color
1070
     1
1070
   256
1002
{
1002
}
1000
LType
1070
     4
1000
BYLAYER
1002
{
1002
}
1002
}
1000
TCON
1070
     9
1000
0
1002
{
1000
Class
1070
     4
1000
CON,BGD
1002
{
1002
}
1000
Color
1070
     1
1070
   256
1002
{
1002
}
1000
LType
1070
     4
1000
BYLAYER
1002
{
1002
}
1002
}
1000
THLI
1070
     9
1000
4
1002
{
1000
Class
1070
     4
1000
BGD
1002
{
1002
}
1000
Color
1070
     1
1070
   256
1002
{
1002
}
1000
LType
1070
     4
1000
BYLAYER
1002
{
1002
}
1002
}
1000
TIT2
1070
     9
1000
RAHM2
1002
{
1000
Class
1070
     4
1000
SPZ,SYM
1002
{
1002
}
1000
Color
1070
     1
1070
   256
1002
{
1002
}
1000
LType
1070
     4
1000
BYLAYER
1002
{
1002
}
1002
}
1000
TIT3
1070
     9
1000
RAHM3
1002
{
1000
Class
1070
     4
1000
SPZ,SYM
1002
{
1002
}
1000
Color
1070
     1
1070
   256
1002
{
1002
}
1000
LType
1070
     4
1000
BYLAYER
1002
{
1002
}
1002
}
1000
TIT5
1070
     9
1000
RAHM5
1002
{
1000
Class
1070
     4
1000
SPZ,SYM
1002
{
1002
}
1000
Color
1070
     1
1070
   256
1002
{
1002
}
1000
LType
1070
     4
1000
BYLAYER
1002
{
1002
}
1002
}
1000
TIT7
1070
     9
1000
RAHM5
1002
{
1000
Class
1070
     4
1000
SPZ,SYM
1002
{
1002
}
1000
Color
1070
     1
1070
     7
1002
{
1002
}
1000
LType
1070
     4
1000
CONTINUOUS
1002
{
1002
}
1002
}
1000
TLEN
1070
     9
1000
0
1002
{
1000
Class
1070
     4
1000
CON,BGD
1002
{
1002
}
1000
Color
1070
     1
1070
   256
1002
{
1002
}
1000
LType
1070
     4
1000
BYLAYER
1002
{
1002
}
1002
}
1000
TRKN
1070
     9
1000
7A
1002
{
1000
Class
1070
     4
1000

1002
{
1002
}
1000
Color
1070
     1
1070
   256
1002
{
1002
}
1000
LType
1070
     4
1000
BYLAYER
1002
{
1002
}
1002
}
1000
TRKW
1070
     9
1000
7
1002
{
1000
Class
1070
     4
1000

1002
{
1002
}
1000
Color
1070
     1
1070
   256
1002
{
1002
}
1000
LType
1070
     4
1000
BYLAYER
1002
{
1002
}
1002
}
1000
TRLI
1070
     9
1000
4
1002
{
1000
Class
1070
     4
1000
BGD
1002
{
1002
}
1000
Color
1070
     1
1070
   256
1002
{
1002
}
1000
LType
1070
     4
1000
BYLAYER
1002
{
1002
}
1002
}
1000
TXT1
1070
     9
1000
6
1002
{
1000
Class
1070
     4
1000
SYM
1002
{
1002
}
1000
Color
1070
     1
1070
     2
1002
{
1002
}
1000
LType
1070
     4
1000
BYLAYER
1002
{
1002
}
1002
}
1000
TXT2
1070
     9
1000
6
1002
{
1000
Class
1070
     4
1000
SYM
1002
{
1002
}
1000
Color
1070
     1
1070
     2
1002
{
1002
}
1000
LType
1070
     4
1000
BYLAYER
1002
{
1002
}
1002
}
1000
TXT3
1070
     9
1000
6
1002
{
1000
Class
1070
     4
1000
SYM
1002
{
1002
}
1000
Color
1070
     1
1070
   256
1002
{
1002
}
1000
LType
1070
     4
1000
BYLAYER
1002
{
1002
}
1002
}
1000
TXT5
1070
     9
1000
6
1002
{
1000
Class
1070
     4
1000
SYM
1002
{
1002
}
1000
Color
1070
     1
1070
     7
1002
{
1002
}
1000
LType
1070
     4
1000
BYLAYER
1002
{
1002
}
1002
}
1000
TXT7
1070
     9
1000
6
1002
{
1000
Class
1070
     4
1000
SYM
1002
{
1002
}
1000
Color
1070
     1
1070
     7
1002
{
1002
}
1000
LType
1070
     4
1000
BYLAYER
1002
{
1002
}
1002
}
1000
VIEW
1070
     9
1000
VIEW
1002
{
1000
Class
1070
     4
1000
SPZ
1002
{
1002
}
1000
Color
1070
     1
1070
   256
1002
{
1002
}
1000
LType
1070
     4
1000
BYLAYER
1002
{
1002
}
1002
}
1000
VPLI
1070
     9
1000
2A
1002
{
1000
Class
1070
     4
1000

1002
{
1002
}
1000
Color
1070
     1
1070
   256
1002
{
1002
}
1000
LType
1070
     4
1000
BYLAYER
1002
{
1002
}
1002
}
1000
ZIZA
1070
     9
1000
4
1002
{
1000
Class
1070
     4
1000
BGD
1002
{
1002
}
1000
Color
1070
     1
1070
   256
1002
{
1002
}
1000
LType
1070
     4
1000
GENZIGZAG
1002
{
1002
}
1002
}
  0
APPID
  5
183F
330
15
100
AcDbSymbolTableRecord
100
AcDbRegAppTableRecord
  2
GENIUS_GENCFG4_13
 70
     0
1001
GENIUS_GENCFG_13
1071
946969586
1000
183F
1000
GEN
1070
     9
1000
GenCfgObject
1000
GenCfgShort
1000
GenCfgReal
1000
GenCfgBool
1000
GenCfgString
1000
GenCfgDim
1000
GenCfgLaySection
1000
GenCfgLType
1000
GenCfgFilter
1000
Balloon
1070
     0
1002
{
1000
GenIF
1070
     1
1070
     0
1002
{
1002
}
1000
GenPosInc
1070
     1
1070
     1
1002
{
1002
}
1000
GenPosBlk
1070
     1
1070
     6
1002
{
1002
}
1000
GenPosVar
1070
     1
1070
     4
1002
{
1002
}
1000
GenZiCir
1070
     2
1040
1.5
1002
{
1002
}
1000
MaxCharForCenteredText
1070
     1
1070
    30
1002
{
1002
}
1000
Snap
1070
     0
1002
{
1000
ActivationRadius
1070
     2
1040
1.0
1002
{
1002
}
1000
M
1070
     0
1002
{
1000
SnapStepX
1070
     2
1040
20.0
1002
{
1002
}
1000
SnapStepY
1070
     2
1040
10.0
1002
{
1002
}
1002
}
1000
I
1070
     0
1002
{
1000
SnapStepX
1070
     2
1040
1.0
1002
{
1002
}
1000
SnapStepY
1070
     2
1040
0.5
1002
{
1002
}
1002
}
1002
}
1002
}
1000
Centerline
1070
     0
1002
{
1000
ScaleNot
1070
     3
1070
     0
1002
{
1002
}
1000
M
1070
     0
1002
{
1000
GenCenAng
1070
     4
1000
45|90|135
1002
{
1002
}
1000
GenCenDia
1070
     2
1040
65.65249269999999
1002
{
1002
}
1000
GenCenDias
1070
     4
1000
10|20|30
1002
{
1002
}
1000
GenCenDist
1070
     2
1040
3.0
1002
{
1002
}
1000
GenCenLen
1070
     2
1040
10.0
1002
{
1002
}
1000
GenCenOff
1070
     2
1040
10.0
1002
{
1002
}
1000
GENCENOFF1
1070
     2
1040
10.0
1002
{
1002
}
1000
GENCENOFF2
1070
     2
1040
10.0
1002
{
1002
}
1002
}
1000
I
1070
     0
1002
{
1000
GenCenAng
1070
     4
1000
45|90|135
1002
{
1002
}
1000
GenCenDia
1070
     2
1040
0.5
1002
{
1002
}
1000
GenCenDias
1070
     4
1000
0.5|1.0|1.5
1002
{
1002
}
1000
GenCenDist
1070
     2
1040
0.125
1002
{
1002
}
1000
GenCenLen
1070
     2
1040
0.5
1002
{
1002
}
1000
GenCenOff
1070
     2
1040
0.5
1002
{
1002
}
1002
}
1002
}
1000
CLine
1070
     0
1002
{
1000
CAngArray
1070
     4
1000
30|45|60
1002
{
1002
}
1000
Typ
1070
     4
1000
XLINE
1002
{
1002
}
1000
M
1070
     0
1002
{
1000
CLinArray
1070
     4
1000
4
1002
{
1002
}
1002
}
1000
I
1070
     0
1002
{
1000
CLinArray
1070
     4
1000
0.125|0.25|0.5
1002
{
1002
}
1002
}
1002
}
1000
Detail
1070
     0
1002
{
1002
}
1000
Dimension
1070
     5
1002
{
1000
DIMALT
1070
     1
1070
     0
1002
{
1002
}
1000
DIMALTD
1070
     1
1070
     2
1002
{
1002
}
1000
DIMALTTD
1070
     1
1070
     4
1002
{
1002
}
1000
DIMALTTZ
1070
     1
1070
     0
1002
{
1002
}
1000
DIMALTU
1070
     1
1070
     2
1002
{
1002
}
1000
DIMALTZ
1070
     1
1070
     0
1002
{
1002
}
1000
DIMAUNIT
1070
     1
1070
     0
1002
{
1002
}
1000
DIMBLK
1070
     4
1000

1002
{
1002
}
1000
DIMBLK1
1070
     4
1000

1002
{
1002
}
1000
DIMBLK2
1070
     4
1000

1002
{
1002
}
1000
DIMCLRD
1070
     1
1070
   256
1002
{
1002
}
1000
DIMCLRE
1070
     1
1070
   256
1002
{
1002
}
1000
DIMCLRT
1070
     1
1070
     7
1002
{
1002
}
1000
DIMDLE
1070
     2
1040
0.0
1002
{
1002
}
1000
DIMFIT
1070
     1
1070
     3
1002
{
1002
}
1000
DIMJUST
1070
     1
1070
     0
1002
{
1002
}
1000
DIMLFAC
1070
     2
1040
1.0
1002
{
1002
}
1000
DIMLIM
1070
     1
1070
     0
1002
{
1002
}
1000
DIMPOST
1070
     4
1000
<>
1002
{
1002
}
1000
DIMRND
1070
     2
1040
0.0
1002
{
1002
}
1000
DIMSAH
1070
     1
1070
     0
1002
{
1002
}
1000
DIMSCALE
1070
     2
1040
1.0
1002
{
1002
}
1000
DIMSD1
1070
     1
1070
     0
1002
{
1002
}
1000
DIMSD2
1070
     1
1070
     0
1002
{
1002
}
1000
DIMSE1
1070
     1
1070
     0
1002
{
1002
}
1000
DIMSE2
1070
     1
1070
     0
1002
{
1002
}
1000
DIMSOXD
1070
     1
1070
     0
1002
{
1002
}
1000
DIMTAD
1070
     1
1070
     0
1002
{
1002
}
1000
DIMTFAC
1070
     2
1040
0.71
1002
{
1002
}
1000
DIMTIH
1070
     1
1070
     0
1002
{
1002
}
1000
DIMTIX
1070
     1
1070
     0
1002
{
1002
}
1000
DIMTM
1070
     2
1040
0.1
1002
{
1002
}
1000
DIMTOFL
1070
     1
1070
     0
1002
{
1002
}
1000
DIMTOH
1070
     1
1070
     0
1002
{
1002
}
1000
DIMTOL
1070
     1
1070
     0
1002
{
1002
}
1000
DIMTOLJ
1070
     1
1070
     1
1002
{
1002
}
1000
DIMTP
1070
     2
1040
0.1
1002
{
1002
}
1000
DIMTSZ
1070
     2
1040
0.0
1002
{
1002
}
1000
DIMTVP
1070
     2
1040
0.0
1002
{
1002
}
1000
DIMTXSTY
1070
     4
1000
ROMANS
1002
{
1002
}
1000
DIMTZIN
1070
     1
1070
     0
1002
{
1002
}
1000
DIMUNIT
1070
     1
1070
     2
1002
{
1002
}
1000
DIMUPT
1070
     1
1070
     0
1002
{
1002
}
1000
M
1070
     0
1002
{
1000
DIMALTF
1070
     2
1040
0.0393701
1002
{
1002
}
1000
DIMAPOST
1070
     4
1000
"
1002
{
1002
}
1000
DIMASZ
1070
     2
1040
1.5
1002
{
1002
}
1000
DIMCEN
1070
     2
1040
1.0
1002
{
1002
}
1000
DIMDEC
1070
     1
1070
     2
1002
{
1002
}
1000
DIMDLI
1070
     2
1040
10.0
1002
{
1002
}
1000
DIMEXE
1070
     2
1040
1.0
1002
{
1002
}
1000
DIMEXO
1070
     2
1040
1.0
1002
{
1002
}
1000
DIMGAP
1070
     2
1040
0.6
1002
{
1002
}
1000
DIMTDEC
1070
     1
1070
     3
1002
{
1002
}
1000
DIMTXT
1070
     2
1040
2.0
1002
{
1002
}
1000
DIMZIN
1070
     1
1070
     8
1002
{
1002
}
1002
}
1000
I
1070
     0
1002
{
1000
DIMALTF
1070
     2
1040
25.4
1002
{
1002
}
1000
DIMAPOST
1070
     4
1000
mm
1002
{
1002
}
1000
DIMASZ
1070
     2
1040
0.1
1002
{
1002
}
1000
DIMCEN
1070
     2
1040
0.0
1002
{
1002
}
1000
DIMDEC
1070
     1
1070
     4
1002
{
1002
}
1000
DIMDLI
1070
     2
1040
0.5
1002
{
1002
}
1000
DIMEXE
1070
     2
1040
0.1
1002
{
1002
}
1000
DIMEXO
1070
     2
1040
0.05
1002
{
1002
}
1000
DIMGAP
1070
     2
1040
0.06
1002
{
1002
}
1000
DIMTDEC
1070
     1
1070
     4
1002
{
1002
}
1000
DIMTXT
1070
     2
1040
0.12
1002
{
1002
}
1000
DIMZIN
1070
     1
1070
     7
1002
{
1002
}
1002
}
1000
GEN-ISO
1070
     5
1002
{
1000
NAME
1070
     4
1000
GEN-ISO
1002
{
1002
}
1000
DIMTAD
1070
     1
1070
     1
1002
{
1002
}
1000
DIMTOLJ
1070
     1
1070
     0
1002
{
1002
}
1000
DIMTOFL
1070
     1
1070
     1
1002
{
1002
}
1000
M
1070
     0
1002
{
1000
DIMGAP
1070
     2
1040
0.6
1002
{
1002
}
1000
DIMTXT
1070
     2
1040
1.0
1002
{
1002
}
1002
}
1000
I
1070
     0
1002
{
1002
}
1000
DIMCLRT
1070
     1
1070
   255
1002
{
1002
}
1000
DIMTXSTY
1070
     4
1000
ROMANS
1002
{
1002
}
1002
}
1000
GEN-ISO-POS
1070
     5
1002
{
1000
NAME
1070
     4
1000
GEN-ISO-POS
1002
{
1002
}
1000
DIMTOLJ
1070
     1
1070
     0
1002
{
1002
}
1000
DIMTXSTY
1070
     4
1000
STANDARD
1002
{
1002
}
1000
M
1070
     0
1002
{
1000
DIMASZ
1070
     2
1040
2.5
1002
{
1002
}
1000
DIMGAP
1070
     2
1040
1.5
1002
{
1002
}
1000
DIMTXT
1070
     2
1040
5.0
1002
{
1002
}
1002
}
1000
I
1070
     0
1002
{
1000
DIMASZ
1070
     2
1040
0.1
1002
{
1002
}
1000
DIMGAP
1070
     2
1040
0.06
1002
{
1002
}
1000
DIMTXT
1070
     2
1040
0.2
1002
{
1002
}
1002
}
1002
}
1000
GEN-ISO-CIR
1070
     5
1002
{
1000
NAME
1070
     4
1000
GEN-ISO$3
1002
{
1002
}
1000
DIMFIT
1070
     1
1070
     0
1002
{
1002
}
1000
DIMTAD
1070
     1
1070
     1
1002
{
1002
}
1000
DIMTIH
1070
     1
1070
     0
1002
{
1002
}
1000
DIMTIX
1070
     1
1070
     0
1002
{
1002
}
1000
DIMTOH
1070
     1
1070
     1
1002
{
1002
}
1000
DIMTOLJ
1070
     1
1070
     0
1002
{
1002
}
1000
DIMTOFL
1070
     1
1070
     0
1002
{
1002
}
1000
DIMUPT
1070
     1
1070
     1
1002
{
1002
}
1000
M
1070
     0
1002
{
1002
}
1000
I
1070
     0
1002
{
1002
}
1002
}
1000
GEN-ISO-RAD
1070
     5
1002
{
1000
NAME
1070
     4
1000
GEN-ISO$4
1002
{
1002
}
1000
DIMFIT
1070
     1
1070
     0
1002
{
1002
}
1000
DIMTAD
1070
     1
1070
     1
1002
{
1002
}
1000
DIMTIH
1070
     1
1070
     0
1002
{
1002
}
1000
DIMTIX
1070
     1
1070
     0
1002
{
1002
}
1000
DIMTOH
1070
     1
1070
     1
1002
{
1002
}
1000
DIMTOLJ
1070
     1
1070
     0
1002
{
1002
}
1000
DIMTOFL
1070
     1
1070
     0
1002
{
1002
}
1000
DIMUPT
1070
     1
1070
     1
1002
{
1002
}
1000
M
1070
     0
1002
{
1002
}
1000
I
1070
     0
1002
{
1002
}
1002
}
1000
GEN-ISO-ORD
1070
     5
1002
{
1000
NAME
1070
     4
1000
GEN-ISO$6
1002
{
1002
}
1000
DIMTOLJ
1070
     1
1070
     0
1002
{
1002
}
1000
M
1070
     0
1002
{
1002
}
1000
I
1070
     0
1002
{
1002
}
1002
}
1000
GEN-ISO-AXE-F
1070
     5
1002
{
1000
NAME
1070
     4
1000
GEN-ISO-AXE-F
1002
{
1002
}
1000
DIMSE1
1070
     1
1070
     1
1002
{
1002
}
1000
DIMSE2
1070
     1
1070
     1
1002
{
1002
}
1000
DIMTAD
1070
     1
1070
     1
1002
{
1002
}
1000
DIMTOLJ
1070
     1
1070
     0
1002
{
1002
}
1000
DIMTOFL
1070
     1
1070
     1
1002
{
1002
}
1000
M
1070
     0
1002
{
1002
}
1000
I
1070
     0
1002
{
1002
}
1002
}
1000
GEN-ISO-AXE-H
1070
     5
1002
{
1000
NAME
1070
     4
1000
GEN-ISO-AXE-H
1002
{
1002
}
1000
DIMBLK1
1070
     4
1000
GENAXEH
1002
{
1002
}
1000
DIMLFAC
1070
     2
1040
2.0
1002
{
1002
}
1000
DIMSAH
1070
     1
1070
     1
1002
{
1002
}
1000
DIMSE1
1070
     1
1070
     1
1002
{
1002
}
1000
DIMSE2
1070
     1
1070
     1
1002
{
1002
}
1000
DIMTAD
1070
     1
1070
     1
1002
{
1002
}
1000
DIMTOLJ
1070
     1
1070
     0
1002
{
1002
}
1000
DIMTOFL
1070
     1
1070
     1
1002
{
1002
}
1000
M
1070
     0
1002
{
1002
}
1000
I
1070
     0
1002
{
1002
}
1002
}
1000
GEN-ANSI
1070
     5
1002
{
1000
NAME
1070
     4
1000
GEN-ANSI
1002
{
1002
}
1000
DIMTIH
1070
     1
1070
     1
1002
{
1002
}
1000
DIMTOH
1070
     1
1070
     1
1002
{
1002
}
1000
DIMTAD
1070
     1
1070
     0
1002
{
1002
}
1000
DIMTOLJ
1070
     1
1070
     1
1002
{
1002
}
1000
M
1070
     0
1002
{
1002
}
1000
I
1070
     0
1002
{
1002
}
1002
}
1000
GEN-ANSI-POS
1070
     5
1002
{
1000
NAME
1070
     4
1000
GEN-ANSI-POS
1002
{
1002
}
1000
DIMTOLJ
1070
     1
1070
     1
1002
{
1002
}
1000
DIMTXSTY
1070
     4
1000
STANDARD
1002
{
1002
}
1000
M
1070
     0
1002
{
1000
DIMASZ
1070
     2
1040
2.5
1002
{
1002
}
1000
DIMGAP
1070
     2
1040
1.5
1002
{
1002
}
1000
DIMTXT
1070
     2
1040
5.0
1002
{
1002
}
1002
}
1000
I
1070
     0
1002
{
1000
DIMASZ
1070
     2
1040
0.1
1002
{
1002
}
1000
DIMGAP
1070
     2
1040
0.06
1002
{
1002
}
1000
DIMTXT
1070
     2
1040
0.2
1002
{
1002
}
1002
}
1002
}
1000
GEN-ANSI-CIR
1070
     5
1002
{
1000
NAME
1070
     4
1000
GEN-ANSI$3
1002
{
1002
}
1000
DIMFIT
1070
     1
1070
     0
1002
{
1002
}
1000
DIMTAD
1070
     1
1070
     0
1002
{
1002
}
1000
DIMTIH
1070
     1
1070
     1
1002
{
1002
}
1000
DIMTIX
1070
     1
1070
     0
1002
{
1002
}
1000
DIMTOFL
1070
     1
1070
     0
1002
{
1002
}
1000
DIMTOH
1070
     1
1070
     1
1002
{
1002
}
1000
DIMTOLJ
1070
     1
1070
     1
1002
{
1002
}
1000
DIMUPT
1070
     1
1070
     1
1002
{
1002
}
1000
M
1070
     0
1002
{
1002
}
1000
I
1070
     0
1002
{
1002
}
1002
}
1000
GEN-ANSI-RAD
1070
     5
1002
{
1000
NAME
1070
     4
1000
GEN-ANSI$4
1002
{
1002
}
1000
DIMFIT
1070
     1
1070
     0
1002
{
1002
}
1000
DIMTAD
1070
     1
1070
     0
1002
{
1002
}
1000
DIMTIH
1070
     1
1070
     1
1002
{
1002
}
1000
DIMTIX
1070
     1
1070
     0
1002
{
1002
}
1000
DIMTOFL
1070
     1
1070
     0
1002
{
1002
}
1000
DIMTOH
1070
     1
1070
     1
1002
{
1002
}
1000
DIMTOLJ
1070
     1
1070
     1
1002
{
1002
}
1000
DIMUPT
1070
     1
1070
     1
1002
{
1002
}
1000
M
1070
     0
1002
{
1002
}
1000
I
1070
     0
1002
{
1002
}
1002
}
1000
GEN-ANSI-ORD
1070
     5
1002
{
1000
NAME
1070
     4
1000
GEN-ANSI$6
1002
{
1002
}
1000
DIMTAD
1070
     1
1070
     0
1002
{
1002
}
1000
DIMTIH
1070
     1
1070
     1
1002
{
1002
}
1000
DIMTOH
1070
     1
1070
     1
1002
{
1002
}
1000
DIMTOLJ
1070
     1
1070
     1
1002
{
1002
}
1000
M
1070
     0
1002
{
1002
}
1000
I
1070
     0
1002
{
1002
}
1002
}
1000
GEN-ANSI-AXE-F
1070
     5
1002
{
1000
NAME
1070
     4
1000
GEN-ANSI-AXE-F
1002
{
1002
}
1000
DIMBLK1
1070
     4
1000
GENAXEH
1002
{
1002
}
1000
DIMSAH
1070
     1
1070
     1
1002
{
1002
}
1000
DIMSE1
1070
     1
1070
     1
1002
{
1002
}
1000
DIMSE2
1070
     1
1070
     1
1002
{
1002
}
1000
DIMTAD
1070
     1
1070
     0
1002
{
1002
}
1000
DIMTIH
1070
     1
1070
     1
1002
{
1002
}
1000
DIMTOH
1070
     1
1070
     1
1002
{
1002
}
1000
DIMTOLJ
1070
     1
1070
     1
1002
{
1002
}
1000
M
1070
     0
1002
{
1002
}
1000
I
1070
     0
1002
{
1002
}
1002
}
1000
GEN-ANSI-AXE-H
1070
     5
1002
{
1000
NAME
1070
     4
1000
GEN-ANSI-AXE-H
1002
{
1002
}
1000
DIMBLK1
1070
     4
1000
GENAXEH
1002
{
1002
}
1000
DIMLFAC
1070
     2
1040
2.0
1002
{
1002
}
1000
DIMSAH
1070
     1
1070
     1
1002
{
1002
}
1000
DIMSE1
1070
     1
1070
     1
1002
{
1002
}
1000
DIMSE2
1070
     1
1070
     1
1002
{
1002
}
1000
DIMTAD
1070
     1
1070
     0
1002
{
1002
}
1000
DIMTOFL
1070
     1
1070
     1
1002
{
1002
}
1000
DIMTOLJ
1070
     1
1070
     1
1002
{
1002
}
1000
M
1070
     0
1002
{
1002
}
1000
I
1070
     0
1002
{
1002
}
1002
}
1002
}
1000
DimSet
1070
     0
1002
{
1000
ChainSum
1070
     3
1070
     0
1002
{
1002
}
1000
DimDclTyp0
1070
     4
1000
dim23
1002
{
1002
}
1000
HorBra
1070
     3
1070
     0
1002
{
1002
}
1000
StrDia
1070
     4
1000
%%c<>
1002
{
1002
}
1000
StrRad
1070
     4
1000
R<>
1002
{
1002
}
1000
TextMinus
1070
     4
1000
<>
1002
{
1002
}
1000
TextPlus
1070
     4
1000
<>
1002
{
1002
}
1000
M
1070
     0
1002
{
1000
DimdliFirst
1070
     2
1040
12.0
1002
{
1002
}
1000
PointMakeDist
1070
     2
1040
10.0
1002
{
1002
}
1002
}
1000
I
1070
     0
1002
{
1000
DimdliFirst
1070
     2
1040
0.5
1002
{
1002
}
1000
PointMakeDist
1070
     2
1040
0.5
1002
{
1002
}
1002
}
1002
}
1000
Drawing
1070
     0
1002
{
1000
ChamferDimMode
1070
     1
1070
     2
1002
{
1002
}
1000
Gen_Fiso
1070
    -3
1040
1.0
1002
{
1002
}
1000
GenDimStil
1070
     4
1000
ISO
1002
{
1002
}
1000
GenDwgUScale
1070
     2
1040
1.0
1002
{
1002
}
1000
GenInch
1070
     4
1000
M
1002
{
1002
}
1000
GenPlotScale
1070
     4
1000
1:1
1002
{
1002
}
1000
Revisi
1070
     4
1000
0
1002
{
1002
}
1000
Version
1070
    -5
1000
14.01/May 26 1998
1002
{
1002
}
1000
Platform
1070
    -5
1000
WIN
1002
{
1002
}
1002
}
1000
DwgVar
1070
     0
1002
{
1000
M
1070
     0
1002
{
1002
}
1000
I
1070
     0
1002
{
1002
}
1002
}
1000
Hatch
1070
     0
1002
{
1000
GenHtcFlag
1070
     3
1070
     0
1002
{
1002
}
1002
}
1000
Info_Pos
1070
     0
1002
{
1000
>
1002
}
1000
Layer
1070
     6
1002
{
1000
Defs
1070
     0
1002
{
1000
>
1002
}
1000
EntSort
1070
     0
1002
{
1000
>
1002
}
1000
Match
1070
     0
1002
{
1002
}
1000
Settings
1070
     0
1002
{
1000
FocGrNC
1070
     3
1070
     1
1002
{
1002
}
1000
FocGrLo
1070
     3
1070
     0
1002
{
1002
}
1000
FocLoNC
1070
     3
1070
     0
1002
{
1002
}
1000
FocusCol
1070
     1
1070
     6
1002
{
1002
}
1000
GenStdLG
1070
     4
1000

1002
{
1002
}
1000
LayMatch
1070
     3
1070
     0
1002
{
1002
}
1000
LgOff
1070
     3
1070
     0
1002
{
1002
}
1000
CurLG
1070
    -5
1000

1002
{
1002
}
1002
}
1002
}
1000
LType
1070
     0
1002
{
1000
GEN3
1070
     7
1000
genius.lin
1002
{
1002
}
1000
GEN7
1070
     7
1000
genius.lin
1002
{
1002
}
1000
GEN4A
1070
     7
1000
genius.lin
1002
{
1002
}
1000
GEN3A
1070
     7
1000
genius.lin
1002
{
1002
}
1000
GEN7A
1070
     7
1000
genius.lin
1002
{
1002
}
1000
GENZIGZAG
1070
     7
1000
genius.lin
1002
{
1002
}
1002
}
1000
Objecter
1070
     0
1002
{
1000
CreateGroups
1070
     3
1070
     0
1002
{
1002
}
1000
LaySwitch
1070
     3
1070
     1
1002
{
1002
}
1000
LastObj
1070
    -5
1000
14352
1002
{
1002
}
1000
TimeStamp
1070
    -5
1000
20000104.08045991
1002
{
1002
}
1002
}
1000
OSWiz
1070
     0
1002
{
1000
Filter
1070
     0
1002
{
1000
HATCH
1070
     8
1002
{
1000
EntityType
1070
     4
1000
LINE
1002
{
1002
}
1000
Layer
1070
     4
1000
8,8N,*-8,*-8N
1002
{
1002
}
1000
Linetype
1070
     4
1000
*
1002
{
1002
}
1000
Color
1070
     4
1000
*
1002
{
1002
}
1000
ApplyInDims
1070
     3
1070
     1
1002
{
1002
}
1002
}
1000
SYMBOLS
1070
     8
1002
{
1000
EntityType
1070
     4
1000
*
1002
{
1002
}
1000
Layer
1070
     4
1000
[5-6],[5-6]N,*-[5-6],*-[5-6]N
1002
{
1002
}
1000
Linetype
1070
     4
1000
*
1002
{
1002
}
1000
Color
1070
     4
1000
*
1002
{
1002
}
1000
ApplyInDims
1070
     3
1070
     1
1002
{
1002
}
1002
}
1000
FEM
1070
     8
1002
{
1000
EntityType
1070
     4
1000
*
1002
{
1002
}
1000
Layer
1070
     4
1000
4A,4AN,*-4A,*-4AN
1002
{
1002
}
1000
Linetype
1070
     4
1000
*
1002
{
1002
}
1000
Color
1070
     4
1000
*
1002
{
1002
}
1000
ApplyInDims
1070
     3
1070
     1
1002
{
1002
}
1002
}
1002
}
1002
}
1000
PaList
1070
     0
1002
{
1000
AutoUpdatePartList
1070
     1
1070
     0
1002
{
1002
}
1000
ReadInfoPoint
1070
     3
1070
     0
1002
{
1002
}
1000
ReadPosNr
1070
     3
1070
     1
1002
{
1002
}
1000
RevStr
1070
     4
1000
0
1002
{
1002
}
1002
}
1000
Paper
1070
     0
1002
{
1000
Layer
1070
    -5
1000
KLIN,KLIN,KLIN,KLIN,KLIN,KLIN,KLIN,KLIN,KLIN,KLIN,KLIN,3A,KLIN,KLIN,KLIN,KLIN,KLIN,3A,5
1002
{
1002
}
1002
}
1000
PartDB
1070
     0
1002
{
1000
GenDbOwner
1070
     4
1000

1002
{
1002
}
1002
}
1000
System
1070
     0
1002
{
1000
Menu
1070
     4
1000
GEV
1002
{
1002
}
1000
GenGlobCheck
1070
     1
1070
     7
1002
{
1002
}
1002
}
1000
Title
1070
     0
1002
{
1000
MakeView
1070
     1
1070
     2
1002
{
1002
}
1002
}
1000
Tools
1070
     0
1002
{
1000
Trans
1070
     0
1002
{
1000
Drawingtranslation
1070
    -4
1070
     1
1002
{
1002
}
1000
upreserve
1070
     3
1070
     0
1002
{
1002
}
1000
originally_on
1070
    -4
1070
     0
1002
{
1002
}
1000
sourcelang
1070
    -5
1000
I
1002
{
1002
}
1002
}
1002
}
  0
APPID
  5
1840
330
15
100
AcDbSymbolTableRecord
100
AcDbRegAppTableRecord
  2
GENIUS_GEVCFG0_13
 70
     0
1001
GENIUS_GENCFG_13
1071
946969561
1000
1840
1000
GEV
1070
     1
1000
GenCfgObject
1000
VED
1070
     0
1002
{
1002
}
  0
APPID
  5
1843
330
15
100
AcDbSymbolTableRecord
100
AcDbRegAppTableRecord
  2
GENIUS_GENOENT_13
 70
     0
  0
APPID
  5
18D3
330
15
100
AcDbSymbolTableRecord
100
AcDbRegAppTableRecord
  2
GEV_VCCNULL_SWITCH_OFF
 70
     0
  0
APPID
  5
18DF
330
15
100
AcDbSymbolTableRecord
100
AcDbRegAppTableRecord
  2
GENIUS_GENDTOL_13
 70
     0
  0
APPID
  5
1CEC
330
15
100
AcDbSymbolTableRecord
100
AcDbRegAppTableRecord
  2
GENIUS_GENREC_14
 70
     0
  0
APPID
  5
1CED
330
15
100
AcDbSymbolTableRecord
100
AcDbRegAppTableRecord
  2
GENIUS_GENODEF_13
 70
     0
  0
APPID
  5
1CEE
330
15
100
AcDbSymbolTableRecord
100
AcDbRegAppTableRecord
  2
GENIUS_GENOBJ-N-REC_13
 70
     0
  0
APPID
  5
1D19
330
15
100
AcDbSymbolTableRecord
100
AcDbRegAppTableRecord
  2
GENIUS_GEFCFG0_13
 70
     0
1001
GENIUS_GENCFG_13
1071
945881022
1000
1D19
1000
GEF
1070
     5
1000
GenCfgObject
1000
GenCfgString
1000
GenCfgReal
1000
GenCfgShort
1000
GenCfgBool
1000
System
1070
     0
1002
{
1002
}
1000
Prese
1070
     0
1002
{
1000
Funk
1070
     1
1000

1002
{
1002
}
1000
FunkDef
1070
     1
1000

1002
{
1002
}
1000
GefIso
1070
     1
1000
DIN
1002
{
1002
}
1002
}
1000
FEM
1070
     0
1002
{
1000
LayGroup
1070
     1
1000
FEM
1002
{
1002
}
1000
IncrCoef
1070
     2
1040
0.0
1002
{
1002
}
1002
}
1000
Shaft
1070
     0
1002
{
1000
Interrupt
1070
     3
1070
     0
1002
{
1002
}
1002
}
1000
PartDb
1070
     0
1002
{
1000
PartCreate
1070
     0
1002
{
1002
}
1000
SCP
1070
     0
1002
{
1002
}
1000
Symbol
1070
     0
1002
{
1002
}
1002
}
1000
Symbol
1070
     0
1002
{
1000
WeldStyle
1070
     1
1000
ISO
1002
{
1002
}
1000
WeldSize
1070
     2
1040
1.0
1002
{
1002
}
1000
WeldFlag
1070
     4
1070
     1
1002
{
1002
}
1000
WeldOffset
1070
     4
1070
     1
1002
{
1002
}
1000
TolCType
1070
     1
1000
ISO
1002
{
1002
}
1000
TolCSize
1070
     2
1040
1.0
1002
{
1002
}
1000
STextureSize
1070
     2
1040
1.0
1002
{
1002
}
1000
SurfaceType
1070
     1
1000

1002
{
1002
}
1000
M
1070
     0
1002
{
1000
WeldWidth
1070
     2
1040
3.0
1002
{
1002
}
1002
}
1000
I
1070
     0
1002
{
1000
WeldWidth
1070
     2
1040
0.125
1002
{
1002
}
1002
}
1002
}
  0
APPID
  5
1F99
330
15
100
AcDbSymbolTableRecord
100
AcDbRegAppTableRecord
  2
GENIUS_GENOBJ-N-TIT_13
 70
     0
  0
APPID
  5
1F9A
330
15
100
AcDbSymbolTableRecord
100
AcDbRegAppTableRecord
  2
GENIUS_GENTITLE_13
 70
     0
  0
APPID
  5
1F9B
330
15
100
AcDbSymbolTableRecord
100
AcDbRegAppTableRecord
  2
GENIUS_GENOREF_13
 70
     0
  0
APPID
  5
1F9C
330
15
100
AcDbSymbolTableRecord
100
AcDbRegAppTableRecord
  2
GENIUS_GENOLIS_13
 70
     0
  0
APPID
  5
1F9D
330
15
100
AcDbSymbolTableRecord
100
AcDbRegAppTableRecord
  2
GENIUS_GENZVEED_13
 70
     0
  0
APPID
  5
1F9E
330
15
100
AcDbSymbolTableRecord
100
AcDbRegAppTableRecord
  2
GENIUS_GENOBJ-N-SDF_13
 70
     0
  0
APPID
  5
1F9F
330
15
100
AcDbSymbolTableRecord
100
AcDbRegAppTableRecord
  2
GENIUS_GENSCREG_13
 70
     0
  0
APPID
  5
3F06
330
15
100
AcDbSymbolTableRecord
100
AcDbRegAppTableRecord
  2
AME_SOL
 70
     0
  0
APPID
  5
3F07
330
15
100
AcDbSymbolTableRecord
100
AcDbRegAppTableRecord
  2
GENIUS_GENOBJ-N-CEN_13
 70
     0
  0
APPID
  5
3F08
330
15
100
AcDbSymbolTableRecord
100
AcDbRegAppTableRecord
  2
ASM_EXPLO_PROJECT
 70
     0
  0
APPID
  5
3F09
330
15
100
AcDbSymbolTableRecord
100
AcDbRegAppTableRecord
  2
ASM_EXPLO_PROJECT_BASE
 70
     0
  0
APPID
  5
3F0A
330
15
100
AcDbSymbolTableRecord
100
AcDbRegAppTableRecord
  2
ASM_EXPLO_FILLET
 70
     0
  0
APPID
  5
3F0B
330
15
100
AcDbSymbolTableRecord
100
AcDbRegAppTableRecord
  2
ASM_EXPLO_FOR_FILLET
 70
     0
  0
APPID
  5
3F0C
330
15
100
AcDbSymbolTableRecord
100
AcDbRegAppTableRecord
  2
ASM
 70
     0
  0
APPID
  5
3F0D
330
15
100
AcDbSymbolTableRecord
100
AcDbRegAppTableRecord
  2
GENIUS_GENDREL_13
 70
     0
  0
APPID
  5
3F0E
330
15
100
AcDbSymbolTableRecord
100
AcDbRegAppTableRecord
  2
GENIUS_GENOBJ-N-FIL_13
 70
     0
  0
APPID
  5
3F0F
330
15
100
AcDbSymbolTableRecord
100
AcDbRegAppTableRecord
  2
GENIUS_GENOBJ-F-SUF_13
 70
     0
  0
APPID
  5
3F10
330
15
100
AcDbSymbolTableRecord
100
AcDbRegAppTableRecord
  2
GENIUS_GENOBJ-F-SUL_13
 70
     0
  0
APPID
  5
3F11
330
15
100
AcDbSymbolTableRecord
100
AcDbRegAppTableRecord
  2
GENIUS_GENOBJ-N-SEC_13
 70
     0
  0
APPID
  5
3F12
330
15
100
AcDbSymbolTableRecord
100
AcDbRegAppTableRecord
  2
GENIUS_GENOBJ-N-HTC_13
 70
     0
  0
APPID
  5
3F13
330
15
100
AcDbSymbolTableRecord
100
AcDbRegAppTableRecord
  2
GENIUS_GENHATCH_13
 70
     0
  0
APPID
  5
3F14
330
15
100
AcDbSymbolTableRecord
100
AcDbRegAppTableRecord
  2
GENIUS_GENBH_13
 70
     0
  0
APPID
  5
3F15
330
15
100
AcDbSymbolTableRecord
100
AcDbRegAppTableRecord
  2
GENIUS_GENOBJ-NBEHI-BHF_13
 70
     0
  0
APPID
  5
3F16
330
15
100
AcDbSymbolTableRecord
100
AcDbRegAppTableRecord
  2
GENIUS_GENOBJ-NBEHI-BHB_13
 70
     0
  0
APPID
  5
3F17
330
15
100
AcDbSymbolTableRecord
100
AcDbRegAppTableRecord
  2
GEVID919184144
 70
     0
  0
APPID
  5
3F18
330
15
100
AcDbSymbolTableRecord
100
AcDbRegAppTableRecord
  2
GEVDC
 70
     0
  0
APPID
  5
3F19
330
15
100
AcDbSymbolTableRecord
100
AcDbRegAppTableRecord
  2
GEVCON
 70
     0
  0
APPID
  5
3F1A
330
15
100
AcDbSymbolTableRecord
100
AcDbRegAppTableRecord
  2
VCC
 70
     0
  0
APPID
  5
3F1B
330
15
100
AcDbSymbolTableRecord
100
AcDbRegAppTableRecord
  2
GEVPT
 70
     0
  0
APPID
  5
3F1C
330
15
100
AcDbSymbolTableRecord
100
AcDbRegAppTableRecord
  2
GEVIT
 70
     0
  0
APPID
  5
3F1D
330
15
100
AcDbSymbolTableRecord
100
AcDbRegAppTableRecord
  2
GENBH
 70
     0
  0
APPID
  5
3F1E
330
15
100
AcDbSymbolTableRecord
100
AcDbRegAppTableRecord
  2
GEVMK
 70
     0
  0
APPID
  5
3F1F
330
15
100
AcDbSymbolTableRecord
100
AcDbRegAppTableRecord
  2
GENIUS_GENOBJ-F-DESC_13
 70
     0
  0
APPID
  5
3F20
330
15
100
AcDbSymbolTableRecord
100
AcDbRegAppTableRecord
  2
GENIUS_GEFDESC_14
 70
     0
  0
APPID
  5
3F21
330
15
100
AcDbSymbolTableRecord
100
AcDbRegAppTableRecord
  2
GENIUS_GENOBJ-F-PART_13
 70
     0
  0
APPID
  5
3F22
330
15
100
AcDbSymbolTableRecord
100
AcDbRegAppTableRecord
  2
GENIUS_GEFSTDP_13
 70
     0
  0
APPID
  5
3F23
330
15
100
AcDbSymbolTableRecord
100
AcDbRegAppTableRecord
  2
GENIUS_GEFPARTINS_13
 70
     0
  0
APPID
  5
3F24
330
15
100
AcDbSymbolTableRecord
100
AcDbRegAppTableRecord
  2
GENIUS_GENTRA_14
 70
     0
  0
APPID
  5
3F25
330
15
100
AcDbSymbolTableRecord
100
AcDbRegAppTableRecord
  2
GENIUS_GENINF13_13
 70
     0
  0
APPID
  5
3F26
330
15
100
AcDbSymbolTableRecord
100
AcDbRegAppTableRecord
  2
GENIUS_GENOBJ-N-INFOPT_13
 70
     0
  0
APPID
  5
3F27
330
15
100
AcDbSymbolTableRecord
100
AcDbRegAppTableRecord
  2
GENIUS_GENOBJ-N-RSSYM_13
 70
     0
  0
APPID
  5
3F28
330
15
100
AcDbSymbolTableRecord
100
AcDbRegAppTableRecord
  2
GENIUS_GENSYMENT_13
 70
     0
  0
APPID
  5
3F29
330
15
100
AcDbSymbolTableRecord
100
AcDbRegAppTableRecord
  2
GENIUS_GENSCSYM_13
 70
     0
  0
APPID
  5
3F2A
330
15
100
AcDbSymbolTableRecord
100
AcDbRegAppTableRecord
  2
GENIUS_GEFINFNAM_13
 70
     0
  0
APPID
  5
3F2B
330
15
100
AcDbSymbolTableRecord
100
AcDbRegAppTableRecord
  2
GEVID919184145
 70
     0
  0
APPID
  5
3F2C
330
15
100
AcDbSymbolTableRecord
100
AcDbRegAppTableRecord
  2
GEVID919184146
 70
     0
  0
APPID
  5
3F2D
330
15
100
AcDbSymbolTableRecord
100
AcDbRegAppTableRecord
  2
GEVID919184147
 70
     0
  0
APPID
  5
3F2E
330
15
100
AcDbSymbolTableRecord
100
AcDbRegAppTableRecord
  2
GEVID919184148
 70
     0
  0
APPID
  5
3F2F
330
15
100
AcDbSymbolTableRecord
100
AcDbRegAppTableRecord
  2
GEVID919185332
 70
     0
  0
APPID
  5
3F30
330
15
100
AcDbSymbolTableRecord
100
AcDbRegAppTableRecord
  2
GEVID919186210
 70
     0
  0
APPID
  5
3F31
330
15
100
AcDbSymbolTableRecord
100
AcDbRegAppTableRecord
  2
GEVID919236534
 70
     0
  0
APPID
  5
3F32
330
15
100
AcDbSymbolTableRecord
100
AcDbRegAppTableRecord
  2
GEVID919236535
 70
     0
  0
APPID
  5
3F33
330
15
100
AcDbSymbolTableRecord
100
AcDbRegAppTableRecord
  2
GEVID919240341
 70
     0
  0
APPID
  5
3F34
330
15
100
AcDbSymbolTableRecord
100
AcDbRegAppTableRecord
  2
GEVID919240342
 70
     0
  0
APPID
  5
3F35
330
15
100
AcDbSymbolTableRecord
100
AcDbRegAppTableRecord
  2
GEVID919240343
 70
     0
  0
APPID
  5
3F36
330
15
100
AcDbSymbolTableRecord
100
AcDbRegAppTableRecord
  2
GEVID919240344
 70
     0
  0
APPID
  5
3F37
330
15
100
AcDbSymbolTableRecord
100
AcDbRegAppTableRecord
  2
GENIUS_GENOBJ-F-SHCL_13
 70
     0
  0
APPID
  5
3F38
330
15
100
AcDbSymbolTableRecord
100
AcDbRegAppTableRecord
  2
GENIUS_GEFMSH_13
 70
     0
  0
APPID
  5
3F39
330
15
100
AcDbSymbolTableRecord
100
AcDbRegAppTableRecord
  2
GENIUS_GEFSH_13
 70
     0
  0
APPID
  5
3F3A
330
15
100
AcDbSymbolTableRecord
100
AcDbRegAppTableRecord
  2
GENIUS_GEFSHP_13
 70
     0
  0
APPID
  5
3F3B
330
15
100
AcDbSymbolTableRecord
100
AcDbRegAppTableRecord
  2
GENIUS_GENOBJ-F-SHS_13
 70
     0
  0
APPID
  5
3F3C
330
15
100
AcDbSymbolTableRecord
100
AcDbRegAppTableRecord
  2
GENIUS_GENOBJ-F-SHSS_13
 70
     0
  0
APPID
  5
3F3D
330
15
100
AcDbSymbolTableRecord
100
AcDbRegAppTableRecord
  2
GEVID919243987
 70
     0
  0
APPID
  5
3F3E
330
15
100
AcDbSymbolTableRecord
100
AcDbRegAppTableRecord
  2
GEVID919243988
 70
     0
  0
APPID
  5
3F3F
330
15
100
AcDbSymbolTableRecord
100
AcDbRegAppTableRecord
  2
GEVID919243989
 70
     0
  0
APPID
  5
3F40
330
15
100
AcDbSymbolTableRecord
100
AcDbRegAppTableRecord
  2
GEVID919243990
 70
     0
  0
APPID
  5
3F41
330
15
100
AcDbSymbolTableRecord
100
AcDbRegAppTableRecord
  2
GEVID919243991
 70
     0
  0
APPID
  5
3F42
330
15
100
AcDbSymbolTableRecord
100
AcDbRegAppTableRecord
  2
GEVID919266371
 70
     0
  0
APPID
  5
3F43
330
15
100
AcDbSymbolTableRecord
100
AcDbRegAppTableRecord
  2
GEVID919243992
 70
     0
  0
APPID
  5
3F44
330
15
100
AcDbSymbolTableRecord
100
AcDbRegAppTableRecord
  2
GEVID919243993
 70
     0
  0
APPID
  5
3F45
330
15
100
AcDbSymbolTableRecord
100
AcDbRegAppTableRecord
  2
GEVID919243994
 70
     0
  0
APPID
  5
3F46
330
15
100
AcDbSymbolTableRecord
100
AcDbRegAppTableRecord
  2
GEVID919271867
 70
     0
  0
APPID
  5
3F47
330
15
100
AcDbSymbolTableRecord
100
AcDbRegAppTableRecord
  2
GEVID919271870
 70
     0
  0
APPID
  5
3F48
330
15
100
AcDbSymbolTableRecord
100
AcDbRegAppTableRecord
  2
GEVID919271881
 70
     0
  0
APPID
  5
3F49
330
15
100
AcDbSymbolTableRecord
100
AcDbRegAppTableRecord
  2
GEVID919271882
 70
     0
  0
APPID
  5
3F4A
330
15
100
AcDbSymbolTableRecord
100
AcDbRegAppTableRecord
  2
GEVID919271883
 70
     0
  0
APPID
  5
3F4B
330
15
100
AcDbSymbolTableRecord
100
AcDbRegAppTableRecord
  2
GEVID919271884
 70
     0
  0
APPID
  5
3F4C
330
15
100
AcDbSymbolTableRecord
100
AcDbRegAppTableRecord
  2
GEVID919271885
 70
     0
  0
APPID
  5
3F4D
330
15
100
AcDbSymbolTableRecord
100
AcDbRegAppTableRecord
  2
GEVID919271886
 70
     0
  0
APPID
  5
3F4E
330
15
100
AcDbSymbolTableRecord
100
AcDbRegAppTableRecord
  2
GEVID919271887
 70
     0
  0
APPID
  5
3F4F
330
15
100
AcDbSymbolTableRecord
100
AcDbRegAppTableRecord
  2
GEVID919271888
 70
     0
  0
APPID
  5
3F50
330
15
100
AcDbSymbolTableRecord
100
AcDbRegAppTableRecord
  2
GEVID919271889
 70
     0
  0
APPID
  5
3F51
330
15
100
AcDbSymbolTableRecord
100
AcDbRegAppTableRecord
  2
GEVID910617597
 70
     0
  0
APPID
  5
3F52
330
15
100
AcDbSymbolTableRecord
100
AcDbRegAppTableRecord
  2
GENIUS_GENOBJ-F-FEAT_13
 70
     0
  0
APPID
  5
3F53
330
15
100
AcDbSymbolTableRecord
100
AcDbRegAppTableRecord
  2
GENIUS_GEFFEAT_14
 70
     0
  0
APPID
  5
3F54
330
15
100
AcDbSymbolTableRecord
100
AcDbRegAppTableRecord
  2
GENIUS_GENOBJ-N-CRS_13
 70
     0
  0
APPID
  5
3F55
330
15
100
AcDbSymbolTableRecord
100
AcDbRegAppTableRecord
  2
GEVID910617598
 70
     0
  0
APPID
  5
3F56
330
15
100
AcDbSymbolTableRecord
100
AcDbRegAppTableRecord
  2
GENIUS_GENHINW_13
 70
     0
  0
APPID
  5
3F57
330
15
100
AcDbSymbolTableRecord
100
AcDbRegAppTableRecord
  2
GENIUS_FIRSTVISTXT_14
 70
     0
  0
APPID
  5
3F58
330
15
100
AcDbSymbolTableRecord
100
AcDbRegAppTableRecord
  2
GENIUS_GENOBJ-N-LEADER_13
 70
     0
  0
APPID
  5
3F59
330
15
100
AcDbSymbolTableRecord
100
AcDbRegAppTableRecord
  2
GEVID918830714
 70
     0
  0
APPID
  5
3F5A
330
15
100
AcDbSymbolTableRecord
100
AcDbRegAppTableRecord
  2
GENIUS_GENBH_14
 70
     0
  0
APPID
  5
3F5B
330
15
100
AcDbSymbolTableRecord
100
AcDbRegAppTableRecord
  2
GENIUS_GENFIL_13
 70
     0
  0
APPID
  5
3F5C
330
15
100
AcDbSymbolTableRecord
100
AcDbRegAppTableRecord
  2
GENIUS_GENOBJ-N-CHA_13
 70
     0
  0
APPID
  5
3F5D
330
15
100
AcDbSymbolTableRecord
100
AcDbRegAppTableRecord
  2
GEVID918830715
 70
     0
  0
APPID
  5
3F5E
330
15
100
AcDbSymbolTableRecord
100
AcDbRegAppTableRecord
  2
GENIUS_GENDIM_13
 70
     0
  0
APPID
  5
3F5F
330
15
100
AcDbSymbolTableRecord
100
AcDbRegAppTableRecord
  2
GENIUS_GENOBJ-N-DIS_13
 70
     0
  0
APPID
  5
3F60
330
15
100
AcDbSymbolTableRecord
100
AcDbRegAppTableRecord
  2
GENIUS_GENDIMSH_14
 70
     0
  0
APPID
  5
3F61
330
15
100
AcDbSymbolTableRecord
100
AcDbRegAppTableRecord
  2
GENIUS_GENOBJ-N-DIM_13
 70
     0
  0
APPID
  5
3F62
330
15
100
AcDbSymbolTableRecord
100
AcDbRegAppTableRecord
  2
GEVID919088539
 70
     0
  0
APPID
  5
3F63
330
15
100
AcDbSymbolTableRecord
100
AcDbRegAppTableRecord
  2
GEVID919088540
 70
     0
  0
APPID
  5
3F64
330
15
100
AcDbSymbolTableRecord
100
AcDbRegAppTableRecord
  2
GEVID919088542
 70
     0
  0
APPID
  5
3F65
330
15
100
AcDbSymbolTableRecord
100
AcDbRegAppTableRecord
  2
GEVID919088543
 70
     0
  0
APPID
  5
3F66
330
15
100
AcDbSymbolTableRecord
100
AcDbRegAppTableRecord
  2
GEVID919088544
 70
     0
  0
APPID
  5
3F67
330
15
100
AcDbSymbolTableRecord
100
AcDbRegAppTableRecord
  2
GEVID919088545
 70
     0
  0
APPID
  5
3F68
330
15
100
AcDbSymbolTableRecord
100
AcDbRegAppTableRecord
  2
GEVID919088546
 70
     0
  0
APPID
  5
3F69
330
15
100
AcDbSymbolTableRecord
100
AcDbRegAppTableRecord
  2
GEVID919324356
 70
     0
  0
APPID
  5
3F6A
330
15
100
AcDbSymbolTableRecord
100
AcDbRegAppTableRecord
  2
GEVID919088547
 70
     0
  0
APPID
  5
3F6B
330
15
100
AcDbSymbolTableRecord
100
AcDbRegAppTableRecord
  2
GEVID928918755
 70
     0
  0
APPID
  5
3F6C
330
15
100
AcDbSymbolTableRecord
100
AcDbRegAppTableRecord
  2
GEVID928918786
 70
     0
  0
APPID
  5
3F6D
330
15
100
AcDbSymbolTableRecord
100
AcDbRegAppTableRecord
  2
GEVID928918919
 70
     0
  0
APPID
  5
3F6E
330
15
100
AcDbSymbolTableRecord
100
AcDbRegAppTableRecord
  2
GEVID928918943
 70
     0
  0
APPID
  5
3F6F
330
15
100
AcDbSymbolTableRecord
100
AcDbRegAppTableRecord
  2
GEVID940325432
 70
     0
  0
APPID
  5
3F70
330
15
100
AcDbSymbolTableRecord
100
AcDbRegAppTableRecord
  2
GENIUS_GEFWELD_13
 70
     0
  0
APPID
  5
3F71
330
15
100
AcDbSymbolTableRecord
100
AcDbRegAppTableRecord
  2
GENIUS_GENOBJ-F-WELS_13
 70
     0
  0
APPID
  5
3F72
330
15
100
AcDbSymbolTableRecord
100
AcDbRegAppTableRecord
  2
GEVID927807498
 70
     0
  0
APPID
  5
3F73
330
15
100
AcDbSymbolTableRecord
100
AcDbRegAppTableRecord
  2
GEVID930154407
 70
     0
  0
APPID
  5
3F74
330
15
100
AcDbSymbolTableRecord
100
AcDbRegAppTableRecord
  2
GEVID930207636
 70
     0
  0
APPID
  5
3F75
330
15
100
AcDbSymbolTableRecord
100
AcDbRegAppTableRecord
  2
GEVID937560397
 70
     0
  0
APPID
  5
3F76
330
15
100
AcDbSymbolTableRecord
100
AcDbRegAppTableRecord
  2
GEVID940325603
 70
     0
  0
APPID
  5
3F77
330
15
100
AcDbSymbolTableRecord
100
AcDbRegAppTableRecord
  2
GEVID940325604
 70
     0
  0
APPID
  5
3F78
330
15
100
AcDbSymbolTableRecord
100
AcDbRegAppTableRecord
  2
GEVID940325607
 70
     0
  0
APPID
  5
3F79
330
15
100
AcDbSymbolTableRecord
100
AcDbRegAppTableRecord
  2
GEVID940325631
 70
     0
  0
APPID
  5
3F7A
330
15
100
AcDbSymbolTableRecord
100
AcDbRegAppTableRecord
  2
GEVID940325632
 70
     0
  0
APPID
  5
3F7B
330
15
100
AcDbSymbolTableRecord
100
AcDbRegAppTableRecord
  2
GEVID940325633
 70
     0
  0
APPID
  5
3F7C
330
15
100
AcDbSymbolTableRecord
100
AcDbRegAppTableRecord
  2
GEVID943435734
 70
     0
  0
APPID
  5
3F7D
330
15
100
AcDbSymbolTableRecord
100
AcDbRegAppTableRecord
  2
GEVID943435735
 70
     0
  0
APPID
  5
3F7E
330
15
100
AcDbSymbolTableRecord
100
AcDbRegAppTableRecord
  2
GEVID910782132
 70
     0
  0
APPID
  5
3F7F
330
15
100
AcDbSymbolTableRecord
100
AcDbRegAppTableRecord
  2
GEVID910782133
 70
     0
  0
APPID
  5
3F80
330
15
100
AcDbSymbolTableRecord
100
AcDbRegAppTableRecord
  2
GEVID910782135
 70
     0
  0
APPID
  5
3F81
330
15
100
AcDbSymbolTableRecord
100
AcDbRegAppTableRecord
  2
GEVID910782136
 70
     0
  0
APPID
  5
3F82
330
15
100
AcDbSymbolTableRecord
100
AcDbRegAppTableRecord
  2
GEVID910782137
 70
     0
  0
APPID
  5
3F83
330
15
100
AcDbSymbolTableRecord
100
AcDbRegAppTableRecord
  2
GEVID910780395
 70
     0
  0
APPID
  5
3F84
330
15
100
AcDbSymbolTableRecord
100
AcDbRegAppTableRecord
  2
GEVID910780396
 70
     0
  0
APPID
  5
3F85
330
15
100
AcDbSymbolTableRecord
100
AcDbRegAppTableRecord
  2
GEVID910780397
 70
     0
  0
APPID
  5
3F86
330
15
100
AcDbSymbolTableRecord
100
AcDbRegAppTableRecord
  2
GEVID910780398
 70
     0
  0
APPID
  5
3F87
330
15
100
AcDbSymbolTableRecord
100
AcDbRegAppTableRecord
  2
GEVID910780399
 70
     0
  0
APPID
  5
3F88
330
15
100
AcDbSymbolTableRecord
100
AcDbRegAppTableRecord
  2
GEVID910780400
 70
     0
  0
APPID
  5
3F89
330
15
100
AcDbSymbolTableRecord
100
AcDbRegAppTableRecord
  2
GEVID910780401
 70
     0
  0
APPID
  5
3F8A
330
15
100
AcDbSymbolTableRecord
100
AcDbRegAppTableRecord
  2
GEVID910780403
 70
     0
  0
APPID
  5
3F8B
330
15
100
AcDbSymbolTableRecord
100
AcDbRegAppTableRecord
  2
GEVID910782126
 70
     0
  0
APPID
  5
3F8C
330
15
100
AcDbSymbolTableRecord
100
AcDbRegAppTableRecord
  2
GEVID910782205
 70
     0
  0
APPID
  5
3F8D
330
15
100
AcDbSymbolTableRecord
100
AcDbRegAppTableRecord
  2
GEVID910782127
 70
     0
  0
APPID
  5
3F8E
330
15
100
AcDbSymbolTableRecord
100
AcDbRegAppTableRecord
  2
GEVID910782128
 70
     0
  0
APPID
  5
3F8F
330
15
100
AcDbSymbolTableRecord
100
AcDbRegAppTableRecord
  2
GEVID910782129
 70
     0
  0
APPID
  5
3F90
330
15
100
AcDbSymbolTableRecord
100
AcDbRegAppTableRecord
  2
GEVID910782130
 70
     0
  0
APPID
  5
3F91
330
15
100
AcDbSymbolTableRecord
100
AcDbRegAppTableRecord
  2
GEVID910782131
 70
     0
  0
APPID
  5
3F92
330
15
100
AcDbSymbolTableRecord
100
AcDbRegAppTableRecord
  2
GENIUS_GENBLKED_14
 70
     0
  0
APPID
  5
3F93
330
15
100
AcDbSymbolTableRecord
100
AcDbRegAppTableRecord
  2
GENIUS_DUMCFG0_13
 70
     0
  0
APPID
  5
E0CF
330
15
100
AcDbSymbolTableRecord
100
AcDbRegAppTableRecord
  2
GEVID913620478
 70
     0
  0
APPID
  5
E0D0
330
15
100
AcDbSymbolTableRecord
100
AcDbRegAppTableRecord
  2
GENIUS_GENBHRL_14
 70
     0
  0
APPID
  5
E0D1
330
15
100
AcDbSymbolTableRecord
100
AcDbRegAppTableRecord
  2
GENIUS_GENOBJ-N-ZOO_13
 70
     0
  0
APPID
  5
E0D2
330
15
100
AcDbSymbolTableRecord
100
AcDbRegAppTableRecord
  2
GENIUS_GENZOO_13
 70
     0
  0
APPID
  5
137D9
330
15
100
AcDbSymbolTableRecord
100
AcDbRegAppTableRecord
  2
GEVID918481383
 70
     0
  0
APPID
  5
137DA
330
15
100
AcDbSymbolTableRecord
100
AcDbRegAppTableRecord
  2
GEVRADREF
 70
     0
  0
APPID
  5
13BBB
330
15
100
AcDbSymbolTableRecord
100
AcDbRegAppTableRecord
  2
GEVID945699651
 70
     0
  0
APPID
  5
13CFC
330
15
100
AcDbSymbolTableRecord
100
AcDbRegAppTableRecord
  2
GEVID918481384
 70
     0
  0
APPID
  5
140FC
330
15
100
AcDbSymbolTableRecord
100
AcDbRegAppTableRecord
  2
GEVID945699684
 70
     0
  0
APPID
  5
1429F
330
15
100
AcDbSymbolTableRecord
100
AcDbRegAppTableRecord
  2
GEVID945699793
 70
     0
  0
APPID
  5
143E9
330
15
100
AcDbSymbolTableRecord
100
AcDbRegAppTableRecord
  2
GEVID945699873
 70
     0
  0
APPID
  5
1B7D1
330
15
100
AcDbSymbolTableRecord
100
AcDbRegAppTableRecord
  2
MCAD_NO_VIS
 70
     0
  0
APPID
  5
1B7D2
330
15
100
AcDbSymbolTableRecord
100
AcDbRegAppTableRecord
  2
ACAD_TEMP_GRAPHIC
 70
     0
  0
APPID
  5
1B7D3
330
15
100
AcDbSymbolTableRecord
100
AcDbRegAppTableRecord
  2
ACATTRIBSERVICES
 70
     0
  0
APPID
  5
1B7D4
330
15
100
AcDbSymbolTableRecord
100
AcDbRegAppTableRecord
  2
GENIUS_GENSCREG_15
 70
     0
  0
APPID
  5
1BBF6
330
15
100
AcDbSymbolTableRecord
100
AcDbRegAppTableRecord
  2
GENLAYCOLOR
 70
     0
  0
ENDTAB
  0
TABLE
  2
DIMSTYLE
  5
17
330
0
100
AcDbSymbolTable
 70
    16
100
AcDbDimStyleTable
 71
     2
340
1B81F
340
186C
  0
DIMSTYLE
105
186C
102
{ACAD_REACTORS
330
1B83C
330
1B845
330
1B844
330
1B843
330
1B83A
330
1B882
330
1B855
330
1BAE5
330
1BB81
102
}
330
17
100
AcDbSymbolTableRecord
100
AcDbDimStyleTableRecord
  2
GEN-ISO
 70
     0
  3
<>
  4
"
 41
1.5
 42
1.0
 43
10.0
 44
1.0
 47
0.1
 48
0.1
 73
     0
 74
     0
 77
     1
 78
     8
140
1.0
141
1.0
143
0.0393701
146
0.71
147
0.6
172
     1
176
   256
177
   256
178
     7
271
     2
272
     3
274
     4
283
     0
340
1D
  0
DIMSTYLE
105
1D12
330
17
100
AcDbSymbolTableRecord
100
AcDbDimStyleTableRecord
  2
STANDARD
 70
     0
340
E
  0
DIMSTYLE
105
1B81F
330
17
100
AcDbSymbolTableRecord
100
AcDbDimStyleTableRecord
  2
AM_ISO
 70
     0
  4
"
 41
2.5
 42
1.0
 43
10.0
 44
1.0
 47
0.1
 48
0.1
 73
     0
 74
     0
 77
     1
 78
     8
 79
     2
140
3.5
141
0.0
143
0.0393701
146
0.71
147
1.5
172
     1
176
   256
177
   256
178
     2
271
     2
272
     3
274
     4
283
     0
284
     8
340
E
371
    -1
372
    -1
  0
DIMSTYLE
105
1B820
330
17
100
AcDbSymbolTableRecord
100
AcDbDimStyleTableRecord
  2
AM_ISO$3
 70
     0
  4
"
 41
2.5
 42
1.0
 43
10.0
 44
1.0
 47
0.1
 48
0.1
 73
     0
 77
     1
 78
     8
 79
     2
140
3.5
141
0.0
143
0.0393701
146
0.71
147
1.5
176
   256
177
   256
178
     2
271
     2
272
     3
274
     4
283
     0
284
     8
288
     1
289
     0
340
E
371
    -1
372
    -1
  0
DIMSTYLE
105
1B821
330
17
100
AcDbSymbolTableRecord
100
AcDbDimStyleTableRecord
  2
AM_ISO$4
 70
     0
  4
"
 41
2.5
 42
1.0
 43
10.0
 44
1.0
 47
0.1
 48
0.1
 73
     0
 77
     1
 78
     8
 79
     2
140
3.5
141
0.0
143
0.0393701
146
0.71
147
1.5
176
   256
177
   256
178
     2
271
     2
272
     3
274
     4
283
     0
284
     8
288
     1
289
     0
340
E
371
    -1
372
    -1
  0
DIMSTYLE
105
1B822
330
17
100
AcDbSymbolTableRecord
100
AcDbDimStyleTableRecord
  2
AM_ISO$6
 70
     0
  4
"
 41
2.5
 42
1.0
 43
10.0
 44
1.0
 47
0.1
 48
0.1
 73
     0
 74
     0
 78
     8
 79
     2
140
3.5
141
0.0
143
0.0393701
146
0.71
147
1.5
172
     1
176
   256
177
   256
178
     2
271
     2
272
     3
274
     4
283
     0
284
     8
340
E
371
    -1
372
    -1
  0
DIMSTYLE
105
1B823
330
17
100
AcDbSymbolTableRecord
100
AcDbDimStyleTableRecord
  2
AM_ISO$7
 70
     0
  4
"
 41
2.5
 42
1.0
 43
10.0
 44
1.0
 47
0.1
 48
0.1
 73
     0
 74
     0
 77
     1
 78
     8
 79
     2
140
5.0
141
0.0
143
0.0393701
146
0.71
147
1.5
172
     1
176
   256
177
   256
178
     2
271
     2
272
     3
274
     4
283
     0
284
     8
340
E
371
    -1
372
    -1
  0
DIMSTYLE
105
1B824
330
17
100
AcDbSymbolTableRecord
100
AcDbDimStyleTableRecord
  2
AM_ISO$SF
 70
     0
  4
"
 41
2.5
 42
1.0
 43
10.0
 44
1.0
 47
0.1
 48
0.1
 73
     0
 74
     0
 75
     1
 76
     1
 77
     1
 78
     8
 79
     2
140
3.5
141
0.0
143
0.0393701
146
0.71
147
1.5
172
     1
176
   256
177
   256
178
     2
271
     2
272
     3
274
     4
283
     0
284
     8
340
E
371
    -1
372
    -1
  0
DIMSTYLE
105
1B825
330
17
100
AcDbSymbolTableRecord
100
AcDbDimStyleTableRecord
  2
AM_ISO$SH
 70
     0
  4
"
 41
2.5
 42
1.0
 43
10.0
 44
1.0
 47
0.1
 48
0.1
 73
     0
 74
     0
 75
     1
 76
     1
 77
     1
 78
     8
 79
     2
140
3.5
141
0.0
143
0.0393701
144
2.0
146
0.71
147
1.5
172
     1
173
     1
176
   256
177
   256
178
     2
271
     2
272
     3
274
     4
283
     0
284
     8
340
E
343
1B826
371
    -1
372
    -1
  0
DIMSTYLE
105
1BE13
330
17
100
AcDbSymbolTableRecord
100
AcDbDimStyleTableRecord
  2
GEN-ISO$3
 70
     0
  4
"
 41
2.5
 42
1.0
 43
10.0
 44
1.0
 47
0.1
 48
0.1
 73
     0
 77
     1
 78
     8
140
3.5
141
0.0
143
0.0393701
146
0.71
147
1.5
176
   256
177
   256
178
     2
271
     2
272
     3
274
     4
283
     0
288
     1
289
     0
340
E
  0
DIMSTYLE
105
1BE14
330
17
100
AcDbSymbolTableRecord
100
AcDbDimStyleTableRecord
  2
GEN-ISO$4
 70
     0
  4
"
 41
2.5
 42
1.0
 43
10.0
 44
1.0
 47
0.1
 48
0.1
 73
     0
 77
     1
 78
     8
140
3.5
141
0.0
143
0.0393701
146
0.71
147
1.5
176
   256
177
   256
178
     2
271
     2
272
     3
274
     4
283
     0
288
     1
289
     0
340
E
  0
DIMSTYLE
105
1BE15
330
17
100
AcDbSymbolTableRecord
100
AcDbDimStyleTableRecord
  2
GEN-ISO$6
 70
     0
  4
"
 41
2.5
 42
1.0
 43
10.0
 44
1.0
 47
0.1
 48
0.1
 73
     0
 74
     0
 78
     8
140
3.5
141
0.0
143
0.0393701
146
0.71
147
1.5
176
   256
177
   256
178
     2
271
     2
272
     3
274
     4
283
     0
340
E
  0
DIMSTYLE
105
1BE16
330
17
100
AcDbSymbolTableRecord
100
AcDbDimStyleTableRecord
  2
GEN-ISO-POS
 70
     0
  4
"
 41
2.5
 42
1.0
 43
10.0
 44
1.0
 47
0.1
 48
0.1
 73
     0
 74
     0
 78
     8
140
5.0
141
0.0
143
0.0393701
146
0.71
147
1.5
176
   256
177
   256
178
     2
271
     2
272
     3
274
     4
283
     0
340
E
  0
DIMSTYLE
105
1BE17
330
17
100
AcDbSymbolTableRecord
100
AcDbDimStyleTableRecord
  2
GEN-ISO-AXE-F
 70
     0
  4
"
 41
2.5
 42
1.0
 43
10.0
 44
1.0
 47
0.1
 48
0.1
 73
     0
 74
     0
 75
     1
 76
     1
 77
     1
 78
     8
140
3.5
141
0.0
143
0.0393701
146
0.71
147
1.5
172
     1
176
   256
177
   256
178
     2
271
     2
272
     3
274
     4
283
     0
340
E
  0
DIMSTYLE
105
1BE18
330
17
100
AcDbSymbolTableRecord
100
AcDbDimStyleTableRecord
  2
GEN-ISO-AXE-H
 70
     0
  4
"
 41
2.5
 42
1.0
 43
10.0
 44
1.0
 47
0.1
 48
0.1
 73
     0
 74
     0
 75
     1
 76
     1
 77
     1
 78
     8
140
3.5
141
0.0
143
0.0393701
144
2.0
146
0.71
147
1.5
172
     1
173
     1
176
   256
177
   256
178
     2
271
     2
272
     3
274
     4
283
     0
340
E
343
1B826
  0
DIMSTYLE
105
1BE19
330
17
100
AcDbSymbolTableRecord
100
AcDbDimStyleTableRecord
  2
ISO-25
 70
     0
 41
2.5
 42
0.625
 43
3.75
 44
1.25
 73
     0
 74
     0
 77
     1
 78
     8
140
2.5
141
2.5
143
0.03937007874016
147
0.625
171
     3
172
     1
271
     2
272
     2
274
     3
278
    44
283
     0
284
     8
340
E
  0
ENDTAB
  0
TABLE
  2
BLOCK_RECORD
  5
1
330
0
100
AcDbSymbolTable
 70
    19
  0
BLOCK_RECORD
  5
2
102
{ACAD_XDICTIONARY
360
1BA3A
102
}
330
1
100
AcDbSymbolTableRecord
100
AcDbBlockTableRecord
  2
*MODEL_SPACE
340
1B7C2
  0
BLOCK_RECORD
  5
8
330
1
100
AcDbSymbolTableRecord
100
AcDbBlockTableRecord
  2
*PAPER_SPACE
340
1B7C3
  0
BLOCK_RECORD
  5
1D07
330
1
100
AcDbSymbolTableRecord
100
AcDbBlockTableRecord
  2
LAYER-GENIUS
340
0
102
{BLKREFS
331
1FA2
331
3FC1
331
3FCE
331
3FCF
331
4002
331
4003
331
401A
331
4021
331
4028
331
4029
331
4030
331
4031
331
4035
331
4040
331
4041
331
4042
331
4043
331
407F
331
408A
331
408B
331
40BE
331
40BF
331
40D6
331
40DD
331
40E4
331
40E5
331
40EC
331
40ED
331
40F1
331
40FC
331
40FD
331
40FE
331
40FF
331
412D
331
419C
331
4724
331
63DC
331
80CB
331
9733
331
A043
331
B04E
331
B0CF
331
B181
331
CC3F
331
CC44
331
CC50
331
D251
331
D252
331
D253
331
D254
331
F1C6
331
10159
331
10701
331
1199D
331
12EE2
331
13B09
331
1402C
331
156D6
331
15EE3
331
17192
331
17CAF
331
18337
331
18989
331
1898A
331
1898B
331
1898C
331
18E0F
331
193F4
331
198D3
331
1A51F
102
}
  0
BLOCK_RECORD
  5
20B7
330
1
100
AcDbSymbolTableRecord
100
AcDbBlockTableRecord
  2
ASM_TOLL
340
0
102
{BLKREFS
331
F038
331
F055
331
F06B
102
}
  0
BLOCK_RECORD
  5
261E
330
1
100
AcDbSymbolTableRecord
100
AcDbBlockTableRecord
  2
AME_NIL
340
0
102
{BLKREFS
331
3FB0
331
3FB2
331
3FB4
331
3FB6
331
3FB8
331
3FC4
331
3FC6
331
3FC8
331
3FCA
331
3FCC
331
3FD0
331
3FD2
331
3FD4
331
3FD6
331
3FD8
331
3FDA
331
3FDC
331
3FDE
331
3FE0
331
3FE2
331
3FE4
331
3FE6
331
3FE8
331
3FEA
331
3FEC
331
3FEE
331
3FF0
331
3FF3
331
3FF5
331
3FF7
331
3FF9
331
3FFB
331
3FFD
331
3FFF
331
4036
331
4038
331
403A
331
403C
331
403E
331
4075
331
4077
331
4079
331
407B
331
407D
331
4080
331
4082
331
4084
331
4086
331
4088
331
408C
331
408E
331
4090
331
4092
331
4094
331
4096
331
4098
331
409A
331
409C
331
409E
331
40A0
331
40A2
331
40A4
331
40A6
331
40A8
331
40AA
331
40AC
331
40AF
331
40B1
331
40B3
331
40B5
331
40B7
331
40B9
331
40BB
331
40F2
331
40F4
331
40F6
331
40F8
331
40FA
102
}
  0
BLOCK_RECORD
  5
2621
330
1
100
AcDbSymbolTableRecord
100
AcDbBlockTableRecord
  2
AME_SOL
340
0
102
{BLKREFS
331
3FB1
331
3FB3
331
3FB5
331
3FB7
331
3FB9
331
3FC5
331
3FC7
331
3FC9
331
3FCB
331
3FCD
331
3FD1
331
3FD3
331
3FD5
331
3FD7
331
3FD9
331
3FDB
331
3FDD
331
3FDF
331
3FE1
331
3FE3
331
3FE5
331
3FE7
331
3FE9
331
3FEB
331
3FED
331
3FEF
331
3FF1
331
3FF4
331
3FF6
331
3FF8
331
3FFA
331
3FFC
331
3FFE
331
4000
331
4037
331
4039
331
403B
331
403D
331
403F
331
4076
331
4078
331
407A
331
407C
331
407E
331
4081
331
4083
331
4085
331
4087
331
4089
331
408D
331
408F
331
4091
331
4093
331
4095
331
4097
331
4099
331
409B
331
409D
331
409F
331
40A1
331
40A3
331
40A5
331
40A7
331
40A9
331
40AB
331
40AD
331
40B0
331
40B2
331
40B4
331
40B6
331
40B8
331
40BA
331
40BC
331
40F3
331
40F5
331
40F7
331
40F9
331
40FB
102
}
  0
BLOCK_RECORD
  5
29E9
330
1
100
AcDbSymbolTableRecord
100
AcDbBlockTableRecord
  2
A3-ORIZZONTALE
340
0
  0
BLOCK_RECORD
  5
1B826
330
1
100
AcDbSymbolTableRecord
100
AcDbBlockTableRecord
  2
GENAXEH
340
0
  0
BLOCK_RECORD
  5
1B88C
330
1
100
AcDbSymbolTableRecord
100
AcDbBlockTableRecord
  2
*D6
340
0
  0
BLOCK_RECORD
  5
1B898
330
1
100
AcDbSymbolTableRecord
100
AcDbBlockTableRecord
  2
*D7
340
0
  0
BLOCK_RECORD
  5
1B8A6
330
1
100
AcDbSymbolTableRecord
100
AcDbBlockTableRecord
  2
*D8
340
0
  0
BLOCK_RECORD
  5
1B8B3
330
1
100
AcDbSymbolTableRecord
100
AcDbBlockTableRecord
  2
*D9
340
0
  0
BLOCK_RECORD
  5
1B8CB
330
1
100
AcDbSymbolTableRecord
100
AcDbBlockTableRecord
  2
*D10
340
0
  0
BLOCK_RECORD
  5
1B8D7
330
1
100
AcDbSymbolTableRecord
100
AcDbBlockTableRecord
  2
*D11
340
0
  0
BLOCK_RECORD
  5
1B8F1
330
1
100
AcDbSymbolTableRecord
100
AcDbBlockTableRecord
  2
*D12
340
0
  0
BLOCK_RECORD
  5
1BAE6
330
1
100
AcDbSymbolTableRecord
100
AcDbBlockTableRecord
  2
*D13
340
0
  0
BLOCK_RECORD
  5
1BB82
330
1
100
AcDbSymbolTableRecord
100
AcDbBlockTableRecord
  2
*D14
340
0
  0
BLOCK_RECORD
  5
1BD3F
330
1
100
AcDbSymbolTableRecord
100
AcDbBlockTableRecord
  2
COMUNELLO
340
0
102
{BLKREFS
331
1BD45
102
}
  0
BLOCK_RECORD
  5
1BE06
330
1
100
AcDbSymbolTableRecord
100
AcDbBlockTableRecord
  2
Prova
340
0
102
{BLKREFS
331
1BE28
102
}
  0
BLOCK_RECORD
  5
1BE1A
330
1
100
AcDbSymbolTableRecord
100
AcDbBlockTableRecord
  2
A4-ORIZZONTALE
340
0
102
{BLKREFS
331
1BE2C
331
1BE32
102
}
  0
BLOCK_RECORD
  5
1BE35
330
1
100
AcDbSymbolTableRecord
100
AcDbBlockTableRecord
  2
ASM_C4
340
0
102
{BLKREFS
331
1BEB1
102
}
  0
ENDTAB
  0
ENDSEC
  0
SECTION
  2
BLOCKS
  0
BLOCK
  5
3
330
2
100
AcDbEntity
  8
0
100
AcDbBlockBegin
  2
*MODEL_SPACE
 70
     0
 10
0.0
 20
0.0
 30
0.0
  3
*MODEL_SPACE
  1

  0
ENDBLK
  5
7
330
2
100
AcDbEntity
  8
0
100
AcDbBlockEnd
  0
BLOCK
  5
9
330
8
100
AcDbEntity
 67
     1
  8
0
100
AcDbBlockBegin
  2
*PAPER_SPACE
 70
     0
 10
0.0
 20
0.0
 30
0.0
  3
*PAPER_SPACE
  1

  0
ENDBLK
  5
A
330
8
100
AcDbEntity
 67
     1
  8
0
100
AcDbBlockEnd
  0
BLOCK
  5
1D08
330
1D07
100
AcDbEntity
  8
0
100
AcDbBlockBegin
  2
LAYER-GENIUS
 70
     0
 10
0.0
 20
0.0
 30
0.0
  3
LAYER-GENIUS
  1

  0
ENDBLK
  5
1D09
330
1D07
100
AcDbEntity
  8
0
100
AcDbBlockEnd
  0
BLOCK
  5
20BA
330
20B7
100
AcDbEntity
  8
0
100
AcDbBlockBegin
  2
ASM_TOLL
 70
     2
 10
0.0
 20
0.0
 30
0.0
  3
ASM_TOLL
  1

  0
ATTDEF
  5
20B8
330
20B7
100
AcDbEntity
  8
0
100
AcDbText
 10
0.0
 20
0.8062584376203858
 30
0.0
 40
0.57
  1
+0.1
  7
ISO
100
AcDbAttributeDefinition
  3
Immetti lo scostamento superiore:
  2
SCOSTSUP
 70
     0
  0
ATTDEF
  5
20B9
330
20B7
100
AcDbEntity
  8
0
100
AcDbText
 10
0.0
 20
0.0
 30
0.0
 40
0.57
  1
-0.1
  7
ISO
100
AcDbAttributeDefinition
  3
Immetti lo scostamento inferiore:
  2
SCOSTINF
 70
     0
  0
ENDBLK
  5
20BB
330
20B7
100
AcDbEntity
  8
0
100
AcDbBlockEnd
  0
BLOCK
  5
261F
330
261E
100
AcDbEntity
  8
0
100
AcDbBlockBegin
  2
AME_NIL
 70
     0
 10
0.0
 20
0.0
 30
0.0
  3
AME_NIL
  1
AME_NIL
  0
ENDBLK
  5
2620
330
261E
100
AcDbEntity
  8
0
100
AcDbBlockEnd
  0
BLOCK
  5
2622
330
2621
100
AcDbEntity
  8
0
100
AcDbBlockBegin
  2
AME_SOL
 70
     0
 10
0.0
 20
0.0
 30
0.0
  3
AME_SOL
  1
AME_SOL
  0
ENDBLK
  5
2623
330
2621
100
AcDbEntity
  8
0
100
AcDbBlockEnd
  0
BLOCK
  5
29F7
330
29E9
100
AcDbEntity
  8
0
100
AcDbBlockBegin
  2
A3-ORIZZONTALE
 70
     0
 10
0.0
 20
0.0
 30
0.0
  3
A3-ORIZZONTALE
  1

  0
LINE
  5
29EA
330
29E9
100
AcDbEntity
  8
AM_BOR
 62
     7
100
AcDbLine
 10
400.0
 20
277.0
 30
0.0
 11
0.0
 21
277.0
 31
0.0
1001
GENIUS_GENREC_14
1002
{
1000
PYDIR
1011
-10.0
1021
-10.0
1031
0.0
1002
}
1002
{
1000
PXDIR
1011
410.0
1021
287.0
1031
0.0
1002
}
1002
{
1000
PORI
1011
410.0
1021
-10.0
1031
0.0
1002
}
1002
{
1000
PINS
1011
410.0
1021
95.0
1031
0.0
1002
}
1002
{
1000
HVAL
1000
297
1002
}
1002
{
1000
H
1070
     2
1002
}
1002
{
1000
WVAL
1000
210
1002
}
1002
{
1000
W
1070
     2
1002
}
1002
{
1000
C
1070
     2
1002
}
1001
GENIUS_GENODEF_13
1002
{
1000
HIER
1070
     0
1002
}
1002
{
1000
MANEDIT
1070
     0
1002
}
1002
{
1000
NOSEL
1070
     0
1002
}
1002
{
1000
BEHIND
1070
     0
1002
}
1002
{
1000
REACTOR
1002
}
1001
GENIUS_GENOBJ-N-REC_13
1002
{
1000
OWNER
1000
GEN
1002
}
  0
LINE
  5
29EB
330
29E9
100
AcDbEntity
  8
AM_BOR
 62
     7
100
AcDbLine
 10
0.0
 20
0.0
 30
0.0
 11
400.0
 21
0.0
 31
0.0
1001
GENIUS_GENREC_14
1002
{
1000
PYDIR
1011
-10.0
1021
-10.0
1031
0.0
1002
}
1002
{
1000
PXDIR
1011
410.0
1021
200.0
1031
0.0
1002
}
1002
{
1000
PORI
1011
410.0
1021
-10.0
1031
0.0
1002
}
1002
{
1000
PINS
1011
410.0
1021
95.0
1031
0.0
1002
}
1002
{
1000
HVAL
1000
297
1002
}
1002
{
1000
H
1070
     2
1002
}
1002
{
1000
WVAL
1000
210
1002
}
1002
{
1000
W
1070
     2
1002
}
1002
{
1000
C
1070
     2
1002
}
1001
GENIUS_GENODEF_13
1002
{
1000
HIER
1070
     0
1002
}
1002
{
1000
MANEDIT
1070
     0
1002
}
1002
{
1000
NOSEL
1070
     0
1002
}
1002
{
1000
BEHIND
1070
     0
1002
}
1002
{
1000
REACTOR
1002
}
1001
GENIUS_GENOBJ-N-REC_13
1002
{
1000
OWNER
1000
GEN
1002
}
  0
LINE
  5
29EC
330
29E9
100
AcDbEntity
  8
AM_BOR
 62
     7
100
AcDbLine
 10
0.0
 20
277.0
 30
0.0
 11
0.0
 21
0.0
 31
0.0
1001
GENIUS_GENREC_14
1002
{
1000
PYDIR
1011
-10.0
1021
-10.0
1031
0.0
1002
}
1002
{
1000
PXDIR
1011
287.0
1021
287.0
1031
0.0
1002
}
1002
{
1000
PORI
1011
287.0
1021
-10.0
1031
0.0
1002
}
1002
{
1000
PINS
1011
287.0
1021
95.0
1031
0.0
1002
}
1002
{
1000
HVAL
1000
297
1002
}
1002
{
1000
H
1070
     2
1002
}
1002
{
1000
WVAL
1000
210
1002
}
1002
{
1000
W
1070
     2
1002
}
1002
{
1000
C
1070
     2
1002
}
1001
GENIUS_GENODEF_13
1002
{
1000
HIER
1070
     0
1002
}
1002
{
1000
MANEDIT
1070
     0
1002
}
1002
{
1000
NOSEL
1070
     0
1002
}
1002
{
1000
BEHIND
1070
     0
1002
}
1002
{
1000
REACTOR
1002
}
1001
GENIUS_GENOBJ-N-REC_13
1002
{
1000
OWNER
1000
GEN
1002
}
  0
LINE
  5
29ED
330
29E9
100
AcDbEntity
  8
AM_BOR
 62
     4
100
AcDbLine
 10
-10.0
 20
-10.0
 30
0.0
 11
0.0
 21
-10.0
 31
0.0
  0
LINE
  5
29EE
330
29E9
100
AcDbEntity
  8
AM_BOR
 62
     4
100
AcDbLine
 10
-10.0
 20
10.0
 30
0.0
 11
-10.0
 21
-10.0
 31
0.0
  0
LINE
  5
29EF
330
29E9
100
AcDbEntity
  8
AM_BOR
 62
     4
100
AcDbLine
 10
0.0
 20
287.0
 30
0.0
 11
-10.0
 21
287.0
 31
0.0
  0
LINE
  5
29F0
330
29E9
100
AcDbEntity
  8
AM_BOR
 62
     4
100
AcDbLine
 10
-10.0
 20
287.0
 30
0.0
 11
-10.0
 21
267.0
 31
0.0
  0
LINE
  5
29F1
330
29E9
100
AcDbEntity
  8
AM_BOR
 62
     7
100
AcDbLine
 10
400.0
 20
0.0
 30
0.0
 11
400.0
 21
277.0
 31
0.0
1001
GENIUS_GENREC_14
1002
{
1000
PYDIR
1011
-10.0
1021
-10.0
1031
0.0
1002
}
1002
{
1000
PXDIR
1011
410.0
1021
287.0
1031
0.0
1002
}
1002
{
1000
PORI
1011
410.0
1021
-10.0
1031
0.0
1002
}
1002
{
1000
PINS
1011
410.0
1021
95.0
1031
0.0
1002
}
1002
{
1000
HVAL
1000
297
1002
}
1002
{
1000
H
1070
     2
1002
}
1002
{
1000
WVAL
1000
210
1002
}
1002
{
1000
W
1070
     2
1002
}
1002
{
1000
C
1070
     2
1002
}
1001
GENIUS_GENODEF_13
1002
{
1000
HIER
1070
     0
1002
}
1002
{
1000
MANEDIT
1070
     0
1002
}
1002
{
1000
NOSEL
1070
     0
1002
}
1002
{
1000
BEHIND
1070
     0
1002
}
1002
{
1000
REACTOR
1002
}
1001
GENIUS_GENOBJ-N-REC_13
1002
{
1000
OWNER
1000
GEN
1002
}
  0
LINE
  5
29F2
330
29E9
100
AcDbEntity
  8
AM_BOR
 62
     4
100
AcDbLine
 10
410.0
 20
-10.0
 30
0.0
 11
410.0
 21
10.0
 31
0.0
  0
LINE
  5
29F3
330
29E9
100
AcDbEntity
  8
AM_BOR
 62
     4
100
AcDbLine
 10
400.0
 20
-10.0
 30
0.0
 11
410.0
 21
-10.0
 31
0.0
  0
TEXT
  5
29F4
330
29E9
100
AcDbEntity
  8
AM_BOR
 62
     1
 60
     1
370
    25
100
AcDbText
 10
400.0
 20
0.0
 30
0.0
 40
2.5
  1
!GENTITLE-INSERT
100
AcDbText
  0
LINE
  5
29F5
330
29E9
100
AcDbEntity
  8
AM_BOR
 62
     4
100
AcDbLine
 10
410.0
 20
267.0
 30
0.0
 11
410.0
 21
287.0
 31
0.0
  0
LINE
  5
29F6
330
29E9
100
AcDbEntity
  8
AM_BOR
 62
     4
100
AcDbLine
 10
410.0
 20
287.0
 30
0.0
 11
400.0
 21
287.0
 31
0.0
  0
ENDBLK
  5
29F8
330
29E9
100
AcDbEntity
  8
0
100
AcDbBlockEnd
  0
BLOCK
  5
1BBEF
330
1B826
100
AcDbEntity
  8
0
100
AcDbBlockBegin
  2
GENAXEH
 70
     0
 10
0.0
 20
0.0
 30
0.0
  3
GENAXEH
  1

  0
LINE
  5
1BBEE
330
1B826
100
AcDbEntity
  8
0
100
AcDbLine
 10
-1.0
 20
0.0
 30
0.0
 11
1.0
 21
0.0
 31
0.0
  0
ENDBLK
  5
1BBF0
330
1B826
100
AcDbEntity
  8
0
100
AcDbBlockEnd
  0
BLOCK
  5
1B896
330
1B88C
100
AcDbEntity
  8
0
100
AcDbBlockBegin
  2
*D6
 70
     1
 10
0.0
 20
0.0
 30
0.0
  3
*D6
  1

  0
LINE
  5
1BEDB
330
1B88C
100
AcDbEntity
  8
AM_5
370
    -2
100
AcDbLine
 10
131.6621268903055
 20
191.5824356731201
 30
0.0
 11
119.999524340699
 21
191.5824356731201
 31
0.0
  0
LINE
  5
1BEDC
330
1B88C
100
AcDbEntity
  8
AM_5
370
    -2
100
AcDbLine
 10
131.6621268903055
 20
178.6224356731201
 30
0.0
 11
119.999524340699
 21
178.6224356731201
 31
0.0
  0
LINE
  5
1BEDD
330
1B88C
100
AcDbEntity
  8
AM_5
370
    -2
100
AcDbLine
 10
120.999524340699
 20
190.0824356731201
 30
0.0
 11
120.999524340699
 21
180.1224356731201
 31
0.0
  0
SOLID
  5
1BEDE
330
1B88C
100
AcDbEntity
  8
AM_5
100
AcDbTrace
 10
120.749524340699
 20
190.0824356731201
 30
0.0
 11
121.2495243406989
 21
190.0824356731201
 31
0.0
 12
120.999524340699
 22
191.5824356731201
 32
0.0
 13
120.999524340699
 23
191.5824356731201
 33
0.0
  0
SOLID
  5
1BEDF
330
1B88C
100
AcDbEntity
  8
AM_5
100
AcDbTrace
 10
120.749524340699
 20
180.1224356731201
 30
0.0
 11
121.2495243406989
 21
180.1224356731201
 31
0.0
 12
120.999524340699
 22
178.6224356731201
 32
0.0
 13
120.999524340699
 23
178.6224356731201
 33
0.0
  0
MTEXT
  5
1BEE0
330
1B88C
100
AcDbEntity
  8
AM_5
 62
     7
100
AcDbMText
 10
119.3995243406989
 20
185.1024356731201
 30
0.0
 40
2.0
 41
0.0
 71
     5
 72
     1
  1
40
  7
ROMANS
 11
0.0000000000000001
 21
1.0
 31
0.0
 73
     1
 44
1.0
  0
POINT
  5
1BEE1
330
1B88C
100
AcDbEntity
  8
DEFPOINTS
 62
     0
100
AcDbPoint
 10
132.6621268903055
 20
191.5824356731201
 30
0.0
  0
POINT
  5
1BEE2
330
1B88C
100
AcDbEntity
  8
DEFPOINTS
 62
     0
100
AcDbPoint
 10
132.6621268903055
 20
178.6224356731201
 30
0.0
  0
POINT
  5
1BEE3
330
1B88C
100
AcDbEntity
  8
DEFPOINTS
 62
     0
100
AcDbPoint
 10
120.999524340699
 20
178.6224356731201
 30
0.0
  0
ENDBLK
  5
1B897
330
1B88C
100
AcDbEntity
  8
0
100
AcDbBlockEnd
  0
BLOCK
  5
1B8A4
330
1B898
100
AcDbEntity
  8
0
100
AcDbBlockBegin
  2
*D7
 70
     1
 10
0.0
 20
0.0
 30
0.0
  3
*D7
  1

  0
LINE
  5
1BF1F
330
1B898
100
AcDbEntity
  8
AM_5
370
    -2
100
AcDbLine
 10
131.6621268903055
 20
178.6224356731201
 30
0.0
 11
119.999524340699
 21
178.6224356731201
 31
0.0
  0
LINE
  5
1BF20
330
1B898
100
AcDbEntity
  8
AM_5
370
    -2
100
AcDbLine
 10
126.2027268903055
 20
176.3544356731201
 30
0.0
 11
119.999524340699
 21
176.3544356731201
 31
0.0
  0
LINE
  5
1BF21
330
1B898
100
AcDbEntity
  8
AM_5
370
    -2
100
AcDbLine
 10
120.999524340699
 20
180.1224356731201
 30
0.0
 11
120.999524340699
 21
181.6224356731201
 31
0.0
  0
LINE
  5
1BF22
330
1B898
100
AcDbEntity
  8
AM_5
370
    -2
100
AcDbLine
 10
120.999524340699
 20
174.8544356731201
 30
0.0
 11
120.999524340699
 21
170.8211023397868
 31
0.0
  0
LINE
  5
1BF23
330
1B898
100
AcDbEntity
  8
AM_5
370
    -2
100
AcDbLine
 10
120.999524340699
 20
178.6224356731201
 30
0.0
 11
120.999524340699
 21
176.3544356731201
 31
0.0
  0
SOLID
  5
1BF24
330
1B898
100
AcDbEntity
  8
AM_5
100
AcDbTrace
 10
120.749524340699
 20
180.1224356731201
 30
0.0
 11
121.2495243406989
 21
180.1224356731201
 31
0.0
 12
120.999524340699
 22
178.6224356731201
 32
0.0
 13
120.999524340699
 23
178.6224356731201
 33
0.0
  0
SOLID
  5
1BF25
330
1B898
100
AcDbEntity
  8
AM_5
100
AcDbTrace
 10
120.749524340699
 20
174.8544356731201
 30
0.0
 11
121.2495243406989
 21
174.8544356731201
 31
0.0
 12
120.999524340699
 22
176.3544356731201
 32
0.0
 13
120.999524340699
 23
176.3544356731201
 33
0.0
  0
MTEXT
  5
1BF26
330
1B898
100
AcDbEntity
  8
AM_5
 62
     7
100
AcDbMText
 10
119.3995243406989
 20
172.0877690064535
 30
0.0
 40
2.0
 41
0.0
 71
     5
 72
     1
  1
7
  7
ROMANS
 11
0.0000000000000001
 21
1.0
 31
0.0
 73
     1
 44
1.0
  0
POINT
  5
1BF27
330
1B898
100
AcDbEntity
  8
DEFPOINTS
 62
     0
100
AcDbPoint
 10
132.6621268903055
 20
178.6224356731201
 30
0.0
  0
POINT
  5
1BF28
330
1B898
100
AcDbEntity
  8
DEFPOINTS
 62
     0
100
AcDbPoint
 10
127.2027268903055
 20
176.3544356731201
 30
0.0
  0
POINT
  5
1BF29
330
1B898
100
AcDbEntity
  8
DEFPOINTS
 62
     0
100
AcDbPoint
 10
120.999524340699
 20
176.3544356731201
 30
0.0
  0
ENDBLK
  5
1B8A5
330
1B898
100
AcDbEntity
  8
0
100
AcDbBlockEnd
  0
BLOCK
  5
1B8B1
330
1B8A6
100
AcDbEntity
  8
0
100
AcDbBlockBegin
  2
*D8
 70
     1
 10
0.0
 20
0.0
 30
0.0
  3
*D8
  1

  0
LINE
  5
1BF0C
330
1B8A6
100
AcDbEntity
  8
AM_5
370
    -2
100
AcDbLine
 10
134.0472268903055
 20
162.0707199981236
 30
0.0
 11
134.0472268903055
 21
157.0987199981236
 31
0.0
  0
LINE
  5
1BF0D
330
1B8A6
100
AcDbEntity
  8
AM_5
370
    -2
100
AcDbLine
 10
140.4462268903055
 20
162.0707199981236
 30
0.0
 11
140.4462268903055
 21
157.0987199981236
 31
0.0
  0
LINE
  5
1BF0E
330
1B8A6
100
AcDbEntity
  8
AM_5
370
    -2
100
AcDbLine
 10
135.5472268903055
 20
158.0987199981236
 30
0.0
 11
138.9462268903055
 21
158.0987199981236
 31
0.0
  0
LINE
  5
1BF0F
330
1B8A6
100
AcDbEntity
  8
AM_5
370
    -2
100
AcDbLine
 10
140.4462268903055
 20
158.0987199981236
 30
0.0
 11
151.0762142724313
 21
158.0987199981236
 31
0.0
  0
SOLID
  5
1BF10
330
1B8A6
100
AcDbEntity
  8
AM_5
100
AcDbTrace
 10
135.5472268903055
 20
158.3487199981236
 30
0.0
 11
135.5472268903055
 21
157.8487199981236
 31
0.0
 12
134.0472268903055
 22
158.0987199981236
 32
0.0
 13
134.0472268903055
 23
158.0987199981236
 33
0.0
  0
SOLID
  5
1BF11
330
1B8A6
100
AcDbEntity
  8
AM_5
100
AcDbTrace
 10
138.9462268903055
 20
158.3487199981236
 30
0.0
 11
138.9462268903055
 21
157.8487199981236
 31
0.0
 12
140.4462268903055
 22
158.0987199981236
 32
0.0
 13
140.4462268903055
 23
158.0987199981236
 33
0.0
  0
MTEXT
  5
1BF12
330
1B8A6
100
AcDbEntity
  8
AM_5
 62
     7
100
AcDbMText
 10
146.5112205813684
 20
159.6987199981236
 30
0.0
 40
2.0
 41
0.0
 71
     5
 72
     1
  1
%%C19.8
  7
ROMANS
 73
     1
 44
1.0
  0
POINT
  5
1BF13
330
1B8A6
100
AcDbEntity
  8
DEFPOINTS
 62
     0
100
AcDbPoint
 10
134.0472268903055
 20
163.0707199981236
 30
0.0
  0
POINT
  5
1BF14
330
1B8A6
100
AcDbEntity
  8
DEFPOINTS
 62
     0
100
AcDbPoint
 10
140.4462268903055
 20
163.0707199981236
 30
0.0
  0
POINT
  5
1BF15
330
1B8A6
100
AcDbEntity
  8
DEFPOINTS
 62
     0
100
AcDbPoint
 10
140.4462268903055
 20
158.0987199981236
 30
0.0
  0
ENDBLK
  5
1B8B2
330
1B8A6
100
AcDbEntity
  8
0
100
AcDbBlockEnd
  0
BLOCK
  5
1B8BD
330
1B8B3
100
AcDbEntity
  8
0
100
AcDbBlockBegin
  2
*D9
 70
     1
 10
0.0
 20
0.0
 30
0.0
  3
*D9
  1

  0
LINE
  5
1BF16
330
1B8B3
100
AcDbEntity
  8
AM_5
370
    -2
100
AcDbLine
 10
127.2027268903055
 20
146.3567793665006
 30
0.0
 11
127.2027268903055
 21
153.6074040706543
 31
0.0
  0
LINE
  5
1BF17
330
1B8B3
100
AcDbEntity
  8
AM_5
370
    -2
100
AcDbLine
 10
147.2907268903055
 20
146.3567793665006
 30
0.0
 11
147.2907268903055
 21
153.6074040706543
 31
0.0
  0
LINE
  5
1BF18
330
1B8B3
100
AcDbEntity
  8
AM_5
370
    -2
100
AcDbLine
 10
128.7027268903055
 20
152.6074040706542
 30
0.0
 11
145.7907268903055
 21
152.6074040706542
 31
0.0
  0
SOLID
  5
1BF19
330
1B8B3
100
AcDbEntity
  8
AM_5
100
AcDbTrace
 10
128.7027268903055
 20
152.8574040706542
 30
0.0
 11
128.7027268903055
 21
152.3574040706543
 31
0.0
 12
127.2027268903055
 22
152.6074040706542
 32
0.0
 13
127.2027268903055
 23
152.6074040706542
 33
0.0
  0
SOLID
  5
1BF1A
330
1B8B3
100
AcDbEntity
  8
AM_5
100
AcDbTrace
 10
145.7907268903055
 20
152.8574040706542
 30
0.0
 11
145.7907268903055
 21
152.3574040706543
 31
0.0
 12
147.2907268903055
 22
152.6074040706542
 32
0.0
 13
147.2907268903055
 23
152.6074040706542
 33
0.0
  0
MTEXT
  5
1BF1B
330
1B8B3
100
AcDbEntity
  8
AM_5
 62
     7
100
AcDbMText
 10
137.2467268903055
 20
154.2074040706542
 30
0.0
 40
2.0
 41
0.0
 71
     5
 72
     1
  1
62
  7
ROMANS
 73
     1
 44
1.0
  0
POINT
  5
1BF1C
330
1B8B3
100
AcDbEntity
  8
DEFPOINTS
 62
     0
100
AcDbPoint
 10
127.2027268903055
 20
145.3567793665006
 30
0.0
  0
POINT
  5
1BF1D
330
1B8B3
100
AcDbEntity
  8
DEFPOINTS
 62
     0
100
AcDbPoint
 10
147.2907268903055
 20
145.3567793665006
 30
0.0
  0
POINT
  5
1BF1E
330
1B8B3
100
AcDbEntity
  8
DEFPOINTS
 62
     0
100
AcDbPoint
 10
147.2907268903055
 20
152.6074040706542
 30
0.0
  0
ENDBLK
  5
1B8BE
330
1B8B3
100
AcDbEntity
  8
0
100
AcDbBlockEnd
  0
BLOCK
  5
1B8D5
330
1B8CB
100
AcDbEntity
  8
0
100
AcDbBlockBegin
  2
*D10
 70
     1
 10
0.0
 20
0.0
 30
0.0
  3
*D10
  1

  0
LINE
  5
1BEE4
330
1B8CB
100
AcDbEntity
  8
AM_5
370
    -2
100
AcDbLine
 10
142.0595424286532
 20
193.8504356731201
 30
0.0
 11
155.6490101074659
 21
193.8504356731201
 31
0.0
  0
LINE
  5
1BEE5
330
1B8CB
100
AcDbEntity
  8
AM_5
370
    -2
100
AcDbLine
 10
140.8850424286532
 20
162.0987199981236
 30
0.0
 11
155.6490101074659
 21
162.0987199981236
 31
0.0
  0
LINE
  5
1BEE6
330
1B8CB
100
AcDbEntity
  8
AM_5
370
    -2
100
AcDbLine
 10
154.6490101074659
 20
192.3504356731201
 30
0.0
 11
154.6490101074659
 21
163.5987199981236
 31
0.0
  0
SOLID
  5
1BEE7
330
1B8CB
100
AcDbEntity
  8
AM_5
100
AcDbTrace
 10
154.3990101074659
 20
192.3504356731201
 30
0.0
 11
154.8990101074659
 21
192.3504356731201
 31
0.0
 12
154.6490101074659
 22
193.8504356731201
 32
0.0
 13
154.6490101074659
 23
193.8504356731201
 33
0.0
  0
SOLID
  5
1BEE8
330
1B8CB
100
AcDbEntity
  8
AM_5
100
AcDbTrace
 10
154.3990101074659
 20
163.5987199981236
 30
0.0
 11
154.8990101074659
 21
163.5987199981236
 31
0.0
 12
154.6490101074659
 22
162.0987199981236
 32
0.0
 13
154.6490101074659
 23
162.0987199981236
 33
0.0
  0
MTEXT
  5
1BEE9
330
1B8CB
100
AcDbEntity
  8
AM_5
 62
     7
100
AcDbMText
 10
153.0490101074659
 20
177.9745778356219
 30
0.0
 40
2.0
 41
0.0
 71
     5
 72
     1
  1
98
  7
ROMANS
 11
0.0000000000000001
 21
1.0
 31
0.0
 73
     1
 44
1.0
  0
POINT
  5
1BEEA
330
1B8CB
100
AcDbEntity
  8
DEFPOINTS
 62
     0
100
AcDbPoint
 10
141.0595424286532
 20
193.8504356731201
 30
0.0
  0
POINT
  5
1BEEB
330
1B8CB
100
AcDbEntity
  8
DEFPOINTS
 62
     0
100
AcDbPoint
 10
139.8850424286532
 20
162.0987199981236
 30
0.0
  0
POINT
  5
1BEEC
330
1B8CB
100
AcDbEntity
  8
DEFPOINTS
 62
     0
100
AcDbPoint
 10
154.6490101074659
 20
162.0987199981236
 30
0.0
  0
ENDBLK
  5
1B8D6
330
1B8CB
100
AcDbEntity
  8
0
100
AcDbBlockEnd
  0
BLOCK
  5
1B8E1
330
1B8D7
100
AcDbEntity
  8
0
100
AcDbBlockBegin
  2
*D11
 70
     1
 10
0.0
 20
0.0
 30
0.0
  3
*D11
  1

  0
LINE
  5
1BF2A
330
1B8D7
100
AcDbEntity
  8
AM_5
370
    -2
100
AcDbLine
 10
141.6207268903055
 20
193.7164356731201
 30
0.0
 11
141.6207268903055
 21
198.4504356731201
 31
0.0
  0
LINE
  5
1BF2B
330
1B8D7
100
AcDbEntity
  8
AM_5
370
    -2
100
AcDbLine
 10
132.8727268903055
 20
193.7164356731201
 30
0.0
 11
132.8727268903055
 21
198.4504356731201
 31
0.0
  0
LINE
  5
1BF2C
330
1B8D7
100
AcDbEntity
  8
AM_5
370
    -2
100
AcDbLine
 10
140.1207268903055
 20
197.4504356731201
 30
0.0
 11
134.3727268903055
 21
197.4504356731201
 31
0.0
  0
SOLID
  5
1BF2D
330
1B8D7
100
AcDbEntity
  8
AM_5
100
AcDbTrace
 10
140.1207268903055
 20
197.7004356731201
 30
0.0
 11
140.1207268903055
 21
197.2004356731201
 31
0.0
 12
141.6207268903055
 22
197.4504356731201
 32
0.0
 13
141.6207268903055
 23
197.4504356731201
 33
0.0
  0
SOLID
  5
1BF2E
330
1B8D7
100
AcDbEntity
  8
AM_5
100
AcDbTrace
 10
134.3727268903055
 20
197.7004356731201
 30
0.0
 11
134.3727268903055
 21
197.2004356731201
 31
0.0
 12
132.8727268903055
 22
197.4504356731201
 32
0.0
 13
132.8727268903055
 23
197.4504356731201
 33
0.0
  0
MTEXT
  5
1BF2F
330
1B8D7
100
AcDbEntity
  8
AM_5
 62
     7
100
AcDbMText
 10
137.2467268903055
 20
199.0504356731201
 30
0.0
 40
2.0
 41
0.0
 71
     5
 72
     1
  1
%%c27
  7
ROMANS
 73
     1
 44
1.0
  0
POINT
  5
1BF30
330
1B8D7
100
AcDbEntity
  8
DEFPOINTS
 62
     0
100
AcDbPoint
 10
141.6207268903055
 20
192.7164356731201
 30
0.0
  0
POINT
  5
1BF31
330
1B8D7
100
AcDbEntity
  8
DEFPOINTS
 62
     0
100
AcDbPoint
 10
132.8727268903055
 20
192.7164356731201
 30
0.0
  0
POINT
  5
1BF32
330
1B8D7
100
AcDbEntity
  8
DEFPOINTS
 62
     0
100
AcDbPoint
 10
132.8727268903055
 20
197.4504356731201
 30
0.0
  0
ENDBLK
  5
1B8E2
330
1B8D7
100
AcDbEntity
  8
0
100
AcDbBlockEnd
  0
BLOCK
  5
1B8FD
330
1B8F1
100
AcDbEntity
  8
0
100
AcDbBlockBegin
  2
*D12
 70
     1
 10
0.0
 20
0.0
 30
0.0
  3
*D12
  1

  0
LINE
  5
1BF01
330
1B8F1
100
AcDbEntity
  8
AM_5
370
    -2
100
AcDbLine
 10
136.5396201091189
 20
141.9582965361049
 30
0.0
 11
131.8962168331333
 21
146.6016998120906
 31
0.0
  0
LINE
  5
1BF02
330
1B8F1
100
AcDbEntity
  8
AM_5
370
    -2
100
AcDbLine
 10
139.5088253033278
 20
144.9275017303138
 30
0.0
 11
134.8654220273421
 21
149.5709050062994
 31
0.0
  0
LINE
  5
1BF03
330
1B8F1
100
AcDbEntity
  8
AM_5
370
    -2
100
AcDbLine
 10
131.54266344254
 20
144.8339328591242
 30
0.0
 11
130.4820032707602
 21
143.7732726873444
 31
0.0
  0
LINE
  5
1BF04
330
1B8F1
100
AcDbEntity
  8
AM_5
370
    -2
100
AcDbLine
 10
136.6331889803085
 20
149.9244583968927
 30
0.0
 11
137.6938491520883
 21
150.9851185686725
 31
0.0
  0
LINE
  5
1BF05
330
1B8F1
100
AcDbEntity
  8
AM_5
370
    -2
100
AcDbLine
 10
132.6033236143198
 20
145.894593030904
 30
0.0
 11
135.5725288085287
 21
148.8637982251129
 31
0.0
  0
SOLID
  5
1BF06
330
1B8F1
100
AcDbEntity
  8
AM_5
100
AcDbTrace
 10
131.3658867472434
 20
145.0107095544208
 30
0.0
 11
131.7194401378366
 21
144.6571561638275
 31
0.0
 12
132.6033236143198
 22
145.894593030904
 32
0.0
 13
132.6033236143198
 23
145.894593030904
 33
0.0
  0
SOLID
  5
1BF07
330
1B8F1
100
AcDbEntity
  8
AM_5
100
AcDbTrace
 10
136.4564122850119
 20
150.1012350921894
 30
0.0
 11
136.8099656756052
 21
149.7476817015961
 31
0.0
 12
135.5725288085287
 22
148.8637982251129
 32
0.0
 13
135.5725288085287
 23
148.8637982251129
 33
0.0
  0
MTEXT
  5
1BF08
330
1B8F1
100
AcDbEntity
  8
AM_5
 62
     7
100
AcDbMText
 10
132.9565553615258
 20
148.5105664779069
 30
0.0
 40
2.0
 41
0.0
 71
     5
 72
     1
  1
13
  7
ROMANS
 11
0.7071067811865476
 21
0.7071067811865475
 31
0.0
 73
     1
 44
1.0
  0
POINT
  5
1BF09
330
1B8F1
100
AcDbEntity
  8
DEFPOINTS
 62
     0
100
AcDbPoint
 10
137.2467268903055
 20
141.2511897549183
 30
0.0
  0
POINT
  5
1BF0A
330
1B8F1
100
AcDbEntity
  8
DEFPOINTS
 62
     0
100
AcDbPoint
 10
140.2159320845144
 20
144.2203949491272
 30
0.0
  0
POINT
  5
1BF0B
330
1B8F1
100
AcDbEntity
  8
DEFPOINTS
 62
     0
100
AcDbPoint
 10
135.5725288085287
 20
148.8637982251129
 30
0.0
  0
ENDBLK
  5
1B8FE
330
1B8F1
100
AcDbEntity
  8
0
100
AcDbBlockEnd
  0
BLOCK
  5
1BAF0
330
1BAE6
100
AcDbEntity
  8
0
100
AcDbBlockBegin
  2
*D13
 70
     1
 10
0.0
 20
0.0
 30
0.0
  3
*D13
  1

  0
LINE
  5
1BEF8
330
1BAE6
100
AcDbEntity
  8
AM_5
370
    -2
100
AcDbLine
 10
127.1191372787233
 20
146.2731897549184
 30
0.0
 11
121.6387301576282
 21
146.2731897549184
 31
0.0
  0
LINE
  5
1BEF9
330
1BAE6
100
AcDbEntity
  8
AM_5
370
    -2
100
AcDbLine
 10
127.1191372787233
 20
136.2291897549184
 30
0.0
 11
121.6387301576282
 21
136.2291897549184
 31
0.0
  0
LINE
  5
1BEFA
330
1BAE6
100
AcDbEntity
  8
AM_5
370
    -2
100
AcDbLine
 10
122.6387301576282
 20
144.7731897549184
 30
0.0
 11
122.6387301576282
 21
137.7291897549184
 31
0.0
  0
SOLID
  5
1BEFB
330
1BAE6
100
AcDbEntity
  8
AM_5
100
AcDbTrace
 10
122.3887301576282
 20
144.7731897549184
 30
0.0
 11
122.8887301576282
 21
144.7731897549184
 31
0.0
 12
122.6387301576282
 22
146.2731897549184
 32
0.0
 13
122.6387301576282
 23
146.2731897549184
 33
0.0
  0
SOLID
  5
1BEFC
330
1BAE6
100
AcDbEntity
  8
AM_5
100
AcDbTrace
 10
122.3887301576282
 20
137.7291897549184
 30
0.0
 11
122.8887301576282
 21
137.7291897549184
 31
0.0
 12
122.6387301576282
 22
136.2291897549184
 32
0.0
 13
122.6387301576282
 23
136.2291897549184
 33
0.0
  0
MTEXT
  5
1BEFD
330
1BAE6
100
AcDbEntity
  8
AM_5
 62
     7
100
AcDbMText
 10
121.0387301576282
 20
141.2511897549184
 30
0.0
 40
2.0
 41
0.0
 71
     5
 72
     1
  1
31
  7
ROMANS
 11
0.0000000000000001
 21
1.0
 31
0.0
 73
     1
 44
1.0
  0
POINT
  5
1BEFE
330
1BAE6
100
AcDbEntity
  8
DEFPOINTS
 62
     0
100
AcDbPoint
 10
128.1191372787233
 20
146.2731897549184
 30
0.0
  0
POINT
  5
1BEFF
330
1BAE6
100
AcDbEntity
  8
DEFPOINTS
 62
     0
100
AcDbPoint
 10
128.1191372787233
 20
136.2291897549184
 30
0.0
  0
POINT
  5
1BF00
330
1BAE6
100
AcDbEntity
  8
DEFPOINTS
 62
     0
100
AcDbPoint
 10
122.6387301576282
 20
136.2291897549184
 30
0.0
  0
ENDBLK
  5
1BAF1
330
1BAE6
100
AcDbEntity
  8
0
100
AcDbBlockEnd
  0
BLOCK
  5
1BB92
330
1BB82
100
AcDbEntity
  8
0
100
AcDbBlockBegin
  2
*D14
 70
     1
 10
0.0
 20
0.0
 30
0.0
  3
*D14
  1

  0
LINE
  5
1BEED
330
1BB82
100
AcDbEntity
  8
AM_5
370
    -2
100
AcDbLine
 10
147.997833671492
 20
136.4384933621496
 30
0.0
 11
149.4782195596636
 21
134.958107473978
 31
0.0
  0
LINE
  5
1BEEE
330
1BB82
100
AcDbEntity
  8
AM_5
370
    -2
100
AcDbLine
 10
147.997833671492
 20
146.0638861476872
 30
0.0
 11
149.4782195596637
 21
147.5442720358588
 31
0.0
  0
ARC
  5
1BEEF
330
1BB82
100
AcDbEntity
  8
AM_5
370
    -2
100
AcDbCircle
 10
143.1851372787232
 20
141.2511897549184
 30
0.0
 40
7.899762310835755
100
AcDbArc
 50
325.8956828783535
 51
34.10431712164606
  0
SOLID
  5
1BEF0
330
1BB82
100
AcDbEntity
  8
AM_5
100
AcDbTrace
 10
149.9190446771813
 20
136.6625869818506
 30
0.0
 11
149.5335220685964
 21
136.9809771799879
 31
0.0
 12
148.7711127784771
 22
135.6652142551645
 32
0.0
 13
148.7711127784771
 23
135.6652142551645
 33
0.0
  0
SOLID
  5
1BEF1
330
1BB82
100
AcDbEntity
  8
AM_5
100
AcDbTrace
 10
149.5335220685964
 20
145.5214023298489
 30
0.0
 11
149.9190446771813
 21
145.8397925279861
 31
0.0
 12
148.7711127784771
 22
146.8371652546722
 32
0.0
 13
148.7711127784771
 23
146.8371652546722
 33
0.0
  0
MTEXT
  5
1BEF2
330
1BB82
100
AcDbEntity
  8
AM_5
 62
     7
100
AcDbMText
 10
149.484899589559
 20
141.2511897549184
 30
0.0
 40
2.0
 41
0.0
 71
     5
 72
     1
  1
90°
  7
ROMANS
 11
0.0000000000000001
 21
1.0
 31
0.0
 73
     1
 44
1.0
  0
POINT
  5
1BEF3
330
1BB82
100
AcDbEntity
  8
DEFPOINTS
 62
     0
100
AcDbPoint
 10
150.8157217163045
 20
139.206580817091
 30
0.0
  0
POINT
  5
1BEF4
330
1BB82
100
AcDbEntity
  8
DEFPOINTS
 62
     0
100
AcDbPoint
 10
147.2907268903055
 20
145.3567793665006
 30
0.0
  0
POINT
  5
1BEF5
330
1BB82
100
AcDbEntity
  8
DEFPOINTS
 62
     0
100
AcDbPoint
 10
147.2907268903055
 20
137.1456001433361
 30
0.0
  0
POINT
  5
1BEF6
330
1BB82
100
AcDbEntity
  8
DEFPOINTS
 62
     0
100
AcDbPoint
 10
144.2158519132048
 20
140.2204751204368
 30
0.0
  0
POINT
  5
1BEF7
330
1BB82
100
AcDbEntity
  8
DEFPOINTS
 62
     0
100
AcDbPoint
 10
144.2158519132048
 20
142.2819043893999
 30
0.0
  0
ENDBLK
  5
1BB93
330
1BB82
100
AcDbEntity
  8
0
100
AcDbBlockEnd
  0
BLOCK
  5
1BD40
330
1BD3F
100
AcDbEntity
  8
0
100
AcDbBlockBegin
  2
COMUNELLO
 70
     0
 10
0.0
 20
0.0
 30
0.0
  3
COMUNELLO
  1

  0
ENDBLK
  5
1BD41
330
1BD3F
100
AcDbEntity
  8
0
100
AcDbBlockEnd
  0
BLOCK
  5
1BE07
330
1BE06
100
AcDbEntity
  8
0
100
AcDbBlockBegin
  2
Prova
 70
     0
 10
0.0
 20
0.0
 30
0.0
  3
Prova
  1

  0
ENDBLK
  5
1BE08
330
1BE06
100
AcDbEntity
  8
0
100
AcDbBlockEnd
  0
BLOCK
  5
1BE29
330
1BE1A
100
AcDbEntity
  8
0
100
AcDbBlockBegin
  2
A4-ORIZZONTALE
 70
     0
 10
0.0
 20
0.0
 30
0.0
  3
A4-ORIZZONTALE
  1

  0
LINE
  5
1BE1B
330
1BE1A
100
AcDbEntity
  8
AM_BOR
 62
     7
100
AcDbLine
 10
10.0
 20
10.0
 30
0.0
 11
287.0
 21
10.0
 31
0.0
1001
GENIUS_GENREC_14
1002
{
1000
PYDIR
1011
0.0
1021
0.0
1031
0.0
1002
}
1002
{
1000
PXDIR
1011
297.0
1021
210.0
1031
0.0
1002
}
1002
{
1000
PORI
1011
297.0
1021
0.0
1031
0.0
1002
}
1002
{
1000
PINS
1011
297.0
1021
105.0
1031
0.0
1002
}
1002
{
1000
HVAL
1000
297
1002
}
1002
{
1000
H
1070
     2
1002
}
1002
{
1000
WVAL
1000
210
1002
}
1002
{
1000
W
1070
     2
1002
}
1002
{
1000
C
1070
     2
1002
}
1001
GENIUS_GENODEF_13
1002
{
1000
HIER
1070
     0
1002
}
1002
{
1000
MANEDIT
1070
     0
1002
}
1002
{
1000
NOSEL
1070
     0
1002
}
1002
{
1000
BEHIND
1070
     0
1002
}
1002
{
1000
REACTOR
1002
}
1001
GENIUS_GENOBJ-N-REC_13
1002
{
1000
OWNER
1000
GEN
1002
}
  0
LINE
  5
1BE1C
330
1BE1A
100
AcDbEntity
  8
AM_BOR
 62
     7
100
AcDbLine
 10
287.0
 20
200.0
 30
0.0
 11
10.0
 21
200.0
 31
0.0
1001
GENIUS_GENREC_14
1002
{
1000
PYDIR
1011
0.0
1021
0.0
1031
0.0
1002
}
1002
{
1000
PXDIR
1011
297.0
1021
210.0
1031
0.0
1002
}
1002
{
1000
PORI
1011
297.0
1021
0.0
1031
0.0
1002
}
1002
{
1000
PINS
1011
297.0
1021
105.0
1031
0.0
1002
}
1002
{
1000
HVAL
1000
297
1002
}
1002
{
1000
H
1070
     2
1002
}
1002
{
1000
WVAL
1000
210
1002
}
1002
{
1000
W
1070
     2
1002
}
1002
{
1000
C
1070
     2
1002
}
1001
GENIUS_GENODEF_13
1002
{
1000
HIER
1070
     0
1002
}
1002
{
1000
MANEDIT
1070
     0
1002
}
1002
{
1000
NOSEL
1070
     0
1002
}
1002
{
1000
BEHIND
1070
     0
1002
}
1002
{
1000
REACTOR
1002
}
1001
GENIUS_GENOBJ-N-REC_13
1002
{
1000
OWNER
1000
GEN
1002
}
  0
LINE
  5
1BE1D
330
1BE1A
100
AcDbEntity
  8
AM_BOR
 62
     7
100
AcDbLine
 10
10.0
 20
200.0
 30
0.0
 11
10.0
 21
10.0
 31
0.0
1001
GENIUS_GENREC_14
1002
{
1000
PYDIR
1011
0.0
1021
0.0
1031
0.0
1002
}
1002
{
1000
PXDIR
1011
297.0
1021
210.0
1031
0.0
1002
}
1002
{
1000
PORI
1011
297.0
1021
0.0
1031
0.0
1002
}
1002
{
1000
PINS
1011
297.0
1021
105.0
1031
0.0
1002
}
1002
{
1000
HVAL
1000
297
1002
}
1002
{
1000
H
1070
     2
1002
}
1002
{
1000
WVAL
1000
210
1002
}
1002
{
1000
W
1070
     2
1002
}
1002
{
1000
C
1070
     2
1002
}
1001
GENIUS_GENODEF_13
1002
{
1000
HIER
1070
     0
1002
}
1002
{
1000
MANEDIT
1070
     0
1002
}
1002
{
1000
NOSEL
1070
     0
1002
}
1002
{
1000
BEHIND
1070
     0
1002
}
1002
{
1000
REACTOR
1002
}
1001
GENIUS_GENOBJ-N-REC_13
1002
{
1000
OWNER
1000
GEN
1002
}
  0
LINE
  5
1BE1E
330
1BE1A
100
AcDbEntity
  8
AM_BOR
 62
     4
100
AcDbLine
 10
0.0
 20
0.0
 30
0.0
 11
10.0
 21
0.0
 31
0.0
  0
LINE
  5
1BE1F
330
1BE1A
100
AcDbEntity
  8
AM_BOR
 62
     4
100
AcDbLine
 10
0.0
 20
20.0
 30
0.0
 11
0.0
 21
0.0
 31
0.0
  0
LINE
  5
1BE20
330
1BE1A
100
AcDbEntity
  8
AM_BOR
 62
     4
100
AcDbLine
 10
10.0
 20
210.0
 30
0.0
 11
0.0
 21
210.0
 31
0.0
  0
LINE
  5
1BE21
330
1BE1A
100
AcDbEntity
  8
AM_BOR
 62
     4
100
AcDbLine
 10
0.0
 20
210.0
 30
0.0
 11
0.0
 21
190.0
 31
0.0
  0
LINE
  5
1BE22
330
1BE1A
100
AcDbEntity
  8
AM_BOR
 62
     7
100
AcDbLine
 10
287.0
 20
10.0
 30
0.0
 11
287.0
 21
200.0
 31
0.0
1001
GENIUS_GENREC_14
1002
{
1000
PYDIR
1011
0.0
1021
0.0
1031
0.0
1002
}
1002
{
1000
PXDIR
1011
297.0
1021
210.0
1031
0.0
1002
}
1002
{
1000
PORI
1011
297.0
1021
0.0
1031
0.0
1002
}
1002
{
1000
PINS
1011
297.0
1021
105.0
1031
0.0
1002
}
1002
{
1000
HVAL
1000
297
1002
}
1002
{
1000
H
1070
     2
1002
}
1002
{
1000
WVAL
1000
210
1002
}
1002
{
1000
W
1070
     2
1002
}
1002
{
1000
C
1070
     2
1002
}
1001
GENIUS_GENODEF_13
1002
{
1000
HIER
1070
     0
1002
}
1002
{
1000
MANEDIT
1070
     0
1002
}
1002
{
1000
NOSEL
1070
     0
1002
}
1002
{
1000
BEHIND
1070
     0
1002
}
1002
{
1000
REACTOR
1002
}
1001
GENIUS_GENOBJ-N-REC_13
1002
{
1000
OWNER
1000
GEN
1002
}
  0
TEXT
  5
1BE23
330
1BE1A
100
AcDbEntity
  8
AM_BOR
 62
     1
 60
     1
100
AcDbText
 10
287.0
 20
10.0
 30
0.0
 40
2.5
  1
!GENTITLE-INSERT
100
AcDbText
  0
LINE
  5
1BE24
330
1BE1A
100
AcDbEntity
  8
AM_BOR
 62
     4
100
AcDbLine
 10
297.0
 20
0.0
 30
0.0
 11
297.0
 21
20.0
 31
0.0
  0
LINE
  5
1BE25
330
1BE1A
100
AcDbEntity
  8
AM_BOR
 62
     4
100
AcDbLine
 10
287.0
 20
0.0
 30
0.0
 11
297.0
 21
0.0
 31
0.0
  0
LINE
  5
1BE26
330
1BE1A
100
AcDbEntity
  8
AM_BOR
 62
     4
100
AcDbLine
 10
297.0
 20
190.0
 30
0.0
 11
297.0
 21
210.0
 31
0.0
  0
LINE
  5
1BE27
330
1BE1A
100
AcDbEntity
  8
AM_BOR
 62
     4
100
AcDbLine
 10
297.0
 20
210.0
 30
0.0
 11
287.0
 21
210.0
 31
0.0
  0
INSERT
  5
1BE28
330
1BE1A
100
AcDbEntity
  8
AM_0
100
AcDbBlockReference
  2
Prova
 10
0.0
 20
0.0
 30
0.0
  0
ENDBLK
  5
1BE2A
330
1BE1A
100
AcDbEntity
  8
0
100
AcDbBlockEnd
  0
BLOCK
  5
1BEAB
330
1BE35
100
AcDbEntity
  8
0
100
AcDbBlockBegin
  2
ASM_C4
 70
     2
 10
0.0
 20
0.0
 30
0.0
  3
ASM_C4
  1

  0
MTEXT
  5
1BE36
330
1BE35
100
AcDbEntity
  8
AM_0
100
AcDbMText
 10
-101.1329575317798
 20
26.37414633253953
 30
0.0
 40
2.1
 41
36.09
 71
     1
 72
     5
  1
{\fArial|b0|i0|c0|p34;Via Cassola , 64\P36027 Rosa' (VI)\PITALY\PTel.0424/585111\PFax.0424/533417\Pwww.comunello.com}
 73
     1
 44
1.0
  0
TEXT
  5
1BE37
330
1BE35
100
AcDbEntity
  8
AM_BOR
 62
     3
100
AcDbText
 10
-87.35047619047614
 20
41.50000000000011
 30
0.0
 40
2.5
  1
Trattamento
 41
0.8
  7
QUOTE
100
AcDbText
  0
TEXT
  5
1BE38
330
1BE35
100
AcDbEntity
  8
AM_BOR
100
AcDbText
 10
-189.0
 20
1.302472478823688
 30
0.0
 40
2.5
  1
La F.LLI COMUNELLO si riserva a termini di legge la proprieta' del presente disegno con divieto di riprodurlo o comunicarlo a terzi senza sua autorizzazione.
 41
0.8375497215592698
  7
ISO
 72
     5
 11
-1.0
 21
1.302472478823688
 31
0.0
100
AcDbText
  0
LINE
  5
1BE39
330
1BE35
100
AcDbEntity
  8
AM_BOR
100
AcDbLine
 10
-190.0
 20
0.0
 30
0.0
 11
0.0
 21
0.0
 31
0.0
  0
LINE
  5
1BE3A
330
1BE35
100
AcDbEntity
  8
AM_BOR
100
AcDbLine
 10
-190.0
 20
4.5
 30
0.0
 11
0.0
 21
4.5
 31
0.0
  0
LINE
  5
1BE3B
330
1BE35
100
AcDbEntity
  8
AM_BOR
100
AcDbLine
 10
-190.0
 20
28.49999997550006
 30
0.0
 11
0.0000000000001421
 21
28.49999997550006
 31
0.0
  0
LINE
  5
1BE3C
330
1BE35
100
AcDbEntity
  8
AM_BOR
100
AcDbLine
 10
-190.0
 20
36.49999997550014
 30
0.0
 11
0.0000000000001421
 21
36.49999997550014
 31
0.0
  0
LINE
  5
1BE3D
330
1BE35
100
AcDbEntity
  8
AM_BOR
100
AcDbLine
 10
-190.0
 20
44.5
 30
0.0
 11
0.0000000000001137
 21
44.5
 31
0.0
  0
LINE
  5
1BE3E
330
1BE35
100
AcDbEntity
  8
AM_BOR
100
AcDbLine
 10
-190.0
 20
49.5
 30
0.0
 11
0.0
 21
49.5
 31
0.0
  0
LINE
  5
1BE3F
330
1BE35
100
AcDbEntity
  8
AM_BOR
100
AcDbLine
 10
0.0
 20
57.5
 30
0.0
 11
-190.0
 21
57.5
 31
0.0
  0
LINE
  5
1BE40
330
1BE35
100
AcDbEntity
  8
AM_BOR
100
AcDbLine
 10
-88.35047619047619
 20
57.5
 30
0.0
 11
-88.35047619047623
 21
28.4999999755002
 31
0.0
  0
LINE
  5
1BE41
330
1BE35
100
AcDbEntity
  8
AM_BOR
100
AcDbLine
 10
-117.285238095238
 20
57.5
 30
0.0
 11
-117.285238095238
 21
28.49999997550005
 31
0.0
  0
LINE
  5
1BE42
330
1BE35
100
AcDbEntity
  8
AM_BOR
100
AcDbLine
 10
-190.0
 20
0.0
 30
0.0
 11
-190.0
 21
57.5
 31
0.0
  0
HATCH
  5
1BE43
330
1BE35
100
AcDbEntity
  8
AM_0
100
AcDbHatch
 10
0.0
 20
0.0
 30
0.0
210
0.0
220
0.0
230
1.0
  2
SOLID
 70
     1
 71
     1
 91
        1
 92
        7
 72
     1
 73
     1
 93
        8
 10
-190.0
 20
16.74999998775003
 42
0.0
 10
-189.9999999999998
 20
16.24999998775003
 42
0.0
 10
-183.4749377501092
 20
16.24999998775003
 42
0.200356615422539
 10
-172.1250555175808
 20
16.24999998775003
 42
0.0
 10
-104.9422870460472
 20
16.24999998775003
 42
0.0
 10
-104.9422870460472
 20
16.74999998775001
 42
0.0
 10
-172.2261339984467
 20
16.74999998775003
 42
-0.2039899561851438
 10
-183.3738592692433
 20
16.74999998775003
 42
0.0
 97
        8
330
1BE5F
330
1BE60
330
1BE5E
330
1BE55
330
1BE44
330
1BE79
330
1BE45
330
1BE56
 75
     0
 76
     1
 47
0.0837474085199163
 98
        1
 10
-190.9512595196649
 20
16.5781913483155
  0
LINE
  5
1BE44
102
{ACAD_REACTORS
330
1BE43
102
}
330
1BE35
100
AcDbEntity
  8
AM_0
100
AcDbLine
 10
-172.1250555175808
 20
16.24999998775003
 30
0.0
 11
-104.9422870460472
 21
16.24999998775003
 31
0.0
  0
LINE
  5
1BE45
102
{ACAD_REACTORS
330
1BE43
102
}
330
1BE35
100
AcDbEntity
  8
AM_0
100
AcDbLine
 10
-172.2261339984466
 20
16.74999998775003
 30
0.0
 11
-104.9422870460472
 21
16.74999998775001
 31
0.0
  0
HATCH
  5
1BE46
330
1BE35
100
AcDbEntity
  8
AM_0
100
AcDbHatch
 10
0.0
 20
0.0
 30
0.0
210
0.0
220
0.0
230
1.0
  2
SOLID
 70
     1
 71
     1
 91
        2
 92
        7
 72
     1
 73
     1
 93
        6
 10
-183.0220216617666
 20
14.84297924086208
 42
0.0
 10
-188.2999091127343
 20
14.84297924086208
 42
0.0
 10
-188.2999091127344
 20
8.093035504433164
 42
0.0
 10
-167.3000841549557
 20
8.093035504433162
 42
0.0
 10
-167.3000841549557
 20
14.84297924086208
 42
0.0
 10
-172.5779716059233
 20
14.84297924086208
 42
-0.2010697463675001
 97
        6
330
1BE4C
330
1BE59
330
1BE5C
330
1BE52
330
1BE51
330
1BE63
 92
       22
 72
     1
 73
     1
 93
        6
 10
-172.2277903941854
 20
13.04299424448096
 42
0.0
 10
-169.1000691513368
 20
13.04299424448096
 42
0.0
 10
-169.1000691513367
 20
9.893020500814165
 42
0.0
 10
-186.4999241163533
 20
9.893020500814275
 42
0.0
 10
-186.4999241163533
 20
13.04299424448096
 42
0.0
 10
-183.3722028735046
 20
13.04299424448096
 42
0.1884336657203522
 97
        6
330
1BE4A
330
1BE71
330
1BE50
330
1BE5D
330
1BE5B
330
1BE5A
 75
     0
 76
     1
 47
0.0434113165432333
 98
        2
 10
-175.1093714947233
 20
13.2812740545475
 10
-175.1093714947233
 20
13.2812740545475
  0
HATCH
  5
1BE47
330
1BE35
100
AcDbEntity
  8
AM_0
100
AcDbHatch
 10
0.0
 20
0.0
 30
0.0
210
0.0
220
0.0
230
1.0
  2
SOLID
 70
     1
 71
     1
 91
        2
 92
        7
 72
     1
 73
     1
 93
        6
 10
-188.2999091127343
 20
24.73292297729091
 42
0.0
 10
-188.2999091127343
 20
17.98297924086199
 42
0.0
 10
-182.899954123591
 20
17.98297924086199
 42
0.2058823529411692
 10
-172.7000391440989
 20
17.98297924086199
 42
0.0
 10
-167.3000841549557
 20
17.98297924086199
 42
0.0
 10
-167.3000841549557
 20
24.73292297729091
 42
0.0
 97
        6
330
1BE4F
330
1BE54
330
1BE61
330
1BE58
330
1BE4D
330
1BE6E
 92
       22
 72
     1
 73
     1
 93
        6
 10
-169.1000691513367
 20
22.93293798090991
 42
0.0
 10
-169.1000691513367
 20
19.7829642372431
 42
0.0
 10
-173.085165840258
 20
19.7829642372431
 42
-0.222699667041523
 10
-182.5148274274319
 20
19.7829642372431
 42
0.0
 10
-186.4999241163532
 20
19.78296423724311
 42
0.0
 10
-186.4999241163532
 20
22.93293798090991
 42
0.0
 97
        6
330
1BE6F
330
1BE4B
330
1BE62
330
1BE57
330
1BE53
330
1BE4E
 75
     0
 76
     1
 47
0.0434113165432333
 98
        2
 10
-176.0648603854307
 20
23.61316742875459
 10
-176.0648603854307
 20
23.61316742875459
  0
TEXT
  5
1BE48
330
1BE35
100
AcDbEntity
  8
AM_BOR
 62
     3
100
AcDbText
 10
-189.0522490983589
 20
33.49999997550026
 30
0.0
 40
2.5
  1
Sostituisce il
 41
0.8
  7
QUOTE
100
AcDbText
  0
TEXT
  5
1BE49
330
1BE35
100
AcDbEntity
  8
AM_BOR
 62
     3
100
AcDbText
 10
-189.0142146823992
 20
41.50000000000011
 30
0.0
 40
2.5
  1
Tolleranze generali
 41
0.8
  7
QUOTE
100
AcDbText
  0
LINE
  5
1BE4A
102
{ACAD_REACTORS
330
1BE46
102
}
330
1BE35
100
AcDbEntity
  8
AM_0
100
AcDbLine
 10
-172.2277903941853
 20
13.04299424448096
 30
0.0
 11
-169.1000691513367
 21
13.04299424448096
 31
0.0
  0
LINE
  5
1BE4B
102
{ACAD_REACTORS
330
1BE47
102
}
330
1BE35
100
AcDbEntity
  8
AM_BOR
100
AcDbLine
 10
-173.085165840258
 20
19.7829642372431
 30
0.0
 11
-169.1000691513367
 21
19.7829642372431
 31
0.0
  0
LINE
  5
1BE4C
102
{ACAD_REACTORS
330
1BE46
102
}
330
1BE35
100
AcDbEntity
  8
AM_BOR
100
AcDbLine
 10
-172.5779716059234
 20
14.84297924086208
 30
0.0
 11
-167.3000841549557
 21
14.84297924086208
 31
0.0
  0
LINE
  5
1BE4D
102
{ACAD_REACTORS
330
1BE47
102
}
330
1BE35
100
AcDbEntity
  8
AM_BOR
100
AcDbLine
 10
-172.7000391440987
 20
17.98297924086199
 30
0.0
 11
-167.3000841549557
 21
17.98297924086199
 31
0.0
  0
LINE
  5
1BE4E
102
{ACAD_REACTORS
330
1BE47
102
}
330
1BE35
100
AcDbEntity
  8
AM_BOR
100
AcDbLine
 10
-169.1000691513367
 20
22.93293798090991
 30
0.0
 11
-186.4999241163532
 21
22.93293798090991
 31
0.0
  0
LINE
  5
1BE4F
102
{ACAD_REACTORS
330
1BE47
102
}
330
1BE35
100
AcDbEntity
  8
AM_0
100
AcDbLine
 10
-167.3000841549557
 20
24.73292297729091
 30
0.0
 11
-188.2999091127343
 21
24.73292297729091
 31
0.0
  0
LINE
  5
1BE50
102
{ACAD_REACTORS
330
1BE46
102
}
330
1BE35
100
AcDbEntity
  8
AM_0
100
AcDbLine
 10
-169.1000691513367
 20
9.893020500814163
 30
0.0
 11
-186.4999241163533
 21
9.893020500814277
 31
0.0
  0
LINE
  5
1BE51
102
{ACAD_REACTORS
330
1BE46
102
}
330
1BE35
100
AcDbEntity
  8
AM_0
100
AcDbLine
 10
-167.3000841549557
 20
8.093035504433164
 30
0.0
 11
-188.2999091127343
 21
8.093035504433164
 31
0.0
  0
LINE
  5
1BE52
102
{ACAD_REACTORS
330
1BE46
102
}
330
1BE35
100
AcDbEntity
  8
AM_BOR
100
AcDbLine
 10
-188.2999091127343
 20
8.093035504433164
 30
0.0
 11
-188.2999091127343
 21
14.84297924086208
 31
0.0
  0
LINE
  5
1BE53
102
{ACAD_REACTORS
330
1BE47
102
}
330
1BE35
100
AcDbEntity
  8
AM_BOR
100
AcDbLine
 10
-186.4999241163533
 20
19.7829642372431
 30
0.0
 11
-186.4999241163532
 21
22.93293798090991
 31
0.0
  0
LINE
  5
1BE54
102
{ACAD_REACTORS
330
1BE47
102
}
330
1BE35
100
AcDbEntity
  8
AM_BOR
100
AcDbLine
 10
-188.2999091127343
 20
17.98297924086199
 30
0.0
 11
-188.2999091127343
 21
24.73292297729091
 31
0.0
  0
ARC
  5
1BE55
102
{ACAD_REACTORS
330
1BE43
102
}
330
1BE35
100
AcDbEntity
  8
AM_BOR
100
AcDbCircle
 10
-177.799996633845
 20
29.8435946634442
 30
0.0
 40
14.73060667047107
100
AcDbArc
 50
247.3408443660875
 51
292.6591556339125
  0
ARC
  5
1BE56
102
{ACAD_REACTORS
330
1BE43
102
}
330
1BE35
100
AcDbEntity
  8
AM_BOR
100
AcDbCircle
 10
-177.799996633845
 20
29.8435946634442
 30
0.0
 40
14.23060667047107
100
AcDbArc
 50
246.9408441772613
 51
293.0591558227387
  0
LINE
  5
1BE57
102
{ACAD_REACTORS
330
1BE47
102
}
330
1BE35
100
AcDbEntity
  8
AM_BOR
100
AcDbLine
 10
-186.4999241163533
 20
19.7829642372431
 30
0.0
 11
-182.514827427432
 21
19.7829642372431
 31
0.0
  0
ARC
  5
1BE58
102
{ACAD_REACTORS
330
1BE47
102
}
330
1BE35
100
AcDbEntity
  8
AM_BOR
100
AcDbCircle
 10
-177.799996633845
 20
29.8435946634442
 30
0.0
 40
12.91060667047107
100
AcDbArc
 50
246.732732002119
 51
293.2672679978809
  0
ARC
  5
1BE59
102
{ACAD_REACTORS
330
1BE46
102
}
330
1BE35
100
AcDbEntity
  8
AM_0
100
AcDbCircle
 10
-177.799996633845
 20
27.30358966223788
 30
0.0
 40
13.51060166926475
100
AcDbArc
 50
247.2622901981336
 51
292.7377098018663
  0
ARC
  5
1BE5A
102
{ACAD_REACTORS
330
1BE46
102
}
330
1BE35
100
AcDbEntity
  8
AM_0
100
AcDbCircle
 10
-177.799996633845
 20
27.30358966223788
 30
0.0
 40
15.31058666564578
100
AcDbArc
 50
248.6573503713684
 51
291.3426496286314
  0
LINE
  5
1BE5B
102
{ACAD_REACTORS
330
1BE46
102
}
330
1BE35
100
AcDbEntity
  8
AM_BOR
100
AcDbLine
 10
-186.4999241163533
 20
13.04299424448096
 30
0.0
 11
-183.3722028735047
 21
13.04299424448096
 31
0.0
  0
LINE
  5
1BE5C
102
{ACAD_REACTORS
330
1BE46
102
}
330
1BE35
100
AcDbEntity
  8
AM_BOR
100
AcDbLine
 10
-188.2999091127343
 20
14.84297924086208
 30
0.0
 11
-183.0220216617667
 21
14.84297924086208
 31
0.0
  0
LINE
  5
1BE5D
102
{ACAD_REACTORS
330
1BE46
102
}
330
1BE35
100
AcDbEntity
  8
AM_BOR
100
AcDbLine
 10
-186.4999241163533
 20
9.893020500814277
 30
0.0
 11
-186.4999241163533
 21
13.04299424448096
 31
0.0
  0
LINE
  5
1BE5E
102
{ACAD_REACTORS
330
1BE43
102
}
330
1BE35
100
AcDbEntity
  8
AM_0
100
AcDbLine
 10
-183.4749377501091
 20
16.24999998775003
 30
0.0
 11
-189.9999999999998
 21
16.24999998775003
 31
0.0
  0
LINE
  5
1BE5F
102
{ACAD_REACTORS
330
1BE43
102
}
330
1BE35
100
AcDbEntity
  8
AM_0
100
AcDbLine
 10
-183.3738592692434
 20
16.74999998775003
 30
0.0
 11
-190.0
 21
16.74999998775003
 31
0.0
  0
LINE
  5
1BE60
102
{ACAD_REACTORS
330
1BE43
102
}
330
1BE35
100
AcDbEntity
  8
AM_0
100
AcDbLine
 10
-190.0
 20
16.74999998775003
 30
0.0
 11
-189.9999999999998
 21
16.24999998775003
 31
0.0
  0
LINE
  5
1BE61
102
{ACAD_REACTORS
330
1BE47
102
}
330
1BE35
100
AcDbEntity
  8
AM_BOR
100
AcDbLine
 10
-188.2999091127343
 20
17.98297924086199
 30
0.0
 11
-182.8999541235913
 21
17.98297924086199
 31
0.0
  0
ARC
  5
1BE62
102
{ACAD_REACTORS
330
1BE47
102
}
330
1BE35
100
AcDbEntity
  8
AM_BOR
100
AcDbCircle
 10
-177.799996633845
 20
29.8435946634442
 30
0.0
 40
11.11062167409004
100
AcDbArc
 50
244.8902533520527
 51
295.1097466479472
  0
LINE
  5
1BE63
102
{ACAD_REACTORS
330
1BE46
102
}
330
1BE35
100
AcDbEntity
  8
AM_0
100
AcDbLine
 10
-167.3000841549557
 20
8.093035504433164
 30
0.0
 11
-167.3000841549557
 21
14.84297924086208
 31
0.0
  0
CIRCLE
  5
1BE64
330
1BE35
100
AcDbEntity
  8
AM_0
100
AcDbCircle
 10
-124.380293346984
 20
32.4999999755001
 30
0.0
 40
1.8
  0
CIRCLE
  5
1BE65
330
1BE35
100
AcDbEntity
  8
AM_0
100
AcDbCircle
 10
-124.380293346984
 20
32.4999999755001
 30
0.0
 40
2.700000000000038
  0
LINE
  5
1BE66
330
1BE35
100
AcDbEntity
  8
AM_7
  6
AM_ISO08W050x2
100
AcDbLine
 10
-138.1049065250949
 20
32.4999999755001
 30
0.0
 11
-120.9604255617827
 21
32.4999999755001
 31
0.0
1001
GENIUS_GENODEF_13
1002
{
1000
HIER
1070
     0
1002
}
1002
{
1000
MANEDIT
1070
     0
1002
}
1002
{
1000
NOSEL
1070
     0
1002
}
1002
{
1000
BEHIND
1070
     0
1002
}
1002
{
1000
REACTOR
1002
}
1001
GENIUS_GENOBJ-N-CEN_13
1002
{
1000
OWNER
1000
GEN
1002
}
  0
MTEXT
  5
1BE67
330
1BE35
100
AcDbEntity
  8
AM_0
100
AcDbMText
 10
-166.0331969893245
 20
14.52172519111269
 30
0.0
 40
2.376
 41
71.14
 71
     1
 72
     5
  1
{\fISOCTEUR|b0|i0|c0|p49;Accessories for fittings}
 73
     1
 44
1.0
  0
MTEXT
  5
1BE68
330
1BE35
100
AcDbEntity
  8
AM_0
100
AcDbMText
 10
-166.2858627232913
 20
21.86895223194097
 30
0.0
 40
3.564
 41
80.45999999999999
 71
     1
 72
     5
  1
{\fArial Black|b0|i0|c0|p34;Fratelli Comunello }
  7
ACISOTS
 73
     1
 44
1.0
  0
LINE
  5
1BE69
330
1BE35
100
AcDbEntity
  8
AM_7
  6
AM_ISO08W050x2
100
AcDbLine
 10
-124.380293346984
 20
35.98912961192911
 30
0.0
 11
-124.380293346984
 21
29.01126421122319
 31
0.0
1001
GENIUS_GENODEF_13
1002
{
1000
HIER
1070
     0
1002
}
1002
{
1000
MANEDIT
1070
     0
1002
}
1002
{
1000
NOSEL
1070
     0
1002
}
1002
{
1000
BEHIND
1070
     0
1002
}
1002
{
1000
REACTOR
1002
}
1001
GENIUS_GENOBJ-N-CEN_13
1002
{
1000
OWNER
1000
GEN
1002
}
  0
LINE
  5
1BE6A
330
1BE35
100
AcDbEntity
  8
AM_0
100
AcDbLine
 10
-137.284782198657
 20
30.6999999755001
 30
0.0
 11
-137.284782198657
 21
34.2999999755001
 31
0.0
  0
LINE
  5
1BE6B
330
1BE35
100
AcDbEntity
  8
AM_0
100
AcDbLine
 10
-129.9383386702092
 20
29.79999997550006
 30
0.0
 11
-129.9383386702092
 21
35.19999997550014
 31
0.0
  0
LINE
  5
1BE6C
330
1BE35
100
AcDbEntity
  8
AM_BOR
100
AcDbLine
 10
-141.523492063492
 20
36.49999997550014
 30
0.0
 11
-141.523492063492
 21
28.49999997550003
 31
0.0
  0
LINE
  5
1BE6D
330
1BE35
100
AcDbEntity
  8
AM_BOR
100
AcDbLine
 10
-165.761746031746
 20
36.49999997550014
 30
0.0
 11
-165.761746031746
 21
28.49999997550006
 31
0.0
  0
LINE
  5
1BE6E
102
{ACAD_REACTORS
330
1BE47
102
}
330
1BE35
100
AcDbEntity
  8
AM_BOR
100
AcDbLine
 10
-167.3000841549557
 20
17.9829792408621
 30
0.0
 11
-167.3000841549557
 21
24.73292297729091
 31
0.0
  0
LINE
  5
1BE6F
102
{ACAD_REACTORS
330
1BE47
102
}
330
1BE35
100
AcDbEntity
  8
AM_BOR
100
AcDbLine
 10
-169.1000691513367
 20
19.7829642372431
 30
0.0
 11
-169.1000691513367
 21
22.93293798090991
 31
0.0
  0
LINE
  5
1BE70
330
1BE35
100
AcDbEntity
  8
AM_BOR
100
AcDbLine
 10
-169.1000691513366
 20
19.7829642372431
 30
0.0
 11
-169.1000691513366
 21
22.93293798090991
 31
0.0
  0
LINE
  5
1BE71
102
{ACAD_REACTORS
330
1BE46
102
}
330
1BE35
100
AcDbEntity
  8
AM_0
100
AcDbLine
 10
-169.1000691513367
 20
9.893020500814163
 30
0.0
 11
-169.1000691513367
 21
13.04299424448096
 31
0.0
  0
LINE
  5
1BE72
330
1BE35
100
AcDbEntity
  8
AM_0
100
AcDbLine
 10
-137.284782198657
 20
30.6999999755001
 30
0.0
 11
-129.9383386702092
 21
29.79999997550006
 31
0.0
  0
TEXT
  5
1BE73
330
1BE35
100
AcDbEntity
  8
AM_BOR
 62
     3
100
AcDbText
 10
-164.8514948529634
 20
33.49999997550026
 30
0.0
 40
2.5
  1
Sostituito dal
 41
0.8
  7
QUOTE
100
AcDbText
  0
TEXT
  5
1BE74
330
1BE35
100
AcDbEntity
  8
AM_BOR
 62
     3
100
AcDbText
 10
-164.8330952380952
 20
45.75
 30
0.0
 40
2.5
  1
Denominazione
 41
0.8
  7
QUOTE
 72
     4
 11
-153.642619047619
 21
47.0
 31
0.0
100
AcDbText
  0
LINE
  5
1BE75
330
1BE35
100
AcDbEntity
  8
AM_0
100
AcDbLine
 10
-137.284782198657
 20
34.2999999755001
 30
0.0
 11
-129.9383386702092
 21
35.19999997550014
 31
0.0
  0
MTEXT
  5
1BE76
330
1BE35
100
AcDbEntity
  8
AM_0
100
AcDbMText
 10
-115.7246700667165
 20
20.45426878249846
 30
0.0
 40
2.28096
 41
51.4944
 71
     1
 72
     5
  1
{\fArial Black|b0|i0|c0|p34;S.p.A}
  7
ACISOTS
 73
     1
 44
1.0
  0
TEXT
  5
1BE77
330
1BE35
100
AcDbEntity
  8
AM_6
100
AcDbText
 10
-106.7664486163646
 20
20.06804143302904
 30
0.0
 40
0.9628044757499999
  1
R
 41
0.8
  7
QUOTE
 72
     4
 11
-106.3629876931932
 21
20.54944367090404
 31
0.0
100
AcDbText
  0
CIRCLE
  5
1BE78
330
1BE35
100
AcDbEntity
  8
AM_6
100
AcDbCircle
 10
-106.3629876931932
 20
20.54944367090404
 30
0.0
 40
0.7019941485886019
  0
LINE
  5
1BE79
102
{ACAD_REACTORS
330
1BE43
102
}
330
1BE35
100
AcDbEntity
  8
AM_BOR
100
AcDbLine
 10
-104.9422870460472
 20
16.74999998775001
 30
0.0
 11
-104.9422870460472
 21
16.24999998775003
 31
0.0
  0
TEXT
  5
1BE7A
330
1BE35
100
AcDbEntity
  8
AM_BOR
 62
     3
100
AcDbText
 10
-113.7205821618971
 20
41.1815065028598
 30
0.0
 40
2.5
  1
Peso Unit.(Kg)
 41
0.8
  7
QUOTE
100
AcDbText
  0
TEXT
  5
1BE7B
330
1BE35
100
AcDbEntity
  8
AM_BOR
 62
     3
100
AcDbText
 10
-114.4845238095238
 20
46.16666666666666
 30
0.0
 40
2.5
  1
Codice Disegno
 41
0.8
  7
QUOTE
 72
     4
 11
-102.8178571428571
 21
47.0
 31
0.0
100
AcDbText
  0
TEXT
  5
1BE7C
330
1BE35
100
AcDbEntity
  8
AM_BOR
 62
     3
100
AcDbText
 10
-116.5976286418845
 20
33.49999997550026
 30
0.0
 40
2.5
  1
Scala
 41
0.8
  7
QUOTE
100
AcDbText
  0
LINE
  5
1BE7D
330
1BE35
100
AcDbEntity
  8
AM_BOR
100
AcDbLine
 10
0.0
 20
57.5
 30
0.0
 11
0.0
 21
0.0
 31
0.0
  0
LINE
  5
1BE7E
330
1BE35
100
AcDbEntity
  8
AM_BOR
100
AcDbLine
 10
-23.06702380952381
 20
57.5
 30
0.0
 11
-23.06702380952381
 21
12.5
 31
0.0
  0
LINE
  5
1BE7F
330
1BE35
100
AcDbEntity
  8
AM_BOR
100
AcDbLine
 10
-73.49967888540709
 20
36.49999997550014
 30
0.0
 11
-73.49967888540709
 21
4.5
 31
0.0
  0
LINE
  5
1BE80
330
1BE35
100
AcDbEntity
  8
AM_BOR
100
AcDbLine
 10
-73.49967888540709
 20
12.5
 30
0.0
 11
0.0
 21
12.5
 31
0.0
  0
LINE
  5
1BE81
330
1BE35
100
AcDbEntity
  8
AM_BOR
100
AcDbLine
 10
-73.49967888540709
 20
20.5
 30
0.0
 11
0.0
 21
20.5
 31
0.0
  0
LINE
  5
1BE82
330
1BE35
100
AcDbEntity
  8
AM_BOR
100
AcDbLine
 10
-40.1931463101742
 20
36.49999997550014
 30
0.0
 11
-40.1931463101742
 21
12.5
 31
0.0
  0
TEXT
  5
1BE83
330
1BE35
100
AcDbEntity
  8
AM_BOR
 62
     3
100
AcDbText
 10
-72.58464640884369
 20
17.50000000000011
 30
0.0
 40
2.5
  1
Approvato
 41
0.8
  7
QUOTE
100
AcDbText
  0
TEXT
  5
1BE84
330
1BE35
100
AcDbEntity
  8
AM_BOR
 62
     3
100
AcDbText
 10
-72.89800933888016
 20
9.494654529804051
 30
0.0
 40
2.5
  1
Nr.Art.
 41
0.8
  7
QUOTE
 72
     1
 11
-68.23134267221348
 21
9.494654529804051
 31
0.0
100
AcDbText
  0
TEXT
  5
1BE85
330
1BE35
100
AcDbEntity
  8
AM_BOR
 62
     3
100
AcDbText
 10
-72.58464640884369
 20
25.49999997550014
 30
0.0
 40
2.5
  1
Verificato
 41
0.8
  7
QUOTE
100
AcDbText
  0
TEXT
  5
1BE86
330
1BE35
100
AcDbEntity
  8
AM_BOR
 62
     3
100
AcDbText
 10
-39.55566753525067
 20
17.50000000000019
 30
0.0
 40
2.5
  1
Data 
 41
0.8
  7
QUOTE
100
AcDbText
  0
TEXT
  5
1BE87
330
1BE35
100
AcDbEntity
  8
AM_BOR
 62
     3
100
AcDbText
 10
-39.55566753525067
 20
25.49999997550023
 30
0.0
 40
2.5
  1
Data 
 41
0.8
  7
QUOTE
100
AcDbText
  0
TEXT
  5
1BE88
330
1BE35
100
AcDbEntity
  8
AM_BOR
 62
     3
100
AcDbText
 10
-68.04208333333334
 20
45.75
 30
0.0
 40
2.5
  1
Materiale - UNI
 41
0.8
  7
QUOTE
 72
     4
 11
-55.70875
 21
47.0
 31
0.0
100
AcDbText
  0
TEXT
  5
1BE89
330
1BE35
100
AcDbEntity
  8
AM_BOR
 62
     3
100
AcDbText
 10
-72.87265296633268
 20
33.49999997550026
 30
0.0
 40
2.5
  1
Disegnato
 41
0.8
  7
QUOTE
100
AcDbText
  0
TEXT
  5
1BE8A
330
1BE35
100
AcDbEntity
  8
AM_BOR
 62
     3
100
AcDbText
 10
-39.55566753525067
 20
33.49999997550026
 30
0.0
 40
2.5
  1
Data 
 41
0.8
  7
QUOTE
100
AcDbText
  0
TEXT
  5
1BE8B
330
1BE35
100
AcDbEntity
  8
AM_BOR
 62
     3
100
AcDbText
 10
-22.1635143838539
 20
17.49580658048648
 30
0.0
 40
2.5
  1
Attrezzatura 3
 41
0.8
  7
QUOTE
 72
     1
 11
-11.30637152671104
 21
17.49580658048648
 31
0.0
100
AcDbText
  0
TEXT
  5
1BE8C
330
1BE35
100
AcDbEntity
  8
AM_BOR
 62
     3
100
AcDbText
 10
-22.17065620663248
 20
25.50335030888863
 30
0.0
 40
2.5
  1
Attrezzatura 2
 41
0.8
  7
QUOTE
100
AcDbText
  0
TEXT
  5
1BE8D
330
1BE35
100
AcDbEntity
  8
AM_BOR
 62
     3
100
AcDbText
 10
-22.17065620663248
 20
33.50335030888871
 30
0.0
 40
2.5
  1
Attrezzatura 1
 41
0.8
  7
QUOTE
100
AcDbText
  0
TEXT
  5
1BE8E
330
1BE35
100
AcDbEntity
  8
AM_BOR
 62
     3
100
AcDbText
 10
-22.36310222305411
 20
41.49279756757721
 30
0.0
 40
2.5
  1
Coeff.Impiego
 41
0.8
  7
QUOTE
100
AcDbText
  0
TEXT
  5
1BE8F
330
1BE35
100
AcDbEntity
  8
AM_BOR
 62
     3
100
AcDbText
 10
-20.48590476190476
 20
45.75
 30
0.0
 40
2.5
  1
Codice Mat.
 41
0.8
  7
QUOTE
 72
     4
 11
-11.53352380952381
 21
47.0
 31
0.0
100
AcDbText
  0
ATTDEF
  5
1BE90
330
1BE35
100
AcDbEntity
  8
AM_BOR
 62
     2
100
AcDbText
 10
-188.7603193669182
 20
53.99987316562778
 30
0.0
 40
2.0
  1

  7
ISO
100
AcDbAttributeDefinition
  3
DENOMINAZIONE 1(MAX 40)
  2
DENOMINAZIONE1
 70
     0
  0
ATTDEF
  5
1BE91
330
1BE35
100
AcDbEntity
  8
AM_BOR
 62
     2
100
AcDbText
 10
-188.7603193669182
 20
50.49987316562777
 30
0.0
 40
2.0
  1

  7
ISO
100
AcDbAttributeDefinition
  3
DENOMINAZIONE 2(MAX 40)
  2
DENOMINAZIONE2
 70
     0
  0
ATTDEF
  5
1BE92
330
1BE35
100
AcDbEntity
  8
AM_BOR
 62
     2
100
AcDbText
 10
-102.8178571428571
 20
53.49987316562778
 30
0.0
 40
3.5
  1

  7
ISO
 72
     4
 11
-102.8178571428571
 21
53.49987316562778
 31
0.0
100
AcDbAttributeDefinition
  3
CODICE DISEGNO(MAX 8)
  2
CODICEDIS.
 70
     0
  0
ATTDEF
  5
1BE93
330
1BE35
100
AcDbEntity
  8
AM_BOR
 62
     2
100
AcDbText
 10
-102.8178571428571
 20
37.18137966848746
 30
0.0
 40
2.5
  1

  7
ISO
 72
     1
 11
-102.8178571428571
 21
37.18137966848746
 31
0.0
100
AcDbAttributeDefinition
  3
PESO UNITARIO(MAX 12)
  2
PESOUNITARIO
 70
     0
  0
ATTDEF
  5
1BE94
330
1BE35
100
AcDbEntity
  8
AM_BOR
 62
     2
100
AcDbText
 10
-87.33297217149113
 20
53.99987316562778
 30
0.0
 40
2.0
  1

  7
ISO
100
AcDbAttributeDefinition
  3
MATERIALE 1(MAX 40)
  2
MATERIALE1
 70
     0
  0
ATTDEF
  5
1BE95
330
1BE35
100
AcDbEntity
  8
AM_BOR
 62
     2
100
AcDbText
 10
-87.33297217149113
 20
50.49987316562777
 30
0.0
 40
2.0
  1

  7
ISO
100
AcDbAttributeDefinition
  3
MATERIALE 2(MAX 40)
  2
MATERIALE2
 70
     0
  0
ATTDEF
  5
1BE96
330
1BE35
100
AcDbEntity
  8
AM_BOR
 62
     2
100
AcDbText
 10
-11.53397217149108
 20
53.49987316562778
 30
0.0
 40
2.5
  1

  7
ISO
 72
     4
 11
-11.53397217149108
 21
53.49987316562778
 31
0.0
100
AcDbAttributeDefinition
  3
CODICE MATERIALE(MAX 13)
  2
CODICEMAT.
 70
     0
  0
ATTDEF
  5
1BE97
330
1BE35
100
AcDbEntity
  8
AM_BOR
 62
     2
100
AcDbText
 10
-11.53397217149108
 20
37.49987316562777
 30
0.0
 40
2.5
  1

  7
ISO
 72
     1
 11
-11.53397217149108
 21
37.49987316562777
 31
0.0
100
AcDbAttributeDefinition
  3
COEFF.D'IMPIEGO(MAX 12)
  2
COEFF.IMPIEGO
 70
     0
  0
ATTDEF
  5
1BE98
330
1BE35
100
AcDbEntity
  8
AM_BOR
 62
     2
100
AcDbText
 10
-68.60697217149109
 20
40.99987316562777
 30
0.0
 40
2.5
  1

  7
ISO
100
AcDbAttributeDefinition
  3
TRATTAMENTO 1(MAX 23)
  2
TRATTAMENTO1
 70
     0
  0
ATTDEF
  5
1BE99
330
1BE35
100
AcDbEntity
  8
AM_BOR
 62
     2
100
AcDbText
 10
-87.35097217149109
 20
37.49987316562777
 30
0.0
 40
2.5
  1

  7
ISO
100
AcDbAttributeDefinition
  3
TRATTAMENTO 2(MAX 32)
  2
TRATTAMENTO2
 70
     0
  0
ATTDEF
  5
1BE9A
330
1BE35
100
AcDbEntity
  8
AM_BOR
 62
     2
100
AcDbText
 10
-102.8178571428571
 20
29.49987316562777
 30
0.0
 40
2.5
  1

  7
ISO
 72
     1
 11
-102.8178571428571
 21
29.49987316562777
 31
0.0
100
AcDbAttributeDefinition
  3
SCALA(MAX 7)
  2
SCALA
 70
     0
  0
ATTDEF
  5
1BE9B
330
1BE35
100
AcDbEntity
  8
AM_BOR
 62
     2
100
AcDbText
 10
-80.92507753794166
 20
32.49987316562777
 30
0.0
 40
3.5
  1

  7
ISO
 72
     4
 11
-80.92507753794166
 21
32.49987316562777
 31
0.0
100
AcDbAttributeDefinition
  3
FORMATO FOGLIO(MAX 2)
  2
FORMATOFOGLIO
 70
     0
  0
ATTDEF
  5
1BE9C
330
1BE35
100
AcDbEntity
  8
AM_BOR
 62
     2
100
AcDbText
 10
-56.8459721714911
 20
29.49987316562777
 30
0.0
 40
2.5
  1

  7
ISO
 72
     1
 11
-56.8459721714911
 21
29.49987316562777
 31
0.0
100
AcDbAttributeDefinition
  3
DISEGNATO(MAX 16)
  2
DISEGNATO
 70
     0
  0
ATTDEF
  5
1BE9D
330
1BE35
100
AcDbEntity
  8
AM_BOR
 62
     2
100
AcDbText
 10
-31.62997217149111
 20
29.49987316562777
 30
0.0
 40
2.5
  1

  7
ISO
 72
     1
 11
-31.62997217149111
 21
29.49987316562777
 31
0.0
100
AcDbAttributeDefinition
  3
DATA DISEGNO(MAX 8)
  2
DATADISEGNO
 70
     0
  0
ATTDEF
  5
1BE9E
330
1BE35
100
AcDbEntity
  8
AM_BOR
 62
     2
100
AcDbText
 10
-56.8459721714911
 20
21.49987316562777
 30
0.0
 40
2.5
  1

  7
ISO
 72
     1
 11
-56.8459721714911
 21
21.49987316562777
 31
0.0
100
AcDbAttributeDefinition
  3
VERIFICATO(MAX 16)
  2
VERIFICATO
 70
     0
  0
ATTDEF
  5
1BE9F
330
1BE35
100
AcDbEntity
  8
AM_BOR
 62
     2
100
AcDbText
 10
-31.62997217149111
 20
21.49987316562777
 30
0.0
 40
2.5
  1

  7
ISO
 72
     1
 11
-31.62997217149111
 21
21.49987316562777
 31
0.0
100
AcDbAttributeDefinition
  3
DATA VERIFICA(MAX 8)
  2
DATAVERIFICA
 70
     0
  0
ATTDEF
  5
1BEA0
330
1BE35
100
AcDbEntity
  8
AM_BOR
 62
     2
100
AcDbText
 10
-56.8459721714911
 20
13.49987316562777
 30
0.0
 40
2.5
  1

  7
ISO
 72
     1
 11
-56.8459721714911
 21
13.49987316562777
 31
0.0
100
AcDbAttributeDefinition
  3
APPROVATO(MAX 16)
  2
APPROVATO
 70
     0
  0
ATTDEF
  5
1BEA1
330
1BE35
100
AcDbEntity
  8
AM_BOR
 62
     2
100
AcDbText
 10
-31.62997217149111
 20
13.49987316562777
 30
0.0
 40
2.5
  1

  7
ISO
 72
     1
 11
-31.62997217149111
 21
13.49987316562777
 31
0.0
100
AcDbAttributeDefinition
  3
DATA APPROVAZIONE(MAX 8)
  2
DATAAPPROVAZIONE
 70
     0
  0
ATTDEF
  5
1BEA2
330
1BE35
100
AcDbEntity
  8
AM_BOR
 62
     2
100
AcDbText
 10
-62.94997217149111
 20
8.999873165627775
 30
0.0
 40
2.5
  1

  7
ISO
100
AcDbAttributeDefinition
  3
NUMERO ARTICOLO 1(MAX 31)
  2
NR.ART.1
 70
     0
  0
ATTDEF
  5
1BEA3
330
1BE35
100
AcDbEntity
  8
AM_BOR
 62
     2
100
AcDbText
 10
-72.49997217149112
 20
5.499873165627775
 30
0.0
 40
2.5
  1

  7
ISO
100
AcDbAttributeDefinition
  3
NUMERO ARTICOLO 2(MAX 36)
  2
NR.ART.2
 70
     0
  0
ATTDEF
  5
1BEA4
330
1BE35
100
AcDbEntity
  8
AM_BOR
 62
     2
100
AcDbText
 10
-11.53397217149108
 20
29.49987316562777
 30
0.0
 40
2.5
  1

  7
ISO
 72
     1
 11
-11.53397217149108
 21
29.49987316562777
 31
0.0
100
AcDbAttributeDefinition
  3
ATTREZZATURA 1(MAX 13)
  2
ATTREZZATURA1
 70
     0
  0
ATTDEF
  5
1BEA5
330
1BE35
100
AcDbEntity
  8
AM_BOR
 62
     2
100
AcDbText
 10
-11.53397217149108
 20
21.49987316562777
 30
0.0
 40
2.5
  1

  7
ISO
 72
     1
 11
-11.53397217149108
 21
21.49987316562777
 31
0.0
100
AcDbAttributeDefinition
  3
ATTREZZATURA 2(MAX 13)
  2
ATTREZZATURA2
 70
     0
  0
ATTDEF
  5
1BEA6
330
1BE35
100
AcDbEntity
  8
AM_BOR
 62
     2
100
AcDbText
 10
-11.53397217149108
 20
13.49987316562777
 30
0.0
 40
2.5
  1

  7
ISO
 72
     1
 11
-11.53397217149108
 21
13.49987316562777
 31
0.0
100
AcDbAttributeDefinition
  3
ATTREZZATURA 3(MAX 13)
  2
ATTREZZATURA3
 70
     0
  0
ATTDEF
  5
1BEA7
330
1BE35
100
AcDbEntity
  8
AM_BOR
 62
     2
100
AcDbText
 10
-153.9686864572054
 20
40.99987316562777
 30
0.0
 40
2.5
  1
GRADO DI PRECISIONE:
  7
ISO
 72
     1
 11
-139.0579721714911
 21
40.99987316562777
 31
0.0
100
AcDbAttributeDefinition
  3

  2
TOLLERANZEGENERALI
 70
     2
  0
ATTDEF
  5
1BEA8
330
1BE35
100
AcDbEntity
  8
AM_BOR
 62
     2
100
AcDbText
 10
-188.9999721714911
 20
37.49987316562777
 30
0.0
 40
2.5
  1
UNI-EN 22768-m
  7
ISO
100
AcDbAttributeDefinition
  3
TOLL.GENERALI(MAX 36)
  2
TOLLERANZEGENERALI
 70
     0
  0
ATTDEF
  5
1BEA9
330
1BE35
100
AcDbEntity
  8
AM_BOR
 62
     2
100
AcDbText
 10
-177.880972171491
 20
29.49987316562777
 30
0.0
 40
2.5
  1

  7
ISO
 72
     1
 11
-177.880972171491
 21
29.49987316562777
 31
0.0
100
AcDbAttributeDefinition
  3
SOSTITUISCE IL(MAX 13)
  2
SOSTITUISCEIL
 70
     0
  0
ATTDEF
  5
1BEAA
330
1BE35
100
AcDbEntity
  8
AM_BOR
 62
     2
100
AcDbText
 10
-153.6429721714911
 20
29.49987316562777
 30
0.0
 40
2.5
  1

  7
ISO
 72
     1
 11
-153.6429721714911
 21
29.49987316562777
 31
0.0
100
AcDbAttributeDefinition
  3
SOSTITUITO DAL(MAX 13)
  2
SOSTITUITODAL
 70
     0
  0
ENDBLK
  5
1BEAC
330
1BE35
100
AcDbEntity
  8
0
100
AcDbBlockEnd
  0
ENDSEC
  0
SECTION
  2
ENTITIES
  0
TEXT
  5
1412
330
2
100
AcDbEntity
  8
AM_0
100
AcDbText
 10
85.39574238252596
 20
252.1349430238317
 30
0.0
 40
3.0
  1
ART.440 CERNIERONA 2 ALI APERTE CON RONDELLA
 41
0.8
  7
QUOTE
100
AcDbText
  0
LINE
  5
1418
330
2
100
AcDbEntity
  8
AM_0
100
AcDbLine
 10
76.80902011688759
 20
219.2019569316085
 30
0.0
 11
191.7760694585858
 21
219.2019569316085
 31
0.0
  0
LINE
  5
141A
330
2
100
AcDbEntity
  8
AM_0
100
AcDbLine
 10
76.80902011688759
 20
225.8019569316086
 30
0.0
 11
191.7760694585858
 21
225.8019569316086
 31
0.0
  0
LINE
  5
141B
330
2
100
AcDbEntity
  8
AM_0
100
AcDbLine
 10
76.80902011688759
 20
232.3227797144006
 30
0.0
 11
191.7760694585858
 21
232.3227797144006
 31
0.0
  0
LINE
  5
1430
330
2
100
AcDbEntity
  8
AM_0
100
AcDbLine
 10
149.2925447877366
 20
267.7745339686655
 30
0.0
 11
149.2925447877366
 21
277.7745339686655
 31
0.0
  0
LINE
  5
1431
330
2
100
AcDbEntity
  8
AM_0
100
AcDbLine
 10
150.2925447877366
 20
266.7745339686655
 30
0.0
 11
150.2925447877366
 21
278.7745339686655
 31
0.0
  0
LINE
  5
1432
330
2
100
AcDbEntity
  8
AM_0
100
AcDbLine
 10
118.2925447877366
 20
278.7745339686655
 30
0.0
 11
118.2925447877366
 21
266.7745339686655
 31
0.0
  0
LINE
  5
1433
330
2
100
AcDbEntity
  8
AM_0
100
AcDbLine
 10
119.2925447877366
 20
277.7745339686655
 30
0.0
 11
119.2925447877366
 21
267.7745339686655
 31
0.0
  0
TEXT
  5
1435
330
2
100
AcDbEntity
  8
AM_5
100
AcDbText
 10
108.6733201266211
 20
218.8954513343155
 30
0.0
 40
2.999999997
  1

 41
0.8
 51
20.0
  7
CART
 72
     4
 11
108.6733201266211
 21
218.8954513343155
 31
0.0
100
AcDbText
  0
TEXT
  5
1447
330
2
100
AcDbEntity
  8
AM_5
100
AcDbText
 10
77.74126607037863
 20
226.8393519571287
 30
0.0
 40
3.2999999967
  1
CODICE ARTICOLO
 41
0.8
 51
20.0
  7
CART
 72
     4
 11
95.21555176719006
 21
228.4893519554788
 31
0.0
100
AcDbText
  0
LINE
  5
1448
330
2
100
AcDbEntity
  8
AM_0
100
AcDbLine
 10
76.80902011688759
 20
232.3227797144006
 30
0.0
 11
76.80902011688757
 21
219.2019569316086
 31
0.0
  0
TEXT
  5
144A
330
2
100
AcDbEntity
  8
AM_5
100
AcDbText
 10
85.03269463451578
 20
220.3977473084729
 30
0.0
 40
3.2999999967
  1
11607709
 41
0.8
 51
20.0
  7
CART
 72
     4
 11
95.21555176719006
 21
222.0477473068229
 31
0.0
100
AcDbText
  0
LINE
  5
1452
330
2
100
AcDbEntity
  8
AM_0
100
AcDbLine
 10
118.2925447877366
 20
266.7745339686655
 30
0.0
 11
150.2925447877366
 21
266.7745339686655
 31
0.0
  0
LINE
  5
1453
330
2
100
AcDbEntity
  8
AM_0
100
AcDbLine
 10
119.2925447877366
 20
267.7745339686655
 30
0.0
 11
149.2925447877366
 21
267.7745339686655
 31
0.0
  0
LINE
  5
147A
330
2
100
AcDbEntity
  8
AM_0
100
AcDbLine
 10
150.2925447877366
 20
278.7745339686655
 30
0.0
 11
118.2925447877366
 21
278.7745339686655
 31
0.0
  0
LINE
  5
147B
330
2
100
AcDbEntity
  8
AM_0
100
AcDbLine
 10
149.2925447877366
 20
277.7745339686655
 30
0.0
 11
119.2925447877366
 21
277.7745339686655
 31
0.0
  0
TEXT
  5
147C
330
2
100
AcDbEntity
  8
AM_0
100
AcDbText
 10
127.6014107666015
 20
270.1590091388167
 30
0.0
 40
5.0
  1
440
  7
COMPLEX
100
AcDbText
  0
TEXT
  5
1488
330
2
100
AcDbEntity
  8
AM_5
100
AcDbText
 10
141.5122547763898
 20
226.8393519571286
 30
0.0
 40
3.2999999967
  1
CONFEZ.
 41
0.8
 51
20.0
  7
CART
 72
     4
 11
149.7465404824412
 21
228.4893519554787
 31
0.0
100
AcDbText
  0
TEXT
  5
1498
330
2
100
AcDbEntity
  8
AM_5
100
AcDbText
 10
144.2953334416691
 20
220.4954845768818
 30
0.0
 40
3.2999999967
  1
Pz.4
 41
0.8
 51
20.0
  7
CART
 72
     4
 11
148.6953334372691
 21
222.1454845752318
 31
0.0
100
AcDbText
  0
TEXT
  5
149C
330
2
100
AcDbEntity
  8
AM_5
100
AcDbText
 10
163.098315282568
 20
226.8393519571286
 30
0.0
 40
3.2999999967
  1
PESO LORDO
 41
0.8
 51
20.0
  7
CART
 72
     4
 11
176.1097438409852
 21
228.4893519554787
 31
0.0
100
AcDbText
  0
LINE
  5
149D
330
2
100
AcDbEntity
  8
AM_0
100
AcDbLine
 10
161.0208048164255
 20
232.3227797144005
 30
0.0
 11
161.0208048164254
 21
219.2019569316085
 31
0.0
  0
LINE
  5
149E
330
2
100
AcDbEntity
  8
AM_0
100
AcDbLine
 10
191.7760694585858
 20
232.3227797144005
 30
0.0
 11
191.7760694585858
 21
219.2019569316085
 31
0.0
  0
TEXT
  5
14A0
330
2
100
AcDbEntity
  8
AM_5
100
AcDbText
 10
166.0574668530264
 20
220.875560463265
 30
0.0
 40
3.2999999967
  1
2,120 Kg.
 41
0.8
 51
20.0
  7
CART
 72
     4
 11
176.1146097001121
 21
221.975560462165
 31
0.0
100
AcDbText
1001
GENIUS_GENTRA_14
1002
{
1070
     1
1000
/
1000
5,300 Kg.
1000
ITA
1070
     0
1040
0.8
1070
     0
1002
}
  0
INSERT
  5
1FA2
330
2
100
AcDbEntity
  8
AM_0
100
AcDbBlockReference
  2
LAYER-GENIUS
 10
0.0
 20
0.0
 30
0.0
  0
INSERT
  5
3FB0
330
2
100
AcDbEntity
  8
AME_FRZ
100
AcDbBlockReference
  2
AME_NIL
 10
665.1749266138454
 20
256.8822605998164
 30
0.0
  0
INSERT
  5
3FB1
330
2
100
AcDbEntity
  8
AME_FRZ
100
AcDbBlockReference
  2
AME_SOL
 10
665.1749266138454
 20
256.8822605998164
 30
0.0
1001
AME_SOL
1000
R2.1
1000
AME2
1000
cm^ 2
1070
     3
1070
     0
1070
     3
1000
wire
1040
45.0
1000
U
1040
1.0
1000
cm
1000
gm
1000
MILD_STEEL
1070
    25
1000
CSG
1070
     1
1070
     3
1070
     3
1070
     3
1070
     0
1000
cm^ 3
1070
     1
1070
     0
1005
3FB0
  0
INSERT
  5
3FB2
330
2
100
AcDbEntity
  8
AME_FRZ
100
AcDbBlockReference
  2
AME_NIL
 10
1254.907169502587
 20
272.8384396118305
 30
0.0
  0
INSERT
  5
3FB3
330
2
100
AcDbEntity
  8
AME_FRZ
100
AcDbBlockReference
  2
AME_SOL
 10
1254.907169502587
 20
272.8384396118305
 30
0.0
1001
AME_SOL
1000
R2.1
1000
AME2
1000
cm^ 2
1070
     3
1070
     0
1070
     3
1000
wire
1040
45.0
1000
U
1040
1.0
1000
cm
1000
gm
1000
MILD_STEEL
1070
    25
1000
CSG
1070
     1
1070
     3
1070
     3
1070
     3
1070
     0
1000
cm^ 3
1070
     1
1070
     0
1005
3FB2
  0
INSERT
  5
3FB4
330
2
100
AcDbEntity
  8
AME_FRZ
100
AcDbBlockReference
  2
AME_NIL
 10
1233.778243790486
 20
260.9259284382069
 30
0.0
  0
INSERT
  5
3FB5
330
2
100
AcDbEntity
  8
AME_FRZ
100
AcDbBlockReference
  2
AME_SOL
 10
1233.778243790486
 20
260.9259284382069
 30
0.0
1001
AME_SOL
1000
R2.1
1000
AME2
1000
cm^ 2
1070
     3
1070
     0
1070
     3
1000
wire
1040
45.0
1000
U
1040
1.0
1000
cm
1000
gm
1000
MILD_STEEL
1070
    25
1000
CSG
1070
     1
1070
     3
1070
     3
1070
     3
1070
     0
1000
cm^ 3
1070
     1
1070
     0
1005
3FB4
  0
INSERT
  5
3FB6
330
2
100
AcDbEntity
  8
AME_FRZ
100
AcDbBlockReference
  2
AME_NIL
 10
791.2522438810989
 20
295.8633801377737
 30
0.0
  0
INSERT
  5
3FB7
330
2
100
AcDbEntity
  8
AME_FRZ
100
AcDbBlockReference
  2
AME_SOL
 10
791.2522438810989
 20
295.8633801377737
 30
0.0
1001
AME_SOL
1000
R2.1
1000
AME2
1000
cm^ 2
1070
     3
1070
     0
1070
     3
1000
wire
1040
45.0
1000
U
1040
1.0
1000
cm
1000
gm
1000
MILD_STEEL
1070
    25
1000
CSG
1070
     1
1070
     3
1070
     3
1070
     3
1070
     0
1000
cm^ 3
1070
     1
1070
     0
1005
3FB6
  0
INSERT
  5
3FB8
330
2
100
AcDbEntity
  8
AME_FRZ
100
AcDbBlockReference
  2
AME_NIL
 10
791.2522438810989
 20
295.8633801377737
 30
0.0
  0
INSERT
  5
3FB9
330
2
100
AcDbEntity
  8
AME_FRZ
100
AcDbBlockReference
  2
AME_SOL
 10
791.2522438810989
 20
295.8633801377737
 30
0.0
1001
AME_SOL
1000
R2.1
1000
AME2
1000
cm^ 2
1070
     3
1070
     0
1070
     3
1000
wire
1040
45.0
1000
U
1040
1.0
1000
cm
1000
gm
1000
MILD_STEEL
1070
    25
1000
CSG
1070
     1
1070
     3
1070
     3
1070
     3
1070
     0
1000
cm^ 3
1070
     1
1070
     0
1005
3FB8
  0
INSERT
  5
3FC1
330
2
100
AcDbEntity
  8
AM_0
100
AcDbBlockReference
  2
LAYER-GENIUS
 10
409.2547617965424
 20
68.91854397087673
 30
0.0
  0
INSERT
  5
3FC4
330
2
100
AcDbEntity
  8
AME_FRZ
100
AcDbBlockReference
  2
AME_NIL
 10
1063.146634195381
 20
251.3962524136537
 30
0.0
  0
INSERT
  5
3FC5
330
2
100
AcDbEntity
  8
AME_FRZ
100
AcDbBlockReference
  2
AME_SOL
 10
1063.146634195381
 20
251.3962524136537
 30
0.0
1001
AME_SOL
1000
R2.1
1000
AME2
1000
cm^ 2
1070
     3
1070
     0
1070
     3
1000
wire
1040
45.0
1000
U
1040
1.0
1000
cm
1000
gm
1000
MILD_STEEL
1070
    25
1000
CSG
1070
     1
1070
     3
1070
     3
1070
     3
1070
     0
1000
cm^ 3
1070
     1
1070
     0
1005
3FC4
  0
INSERT
  5
3FC6
330
2
100
AcDbEntity
  8
AME_FRZ
100
AcDbBlockReference
  2
AME_NIL
 10
1652.878877084122
 20
267.3524314256677
 30
0.0
  0
INSERT
  5
3FC7
330
2
100
AcDbEntity
  8
AME_FRZ
100
AcDbBlockReference
  2
AME_SOL
 10
1652.878877084122
 20
267.3524314256677
 30
0.0
1001
AME_SOL
1000
R2.1
1000
AME2
1000
cm^ 2
1070
     3
1070
     0
1070
     3
1000
wire
1040
45.0
1000
U
1040
1.0
1000
cm
1000
gm
1000
MILD_STEEL
1070
    25
1000
CSG
1070
     1
1070
     3
1070
     3
1070
     3
1070
     0
1000
cm^ 3
1070
     1
1070
     0
1005
3FC6
  0
INSERT
  5
3FC8
330
2
100
AcDbEntity
  8
AME_FRZ
100
AcDbBlockReference
  2
AME_NIL
 10
1631.749951372022
 20
255.439920252044
 30
0.0
  0
INSERT
  5
3FC9
330
2
100
AcDbEntity
  8
AME_FRZ
100
AcDbBlockReference
  2
AME_SOL
 10
1631.749951372022
 20
255.439920252044
 30
0.0
1001
AME_SOL
1000
R2.1
1000
AME2
1000
cm^ 2
1070
     3
1070
     0
1070
     3
1000
wire
1040
45.0
1000
U
1040
1.0
1000
cm
1000
gm
1000
MILD_STEEL
1070
    25
1000
CSG
1070
     1
1070
     3
1070
     3
1070
     3
1070
     0
1000
cm^ 3
1070
     1
1070
     0
1005
3FC8
  0
INSERT
  5
3FCA
330
2
100
AcDbEntity
  8
AME_FRZ
100
AcDbBlockReference
  2
AME_NIL
 10
1189.223951462634
 20
290.3773719516109
 30
0.0
  0
INSERT
  5
3FCB
330
2
100
AcDbEntity
  8
AME_FRZ
100
AcDbBlockReference
  2
AME_SOL
 10
1189.223951462634
 20
290.3773719516109
 30
0.0
1001
AME_SOL
1000
R2.1
1000
AME2
1000
cm^ 2
1070
     3
1070
     0
1070
     3
1000
wire
1040
45.0
1000
U
1040
1.0
1000
cm
1000
gm
1000
MILD_STEEL
1070
    25
1000
CSG
1070
     1
1070
     3
1070
     3
1070
     3
1070
     0
1000
cm^ 3
1070
     1
1070
     0
1005
3FCA
  0
INSERT
  5
3FCC
330
2
100
AcDbEntity
  8
AME_FRZ
100
AcDbBlockReference
  2
AME_NIL
 10
1189.223951462634
 20
290.3773719516109
 30
0.0
  0
INSERT
  5
3FCD
330
2
100
AcDbEntity
  8
AME_FRZ
100
AcDbBlockReference
  2
AME_SOL
 10
1189.223951462634
 20
290.3773719516109
 30
0.0
1001
AME_SOL
1000
R2.1
1000
AME2
1000
cm^ 2
1070
     3
1070
     0
1070
     3
1000
wire
1040
45.0
1000
U
1040
1.0
1000
cm
1000
gm
1000
MILD_STEEL
1070
    25
1000
CSG
1070
     1
1070
     3
1070
     3
1070
     3
1070
     0
1000
cm^ 3
1070
     1
1070
     0
1005
3FCC
  0
INSERT
  5
3FCE
330
2
100
AcDbEntity
  8
AM_0
100
AcDbBlockReference
  2
LAYER-GENIUS
 10
830.7451081354459
 20
76.89122877817908
 30
0.0
  0
INSERT
  5
3FCF
330
2
100
AcDbEntity
  8
AM_0
100
AcDbBlockReference
  2
LAYER-GENIUS
 10
1254.099227195936
 20
98.86978962510784
 30
0.0
  0
INSERT
  5
3FD0
330
2
100
AcDbEntity
  8
AME_FRZ
100
AcDbBlockReference
  2
AME_NIL
 10
1825.034618098377
 20
293.041010172431
 30
0.0
  0
INSERT
  5
3FD1
330
2
100
AcDbEntity
  8
AME_FRZ
100
AcDbBlockReference
  2
AME_SOL
 10
1825.034618098377
 20
293.041010172431
 30
0.0
1001
AME_SOL
1000
R2.1
1000
AME2
1000
cm^ 2
1070
     3
1070
     0
1070
     3
1000
wire
1040
45.0
1000
U
1040
1.0
1000
cm
1000
gm
1000
MILD_STEEL
1070
    25
1000
CSG
1070
     1
1070
     3
1070
     3
1070
     3
1070
     0
1000
cm^ 3
1070
     1
1070
     0
1005
3FD0
  0
INSERT
  5
3FD2
330
2
100
AcDbEntity
  8
AME_FRZ
100
AcDbBlockReference
  2
AME_NIL
 10
2414.76686098712
 20
308.997189184445
 30
0.0
  0
INSERT
  5
3FD3
330
2
100
AcDbEntity
  8
AME_FRZ
100
AcDbBlockReference
  2
AME_SOL
 10
2414.76686098712
 20
308.997189184445
 30
0.0
1001
AME_SOL
1000
R2.1
1000
AME2
1000
cm^ 2
1070
     3
1070
     0
1070
     3
1000
wire
1040
45.0
1000
U
1040
1.0
1000
cm
1000
gm
1000
MILD_STEEL
1070
    25
1000
CSG
1070
     1
1070
     3
1070
     3
1070
     3
1070
     0
1000
cm^ 3
1070
     1
1070
     0
1005
3FD2
  0
INSERT
  5
3FD4
330
2
100
AcDbEntity
  8
AME_FRZ
100
AcDbBlockReference
  2
AME_NIL
 10
2393.637935275019
 20
297.0846780108214
 30
0.0
  0
INSERT
  5
3FD5
330
2
100
AcDbEntity
  8
AME_FRZ
100
AcDbBlockReference
  2
AME_SOL
 10
2393.637935275019
 20
297.0846780108214
 30
0.0
1001
AME_SOL
1000
R2.1
1000
AME2
1000
cm^ 2
1070
     3
1070
     0
1070
     3
1000
wire
1040
45.0
1000
U
1040
1.0
1000
cm
1000
gm
1000
MILD_STEEL
1070
    25
1000
CSG
1070
     1
1070
     3
1070
     3
1070
     3
1070
     0
1000
cm^ 3
1070
     1
1070
     0
1005
3FD4
  0
INSERT
  5
3FD6
330
2
100
AcDbEntity
  8
AME_FRZ
100
AcDbBlockReference
  2
AME_NIL
 10
1951.111935365631
 20
332.0221297103882
 30
0.0
  0
INSERT
  5
3FD7
330
2
100
AcDbEntity
  8
AME_FRZ
100
AcDbBlockReference
  2
AME_SOL
 10
1951.111935365631
 20
332.0221297103882
 30
0.0
1001
AME_SOL
1000
R2.1
1000
AME2
1000
cm^ 2
1070
     3
1070
     0
1070
     3
1000
wire
1040
45.0
1000
U
1040
1.0
1000
cm
1000
gm
1000
MILD_STEEL
1070
    25
1000
CSG
1070
     1
1070
     3
1070
     3
1070
     3
1070
     0
1000
cm^ 3
1070
     1
1070
     0
1005
3FD6
  0
INSERT
  5
3FD8
330
2
100
AcDbEntity
  8
AME_FRZ
100
AcDbBlockReference
  2
AME_NIL
 10
1951.111935365631
 20
332.0221297103882
 30
0.0
  0
INSERT
  5
3FD9
330
2
100
AcDbEntity
  8
AME_FRZ
100
AcDbBlockReference
  2
AME_SOL
 10
1951.111935365631
 20
332.0221297103882
 30
0.0
1001
AME_SOL
1000
R2.1
1000
AME2
1000
cm^ 2
1070
     3
1070
     0
1070
     3
1000
wire
1040
45.0
1000
U
1040
1.0
1000
cm
1000
gm
1000
MILD_STEEL
1070
    25
1000
CSG
1070
     1
1070
     3
1070
     3
1070
     3
1070
     0
1000
cm^ 3
1070
     1
1070
     0
1005
3FD8
  0
INSERT
  5
3FDA
330
2
100
AcDbEntity
  8
AME_FRZ
100
AcDbBlockReference
  2
AME_NIL
 10
2036.98168399276
 20
344.2173611774476
 30
0.0
  0
INSERT
  5
3FDB
330
2
100
AcDbEntity
  8
AME_FRZ
100
AcDbBlockReference
  2
AME_SOL
 10
2036.98168399276
 20
344.2173611774476
 30
0.0
1001
AME_SOL
1000
R2.1
1000
AME2
1000
cm^ 2
1070
     3
1070
     0
1070
     3
1000
wire
1040
45.0
1000
U
1040
1.0
1000
cm
1000
gm
1000
MILD_STEEL
1070
    25
1000
CSG
1070
     1
1070
     3
1070
     3
1070
     3
1070
     0
1000
cm^ 3
1070
     1
1070
     0
1005
3FDA
  0
INSERT
  5
3FDC
330
2
100
AcDbEntity
  8
AME_FRZ
100
AcDbBlockReference
  2
AME_NIL
 10
2626.713926881502
 20
360.1735401894616
 30
0.0
  0
INSERT
  5
3FDD
330
2
100
AcDbEntity
  8
AME_FRZ
100
AcDbBlockReference
  2
AME_SOL
 10
2626.713926881502
 20
360.1735401894616
 30
0.0
1001
AME_SOL
1000
R2.1
1000
AME2
1000
cm^ 2
1070
     3
1070
     0
1070
     3
1000
wire
1040
45.0
1000
U
1040
1.0
1000
cm
1000
gm
1000
MILD_STEEL
1070
    25
1000
CSG
1070
     1
1070
     3
1070
     3
1070
     3
1070
     0
1000
cm^ 3
1070
     1
1070
     0
1005
3FDC
  0
INSERT
  5
3FDE
330
2
100
AcDbEntity
  8
AME_FRZ
100
AcDbBlockReference
  2
AME_NIL
 10
2605.585001169401
 20
348.261029015838
 30
0.0
  0
INSERT
  5
3FDF
330
2
100
AcDbEntity
  8
AME_FRZ
100
AcDbBlockReference
  2
AME_SOL
 10
2605.585001169401
 20
348.261029015838
 30
0.0
1001
AME_SOL
1000
R2.1
1000
AME2
1000
cm^ 2
1070
     3
1070
     0
1070
     3
1000
wire
1040
45.0
1000
U
1040
1.0
1000
cm
1000
gm
1000
MILD_STEEL
1070
    25
1000
CSG
1070
     1
1070
     3
1070
     3
1070
     3
1070
     0
1000
cm^ 3
1070
     1
1070
     0
1005
3FDE
  0
INSERT
  5
3FE0
330
2
100
AcDbEntity
  8
AME_FRZ
100
AcDbBlockReference
  2
AME_NIL
 10
2163.059001260013
 20
383.1984807154048
 30
0.0
  0
INSERT
  5
3FE1
330
2
100
AcDbEntity
  8
AME_FRZ
100
AcDbBlockReference
  2
AME_SOL
 10
2163.059001260013
 20
383.1984807154048
 30
0.0
1001
AME_SOL
1000
R2.1
1000
AME2
1000
cm^ 2
1070
     3
1070
     0
1070
     3
1000
wire
1040
45.0
1000
U
1040
1.0
1000
cm
1000
gm
1000
MILD_STEEL
1070
    25
1000
CSG
1070
     1
1070
     3
1070
     3
1070
     3
1070
     0
1000
cm^ 3
1070
     1
1070
     0
1005
3FE0
  0
INSERT
  5
3FE2
330
2
100
AcDbEntity
  8
AME_FRZ
100
AcDbBlockReference
  2
AME_NIL
 10
2163.059001260013
 20
383.1984807154048
 30
0.0
  0
INSERT
  5
3FE3
330
2
100
AcDbEntity
  8
AME_FRZ
100
AcDbBlockReference
  2
AME_SOL
 10
2163.059001260013
 20
383.1984807154048
 30
0.0
1001
AME_SOL
1000
R2.1
1000
AME2
1000
cm^ 2
1070
     3
1070
     0
1070
     3
1000
wire
1040
45.0
1000
U
1040
1.0
1000
cm
1000
gm
1000
MILD_STEEL
1070
    25
1000
CSG
1070
     1
1070
     3
1070
     3
1070
     3
1070
     0
1000
cm^ 3
1070
     1
1070
     0
1005
3FE2
  0
INSERT
  5
3FE4
330
2
100
AcDbEntity
  8
AME_FRZ
100
AcDbBlockReference
  2
AME_NIL
 10
2813.939383274503
 20
293.4389179443729
 30
0.0
  0
INSERT
  5
3FE5
330
2
100
AcDbEntity
  8
AME_FRZ
100
AcDbBlockReference
  2
AME_SOL
 10
2813.939383274503
 20
293.4389179443729
 30
0.0
1001
AME_SOL
1000
R2.1
1000
AME2
1000
cm^ 2
1070
     3
1070
     0
1070
     3
1000
wire
1040
45.0
1000
U
1040
1.0
1000
cm
1000
gm
1000
MILD_STEEL
1070
    25
1000
CSG
1070
     1
1070
     3
1070
     3
1070
     3
1070
     0
1000
cm^ 3
1070
     1
1070
     0
1005
3FE4
  0
INSERT
  5
3FE6
330
2
100
AcDbEntity
  8
AME_FRZ
100
AcDbBlockReference
  2
AME_NIL
 10
3403.671626163244
 20
309.3950969563869
 30
0.0
  0
INSERT
  5
3FE7
330
2
100
AcDbEntity
  8
AME_FRZ
100
AcDbBlockReference
  2
AME_SOL
 10
3403.671626163244
 20
309.3950969563869
 30
0.0
1001
AME_SOL
1000
R2.1
1000
AME2
1000
cm^ 2
1070
     3
1070
     0
1070
     3
1000
wire
1040
45.0
1000
U
1040
1.0
1000
cm
1000
gm
1000
MILD_STEEL
1070
    25
1000
CSG
1070
     1
1070
     3
1070
     3
1070
     3
1070
     0
1000
cm^ 3
1070
     1
1070
     0
1005
3FE6
  0
INSERT
  5
3FE8
330
2
100
AcDbEntity
  8
AME_FRZ
100
AcDbBlockReference
  2
AME_NIL
 10
3382.542700451145
 20
297.4825857827632
 30
0.0
  0
INSERT
  5
3FE9
330
2
100
AcDbEntity
  8
AME_FRZ
100
AcDbBlockReference
  2
AME_SOL
 10
3382.542700451145
 20
297.4825857827632
 30
0.0
1001
AME_SOL
1000
R2.1
1000
AME2
1000
cm^ 2
1070
     3
1070
     0
1070
     3
1000
wire
1040
45.0
1000
U
1040
1.0
1000
cm
1000
gm
1000
MILD_STEEL
1070
    25
1000
CSG
1070
     1
1070
     3
1070
     3
1070
     3
1070
     0
1000
cm^ 3
1070
     1
1070
     0
1005
3FE8
  0
INSERT
  5
3FEA
330
2
100
AcDbEntity
  8
AME_FRZ
100
AcDbBlockReference
  2
AME_NIL
 10
2954.65621800506
 20
245.9025069259583
 30
0.0
  0
INSERT
  5
3FEB
330
2
100
AcDbEntity
  8
AME_FRZ
100
AcDbBlockReference
  2
AME_SOL
 10
2954.65621800506
 20
245.9025069259583
 30
0.0
1001
AME_SOL
1000
R2.1
1000
AME2
1000
cm^ 2
1070
     3
1070
     0
1070
     3
1000
wire
1040
45.0
1000
U
1040
1.0
1000
cm
1000
gm
1000
MILD_STEEL
1070
    25
1000
CSG
1070
     1
1070
     3
1070
     3
1070
     3
1070
     0
1000
cm^ 3
1070
     1
1070
     0
1005
0
  0
INSERT
  5
3FEC
330
2
100
AcDbEntity
  8
AME_FRZ
100
AcDbBlockReference
  2
AME_NIL
 10
3544.388460893802
 20
261.8586859379723
 30
0.0
  0
INSERT
  5
3FED
330
2
100
AcDbEntity
  8
AME_FRZ
100
AcDbBlockReference
  2
AME_SOL
 10
3544.388460893802
 20
261.8586859379723
 30
0.0
1001
AME_SOL
1000
R2.1
1000
AME2
1000
cm^ 2
1070
     3
1070
     0
1070
     3
1000
wire
1040
45.0
1000
U
1040
1.0
1000
cm
1000
gm
1000
MILD_STEEL
1070
    25
1000
CSG
1070
     1
1070
     3
1070
     3
1070
     3
1070
     0
1000
cm^ 3
1070
     1
1070
     0
1005
0
  0
INSERT
  5
3FEE
330
2
100
AcDbEntity
  8
AME_FRZ
100
AcDbBlockReference
  2
AME_NIL
 10
3523.259535181701
 20
249.9461747643487
 30
0.0
  0
INSERT
  5
3FEF
330
2
100
AcDbEntity
  8
AME_FRZ
100
AcDbBlockReference
  2
AME_SOL
 10
3523.259535181701
 20
249.9461747643487
 30
0.0
1001
AME_SOL
1000
R2.1
1000
AME2
1000
cm^ 2
1070
     3
1070
     0
1070
     3
1000
wire
1040
45.0
1000
U
1040
1.0
1000
cm
1000
gm
1000
MILD_STEEL
1070
    25
1000
CSG
1070
     1
1070
     3
1070
     3
1070
     3
1070
     0
1000
cm^ 3
1070
     1
1070
     0
1005
0
  0
INSERT
  5
3FF0
330
2
100
AcDbEntity
  8
AME_FRZ
100
AcDbBlockReference
  2
AME_NIL
 10
2299.239881390849
 20
204.3948392644886
 30
0.0
  0
INSERT
  5
3FF1
330
2
100
AcDbEntity
  8
AME_FRZ
100
AcDbBlockReference
  2
AME_SOL
 10
2299.239881390849
 20
204.3948392644886
 30
0.0
1001
AME_SOL
1000
R2.1
1000
AME2
1000
cm^ 2
1070
     3
1070
     0
1070
     3
1000
wire
1040
45.0
1000
U
1040
1.0
1000
cm
1000
gm
1000
MILD_STEEL
1070
    25
1000
CSG
1070
     1
1070
     3
1070
     3
1070
     3
1070
     0
1000
cm^ 3
1070
     1
1070
     0
1005
0
  0
TEXT
  5
3FF2
330
2
100
AcDbEntity
  8
AM_6
100
AcDbText
 10
3569.878880092182
 20
208.8362139609365
 30
0.0
 40
1.25
  1

 41
0.8
 51
20.0
  7
25RMS
 72
     1
 11
3569.878880092182
 21
208.8362139609365
 31
0.0
100
AcDbText
  0
INSERT
  5
3FF3
330
2
100
AcDbEntity
  8
AME_FRZ
100
AcDbBlockReference
  2
AME_NIL
 10
2967.8854863597
 20
316.0391525673018
 30
0.0
  0
INSERT
  5
3FF4
330
2
100
AcDbEntity
  8
AME_FRZ
100
AcDbBlockReference
  2
AME_SOL
 10
2967.8854863597
 20
316.0391525673018
 30
0.0
1001
AME_SOL
1000
R2.1
1000
AME2
1000
cm^ 2
1070
     3
1070
     0
1070
     3
1000
wire
1040
45.0
1000
U
1040
1.0
1000
cm
1000
gm
1000
MILD_STEEL
1070
    25
1000
CSG
1070
     1
1070
     3
1070
     3
1070
     3
1070
     0
1000
cm^ 3
1070
     1
1070
     0
1005
3FF3
  0
INSERT
  5
3FF5
330
2
100
AcDbEntity
  8
AME_FRZ
100
AcDbBlockReference
  2
AME_NIL
 10
3557.617729248442
 20
331.9953315793158
 30
0.0
  0
INSERT
  5
3FF6
330
2
100
AcDbEntity
  8
AME_FRZ
100
AcDbBlockReference
  2
AME_SOL
 10
3557.617729248442
 20
331.9953315793158
 30
0.0
1001
AME_SOL
1000
R2.1
1000
AME2
1000
cm^ 2
1070
     3
1070
     0
1070
     3
1000
wire
1040
45.0
1000
U
1040
1.0
1000
cm
1000
gm
1000
MILD_STEEL
1070
    25
1000
CSG
1070
     1
1070
     3
1070
     3
1070
     3
1070
     0
1000
cm^ 3
1070
     1
1070
     0
1005
3FF5
  0
INSERT
  5
3FF7
330
2
100
AcDbEntity
  8
AME_FRZ
100
AcDbBlockReference
  2
AME_NIL
 10
3536.488803536341
 20
320.0828204056922
 30
0.0
  0
INSERT
  5
3FF8
330
2
100
AcDbEntity
  8
AME_FRZ
100
AcDbBlockReference
  2
AME_SOL
 10
3536.488803536341
 20
320.0828204056922
 30
0.0
1001
AME_SOL
1000
R2.1
1000
AME2
1000
cm^ 2
1070
     3
1070
     0
1070
     3
1000
wire
1040
45.0
1000
U
1040
1.0
1000
cm
1000
gm
1000
MILD_STEEL
1070
    25
1000
CSG
1070
     1
1070
     3
1070
     3
1070
     3
1070
     0
1000
cm^ 3
1070
     1
1070
     0
1005
3FF7
  0
INSERT
  5
3FF9
330
2
100
AcDbEntity
  8
AME_FRZ
100
AcDbBlockReference
  2
AME_NIL
 10
3108.602321090257
 20
268.5027415488872
 30
0.0
  0
INSERT
  5
3FFA
330
2
100
AcDbEntity
  8
AME_FRZ
100
AcDbBlockReference
  2
AME_SOL
 10
3108.602321090257
 20
268.5027415488872
 30
0.0
1001
AME_SOL
1000
R2.1
1000
AME2
1000
cm^ 2
1070
     3
1070
     0
1070
     3
1000
wire
1040
45.0
1000
U
1040
1.0
1000
cm
1000
gm
1000
MILD_STEEL
1070
    25
1000
CSG
1070
     1
1070
     3
1070
     3
1070
     3
1070
     0
1000
cm^ 3
1070
     1
1070
     0
1005
0
  0
INSERT
  5
3FFB
330
2
100
AcDbEntity
  8
AME_FRZ
100
AcDbBlockReference
  2
AME_NIL
 10
3698.334563978999
 20
284.4589205609011
 30
0.0
  0
INSERT
  5
3FFC
330
2
100
AcDbEntity
  8
AME_FRZ
100
AcDbBlockReference
  2
AME_SOL
 10
3698.334563978999
 20
284.4589205609011
 30
0.0
1001
AME_SOL
1000
R2.1
1000
AME2
1000
cm^ 2
1070
     3
1070
     0
1070
     3
1000
wire
1040
45.0
1000
U
1040
1.0
1000
cm
1000
gm
1000
MILD_STEEL
1070
    25
1000
CSG
1070
     1
1070
     3
1070
     3
1070
     3
1070
     0
1000
cm^ 3
1070
     1
1070
     0
1005
0
  0
INSERT
  5
3FFD
330
2
100
AcDbEntity
  8
AME_FRZ
100
AcDbBlockReference
  2
AME_NIL
 10
3677.205638266898
 20
272.5464093872776
 30
0.0
  0
INSERT
  5
3FFE
330
2
100
AcDbEntity
  8
AME_FRZ
100
AcDbBlockReference
  2
AME_SOL
 10
3677.205638266898
 20
272.5464093872776
 30
0.0
1001
AME_SOL
1000
R2.1
1000
AME2
1000
cm^ 2
1070
     3
1070
     0
1070
     3
1000
wire
1040
45.0
1000
U
1040
1.0
1000
cm
1000
gm
1000
MILD_STEEL
1070
    25
1000
CSG
1070
     1
1070
     3
1070
     3
1070
     3
1070
     0
1000
cm^ 3
1070
     1
1070
     0
1005
0
  0
INSERT
  5
3FFF
330
2
100
AcDbEntity
  8
AME_FRZ
100
AcDbBlockReference
  2
AME_NIL
 10
2453.185984476045
 20
226.9950738874174
 30
0.0
  0
INSERT
  5
4000
330
2
100
AcDbEntity
  8
AME_FRZ
100
AcDbBlockReference
  2
AME_SOL
 10
2453.185984476045
 20
226.9950738874174
 30
0.0
1001
AME_SOL
1000
R2.1
1000
AME2
1000
cm^ 2
1070
     3
1070
     0
1070
     3
1000
wire
1040
45.0
1000
U
1040
1.0
1000
cm
1000
gm
1000
MILD_STEEL
1070
    25
1000
CSG
1070
     1
1070
     3
1070
     3
1070
     3
1070
     0
1000
cm^ 3
1070
     1
1070
     0
1005
0
  0
TEXT
  5
4001
330
2
100
AcDbEntity
  8
AM_6
100
AcDbText
 10
3723.824983177378
 20
231.4364485838653
 30
0.0
 40
1.25
  1

 41
0.8
 51
20.0
  7
25RMS
 72
     1
 11
3723.824983177378
 21
231.4364485838653
 31
0.0
100
AcDbText
  0
INSERT
  5
4002
330
2
100
AcDbEntity
  8
AM_0
  6
Continuous
100
AcDbBlockReference
  2
LAYER-GENIUS
 10
2956.291618509498
 20
166.2350131271872
 30
0.0
  0
INSERT
  5
4003
330
2
100
AcDbEntity
  8
AM_0
100
AcDbBlockReference
  2
LAYER-GENIUS
 10
2350.462906663433
 20
160.0701021574279
 30
0.0
  0
POINT
  5
400A
330
2
100
AcDbEntity
  8
AM_7
  6
AM_ISO08W050x2
 60
     1
100
AcDbPoint
 10
2350.462906663433
 20
160.0701021574279
 30
0.0
  0
INSERT
  5
401A
330
2
100
AcDbEntity
  8
AM_0
100
AcDbBlockReference
  2
LAYER-GENIUS
 10
2274.508151883926
 20
167.1238823548758
 30
0.0
  0
INSERT
  5
4021
330
2
100
AcDbEntity
  8
AM_0
100
AcDbBlockReference
  2
LAYER-GENIUS
 10
2102.299865272061
 20
246.3308905953709
 30
0.0
  0
INSERT
  5
4028
330
2
100
AcDbEntity
  8
AM_0
100
AcDbBlockReference
  2
LAYER-GENIUS
 10
2102.299865272061
 20
246.3308905953709
 30
0.0
  0
INSERT
  5
4029
330
2
100
AcDbEntity
  8
AM_0
100
AcDbBlockReference
  2
LAYER-GENIUS
 10
2102.299865272061
 20
246.3308905953709
 30
0.0
  0
INSERT
  5
4030
330
2
100
AcDbEntity
  8
AM_0
100
AcDbBlockReference
  2
LAYER-GENIUS
 10
2606.585367774029
 20
274.0027861310154
 30
0.0
  0
INSERT
  5
4031
330
2
100
AcDbEntity
  8
AM_0
100
AcDbBlockReference
  2
LAYER-GENIUS
 10
2606.585367774029
 20
274.0027861310154
 30
0.0
  0
INSERT
  5
4035
330
2
100
AcDbEntity
  8
AM_PAREF
100
AcDbBlockReference
  2
LAYER-GENIUS
 10
1264.528009955466
 20
91.52071723576694
 30
0.0
  0
INSERT
  5
4036
330
2
100
AcDbEntity
  8
AME_FRZ
100
AcDbBlockReference
  2
AME_NIL
 10
2043.326871233375
 20
326.1029095410207
 30
0.0
  0
INSERT
  5
4037
330
2
100
AcDbEntity
  8
AME_FRZ
100
AcDbBlockReference
  2
AME_SOL
 10
2043.326871233375
 20
326.1029095410207
 30
0.0
1001
AME_SOL
1000
R2.1
1000
AME2
1000
cm^ 2
1070
     3
1070
     0
1070
     3
1000
wire
1040
45.0
1000
U
1040
1.0
1000
cm
1000
gm
1000
MILD_STEEL
1070
    25
1000
CSG
1070
     1
1070
     3
1070
     3
1070
     3
1070
     0
1000
cm^ 3
1070
     1
1070
     0
1005
4036
  0
INSERT
  5
4038
330
2
100
AcDbEntity
  8
AME_FRZ
100
AcDbBlockReference
  2
AME_NIL
 10
2633.059114122116
 20
342.0590885530347
 30
0.0
  0
INSERT
  5
4039
330
2
100
AcDbEntity
  8
AME_FRZ
100
AcDbBlockReference
  2
AME_SOL
 10
2633.059114122116
 20
342.0590885530347
 30
0.0
1001
AME_SOL
1000
R2.1
1000
AME2
1000
cm^ 2
1070
     3
1070
     0
1070
     3
1000
wire
1040
45.0
1000
U
1040
1.0
1000
cm
1000
gm
1000
MILD_STEEL
1070
    25
1000
CSG
1070
     1
1070
     3
1070
     3
1070
     3
1070
     0
1000
cm^ 3
1070
     1
1070
     0
1005
4038
  0
INSERT
  5
403A
330
2
100
AcDbEntity
  8
AME_FRZ
100
AcDbBlockReference
  2
AME_NIL
 10
2611.930188410015
 20
330.1465773794111
 30
0.0
  0
INSERT
  5
403B
330
2
100
AcDbEntity
  8
AME_FRZ
100
AcDbBlockReference
  2
AME_SOL
 10
2611.930188410015
 20
330.1465773794111
 30
0.0
1001
AME_SOL
1000
R2.1
1000
AME2
1000
cm^ 2
1070
     3
1070
     0
1070
     3
1000
wire
1040
45.0
1000
U
1040
1.0
1000
cm
1000
gm
1000
MILD_STEEL
1070
    25
1000
CSG
1070
     1
1070
     3
1070
     3
1070
     3
1070
     0
1000
cm^ 3
1070
     1
1070
     0
1005
403A
  0
INSERT
  5
403C
330
2
100
AcDbEntity
  8
AME_FRZ
100
AcDbBlockReference
  2
AME_NIL
 10
2169.404188500628
 20
365.0840290789779
 30
0.0
  0
INSERT
  5
403D
330
2
100
AcDbEntity
  8
AME_FRZ
100
AcDbBlockReference
  2
AME_SOL
 10
2169.404188500628
 20
365.0840290789779
 30
0.0
1001
AME_SOL
1000
R2.1
1000
AME2
1000
cm^ 2
1070
     3
1070
     0
1070
     3
1000
wire
1040
45.0
1000
U
1040
1.0
1000
cm
1000
gm
1000
MILD_STEEL
1070
    25
1000
CSG
1070
     1
1070
     3
1070
     3
1070
     3
1070
     0
1000
cm^ 3
1070
     1
1070
     0
1005
403C
  0
INSERT
  5
403E
330
2
100
AcDbEntity
  8
AME_FRZ
100
AcDbBlockReference
  2
AME_NIL
 10
2169.404188500628
 20
365.0840290789779
 30
0.0
  0
INSERT
  5
403F
330
2
100
AcDbEntity
  8
AME_FRZ
100
AcDbBlockReference
  2
AME_SOL
 10
2169.404188500628
 20
365.0840290789779
 30
0.0
1001
AME_SOL
1000
R2.1
1000
AME2
1000
cm^ 2
1070
     3
1070
     0
1070
     3
1000
wire
1040
45.0
1000
U
1040
1.0
1000
cm
1000
gm
1000
MILD_STEEL
1070
    25
1000
CSG
1070
     1
1070
     3
1070
     3
1070
     3
1070
     0
1000
cm^ 3
1070
     1
1070
     0
1005
403E
  0
INSERT
  5
4040
330
2
100
AcDbEntity
  8
AM_4
100
AcDbBlockReference
  2
LAYER-GENIUS
 10
1835.232389620288
 20
163.1295313716826
 30
0.0
  0
INSERT
  5
4041
330
2
100
AcDbEntity
  8
AM_0
100
AcDbBlockReference
  2
LAYER-GENIUS
 10
1981.108885514811
 20
183.6091698391063
 30
0.0
  0
INSERT
  5
4042
330
2
100
AcDbEntity
  8
AM_0
100
AcDbBlockReference
  2
LAYER-GENIUS
 10
1827.943802215376
 20
174.2435769450873
 30
0.0
  0
INSERT
  5
4043
330
2
100
AcDbEntity
  8
AM_0
100
AcDbBlockReference
  2
LAYER-GENIUS
 10
409.2547617965424
 20
68.91854397087673
 30
0.0
  0
INSERT
  5
4075
330
2
100
AcDbEntity
  8
AME_FRZ
100
AcDbBlockReference
  2
AME_NIL
 10
864.2404604262026
 20
290.5512572371178
 30
0.0
  0
INSERT
  5
4076
330
2
100
AcDbEntity
  8
AME_FRZ
100
AcDbBlockReference
  2
AME_SOL
 10
864.2404604262026
 20
290.5512572371178
 30
0.0
1001
AME_SOL
1000
R2.1
1000
AME2
1000
cm^ 2
1070
     3
1070
     0
1070
     3
1000
wire
1040
45.0
1000
U
1040
1.0
1000
cm
1000
gm
1000
MILD_STEEL
1070
    25
1000
CSG
1070
     1
1070
     3
1070
     3
1070
     3
1070
     0
1000
cm^ 3
1070
     1
1070
     0
1005
4075
  0
INSERT
  5
4077
330
2
100
AcDbEntity
  8
AME_FRZ
100
AcDbBlockReference
  2
AME_NIL
 10
1453.972703314944
 20
306.5074362491319
 30
0.0
  0
INSERT
  5
4078
330
2
100
AcDbEntity
  8
AME_FRZ
100
AcDbBlockReference
  2
AME_SOL
 10
1453.972703314944
 20
306.5074362491319
 30
0.0
1001
AME_SOL
1000
R2.1
1000
AME2
1000
cm^ 2
1070
     3
1070
     0
1070
     3
1000
wire
1040
45.0
1000
U
1040
1.0
1000
cm
1000
gm
1000
MILD_STEEL
1070
    25
1000
CSG
1070
     1
1070
     3
1070
     3
1070
     3
1070
     0
1000
cm^ 3
1070
     1
1070
     0
1005
4077
  0
INSERT
  5
4079
330
2
100
AcDbEntity
  8
AME_FRZ
100
AcDbBlockReference
  2
AME_NIL
 10
1432.843777602843
 20
294.5949250755083
 30
0.0
  0
INSERT
  5
407A
330
2
100
AcDbEntity
  8
AME_FRZ
100
AcDbBlockReference
  2
AME_SOL
 10
1432.843777602843
 20
294.5949250755083
 30
0.0
1001
AME_SOL
1000
R2.1
1000
AME2
1000
cm^ 2
1070
     3
1070
     0
1070
     3
1000
wire
1040
45.0
1000
U
1040
1.0
1000
cm
1000
gm
1000
MILD_STEEL
1070
    25
1000
CSG
1070
     1
1070
     3
1070
     3
1070
     3
1070
     0
1000
cm^ 3
1070
     1
1070
     0
1005
4079
  0
INSERT
  5
407B
330
2
100
AcDbEntity
  8
AME_FRZ
100
AcDbBlockReference
  2
AME_NIL
 10
990.3177776934562
 20
329.532376775075
 30
0.0
  0
INSERT
  5
407C
330
2
100
AcDbEntity
  8
AME_FRZ
100
AcDbBlockReference
  2
AME_SOL
 10
990.3177776934562
 20
329.532376775075
 30
0.0
1001
AME_SOL
1000
R2.1
1000
AME2
1000
cm^ 2
1070
     3
1070
     0
1070
     3
1000
wire
1040
45.0
1000
U
1040
1.0
1000
cm
1000
gm
1000
MILD_STEEL
1070
    25
1000
CSG
1070
     1
1070
     3
1070
     3
1070
     3
1070
     0
1000
cm^ 3
1070
     1
1070
     0
1005
407B
  0
INSERT
  5
407D
330
2
100
AcDbEntity
  8
AME_FRZ
100
AcDbBlockReference
  2
AME_NIL
 10
990.3177776934562
 20
329.532376775075
 30
0.0
  0
INSERT
  5
407E
330
2
100
AcDbEntity
  8
AME_FRZ
100
AcDbBlockReference
  2
AME_SOL
 10
990.3177776934562
 20
329.532376775075
 30
0.0
1001
AME_SOL
1000
R2.1
1000
AME2
1000
cm^ 2
1070
     3
1070
     0
1070
     3
1000
wire
1040
45.0
1000
U
1040
1.0
1000
cm
1000
gm
1000
MILD_STEEL
1070
    25
1000
CSG
1070
     1
1070
     3
1070
     3
1070
     3
1070
     0
1000
cm^ 3
1070
     1
1070
     0
1005
407D
  0
INSERT
  5
407F
330
2
100
AcDbEntity
  8
AM_0
100
AcDbBlockReference
  2
LAYER-GENIUS
 10
608.3202956088996
 20
102.587540608178
 30
0.0
  0
INSERT
  5
4080
330
2
100
AcDbEntity
  8
AME_FRZ
100
AcDbBlockReference
  2
AME_NIL
 10
1262.212168007738
 20
285.0652490509549
 30
0.0
  0
INSERT
  5
4081
330
2
100
AcDbEntity
  8
AME_FRZ
100
AcDbBlockReference
  2
AME_SOL
 10
1262.212168007738
 20
285.0652490509549
 30
0.0
1001
AME_SOL
1000
R2.1
1000
AME2
1000
cm^ 2
1070
     3
1070
     0
1070
     3
1000
wire
1040
45.0
1000
U
1040
1.0
1000
cm
1000
gm
1000
MILD_STEEL
1070
    25
1000
CSG
1070
     1
1070
     3
1070
     3
1070
     3
1070
     0
1000
cm^ 3
1070
     1
1070
     0
1005
4080
  0
INSERT
  5
4082
330
2
100
AcDbEntity
  8
AME_FRZ
100
AcDbBlockReference
  2
AME_NIL
 10
1851.94441089648
 20
301.021428062969
 30
0.0
  0
INSERT
  5
4083
330
2
100
AcDbEntity
  8
AME_FRZ
100
AcDbBlockReference
  2
AME_SOL
 10
1851.94441089648
 20
301.021428062969
 30
0.0
1001
AME_SOL
1000
R2.1
1000
AME2
1000
cm^ 2
1070
     3
1070
     0
1070
     3
1000
wire
1040
45.0
1000
U
1040
1.0
1000
cm
1000
gm
1000
MILD_STEEL
1070
    25
1000
CSG
1070
     1
1070
     3
1070
     3
1070
     3
1070
     0
1000
cm^ 3
1070
     1
1070
     0
1005
4082
  0
INSERT
  5
4084
330
2
100
AcDbEntity
  8
AME_FRZ
100
AcDbBlockReference
  2
AME_NIL
 10
1830.815485184379
 20
289.1089168893454
 30
0.0
  0
INSERT
  5
4085
330
2
100
AcDbEntity
  8
AME_FRZ
100
AcDbBlockReference
  2
AME_SOL
 10
1830.815485184379
 20
289.1089168893454
 30
0.0
1001
AME_SOL
1000
R2.1
1000
AME2
1000
cm^ 2
1070
     3
1070
     0
1070
     3
1000
wire
1040
45.0
1000
U
1040
1.0
1000
cm
1000
gm
1000
MILD_STEEL
1070
    25
1000
CSG
1070
     1
1070
     3
1070
     3
1070
     3
1070
     0
1000
cm^ 3
1070
     1
1070
     0
1005
4084
  0
INSERT
  5
4086
330
2
100
AcDbEntity
  8
AME_FRZ
100
AcDbBlockReference
  2
AME_NIL
 10
1388.289485274992
 20
324.0463685889122
 30
0.0
  0
INSERT
  5
4087
330
2
100
AcDbEntity
  8
AME_FRZ
100
AcDbBlockReference
  2
AME_SOL
 10
1388.289485274992
 20
324.0463685889122
 30
0.0
1001
AME_SOL
1000
R2.1
1000
AME2
1000
cm^ 2
1070
     3
1070
     0
1070
     3
1000
wire
1040
45.0
1000
U
1040
1.0
1000
cm
1000
gm
1000
MILD_STEEL
1070
    25
1000
CSG
1070
     1
1070
     3
1070
     3
1070
     3
1070
     0
1000
cm^ 3
1070
     1
1070
     0
1005
4086
  0
INSERT
  5
4088
330
2
100
AcDbEntity
  8
AME_FRZ
100
AcDbBlockReference
  2
AME_NIL
 10
1388.289485274992
 20
324.0463685889122
 30
0.0
  0
INSERT
  5
4089
330
2
100
AcDbEntity
  8
AME_FRZ
100
AcDbBlockReference
  2
AME_SOL
 10
1388.289485274992
 20
324.0463685889122
 30
0.0
1001
AME_SOL
1000
R2.1
1000
AME2
1000
cm^ 2
1070
     3
1070
     0
1070
     3
1000
wire
1040
45.0
1000
U
1040
1.0
1000
cm
1000
gm
1000
MILD_STEEL
1070
    25
1000
CSG
1070
     1
1070
     3
1070
     3
1070
     3
1070
     0
1000
cm^ 3
1070
     1
1070
     0
1005
4088
  0
INSERT
  5
408A
330
2
100
AcDbEntity
  8
AM_0
100
AcDbBlockReference
  2
LAYER-GENIUS
 10
1029.810641947803
 20
110.5602254154804
 30
0.0
  0
INSERT
  5
408B
330
2
100
AcDbEntity
  8
AM_0
100
AcDbBlockReference
  2
LAYER-GENIUS
 10
1453.164761008294
 20
132.5387862624092
 30
0.0
  0
INSERT
  5
408C
330
2
100
AcDbEntity
  8
AME_FRZ
100
AcDbBlockReference
  2
AME_NIL
 10
2024.100151910734
 20
326.7100068097323
 30
0.0
  0
INSERT
  5
408D
330
2
100
AcDbEntity
  8
AME_FRZ
100
AcDbBlockReference
  2
AME_SOL
 10
2024.100151910734
 20
326.7100068097323
 30
0.0
1001
AME_SOL
1000
R2.1
1000
AME2
1000
cm^ 2
1070
     3
1070
     0
1070
     3
1000
wire
1040
45.0
1000
U
1040
1.0
1000
cm
1000
gm
1000
MILD_STEEL
1070
    25
1000
CSG
1070
     1
1070
     3
1070
     3
1070
     3
1070
     0
1000
cm^ 3
1070
     1
1070
     0
1005
408C
  0
INSERT
  5
408E
330
2
100
AcDbEntity
  8
AME_FRZ
100
AcDbBlockReference
  2
AME_NIL
 10
2613.832394799477
 20
342.6661858217464
 30
0.0
  0
INSERT
  5
408F
330
2
100
AcDbEntity
  8
AME_FRZ
100
AcDbBlockReference
  2
AME_SOL
 10
2613.832394799477
 20
342.6661858217464
 30
0.0
1001
AME_SOL
1000
R2.1
1000
AME2
1000
cm^ 2
1070
     3
1070
     0
1070
     3
1000
wire
1040
45.0
1000
U
1040
1.0
1000
cm
1000
gm
1000
MILD_STEEL
1070
    25
1000
CSG
1070
     1
1070
     3
1070
     3
1070
     3
1070
     0
1000
cm^ 3
1070
     1
1070
     0
1005
408E
  0
INSERT
  5
4090
330
2
100
AcDbEntity
  8
AME_FRZ
100
AcDbBlockReference
  2
AME_NIL
 10
2592.703469087376
 20
330.7536746481228
 30
0.0
  0
INSERT
  5
4091
330
2
100
AcDbEntity
  8
AME_FRZ
100
AcDbBlockReference
  2
AME_SOL
 10
2592.703469087376
 20
330.7536746481228
 30
0.0
1001
AME_SOL
1000
R2.1
1000
AME2
1000
cm^ 2
1070
     3
1070
     0
1070
     3
1000
wire
1040
45.0
1000
U
1040
1.0
1000
cm
1000
gm
1000
MILD_STEEL
1070
    25
1000
CSG
1070
     1
1070
     3
1070
     3
1070
     3
1070
     0
1000
cm^ 3
1070
     1
1070
     0
1005
4090
  0
INSERT
  5
4092
330
2
100
AcDbEntity
  8
AME_FRZ
100
AcDbBlockReference
  2
AME_NIL
 10
2150.177469177988
 20
365.6911263476895
 30
0.0
  0
INSERT
  5
4093
330
2
100
AcDbEntity
  8
AME_FRZ
100
AcDbBlockReference
  2
AME_SOL
 10
2150.177469177988
 20
365.6911263476895
 30
0.0
1001
AME_SOL
1000
R2.1
1000
AME2
1000
cm^ 2
1070
     3
1070
     0
1070
     3
1000
wire
1040
45.0
1000
U
1040
1.0
1000
cm
1000
gm
1000
MILD_STEEL
1070
    25
1000
CSG
1070
     1
1070
     3
1070
     3
1070
     3
1070
     0
1000
cm^ 3
1070
     1
1070
     0
1005
4092
  0
INSERT
  5
4094
330
2
100
AcDbEntity
  8
AME_FRZ
100
AcDbBlockReference
  2
AME_NIL
 10
2150.177469177988
 20
365.6911263476895
 30
0.0
  0
INSERT
  5
4095
330
2
100
AcDbEntity
  8
AME_FRZ
100
AcDbBlockReference
  2
AME_SOL
 10
2150.177469177988
 20
365.6911263476895
 30
0.0
1001
AME_SOL
1000
R2.1
1000
AME2
1000
cm^ 2
1070
     3
1070
     0
1070
     3
1000
wire
1040
45.0
1000
U
1040
1.0
1000
cm
1000
gm
1000
MILD_STEEL
1070
    25
1000
CSG
1070
     1
1070
     3
1070
     3
1070
     3
1070
     0
1000
cm^ 3
1070
     1
1070
     0
1005
4094
  0
INSERT
  5
4096
330
2
100
AcDbEntity
  8
AME_FRZ
100
AcDbBlockReference
  2
AME_NIL
 10
2236.047217805117
 20
377.8863578147489
 30
0.0
  0
INSERT
  5
4097
330
2
100
AcDbEntity
  8
AME_FRZ
100
AcDbBlockReference
  2
AME_SOL
 10
2236.047217805117
 20
377.8863578147489
 30
0.0
1001
AME_SOL
1000
R2.1
1000
AME2
1000
cm^ 2
1070
     3
1070
     0
1070
     3
1000
wire
1040
45.0
1000
U
1040
1.0
1000
cm
1000
gm
1000
MILD_STEEL
1070
    25
1000
CSG
1070
     1
1070
     3
1070
     3
1070
     3
1070
     0
1000
cm^ 3
1070
     1
1070
     0
1005
4096
  0
INSERT
  5
4098
330
2
100
AcDbEntity
  8
AME_FRZ
100
AcDbBlockReference
  2
AME_NIL
 10
2825.779460693859
 20
393.842536826763
 30
0.0
  0
INSERT
  5
4099
330
2
100
AcDbEntity
  8
AME_FRZ
100
AcDbBlockReference
  2
AME_SOL
 10
2825.779460693859
 20
393.842536826763
 30
0.0
1001
AME_SOL
1000
R2.1
1000
AME2
1000
cm^ 2
1070
     3
1070
     0
1070
     3
1000
wire
1040
45.0
1000
U
1040
1.0
1000
cm
1000
gm
1000
MILD_STEEL
1070
    25
1000
CSG
1070
     1
1070
     3
1070
     3
1070
     3
1070
     0
1000
cm^ 3
1070
     1
1070
     0
1005
4098
  0
INSERT
  5
409A
330
2
100
AcDbEntity
  8
AME_FRZ
100
AcDbBlockReference
  2
AME_NIL
 10
2804.650534981758
 20
381.9300256531393
 30
0.0
  0
INSERT
  5
409B
330
2
100
AcDbEntity
  8
AME_FRZ
100
AcDbBlockReference
  2
AME_SOL
 10
2804.650534981758
 20
381.9300256531393
 30
0.0
1001
AME_SOL
1000
R2.1
1000
AME2
1000
cm^ 2
1070
     3
1070
     0
1070
     3
1000
wire
1040
45.0
1000
U
1040
1.0
1000
cm
1000
gm
1000
MILD_STEEL
1070
    25
1000
CSG
1070
     1
1070
     3
1070
     3
1070
     3
1070
     0
1000
cm^ 3
1070
     1
1070
     0
1005
409A
  0
INSERT
  5
409C
330
2
100
AcDbEntity
  8
AME_FRZ
100
AcDbBlockReference
  2
AME_NIL
 10
2362.12453507237
 20
416.8674773527062
 30
0.0
  0
INSERT
  5
409D
330
2
100
AcDbEntity
  8
AME_FRZ
100
AcDbBlockReference
  2
AME_SOL
 10
2362.12453507237
 20
416.8674773527062
 30
0.0
1001
AME_SOL
1000
R2.1
1000
AME2
1000
cm^ 2
1070
     3
1070
     0
1070
     3
1000
wire
1040
45.0
1000
U
1040
1.0
1000
cm
1000
gm
1000
MILD_STEEL
1070
    25
1000
CSG
1070
     1
1070
     3
1070
     3
1070
     3
1070
     0
1000
cm^ 3
1070
     1
1070
     0
1005
409C
  0
INSERT
  5
409E
330
2
100
AcDbEntity
  8
AME_FRZ
100
AcDbBlockReference
  2
AME_NIL
 10
2362.12453507237
 20
416.8674773527062
 30
0.0
  0
INSERT
  5
409F
330
2
100
AcDbEntity
  8
AME_FRZ
100
AcDbBlockReference
  2
AME_SOL
 10
2362.12453507237
 20
416.8674773527062
 30
0.0
1001
AME_SOL
1000
R2.1
1000
AME2
1000
cm^ 2
1070
     3
1070
     0
1070
     3
1000
wire
1040
45.0
1000
U
1040
1.0
1000
cm
1000
gm
1000
MILD_STEEL
1070
    25
1000
CSG
1070
     1
1070
     3
1070
     3
1070
     3
1070
     0
1000
cm^ 3
1070
     1
1070
     0
1005
409E
  0
INSERT
  5
40A0
330
2
100
AcDbEntity
  8
AME_FRZ
100
AcDbBlockReference
  2
AME_NIL
 10
3013.00491708686
 20
327.1079145816742
 30
0.0
  0
INSERT
  5
40A1
330
2
100
AcDbEntity
  8
AME_FRZ
100
AcDbBlockReference
  2
AME_SOL
 10
3013.00491708686
 20
327.1079145816742
 30
0.0
1001
AME_SOL
1000
R2.1
1000
AME2
1000
cm^ 2
1070
     3
1070
     0
1070
     3
1000
wire
1040
45.0
1000
U
1040
1.0
1000
cm
1000
gm
1000
MILD_STEEL
1070
    25
1000
CSG
1070
     1
1070
     3
1070
     3
1070
     3
1070
     0
1000
cm^ 3
1070
     1
1070
     0
1005
40A0
  0
INSERT
  5
40A2
330
2
100
AcDbEntity
  8
AME_FRZ
100
AcDbBlockReference
  2
AME_NIL
 10
3602.737159975602
 20
343.0640935936882
 30
0.0
  0
INSERT
  5
40A3
330
2
100
AcDbEntity
  8
AME_FRZ
100
AcDbBlockReference
  2
AME_SOL
 10
3602.737159975602
 20
343.0640935936882
 30
0.0
1001
AME_SOL
1000
R2.1
1000
AME2
1000
cm^ 2
1070
     3
1070
     0
1070
     3
1000
wire
1040
45.0
1000
U
1040
1.0
1000
cm
1000
gm
1000
MILD_STEEL
1070
    25
1000
CSG
1070
     1
1070
     3
1070
     3
1070
     3
1070
     0
1000
cm^ 3
1070
     1
1070
     0
1005
40A2
  0
INSERT
  5
40A4
330
2
100
AcDbEntity
  8
AME_FRZ
100
AcDbBlockReference
  2
AME_NIL
 10
3581.608234263501
 20
331.1515824200646
 30
0.0
  0
INSERT
  5
40A5
330
2
100
AcDbEntity
  8
AME_FRZ
100
AcDbBlockReference
  2
AME_SOL
 10
3581.608234263501
 20
331.1515824200646
 30
0.0
1001
AME_SOL
1000
R2.1
1000
AME2
1000
cm^ 2
1070
     3
1070
     0
1070
     3
1000
wire
1040
45.0
1000
U
1040
1.0
1000
cm
1000
gm
1000
MILD_STEEL
1070
    25
1000
CSG
1070
     1
1070
     3
1070
     3
1070
     3
1070
     0
1000
cm^ 3
1070
     1
1070
     0
1005
40A4
  0
INSERT
  5
40A6
330
2
100
AcDbEntity
  8
AME_FRZ
100
AcDbBlockReference
  2
AME_NIL
 10
3153.721751817417
 20
279.5715035632596
 30
0.0
  0
INSERT
  5
40A7
330
2
100
AcDbEntity
  8
AME_FRZ
100
AcDbBlockReference
  2
AME_SOL
 10
3153.721751817417
 20
279.5715035632596
 30
0.0
1001
AME_SOL
1000
R2.1
1000
AME2
1000
cm^ 2
1070
     3
1070
     0
1070
     3
1000
wire
1040
45.0
1000
U
1040
1.0
1000
cm
1000
gm
1000
MILD_STEEL
1070
    25
1000
CSG
1070
     1
1070
     3
1070
     3
1070
     3
1070
     0
1000
cm^ 3
1070
     1
1070
     0
1005
0
  0
INSERT
  5
40A8
330
2
100
AcDbEntity
  8
AME_FRZ
100
AcDbBlockReference
  2
AME_NIL
 10
3743.453994706158
 20
295.5276825752737
 30
0.0
  0
INSERT
  5
40A9
330
2
100
AcDbEntity
  8
AME_FRZ
100
AcDbBlockReference
  2
AME_SOL
 10
3743.453994706158
 20
295.5276825752737
 30
0.0
1001
AME_SOL
1000
R2.1
1000
AME2
1000
cm^ 2
1070
     3
1070
     0
1070
     3
1000
wire
1040
45.0
1000
U
1040
1.0
1000
cm
1000
gm
1000
MILD_STEEL
1070
    25
1000
CSG
1070
     1
1070
     3
1070
     3
1070
     3
1070
     0
1000
cm^ 3
1070
     1
1070
     0
1005
0
  0
INSERT
  5
40AA
330
2
100
AcDbEntity
  8
AME_FRZ
100
AcDbBlockReference
  2
AME_NIL
 10
3722.325068994058
 20
283.6151714016501
 30
0.0
  0
INSERT
  5
40AB
330
2
100
AcDbEntity
  8
AME_FRZ
100
AcDbBlockReference
  2
AME_SOL
 10
3722.325068994058
 20
283.6151714016501
 30
0.0
1001
AME_SOL
1000
R2.1
1000
AME2
1000
cm^ 2
1070
     3
1070
     0
1070
     3
1000
wire
1040
45.0
1000
U
1040
1.0
1000
cm
1000
gm
1000
MILD_STEEL
1070
    25
1000
CSG
1070
     1
1070
     3
1070
     3
1070
     3
1070
     0
1000
cm^ 3
1070
     1
1070
     0
1005
0
  0
INSERT
  5
40AC
330
2
100
AcDbEntity
  8
AME_FRZ
100
AcDbBlockReference
  2
AME_NIL
 10
2498.305415203206
 20
238.0638359017899
 30
0.0
  0
INSERT
  5
40AD
330
2
100
AcDbEntity
  8
AME_FRZ
100
AcDbBlockReference
  2
AME_SOL
 10
2498.305415203206
 20
238.0638359017899
 30
0.0
1001
AME_SOL
1000
R2.1
1000
AME2
1000
cm^ 2
1070
     3
1070
     0
1070
     3
1000
wire
1040
45.0
1000
U
1040
1.0
1000
cm
1000
gm
1000
MILD_STEEL
1070
    25
1000
CSG
1070
     1
1070
     3
1070
     3
1070
     3
1070
     0
1000
cm^ 3
1070
     1
1070
     0
1005
0
  0
TEXT
  5
40AE
330
2
100
AcDbEntity
  8
AM_6
100
AcDbText
 10
3768.94441390454
 20
242.5052105982378
 30
0.0
 40
1.25
  1

 41
0.8
 51
20.0
  7
25RMS
 72
     1
 11
3768.94441390454
 21
242.5052105982378
 31
0.0
100
AcDbText
  0
INSERT
  5
40AF
330
2
100
AcDbEntity
  8
AME_FRZ
100
AcDbBlockReference
  2
AME_NIL
 10
3166.951020172057
 20
349.7081492046031
 30
0.0
  0
INSERT
  5
40B0
330
2
100
AcDbEntity
  8
AME_FRZ
100
AcDbBlockReference
  2
AME_SOL
 10
3166.951020172057
 20
349.7081492046031
 30
0.0
1001
AME_SOL
1000
R2.1
1000
AME2
1000
cm^ 2
1070
     3
1070
     0
1070
     3
1000
wire
1040
45.0
1000
U
1040
1.0
1000
cm
1000
gm
1000
MILD_STEEL
1070
    25
1000
CSG
1070
     1
1070
     3
1070
     3
1070
     3
1070
     0
1000
cm^ 3
1070
     1
1070
     0
1005
40AF
  0
INSERT
  5
40B1
330
2
100
AcDbEntity
  8
AME_FRZ
100
AcDbBlockReference
  2
AME_NIL
 10
3756.683263060799
 20
365.6643282166171
 30
0.0
  0
INSERT
  5
40B2
330
2
100
AcDbEntity
  8
AME_FRZ
100
AcDbBlockReference
  2
AME_SOL
 10
3756.683263060799
 20
365.6643282166171
 30
0.0
1001
AME_SOL
1000
R2.1
1000
AME2
1000
cm^ 2
1070
     3
1070
     0
1070
     3
1000
wire
1040
45.0
1000
U
1040
1.0
1000
cm
1000
gm
1000
MILD_STEEL
1070
    25
1000
CSG
1070
     1
1070
     3
1070
     3
1070
     3
1070
     0
1000
cm^ 3
1070
     1
1070
     0
1005
40B1
  0
INSERT
  5
40B3
330
2
100
AcDbEntity
  8
AME_FRZ
100
AcDbBlockReference
  2
AME_NIL
 10
3735.554337348698
 20
353.7518170429935
 30
0.0
  0
INSERT
  5
40B4
330
2
100
AcDbEntity
  8
AME_FRZ
100
AcDbBlockReference
  2
AME_SOL
 10
3735.554337348698
 20
353.7518170429935
 30
0.0
1001
AME_SOL
1000
R2.1
1000
AME2
1000
cm^ 2
1070
     3
1070
     0
1070
     3
1000
wire
1040
45.0
1000
U
1040
1.0
1000
cm
1000
gm
1000
MILD_STEEL
1070
    25
1000
CSG
1070
     1
1070
     3
1070
     3
1070
     3
1070
     0
1000
cm^ 3
1070
     1
1070
     0
1005
40B3
  0
INSERT
  5
40B5
330
2
100
AcDbEntity
  8
AME_FRZ
100
AcDbBlockReference
  2
AME_NIL
 10
3307.667854902614
 20
302.1717381861885
 30
0.0
  0
INSERT
  5
40B6
330
2
100
AcDbEntity
  8
AME_FRZ
100
AcDbBlockReference
  2
AME_SOL
 10
3307.667854902614
 20
302.1717381861885
 30
0.0
1001
AME_SOL
1000
R2.1
1000
AME2
1000
cm^ 2
1070
     3
1070
     0
1070
     3
1000
wire
1040
45.0
1000
U
1040
1.0
1000
cm
1000
gm
1000
MILD_STEEL
1070
    25
1000
CSG
1070
     1
1070
     3
1070
     3
1070
     3
1070
     0
1000
cm^ 3
1070
     1
1070
     0
1005
0
  0
INSERT
  5
40B7
330
2
100
AcDbEntity
  8
AME_FRZ
100
AcDbBlockReference
  2
AME_NIL
 10
3897.400097791356
 20
318.1279171982025
 30
0.0
  0
INSERT
  5
40B8
330
2
100
AcDbEntity
  8
AME_FRZ
100
AcDbBlockReference
  2
AME_SOL
 10
3897.400097791356
 20
318.1279171982025
 30
0.0
1001
AME_SOL
1000
R2.1
1000
AME2
1000
cm^ 2
1070
     3
1070
     0
1070
     3
1000
wire
1040
45.0
1000
U
1040
1.0
1000
cm
1000
gm
1000
MILD_STEEL
1070
    25
1000
CSG
1070
     1
1070
     3
1070
     3
1070
     3
1070
     0
1000
cm^ 3
1070
     1
1070
     0
1005
0
  0
INSERT
  5
40B9
330
2
100
AcDbEntity
  8
AME_FRZ
100
AcDbBlockReference
  2
AME_NIL
 10
3876.271172079255
 20
306.215406024579
 30
0.0
  0
INSERT
  5
40BA
330
2
100
AcDbEntity
  8
AME_FRZ
100
AcDbBlockReference
  2
AME_SOL
 10
3876.271172079255
 20
306.215406024579
 30
0.0
1001
AME_SOL
1000
R2.1
1000
AME2
1000
cm^ 2
1070
     3
1070
     0
1070
     3
1000
wire
1040
45.0
1000
U
1040
1.0
1000
cm
1000
gm
1000
MILD_STEEL
1070
    25
1000
CSG
1070
     1
1070
     3
1070
     3
1070
     3
1070
     0
1000
cm^ 3
1070
     1
1070
     0
1005
0
  0
INSERT
  5
40BB
330
2
100
AcDbEntity
  8
AME_FRZ
100
AcDbBlockReference
  2
AME_NIL
 10
2652.251518288403
 20
260.6640705247187
 30
0.0
  0
INSERT
  5
40BC
330
2
100
AcDbEntity
  8
AME_FRZ
100
AcDbBlockReference
  2
AME_SOL
 10
2652.251518288403
 20
260.6640705247187
 30
0.0
1001
AME_SOL
1000
R2.1
1000
AME2
1000
cm^ 2
1070
     3
1070
     0
1070
     3
1000
wire
1040
45.0
1000
U
1040
1.0
1000
cm
1000
gm
1000
MILD_STEEL
1070
    25
1000
CSG
1070
     1
1070
     3
1070
     3
1070
     3
1070
     0
1000
cm^ 3
1070
     1
1070
     0
1005
0
  0
TEXT
  5
40BD
330
2
100
AcDbEntity
  8
AM_6
100
AcDbText
 10
3922.890516989736
 20
265.1054452211667
 30
0.0
 40
1.25
  1

 41
0.8
 51
20.0
  7
25RMS
 72
     1
 11
3922.890516989736
 21
265.1054452211667
 31
0.0
100
AcDbText
  0
INSERT
  5
40BE
330
2
100
AcDbEntity
  8
AM_0
  6
Continuous
100
AcDbBlockReference
  2
LAYER-GENIUS
 10
3155.357152321855
 20
199.9040097644885
 30
0.0
  0
INSERT
  5
40BF
330
2
100
AcDbEntity
  8
AM_0
100
AcDbBlockReference
  2
LAYER-GENIUS
 10
2549.52844047579
 20
193.7390987947293
 30
0.0
  0
POINT
  5
40C6
330
2
100
AcDbEntity
  8
AM_7
  6
AM_ISO08W050x2
 60
     1
100
AcDbPoint
 10
2549.52844047579
 20
193.7390987947293
 30
0.0
  0
INSERT
  5
40D6
330
2
100
AcDbEntity
  8
AM_0
100
AcDbBlockReference
  2
LAYER-GENIUS
 10
2473.573685696283
 20
200.7928789921771
 30
0.0
  0
INSERT
  5
40DD
330
2
100
AcDbEntity
  8
AM_0
100
AcDbBlockReference
  2
LAYER-GENIUS
 10
2301.365399084418
 20
279.9998872326723
 30
0.0
  0
INSERT
  5
40E4
330
2
100
AcDbEntity
  8
AM_0
100
AcDbBlockReference
  2
LAYER-GENIUS
 10
2301.365399084418
 20
279.9998872326723
 30
0.0
  0
INSERT
  5
40E5
330
2
100
AcDbEntity
  8
AM_0
100
AcDbBlockReference
  2
LAYER-GENIUS
 10
2301.365399084418
 20
279.9998872326723
 30
0.0
  0
INSERT
  5
40EC
330
2
100
AcDbEntity
  8
AM_0
100
AcDbBlockReference
  2
LAYER-GENIUS
 10
2805.650901586387
 20
307.6717827683168
 30
0.0
  0
INSERT
  5
40ED
330
2
100
AcDbEntity
  8
AM_0
100
AcDbBlockReference
  2
LAYER-GENIUS
 10
2805.650901586387
 20
307.6717827683168
 30
0.0
  0
INSERT
  5
40F1
330
2
100
AcDbEntity
  8
AM_PAREF
100
AcDbBlockReference
  2
LAYER-GENIUS
 10
1463.593543767824
 20
125.1897138730682
 30
0.0
  0
INSERT
  5
40F2
330
2
100
AcDbEntity
  8
AME_FRZ
100
AcDbBlockReference
  2
AME_NIL
 10
2242.392405045731
 20
359.771906178322
 30
0.0
  0
INSERT
  5
40F3
330
2
100
AcDbEntity
  8
AME_FRZ
100
AcDbBlockReference
  2
AME_SOL
 10
2242.392405045731
 20
359.771906178322
 30
0.0
1001
AME_SOL
1000
R2.1
1000
AME2
1000
cm^ 2
1070
     3
1070
     0
1070
     3
1000
wire
1040
45.0
1000
U
1040
1.0
1000
cm
1000
gm
1000
MILD_STEEL
1070
    25
1000
CSG
1070
     1
1070
     3
1070
     3
1070
     3
1070
     0
1000
cm^ 3
1070
     1
1070
     0
1005
40F2
  0
INSERT
  5
40F4
330
2
100
AcDbEntity
  8
AME_FRZ
100
AcDbBlockReference
  2
AME_NIL
 10
2832.124647934473
 20
375.7280851903361
 30
0.0
  0
INSERT
  5
40F5
330
2
100
AcDbEntity
  8
AME_FRZ
100
AcDbBlockReference
  2
AME_SOL
 10
2832.124647934473
 20
375.7280851903361
 30
0.0
1001
AME_SOL
1000
R2.1
1000
AME2
1000
cm^ 2
1070
     3
1070
     0
1070
     3
1000
wire
1040
45.0
1000
U
1040
1.0
1000
cm
1000
gm
1000
MILD_STEEL
1070
    25
1000
CSG
1070
     1
1070
     3
1070
     3
1070
     3
1070
     0
1000
cm^ 3
1070
     1
1070
     0
1005
40F4
  0
INSERT
  5
40F6
330
2
100
AcDbEntity
  8
AME_FRZ
100
AcDbBlockReference
  2
AME_NIL
 10
2810.995722222372
 20
363.8155740167125
 30
0.0
  0
INSERT
  5
40F7
330
2
100
AcDbEntity
  8
AME_FRZ
100
AcDbBlockReference
  2
AME_SOL
 10
2810.995722222372
 20
363.8155740167125
 30
0.0
1001
AME_SOL
1000
R2.1
1000
AME2
1000
cm^ 2
1070
     3
1070
     0
1070
     3
1000
wire
1040
45.0
1000
U
1040
1.0
1000
cm
1000
gm
1000
MILD_STEEL
1070
    25
1000
CSG
1070
     1
1070
     3
1070
     3
1070
     3
1070
     0
1000
cm^ 3
1070
     1
1070
     0
1005
40F6
  0
INSERT
  5
40F8
330
2
100
AcDbEntity
  8
AME_FRZ
100
AcDbBlockReference
  2
AME_NIL
 10
2368.469722312985
 20
398.7530257162792
 30
0.0
  0
INSERT
  5
40F9
330
2
100
AcDbEntity
  8
AME_FRZ
100
AcDbBlockReference
  2
AME_SOL
 10
2368.469722312985
 20
398.7530257162792
 30
0.0
1001
AME_SOL
1000
R2.1
1000
AME2
1000
cm^ 2
1070
     3
1070
     0
1070
     3
1000
wire
1040
45.0
1000
U
1040
1.0
1000
cm
1000
gm
1000
MILD_STEEL
1070
    25
1000
CSG
1070
     1
1070
     3
1070
     3
1070
     3
1070
     0
1000
cm^ 3
1070
     1
1070
     0
1005
40F8
  0
INSERT
  5
40FA
330
2
100
AcDbEntity
  8
AME_FRZ
100
AcDbBlockReference
  2
AME_NIL
 10
2368.469722312985
 20
398.7530257162792
 30
0.0
  0
INSERT
  5
40FB
330
2
100
AcDbEntity
  8
AME_FRZ
100
AcDbBlockReference
  2
AME_SOL
 10
2368.469722312985
 20
398.7530257162792
 30
0.0
1001
AME_SOL
1000
R2.1
1000
AME2
1000
cm^ 2
1070
     3
1070
     0
1070
     3
1000
wire
1040
45.0
1000
U
1040
1.0
1000
cm
1000
gm
1000
MILD_STEEL
1070
    25
1000
CSG
1070
     1
1070
     3
1070
     3
1070
     3
1070
     0
1000
cm^ 3
1070
     1
1070
     0
1005
40FA
  0
INSERT
  5
40FC
330
2
100
AcDbEntity
  8
AM_4
100
AcDbBlockReference
  2
LAYER-GENIUS
 10
2034.297923432645
 20
196.798528008984
 30
0.0
  0
INSERT
  5
40FD
330
2
100
AcDbEntity
  8
AM_0
100
AcDbBlockReference
  2
LAYER-GENIUS
 10
2180.174419327168
 20
217.2781664764076
 30
0.0
  0
INSERT
  5
40FE
330
2
100
AcDbEntity
  8
AM_0
100
AcDbBlockReference
  2
LAYER-GENIUS
 10
2027.009336027733
 20
207.9125735823886
 30
0.0
  0
INSERT
  5
40FF
330
2
100
AcDbEntity
  8
AM_0
100
AcDbBlockReference
  2
LAYER-GENIUS
 10
608.3202956088996
 20
102.587540608178
 30
0.0
  0
INSERT
  5
412D
330
2
100
AcDbEntity
  8
AM_0
100
AcDbBlockReference
  2
LAYER-GENIUS
 10
897.3752580737473
 20
172.9927060285023
 30
0.0
  0
INSERT
  5
419C
330
2
100
AcDbEntity
  8
AM_0
100
AcDbBlockReference
  2
LAYER-GENIUS
 10
409.2547617965424
 20
68.91854397087673
 30
0.0
  0
INSERT
  5
4724
330
2
100
AcDbEntity
  8
AM_0
100
AcDbBlockReference
  2
LAYER-GENIUS
 10
0.0
 20
0.0
 30
0.0
  0
INSERT
  5
63DC
330
2
100
AcDbEntity
  8
AM_0
100
AcDbBlockReference
  2
LAYER-GENIUS
 10
0.0
 20
0.0
 30
0.0
  0
INSERT
  5
80CB
330
2
100
AcDbEntity
  8
AM_3
100
AcDbBlockReference
  2
LAYER-GENIUS
 10
0.0
 20
0.0
 30
0.0
  0
LINE
  5
832A
330
2
100
AcDbEntity
  8
AM_2
100
AcDbLine
 10
89.29254478773669
 20
130.533500874326
 30
0.0
 11
179.2925447877366
 21
130.533500874326
 31
0.0
  0
LINE
  5
832B
330
2
100
AcDbEntity
  8
AM_2
100
AcDbLine
 10
179.2925447877366
 20
130.533500874326
 30
0.0
 11
179.2925447877366
 21
200.533500874326
 31
0.0
  0
LINE
  5
832C
330
2
100
AcDbEntity
  8
AM_2
100
AcDbLine
 10
179.2925447877366
 20
200.533500874326
 30
0.0
 11
89.29254478773669
 21
200.533500874326
 31
0.0
  0
LINE
  5
832D
330
2
100
AcDbEntity
  8
AM_2
100
AcDbLine
 10
89.29254478773669
 20
200.533500874326
 30
0.0
 11
89.29254478773669
 21
130.533500874326
 31
0.0
  0
INSERT
  5
9733
330
2
100
AcDbEntity
  8
AM_0
100
AcDbBlockReference
  2
LAYER-GENIUS
 10
0.0
 20
0.0
 30
0.0
  0
INSERT
  5
A043
330
2
100
AcDbEntity
  8
AM_0
100
AcDbBlockReference
  2
LAYER-GENIUS
 10
0.0
 20
0.0
 30
0.0
  0
INSERT
  5
B04E
330
2
100
AcDbEntity
  8
AM_0
100
AcDbBlockReference
  2
LAYER-GENIUS
 10
556.052966916658
 20
132.7200618458487
 30
0.0
  0
INSERT
  5
B0CF
330
2
100
AcDbEntity
  8
AM_0
100
AcDbBlockReference
  2
LAYER-GENIUS
 10
557.0678254172423
 20
489.8202836542663
 30
0.0
  0
INSERT
  5
B181
330
2
100
AcDbEntity
  8
AM_0
100
AcDbBlockReference
  2
LAYER-GENIUS
 10
228.3323710069125
 20
122.0480667272448
 30
0.0
  0
LINE
  5
BCBA
330
2
100
AcDbEntity
  8
AM_0
100
AcDbLine
 10
116.6669365217723
 20
232.3227797144006
 30
0.0
 11
116.6669365217723
 21
219.2019569316086
 31
0.0
  0
INSERT
  5
CC3F
330
2
100
AcDbEntity
  8
AM_4
100
AcDbBlockReference
  2
LAYER-GENIUS
 10
204.9676449613566
 20
152.3975045482533
 30
0.0
  0
INSERT
  5
CC44
330
2
100
AcDbEntity
  8
AM_7
100
AcDbBlockReference
  2
LAYER-GENIUS
 10
204.9676449613566
 20
152.3975045482533
 30
0.0
  0
INSERT
  5
CC50
330
2
100
AcDbEntity
  8
AM_7
100
AcDbBlockReference
  2
LAYER-GENIUS
 10
204.9676449613566
 20
152.3975045482533
 30
0.0
  0
INSERT
  5
D251
330
2
100
AcDbEntity
  8
AM_4
100
AcDbBlockReference
  2
LAYER-GENIUS
 10
575.5216339091663
 20
156.7100973726139
 30
0.0
  0
INSERT
  5
D252
330
2
100
AcDbEntity
  8
AM_7
100
AcDbBlockReference
  2
LAYER-GENIUS
 10
575.5216339091663
 20
156.7100973726139
 30
0.0
  0
INSERT
  5
D253
330
2
100
AcDbEntity
  8
AM_7
100
AcDbBlockReference
  2
LAYER-GENIUS
 10
575.5216339091663
 20
156.7100973726139
 30
0.0
  0
INSERT
  5
D254
330
2
100
AcDbEntity
  8
AM_0
100
AcDbBlockReference
  2
LAYER-GENIUS
 10
433.4476938194921
 20
68.75810250396501
 30
0.0
  0
INSERT
  5
F038
330
2
100
AcDbEntity
  8
AM_5
100
AcDbBlockReference
 66
     1
  2
ASM_TOLL
 10
325.0882996839948
 20
182.6620318934151
 30
0.0
 41
3.5
 42
3.5
 43
3.5
1001
ASM_CADM_VER_12_00
1002
{
1005
0
1070
     0
1002
}
  0
ATTRIB
  5
F039
330
F038
100
AcDbEntity
  8
AM_0
 62
     0
100
AcDbText
 10
325.0882996839948
 20
185.4839364250864
 30
0.0
 40
1.994999999999999
  1

  7
ISO
100
AcDbAttribute
  2
SCOSTSUP
 70
     0
  0
ATTRIB
  5
F03A
330
F038
100
AcDbEntity
  8
AM_0
 62
     0
100
AcDbText
 10
325.0882996839948
 20
182.6620318934151
 30
0.0
 40
1.994999999999999
  1

  7
ISO
100
AcDbAttribute
  2
SCOSTINF
 70
     0
  0
SEQEND
  5
F03B
330
F038
100
AcDbEntity
  8
AM_5
 62
     7
  0
INSERT
  5
F055
330
2
100
AcDbEntity
  8
AM_5
100
AcDbBlockReference
 66
     1
  2
ASM_TOLL
 10
195.7045642109374
 20
182.453436321109
 30
0.0
 41
3.5
 42
3.5
 43
3.5
1001
ASM_CADM_VER_12_00
1002
{
1005
F054
1070
     0
1002
}
  0
ATTRIB
  5
F056
330
F055
100
AcDbEntity
  8
AM_0
 62
     0
100
AcDbText
 10
195.7045642109374
 20
185.2753408527804
 30
0.0
 40
1.994999999999999
  1

  7
ISO
100
AcDbAttribute
  2
SCOSTSUP
 70
     0
  0
ATTRIB
  5
F057
330
F055
100
AcDbEntity
  8
AM_0
 62
     0
100
AcDbText
 10
195.7045642109374
 20
182.453436321109
 30
0.0
 40
1.994999999999999
  1

  7
ISO
100
AcDbAttribute
  2
SCOSTINF
 70
     0
  0
SEQEND
  5
F058
330
F055
100
AcDbEntity
  8
AM_5
 62
     7
  0
INSERT
  5
F06B
330
2
100
AcDbEntity
  8
AM_5
100
AcDbBlockReference
 66
     1
  2
ASM_TOLL
 10
268.2906844545981
 20
183.0969456068299
 30
0.0
 41
3.5
 42
3.5
 43
3.5
1001
ASM_CADM_VER_12_00
1002
{
1005
F06A
1070
     0
1002
}
  0
ATTRIB
  5
F06C
330
F06B
100
AcDbEntity
  8
AM_0
 62
     0
100
AcDbText
 10
268.2906844545981
 20
185.9188501385013
 30
0.0
 40
1.994999999999999
  1

  7
ISO
100
AcDbAttribute
  2
SCOSTSUP
 70
     0
  0
ATTRIB
  5
F06D
330
F06B
100
AcDbEntity
  8
AM_0
 62
     0
100
AcDbText
 10
268.2906844545981
 20
183.0969456068299
 30
0.0
 40
1.994999999999999
  1

  7
ISO
100
AcDbAttribute
  2
SCOSTINF
 70
     0
  0
SEQEND
  5
F06E
330
F06B
100
AcDbEntity
  8
AM_5
 62
     7
  0
INSERT
  5
F1C6
330
2
100
AcDbEntity
  8
AM_0
100
AcDbBlockReference
  2
LAYER-GENIUS
 10
0.0
 20
0.0
 30
0.0
  0
INSERT
  5
10159
330
2
100
AcDbEntity
  8
AM_0
100
AcDbBlockReference
  2
LAYER-GENIUS
 10
240.4737490516074
 20
125.7815972676886
 30
0.0
  0
INSERT
  5
10701
330
2
100
AcDbEntity
  8
AM_0
100
AcDbBlockReference
  2
LAYER-GENIUS
 10
563.8631956694673
 20
126.4533797263752
 30
0.0
  0
INSERT
  5
1199D
330
2
100
AcDbEntity
  8
AM_0
100
AcDbBlockReference
  2
LAYER-GENIUS
 10
0.0
 20
0.0
 30
0.0
  0
INSERT
  5
12EE2
330
2
100
AcDbEntity
  8
AM_0
100
AcDbBlockReference
  2
LAYER-GENIUS
 10
0.0
 20
0.0
 30
0.0
  0
INSERT
  5
13B09
330
2
100
AcDbEntity
  8
AM_0
100
AcDbBlockReference
  2
LAYER-GENIUS
 10
453.7035242258748
 20
193.3186696682834
 30
0.0
  0
INSERT
  5
1402C
330
2
100
AcDbEntity
  8
AM_0
100
AcDbBlockReference
  2
LAYER-GENIUS
 10
600.142670509031
 20
77.40771383481626
 30
0.0
  0
INSERT
  5
156D6
330
2
100
AcDbEntity
  8
AM_0
100
AcDbBlockReference
  2
LAYER-GENIUS
 10
0.0
 20
0.0
 30
0.0
  0
INSERT
  5
15EE3
330
2
100
AcDbEntity
  8
AM_5
100
AcDbBlockReference
  2
LAYER-GENIUS
 10
0.0
 20
0.0
 30
0.0
  0
INSERT
  5
17192
330
2
100
AcDbEntity
  8
AM_5
100
AcDbBlockReference
  2
LAYER-GENIUS
 10
0.0
 20
0.0
 30
0.0
  0
INSERT
  5
17CAF
330
2
100
AcDbEntity
  8
AM_0
100
AcDbBlockReference
  2
LAYER-GENIUS
 10
0.0
 20
0.0
 30
0.0
  0
INSERT
  5
18337
330
2
100
AcDbEntity
  8
AM_0
100
AcDbBlockReference
  2
LAYER-GENIUS
 10
0.0
 20
0.0
 30
0.0
  0
INSERT
  5
18989
330
2
100
AcDbEntity
  8
AM_0
100
AcDbBlockReference
  2
LAYER-GENIUS
 10
0.0
 20
0.0
 30
0.0
  0
INSERT
  5
1898A
330
2
100
AcDbEntity
  8
AM_0
100
AcDbBlockReference
  2
LAYER-GENIUS
 10
0.0
 20
0.0
 30
0.0
  0
INSERT
  5
1898B
330
2
100
AcDbEntity
  8
AM_0
100
AcDbBlockReference
  2
LAYER-GENIUS
 10
0.0
 20
0.0
 30
0.0
  0
INSERT
  5
1898C
330
2
100
AcDbEntity
  8
AM_0
100
AcDbBlockReference
  2
LAYER-GENIUS
 10
0.0
 20
0.0
 30
0.0
  0
INSERT
  5
18E0F
330
2
100
AcDbEntity
  8
AM_0
100
AcDbBlockReference
  2
LAYER-GENIUS
 10
0.0
 20
0.0
 30
0.0
  0
INSERT
  5
193F4
330
2
100
AcDbEntity
  8
AM_0
100
AcDbBlockReference
  2
LAYER-GENIUS
 10
0.0
 20
0.0
 30
0.0
  0
INSERT
  5
198D3
330
2
100
AcDbEntity
  8
AM_0
100
AcDbBlockReference
  2
LAYER-GENIUS
 10
0.0
 20
0.0
 30
0.0
  0
INSERT
  5
1A51F
330
2
100
AcDbEntity
  8
AM_0
100
AcDbBlockReference
  2
LAYER-GENIUS
 10
0.0
 20
0.0
 30
0.0
  0
LINE
  5
1B839
330
2
100
AcDbEntity
  8
AM_0
100
AcDbLine
 10
146.3743165018877
 20
191.5824356731201
 30
0.0
 11
146.3743165018877
 21
178.6224356731201
 31
0.0
  0
DIMENSION
  5
1B83A
330
2
100
AcDbEntity
  8
AM_5
100
AcDbDimension
  2
*D10
 10
154.6490101074659
 20
162.0987199981236
 30
0.0
 11
153.0490101074659
 21
177.9745778356219
 31
0.0
 70
    32
  1
98
 71
     5
 42
31.75171567499655
  3
GEN-ISO
100
AcDbAlignedDimension
 13
141.0595424286532
 23
193.8504356731201
 33
0.0
 14
139.8850424286532
 24
162.0987199981236
 34
0.0
 50
90.0
100
AcDbRotatedDimension
1001
GENIUS_GENDTOL_13
1000

1000
h7
1000

1040
0.0
1000

  0
LINE
  5
1B83B
330
2
100
AcDbEntity
  8
AM_7
  6
AM_ISO08W050x2
 48
0.5
100
AcDbLine
 10
137.2467268903055
 20
194.2752538711801
 30
0.0
 11
137.2467268903055
 21
161.8198718619592
 31
0.0
  0
DIMENSION
  5
1B83C
330
2
100
AcDbEntity
  8
AM_5
100
AcDbDimension
  2
*D6
 10
120.999524340699
 20
178.6224356731201
 30
0.0
 11
119.3995243406989
 21
185.1024356731201
 31
0.0
 70
    32
  1
40
 71
     5
 42
12.96
  3
GEN-ISO
100
AcDbAlignedDimension
 13
132.6621268903055
 23
191.5824356731201
 33
0.0
 14
132.6621268903055
 24
178.6224356731201
 34
0.0
 50
90.0
100
AcDbRotatedDimension
1001
GENIUS_GENDTOL_13
1000

1000
h7
1000

1040
0.0
1000

  0
LINE
  5
1B83D
330
2
100
AcDbEntity
  8
AM_3
  6
AM_ISO02W050x2
 48
0.5
100
AcDbLine
 10
140.4462268903055
 20
163.3944356731201
 30
0.0
 11
140.4462268903055
 21
191.5824356731201
 31
0.0
  0
LINE
  5
1B83E
330
2
100
AcDbEntity
  8
AM_0
100
AcDbLine
 10
132.6621268903055
 20
191.5824356731201
 30
0.0
 11
132.6621268903055
 21
178.6224356731201
 31
0.0
  0
LINE
  5
1B83F
330
2
100
AcDbEntity
  8
AM_0
100
AcDbLine
 10
147.2907268903055
 20
191.5824356731201
 30
0.0
 11
147.2907268903055
 21
178.6224356731201
 31
0.0
  0
LINE
  5
1B840
330
2
100
AcDbEntity
  8
AM_4
100
AcDbLine
 10
142.1344787152263
 20
191.3200560826098
 30
0.0
 11
142.1344787152263
 21
178.8714934944645
 31
0.0
  0
LINE
  5
1B841
330
2
100
AcDbEntity
  8
AM_3
  6
AM_ISO02W050x2
 48
0.5
100
AcDbLine
 10
134.0472268903055
 20
191.5824356731201
 30
0.0
 11
134.0472268903055
 21
163.3726722611872
 31
0.0
  0
DIMENSION
  5
1B843
330
2
100
AcDbEntity
  8
AM_5
100
AcDbDimension
  2
*D9
 10
147.2907268903055
 20
152.6074040706542
 30
0.0
 11
137.2467268903055
 21
154.2074040706542
 31
0.0
 70
    32
  1
62
 71
     5
 42
20.088
  3
GEN-ISO
100
AcDbAlignedDimension
 13
127.2027268903055
 23
145.3567793665006
 33
0.0
 14
147.2907268903055
 24
145.3567793665006
 34
0.0
 50
180.0
100
AcDbRotatedDimension
1001
GENIUS_GENDTOL_13
1000

1000
h7
1000

1040
0.0
1000

  0
DIMENSION
  5
1B844
330
2
100
AcDbEntity
  8
AM_5
100
AcDbDimension
  2
*D8
 10
140.4462268903055
 20
158.0987199981236
 30
0.0
 11
146.5112205813684
 21
159.6987199981236
 31
0.0
 70
    32
  1
%%C19.8
 71
     5
 42
6.399
  3
GEN-ISO
100
AcDbAlignedDimension
 13
134.0472268903055
 23
163.0707199981236
 33
0.0
 14
140.4462268903055
 24
163.0707199981236
 34
0.0
 50
180.0
100
AcDbRotatedDimension
1001
GENIUS_GENDTOL_13
1000

1000
h7
1000

1040
0.0
1000
%%C19.8
  0
DIMENSION
  5
1B845
330
2
100
AcDbEntity
  8
AM_5
100
AcDbDimension
  2
*D7
 10
120.999524340699
 20
176.3544356731201
 30
0.0
 11
119.3995243406989
 21
172.0877690064535
 31
0.0
 70
    32
  1
7
 71
     5
 42
2.268
  3
GEN-ISO
100
AcDbAlignedDimension
 13
132.6621268903055
 23
178.6224356731201
 33
0.0
 14
127.2027268903055
 24
176.3544356731201
 34
0.0
 50
90.0
100
AcDbRotatedDimension
1001
GENIUS_GENDTOL_13
1000

1000
h7
1000

1040
0.0
1000

  0
LINE
  5
1B846
330
2
100
AcDbEntity
  8
AM_0
100
AcDbLine
 10
146.3743165018877
 20
136.2291897549184
 30
0.0
 11
143.299441524787
 21
139.304064732019
 31
0.0
  0
LINE
  5
1B847
330
2
100
AcDbEntity
  8
AM_0
100
AcDbLine
 10
147.2907268903055
 20
137.1456001433361
 30
0.0
 11
144.2158519132048
 21
140.2204751204368
 31
0.0
  0
LINE
  5
1B848
330
2
100
AcDbEntity
  8
AM_0
100
AcDbLine
 10
147.2907268903055
 20
145.3567793665006
 30
0.0
 11
144.2158519132048
 21
142.2819043893999
 31
0.0
  0
LINE
  5
1B849
330
2
100
AcDbEntity
  8
AM_0
100
AcDbLine
 10
146.3743165018877
 20
146.2731897549184
 30
0.0
 11
143.299441524787
 21
143.1983147778177
 31
0.0
  0
LINE
  5
1B84A
330
2
100
AcDbEntity
  8
AM_0
100
AcDbLine
 10
132.6621268903055
 20
178.6224356731201
 30
0.0
 11
147.2907268903055
 21
178.6224356731201
 31
0.0
  0
LINE
  5
1B84B
330
2
100
AcDbEntity
  8
AM_7
  6
AM_ISO08W050x2
 48
0.5
100
AcDbLine
 10
144.3888770279188
 20
141.2511897549184
 30
0.0
 11
129.9009101276714
 21
141.2511897549184
 31
0.0
  0
LINE
  5
1B84D
330
2
100
AcDbEntity
  8
AM_0
100
AcDbLine
 10
147.2907268903055
 20
145.3567793665006
 30
0.0
 11
146.3743165018877
 21
146.2731897549184
 31
0.0
  0
LINE
  5
1B84E
330
2
100
AcDbEntity
  8
AM_0
100
AcDbLine
 10
147.2907268903055
 20
137.1456001433361
 30
0.0
 11
146.3743165018877
 21
136.2291897549184
 31
0.0
  0
LINE
  5
1B850
330
2
100
AcDbEntity
  8
AM_0
100
AcDbLine
 10
127.2027268903055
 20
137.1456001433361
 30
0.0
 11
128.1191372787233
 21
136.2291897549184
 31
0.0
  0
LINE
  5
1B851
330
2
100
AcDbEntity
  8
AM_0
100
AcDbLine
 10
127.2027268903055
 20
137.1456001433361
 30
0.0
 11
130.2776018674062
 21
140.2204751204368
 31
0.0
  0
LINE
  5
1B852
330
2
100
AcDbEntity
  8
AM_0
100
AcDbLine
 10
127.2027268903055
 20
145.3567793665006
 30
0.0
 11
130.2776018674062
 21
142.2819043893999
 31
0.0
  0
LINE
  5
1B853
330
2
100
AcDbEntity
  8
AM_0
100
AcDbLine
 10
127.2027268903055
 20
145.3567793665006
 30
0.0
 11
128.1191372787233
 21
146.2731897549184
 31
0.0
  0
LINE
  5
1B854
330
2
100
AcDbEntity
  8
AM_5
100
AcDbLine
 10
144.2158519132048
 20
140.2204751204368
 30
0.0
 11
138.150049780238
 21
146.2862772534035
 31
0.0
  0
DIMENSION
  5
1B855
330
2
100
AcDbEntity
  8
AM_5
100
AcDbDimension
  2
*D12
 10
135.5725288085287
 20
148.8637982251129
 30
0.0
 11
132.9565553615258
 21
148.5105664779069
 31
0.0
 70
    33
  1
13
 71
     5
 42
4.199090255118846
  3
GEN-ISO
100
AcDbAlignedDimension
 13
137.2467268903055
 23
141.2511897549184
 33
0.0
 14
140.2159320845144
 24
144.2203949491273
 34
0.0
1001
ACAD
1000
DSTYLE
1002
{
1070
    40
1040
1.0
1002
}
1001
GENIUS_GENDTOL_13
1000

1000
h7
1000

1040
0.0
1000

  0
LINE
  5
1B856
330
2
100
AcDbEntity
  8
AM_7
  6
AM_ISO08W050x2
 48
0.5
100
AcDbLine
 10
137.2467268903055
 20
146.1093651684004
 30
0.0
 11
137.2467268903055
 21
136.3322249930492
 31
0.0
  0
LINE
  5
1B857
330
2
100
AcDbEntity
  8
AM_0
100
AcDbLine
 10
128.1191372787233
 20
146.2731897549184
 30
0.0
 11
131.1940122558239
 21
143.1983147778177
 31
0.0
  0
ARC
  5
1B858
330
2
100
AcDbEntity
  8
AM_0
100
AcDbCircle
 10
137.2467268903055
 20
141.2511897549184
 30
0.0
 40
4.5846
100
AcDbArc
 50
29.1400564097564
 51
209.1400564097564
  0
CIRCLE
  5
1B859
330
2
100
AcDbEntity
  8
AM_0
100
AcDbCircle
 10
137.2467268903055
 20
141.2511897549184
 30
0.0
 40
3.812815538347678
  0
CIRCLE
  5
1B85A
330
2
100
AcDbEntity
  8
AM_0
100
AcDbCircle
 10
137.2467268903055
 20
141.2511897549184
 30
0.0
 40
4.374
  0
ARC
  5
1B85B
330
2
100
AcDbEntity
  8
AM_0
100
AcDbCircle
 10
137.2467268903055
 20
141.2511897549184
 30
0.0
 40
4.5846
100
AcDbArc
 50
209.1400564097563
 51
330.8599435902435
  0
ARC
  5
1B85C
330
2
100
AcDbEntity
  8
AM_0
100
AcDbCircle
 10
142.3830311363693
 20
138.3876543436013
 30
0.0
 40
1.296
100
AcDbArc
 50
45.00000000000015
 51
150.8599435902434
  0
ARC
  5
1B85D
330
2
100
AcDbEntity
  8
AM_0
100
AcDbCircle
 10
142.3830311363693
 20
138.3876543436013
 30
0.0
 40
2.592
100
AcDbArc
 50
45.00000000000008
 51
107.5102807205815
  0
ARC
  5
1B85E
330
2
100
AcDbEntity
  8
AM_0
100
AcDbCircle
 10
142.3830311363693
 20
144.1147251662355
 30
0.0
 40
2.592
100
AcDbArc
 50
252.4897192794184
 51
314.9999999999998
  0
ARC
  5
1B85F
330
2
100
AcDbEntity
  8
AM_0
100
AcDbCircle
 10
142.3830311363693
 20
144.1147251662355
 30
0.0
 40
1.296
100
AcDbArc
 50
209.1400564097563
 51
314.9999999999998
  0
ARC
  5
1B860
330
2
100
AcDbEntity
  8
AM_0
100
AcDbCircle
 10
132.1104226442417
 20
138.3876543436013
 30
0.0
 40
1.296
100
AcDbArc
 50
29.14005640975656
 51
134.9999999999998
  0
LINE
  5
1B861
330
2
100
AcDbEntity
  8
AM_0
100
AcDbLine
 10
128.1191372787233
 20
136.2291897549184
 30
0.0
 11
131.1940122558239
 21
139.304064732019
 31
0.0
  0
ARC
  5
1B862
330
2
100
AcDbEntity
  8
AM_0
100
AcDbCircle
 10
132.1104226442417
 20
138.3876543436013
 30
0.0
 40
2.592
100
AcDbArc
 50
77.43553624380118
 51
134.9999999999999
  0
ARC
  5
1B863
330
2
100
AcDbEntity
  8
AM_0
100
AcDbCircle
 10
132.1104226442417
 20
144.1147251662355
 30
0.0
 40
2.592
100
AcDbArc
 50
225.0000000000001
 51
282.5644637561988
  0
ARC
  5
1B864
330
2
100
AcDbEntity
  8
AM_0
100
AcDbCircle
 10
132.1104226442417
 20
144.1147251662355
 30
0.0
 40
1.296
100
AcDbArc
 50
225.0000000000001
 51
330.8599435902436
  0
LINE
  5
1B865
330
2
100
AcDbEntity
  8
AM_0
100
AcDbLine
 10
141.8313268903055
 20
176.3544356731201
 30
0.0
 11
127.2027268903055
 21
176.3544356731201
 31
0.0
  0
LINE
  5
1B866
330
2
100
AcDbEntity
  8
AM_0
100
AcDbLine
 10
141.8313268903055
 20
163.3944356731201
 30
0.0
 11
127.2027268903055
 21
163.3944356731201
 31
0.0
  0
LINE
  5
1B867
330
2
100
AcDbEntity
  8
AM_0
100
AcDbLine
 10
128.1191372787233
 20
176.3544356731201
 30
0.0
 11
128.1191372787233
 21
163.3944356731201
 31
0.0
  0
LINE
  5
1B868
330
2
100
AcDbEntity
  8
AM_4
100
AcDbLine
 10
132.3589750653847
 20
163.7050777175346
 30
0.0
 11
132.3589750653847
 21
176.0498311615745
 31
0.0
  0
LINE
  5
1B869
330
2
100
AcDbEntity
  8
AM_0
100
AcDbLine
 10
141.8313268903055
 20
163.3944356731201
 30
0.0
 11
141.8313268903055
 21
176.3544356731201
 31
0.0
  0
LINE
  5
1B86A
330
2
100
AcDbEntity
  8
AM_0
100
AcDbLine
 10
140.4462268903055
 20
163.0707199981236
 30
0.0
 11
134.0472268903055
 21
163.0707199981236
 31
0.0
  0
LINE
  5
1B86B
330
2
100
AcDbEntity
  8
AM_0
100
AcDbLine
 10
134.6084113519578
 20
162.0987199981236
 30
0.0
 11
137.2467268903055
 21
162.0987199981236
 31
0.0
  0
LINE
  5
1B86C
330
2
100
AcDbEntity
  8
AM_0
100
AcDbLine
 10
140.4462268903055
 20
163.0707199981236
 30
0.0
 11
139.8850424286532
 21
162.0987199981236
 31
0.0
  0
LINE
  5
1B86D
330
2
100
AcDbEntity
  8
AM_0
100
AcDbLine
 10
140.4462268903055
 20
163.0707199981236
 30
0.0
 11
140.4462268903055
 21
163.3944356731201
 31
0.0
  0
LINE
  5
1B86E
330
2
100
AcDbEntity
  8
AM_0
100
AcDbLine
 10
139.8850424286532
 20
162.0987199981236
 30
0.0
 11
137.2467268903055
 21
162.0987199981236
 31
0.0
  0
LINE
  5
1B86F
330
2
100
AcDbEntity
  8
AM_0
100
AcDbLine
 10
134.0472268903055
 20
163.3726722611872
 30
0.0
 11
134.0472268903055
 21
163.0707199981236
 31
0.0
  0
LINE
  5
1B870
330
2
100
AcDbEntity
  8
AM_0
100
AcDbLine
 10
134.0472268903055
 20
163.0707199981236
 30
0.0
 11
134.6084113519578
 21
162.0987199981236
 31
0.0
  0
LINE
  5
1B871
330
2
100
AcDbEntity
  8
AM_0
100
AcDbLine
 10
141.7827268903055
 20
176.5164356731201
 30
0.0
 11
132.7107268903055
 21
176.5164356731201
 31
0.0
  0
LINE
  5
1B872
330
2
100
AcDbEntity
  8
AM_0
100
AcDbLine
 10
141.7827268903055
 20
178.4604356731201
 30
0.0
 11
132.7107268903055
 21
178.4604356731201
 31
0.0
  0
LINE
  5
1B873
330
2
100
AcDbEntity
  8
AM_0
100
AcDbLine
 10
132.8727268903055
 20
176.3544356731201
 30
0.0
 11
137.2467268903055
 21
176.3544356731201
 31
0.0
  0
LINE
  5
1B874
330
2
100
AcDbEntity
  8
AM_0
100
AcDbLine
 10
137.2467268903055
 20
178.6224356731201
 30
0.0
 11
132.8727268903055
 21
178.6224356731201
 31
0.0
  0
LINE
  5
1B875
330
2
100
AcDbEntity
  8
AM_0
100
AcDbLine
 10
137.2467268903055
 20
178.6224356731201
 30
0.0
 11
141.6207268903055
 21
178.6224356731201
 31
0.0
  0
LINE
  5
1B876
330
2
100
AcDbEntity
  8
AM_0
100
AcDbLine
 10
141.6207268903055
 20
176.3544356731201
 30
0.0
 11
137.2467268903055
 21
176.3544356731201
 31
0.0
  0
LINE
  5
1B877
330
2
100
AcDbEntity
  8
AM_0
100
AcDbLine
 10
141.7827268903055
 20
178.4604356731201
 30
0.0
 11
141.7827268903055
 21
176.5164356731201
 31
0.0
  0
LINE
  5
1B878
330
2
100
AcDbEntity
  8
AM_0
100
AcDbLine
 10
141.6207268903055
 20
178.6224356731201
 30
0.0
 11
141.7827268903055
 21
178.4604356731201
 31
0.0
  0
LINE
  5
1B879
330
2
100
AcDbEntity
  8
AM_0
100
AcDbLine
 10
141.6207268903055
 20
176.3544356731201
 30
0.0
 11
141.7827268903055
 21
176.5164356731201
 31
0.0
  0
LINE
  5
1B87A
330
2
100
AcDbEntity
  8
AM_0
100
AcDbLine
 10
132.8727268903055
 20
176.3544356731201
 30
0.0
 11
132.7107268903055
 21
176.5164356731201
 31
0.0
  0
LINE
  5
1B87B
330
2
100
AcDbEntity
  8
AM_0
100
AcDbLine
 10
132.8727268903055
 20
178.6224356731201
 30
0.0
 11
132.7107268903055
 21
178.4604356731201
 31
0.0
  0
LINE
  5
1B87C
330
2
100
AcDbEntity
  8
AM_0
100
AcDbLine
 10
132.7107268903055
 20
178.4604356731201
 30
0.0
 11
132.7107268903055
 21
176.5164356731201
 31
0.0
  0
LINE
  5
1B87D
330
2
100
AcDbEntity
  8
AM_0
100
AcDbLine
 10
127.2027268903055
 20
163.3944356731201
 30
0.0
 11
127.2027268903055
 21
176.3544356731201
 31
0.0
  0
LINE
  5
1B87E
330
2
100
AcDbEntity
  8
AM_0
100
AcDbLine
 10
132.6621268903055
 20
191.5824356731201
 30
0.0
 11
147.2907268903055
 21
191.5824356731201
 31
0.0
  0
LINE
  5
1B880
330
2
100
AcDbEntity
  8
AM_5
100
AcDbLine
 10
129.3375625680478
 20
195.9401906873807
 30
0.0
 11
114.5153524911413
 21
195.9401906873807
 31
0.0
  0
LEADER
  5
1B881
330
2
100
AcDbEntity
  8
AM_5
100
AcDbLeader
  3
GEN-ISO
 76
     2
 10
132.6621268903055
 20
190.9110576067183
 30
0.0
 10
129.3375625680478
 20
195.9401906873807
 30
0.0
211
-1.0
221
0.0
231
0.0
210
0.0
220
0.0
230
-1.0
  0
DIMENSION
  5
1B882
330
2
100
AcDbEntity
  8
AM_5
100
AcDbDimension
  2
*D11
 10
132.8727268903055
 20
197.4504356731201
 30
0.0
 11
137.2467268903055
 21
199.0504356731201
 31
0.0
 70
    32
  1
%%c27
 71
     5
 42
8.748000000000018
  3
GEN-ISO
100
AcDbAlignedDimension
 13
141.6207268903055
 23
192.7164356731201
 33
0.0
 14
132.8727268903055
 24
192.7164356731201
 34
0.0
 50
180.0
100
AcDbRotatedDimension
1001
GENIUS_GENDTOL_13
1000

1000
h7
1000

1040
0.0
1000
%%c27
  0
LINE
  5
1B883
330
2
100
AcDbEntity
  8
AM_0
100
AcDbLine
 10
141.5355087881202
 20
193.5756363673565
 30
0.0
 11
141.0595424286532
 21
193.8504356731201
 31
0.0
  0
LINE
  5
1B884
330
2
100
AcDbEntity
  8
AM_0
100
AcDbLine
 10
132.9579449924907
 20
193.5756363673566
 30
0.0
 11
133.4339113519578
 21
193.8504356731201
 31
0.0
  0
LINE
  5
1B885
330
2
100
AcDbEntity
  8
AM_0
100
AcDbLine
 10
141.5355087881202
 20
193.5756363673565
 30
0.0
 11
132.9579449924907
 21
193.5756363673566
 31
0.0
  0
LINE
  5
1B886
330
2
100
AcDbEntity
  8
AM_0
100
AcDbLine
 10
133.0222837317342
 20
191.5824356731201
 30
0.0
 11
141.4711700488768
 21
191.5824356731201
 31
0.0
  0
ARC
  5
1B887
330
2
100
AcDbEntity
  8
AM_0
100
AcDbCircle
 10
137.2467268903055
 20
192.7164356731201
 30
0.0
 40
4.374
100
AcDbArc
 50
344.9738862408809
 51
11.32848440052552
  0
LINE
  5
1B888
330
2
100
AcDbEntity
  8
AM_3
  6
AM_ISO02W050x2
 48
0.3
100
AcDbLine
 10
132.6621268903055
 20
190.1244356731201
 30
0.0
 11
134.0472268903055
 21
190.1244356731201
 31
0.0
  0
ARC
  5
1B889
330
2
100
AcDbEntity
  8
AM_0
100
AcDbCircle
 10
137.2467268903055
 20
192.7164356731201
 30
0.0
 40
4.374
100
AcDbArc
 50
168.6715155994741
 51
195.0261137591188
  0
LINE
  5
1B88A
330
2
100
AcDbEntity
  8
AM_0
100
AcDbLine
 10
133.4339113519578
 20
193.8504356731201
 30
0.0
 11
137.2467268903055
 21
193.8504356731201
 31
0.0
  0
LINE
  5
1B88B
330
2
100
AcDbEntity
  8
AM_0
100
AcDbLine
 10
141.0595424286532
 20
193.8504356731201
 30
0.0
 11
137.2467268903055
 21
193.8504356731201
 31
0.0
  0
TEXT
  5
1BA66
330
2
100
AcDbEntity
  8
AM_0
100
AcDbText
 10
114.474432889679
 20
196.5716673742641
 30
0.0
 40
1.8
  1
ENTRATA OLIO
 41
0.8
  7
QUOTE
 72
     1
 11
122.0515757468218
 21
197.4716673742642
 31
0.0
100
AcDbText
 73
     2
  0
DIMENSION
  5
1BAE5
330
2
100
AcDbEntity
  8
AM_5
100
AcDbDimension
  2
*D13
 10
122.6387301576282
 20
136.2291897549184
 30
0.0
 11
121.0387301576282
 21
141.2511897549184
 31
0.0
 70
    32
  1
31
 71
     5
 42
10.04399999999998
  3
GEN-ISO
100
AcDbAlignedDimension
 13
128.1191372787233
 23
146.2731897549184
 33
0.0
 14
128.1191372787233
 24
136.2291897549184
 34
0.0
 50
90.0
100
AcDbRotatedDimension
  0
DIMENSION
  5
1BB81
330
2
100
AcDbEntity
  8
AM_5
100
AcDbDimension
  2
*D14
 10
144.2158519132048
 20
142.2819043893999
 30
0.0
 11
149.484899589559
 21
141.2511897549184
 31
0.0
 70
    34
 71
     5
 42
1.570796326794889
  3
GEN-ISO
100
AcDb2LineAngularDimension
 13
147.2907268903055
 23
137.1456001433361
 33
0.0
 14
144.2158519132048
 24
140.2204751204368
 34
0.0
 15
147.2907268903055
 25
145.3567793665006
 35
0.0
 16
150.8157217163045
 26
139.206580817091
 36
0.0
  0
LINE
  5
1BBB1
330
2
100
AcDbEntity
  8
AM_5
100
AcDbLine
 10
147.0814232830742
 20
135.5220829737318
 30
0.0
 11
148.559185815659
 21
134.0443204411471
 31
0.0
  0
LINE
  5
1BBB2
330
2
100
AcDbEntity
  8
AM_5
100
AcDbLine
 10
147.997833671492
 20
136.4384933621495
 30
0.0
 11
149.4755962040767
 21
134.9607308295648
 31
0.0
  0
LINE
  5
1BBB3
330
2
100
AcDbEntity
  8
AM_5
100
AcDbLine
 10
146.7914188626926
 20
133.6907670505538
 30
0.0
 11
145.7307586909127
 21
132.630106878774
 31
0.0
  0
MTEXT
  5
1BBB5
330
2
100
AcDbEntity
  8
AM_5
 62
     7
100
AcDbMText
 10
145.3186129231984
 20
134.0609770789578
 30
0.0
 40
2.0
 41
0.0
 71
     5
 72
     1
  1
4
  7
ROMANS
 11
0.7071067811865584
 21
0.7071067811865368
 31
0.0
 73
     1
 44
1.0
  0
LINE
  5
1BBB6
330
2
100
AcDbEntity
  8
AM_5
100
AcDbLine
 10
147.8520790344724
 20
134.7514272223336
 30
0.0
 11
148.7684894228902
 21
135.6678376107514
 31
0.0
  0
SOLID
  5
1BBB7
330
2
100
AcDbEntity
  8
AM_5
100
AcDbTrace
 10
146.614642167396
 20
133.8675437458505
 30
0.0
 11
146.9681955579892
 21
133.5139903552572
 31
0.0
 12
147.8520790344724
 22
134.7514272223336
 32
0.0
 13
147.8520790344724
 23
134.7514272223336
 33
0.0
  0
INSERT
  5
1BD45
330
2
100
AcDbEntity
  8
AM_0
100
AcDbBlockReference
  2
COMUNELLO
 10
0.0
 20
0.0
 30
0.0
  0
LINE
  5
1BDE8
330
2
100
AcDbEntity
  8
AM_0
100
AcDbLine
 10
139.4583082993944
 20
232.3227797144006
 30
0.0
 11
139.4583082993944
 21
219.2019569316086
 31
0.0
  0
TEXT
  5
1BDE9
330
2
100
AcDbEntity
  8
AM_5
100
AcDbText
 10
118.4065972847963
 20
226.7997633485247
 30
0.0
 40
3.2999999967
  1
FINITURA
 41
0.8
 51
20.0
  7
CART
 72
     4
 11
126.9551687048192
 21
228.4497633468747
 31
0.0
100
AcDbText
  0
TEXT
  5
1BDEB
330
2
100
AcDbEntity
  8
AM_5
100
AcDbText
 10
122.9323115659849
 20
220.6124544736913
 30
0.0
 40
3.2999999967
  1
Inox
 41
0.8
 51
20.0
  7
CART
 72
     4
 11
126.9551687048192
 21
222.2624544720413
 31
0.0
100
AcDbText
  0
INSERT
  5
1BE32
330
2
100
AcDbEntity
  8
0
370
     0
100
AcDbBlockReference
  2
A4-ORIZZONTALE
 10
-14.20745521226331
 20
101.4522103718465
 30
0.0
1001
GENIUS_GENOREF_13
1005
1BECD
1001
GENIUS_GENODEF_13
1002
{
1000
HIER
1070
     0
1002
}
1002
{
1000
MANEDIT
1070
     0
1002
}
1002
{
1000
NOSEL
1070
     0
1002
}
1002
{
1000
BEHIND
1070
     0
1002
}
1002
{
1000
OTHER
1070
     0
1002
}
1002
{
1000
REACTOR
1002
}
1001
GENIUS_GENOBJ-N-SDF_13
1002
{
1000
OWNER
1000
GEN
1002
}
1001
GENIUS_GENSCREG_15
1040
1.0
1040
1.0
1011
-14.20745521226331
1021
101.4522103718465
1031
0.0
1011
282.7925447877366
1021
311.4522103718464
1031
0.0
1070
     5
  0
POINT
  5
1BECD
330
2
100
AcDbEntity
  8
0
 60
     1
100
AcDbPoint
 10
0.0
 20
0.0
 30
0.0
1001
GENIUS_GENOBJ-N-TIT_13
1002
{
1000
OWNER
1000
GEN
1002
}
1001
GENIUS_GENOLIS_13
1002
{
1000
ENT
1005
1BEB1
1005
1BE32
1002
}
1001
GENIUS_GENOENT_13
1002
{
1000
MYREF
1005
1BECD
1002
}
1002
{
1000
GRP
1005
0
1002
}
1001
GENIUS_GENTITLE_13
1002
{
1000
BORDER
1000
A4-ORIZZONTALE
1002
}
1002
{
1000
TITLE
1000
ASM_C4
1002
}
1002
{
1000
SCALE
1000
1:1
1002
}
1002
{
1000
TITLESTD
1000
ISO
1002
}
1002
{
1000
HRA
1005
1BE32
1002
}
1002
{
1000
HTIT
1005
1BEB1
1002
}
1002
{
1000
UNCHG
1002
{
1000
GEN-TITLE-SIZ
1000
GEN-TITLE-SCA
1002
}
1002
}
1002
{
1000
GENIUSID
1005
1BECD
1002
}
1001
GENIUS_GENODEF_13
1002
{
1000
HIER
1070
     1
1002
}
1002
{
1000
MANEDIT
1070
     1
1002
}
1002
{
1000
NOSEL
1070
     0
1002
}
1002
{
1000
BEHIND
1070
     0
1002
}
1002
{
1000
OTHER
1070
     0
1002
}
1002
{
1000
REACTOR
1002
}
  0
ENDSEC
  0
SECTION
  2
OBJECTS
  0
DICTIONARY
  5
1B
330
0
100
AcDbDictionary
281
     1
  3
ACAD_GROUP
350
19
  3
ACAD_LAYOUT
350
1B7C0
  3
ACAD_MLINESTYLE
350
1A
  3
ACAD_PLOTSETTINGS
350
1B7C1
  3
ACAD_PLOTSTYLENAME
350
1B7BE
  3
AcDbVariableDictionary
350
1B7E8
  3
AcmDictionary
350
1B7FA
  3
AMG
350
1B7CF
  3
AMGSNAPSETTINGS
350
1B831
  3
DWGPROPS
350
1BE34
  0
DICTIONARY
  5
1BA3A
330
2
100
AcDbDictionary
280
     1
281
     1
  3
ACAD_INDEX
360
1BA3B
  0
DICTIONARY
  5
19
102
{ACAD_REACTORS
330
1B
102
}
330
1B
100
AcDbDictionary
281
     1
  3
*A1
350
3F94
  3
*A10
350
EF60
  3
*A11
350
EF61
  3
*A12
350
3F97
  3
*A13
350
3F98
  3
*A14
350
3F99
  3
*A15
350
3F9A
  3
*A16
350
3F9B
  3
*A2
350
3F9C
  3
*A3
350
3F9D
  3
*A4
350
3F9E
  3
*A5
350
3F9F
  3
*A6
350
3F95
  3
*A7
350
3F96
  3
*A8
350
EF5E
  3
*A9
350
EF5F
  0
DICTIONARY
  5
1B7C0
102
{ACAD_REACTORS
330
1B
102
}
330
1B
100
AcDbDictionary
281
     1
  3
Layout1
350
1B7C3
  3
Model
350
1B7C2
  0
DICTIONARY
  5
1A
102
{ACAD_REACTORS
330
1B
102
}
330
1B
100
AcDbDictionary
281
     1
  3
STANDARD
350
1E
  0
DICTIONARY
  5
1B7C1
102
{ACAD_REACTORS
330
1B
102
}
330
1B
100
AcDbDictionary
281
     1
  0
ACDBDICTIONARYWDFLT
  5
1B7BE
102
{ACAD_REACTORS
330
1B
102
}
330
1B
100
AcDbDictionary
281
     1
  3
Normal
350
1B7BF
100
AcDbDictionaryWithDefault
340
1B7BF
  0
DICTIONARY
  5
1B7E8
102
{ACAD_REACTORS
330
1B
102
}
330
1B
100
AcDbDictionary
281
     1
  3
DIMASSOC
350
1BDB6
  3
INDEXCTL
350
1B7E9
  0
DICTIONARY
  5
1B7FA
102
{ACAD_REACTORS
330
1B
102
}
330
1B
100
AcDbDictionary
281
     1
  3
AcmBOMDATA
350
1B7FB
  3
AcmStdDictionary
350
1B7FF
  0
DICTIONARY
  5
1B7CF
102
{ACAD_REACTORS
330
1B
102
}
330
1B
100
AcDbDictionary
281
     1
  3
AcMgSettings
350
1B7D0
  3
AMGLAYCFG
350
1B7D8
  0
DICTIONARY
  5
1B831
102
{ACAD_REACTORS
330
1B
102
}
330
1B
100
AcDbDictionary
281
     1
  3
DIMENSION
350
1BC5A
  3
FEA
350
1BC5B
  3
HATCH (1)
350
1BC5C
  3
HATCH (2)
350
1BC5D
  3
SIMPLE WELD
350
1BC5E
  3
SYMBOLS
350
1BC5F
  0
XRECORD
  5
1BE34
102
{ACAD_REACTORS
330
1B
102
}
330
1B
100
AcDbXrecord
280
     1
  1
DWGPROPS COOKIE
  2

  3

  4

  6

  7

  8
ANDVAL
  9

300
AmdtFileType=84
301
=
302
=
303
=
304
=
305
=
306
=
307
=
308
=
309
=
 40
1.099187314814814
 41
2450457.860426388
 42
2452887.452186771
  1

 90
        1
  0
DICTIONARY
  5
1BA3B
102
{ACAD_REACTORS
330
1BA3A
102
}
330
1BA3A
100
AcDbDictionary
281
     1
  3
*A1
350
1BA3C
  0
GROUP
  5
3F94
102
{ACAD_REACTORS
330
19
102
}
330
19
100
AcDbGroup
300

 70
     3
 71
     1
  0
GROUP
  5
EF60
102
{ACAD_REACTORS
330
19
102
}
330
19
100
AcDbGroup
300

 70
     3
 71
     1
  0
GROUP
  5
EF61
102
{ACAD_REACTORS
330
19
102
}
330
19
100
AcDbGroup
300

 70
     3
 71
     1
  0
GROUP
  5
3F97
102
{ACAD_REACTORS
330
19
102
}
330
19
100
AcDbGroup
300

 70
     3
 71
     1
  0
GROUP
  5
3F98
102
{ACAD_REACTORS
330
19
102
}
330
19
100
AcDbGroup
300

 70
     3
 71
     1
  0
GROUP
  5
3F99
102
{ACAD_REACTORS
330
19
102
}
330
19
100
AcDbGroup
300

 70
     3
 71
     1
  0
GROUP
  5
3F9A
102
{ACAD_REACTORS
330
19
102
}
330
19
100
AcDbGroup
300

 70
     3
 71
     1
  0
GROUP
  5
3F9B
102
{ACAD_REACTORS
330
19
102
}
330
19
100
AcDbGroup
300

 70
     3
 71
     1
  0
GROUP
  5
3F9C
102
{ACAD_REACTORS
330
19
102
}
330
19
100
AcDbGroup
300

 70
     3
 71
     1
  0
GROUP
  5
3F9D
102
{ACAD_REACTORS
330
19
102
}
330
19
100
AcDbGroup
300

 70
     3
 71
     1
  0
GROUP
  5
3F9E
102
{ACAD_REACTORS
330
19
102
}
330
19
100
AcDbGroup
300

 70
     3
 71
     1
  0
GROUP
  5
3F9F
102
{ACAD_REACTORS
330
19
102
}
330
19
100
AcDbGroup
300

 70
     3
 71
     1
  0
GROUP
  5
3F95
102
{ACAD_REACTORS
330
19
102
}
330
19
100
AcDbGroup
300

 70
     3
 71
     1
  0
GROUP
  5
3F96
102
{ACAD_REACTORS
330
19
102
}
330
19
100
AcDbGroup
300

 70
     3
 71
     1
  0
GROUP
  5
EF5E
102
{ACAD_REACTORS
330
19
102
}
330
19
100
AcDbGroup
300

 70
     3
 71
     1
  0
GROUP
  5
EF5F
102
{ACAD_REACTORS
330
19
102
}
330
19
100
AcDbGroup
300

 70
     3
 71
     1
  0
LAYOUT
  5
1B7C3
102
{ACAD_REACTORS
330
1B7C0
102
}
330
1B7C0
100
AcDbPlotSettings
  1

  2
\\NF5000\HP LaserJet 4V
  4

  6

 40
0.0
 41
0.0
 42
0.0
 43
0.0
 44
0.0
 45
0.0
 46
0.0
 47
0.0
 48
0.0
 49
0.0
140
0.0
141
0.0
142
1.0
143
1.0
 70
   688
 72
     0
 73
     0
 74
     5
  7
monochrome.ctb
 75
    16
147
1.0
148
0.0
149
0.0
100
AcDbLayout
  1
Layout1
 70
     1
 71
     1
 10
0.0
 20
0.0
 11
12.0
 21
9.0
 12
0.0
 22
0.0
 32
0.0
 14
1.000000000000000E+20
 24
1.000000000000000E+20
 34
1.000000000000000E+20
 15
-1.000000000000000E+20
 25
-1.000000000000000E+20
 35
-1.000000000000000E+20
146
0.0
 13
0.0
 23
0.0
 33
0.0
 16
1.0
 26
0.0
 36
0.0
 17
0.0
 27
1.0
 37
0.0
 76
     0
330
8
  0
LAYOUT
  5
1B7C2
102
{ACAD_REACTORS
330
1B7C0
102
}
330
1B7C0
100
AcDbPlotSettings
  1

  2
\\NF5000\HP LaserJet 4V
  4

  6

 40
0.0
 41
0.0
 42
0.0
 43
0.0
 44
0.0
 45
0.0
 46
0.0
 47
0.0
 48
0.0
 49
0.0
140
0.0
141
0.0
142
1.0
143
1.0
 70
  1712
 72
     0
 73
     0
 74
     0
  7
monochrome.ctb
 75
     0
147
1.0
148
0.0
149
0.0
100
AcDbLayout
  1
Model
 70
     1
 71
     0
 10
0.0
 20
0.0
 11
12.0
 21
9.0
 12
0.0
 22
0.0
 32
0.0
 14
0.0
 24
0.0
 34
0.0
 15
0.0
 25
0.0
 35
0.0
146
0.0
 13
0.0
 23
0.0
 33
0.0
 16
1.0
 26
0.0
 36
0.0
 17
0.0
 27
1.0
 37
0.0
 76
     0
330
2
  0
MLINESTYLE
  5
1E
102
{ACAD_REACTORS
330
1A
102
}
330
1A
100
AcDbMlineStyle
  2
STANDARD
 70
     0
  3

 62
     0
 51
90.0
 52
90.0
 71
     2
 49
0.5
 62
   256
  6
BYLAYER
 49
-0.5
 62
   256
  6
BYLAYER
  0
ACDBPLACEHOLDER
  5
1B7BF
102
{ACAD_REACTORS
330
1B7BE
102
}
330
1B7BE
  0
DICTIONARYVAR
  5
1BDB6
102
{ACAD_REACTORS
330
1B7E8
102
}
330
1B7E8
100
DictionaryVariables
280
     0
  1
1
  0
DICTIONARYVAR
  5
1B7E9
102
{ACAD_REACTORS
330
1B7E8
102
}
330
1B7E8
100
DictionaryVariables
280
     0
  1
1
  0
ACMDATADICTIONARY
  5
1B7FB
102
{ACAD_REACTORS
330
1B7FA
102
}
330
1B7FA
100
AcDbDictionary
281
     1
  3
*A1
350
1B7FC
  3
*A2
350
1BE2B
  3
*A3
350
1BEAD
100
AcmDataDictionary
  0
DICTIONARY
  5
1B7FF
102
{ACAD_REACTORS
330
1B7FA
102
}
330
1B7FA
100
AcDbDictionary
281
     1
  3
ISO
350
1B800
  0
DICTIONARY
  5
1B7D0
102
{ACAD_REACTORS
330
1B7CF
102
}
330
1B7CF
100
AcDbDictionary
281
     1
  3
DWGSETTINGS
350
1B7D5
  3
FEM
350
1BBC4
  3
Shaft
350
1BBC1
  3
TRANSSETTINGS
350
1B7E2
  0
ACAMGFILTERDAT
  5
1BC5A
102
{ACAD_REACTORS
330
1B831
102
}
330
1B831
100
AcAmgFilterDat
 70
    15
  1
DIMENSION,AMDT_*_DIM
  2
*
  3
*
  4
*
  5
*
290
     1
  0
ACAMGFILTERDAT
  5
1BC5B
102
{ACAD_REACTORS
330
1B831
102
}
330
1B831
100
AcAmgFilterDat
 70
    15
  1
*
  2
AM_FEA-AM_*
  3
*
  4
*
  5
*
290
     1
  0
ACAMGFILTERDAT
  5
1BC5C
102
{ACAD_REACTORS
330
1B831
102
}
330
1B831
100
AcAmgFilterDat
 70
    15
  1
HATCH
  2
*
  3
*
  4
*
  5
*
290
     1
  0
ACAMGFILTERDAT
  5
1BC5D
102
{ACAD_REACTORS
330
1B831
102
}
330
1B831
100
AcAmgFilterDat
 70
    15
  1
LINE
  2
8,8N,*-8,*-8N,AM_8,AM_8N,*-AM_8,*-AM_8N
  3
*
  4
*
  5
INSERT,STDPART2D
290
     1
  0
ACAMGFILTERDAT
  5
1BC5E
102
{ACAD_REACTORS
330
1B831
102
}
330
1B831
100
AcAmgFilterDat
 70
    15
  1
ARC
  2
AM_5
  3
*
  4
2
  5
INSERT
290
     0
  0
ACAMGFILTERDAT
  5
1BC5F
102
{ACAD_REACTORS
330
1B831
102
}
330
1B831
100
AcAmgFilterDat
 70
    15
  1
ACMFCFRAME,ACMDATUMTARGET,ACMDATUMID,ACMWELDSYM,ACMSURFSYM,ACMFEATID,ACMPARTREF,ACMBALLOON,AMDTEDGESYM
  2
*
  3
*
  4
*
  5
*
290
     1
  0
LAYER_INDEX
  5
1BA3C
102
{ACAD_REACTORS
330
1BA3B
102
}
330
1BA3B
100
AcDbIndex
 40
2453095.409745717
100
AcDbLayerIndex
  8
0
360
1BA3D
 90
        2
  8
DEFPOINTS
360
1BA3E
 90
        0
  8
AME_FRZ
360
1BA3F
 90
      156
  8
AM_0
360
1BA40
 90
      138
  8
AM_5
360
1BA41
 90
       32
  8
AM_6
360
1BA42
 90
        4
  8
AM_PAREF
360
1BA47
 90
        2
  8
AM_4
360
1BA48
 90
        6
  8
AM_3
360
1BA49
 90
        4
  8
AM_2
360
1BA4A
 90
        4
  8
AM_7
360
1BA4B
 90
        9
  8
AM_BOR
360
1BA4C
 90
        0
  8
AM_CL
360
1BDDF
 90
        0
  0
ACMDATAENTRYBLOCK
  5
1B7FC
102
{ACAD_REACTORS
330
1B7FB
102
}
330
1B7FB
100
AcmDataEntry
100
AcmDataEntryBlock
  0
ACMDATAENTRYBLOCK
  5
1BE2B
102
{ACAD_REACTORS
330
1B7FB
102
}
330
1B7FB
100
AcmDataEntry
100
AcmDataEntryBlock
  0
ACMDATAENTRYBLOCK
  5
1BEAD
102
{ACAD_REACTORS
330
1B7FB
102
}
330
1B7FB
100
AcmDataEntry
100
AcmDataEntryBlock
  0
IDBUFFER
  5
1BA3D
330
0
100
AcDbIdBuffer
330
1BE32
330
1BECD
  0
IDBUFFER
  5
1BA3E
330
0
100
AcDbIdBuffer
  0
IDBUFFER
  5
1BA3F
330
0
100
AcDbIdBuffer
330
3FB0
330
3FB1
330
3FB2
330
3FB3
330
3FB4
330
3FB5
330
3FB6
330
3FB7
330
3FB8
330
3FB9
330
3FC4
330
3FC5
330
3FC6
330
3FC7
330
3FC8
330
3FC9
330
3FCA
330
3FCB
330
3FCC
330
3FCD
330
3FD0
330
3FD1
330
3FD2
330
3FD3
330
3FD4
330
3FD5
330
3FD6
330
3FD7
330
3FD8
330
3FD9
330
3FDA
330
3FDB
330
3FDC
330
3FDD
330
3FDE
330
3FDF
330
3FE0
330
3FE1
330
3FE2
330
3FE3
330
3FE4
330
3FE5
330
3FE6
330
3FE7
330
3FE8
330
3FE9
330
3FEA
330
3FEB
330
3FEC
330
3FED
330
3FEE
330
3FEF
330
3FF0
330
3FF1
330
3FF3
330
3FF4
330
3FF5
330
3FF6
330
3FF7
330
3FF8
330
3FF9
330
3FFA
330
3FFB
330
3FFC
330
3FFD
330
3FFE
330
3FFF
330
4000
330
4036
330
4037
330
4038
330
4039
330
403A
330
403B
330
403C
330
403D
330
403E
330
403F
330
4075
330
4076
330
4077
330
4078
330
4079
330
407A
330
407B
330
407C
330
407D
330
407E
330
4080
330
4081
330
4082
330
4083
330
4084
330
4085
330
4086
330
4087
330
4088
330
4089
330
408C
330
408D
330
408E
330
408F
330
4090
330
4091
330
4092
330
4093
330
4094
330
4095
330
4096
330
4097
330
4098
330
4099
330
409A
330
409B
330
409C
330
409D
330
409E
330
409F
330
40A0
330
40A1
330
40A2
330
40A3
330
40A4
330
40A5
330
40A6
330
40A7
330
40A8
330
40A9
330
40AA
330
40AB
330
40AC
330
40AD
330
40AF
330
40B0
330
40B1
330
40B2
330
40B3
330
40B4
330
40B5
330
40B6
330
40B7
330
40B8
330
40B9
330
40BA
330
40BB
330
40BC
330
40F2
330
40F3
330
40F4
330
40F5
330
40F6
330
40F7
330
40F8
330
40F9
330
40FA
330
40FB
  0
IDBUFFER
  5
1BA40
330
0
100
AcDbIdBuffer
330
1412
330
1418
330
141A
330
141B
330
1430
330
1431
330
1432
330
1433
330
1448
330
1452
330
1453
330
147A
330
147B
330
147C
330
149D
330
149E
330
1FA2
330
3FC1
330
3FCE
330
3FCF
330
4002
330
4003
330
401A
330
4021
330
4028
330
4029
330
4030
330
4031
330
4041
330
4042
330
4043
330
407F
330
408A
330
408B
330
40BE
330
40BF
330
40D6
330
40DD
330
40E4
330
40E5
330
40EC
330
40ED
330
40FD
330
40FE
330
40FF
330
412D
330
419C
330
4724
330
63DC
330
9733
330
A043
330
B04E
330
B0CF
330
B181
330
BCBA
330
D254
330
F1C6
330
10159
330
10701
330
1199D
330
12EE2
330
13B09
330
1402C
330
156D6
330
17CAF
330
18337
330
18989
330
1898A
330
1898B
330
1898C
330
18E0F
330
193F4
330
198D3
330
1A51F
330
1B839
330
1B83E
330
1B83F
330
1B846
330
1B847
330
1B848
330
1B849
330
1B84A
330
1B84D
330
1B84E
330
1B850
330
1B851
330
1B852
330
1B853
330
1B857
330
1B858
330
1B859
330
1B85A
330
1B85B
330
1B85C
330
1B85D
330
1B85E
330
1B85F
330
1B860
330
1B861
330
1B862
330
1B863
330
1B864
330
1B865
330
1B866
330
1B867
330
1B869
330
1B86A
330
1B86B
330
1B86C
330
1B86D
330
1B86E
330
1B86F
330
1B870
330
1B871
330
1B872
330
1B873
330
1B874
330
1B875
330
1B876
330
1B877
330
1B878
330
1B879
330
1B87A
330
1B87B
330
1B87C
330
1B87D
330
1B87E
330
1B883
330
1B884
330
1B885
330
1B886
330
1B887
330
1B889
330
1B88A
330
1B88B
330
1BA66
330
1BD45
330
1BDE8
  0
IDBUFFER
  5
1BA41
330
0
100
AcDbIdBuffer
330
1435
330
1447
330
144A
330
1488
330
1498
330
149C
330
14A0
330
F038
330
F055
330
F06B
330
15EE3
330
17192
330
1B83A
330
1B83C
330
1B843
330
1B844
330
1B845
330
1B854
330
1B855
330
1B880
330
1B881
330
1B882
330
1BAE5
330
1BB81
330
1BBB1
330
1BBB2
330
1BBB3
330
1BBB5
330
1BBB6
330
1BBB7
330
1BDE9
330
1BDEB
  0
IDBUFFER
  5
1BA42
330
0
100
AcDbIdBuffer
330
3FF2
330
4001
330
40AE
330
40BD
  0
IDBUFFER
  5
1BA47
330
0
100
AcDbIdBuffer
330
4035
330
40F1
  0
IDBUFFER
  5
1BA48
330
0
100
AcDbIdBuffer
330
4040
330
40FC
330
CC3F
330
D251
330
1B840
330
1B868
  0
IDBUFFER
  5
1BA49
330
0
100
AcDbIdBuffer
330
80CB
330
1B83D
330
1B841
330
1B888
  0
IDBUFFER
  5
1BA4A
330
0
100
AcDbIdBuffer
330
832A
330
832B
330
832C
330
832D
  0
IDBUFFER
  5
1BA4B
330
0
100
AcDbIdBuffer
330
400A
330
40C6
330
CC44
330
CC50
330
D252
330
D253
330
1B83B
330
1B84B
330
1B856
  0
IDBUFFER
  5
1BA4C
330
0
100
AcDbIdBuffer
  0
IDBUFFER
  5
1BDDF
330
0
100
AcDbIdBuffer
  0
ENDSEC
  0
EOF
