  0
SECTION
  2
HEADER
  9
$ACADVER
  1
AC1018
  9
$ACADMAINTVER
 70
     0
  9
$DWGCODEPAGE
  3
ANSI_1252
  9
$INSBASE
 10
0.0
 20
0.0
 30
0.0
  9
$EXTMIN
 10
315.693763951381
 20
11.60306109307139
 30
0.0
  9
$EXTMAX
 10
429.114941250304
 20
189.134262310559
 30
0.0
  9
$LIMMIN
 10
0.0
 20
0.0
  9
$LIMMAX
 10
12.0
 20
9.0
  9
$ORTHOMODE
 70
     0
  9
$REGENMODE
 70
     1
  9
$FILLMODE
 70
     1
  9
$QTEXTMODE
 70
     0
  9
$MIRRTEXT
 70
     1
  9
$LTSCALE
 40
1.0
  9
$ATTMODE
 70
     1
  9
$TEXTSIZE
 40
0.2
  9
$TRACEWID
 40
0.05
  9
$TEXTSTYLE
  7
Standard
  9
$CLAYER
  8
0
  9
$CELTYPE
  6
ByLayer
  9
$CECOLOR
 62
   256
  9
$CELTSCALE
 40
1.0
  9
$DISPSILH
 70
     0
  9
$DIMSCALE
 40
1.0
  9
$DIMASZ
 40
0.18
  9
$DIMEXO
 40
0.0625
  9
$DIMDLI
 40
0.38
  9
$DIMRND
 40
0.0
  9
$DIMDLE
 40
0.0
  9
$DIMEXE
 40
0.18
  9
$DIMTP
 40
0.0
  9
$DIMTM
 40
0.0
  9
$DIMTXT
 40
0.18
  9
$DIMCEN
 40
0.09
  9
$DIMTSZ
 40
0.0
  9
$DIMTOL
 70
     0
  9
$DIMLIM
 70
     0
  9
$DIMTIH
 70
     1
  9
$DIMTOH
 70
     1
  9
$DIMSE1
 70
     0
  9
$DIMSE2
 70
     0
  9
$DIMTAD
 70
     0
  9
$DIMZIN
 70
     0
  9
$DIMBLK
  1

  9
$DIMASO
 70
     1
  9
$DIMSHO
 70
     1
  9
$DIMPOST
  1

  9
$DIMAPOST
  1

  9
$DIMALT
 70
     0
  9
$DIMALTD
 70
     2
  9
$DIMALTF
 40
25.4
  9
$DIMLFAC
 40
1.0
  9
$DIMTOFL
 70
     0
  9
$DIMTVP
 40
0.0
  9
$DIMTIX
 70
     0
  9
$DIMSOXD
 70
     0
  9
$DIMSAH
 70
     0
  9
$DIMBLK1
  1

  9
$DIMBLK2
  1

  9
$DIMSTYLE
  2
Standard
  9
$DIMCLRD
 70
     0
  9
$DIMCLRE
 70
     0
  9
$DIMCLRT
 70
     0
  9
$DIMTFAC
 40
1.0
  9
$DIMGAP
 40
0.09
  9
$DIMJUST
 70
     0
  9
$DIMSD1
 70
     0
  9
$DIMSD2
 70
     0
  9
$DIMTOLJ
 70
     1
  9
$DIMTZIN
 70
     0
  9
$DIMALTZ
 70
     0
  9
$DIMALTTZ
 70
     0
  9
$DIMUPT
 70
     0
  9
$DIMDEC
 70
     4
  9
$DIMTDEC
 70
     4
  9
$DIMALTU
 70
     2
  9
$DIMALTTD
 70
     2
  9
$DIMTXSTY
  7
Standard
  9
$DIMAUNIT
 70
     0
  9
$DIMADEC
 70
     0
  9
$DIMALTRND
 40
0.0
  9
$DIMAZIN
 70
     0
  9
$DIMDSEP
 70
    46
  9
$DIMATFIT
 70
     3
  9
$DIMFRAC
 70
     0
  9
$DIMLDRBLK
  1

  9
$DIMLUNIT
 70
     2
  9
$DIMLWD
 70
    -2
  9
$DIMLWE
 70
    -2
  9
$DIMTMOVE
 70
     0
  9
$LUNITS
 70
     2
  9
$LUPREC
 70
     4
  9
$SKETCHINC
 40
0.1
  9
$FILLETRAD
 40
0.5
  9
$AUNITS
 70
     0
  9
$AUPREC
 70
     0
  9
$MENU
  1
.
  9
$ELEVATION
 40
0.0
  9
$PELEVATION
 40
0.0
  9
$THICKNESS
 40
0.0
  9
$LIMCHECK
 70
     0
  9
$CHAMFERA
 40
0.5
  9
$CHAMFERB
 40
0.5
  9
$CHAMFERC
 40
1.0
  9
$CHAMFERD
 40
0.0
  9
$SKPOLY
 70
     0
  9
$TDCREATE
 40
2454435.40995125
  9
$TDUCREATE
 40
2454435.368284584
  9
$TDUPDATE
 40
2454435.409951262
  9
$TDUUPDATE
 40
2454435.368284595
  9
$TDINDWG
 40
0.0000000116
  9
$TDUSRTIMER
 40
0.0000000116
  9
$USRTIMER
 70
     1
  9
$ANGBASE
 50
0.0
  9
$ANGDIR
 70
     0
  9
$PDMODE
 70
     0
  9
$PDSIZE
 40
0.0
  9
$PLINEWID
 40
0.0
  9
$SPLFRAME
 70
     0
  9
$SPLINETYPE
 70
     6
  9
$SPLINESEGS
 70
     8
  9
$HANDSEED
  5
DA
  9
$SURFTAB1
 70
     6
  9
$SURFTAB2
 70
     6
  9
$SURFTYPE
 70
     6
  9
$SURFU
 70
     6
  9
$SURFV
 70
     6
  9
$UCSBASE
  2

  9
$UCSNAME
  2

  9
$UCSORG
 10
0.0
 20
0.0
 30
0.0
  9
$UCSXDIR
 10
1.0
 20
0.0
 30
0.0
  9
$UCSYDIR
 10
0.0
 20
1.0
 30
0.0
  9
$UCSORTHOREF
  2

  9
$UCSORTHOVIEW
 70
     0
  9
$UCSORGTOP
 10
0.0
 20
0.0
 30
0.0
  9
$UCSORGBOTTOM
 10
0.0
 20
0.0
 30
0.0
  9
$UCSORGLEFT
 10
0.0
 20
0.0
 30
0.0
  9
$UCSORGRIGHT
 10
0.0
 20
0.0
 30
0.0
  9
$UCSORGFRONT
 10
0.0
 20
0.0
 30
0.0
  9
$UCSORGBACK
 10
0.0
 20
0.0
 30
0.0
  9
$PUCSBASE
  2

  9
$PUCSNAME
  2

  9
$PUCSORG
 10
0.0
 20
0.0
 30
0.0
  9
$PUCSXDIR
 10
1.0
 20
0.0
 30
0.0
  9
$PUCSYDIR
 10
0.0
 20
1.0
 30
0.0
  9
$PUCSORTHOREF
  2

  9
$PUCSORTHOVIEW
 70
     0
  9
$PUCSORGTOP
 10
0.0
 20
0.0
 30
0.0
  9
$PUCSORGBOTTOM
 10
0.0
 20
0.0
 30
0.0
  9
$PUCSORGLEFT
 10
0.0
 20
0.0
 30
0.0
  9
$PUCSORGRIGHT
 10
0.0
 20
0.0
 30
0.0
  9
$PUCSORGFRONT
 10
0.0
 20
0.0
 30
0.0
  9
$PUCSORGBACK
 10
0.0
 20
0.0
 30
0.0
  9
$USERI1
 70
     0
  9
$USERI2
 70
     0
  9
$USERI3
 70
     0
  9
$USERI4
 70
     0
  9
$USERI5
 70
     0
  9
$USERR1
 40
14.5
  9
$USERR2
 40
0.0
  9
$USERR3
 40
0.0
  9
$USERR4
 40
0.0
  9
$USERR5
 40
0.0
  9
$WORLDVIEW
 70
     1
  9
$SHADEDGE
 70
     3
  9
$SHADEDIF
 70
    70
  9
$TILEMODE
 70
     1
  9
$MAXACTVP
 70
    64
  9
$PINSBASE
 10
0.0
 20
0.0
 30
0.0
  9
$PLIMCHECK
 70
     0
  9
$PEXTMIN
 10
1.00000000000000E+20
 20
1.00000000000000E+20
 30
1.00000000000000E+20
  9
$PEXTMAX
 10
-1.00000000000000E+20
 20
-1.00000000000000E+20
 30
-1.00000000000000E+20
  9
$PLIMMIN
 10
0.0
 20
0.0
  9
$PLIMMAX
 10
12.0
 20
9.0
  9
$UNITMODE
 70
     0
  9
$VISRETAIN
 70
     1
  9
$PLINEGEN
 70
     0
  9
$PSLTSCALE
 70
     1
  9
$TREEDEPTH
 70
  3020
  9
$CMLSTYLE
  2
Standard
  9
$CMLJUST
 70
     0
  9
$CMLSCALE
 40
1.0
  9
$PROXYGRAPHICS
 70
     1
  9
$MEASUREMENT
 70
     1
  9
$CELWEIGHT
370
    -1
  9
$ENDCAPS
280
     0
  9
$JOINSTYLE
280
     0
  9
$LWDISPLAY
290
     0
  9
$INSUNITS
 70
     1
  9
$HYPERLINKBASE
  1

  9
$STYLESHEET
  1

  9
$XEDIT
290
     1
  9
$CEPSNTYPE
380
     0
  9
$PSTYLEMODE
290
     1
  9
$FINGERPRINTGUID
  2
{33FB0128-686F-47E4-8C25-631194EE291A}
  9
$VERSIONGUID
  2
{FAEB1C32-E019-11D5-929B-00C0DF256EC4}
  9
$EXTNAMES
290
     1
  9
$PSVPSCALE
 40
0.0
  9
$OLESTARTUP
290
     0
  9
$SORTENTS
280
   127
  9
$INDEXCTL
280
     0
  9
$HIDETEXT
280
     1
  9
$XCLIPFRAME
290
     0
  9
$HALOGAP
280
     0
  9
$OBSCOLOR
 70
   257
  9
$OBSLTYPE
280
     0
  9
$INTERSECTIONDISPLAY
280
     0
  9
$INTERSECTIONCOLOR
 70
   257
  9
$DIMASSOC
280
     2
  9
$PROJECTNAME
  1

  0
ENDSEC
  0
SECTION
  2
CLASSES
  0
CLASS
  1
ACDBDICTIONARYWDFLT
  2
AcDbDictionaryWithDefault
  3
ObjectDBX Classes
 90
        0
 91
        3
280
     0
281
     0
  0
CLASS
  1

  2
exOdDbCircle
  3

 90
        0
 91
        3
280
     0
281
     1
  0
ENDSEC
  0
SECTION
  2
TABLES
  0
TABLE
  2
VPORT
  5
8
330
0
100
AcDbSymbolTable
 70
     1
  0
VPORT
  5
29
330
8
100
AcDbSymbolTableRecord
100
AcDbViewportTableRecord
  2
*Active
 70
     0
 10
0.0
 20
0.0
 11
1.0
 21
1.0
 12
372.4043526008425
 22
100.3686617018152
 13
0.0
 23
0.0
 14
0.5
 24
0.5
 15
0.5
 25
0.5
 16
0.0
 26
0.0
 36
1.0
 17
0.0
 27
0.0
 37
0.0
 40
195.2843213392364
 41
1.60267857142857
 42
50.0
 43
0.0
 44
0.0
 50
0.0
 51
0.0
 71
     0
 72
   100
 73
     1
 74
     3
 75
     0
 76
     0
 77
     0
 78
     0
281
     0
 65
     1
110
0.0
120
0.0
130
0.0
111
1.0
121
0.0
131
0.0
112
0.0
122
1.0
132
0.0
 79
     0
146
0.0
  0
ENDTAB
  0
TABLE
  2
LTYPE
  5
5
330
0
100
AcDbSymbolTable
 70
     8
  0
LTYPE
  5
14
330
5
100
AcDbSymbolTableRecord
100
AcDbLinetypeTableRecord
  2
ByBlock
 70
     0
  3

 72
    65
 73
     0
 40
0.0
  0
LTYPE
  5
15
330
5
100
AcDbSymbolTableRecord
100
AcDbLinetypeTableRecord
  2
ByLayer
 70
     0
  3

 72
    65
 73
     0
 40
0.0
  0
LTYPE
  5
16
330
5
100
AcDbSymbolTableRecord
100
AcDbLinetypeTableRecord
  2
Continuous
 70
     0
  3
Solid line
 72
    65
 73
     0
 40
0.0
  0
LTYPE
  5
2A
330
5
100
AcDbSymbolTableRecord
100
AcDbLinetypeTableRecord
  2
DASHED
 70
     0
  3
Dashed
 72
    65
 73
     2
 40
15.0
 49
7.0
 74
     0
 49
-8.0
 74
     0
  0
LTYPE
  5
2B
330
5
100
AcDbSymbolTableRecord
100
AcDbLinetypeTableRecord
  2
DOTTED
 70
     0
  3
Dotted
 72
    65
 73
     2
 40
1.0
 49
0.0
 74
     0
 49
-1.0
 74
     0
  0
LTYPE
  5
2C
330
5
100
AcDbSymbolTableRecord
100
AcDbLinetypeTableRecord
  2
DOT_CENTER
 70
     0
  3
Dot_Center
 72
    65
 73
     4
 40
14.0
 49
12.0
 74
     0
 49
-1.0
 74
     0
 49
0.0
 74
     0
 49
-1.0
 74
     0
  0
LTYPE
  5
2D
330
5
100
AcDbSymbolTableRecord
100
AcDbLinetypeTableRecord
  2
LONG_DASHED
 70
     0
  3
Long_Dashed
 72
    65
 73
     2
 40
15.0
 49
10.0
 74
     0
 49
-5.0
 74
     0
  0
LTYPE
  5
2E
330
5
100
AcDbSymbolTableRecord
100
AcDbLinetypeTableRecord
  2
DASH_CENTER
 70
     0
  3
Dash_Center
 72
    65
 73
     4
 40
14.0
 49
11.0
 74
     0
 49
-1.0
 74
     0
 49
1.0
 74
     0
 49
-1.0
 74
     0
  0
LTYPE
  5
2F
330
5
100
AcDbSymbolTableRecord
100
AcDbLinetypeTableRecord
  2
PHANTOM
 70
     0
  3
Phantom
 72
    65
 73
     6
 40
13.0
 49
10.0
 74
     0
 49
-1.0
 74
     0
 49
0.0
 74
     0
 49
-1.0
 74
     0
 49
0.0
 74
     0
 49
-1.0
 74
     0
  0
LTYPE
  5
30
330
5
100
AcDbSymbolTableRecord
100
AcDbLinetypeTableRecord
  2
CENTER_DASH_DASH
 70
     0
  3
Center_Dash_Dash
 72
    65
 73
     6
 40
14.0
 49
9.0
 74
     0
 49
-1.0
 74
     0
 49
1.0
 74
     0
 49
-1.0
 74
     0
 49
1.0
 74
     0
 49
-1.0
 74
     0
  0
ENDTAB
  0
TABLE
  2
LAYER
  5
2
330
0
100
AcDbSymbolTable
 70
     3
  0
LAYER
  5
10
330
2
100
AcDbSymbolTableRecord
100
AcDbLayerTableRecord
  2
0
 70
     0
 62
     7
  6
Continuous
370
    -3
390
F
  0
LAYER
  5
31
330
2
100
AcDbSymbolTableRecord
100
AcDbLayerTableRecord
  2
1
 70
     0
 62
     7
  6
Continuous
370
    -3
390
F
  0
LAYER
  5
32
330
2
100
AcDbSymbolTableRecord
100
AcDbLayerTableRecord
  2
DEFAULT_1
 70
     0
 62
     7
  6
Continuous
370
    -3
390
F
  0
ENDTAB
  0
TABLE
  2
STYLE
  5
3
330
0
100
AcDbSymbolTable
 70
     2
  0
STYLE
  5
11
330
3
100
AcDbSymbolTableRecord
100
AcDbTextStyleTableRecord
  2
Standard
 70
     0
 40
0.0
 41
1.0
 50
0.0
 71
     0
 42
0.2
  3
txt
  4

  0
STYLE
  5
95
330
3
100
AcDbSymbolTableRecord
100
AcDbTextStyleTableRecord
  2
CONVERTER_11
 70
     0
 40
0.0
 41
0.9
 50
0.0
 71
     0
 42
0.2
  3
txt.shx
  4

  0
ENDTAB
  0
TABLE
  2
VIEW
  5
6
330
0
100
AcDbSymbolTable
 70
     0
  0
ENDTAB
  0
TABLE
  2
UCS
  5
7
330
0
100
AcDbSymbolTable
 70
     0
  0
ENDTAB
  0
TABLE
  2
APPID
  5
9
330
0
100
AcDbSymbolTable
 70
     1
  0
APPID
  5
12
330
9
100
AcDbSymbolTableRecord
100
AcDbRegAppTableRecord
  2
ACAD
 70
     0
  0
ENDTAB
  0
TABLE
  2
DIMSTYLE
  5
A
330
0
100
AcDbSymbolTable
 70
     7
100
AcDbDimStyleTable
  0
DIMSTYLE
105
27
330
A
100
AcDbSymbolTableRecord
100
AcDbDimStyleTableRecord
  2
Standard
 70
     0
340
11
  0
DIMSTYLE
105
A1
102
{ACAD_REACTORS
330
A2
102
}
330
A
100
AcDbSymbolTableRecord
100
AcDbDimStyleTableRecord
  2
ME10_DIM_10
 70
     0
  3
ø<>
 41
3.5
 42
0.0
 44
2.0
 73
     0
 74
     0
 77
     1
 78
     8
140
3.5
147
2.0
172
     1
173
     1
176
     2
177
     2
178
     2
271
     3
340
95
  0
DIMSTYLE
105
AC
102
{ACAD_REACTORS
330
AD
102
}
330
A
100
AcDbSymbolTableRecord
100
AcDbDimStyleTableRecord
  2
ME10_DIM_11
 70
     0
 41
3.5
 42
0.0
 44
2.0
 73
     0
 74
     0
 77
     1
 78
     8
140
3.5
147
2.0
172
     1
173
     1
176
     2
177
     2
178
     2
271
     3
340
95
  0
DIMSTYLE
105
B7
102
{ACAD_REACTORS
330
B8
102
}
330
A
100
AcDbSymbolTableRecord
100
AcDbDimStyleTableRecord
  2
ME10_DIM_12
 70
     0
 41
3.5
 42
0.0
 44
2.0
 73
     0
 74
     0
 77
     1
 78
     8
140
3.5
147
2.0
172
     1
173
     1
176
     2
177
     2
178
     2
271
     3
340
95
  0
DIMSTYLE
105
C2
102
{ACAD_REACTORS
330
C3
102
}
330
A
100
AcDbSymbolTableRecord
100
AcDbDimStyleTableRecord
  2
ME10_DIM_13
 70
     0
 41
3.5
 42
0.0
 44
2.0
 73
     0
 74
     0
 77
     1
 78
     8
140
3.5
147
2.0
172
     1
173
     1
176
     2
177
     2
178
     2
271
     3
340
95
  0
DIMSTYLE
105
CD
102
{ACAD_REACTORS
330
CE
102
}
330
A
100
AcDbSymbolTableRecord
100
AcDbDimStyleTableRecord
  2
ME10_DIM_14
 70
     0
 41
3.5
 42
0.0
 44
2.0
 73
     0
 74
     0
 77
     1
 78
     8
140
3.5
147
2.0
172
     1
173
     1
176
     2
177
     2
178
     2
271
     3
340
95
  0
DIMSTYLE
105
D8
102
{ACAD_REACTORS
330
D9
102
}
330
A
100
AcDbSymbolTableRecord
100
AcDbDimStyleTableRecord
  2
ME10_DIM_15
 70
     0
 41
3.5
 42
0.0
 44
2.0
 73
     0
 74
     0
 77
     1
 78
     8
140
3.5
147
2.0
172
     1
173
     1
176
     2
177
     2
178
     2
271
     3
340
95
  0
ENDTAB
  0
TABLE
  2
BLOCK_RECORD
  5
1
330
0
100
AcDbSymbolTable
 70
     7
  0
BLOCK_RECORD
  5
1F
330
1
100
AcDbSymbolTableRecord
100
AcDbBlockTableRecord
  2
*Model_Space
340
22
  0
BLOCK_RECORD
  5
1B
330
1
100
AcDbSymbolTableRecord
100
AcDbBlockTableRecord
  2
*Paper_Space
340
1E
  0
BLOCK_RECORD
  5
23
330
1
100
AcDbSymbolTableRecord
100
AcDbBlockTableRecord
  2
*Paper_Space0
340
26
  0
BLOCK_RECORD
  5
98
330
1
100
AcDbSymbolTableRecord
100
AcDbBlockTableRecord
  2
*D1
340
0
  0
BLOCK_RECORD
  5
A3
330
1
100
AcDbSymbolTableRecord
100
AcDbBlockTableRecord
  2
*D2
340
0
  0
BLOCK_RECORD
  5
AE
330
1
100
AcDbSymbolTableRecord
100
AcDbBlockTableRecord
  2
*D3
340
0
  0
BLOCK_RECORD
  5
B9
330
1
100
AcDbSymbolTableRecord
100
AcDbBlockTableRecord
  2
*D4
340
0
  0
BLOCK_RECORD
  5
C4
330
1
100
AcDbSymbolTableRecord
100
AcDbBlockTableRecord
  2
*D5
340
0
  0
BLOCK_RECORD
  5
CF
330
1
100
AcDbSymbolTableRecord
100
AcDbBlockTableRecord
  2
*D6
340
0
  0
ENDTAB
  0
ENDSEC
  0
SECTION
  2
BLOCKS
  0
BLOCK
  5
20
330
1F
100
AcDbEntity
  8
0
100
AcDbBlockBegin
  2
*Model_Space
 70
     0
 71
     0
 10
0.0
 20
0.0
 30
0.0
  3
*Model_Space
  1

  0
ENDBLK
  5
21
330
1F
100
AcDbEntity
  8
0
100
AcDbBlockEnd
  0
BLOCK
  5
1C
330
1B
100
AcDbEntity
 67
     1
  8
0
100
AcDbBlockBegin
  2
*Paper_Space
 70
     0
 71
     0
 10
0.0
 20
0.0
 30
0.0
  3
*Paper_Space
  1

  0
ENDBLK
  5
1D
330
1B
100
AcDbEntity
 67
     1
  8
0
100
AcDbBlockEnd
  0
BLOCK
  5
24
330
23
100
AcDbEntity
  8
0
100
AcDbBlockBegin
  2
*Paper_Space0
 70
     0
 71
     0
 10
0.0
 20
0.0
 30
0.0
  3
*Paper_Space0
  1

  0
ENDBLK
  5
25
330
23
100
AcDbEntity
  8
0
100
AcDbBlockEnd
  0
BLOCK
  5
9F
330
98
100
AcDbEntity
  8
0
100
AcDbBlockBegin
  2
*D1
 70
     1
 71
     0
 10
0.0
 20
0.0
 30
0.0
  3
*D1
  1

  0
LINE
  5
99
330
98
100
AcDbEntity
  8
1
  6
Continuous
 62
     2
100
AcDbLine
 10
361.6153598460277
 20
183.634262310559
 30
0.0
 11
376.6153598460277
 21
183.634262310559
 31
0.0
  0
LINE
  5
9A
330
98
100
AcDbEntity
  8
1
  6
Continuous
 62
     2
100
AcDbLine
 10
361.6153598460277
 20
174.6894461505064
 30
0.0
 11
361.6153598460277
 21
185.634262310559
 31
0.0
  0
LINE
  5
9B
330
98
100
AcDbEntity
  8
1
  6
Continuous
 62
     2
100
AcDbLine
 10
376.6153598460277
 20
174.6894461505064
 30
0.0
 11
376.6153598460277
 21
185.634262310559
 31
0.0
  0
SOLID
  5
9C
330
98
100
AcDbEntity
  8
1
 62
     2
100
AcDbTrace
 10
365.1153598460277
 20
184.0950460521149
 30
0.0
 11
365.1153598460277
 21
183.1734785690031
 31
0.0
 12
361.6153598460277
 22
183.634262310559
 32
0.0
 13
361.6153598460277
 23
183.634262310559
 33
0.0
  0
SOLID
  5
9D
330
98
100
AcDbEntity
  8
1
 62
     2
100
AcDbTrace
 10
373.1153598460277
 20
183.1734785690031
 30
0.0
 11
373.1153598460277
 21
184.0950460521149
 31
0.0
 12
376.6153598460277
 22
183.634262310559
 32
0.0
 13
376.6153598460277
 23
183.634262310559
 33
0.0
  0
MTEXT
  5
9E
330
98
100
AcDbEntity
  8
1
 62
     2
100
AcDbMText
 10
365.7630770621564
 20
185.6342553534827
 30
0.0
 40
3.5
 41
0.0
 71
     7
 72
     1
  1
\C2;ø\C2;15
  7
CONVERTER_11
 11
0.9999999999970621
 21
2.424068405545307E-6
 31
0.0
 73
     1
 44
0.60024009603842
  0
ENDBLK
  5
A0
330
98
100
AcDbEntity
  8
0
100
AcDbBlockEnd
  0
BLOCK
  5
AA
330
A3
100
AcDbEntity
  8
0
100
AcDbBlockBegin
  2
*D2
 70
     1
 71
     0
 10
0.0
 20
0.0
 30
0.0
  3
*D2
  1

  0
LINE
  5
A4
330
A3
100
AcDbEntity
  8
1
  6
Continuous
 62
     2
100
AcDbLine
 10
330.480375137808
 20
94.68944615050638
 30
0.0
 11
330.480375137808
 21
174.6894461505064
 31
0.0
  0
LINE
  5
A5
330
A3
100
AcDbEntity
  8
1
  6
Continuous
 62
     2
100
AcDbLine
 10
336.1792934837174
 20
94.68944615050638
 30
0.0
 11
328.480375137808
 21
94.68944615050638
 31
0.0
  0
LINE
  5
A6
330
A3
100
AcDbEntity
  8
1
  6
Continuous
 62
     2
100
AcDbLine
 10
352.1653598460276
 20
174.6894461505064
 30
0.0
 11
328.480375137808
 21
174.6894461505064
 31
0.0
  0
SOLID
  5
A7
330
A3
100
AcDbEntity
  8
1
 62
     2
100
AcDbTrace
 10
330.9411588793639
 20
171.1894461505064
 30
0.0
 11
330.0195913962521
 21
171.1894461505064
 31
0.0
 12
330.480375137808
 22
174.6894461505064
 32
0.0
 13
330.480375137808
 23
174.6894461505064
 33
0.0
  0
SOLID
  5
A8
330
A3
100
AcDbEntity
  8
1
 62
     2
100
AcDbTrace
 10
330.0195913962521
 20
98.18944615050638
 30
0.0
 11
330.9411588793639
 21
98.18944615050638
 31
0.0
 12
330.480375137808
 22
94.68944615050638
 32
0.0
 13
330.480375137808
 23
94.68944615050638
 33
0.0
  0
MTEXT
  5
A9
330
A3
100
AcDbEntity
  8
1
 62
     2
100
AcDbMText
 10
328.480375137808
 20
129.203523468506
 30
0.0
 40
3.5
 41
0.0
 71
     7
 72
     1
  1
80
  7
CONVERTER_11
 11
0.0
 21
1.0
 31
0.0
 73
     1
 44
0.60024009603842
  0
ENDBLK
  5
AB
330
A3
100
AcDbEntity
  8
0
100
AcDbBlockEnd
  0
BLOCK
  5
B5
330
AE
100
AcDbEntity
  8
0
100
AcDbBlockBegin
  2
*D3
 70
     1
 71
     0
 10
0.0
 20
0.0
 30
0.0
  3
*D3
  1

  0
LINE
  5
AF
330
AE
100
AcDbEntity
  8
1
  6
Continuous
 62
     2
100
AcDbLine
 10
321.193763951381
 20
14.68944615050638
 30
0.0
 11
321.193763951381
 21
174.6894461505064
 31
0.0
  0
LINE
  5
B0
330
AE
100
AcDbEntity
  8
1
  6
Continuous
 62
     2
100
AcDbLine
 10
352.1653598460276
 20
14.68944615050638
 30
0.0
 11
319.193763951381
 21
14.68944615050638
 31
0.0
  0
LINE
  5
B1
330
AE
100
AcDbEntity
  8
1
  6
Continuous
 62
     2
100
AcDbLine
 10
352.1653598460276
 20
174.6894461505064
 30
0.0
 11
319.193763951381
 21
174.6894461505064
 31
0.0
  0
SOLID
  5
B2
330
AE
100
AcDbEntity
  8
1
 62
     2
100
AcDbTrace
 10
321.6545476929369
 20
171.1894461505064
 30
0.0
 11
320.7329802098251
 21
171.1894461505064
 31
0.0
 12
321.193763951381
 22
174.6894461505064
 32
0.0
 13
321.193763951381
 23
174.6894461505064
 33
0.0
  0
SOLID
  5
B3
330
AE
100
AcDbEntity
  8
1
 62
     2
100
AcDbTrace
 10
320.7329802098251
 20
18.18944615050638
 30
0.0
 11
321.6545476929369
 21
18.18944615050638
 31
0.0
 12
321.193763951381
 22
14.68944615050638
 32
0.0
 13
321.193763951381
 23
14.68944615050638
 33
0.0
  0
MTEXT
  5
B4
330
AE
100
AcDbEntity
  8
1
 62
     2
100
AcDbMText
 10
319.193763951381
 20
89.89268538042741
 30
0.0
 40
3.5
 41
0.0
 71
     7
 72
     1
  1
160
  7
CONVERTER_11
 11
0.0
 21
1.0
 31
0.0
 73
     1
 44
0.60024009603842
  0
ENDBLK
  5
B6
330
AE
100
AcDbEntity
  8
0
100
AcDbBlockEnd
  0
BLOCK
  5
C0
330
B9
100
AcDbEntity
  8
0
100
AcDbBlockBegin
  2
*D4
 70
     1
 71
     0
 10
0.0
 20
0.0
 30
0.0
  3
*D4
  1

  0
LINE
  5
BA
330
B9
100
AcDbEntity
  8
1
  6
Continuous
 62
     2
100
AcDbLine
 10
427.114941250304
 20
136.6894461505064
 30
0.0
 11
427.114941250304
 21
52.68944615050636
 31
0.0
  0
LINE
  5
BB
330
B9
100
AcDbEntity
  8
1
  6
Continuous
 62
     2
100
AcDbLine
 10
402.3833090384587
 20
52.68944615050636
 30
0.0
 11
429.114941250304
 21
52.68944615050636
 31
0.0
  0
LINE
  5
BC
330
B9
100
AcDbEntity
  8
1
  6
Continuous
 62
     2
100
AcDbLine
 10
402.3833090384587
 20
136.6894461505064
 30
0.0
 11
429.114941250304
 21
136.6894461505064
 31
0.0
  0
SOLID
  5
BD
330
B9
100
AcDbEntity
  8
1
 62
     2
100
AcDbTrace
 10
427.5757249918599
 20
133.1894461505064
 30
0.0
 11
426.6541575087481
 21
133.1894461505064
 31
0.0
 12
427.114941250304
 22
136.6894461505064
 32
0.0
 13
427.114941250304
 23
136.6894461505064
 33
0.0
  0
SOLID
  5
BE
330
B9
100
AcDbEntity
  8
1
 62
     2
100
AcDbTrace
 10
426.6541575087481
 20
56.18944615050636
 30
0.0
 11
427.5757249918599
 21
56.18944615050636
 31
0.0
 12
427.114941250304
 22
52.68944615050636
 32
0.0
 13
427.114941250304
 23
52.68944615050636
 33
0.0
  0
MTEXT
  5
BF
330
B9
100
AcDbEntity
  8
1
 62
     2
100
AcDbMText
 10
425.114941250304
 20
91.9535465469666
 30
0.0
 40
3.5
 41
0.0
 71
     7
 72
     1
  1
84
  7
CONVERTER_11
 11
0.0
 21
1.0
 31
0.0
 73
     1
 44
0.60024009603842
  0
ENDBLK
  5
C1
330
B9
100
AcDbEntity
  8
0
100
AcDbBlockEnd
  0
BLOCK
  5
CB
330
C4
100
AcDbEntity
  8
0
100
AcDbBlockBegin
  2
*D5
 70
     1
 71
     0
 10
0.0
 20
0.0
 30
0.0
  3
*D5
  1

  0
LINE
  5
C5
330
C4
100
AcDbEntity
  8
1
  6
Continuous
 62
     2
100
AcDbLine
 10
415.917198052934
 20
94.68944615050638
 30
0.0
 11
415.917198052934
 21
122.6894461505064
 31
0.0
  0
LINE
  5
C6
330
C4
100
AcDbEntity
  8
1
  6
Continuous
 62
     2
100
AcDbLine
 10
408.1436487459313
 20
94.68944615050638
 30
0.0
 11
417.917198052934
 21
94.68944615050638
 31
0.0
  0
LINE
  5
C7
330
C4
100
AcDbEntity
  8
1
  6
Continuous
 62
     2
100
AcDbLine
 10
408.1436487459313
 20
122.6894461505064
 30
0.0
 11
417.917198052934
 21
122.6894461505064
 31
0.0
  0
SOLID
  5
C8
330
C4
100
AcDbEntity
  8
1
 62
     2
100
AcDbTrace
 10
416.3779817944899
 20
119.1894461505064
 30
0.0
 11
415.4564143113781
 21
119.1894461505064
 31
0.0
 12
415.917198052934
 22
122.6894461505064
 32
0.0
 13
415.917198052934
 23
122.6894461505064
 33
0.0
  0
SOLID
  5
C9
330
C4
100
AcDbEntity
  8
1
 62
     2
100
AcDbTrace
 10
415.4564143113781
 20
98.18944615050638
 30
0.0
 11
416.3779817944899
 21
98.18944615050638
 31
0.0
 12
415.917198052934
 22
94.68944615050638
 32
0.0
 13
415.917198052934
 23
94.68944615050638
 33
0.0
  0
MTEXT
  5
CA
330
C4
100
AcDbEntity
  8
1
 62
     2
100
AcDbMText
 10
413.917198052934
 20
106.172727726167
 30
0.0
 40
3.5
 41
0.0
 71
     7
 72
     1
  1
28
  7
CONVERTER_11
 11
0.0
 21
1.0
 31
0.0
 73
     1
 44
0.60024009603842
  0
ENDBLK
  5
CC
330
C4
100
AcDbEntity
  8
0
100
AcDbBlockEnd
  0
BLOCK
  5
D6
330
CF
100
AcDbEntity
  8
0
100
AcDbBlockBegin
  2
*D6
 70
     1
 71
     0
 10
0.0
 20
0.0
 30
0.0
  3
*D6
  1

  0
LINE
  5
D0
330
CF
100
AcDbEntity
  8
1
  6
Continuous
 62
     2
100
AcDbLine
 10
415.917198052934
 20
66.68944615050638
 30
0.0
 11
415.917198052934
 21
94.68944615050638
 31
0.0
  0
LINE
  5
D1
330
CF
100
AcDbEntity
  8
1
  6
Continuous
 62
     2
100
AcDbLine
 10
408.1436487459312
 20
66.68944615050638
 30
0.0
 11
417.917198052934
 21
66.68944615050638
 31
0.0
  0
LINE
  5
D2
330
CF
100
AcDbEntity
  8
1
  6
Continuous
 62
     2
100
AcDbLine
 10
408.1436487459313
 20
94.68944615050638
 30
0.0
 11
417.917198052934
 21
94.68944615050638
 31
0.0
  0
SOLID
  5
D3
330
CF
100
AcDbEntity
  8
1
 62
     2
100
AcDbTrace
 10
416.3779817944899
 20
91.18944615050638
 30
0.0
 11
415.4564143113781
 21
91.18944615050638
 31
0.0
 12
415.917198052934
 22
94.68944615050638
 32
0.0
 13
415.917198052934
 23
94.68944615050638
 33
0.0
  0
SOLID
  5
D4
330
CF
100
AcDbEntity
  8
1
 62
     2
100
AcDbTrace
 10
415.4564143113781
 20
70.18944615050638
 30
0.0
 11
416.3779817944899
 21
70.18944615050638
 31
0.0
 12
415.917198052934
 22
66.68944615050638
 32
0.0
 13
415.917198052934
 23
66.68944615050638
 33
0.0
  0
MTEXT
  5
D5
330
CF
100
AcDbEntity
  8
1
 62
     2
100
AcDbMText
 10
413.917198052934
 20
78.06444615050638
 30
0.0
 40
3.5
 41
0.0
 71
     7
 72
     1
  1
28
  7
CONVERTER_11
 11
0.0
 21
1.0
 31
0.0
 73
     1
 44
0.60024009603842
  0
ENDBLK
  5
D7
330
CF
100
AcDbEntity
  8
0
100
AcDbBlockEnd
  0
ENDSEC
  0
SECTION
  2
ENTITIES
  0
POINT
  5
33
330
1F
100
AcDbEntity
  8
1
 62
     3
 60
     1
100
AcDbPoint
 10
347.1653598460276
 20
94.68944615050638
 30
0.0
  0
POINT
  5
34
330
1F
100
AcDbEntity
  8
1
 62
     3
 60
     1
100
AcDbPoint
 10
406.1153598460276
 20
53.68944615050638
 30
0.0
  0
POINT
  5
35
330
1F
100
AcDbEntity
  8
1
 62
     3
 60
     1
100
AcDbPoint
 10
402.3833090384587
 20
52.68944615050637
 30
0.0
  0
POINT
  5
36
330
1F
100
AcDbEntity
  8
1
 62
     3
 60
     1
100
AcDbPoint
 10
402.3833090384587
 20
136.6894461505064
 30
0.0
  0
POINT
  5
37
330
1F
100
AcDbEntity
  8
1
 62
     3
 60
     1
100
AcDbPoint
 10
406.1153598460276
 20
135.6894461505064
 30
0.0
  0
LINE
  5
38
330
1F
100
AcDbEntity
  8
DEFAULT_1
  6
PHANTOM
 62
     7
100
AcDbLine
 10
353.1653598460276
 20
94.68944615050638
 30
0.0
 11
336.1792934837174
 21
94.68944615050638
 31
0.0
  0
LINE
  5
39
330
1F
100
AcDbEntity
  8
1
  6
Continuous
 62
     7
100
AcDbLine
 10
406.1153598460277
 20
128.4394461505064
 30
0.0
 11
406.1153598460276
 21
135.6894461505064
 31
0.0
  0
LINE
  5
3A
330
1F
100
AcDbEntity
  8
1
  6
Continuous
 62
     7
100
AcDbLine
 10
401.5153598460276
 20
125.9394461505064
 30
0.0
 11
403.6153598460276
 21
125.9394461505064
 31
0.0
  0
LINE
  5
3B
330
1F
100
AcDbEntity
  8
1
  6
Continuous
 62
     7
100
AcDbLine
 10
406.1153598460276
 20
100.4394461505064
 30
0.0
 11
406.1153598460276
 21
116.9394461505064
 31
0.0
  0
LINE
  5
3C
330
1F
100
AcDbEntity
  8
1
  6
Continuous
 62
     7
100
AcDbLine
 10
390.6153598460276
 20
129.6894461505064
 30
0.0
 11
396.6741306632684
 21
129.6894461505064
 31
0.0
  0
LINE
  5
3D
330
1F
100
AcDbEntity
  8
1
  6
Continuous
 62
     7
100
AcDbLine
 10
387.6153598460276
 20
118.6894461505064
 30
0.0
 11
387.6153598460276
 21
126.6894461505064
 31
0.0
  0
LINE
  5
3E
330
1F
100
AcDbEntity
  8
1
  6
Continuous
 62
     7
100
AcDbLine
 10
396.6741306632684
 20
115.6894461505064
 30
0.0
 11
390.6153598460276
 21
115.6894461505064
 31
0.0
  0
LINE
  5
3F
330
1F
100
AcDbEntity
  8
1
  6
Continuous
 62
     7
100
AcDbLine
 10
403.6153598460276
 20
119.4394461505064
 30
0.0
 11
401.5153598460276
 21
119.4394461505064
 31
0.0
  0
LINE
  5
40
330
1F
100
AcDbEntity
  8
1
  6
DOT_CENTER
 62
     2
100
AcDbLine
 10
385.1891674274703
 20
122.6894461505064
 30
0.0
 11
408.1436487459313
 21
122.6894461505064
 31
0.0
  0
LINE
  5
41
330
1F
100
AcDbEntity
  8
1
  6
Continuous
 62
     7
100
AcDbLine
 10
403.6153598460276
 20
91.43944615050638
 30
0.0
 11
401.5153598460276
 21
91.43944615050638
 31
0.0
  0
LINE
  5
42
330
1F
100
AcDbEntity
  8
1
  6
Continuous
 62
     7
100
AcDbLine
 10
396.6741306632684
 20
87.68944615050638
 30
0.0
 11
390.6153598460276
 21
87.68944615050638
 31
0.0
  0
LINE
  5
43
330
1F
100
AcDbEntity
  8
1
  6
Continuous
 62
     7
100
AcDbLine
 10
387.6153598460276
 20
90.68944615050638
 30
0.0
 11
387.6153598460276
 21
98.68944615050638
 31
0.0
  0
LINE
  5
44
330
1F
100
AcDbEntity
  8
1
  6
Continuous
 62
     7
100
AcDbLine
 10
390.6153598460276
 20
101.6894461505064
 30
0.0
 11
396.6741306632684
 21
101.6894461505064
 31
0.0
  0
LINE
  5
45
330
1F
100
AcDbEntity
  8
1
  6
Continuous
 62
     7
100
AcDbLine
 10
401.5153598460276
 20
97.93944615050638
 30
0.0
 11
403.6153598460276
 21
97.93944615050638
 31
0.0
  0
LINE
  5
46
330
1F
100
AcDbEntity
  8
1
  6
Continuous
 62
     7
100
AcDbLine
 10
401.5153598460276
 20
69.93944615050638
 30
0.0
 11
403.6153598460276
 21
69.93944615050638
 31
0.0
  0
LINE
  5
47
330
1F
100
AcDbEntity
  8
1
  6
Continuous
 62
     7
100
AcDbLine
 10
390.6153598460276
 20
73.68944615050638
 30
0.0
 11
396.6741306632684
 21
73.68944615050638
 31
0.0
  0
LINE
  5
48
330
1F
100
AcDbEntity
  8
1
  6
Continuous
 62
     7
100
AcDbLine
 10
387.6153598460276
 20
62.68944615050638
 30
0.0
 11
387.6153598460276
 21
70.68944615050638
 31
0.0
  0
LINE
  5
49
330
1F
100
AcDbEntity
  8
1
  6
Continuous
 62
     7
100
AcDbLine
 10
396.6741306632684
 20
59.68944615050638
 30
0.0
 11
390.6153598460276
 21
59.68944615050638
 31
0.0
  0
LINE
  5
4A
330
1F
100
AcDbEntity
  8
1
  6
Continuous
 62
     7
100
AcDbLine
 10
403.6153598460276
 20
63.43944615050638
 30
0.0
 11
401.5153598460276
 21
63.43944615050638
 31
0.0
  0
LINE
  5
4B
330
1F
100
AcDbEntity
  8
1
  6
DOT_CENTER
 62
     2
100
AcDbLine
 10
385.1891674274703
 20
66.68944615050638
 30
0.0
 11
408.1436487459312
 21
66.68944615050638
 31
0.0
  0
LINE
  5
4C
330
1F
100
AcDbEntity
  8
1
  6
Continuous
 62
     7
100
AcDbLine
 10
406.1153598460276
 20
72.43944615050638
 30
0.0
 11
406.1153598460276
 21
88.93944615050638
 31
0.0
  0
LINE
  5
4D
330
1F
100
AcDbEntity
  8
1
  6
DOT_CENTER
 62
     2
100
AcDbLine
 10
369.1153598460277
 20
177.7758312079414
 30
0.0
 11
369.1153598460277
 21
11.60306109307139
 31
0.0
  0
LINE
  5
4E
330
1F
100
AcDbEntity
  8
DEFAULT_1
  6
PHANTOM
 62
     7
100
AcDbLine
 10
408.1436487459313
 20
94.68944615050638
 30
0.0
 11
353.1653598460276
 21
94.68944615050638
 31
0.0
  0
LINE
  5
4F
330
1F
100
AcDbEntity
  8
1
  6
Continuous
 62
     7
100
AcDbLine
 10
361.6153598460276
 20
52.68944615050627
 30
0.0
 11
361.6153598460276
 21
136.6894461505064
 31
0.0
  0
LINE
  5
50
330
1F
100
AcDbEntity
  8
1
  6
Continuous
 62
     7
100
AcDbLine
 10
361.6153598460276
 20
136.6894461505064
 30
0.0
 11
402.3833090384587
 21
136.6894461505064
 31
0.0
  0
LINE
  5
51
330
1F
100
AcDbEntity
  8
1
  6
Continuous
 62
     7
100
AcDbLine
 10
376.6153598460277
 20
174.6894461505064
 30
0.0
 11
376.6153598460277
 21
137.4394485746056
 31
0.0
  0
LINE
  5
52
330
1F
100
AcDbEntity
  8
1
  6
Continuous
 62
     7
100
AcDbLine
 10
376.6153598460277
 20
51.93944567950628
 30
0.0
 11
376.6153598460277
 21
14.68944615050639
 31
0.0
  0
LINE
  5
53
330
1F
100
AcDbEntity
  8
1
  6
Continuous
 62
     7
100
AcDbLine
 10
361.6153598460277
 20
137.4394485746056
 30
0.0
 11
361.6153598460277
 21
51.93944567950628
 31
0.0
  0
LINE
  5
54
330
1F
100
AcDbEntity
  8
1
  6
DOT_CENTER
 62
     2
100
AcDbLine
 10
347.1653598460276
 20
86.81444615050638
 30
0.0
 11
347.1653598460276
 21
102.5644461505064
 31
0.0
  0
LINE
  5
55
330
1F
100
AcDbEntity
  8
1
  6
DOT_CENTER
 62
     2
100
AcDbLine
 10
347.1653598460276
 20
18.81444615050638
 30
0.0
 11
347.1653598460276
 21
34.56444615050638
 31
0.0
  0
LINE
  5
56
330
1F
100
AcDbEntity
  8
1
  6
DOT_CENTER
 62
     2
100
AcDbLine
 10
339.2903598460276
 20
26.68944615050638
 30
0.0
 11
355.0403598460276
 21
26.68944615050638
 31
0.0
  0
LINE
  5
57
330
1F
100
AcDbEntity
  8
1
  6
DOT_CENTER
 62
     2
100
AcDbLine
 10
353.1653598460276
 20
52.81444615050638
 30
0.0
 11
353.1653598460276
 21
68.56444615050638
 31
0.0
  0
LINE
  5
58
330
1F
100
AcDbEntity
  8
1
  6
DOT_CENTER
 62
     2
100
AcDbLine
 10
345.1653598460276
 20
60.68944615050638
 30
0.0
 11
361.0403598460276
 21
60.68944615050638
 31
0.0
  0
LINE
  5
59
330
1F
100
AcDbEntity
  8
1
  6
DOT_CENTER
 62
     2
100
AcDbLine
 10
353.1653598460276
 20
120.8144461505064
 30
0.0
 11
353.1653598460276
 21
136.5644461505064
 31
0.0
  0
LINE
  5
5A
330
1F
100
AcDbEntity
  8
1
  6
DOT_CENTER
 62
     2
100
AcDbLine
 10
345.1653598460276
 20
128.6894461505064
 30
0.0
 11
361.0403598460276
 21
128.6894461505064
 31
0.0
  0
LINE
  5
5B
330
1F
100
AcDbEntity
  8
1
  6
DOT_CENTER
 62
     2
100
AcDbLine
 10
347.1653598460276
 20
154.8144461505064
 30
0.0
 11
347.1653598460276
 21
170.5644461505064
 31
0.0
  0
LINE
  5
5C
330
1F
100
AcDbEntity
  8
1
  6
DOT_CENTER
 62
     2
100
AcDbLine
 10
339.2903598460276
 20
162.6894461505064
 30
0.0
 11
355.0403598460276
 21
162.6894461505064
 31
0.0
  0
LINE
  5
5D
330
1F
100
AcDbEntity
  8
1
  6
Continuous
 62
     7
100
AcDbLine
 10
340.1653598460276
 20
162.6894461505064
 30
0.0
 11
340.1653598460276
 21
26.68944615050638
 31
0.0
  0
LINE
  5
5E
330
1F
100
AcDbEntity
  8
1
  6
Continuous
 62
     7
100
AcDbLine
 10
361.6153598460277
 20
19.29367032913378
 30
0.0
 11
361.6153598460277
 21
51.93944567950628
 31
0.0
  0
LINE
  5
5F
330
1F
100
AcDbEntity
  8
1
  6
Continuous
 62
     7
100
AcDbLine
 10
361.6153598460277
 20
170.0852219718791
 30
0.0
 11
361.6153598460277
 21
174.6894461505064
 31
0.0
  0
LINE
  5
60
330
1F
100
AcDbEntity
  8
1
  6
Continuous
 62
     7
100
AcDbLine
 10
361.6153598460277
 20
174.6894461505064
 30
0.0
 11
376.6153598460277
 21
174.6894461505064
 31
0.0
  0
LINE
  5
61
330
1F
100
AcDbEntity
  8
1
  6
Continuous
 62
     7
100
AcDbLine
 10
376.6153598460277
 20
137.4394485746056
 30
0.0
 11
361.6153598460277
 21
137.4394485746056
 31
0.0
  0
LINE
  5
62
330
1F
100
AcDbEntity
  8
1
  6
Continuous
 62
     7
100
AcDbLine
 10
361.6153598460277
 20
51.93944567950628
 30
0.0
 11
376.6153598460277
 21
51.93944567950628
 31
0.0
  0
LINE
  5
63
330
1F
100
AcDbEntity
  8
1
  6
Continuous
 62
     7
100
AcDbLine
 10
376.6153598460277
 20
14.68944615050639
 30
0.0
 11
361.6153598460277
 21
14.68944615050639
 31
0.0
  0
LINE
  5
64
330
1F
100
AcDbEntity
  8
1
  6
Continuous
 62
     7
100
AcDbLine
 10
361.6153598460277
 20
137.4394485746056
 30
0.0
 11
361.6153598460277
 21
170.0852219718791
 31
0.0
  0
LINE
  5
65
330
1F
100
AcDbEntity
  8
1
  6
Continuous
 62
     7
100
AcDbLine
 10
361.6153598460277
 20
14.68944615050639
 30
0.0
 11
361.6153598460277
 21
19.29367032913378
 31
0.0
  0
LINE
  5
66
330
1F
100
AcDbEntity
  8
1
  6
Continuous
 62
     7
100
AcDbLine
 10
362.6153425544546
 20
137.4394312830326
 30
0.0
 11
362.6153425544546
 21
136.6894461505064
 31
0.0
  0
LINE
  5
67
330
1F
100
AcDbEntity
  8
1
  6
Continuous
 62
     7
100
AcDbLine
 10
375.6153771376007
 20
136.6894461505064
 30
0.0
 11
375.6153771376007
 21
137.4394312830326
 31
0.0
  0
LINE
  5
68
330
1F
100
AcDbEntity
  8
1
  6
Continuous
 62
     7
100
AcDbLine
 10
375.6153771376007
 20
51.93946101798024
 30
0.0
 11
375.6153771376007
 21
52.68944615050629
 31
0.0
  0
LINE
  5
69
330
1F
100
AcDbEntity
  8
1
  6
Continuous
 62
     7
100
AcDbLine
 10
362.6153425544546
 20
52.68944615050629
 30
0.0
 11
362.6153425544546
 21
51.93946101798024
 31
0.0
  0
LINE
  5
6A
330
1F
100
AcDbEntity
  8
1
  6
Continuous
 62
     7
100
AcDbLine
 10
402.3833090384587
 20
136.6894461505064
 30
0.0
 11
406.1153598460276
 21
135.6894461505064
 31
0.0
  0
LINE
  5
6B
330
1F
100
AcDbEntity
  8
1
  6
Continuous
 62
     7
100
AcDbLine
 10
402.3833090384587
 20
52.68944615050637
 30
0.0
 11
406.1153598460276
 21
53.68944615050638
 31
0.0
  0
LINE
  5
6C
330
1F
100
AcDbEntity
  8
1
  6
Continuous
 62
     7
100
AcDbLine
 10
406.1153598460276
 20
53.68944615050638
 30
0.0
 11
406.1153598460276
 21
60.93944615050638
 31
0.0
  0
LINE
  5
6D
330
1F
100
AcDbEntity
  8
1
  6
Continuous
 62
     7
100
AcDbLine
 10
402.3833090384587
 20
52.68944615050637
 30
0.0
 11
361.6153598460276
 21
52.68944615050627
 31
0.0
  0
ARC
  5
6E
330
1F
100
AcDbEntity
  8
1
  6
Continuous
 62
     7
100
AcDbCircle
 10
396.6741306632684
 20
126.6894461505064
 30
0.0
 40
3.00000000000004
100
AcDbArc
 50
14.47751218592973
 51
90.0
  0
ARC
  5
6F
330
1F
100
AcDbEntity
  8
1
  6
Continuous
 62
     7
100
AcDbCircle
 10
401.5153598460276
 20
127.9394461505064
 30
0.0
 40
1.999999999999898
100
AcDbArc
 50
-165.5224878140693
 51
-90.0
  0
ARC
  5
70
330
1F
100
AcDbEntity
  8
1
  6
Continuous
 62
     7
100
AcDbCircle
 10
401.5153598460276
 20
117.4394461505064
 30
0.0
 40
2.0
100
AcDbArc
 50
90.0
 51
165.5224878140693
  0
ARC
  5
71
330
1F
100
AcDbEntity
  8
1
  6
Continuous
 62
     7
100
AcDbCircle
 10
396.6741306632684
 20
118.6894461505064
 30
0.0
 40
3.0
100
AcDbArc
 50
-90.0
 51
-14.47751218592973
  0
ARC
  5
72
330
1F
100
AcDbEntity
  8
1
  6
Continuous
 62
     7
100
AcDbCircle
 10
396.6741306632684
 20
90.68944615050638
 30
0.0
 40
3.0
100
AcDbArc
 50
-90.0
 51
-14.47751218592973
  0
ARC
  5
73
330
1F
100
AcDbEntity
  8
1
  6
Continuous
 62
     7
100
AcDbCircle
 10
401.5153598460276
 20
89.43944615050638
 30
0.0
 40
2.0
100
AcDbArc
 50
90.0
 51
165.5224878140693
  0
ARC
  5
74
330
1F
100
AcDbEntity
  8
1
  6
Continuous
 62
     7
100
AcDbCircle
 10
401.5153598460276
 20
99.93944615050638
 30
0.0
 40
1.999999999999898
100
AcDbArc
 50
-165.5224878140693
 51
-90.0
  0
ARC
  5
75
330
1F
100
AcDbEntity
  8
1
  6
Continuous
 62
     7
100
AcDbCircle
 10
396.6741306632684
 20
98.68944615050638
 30
0.0
 40
3.00000000000004
100
AcDbArc
 50
14.47751218592973
 51
90.0
  0
ARC
  5
76
330
1F
100
AcDbEntity
  8
1
  6
Continuous
 62
     7
100
AcDbCircle
 10
396.6741306632684
 20
70.68944615050638
 30
0.0
 40
3.00000000000004
100
AcDbArc
 50
14.47751218592973
 51
90.0
  0
ARC
  5
77
330
1F
100
AcDbEntity
  8
1
  6
Continuous
 62
     7
100
AcDbCircle
 10
401.5153598460276
 20
71.93944615050638
 30
0.0
 40
1.999999999999898
100
AcDbArc
 50
-165.5224878140693
 51
-90.0
  0
ARC
  5
78
330
1F
100
AcDbEntity
  8
1
  6
Continuous
 62
     7
100
AcDbCircle
 10
401.5153598460276
 20
61.43944615050638
 30
0.0
 40
2.0
100
AcDbArc
 50
90.0
 51
165.5224878140693
  0
ARC
  5
79
330
1F
100
AcDbEntity
  8
1
  6
Continuous
 62
     7
100
AcDbCircle
 10
396.6741306632684
 20
62.68944615050638
 30
0.0
 40
3.0
100
AcDbArc
 50
-90.0
 51
-14.47751218592973
  0
ARC
  5
7A
330
1F
100
AcDbEntity
  8
1
  6
Continuous
 62
     7
100
AcDbCircle
 10
352.1653598460276
 20
162.6894461505064
 30
0.0
 40
12.00000000000008
100
AcDbArc
 50
38.04750745361996
 51
90.0
  0
ARC
  5
7B
330
1F
100
AcDbEntity
  8
1
  6
Continuous
 62
     7
100
AcDbCircle
 10
352.1653598460276
 20
26.68944615050638
 30
0.0
 40
11.99999999999999
100
AcDbArc
 50
-90.0
 51
-38.04750745361962
  0
CIRCLE
  5
7C
330
1F
100
AcDbEntity
  8
1
  6
DASHED
 62
     2
100
AcDbCircle
 10
347.1653598460276
 20
94.68944615050638
 30
0.0
 40
6.0
  0
CIRCLE
  5
7D
330
1F
100
AcDbEntity
  8
1
  6
Continuous
 62
     7
100
AcDbCircle
 10
347.1653598460276
 20
94.68944615050638
 30
0.0
 40
3.0
  0
CIRCLE
  5
7E
330
1F
100
AcDbEntity
  8
1
  6
Continuous
 62
     7
100
AcDbCircle
 10
347.1653598460276
 20
94.68944615050638
 30
0.0
 40
5.25
  0
CIRCLE
  5
7F
330
1F
100
AcDbEntity
  8
1
  6
Continuous
 62
     7
100
AcDbCircle
 10
347.1653598460276
 20
26.68944615050638
 30
0.0
 40
3.0
  0
CIRCLE
  5
80
330
1F
100
AcDbEntity
  8
1
  6
Continuous
 62
     7
100
AcDbCircle
 10
347.1653598460276
 20
26.68944615050638
 30
0.0
 40
5.25
  0
CIRCLE
  5
81
330
1F
100
AcDbEntity
  8
1
  6
Continuous
 62
     7
100
AcDbCircle
 10
353.1653598460276
 20
60.68944615050638
 30
0.0
 40
3.0
  0
CIRCLE
  5
82
330
1F
100
AcDbEntity
  8
1
  6
Continuous
 62
     7
100
AcDbCircle
 10
353.1653598460276
 20
60.68944615050638
 30
0.0
 40
5.25
  0
CIRCLE
  5
83
330
1F
100
AcDbEntity
  8
1
  6
Continuous
 62
     7
100
AcDbCircle
 10
353.1653598460276
 20
128.6894461505064
 30
0.0
 40
3.0
  0
CIRCLE
  5
84
330
1F
100
AcDbEntity
  8
1
  6
Continuous
 62
     7
100
AcDbCircle
 10
353.1653598460276
 20
128.6894461505064
 30
0.0
 40
5.25
  0
CIRCLE
  5
85
330
1F
100
AcDbEntity
  8
1
  6
Continuous
 62
     7
100
AcDbCircle
 10
347.1653598460276
 20
162.6894461505064
 30
0.0
 40
3.0
  0
CIRCLE
  5
86
330
1F
100
AcDbEntity
  8
1
  6
Continuous
 62
     7
100
AcDbCircle
 10
347.1653598460276
 20
162.6894461505064
 30
0.0
 40
5.25
  0
ARC
  5
87
330
1F
100
AcDbEntity
  8
1
  6
Continuous
 62
     7
100
AcDbCircle
 10
403.6153598460276
 20
128.4394461505064
 30
0.0
 40
2.5
100
AcDbArc
 50
-90.0
 51
0.0
  0
ARC
  5
88
330
1F
100
AcDbEntity
  8
1
  6
Continuous
 62
     7
100
AcDbCircle
 10
390.6153598460276
 20
126.6894461505064
 30
0.0
 40
3.0
100
AcDbArc
 50
90.0
 51
180.0
  0
ARC
  5
89
330
1F
100
AcDbEntity
  8
1
  6
Continuous
 62
     7
100
AcDbCircle
 10
390.6153598460276
 20
118.6894461505064
 30
0.0
 40
3.0
100
AcDbArc
 50
180.0
 51
-90.0
  0
ARC
  5
8A
330
1F
100
AcDbEntity
  8
1
  6
Continuous
 62
     7
100
AcDbCircle
 10
403.6153598460276
 20
116.9394461505064
 30
0.0
 40
2.5
100
AcDbArc
 50
0.0
 51
90.0
  0
ARC
  5
8B
330
1F
100
AcDbEntity
  8
1
  6
Continuous
 62
     7
100
AcDbCircle
 10
403.6153598460276
 20
88.93944615050638
 30
0.0
 40
2.5
100
AcDbArc
 50
0.0
 51
90.0
  0
ARC
  5
8C
330
1F
100
AcDbEntity
  8
1
  6
Continuous
 62
     7
100
AcDbCircle
 10
390.6153598460276
 20
90.68944615050638
 30
0.0
 40
3.0
100
AcDbArc
 50
180.0
 51
-90.0
  0
ARC
  5
8D
330
1F
100
AcDbEntity
  8
1
  6
Continuous
 62
     7
100
AcDbCircle
 10
390.6153598460276
 20
98.68944615050638
 30
0.0
 40
3.000000000000014
100
AcDbArc
 50
90.0
 51
180.0
  0
ARC
  5
8E
330
1F
100
AcDbEntity
  8
1
  6
Continuous
 62
     7
100
AcDbCircle
 10
403.6153598460276
 20
100.4394461505064
 30
0.0
 40
2.500000000000014
100
AcDbArc
 50
-90.0
 51
0.0
  0
ARC
  5
8F
330
1F
100
AcDbEntity
  8
1
  6
Continuous
 62
     7
100
AcDbCircle
 10
403.6153598460276
 20
72.43944615050638
 30
0.0
 40
2.5
100
AcDbArc
 50
-90.0
 51
0.0
  0
ARC
  5
90
330
1F
100
AcDbEntity
  8
1
  6
Continuous
 62
     7
100
AcDbCircle
 10
390.6153598460276
 20
70.68944615050638
 30
0.0
 40
3.0
100
AcDbArc
 50
90.0
 51
180.0
  0
ARC
  5
91
330
1F
100
AcDbEntity
  8
1
  6
Continuous
 62
     7
100
AcDbCircle
 10
390.6153598460276
 20
62.68944615050638
 30
0.0
 40
3.0
100
AcDbArc
 50
180.0
 51
-90.0
  0
ARC
  5
92
330
1F
100
AcDbEntity
  8
1
  6
Continuous
 62
     7
100
AcDbCircle
 10
403.6153598460276
 20
60.93944615050638
 30
0.0
 40
2.5
100
AcDbArc
 50
0.0
 51
90.0
  0
ARC
  5
93
330
1F
100
AcDbEntity
  8
1
  6
Continuous
 62
     7
100
AcDbCircle
 10
352.1653598460276
 20
26.68944615050638
 30
0.0
 40
12.0
100
AcDbArc
 50
180.0
 51
-90.0
  0
ARC
  5
94
330
1F
100
AcDbEntity
  8
1
  6
Continuous
 62
     7
100
AcDbCircle
 10
352.1653598460276
 20
162.6894461505064
 30
0.0
 40
12.0
100
AcDbArc
 50
90.0
 51
180.0
  0
MTEXT
  5
96
330
1F
100
AcDbEntity
  8
1
 62
     2
100
AcDbMText
 10
381.6991105748182
 20
97.7428165721282
 30
0.0
 40
2.5
 41
0.0
 71
     5
 72
     1
  1
BBL
  7
CONVERTER_11
 73
     1
 44
1.32052821128451
  0
MTEXT
  5
97
330
1F
100
AcDbEntity
  8
1
 62
     2
100
AcDbMText
 10
353.6263988378032
 20
86.73897471138551
 30
0.0
 40
2.5
 41
0.0
 71
     5
 72
     1
  1
TZ
  7
CONVERTER_11
 73
     1
 44
1.32052821128451
  0
DIMENSION
  5
A2
330
1F
100
AcDbEntity
  8
1
100
AcDbDimension
  2
*D1
 10
361.6153598460277
 20
183.634262310559
 30
0.0
 11
368.633077062148
 21
187.384262310559
 31
0.0
 70
    32
  1
<>
 71
     5
 42
-1.0
 53
0.00013888888889
  3
ME10_DIM_10
100
AcDbAlignedDimension
 13
376.6153598460277
 23
174.6894461505064
 33
0.0
 14
361.6153598460277
 24
174.6894461505064
 34
0.0
100
AcDbRotatedDimension
  0
DIMENSION
  5
AD
330
1F
100
AcDbEntity
  8
1
100
AcDbDimension
  2
*D2
 10
330.480375137808
 20
174.6894461505064
 30
0.0
 11
326.730375137808
 21
131.828523468506
 31
0.0
 70
    32
  1
<>
 71
     5
 42
-1.0
 53
90.0
  3
ME10_DIM_11
100
AcDbAlignedDimension
 13
336.1792934837174
 23
94.68944615050638
 33
0.0
 14
352.1653598460276
 24
174.6894461505064
 34
0.0
 50
90.0
100
AcDbRotatedDimension
  0
DIMENSION
  5
B8
330
1F
100
AcDbEntity
  8
1
100
AcDbDimension
  2
*D3
 10
321.193763951381
 20
174.6894461505064
 30
0.0
 11
317.443763951381
 21
93.5676853804274
 31
0.0
 70
    32
  1
<>
 71
     5
 42
-1.0
 53
90.0
  3
ME10_DIM_12
100
AcDbAlignedDimension
 13
352.1653598460276
 23
14.68944615050639
 33
0.0
 14
352.1653598460276
 24
174.6894461505064
 34
0.0
 50
90.0
100
AcDbRotatedDimension
  0
DIMENSION
  5
C3
330
1F
100
AcDbEntity
  8
1
100
AcDbDimension
  2
*D4
 10
427.114941250304
 20
136.6894461505064
 30
0.0
 11
423.364941250304
 21
94.5785465469666
 31
0.0
 70
    32
  1
<>
 71
     5
 42
-1.0
 53
90.0
  3
ME10_DIM_13
100
AcDbAlignedDimension
 13
402.3833090384587
 23
52.68944615050637
 33
0.0
 14
402.3833090384587
 24
136.6894461505064
 34
0.0
 50
90.0
100
AcDbRotatedDimension
  0
DIMENSION
  5
CE
330
1F
100
AcDbEntity
  8
1
100
AcDbDimension
  2
*D5
 10
415.917198052934
 20
122.6894461505064
 30
0.0
 11
412.167198052934
 21
108.797727726167
 31
0.0
 70
    32
  1
<>
 71
     5
 42
-1.0
 53
90.0
  3
ME10_DIM_14
100
AcDbAlignedDimension
 13
408.1436487459313
 23
94.68944615050638
 33
0.0
 14
408.1436487459313
 24
122.6894461505064
 34
0.0
 50
90.0
100
AcDbRotatedDimension
  0
DIMENSION
  5
D9
330
1F
100
AcDbEntity
  8
1
100
AcDbDimension
  2
*D6
 10
415.917198052934
 20
94.68944615050638
 30
0.0
 11
412.167198052934
 21
80.68944615050638
 31
0.0
 70
    32
  1
<>
 71
     5
 42
-1.0
 53
90.0
  3
ME10_DIM_15
100
AcDbAlignedDimension
 13
408.1436487459312
 23
66.68944615050638
 33
0.0
 14
408.1436487459313
 24
94.68944615050638
 34
0.0
 50
90.0
100
AcDbRotatedDimension
  0
ENDSEC
  0
SECTION
  2
OBJECTS
  0
DICTIONARY
  5
C
330
0
100
AcDbDictionary
281
     1
  3
ACAD_GROUP
350
D
  3
ACAD_LAYOUT
350
1A
  3
ACAD_MLINESTYLE
350
17
  3
ACAD_PLOTSETTINGS
350
19
  3
ACAD_PLOTSTYLENAME
350
E
  0
DICTIONARY
  5
D
102
{ACAD_REACTORS
330
C
102
}
330
C
100
AcDbDictionary
281
     1
  0
DICTIONARY
  5
1A
102
{ACAD_REACTORS
330
C
102
}
330
C
100
AcDbDictionary
281
     1
  3
Layout1
350
1E
  3
Layout2
350
26
  3
Model
350
22
  0
DICTIONARY
  5
17
102
{ACAD_REACTORS
330
C
102
}
330
C
100
AcDbDictionary
281
     1
  3
Standard
350
18
  0
DICTIONARY
  5
19
102
{ACAD_REACTORS
330
C
102
}
330
C
100
AcDbDictionary
281
     1
  0
ACDBDICTIONARYWDFLT
  5
E
102
{ACAD_REACTORS
330
C
102
}
330
C
100
AcDbDictionary
281
     1
  3
Normal
350
F
100
AcDbDictionaryWithDefault
340
F
  0
LAYOUT
  5
1E
102
{ACAD_REACTORS
330
1A
102
}
330
1A
100
AcDbPlotSettings
  1

  2

  4

  6

 40
0.0
 41
0.0
 42
0.0
 43
0.0
 44
0.0
 45
0.0
 46
0.0
 47
0.0
 48
0.0
 49
0.0
140
0.0
141
0.0
142
1.0
143
1.0
 70
   688
 72
     0
 73
     0
 74
     5
  7

 75
    16
 76
     0
 77
     2
 78
   300
147
1.0
148
0.0
149
0.0
100
AcDbLayout
  1
Layout1
 70
     1
 71
     1
 10
0.0
 20
0.0
 11
0.0
 21
0.0
 12
0.0
 22
0.0
 32
0.0
 14
0.0
 24
0.0
 34
0.0
 15
0.0
 25
0.0
 35
0.0
146
0.0
 13
0.0
 23
0.0
 33
0.0
 16
1.0
 26
0.0
 36
0.0
 17
0.0
 27
1.0
 37
0.0
 76
     0
330
1B
  0
LAYOUT
  5
26
102
{ACAD_REACTORS
330
1A
102
}
330
1A
100
AcDbPlotSettings
  1

  2

  4

  6

 40
0.0
 41
0.0
 42
0.0
 43
0.0
 44
0.0
 45
0.0
 46
0.0
 47
0.0
 48
0.0
 49
0.0
140
0.0
141
0.0
142
1.0
143
1.0
 70
   688
 72
     0
 73
     0
 74
     5
  7

 75
    16
 76
     0
 77
     2
 78
   300
147
1.0
148
0.0
149
0.0
100
AcDbLayout
  1
Layout2
 70
     1
 71
     2
 10
0.0
 20
0.0
 11
0.0
 21
0.0
 12
0.0
 22
0.0
 32
0.0
 14
0.0
 24
0.0
 34
0.0
 15
0.0
 25
0.0
 35
0.0
146
0.0
 13
0.0
 23
0.0
 33
0.0
 16
1.0
 26
0.0
 36
0.0
 17
0.0
 27
1.0
 37
0.0
 76
     0
330
23
  0
LAYOUT
  5
22
102
{ACAD_REACTORS
330
1A
102
}
330
1A
100
AcDbPlotSettings
  1

  2

  4

  6

 40
0.0
 41
0.0
 42
0.0
 43
0.0
 44
0.0
 45
0.0
 46
0.0
 47
0.0
 48
0.0
 49
0.0
140
0.0
141
0.0
142
1.0
143
1.0
 70
  1712
 72
     0
 73
     0
 74
     0
  7

 75
     0
 76
     0
 77
     2
 78
   300
147
1.0
148
0.0
149
0.0
100
AcDbLayout
  1
Model
 70
     1
 71
     0
 10
0.0
 20
0.0
 11
0.0
 21
0.0
 12
0.0
 22
0.0
 32
0.0
 14
315.693763951381
 24
11.60306109307139
 34
0.0
 15
429.114941250304
 25
189.134262310559
 35
0.0
146
0.0
 13
0.0
 23
0.0
 33
0.0
 16
1.0
 26
0.0
 36
0.0
 17
0.0
 27
1.0
 37
0.0
 76
     0
330
1F
  0
MLINESTYLE
  5
18
102
{ACAD_REACTORS
330
17
102
}
330
17
100
AcDbMlineStyle
  2
Standard
 70
     0
  3

 62
   256
 51
90.0
 52
90.0
 71
     2
 49
0.5
 62
   256
  6
BYLAYER
 49
-0.5
 62
   256
  6
BYLAYER
  0
ACDBPLACEHOLDER
  5
F
102
{ACAD_REACTORS
330
E
102
}
330
E
  0
ENDSEC
  0
EOF
