  0
SECTION
  2
HEADER
  9
$ACADVER
  1
AC1014
  9
$ACADMAINTVER
 70
     9
  9
$DWGCODEPAGE
  3
ANSI_1252
  9
$INSBASE
 10
0.0
 20
0.0
 30
0.0
  9
$EXTMIN
 10
-746.840479362377
 20
274.0525333356322
 30
0.0
  9
$EXTMAX
 10
-604.9066129003238
 20
359.47813986876
 30
0.0
  9
$LIMMIN
 10
0.0
 20
0.0
  9
$LIMMAX
 10
12.0
 20
9.0
  9
$ORTHOMODE
 70
     0
  9
$REGENMODE
 70
     1
  9
$FILLMODE
 70
     1
  9
$QTEXTMODE
 70
     0
  9
$MIRRTEXT
 70
     1
  9
$DRAGMODE
 70
     2
  9
$LTSCALE
 40
1.0
  9
$OSMODE
 70
    37
  9
$ATTMODE
 70
     1
  9
$TEXTSIZE
 40
0.2
  9
$TRACEWID
 40
0.05
  9
$TEXTSTYLE
  7
STANDARD
  9
$CLAYER
  8
0
  9
$CELTYPE
  6
BYLAYER
  9
$CECOLOR
 62
   256
  9
$CELTSCALE
 40
1.0
  9
$DELOBJ
 70
     1
  9
$DISPSILH
 70
     0
  9
$DIMSCALE
 40
1.0
  9
$DIMASZ
 40
0.18
  9
$DIMEXO
 40
0.0625
  9
$DIMDLI
 40
0.38
  9
$DIMRND
 40
0.0
  9
$DIMDLE
 40
0.0
  9
$DIMEXE
 40
0.18
  9
$DIMTP
 40
0.0
  9
$DIMTM
 40
0.0
  9
$DIMTXT
 40
0.18
  9
$DIMCEN
 40
0.09
  9
$DIMTSZ
 40
0.0
  9
$DIMTOL
 70
     0
  9
$DIMLIM
 70
     0
  9
$DIMTIH
 70
     1
  9
$DIMTOH
 70
     1
  9
$DIMSE1
 70
     0
  9
$DIMSE2
 70
     0
  9
$DIMTAD
 70
     0
  9
$DIMZIN
 70
     0
  9
$DIMBLK
  1

  9
$DIMASO
 70
     1
  9
$DIMSHO
 70
     1
  9
$DIMPOST
  1

  9
$DIMAPOST
  1

  9
$DIMALT
 70
     0
  9
$DIMALTD
 70
     2
  9
$DIMALTF
 40
25.4
  9
$DIMLFAC
 40
1.0
  9
$DIMTOFL
 70
     0
  9
$DIMTVP
 40
0.0
  9
$DIMTIX
 70
     0
  9
$DIMSOXD
 70
     0
  9
$DIMSAH
 70
     0
  9
$DIMBLK1
  1

  9
$DIMBLK2
  1

  9
$DIMSTYLE
  2
STANDARD
  9
$DIMCLRD
 70
     0
  9
$DIMCLRE
 70
     0
  9
$DIMCLRT
 70
     0
  9
$DIMTFAC
 40
1.0
  9
$DIMGAP
 40
0.09
  9
$DIMJUST
 70
     0
  9
$DIMSD1
 70
     0
  9
$DIMSD2
 70
     0
  9
$DIMTOLJ
 70
     1
  9
$DIMTZIN
 70
     0
  9
$DIMALTZ
 70
     0
  9
$DIMALTTZ
 70
     0
  9
$DIMFIT
 70
     3
  9
$DIMUPT
 70
     0
  9
$DIMUNIT
 70
     2
  9
$DIMDEC
 70
     4
  9
$DIMTDEC
 70
     4
  9
$DIMALTU
 70
     2
  9
$DIMALTTD
 70
     2
  9
$DIMTXSTY
  7
STANDARD
  9
$DIMAUNIT
 70
     0
  9
$LUNITS
 70
     2
  9
$LUPREC
 70
     4
  9
$SKETCHINC
 40
0.1
  9
$FILLETRAD
 40
0.5
  9
$AUNITS
 70
     0
  9
$AUPREC
 70
     0
  9
$MENU
  1
.
  9
$ELEVATION
 40
0.0
  9
$PELEVATION
 40
0.0
  9
$THICKNESS
 40
0.0
  9
$LIMCHECK
 70
     0
  9
$CHAMFERA
 40
0.0
  9
$CHAMFERB
 40
0.0
  9
$CHAMFERC
 40
0.0
  9
$CHAMFERD
 40
0.0
  9
$SKPOLY
 70
     0
  9
$TDCREATE
 40
2459535.743692338
  9
$TDUPDATE
 40
2459535.743692512
  9
$TDINDWG
 40
0.0000000116
  9
$TDUSRTIMER
 40
0.0000000116
  9
$USRTIMER
 70
     1
  9
$ANGBASE
 50
0.0
  9
$ANGDIR
 70
     0
  9
$PDMODE
 70
     0
  9
$PDSIZE
 40
0.0
  9
$PLINEWID
 40
0.0
  9
$COORDS
 70
     1
  9
$SPLFRAME
 70
     0
  9
$SPLINETYPE
 70
     6
  9
$SPLINESEGS
 70
     8
  9
$ATTDIA
 70
     0
  9
$ATTREQ
 70
     1
  9
$HANDLING
 70
     1
  9
$HANDSEED
  5
5E2
  9
$SURFTAB1
 70
     6
  9
$SURFTAB2
 70
     6
  9
$SURFTYPE
 70
     6
  9
$SURFU
 70
     6
  9
$SURFV
 70
     6
  9
$UCSNAME
  2

  9
$UCSORG
 10
0.0
 20
0.0
 30
0.0
  9
$UCSXDIR
 10
1.0
 20
0.0
 30
0.0
  9
$UCSYDIR
 10
0.0
 20
1.0
 30
0.0
  9
$PUCSNAME
  2

  9
$PUCSORG
 10
0.0
 20
0.0
 30
0.0
  9
$PUCSXDIR
 10
1.0
 20
0.0
 30
0.0
  9
$PUCSYDIR
 10
0.0
 20
1.0
 30
0.0
  9
$USERI1
 70
     0
  9
$USERI2
 70
     0
  9
$USERI3
 70
     0
  9
$USERI4
 70
     0
  9
$USERI5
 70
     0
  9
$USERR1
 40
20.3
  9
$USERR2
 40
0.0
  9
$USERR3
 40
0.0
  9
$USERR4
 40
0.0
  9
$USERR5
 40
0.0
  9
$WORLDVIEW
 70
     1
  9
$SHADEDGE
 70
     3
  9
$SHADEDIF
 70
    70
  9
$TILEMODE
 70
     1
  9
$MAXACTVP
 70
    64
  9
$PINSBASE
 10
0.0
 20
0.0
 30
0.0
  9
$PLIMCHECK
 70
     0
  9
$PEXTMIN
 10
1.00000000000000E+20
 20
1.00000000000000E+20
 30
1.00000000000000E+20
  9
$PEXTMAX
 10
-1.00000000000000E+20
 20
-1.00000000000000E+20
 30
-1.00000000000000E+20
  9
$PLIMMIN
 10
0.0
 20
0.0
  9
$PLIMMAX
 10
12.0
 20
9.0
  9
$UNITMODE
 70
     0
  9
$VISRETAIN
 70
     1
  9
$PLINEGEN
 70
     0
  9
$PSLTSCALE
 70
     1
  9
$TREEDEPTH
 70
  3020
  9
$PICKSTYLE
 70
     1
  9
$CMLSTYLE
  2
STANDARD
  9
$CMLJUST
 70
     0
  9
$CMLSCALE
 40
1.0
  9
$PROXYGRAPHICS
 70
     1
  9
$MEASUREMENT
 70
     1
  0
ENDSEC
  0
SECTION
  2
CLASSES
  0
CLASS
  1
ACDBDICTIONARYWDFLT
  2
AcDbDictionaryWithDefault
  3
ObjectDBX Classes
 90
        0
280
     0
281
     0
  0
CLASS
  1
VISUALSTYLE
  2
AcDbVisualStyle
  3
ObjectDBX Classes
 90
     4095
280
     0
281
     0
  0
CLASS
  1
MATERIAL
  2
AcDbMaterial
  3
ObjectDBX Classes
 90
     1153
280
     0
281
     0
  0
CLASS
  1
SCALE
  2
AcDbScale
  3
ObjectDBX Classes
 90
     1153
280
     0
281
     0
  0
CLASS
  1
TABLESTYLE
  2
AcDbTableStyle
  3
ObjectDBX Classes
 90
     4095
280
     0
281
     0
  0
CLASS
  1
MLEADERSTYLE
  2
AcDbMLeaderStyle
  3
ACDB_MLEADERSTYLE_CLASS
 90
     4095
280
     0
281
     0
  0
CLASS
  1
SUN
  2
AcDbSun
  3
SCENEOE
 90
     1153
280
     0
281
     0
  0
CLASS
  1
DICTIONARYVAR
  2
AcDbDictionaryVar
  3
ObjectDBX Classes
 90
        0
280
     0
281
     0
  0
CLASS
  1
XRECORD
  2
AcDbXrecord
  3
ObjectDBX Classes
 90
        0
280
     0
281
     0
  0
CLASS
  1
LWPOLYLINE
  2
AcDbPolyline
  3
ObjectDBX Classes
 90
        0
280
     0
281
     1
  0
CLASS
  1
HATCH
  2
AcDbHatch
  3
ObjectDBX Classes
 90
        0
280
     0
281
     1
  0
CLASS
  1
ACDBPLACEHOLDER
  2
AcDbPlaceHolder
  3
ObjectDBX Classes
 90
        0
280
     0
281
     0
  0
CLASS
  1
LAYOUT
  2
AcDbLayout
  3
ObjectDBX Classes
 90
        0
280
     0
281
     0
  0
ENDSEC
  0
SECTION
  2
TABLES
  0
TABLE
  2
VPORT
  5
8
102
{ACAD_XDICTIONARY
360
5D7
102
}
330
0
100
AcDbSymbolTable
 70
     1
  0
VPORT
  5
29
330
8
100
AcDbSymbolTableRecord
100
AcDbViewportTableRecord
  2
*ACTIVE
 70
     0
 10
0.0
 20
0.0
 11
1.0
 21
1.0
 12
-675.8735461313504
 22
316.7653366021961
 13
0.0
 23
0.0
 14
0.5
 24
0.5
 15
0.5
 25
0.5
 16
0.0
 26
0.0
 36
1.0
 17
0.0
 27
0.0
 37
0.0
 40
97.41644762186607
 41
1.60267857142857
 42
50.0
 43
0.0
 44
0.0
 50
0.0
 51
0.0
 71
     0
 72
   100
 73
     1
 74
     3
 75
     0
 76
     0
 77
     0
 78
     0
  0
ENDTAB
  0
TABLE
  2
LTYPE
  5
5
330
0
100
AcDbSymbolTable
 70
     8
  0
LTYPE
  5
14
330
5
100
AcDbSymbolTableRecord
100
AcDbLinetypeTableRecord
  2
BYBLOCK
 70
     0
  3

 72
    65
 73
     0
 40
0.0
  0
LTYPE
  5
15
330
5
100
AcDbSymbolTableRecord
100
AcDbLinetypeTableRecord
  2
BYLAYER
 70
     0
  3

 72
    65
 73
     0
 40
0.0
  0
LTYPE
  5
16
330
5
100
AcDbSymbolTableRecord
100
AcDbLinetypeTableRecord
  2
CONTINUOUS
 70
     0
  3
Solid line
 72
    65
 73
     0
 40
0.0
  0
LTYPE
  5
6E
330
5
100
AcDbSymbolTableRecord
100
AcDbLinetypeTableRecord
  2
DASHED
 70
     0
  3
Dashed
 72
    65
 73
     2
 40
15.0
 49
7.0
 74
     0
 49
-8.0
 74
     0
  0
LTYPE
  5
6F
330
5
100
AcDbSymbolTableRecord
100
AcDbLinetypeTableRecord
  2
DOTTED
 70
     0
  3
Dotted
 72
    65
 73
     2
 40
1.0
 49
0.0
 74
     0
 49
-1.0
 74
     0
  0
LTYPE
  5
70
330
5
100
AcDbSymbolTableRecord
100
AcDbLinetypeTableRecord
  2
DOT_CENTER
 70
     0
  3
Dot_Center
 72
    65
 73
     4
 40
14.0
 49
12.0
 74
     0
 49
-1.0
 74
     0
 49
0.0
 74
     0
 49
-1.0
 74
     0
  0
LTYPE
  5
71
330
5
100
AcDbSymbolTableRecord
100
AcDbLinetypeTableRecord
  2
LONG_DASHED
 70
     0
  3
Long_Dashed
 72
    65
 73
     2
 40
15.0
 49
10.0
 74
     0
 49
-5.0
 74
     0
  0
LTYPE
  5
72
330
5
100
AcDbSymbolTableRecord
100
AcDbLinetypeTableRecord
  2
DASH_CENTER
 70
     0
  3
Dash_Center
 72
    65
 73
     4
 40
14.0
 49
11.0
 74
     0
 49
-1.0
 74
     0
 49
1.0
 74
     0
 49
-1.0
 74
     0
  0
LTYPE
  5
73
330
5
100
AcDbSymbolTableRecord
100
AcDbLinetypeTableRecord
  2
PHANTOM
 70
     0
  3
Phantom
 72
    65
 73
     6
 40
13.0
 49
10.0
 74
     0
 49
-1.0
 74
     0
 49
0.0
 74
     0
 49
-1.0
 74
     0
 49
0.0
 74
     0
 49
-1.0
 74
     0
  0
LTYPE
  5
74
330
5
100
AcDbSymbolTableRecord
100
AcDbLinetypeTableRecord
  2
CENTER_DASH_DASH
 70
     0
  3
Center_Dash_Dash
 72
    65
 73
     6
 40
14.0
 49
9.0
 74
     0
 49
-1.0
 74
     0
 49
1.0
 74
     0
 49
-1.0
 74
     0
 49
1.0
 74
     0
 49
-1.0
 74
     0
  0
ENDTAB
  0
TABLE
  2
LAYER
  5
2
330
0
100
AcDbSymbolTable
 70
     2
  0
LAYER
  5
10
330
2
100
AcDbSymbolTableRecord
100
AcDbLayerTableRecord
  2
0
 70
     0
 62
     7
  6
CONTINUOUS
  0
LAYER
  5
75
330
2
100
AcDbSymbolTableRecord
100
AcDbLayerTableRecord
  2
1
 70
     0
 62
     7
  6
CONTINUOUS
  0
ENDTAB
  0
TABLE
  2
STYLE
  5
3
330
0
100
AcDbSymbolTable
 70
     2
  0
STYLE
  5
11
330
3
100
AcDbSymbolTableRecord
100
AcDbTextStyleTableRecord
  2
STANDARD
 70
     0
 40
0.0
 41
1.0
 50
0.0
 71
     0
 42
0.2
  3
txt
  4

  0
STYLE
  5
558
330
3
100
AcDbSymbolTableRecord
100
AcDbTextStyleTableRecord
  2
CONVERTER_11
 70
     0
 40
0.0
 41
0.9
 50
0.0
 71
     0
 42
0.2
  3
txt.shx
  4

  0
ENDTAB
  0
TABLE
  2
VIEW
  5
6
330
0
100
AcDbSymbolTable
 70
     0
  0
ENDTAB
  0
TABLE
  2
UCS
  5
7
330
0
100
AcDbSymbolTable
 70
     0
  0
ENDTAB
  0
TABLE
  2
APPID
  5
9
330
0
100
AcDbSymbolTable
 70
     2
  0
APPID
  5
12
330
9
100
AcDbSymbolTableRecord
100
AcDbRegAppTableRecord
  2
ACAD
 70
     0
  0
APPID
  5
5E1
330
9
100
AcDbSymbolTableRecord
100
AcDbRegAppTableRecord
  2
ACAD_MLEADERVER
 70
     0
  0
ENDTAB
  0
TABLE
  2
DIMSTYLE
  5
A
330
0
100
AcDbSymbolTable
 70
     9
  0
DIMSTYLE
105
27
330
A
100
AcDbSymbolTableRecord
100
AcDbDimStyleTableRecord
  2
STANDARD
 70
     0
  3

  4

  5

  6

  7

 40
1.0
 41
0.18
 42
0.0625
 43
0.38
 44
0.18
 45
0.0
 46
0.0
 47
0.0
 48
0.0
140
0.18
141
0.09
142
0.0
143
25.4
144
1.0
145
0.0
146
1.0
147
0.09
 71
     0
 72
     0
 73
     1
 74
     1
 75
     0
 76
     0
 77
     0
 78
     0
170
     0
171
     2
172
     0
173
     0
174
     0
175
     0
176
     0
177
     0
178
     0
270
     2
271
     4
272
     4
273
     2
274
     2
340
11
275
     0
280
     0
281
     0
282
     0
283
     1
284
     0
285
     0
286
     0
287
     3
288
     0
  0
DIMSTYLE
105
55C
102
{ACAD_REACTORS
330
55D
102
}
330
A
100
AcDbSymbolTableRecord
100
AcDbDimStyleTableRecord
  2
ME10_DIM_10
 70
     0
  3

  4

  5

  6

  7

 40
1.0
 41
3.5
 42
1.5
 43
0.38
 44
1.0
 45
0.0
 46
0.0
 47
0.0
 48
0.0
140
3.5
141
0.09
142
0.0
143
25.4
144
1.0
145
0.0
146
1.0
147
2.0
 71
     0
 72
     0
 73
     0
 74
     0
 75
     0
 76
     0
 77
     1
 78
     8
170
     0
171
     2
172
     1
173
     1
174
     1
175
     1
176
     1
177
     1
178
     3
270
     2
271
     3
272
     4
273
     2
274
     2
340
558
275
     0
280
     0
281
     0
282
     0
283
     1
284
     0
285
     0
286
     0
287
     3
288
     0
  0
DIMSTYLE
105
567
102
{ACAD_REACTORS
330
568
102
}
330
A
100
AcDbSymbolTableRecord
100
AcDbDimStyleTableRecord
  2
ME10_DIM_11
 70
     0
  3

  4

  5

  6

  7

 40
1.0
 41
3.5
 42
1.5
 43
0.38
 44
1.0
 45
0.0
 46
0.0
 47
0.0
 48
0.0
140
3.5
141
0.09
142
0.0
143
25.4
144
1.0
145
0.0
146
1.0
147
2.0
 71
     0
 72
     0
 73
     0
 74
     0
 75
     0
 76
     0
 77
     1
 78
     8
170
     0
171
     2
172
     1
173
     1
174
     1
175
     1
176
     1
177
     1
178
     3
270
     2
271
     3
272
     4
273
     2
274
     2
340
558
275
     0
280
     0
281
     0
282
     0
283
     1
284
     0
285
     0
286
     0
287
     3
288
     0
  0
DIMSTYLE
105
572
102
{ACAD_REACTORS
330
573
102
}
330
A
100
AcDbSymbolTableRecord
100
AcDbDimStyleTableRecord
  2
ME10_DIM_12
 70
     0
  3

  4

  5

  6

  7

 40
1.0
 41
3.5
 42
1.5
 43
0.38
 44
1.0
 45
0.0
 46
0.0
 47
0.0
 48
0.0
140
3.5
141
0.09
142
0.0
143
25.4
144
1.0
145
0.0
146
1.0
147
2.0
 71
     0
 72
     0
 73
     0
 74
     0
 75
     0
 76
     0
 77
     1
 78
     8
170
     0
171
     2
172
     1
173
     1
174
     1
175
     1
176
     1
177
     1
178
     3
270
     2
271
     3
272
     4
273
     2
274
     2
340
558
275
     0
280
     0
281
     0
282
     0
283
     1
284
     0
285
     0
286
     0
287
     3
288
     0
  0
DIMSTYLE
105
57D
102
{ACAD_REACTORS
330
57E
102
}
330
A
100
AcDbSymbolTableRecord
100
AcDbDimStyleTableRecord
  2
ME10_DIM_13
 70
     0
  3

  4

  5

  6

  7

 40
1.0
 41
3.5
 42
1.5
 43
0.38
 44
1.0
 45
0.0
 46
0.0
 47
0.0
 48
0.0
140
3.5
141
0.09
142
0.0
143
25.4
144
1.0
145
0.0
146
1.0
147
2.0
 71
     0
 72
     0
 73
     0
 74
     0
 75
     0
 76
     0
 77
     1
 78
     8
170
     0
171
     2
172
     1
173
     1
174
     1
175
     1
176
     1
177
     1
178
     3
270
     2
271
     3
272
     4
273
     2
274
     2
340
558
275
     0
280
     0
281
     0
282
     0
283
     1
284
     0
285
     0
286
     0
287
     3
288
     0
  0
DIMSTYLE
105
58A
102
{ACAD_REACTORS
330
58B
102
}
330
A
100
AcDbSymbolTableRecord
100
AcDbDimStyleTableRecord
  2
ME10_DIM_14
 70
     0
  3

  4

  5

  6

  7

 40
1.0
 41
3.5
 42
1.5
 43
0.38
 44
1.0
 45
0.0
 46
0.0
 47
0.0
 48
0.0
140
3.5
141
0.09
142
0.0
143
25.4
144
1.0
145
0.0
146
1.0
147
2.0
 71
     0
 72
     0
 73
     0
 74
     0
 75
     0
 76
     0
 77
     1
 78
     8
170
     0
171
     2
172
     1
173
     1
174
     1
175
     1
176
     1
177
     1
178
     3
270
     2
271
     1
272
     4
273
     2
274
     2
340
558
275
     0
280
     0
281
     0
282
     0
283
     1
284
     0
285
     0
286
     0
287
     3
288
     0
  0
DIMSTYLE
105
595
102
{ACAD_REACTORS
330
596
102
}
330
A
100
AcDbSymbolTableRecord
100
AcDbDimStyleTableRecord
  2
ME10_DIM_15
 70
     0
  3

  4

  5

  6

  7

 40
1.0
 41
3.5
 42
1.5
 43
0.38
 44
1.0
 45
0.0
 46
0.0
 47
1.0
 48
1.0
140
3.5
141
0.09
142
0.0
143
25.4
144
1.0
145
0.0
146
0.6
147
2.0
 71
     1
 72
     0
 73
     0
 74
     0
 75
     0
 76
     0
 77
     1
 78
     8
170
     0
171
     2
172
     1
173
     1
174
     1
175
     1
176
     1
177
     1
178
     3
270
     2
271
     1
272
     0
273
     2
274
     2
340
558
275
     0
280
     0
281
     0
282
     0
283
     1
284
     0
285
     0
286
     0
287
     3
288
     0
  0
DIMSTYLE
105
5A1
102
{ACAD_REACTORS
330
5A2
102
}
330
A
100
AcDbSymbolTableRecord
100
AcDbDimStyleTableRecord
  2
ME10_DIM_16
 70
     0
  3

  4

  5

  6

  7

 40
1.0
 41
3.5
 42
1.5
 43
0.38
 44
1.0
 45
0.0
 46
0.0
 47
0.0
 48
0.0
140
3.5
141
0.09
142
0.0
143
25.4
144
1.0
145
0.0
146
1.0
147
2.0
 71
     0
 72
     0
 73
     0
 74
     0
 75
     0
 76
     0
 77
     1
 78
     8
170
     0
171
     2
172
     1
173
     1
174
     1
175
     1
176
     1
177
     1
178
     3
270
     2
271
     3
272
     4
273
     2
274
     2
340
558
275
     0
280
     0
281
     0
282
     0
283
     1
284
     0
285
     0
286
     0
287
     3
288
     0
  0
DIMSTYLE
105
5AD
102
{ACAD_REACTORS
330
5AE
102
}
330
A
100
AcDbSymbolTableRecord
100
AcDbDimStyleTableRecord
  2
ME10_DIM_17
 70
     0
  3

  4

  5

  6

  7

 40
1.0
 41
3.5
 42
1.5
 43
0.38
 44
1.0
 45
0.0
 46
0.0
 47
1.0
 48
1.0
140
3.5
141
0.09
142
0.0
143
25.4
144
1.0
145
0.0
146
0.6
147
2.0
 71
     1
 72
     0
 73
     0
 74
     0
 75
     0
 76
     0
 77
     1
 78
     8
170
     0
171
     2
172
     1
173
     1
174
     1
175
     1
176
     1
177
     1
178
     3
270
     2
271
     0
272
     0
273
     2
274
     2
340
558
275
     0
280
     0
281
     0
282
     0
283
     1
284
     0
285
     0
286
     0
287
     3
288
     0
  0
ENDTAB
  0
TABLE
  2
BLOCK_RECORD
  5
1
330
0
100
AcDbSymbolTable
 70
    33
  0
BLOCK_RECORD
  5
1F
330
1
100
AcDbSymbolTableRecord
100
AcDbBlockTableRecord
  2
*MODEL_SPACE
  0
BLOCK_RECORD
  5
1B
330
1
100
AcDbSymbolTableRecord
100
AcDbBlockTableRecord
  2
*PAPER_SPACE
  0
BLOCK_RECORD
  5
76
330
1
100
AcDbSymbolTableRecord
100
AcDbBlockTableRecord
  2
PD04800A18100_MOSTRINA1__1
  0
BLOCK_RECORD
  5
79
330
1
100
AcDbSymbolTableRecord
100
AcDbBlockTableRecord
  2
MOSTRINA__2
  0
BLOCK_RECORD
  5
7C
330
1
100
AcDbSymbolTableRecord
100
AcDbBlockTableRecord
  2
PD06300A03100_LOGO__KO1__3
  0
BLOCK_RECORD
  5
7F
330
1
100
AcDbSymbolTableRecord
100
AcDbBlockTableRecord
  2
PD04800A18200_MOSTRINA1__4
  0
BLOCK_RECORD
  5
84
330
1
100
AcDbSymbolTableRecord
100
AcDbBlockTableRecord
  2
PD00600A08800_VITE_SPE1__5
  0
BLOCK_RECORD
  5
87
330
1
100
AcDbSymbolTableRecord
100
AcDbBlockTableRecord
  2
CARC_MONT_1_1__6
  0
BLOCK_RECORD
  5
8A
330
1
100
AcDbSymbolTableRecord
100
AcDbBlockTableRecord
  2
PD00800A12700__7
  0
BLOCK_RECORD
  5
8E
330
1
100
AcDbSymbolTableRecord
100
AcDbBlockTableRecord
  2
GFS0086A00200_GRUPPO_C6__8
  0
BLOCK_RECORD
  5
92
330
1
100
AcDbSymbolTableRecord
100
AcDbBlockTableRecord
  2
PX009563__9
  0
BLOCK_RECORD
  5
95
330
1
100
AcDbSymbolTableRecord
100
AcDbBlockTableRecord
  2
PD00800A12800_CARCASSA__10
  0
BLOCK_RECORD
  5
99
330
1
100
AcDbSymbolTableRecord
100
AcDbBlockTableRecord
  2
PX009565_CORPO_MONT_1__11
  0
BLOCK_RECORD
  5
9C
330
1
100
AcDbSymbolTableRecord
100
AcDbBlockTableRecord
  2
PD00700A29300_CORPO_RE__12
  0
BLOCK_RECORD
  5
A0
330
1
100
AcDbSymbolTableRecord
100
AcDbBlockTableRecord
  2
PX009557_BIELLA_C_TIPO__13
  0
BLOCK_RECORD
  5
A3
330
1
100
AcDbSymbolTableRecord
100
AcDbBlockTableRecord
  2
PD05300A10600_BIELLA_E__14
  0
BLOCK_RECORD
  5
A7
330
1
100
AcDbSymbolTableRecord
100
AcDbBlockTableRecord
  2
BIELLA_T_TIPO_KK__15
  0
BLOCK_RECORD
  5
AA
330
1
100
AcDbSymbolTableRecord
100
AcDbBlockTableRecord
  2
PD05300A10500_BIELLA_C__16
  0
BLOCK_RECORD
  5
AE
330
1
100
AcDbSymbolTableRecord
100
AcDbBlockTableRecord
  2
CORPO_PORTA_1__17
  0
BLOCK_RECORD
  5
B1
330
1
100
AcDbSymbolTableRecord
100
AcDbBlockTableRecord
  2
PD00700A29200_CORPO_RE__18
  0
BLOCK_RECORD
  5
B5
330
1
100
AcDbSymbolTableRecord
100
AcDbBlockTableRecord
  2
PD02500A18500_BOCCOLA___19
  0
BLOCK_RECORD
  5
B8
330
1
100
AcDbSymbolTableRecord
100
AcDbBlockTableRecord
  2
PD02500A18500_BOCCOLA___20
  0
BLOCK_RECORD
  5
BB
330
1
100
AcDbSymbolTableRecord
100
AcDbBlockTableRecord
  2
GFS0086A00100_GRUPPO_C__21
  0
BLOCK_RECORD
  5
C4
330
1
100
AcDbSymbolTableRecord
100
AcDbBlockTableRecord
  2
GFS0086A00300_GRUPPO_C__22
  0
BLOCK_RECORD
  5
CB
330
1
100
AcDbSymbolTableRecord
100
AcDbBlockTableRecord
  2
00S0086A00100_CERNIERA__23
  0
BLOCK_RECORD
  5
D1
330
1
100
AcDbSymbolTableRecord
100
AcDbBlockTableRecord
  2
TKKZ0TEC47500_TECNICO___24
  0
BLOCK_RECORD
  5
D5
330
1
100
AcDbSymbolTableRecord
100
AcDbBlockTableRecord
  2
GEN15
  0
BLOCK_RECORD
  5
552
330
1
100
AcDbSymbolTableRecord
100
AcDbBlockTableRecord
  2
*D26
  0
BLOCK_RECORD
  5
55E
330
1
100
AcDbSymbolTableRecord
100
AcDbBlockTableRecord
  2
*D27
  0
BLOCK_RECORD
  5
569
330
1
100
AcDbSymbolTableRecord
100
AcDbBlockTableRecord
  2
*D28
  0
BLOCK_RECORD
  5
574
330
1
100
AcDbSymbolTableRecord
100
AcDbBlockTableRecord
  2
*D29
  0
BLOCK_RECORD
  5
57F
330
1
100
AcDbSymbolTableRecord
100
AcDbBlockTableRecord
  2
*D30
  0
BLOCK_RECORD
  5
58C
330
1
100
AcDbSymbolTableRecord
100
AcDbBlockTableRecord
  2
*D31
  0
BLOCK_RECORD
  5
597
330
1
100
AcDbSymbolTableRecord
100
AcDbBlockTableRecord
  2
*D32
  0
BLOCK_RECORD
  5
5A3
330
1
100
AcDbSymbolTableRecord
100
AcDbBlockTableRecord
  2
*D33
  0
ENDTAB
  0
ENDSEC
  0
SECTION
  2
BLOCKS
  0
BLOCK
  5
20
330
1F
100
AcDbEntity
  8
0
100
AcDbBlockBegin
  2
*MODEL_SPACE
 70
     0
 10
0.0
 20
0.0
 30
0.0
  3
*MODEL_SPACE
  1

  0
ENDBLK
  5
21
330
1F
100
AcDbEntity
  8
0
100
AcDbBlockEnd
  0
BLOCK
  5
1C
330
1B
100
AcDbEntity
 67
     1
  8
0
100
AcDbBlockBegin
  2
*PAPER_SPACE
 70
     0
 10
0.0
 20
0.0
 30
0.0
  3
*PAPER_SPACE
  1

  0
ENDBLK
  5
1D
330
1B
100
AcDbEntity
 67
     1
  8
0
100
AcDbBlockEnd
  0
BLOCK
  5
77
330
76
100
AcDbEntity
  8
0
100
AcDbBlockBegin
  2
PD04800A18100_MOSTRINA1__1
 70
     0
 10
-722.7647098186135
 20
287.7614373959659
 30
0.0
  3
PD04800A18100_MOSTRINA1__1
  1

  0
LINE
  5
DA
330
76
100
AcDbEntity
  8
0
  6
CONTINUOUS
 62
     7
100
AcDbLine
 10
-690.7647098186098
 20
289.2614373959659
 30
0.0
 11
-690.7647098186135
 21
287.7614373959659
 31
0.0
  0
LINE
  5
DB
330
76
100
AcDbEntity
  8
0
  6
CONTINUOUS
 62
     7
100
AcDbLine
 10
-722.7647098186135
 20
289.2614373959659
 30
0.0
 11
-722.7647098186135
 21
287.7614373959659
 31
0.0
  0
LINE
  5
DC
330
76
100
AcDbEntity
  8
0
  6
CONTINUOUS
 62
     7
100
AcDbLine
 10
-690.7647098186098
 20
289.2614373959659
 30
0.0
 11
-722.7647098186135
 21
289.2614373959659
 31
0.0
  0
LINE
  5
DD
330
76
100
AcDbEntity
  8
0
  6
CONTINUOUS
 62
     7
100
AcDbLine
 10
-690.7647098186135
 20
287.7614373959659
 30
0.0
 11
-722.7647098186135
 21
287.7614373959659
 31
0.0
  0
ENDBLK
  5
78
330
76
100
AcDbEntity
  8
0
100
AcDbBlockEnd
  0
BLOCK
  5
7A
330
79
100
AcDbEntity
  8
0
100
AcDbBlockBegin
  2
MOSTRINA__2
 70
     0
 10
-657.1479277280996
 20
291.2614373959909
 30
0.0
  3
MOSTRINA__2
  1

  0
LINE
  5
DE
330
79
100
AcDbEntity
  8
0
  6
CONTINUOUS
 62
     7
100
AcDbLine
 10
-625.1479277280941
 20
292.7614373959909
 30
0.0
 11
-625.1479277280996
 21
291.2614373959909
 31
0.0
  0
LINE
  5
DF
330
79
100
AcDbEntity
  8
0
  6
CONTINUOUS
 62
     7
100
AcDbLine
 10
-657.1479277280996
 20
292.7614373959909
 30
0.0
 11
-657.1479277280996
 21
291.2614373959909
 31
0.0
  0
LINE
  5
E0
330
79
100
AcDbEntity
  8
0
  6
CONTINUOUS
 62
     7
100
AcDbLine
 10
-625.1479277280996
 20
291.2614373959909
 30
0.0
 11
-657.1479277280996
 21
291.2614373959909
 31
0.0
  0
LINE
  5
E1
330
79
100
AcDbEntity
  8
0
  6
CONTINUOUS
 62
     7
100
AcDbLine
 10
-625.1479277280941
 20
292.7614373959909
 30
0.0
 11
-657.1479277280996
 21
292.7614373959909
 31
0.0
  0
ENDBLK
  5
7B
330
79
100
AcDbEntity
  8
0
100
AcDbBlockEnd
  0
BLOCK
  5
7D
330
7C
100
AcDbEntity
  8
0
100
AcDbBlockBegin
  2
PD06300A03100_LOGO__KO1__3
 70
     0
 10
-630.656418778537
 20
291.2114373959917
 30
0.0
  3
PD06300A03100_LOGO__KO1__3
  1

  0
LINE
  5
E2
330
7C
100
AcDbEntity
  8
0
  6
CONTINUOUS
 62
     7
100
AcDbLine
 10
-630.221785321015
 20
291.2114373959917
 30
0.0
 11
-630.0582397628095
 21
291.2114373959917
 31
0.0
  0
LINE
  5
E3
330
7C
100
AcDbEntity
  8
0
  6
CONTINUOUS
 62
     7
100
AcDbLine
 10
-630.221785321015
 20
291.2114373959917
 30
0.0
 11
-630.6481314499651
 21
291.211437518908
 31
0.0
  0
LINE
  5
E4
330
7C
100
AcDbEntity
  8
0
  6
CONTINUOUS
 62
     7
100
AcDbLine
 10
-627.9269364166339
 20
291.2214373959919
 30
0.0
 11
-630.656418778537
 21
291.2214373959919
 31
0.0
  0
LINE
  5
E5
330
7C
100
AcDbEntity
  8
0
  6
CONTINUOUS
 62
     7
100
AcDbLine
 10
-630.0582413018328
 20
291.2214376207007
 30
0.0
 11
-630.0582397628095
 21
291.2114373959917
 31
0.0
  0
LINE
  5
E6
330
7C
100
AcDbEntity
  8
0
  6
CONTINUOUS
 62
     7
100
AcDbLine
 10
-630.221785321015
 20
291.2114373959917
 30
0.0
 11
-630.221785321015
 21
291.2214376230477
 31
0.0
  0
LINE
  5
E7
330
7C
100
AcDbEntity
  8
0
  6
CONTINUOUS
 62
     7
100
AcDbLine
 10
-630.656418778537
 20
291.2614373936081
 30
0.0
 11
-630.656418778537
 21
291.2214373959919
 31
0.0
  0
LINE
  5
E8
330
7C
100
AcDbEntity
  8
0
  6
CONTINUOUS
 62
     7
100
AcDbLine
 10
-627.183989604262
 20
291.211437518908
 30
0.0
 11
-630.0582397628095
 21
291.2114373959917
 31
0.0
  0
LINE
  5
E9
330
7C
100
AcDbEntity
  8
0
  6
CONTINUOUS
 62
     7
100
AcDbLine
 10
-627.9269364166339
 20
291.2614373936081
 30
0.0
 11
-627.9269364166339
 21
291.2214373959919
 31
0.0
  0
LINE
  5
EA
330
7C
100
AcDbEntity
  8
0
  6
CONTINUOUS
 62
     7
100
AcDbLine
 10
-627.1564187780714
 20
291.2214373959919
 30
0.0
 11
-627.9269364166339
 21
291.2214373959919
 31
0.0
  0
LINE
  5
EB
330
7C
100
AcDbEntity
  8
0
  6
CONTINUOUS
 62
     7
100
AcDbLine
 10
-627.1479276978098
 20
291.2614373936081
 30
0.0
 11
-627.1479276978098
 21
291.2214373959919
 31
0.0
  0
LINE
  5
EC
330
7C
100
AcDbEntity
  8
0
  6
CONTINUOUS
 62
     7
100
AcDbLine
 10
-627.1479276978098
 20
291.2214373959919
 30
0.0
 11
-627.1564419938877
 21
291.2214373959919
 31
0.0
  0
LINE
  5
ED
330
7C
100
AcDbEntity
  8
0
  6
CONTINUOUS
 62
     7
100
AcDbLine
 10
-627.1564187780714
 20
291.2614373936081
 30
0.0
 11
-627.1564187780714
 21
291.2214373959919
 31
0.0
  0
LINE
  5
EE
330
7C
100
AcDbEntity
  8
0
  6
CONTINUOUS
 62
     7
100
AcDbLine
 10
-627.183989604262
 20
291.2214377454338
 30
0.0
 11
-627.183989604262
 21
291.211437518908
 31
0.0
  0
LINE
  5
EF
330
7C
100
AcDbEntity
  8
0
  6
CONTINUOUS
 62
     7
100
AcDbLine
 10
-630.6481314499651
 20
291.211437518908
 30
0.0
 11
-630.6481314499651
 21
291.2214377477808
 31
0.0
  0
ENDBLK
  5
7E
330
7C
100
AcDbEntity
  8
0
100
AcDbBlockEnd
  0
BLOCK
  5
82
330
7F
100
AcDbEntity
  8
0
100
AcDbBlockBegin
  2
PD04800A18200_MOSTRINA1__4
 70
     0
 10
-657.1479277280996
 20
291.2114373959917
 30
0.0
  3
PD04800A18200_MOSTRINA1__4
  1

  0
INSERT
  5
80
330
7F
100
AcDbEntity
  8
0
100
AcDbBlockReference
  2
MOSTRINA__2
 10
-657.1479277280996
 20
291.2614373959909
 30
0.0
  0
INSERT
  5
81
330
7F
100
AcDbEntity
  8
0
100
AcDbBlockReference
  2
PD06300A03100_LOGO__KO1__3
 10
-630.656418778537
 20
291.2114373959917
 30
0.0
  0
ENDBLK
  5
83
330
7F
100
AcDbEntity
  8
0
100
AcDbBlockEnd
  0
BLOCK
  5
85
330
84
100
AcDbEntity
  8
0
100
AcDbBlockBegin
  2
PD00600A08800_VITE_SPE1__5
 70
     0
 10
-710.7647391159808
 20
320.2614360269577
 30
0.0
  3
PD00600A08800_VITE_SPE1__5
  1

  0
LINE
  5
F0
330
84
100
AcDbEntity
  8
0
  6
CONTINUOUS
 62
     7
100
AcDbLine
 10
-702.7647391159808
 20
324.7614367559677
 30
0.0
 11
-710.7647098183043
 21
324.761437395965
 31
0.0
  0
LINE
  5
F1
330
84
100
AcDbEntity
  8
0
  6
CONTINUOUS
 62
     7
100
AcDbLine
 10
-704.2647391159808
 20
326.2614367559677
 30
0.0
 11
-709.2647098183043
 21
326.261437395965
 31
0.0
  0
LINE
  5
F2
330
84
100
AcDbEntity
  8
0
  6
CONTINUOUS
 62
     7
100
AcDbLine
 10
-702.7647391159808
 20
320.2614360269577
 30
0.0
 11
-702.7647391159808
 21
324.7614367559677
 31
0.0
  0
LINE
  5
F3
330
84
100
AcDbEntity
  8
0
  6
CONTINUOUS
 62
     7
100
AcDbLine
 10
-710.7647391159808
 20
324.7614367559677
 30
0.0
 11
-710.7647391159808
 21
320.261436898676
 31
0.0
  0
LINE
  5
F4
330
84
100
AcDbEntity
  8
0
  6
CONTINUOUS
 62
     7
100
AcDbLine
 10
-704.2647391159808
 20
326.2614367559677
 30
0.0
 11
-702.7647391159808
 21
324.7614367559677
 31
0.0
  0
LINE
  5
F5
330
84
100
AcDbEntity
  8
0
  6
CONTINUOUS
 62
     7
100
AcDbLine
 10
-710.7647391159808
 20
324.7614367559677
 30
0.0
 11
-709.2647391159808
 21
326.2614367559677
 31
0.0
  0
ENDBLK
  5
86
330
84
100
AcDbEntity
  8
0
100
AcDbBlockEnd
  0
BLOCK
  5
88
330
87
100
AcDbEntity
  8
0
100
AcDbBlockBegin
  2
CARC_MONT_1_1__6
 70
     0
 10
-657.1479483444964
 20
292.76143739599
 30
0.0
  3
CARC_MONT_1_1__6
  1

  0
LINE
  5
F6
330
87
100
AcDbEntity
  8
0
  6
CONTINUOUS
 62
     1
100
AcDbLine
 10
-637.1479277280978
 20
324.3614373961409
 30
0.0
 11
-637.1479277280978
 21
301.2614373959909
 31
0.0
  0
LINE
  5
F7
330
87
100
AcDbEntity
  8
0
  6
CONTINUOUS
 62
     7
100
AcDbLine
 10
-625.4479277280989
 20
292.76143739599
 30
0.0
 11
-656.8479277280985
 21
292.7614373959918
 31
0.0
  0
LINE
  5
F8
330
87
100
AcDbEntity
  8
0
  6
CONTINUOUS
 62
     1
100
AcDbLine
 10
-645.1479277280869
 20
324.3614373961318
 30
0.0
 11
-645.1479277280869
 21
301.2614373959909
 31
0.0
  0
LINE
  5
F9
330
87
100
AcDbEntity
  8
0
  6
CONTINUOUS
 62
     7
100
AcDbLine
 10
-625.6479277280978
 20
301.26143739599
 30
0.0
 11
-656.6479277280869
 21
301.2614373959909
 31
0.0
  0
LINE
  5
FA
330
87
100
AcDbEntity
  8
0
  6
CONTINUOUS
 62
     1
100
AcDbLine
 10
-657.1479277280941
 20
293.0614373959907
 30
0.0
 11
-641.1479277280996
 21
293.0614373959907
 31
0.0
  0
LINE
  5
FB
330
87
100
AcDbEntity
  8
0
  6
CONTINUOUS
 62
     1
100
AcDbLine
 10
-657.1479277280941
 20
300.7614373959909
 30
0.0
 11
-641.1479277280978
 21
300.7614373959909
 31
0.0
  0
LINE
  5
FC
330
87
100
AcDbEntity
  8
0
  6
CONTINUOUS
 62
     7
100
AcDbLine
 10
-657.1479277280941
 20
293.0614373959907
 30
0.0
 11
-657.1479277280941
 21
300.7614373959909
 31
0.0
  0
LINE
  5
FD
330
87
100
AcDbEntity
  8
0
  6
CONTINUOUS
 62
     1
100
AcDbLine
 10
-641.1479277280996
 20
293.0614373959907
 30
0.0
 11
-641.1479277280978
 21
300.7614373959909
 31
0.0
  0
LINE
  5
FE
330
87
100
AcDbEntity
  8
0
  6
CONTINUOUS
 62
     7
100
AcDbLine
 10
-657.1479277280869
 20
305.7331709932769
 30
0.0
 11
-657.1401968796526
 21
305.4121022775898
 31
0.0
  0
LINE
  5
FF
330
87
100
AcDbEntity
  8
0
  6
CONTINUOUS
 62
     7
100
AcDbLine
 10
-657.1401968796526
 20
305.4121022775898
 30
0.0
 11
-657.1113882859026
 21
305.2161794260269
 31
0.0
  0
LINE
  5
100
330
87
100
AcDbEntity
  8
0
  6
CONTINUOUS
 62
     7
100
AcDbLine
 10
-657.1113882859026
 20
305.2161794260269
 30
0.0
 11
-657.1013785202776
 21
305.191338117434
 31
0.0
  0
LINE
  5
101
330
87
100
AcDbEntity
  8
0
  6
CONTINUOUS
 62
     7
100
AcDbLine
 10
-657.1013785202776
 20
305.191338117434
 30
0.0
 11
-657.0780630905901
 21
305.1642995432148
 31
0.0
  0
LINE
  5
102
330
87
100
AcDbEntity
  8
0
  6
CONTINUOUS
 62
     7
100
AcDbLine
 10
-657.0169058640276
 20
305.1958547189961
 30
0.0
 11
-656.9410086472308
 21
305.3382497385269
 31
0.0
  0
LINE
  5
103
330
87
100
AcDbEntity
  8
0
  6
CONTINUOUS
 62
     7
100
AcDbLine
 10
-656.9410086472308
 20
305.3382497385269
 30
0.0
 11
-656.9147940476214
 21
305.4058766916519
 31
0.0
  0
LINE
  5
104
330
87
100
AcDbEntity
  8
0
  6
CONTINUOUS
 62
     7
100
AcDbLine
 10
-656.9147940476214
 20
305.4058766916519
 30
0.0
 11
-656.8528433640276
 21
305.601494367434
 31
0.0
  0
LINE
  5
105
330
87
100
AcDbEntity
  8
0
  6
CONTINUOUS
 62
     7
100
AcDbLine
 10
-656.8528433640276
 20
305.601494367434
 30
0.0
 11
-656.7856131394183
 21
305.8813403204208
 31
0.0
  0
LINE
  5
106
330
87
100
AcDbEntity
  8
0
  6
CONTINUOUS
 62
     7
100
AcDbLine
 10
-656.7856131394183
 20
305.8813403204208
 30
0.0
 11
-656.7480765183245
 21
306.082573230578
 31
0.0
  0
LINE
  5
107
330
87
100
AcDbEntity
  8
0
  6
CONTINUOUS
 62
     7
100
AcDbLine
 10
-656.7480765183245
 20
306.082573230578
 30
0.0
 11
-656.7211600144183
 21
306.26042967589
 31
0.0
  0
LINE
  5
108
330
87
100
AcDbEntity
  8
0
  6
CONTINUOUS
 62
     7
100
AcDbLine
 10
-656.7211600144183
 20
306.26042967589
 30
0.0
 11
-656.6768179734026
 21
306.6990893438588
 31
0.0
  0
LINE
  5
109
330
87
100
AcDbEntity
  8
0
  6
CONTINUOUS
 62
     7
100
AcDbLine
 10
-656.6768179734026
 20
306.6990893438588
 30
0.0
 11
-656.6613455612933
 21
307.162041004015
 31
0.0
  0
LINE
  5
10A
330
87
100
AcDbEntity
  8
0
  6
CONTINUOUS
 62
     7
100
AcDbLine
 10
-656.6613455612933
 20
307.162041004015
 30
0.0
 11
-656.6768790085589
 21
307.6247485235458
 31
0.0
  0
LINE
  5
10B
330
87
100
AcDbEntity
  8
0
  6
CONTINUOUS
 62
     7
100
AcDbLine
 10
-656.6768790085589
 20
307.6247485235458
 30
0.0
 11
-656.7213126023089
 21
308.0634692266708
 31
0.0
  0
LINE
  5
10C
330
87
100
AcDbEntity
  8
0
  6
CONTINUOUS
 62
     7
100
AcDbLine
 10
-656.7213126023089
 20
308.0634692266708
 30
0.0
 11
-656.7481680710589
 21
308.2408373907338
 31
0.0
  0
LINE
  5
10D
330
87
100
AcDbEntity
  8
0
  6
CONTINUOUS
 62
     7
100
AcDbLine
 10
-656.7481680710589
 20
308.2408373907338
 30
0.0
 11
-656.7857352097308
 21
308.442192371203
 31
0.0
  0
LINE
  5
10E
330
87
100
AcDbEntity
  8
0
  6
CONTINUOUS
 62
     7
100
AcDbLine
 10
-656.7857352097308
 20
308.442192371203
 30
0.0
 11
-656.8529654343401
 21
308.7217944219838
 31
0.0
  0
LINE
  5
10F
330
87
100
AcDbEntity
  8
0
  6
CONTINUOUS
 62
     7
100
AcDbLine
 10
-656.8529654343401
 20
308.7217944219838
 30
0.0
 11
-656.9148856003558
 21
308.9172289922958
 31
0.0
  0
LINE
  5
110
330
87
100
AcDbEntity
  8
0
  6
CONTINUOUS
 62
     7
100
AcDbLine
 10
-656.9148856003558
 20
308.9172289922958
 30
0.0
 11
-656.9410391648089
 21
308.9847338751088
 31
0.0
  0
LINE
  5
111
330
87
100
AcDbEntity
  8
0
  6
CONTINUOUS
 62
     7
100
AcDbLine
 10
-656.9410391648089
 20
308.9847338751088
 30
0.0
 11
-657.0169363816058
 21
309.1270678594838
 31
0.0
  0
LINE
  5
112
330
87
100
AcDbEntity
  8
0
  6
CONTINUOUS
 62
     7
100
AcDbLine
 10
-657.0780630905901
 20
309.1585620001088
 30
0.0
 11
-657.1013785202776
 21
309.13152342589
 31
0.0
  0
LINE
  5
113
330
87
100
AcDbEntity
  8
0
  6
CONTINUOUS
 62
     7
100
AcDbLine
 10
-657.1013785202776
 20
309.13152342589
 30
0.0
 11
-657.1113882859026
 21
309.1066821172958
 31
0.0
  0
LINE
  5
114
330
87
100
AcDbEntity
  8
0
  6
CONTINUOUS
 62
     7
100
AcDbLine
 10
-657.1113882859026
 20
309.1066821172958
 30
0.0
 11
-657.1401968796526
 21
308.9108813360458
 31
0.0
  0
LINE
  5
115
330
87
100
AcDbEntity
  8
0
  6
CONTINUOUS
 62
     7
100
AcDbLine
 10
-657.0780630905901
 20
305.1642995432148
 30
0.0
 11
-657.0276006624008
 21
305.190336544586
 31
0.0
  0
LINE
  5
116
330
87
100
AcDbEntity
  8
0
  6
CONTINUOUS
 62
     7
100
AcDbLine
 10
-657.0276006624008
 20
305.190336544586
 30
0.0
 11
-657.027574996162
 21
305.190349787546
 31
0.0
  0
LINE
  5
117
330
87
100
AcDbEntity
  8
0
  6
CONTINUOUS
 62
     7
100
AcDbLine
 10
-657.027574996162
 20
305.190349787546
 30
0.0
 11
-657.0169058640276
 21
305.1958547189961
 31
0.0
  0
LINE
  5
118
330
87
100
AcDbEntity
  8
0
  6
CONTINUOUS
 62
     7
100
AcDbLine
 10
-657.1479277280869
 20
308.5897047035169
 30
0.0
 11
-657.1479277280869
 21
305.7331709932769
 31
0.0
  0
LINE
  5
119
330
87
100
AcDbEntity
  8
0
  6
CONTINUOUS
 62
     1
100
AcDbLine
 10
-656.8979483444964
 20
305.9117358282338
 30
0.0
 11
-657.1479277280869
 21
305.7331709932769
 31
0.0
  0
LINE
  5
11A
330
87
100
AcDbEntity
  8
0
  6
CONTINUOUS
 62
     1
100
AcDbLine
 10
-656.7618027607587
 20
306.0089686837659
 30
0.0
 11
-656.8979483444964
 21
305.9117358282338
 31
0.0
  0
LINE
  5
11B
330
87
100
AcDbEntity
  8
0
  6
CONTINUOUS
 62
     7
100
AcDbLine
 10
-657.1401968796526
 20
308.9108813360458
 30
0.0
 11
-657.1479277280869
 21
308.5897047035169
 31
0.0
  0
LINE
  5
11C
330
87
100
AcDbEntity
  8
0
  6
CONTINUOUS
 62
     7
100
AcDbLine
 10
-657.0169363816058
 20
309.1270678594838
 30
0.0
 11
-657.0275838654088
 21
309.1325537323169
 31
0.0
  0
LINE
  5
11D
330
87
100
AcDbEntity
  8
0
  6
CONTINUOUS
 62
     7
100
AcDbLine
 10
-657.0275838654088
 20
309.1325537323169
 30
0.0
 11
-657.0275903871589
 21
309.1325570924987
 31
0.0
  0
LINE
  5
11E
330
87
100
AcDbEntity
  8
0
  6
CONTINUOUS
 62
     7
100
AcDbLine
 10
-657.0275903871589
 20
309.1325570924987
 30
0.0
 11
-657.0780630905901
 21
309.1585620001088
 31
0.0
  0
LINE
  5
11F
330
87
100
AcDbEntity
  8
0
  6
CONTINUOUS
 62
     7
100
AcDbLine
 10
-657.1479277280869
 20
305.7331709932769
 30
0.0
 11
-657.1479277280941
 21
300.7614373959909
 31
0.0
  0
LINE
  5
120
330
87
100
AcDbEntity
  8
0
  6
CONTINUOUS
 62
     1
100
AcDbLine
 10
-657.1479277280869
 20
308.5897047035169
 30
0.0
 11
-656.8979483444964
 21
308.411186511828
 31
0.0
  0
LINE
  5
121
330
87
100
AcDbEntity
  8
0
  6
CONTINUOUS
 62
     1
100
AcDbLine
 10
-656.8979483444964
 20
308.411186511828
 30
0.0
 11
-656.7618049825778
 21
308.3139569395439
 31
0.0
  0
LINE
  5
122
330
87
100
AcDbEntity
  8
0
  6
CONTINUOUS
 62
     1
100
AcDbLine
 10
-625.1479277280996
 20
293.0614373959907
 30
0.0
 11
-641.1479277280996
 21
293.0614373959907
 31
0.0
  0
LINE
  5
123
330
87
100
AcDbEntity
  8
0
  6
CONTINUOUS
 62
     1
100
AcDbLine
 10
-625.1479277280941
 20
300.7614373959909
 30
0.0
 11
-641.1479277280978
 21
300.7614373959909
 31
0.0
  0
LINE
  5
124
330
87
100
AcDbEntity
  8
0
  6
CONTINUOUS
 62
     7
100
AcDbLine
 10
-625.1479277280996
 20
293.0614373959907
 30
0.0
 11
-625.1479277280941
 21
300.7614373959909
 31
0.0
  0
LINE
  5
125
330
87
100
AcDbEntity
  8
0
  6
CONTINUOUS
 62
     7
100
AcDbLine
 10
-625.1479277280941
 20
305.7331710021699
 30
0.0
 11
-625.155669291762
 21
305.4121022775898
 31
0.0
  0
LINE
  5
126
330
87
100
AcDbEntity
  8
0
  6
CONTINUOUS
 62
     7
100
AcDbLine
 10
-625.155669291762
 20
305.4121022775898
 30
0.0
 11
-625.184477885512
 21
305.2161794260269
 31
0.0
  0
LINE
  5
127
330
87
100
AcDbEntity
  8
0
  6
CONTINUOUS
 62
     7
100
AcDbLine
 10
-625.184477885512
 20
305.2161794260269
 30
0.0
 11
-625.194487651137
 21
305.191338117434
 31
0.0
  0
LINE
  5
128
330
87
100
AcDbEntity
  8
0
  6
CONTINUOUS
 62
     7
100
AcDbLine
 10
-625.194487651137
 20
305.191338117434
 30
0.0
 11
-625.2178030808245
 21
305.1642995432148
 31
0.0
  0
LINE
  5
129
330
87
100
AcDbEntity
  8
0
  6
CONTINUOUS
 62
     7
100
AcDbLine
 10
-625.278960307387
 20
305.1958547189961
 30
0.0
 11
-625.3548575241839
 21
305.3382497385269
 31
0.0
  0
LINE
  5
12A
330
87
100
AcDbEntity
  8
0
  6
CONTINUOUS
 62
     7
100
AcDbLine
 10
-625.3548575241839
 20
305.3382497385269
 30
0.0
 11
-625.3810416062151
 21
305.4058156564961
 31
0.0
  0
LINE
  5
12B
330
87
100
AcDbEntity
  8
0
  6
CONTINUOUS
 62
     7
100
AcDbLine
 10
-625.3810416062151
 20
305.4058156564961
 30
0.0
 11
-625.4429922898089
 21
305.6013722971211
 31
0.0
  0
LINE
  5
12C
330
87
100
AcDbEntity
  8
0
  6
CONTINUOUS
 62
     7
100
AcDbLine
 10
-625.4429922898089
 20
305.6013722971211
 30
0.0
 11
-625.5102225144183
 21
305.881157214953
 31
0.0
  0
LINE
  5
12D
330
87
100
AcDbEntity
  8
0
  6
CONTINUOUS
 62
     7
100
AcDbLine
 10
-625.5102225144183
 20
305.881157214953
 30
0.0
 11
-625.5477896530901
 21
306.082573230578
 31
0.0
  0
LINE
  5
12E
330
87
100
AcDbEntity
  8
0
  6
CONTINUOUS
 62
     7
100
AcDbLine
 10
-625.5477896530901
 20
306.082573230578
 30
0.0
 11
-625.5746756394183
 21
306.260185535265
 31
0.0
  0
LINE
  5
12F
330
87
100
AcDbEntity
  8
0
  6
CONTINUOUS
 62
     7
100
AcDbLine
 10
-625.5746756394183
 20
306.260185535265
 30
0.0
 11
-625.6190176804339
 21
306.6988452032338
 31
0.0
  0
LINE
  5
130
330
87
100
AcDbEntity
  8
0
  6
CONTINUOUS
 62
     7
100
AcDbLine
 10
-625.6190176804339
 20
306.6988452032338
 30
0.0
 11
-625.6345511276995
 21
307.162041004015
 31
0.0
  0
LINE
  5
131
330
87
100
AcDbEntity
  8
0
  6
CONTINUOUS
 62
     7
100
AcDbLine
 10
-625.6345511276995
 20
307.162041004015
 30
0.0
 11
-625.6189566452776
 21
307.6249926641708
 31
0.0
  0
LINE
  5
132
330
87
100
AcDbEntity
  8
0
  6
CONTINUOUS
 62
     7
100
AcDbLine
 10
-625.6189566452776
 20
307.6249926641708
 30
0.0
 11
-625.5745535691058
 21
308.06365233214
 31
0.0
  0
LINE
  5
133
330
87
100
AcDbEntity
  8
0
  6
CONTINUOUS
 62
     7
100
AcDbLine
 10
-625.5745535691058
 20
308.06365233214
 30
0.0
 11
-625.5476981003558
 21
308.2408373907338
 31
0.0
  0
LINE
  5
134
330
87
100
AcDbEntity
  8
0
  6
CONTINUOUS
 62
     7
100
AcDbLine
 10
-625.5476981003558
 20
308.2408373907338
 30
0.0
 11
-625.5101004441058
 21
308.442314441515
 31
0.0
  0
LINE
  5
135
330
87
100
AcDbEntity
  8
0
  6
CONTINUOUS
 62
     7
100
AcDbLine
 10
-625.5101004441058
 20
308.442314441515
 30
0.0
 11
-625.4429007370745
 21
308.72185545714
 31
0.0
  0
LINE
  5
136
330
87
100
AcDbEntity
  8
0
  6
CONTINUOUS
 62
     7
100
AcDbLine
 10
-625.4429007370745
 20
308.72185545714
 30
0.0
 11
-625.3809805710589
 21
308.917290027453
 31
0.0
  0
LINE
  5
137
330
87
100
AcDbEntity
  8
0
  6
CONTINUOUS
 62
     7
100
AcDbLine
 10
-625.3809805710589
 20
308.917290027453
 30
0.0
 11
-625.3548270066058
 21
308.9847338751088
 31
0.0
  0
LINE
  5
138
330
87
100
AcDbEntity
  8
0
  6
CONTINUOUS
 62
     7
100
AcDbLine
 10
-625.3548270066058
 20
308.9847338751088
 30
0.0
 11
-625.2789297898089
 21
309.1270678594838
 31
0.0
  0
LINE
  5
139
330
87
100
AcDbEntity
  8
0
  6
CONTINUOUS
 62
     7
100
AcDbLine
 10
-625.2178030808245
 20
309.1585620001088
 30
0.0
 11
-625.194487651137
 21
309.13152342589
 31
0.0
  0
LINE
  5
13A
330
87
100
AcDbEntity
  8
0
  6
CONTINUOUS
 62
     7
100
AcDbLine
 10
-625.194487651137
 20
309.13152342589
 30
0.0
 11
-625.184477885512
 21
309.1066821172958
 31
0.0
  0
LINE
  5
13B
330
87
100
AcDbEntity
  8
0
  6
CONTINUOUS
 62
     7
100
AcDbLine
 10
-625.184477885512
 20
309.1066821172958
 30
0.0
 11
-625.155669291762
 21
308.91082030089
 31
0.0
  0
LINE
  5
13C
330
87
100
AcDbEntity
  8
0
  6
CONTINUOUS
 62
     7
100
AcDbLine
 10
-625.2178030808245
 20
305.1642995432148
 30
0.0
 11
-625.2682765687168
 21
305.19034225104
 31
0.0
  0
LINE
  5
13D
330
87
100
AcDbEntity
  8
0
  6
CONTINUOUS
 62
     7
100
AcDbLine
 10
-625.2682765687168
 20
305.19034225104
 30
0.0
 11
-625.2682819454676
 21
305.1903450252707
 31
0.0
  0
LINE
  5
13E
330
87
100
AcDbEntity
  8
0
  6
CONTINUOUS
 62
     7
100
AcDbLine
 10
-625.2682819454676
 20
305.1903450252707
 30
0.0
 11
-625.278960307387
 21
305.1958547189961
 31
0.0
  0
LINE
  5
13F
330
87
100
AcDbEntity
  8
0
  6
CONTINUOUS
 62
     7
100
AcDbLine
 10
-625.155669291762
 20
308.91082030089
 30
0.0
 11
-625.1479277280941
 21
308.5897047034878
 31
0.0
  0
LINE
  5
140
330
87
100
AcDbEntity
  8
0
  6
CONTINUOUS
 62
     7
100
AcDbLine
 10
-625.2789297898089
 20
309.1270678594838
 30
0.0
 11
-625.2682873357699
 21
309.1325511408459
 31
0.0
  0
LINE
  5
141
330
87
100
AcDbEntity
  8
0
  6
CONTINUOUS
 62
     7
100
AcDbLine
 10
-625.2682873357699
 20
309.1325511408459
 30
0.0
 11
-625.2178030808245
 21
309.1585620001088
 31
0.0
  0
LINE
  5
142
330
87
100
AcDbEntity
  8
0
  6
CONTINUOUS
 62
     7
100
AcDbLine
 10
-625.1479277280941
 20
308.5897047034878
 30
0.0
 11
-625.1479277280941
 21
305.7331710021699
 31
0.0
  0
LINE
  5
143
330
87
100
AcDbEntity
  8
0
  6
CONTINUOUS
 62
     7
100
AcDbLine
 10
-625.1479277280941
 20
305.7331710021699
 30
0.0
 11
-625.1479277280941
 21
300.7614373959909
 31
0.0
  0
LINE
  5
144
330
87
100
AcDbEntity
  8
0
  6
CONTINUOUS
 62
     1
100
AcDbLine
 10
-625.1479277280941
 20
305.7331710021699
 30
0.0
 11
-625.3979178269183
 21
305.9117358282338
 31
0.0
  0
LINE
  5
145
330
87
100
AcDbEntity
  8
0
  6
CONTINUOUS
 62
     1
100
AcDbLine
 10
-625.3979178269183
 20
305.9117358282338
 30
0.0
 11
-625.5340591023669
 21
306.0089697810367
 31
0.0
  0
LINE
  5
146
330
87
100
AcDbEntity
  8
0
  6
CONTINUOUS
 62
     1
100
AcDbLine
 10
-625.5340521128564
 20
308.3139592582929
 30
0.0
 11
-625.3979178269183
 21
308.411186511828
 31
0.0
  0
LINE
  5
147
330
87
100
AcDbEntity
  8
0
  6
CONTINUOUS
 62
     1
100
AcDbLine
 10
-625.3979178269183
 20
308.411186511828
 30
0.0
 11
-625.1479277280941
 21
308.5897047034878
 31
0.0
  0
LINE
  5
148
330
87
100
AcDbEntity
  8
0
  6
CONTINUOUS
 62
     1
100
AcDbLine
 10
-645.1479277280869
 20
324.3614373961318
 30
0.0
 11
-656.7315712757463
 21
324.361437396135
 31
0.0
  0
LINE
  5
149
330
87
100
AcDbEntity
  8
0
  6
CONTINUOUS
 62
     7
100
AcDbLine
 10
-652.2189932663714
 20
326.3614428594838
 30
0.0
 11
-654.8009637705582
 21
326.3614373961359
 31
0.0
  0
LINE
  5
14A
330
87
100
AcDbEntity
  8
0
  6
CONTINUOUS
 62
     7
100
AcDbLine
 10
-645.1479277280869
 20
326.3614373961359
 30
0.0
 11
-648.974761088637
 21
326.3614428594838
 31
0.0
  0
LINE
  5
14B
330
87
100
AcDbEntity
  8
0
  6
CONTINUOUS
 62
     7
100
AcDbLine
 10
-648.974761088637
 20
326.3614428594838
 30
0.0
 11
-652.2189932663714
 21
326.3614428594838
 31
0.0
  0
LINE
  5
14C
330
87
100
AcDbEntity
  8
0
  6
CONTINUOUS
 62
     7
100
AcDbLine
 10
-657.1479277280905
 20
322.0020841661617
 30
0.0
 11
-657.1414786179339
 21
322.2611010626088
 31
0.0
  0
LINE
  5
14D
330
87
100
AcDbEntity
  8
0
  6
CONTINUOUS
 62
     7
100
AcDbLine
 10
-657.1479277280905
 20
322.0020841661617
 30
0.0
 11
-657.1479277280869
 21
308.5897047035169
 31
0.0
  0
LINE
  5
14E
330
87
100
AcDbEntity
  8
0
  6
CONTINUOUS
 62
     1
100
AcDbLine
 10
-650.0169242891752
 20
327.3614373961391
 30
0.0
 11
-650.0107107956683
 21
327.23113280089
 31
0.0
  0
LINE
  5
14F
330
87
100
AcDbEntity
  8
0
  6
CONTINUOUS
 62
     1
100
AcDbLine
 10
-650.0107107956683
 20
327.23113280089
 30
0.0
 11
-649.9930411179339
 21
327.1079028204208
 31
0.0
  0
LINE
  5
150
330
87
100
AcDbEntity
  8
0
  6
CONTINUOUS
 62
     1
100
AcDbLine
 10
-649.9930411179339
 20
327.1079028204208
 30
0.0
 11
-649.971587260512
 21
327.0154955938588
 31
0.0
  0
LINE
  5
151
330
87
100
AcDbEntity
  8
0
  6
CONTINUOUS
 62
     1
100
AcDbLine
 10
-649.971587260512
 20
327.0154955938588
 30
0.0
 11
-649.9322501023089
 21
326.8969653204208
 31
0.0
  0
LINE
  5
152
330
87
100
AcDbEntity
  8
0
  6
CONTINUOUS
 62
     1
100
AcDbLine
 10
-649.9322501023089
 20
326.8969653204208
 30
0.0
 11
-649.9037772019183
 21
326.8315356329208
 31
0.0
  0
LINE
  5
153
330
87
100
AcDbEntity
  8
0
  6
CONTINUOUS
 62
     1
100
AcDbLine
 10
-649.9037772019183
 20
326.8315356329208
 30
0.0
 11
-649.8793936569964
 21
326.7836840704208
 31
0.0
  0
LINE
  5
154
330
87
100
AcDbEntity
  8
0
  6
CONTINUOUS
 62
     1
100
AcDbLine
 10
-649.8793936569964
 20
326.7836840704208
 30
0.0
 11
-649.7996207077776
 21
326.6616137579208
 31
0.0
  0
LINE
  5
155
330
87
100
AcDbEntity
  8
0
  6
CONTINUOUS
 62
     1
100
AcDbLine
 10
-649.7996207077776
 20
326.6616137579208
 30
0.0
 11
-649.6823111374651
 21
326.540336902453
 31
0.0
  0
LINE
  5
156
330
87
100
AcDbEntity
  8
0
  6
CONTINUOUS
 62
     1
100
AcDbLine
 10
-649.6823111374651
 20
326.540336902453
 30
0.0
 11
-649.6137076218401
 21
326.489799793078
 31
0.0
  0
LINE
  5
157
330
87
100
AcDbEntity
  8
0
  6
CONTINUOUS
 62
     1
100
AcDbLine
 10
-649.6137076218401
 20
326.489799793078
 30
0.0
 11
-649.5564261276995
 21
326.456108386828
 31
0.0
  0
LINE
  5
158
330
87
100
AcDbEntity
  8
0
  6
CONTINUOUS
 62
     1
100
AcDbLine
 10
-649.5564261276995
 20
326.456108386828
 30
0.0
 11
-649.4239188034808
 21
326.4013598516708
 31
0.0
  0
LINE
  5
159
330
87
100
AcDbEntity
  8
0
  6
CONTINUOUS
 62
     1
100
AcDbLine
 10
-649.4239188034808
 20
326.4013598516708
 30
0.0
 11
-649.307768901137
 21
326.374321277453
 31
0.0
  0
LINE
  5
15A
330
87
100
AcDbEntity
  8
0
  6
CONTINUOUS
 62
     1
100
AcDbLine
 10
-651.0023683515137
 20
327.3614373961327
 30
0.0
 11
-650.9880057175433
 21
327.23113280089
 31
0.0
  0
LINE
  5
15B
330
87
100
AcDbEntity
  8
0
  6
CONTINUOUS
 62
     1
100
AcDbLine
 10
-650.9880057175433
 20
327.23113280089
 30
0.0
 11
-650.947173198012
 21
327.1079028204208
 31
0.0
  0
LINE
  5
15C
330
87
100
AcDbEntity
  8
0
  6
CONTINUOUS
 62
     1
100
AcDbLine
 10
-650.947173198012
 20
327.1079028204208
 30
0.0
 11
-650.8705740769183
 21
326.974907214953
 31
0.0
  0
LINE
  5
15D
330
87
100
AcDbEntity
  8
0
  6
CONTINUOUS
 62
     1
100
AcDbLine
 10
-650.8705740769183
 20
326.974907214953
 30
0.0
 11
-650.8077383835589
 21
326.8969653204208
 31
0.0
  0
LINE
  5
15E
330
87
100
AcDbEntity
  8
0
  6
CONTINUOUS
 62
     1
100
AcDbLine
 10
-650.8077383835589
 20
326.8969653204208
 30
0.0
 11
-650.7430106003558
 21
326.8315356329208
 31
0.0
  0
LINE
  5
15F
330
87
100
AcDbEntity
  8
0
  6
CONTINUOUS
 62
     1
100
AcDbLine
 10
-650.7430106003558
 20
326.8315356329208
 30
0.0
 11
-650.6877737839495
 21
326.7836840704208
 31
0.0
  0
LINE
  5
160
330
87
100
AcDbEntity
  8
0
  6
CONTINUOUS
 62
     1
100
AcDbLine
 10
-650.6877737839495
 20
326.7836840704208
 30
0.0
 11
-650.5088187058245
 21
326.6616137579208
 31
0.0
  0
LINE
  5
161
330
87
100
AcDbEntity
  8
0
  6
CONTINUOUS
 62
     1
100
AcDbLine
 10
-650.5088187058245
 20
326.6616137579208
 30
0.0
 11
-650.4951773484026
 21
326.653862293078
 31
0.0
  0
LINE
  5
162
330
87
100
AcDbEntity
  8
0
  6
CONTINUOUS
 62
     1
100
AcDbLine
 10
-650.4951773484026
 20
326.653862293078
 30
0.0
 11
-650.2506705124651
 21
326.540336902453
 31
0.0
  0
LINE
  5
163
330
87
100
AcDbEntity
  8
0
  6
CONTINUOUS
 62
     1
100
AcDbLine
 10
-650.2506705124651
 20
326.540336902453
 30
0.0
 11
-649.9803458054339
 21
326.456108386828
 31
0.0
  0
LINE
  5
164
330
87
100
AcDbEntity
  8
0
  6
CONTINUOUS
 62
     1
100
AcDbLine
 10
-649.9803458054339
 20
326.456108386828
 30
0.0
 11
-649.8663016159808
 21
326.430229480578
 31
0.0
  0
LINE
  5
165
330
87
100
AcDbEntity
  8
0
  6
CONTINUOUS
 62
     1
100
AcDbLine
 10
-649.8663016159808
 20
326.430229480578
 30
0.0
 11
-649.7036124069964
 21
326.4013598516708
 31
0.0
  0
LINE
  5
166
330
87
100
AcDbEntity
  8
0
  6
CONTINUOUS
 62
     1
100
AcDbLine
 10
-649.7036124069964
 20
326.4013598516708
 30
0.0
 11
-649.4235831101214
 21
326.3709643438588
 31
0.0
  0
LINE
  5
167
330
87
100
AcDbEntity
  8
0
  6
CONTINUOUS
 62
     1
100
AcDbLine
 10
-651.0023683515137
 20
327.3614373961327
 30
0.0
 11
-654.6279526038561
 21
327.3614373961309
 31
0.0
  0
LINE
  5
168
330
87
100
AcDbEntity
  8
0
  6
CONTINUOUS
 62
     1
100
AcDbLine
 10
-650.0169242891752
 20
327.3614373961391
 30
0.0
 11
-650.0169242891752
 21
330.2614373959909
 31
0.0
  0
LINE
  5
169
330
87
100
AcDbEntity
  8
0
  6
CONTINUOUS
 62
     1
100
AcDbLine
 10
-650.7765309497681
 20
332.2614373959909
 30
0.0
 11
-650.8541861374651
 21
332.1730883672958
 31
0.0
  0
LINE
  5
16A
330
87
100
AcDbEntity
  8
0
  6
CONTINUOUS
 62
     1
100
AcDbLine
 10
-650.8541861374651
 20
332.1730883672958
 30
0.0
 11
-650.9166251023089
 21
331.9162524297958
 31
0.0
  0
LINE
  5
16B
330
87
100
AcDbEntity
  8
0
  6
CONTINUOUS
 62
     1
100
AcDbLine
 10
-650.9166251023089
 20
331.9162524297958
 30
0.0
 11
-650.9473563034808
 21
331.675590808703
 31
0.0
  0
LINE
  5
16C
330
87
100
AcDbEntity
  8
0
  6
CONTINUOUS
 62
     1
100
AcDbLine
 10
-650.9473563034808
 20
331.675590808703
 30
0.0
 11
-650.9485159714495
 21
331.664116199328
 31
0.0
  0
LINE
  5
16D
330
87
100
AcDbEntity
  8
0
  6
CONTINUOUS
 62
     1
100
AcDbLine
 10
-650.9485159714495
 20
331.664116199328
 30
0.0
 11
-650.9726248581683
 21
331.359672839953
 31
0.0
  0
LINE
  5
16E
330
87
100
AcDbEntity
  8
0
  6
CONTINUOUS
 62
     1
100
AcDbLine
 10
-650.9726248581683
 20
331.359672839953
 30
0.0
 11
-650.9889517624651
 21
331.026298816515
 31
0.0
  0
LINE
  5
16F
330
87
100
AcDbEntity
  8
0
  6
CONTINUOUS
 62
     1
100
AcDbLine
 10
-650.9889517624651
 20
331.026298816515
 30
0.0
 11
-650.9950857956683
 21
330.832939441515
 31
0.0
  0
LINE
  5
170
330
87
100
AcDbEntity
  8
0
  6
CONTINUOUS
 62
     1
100
AcDbLine
 10
-650.9950857956683
 20
330.832939441515
 30
0.0
 11
-651.0023683515137
 21
330.2614373959909
 31
0.0
  0
LINE
  5
171
330
87
100
AcDbEntity
  8
0
  6
CONTINUOUS
 62
     1
100
AcDbLine
 10
-651.0023683515137
 20
327.3614373961327
 30
0.0
 11
-650.0169242891752
 21
327.3614373961391
 31
0.0
  0
LINE
  5
172
330
87
100
AcDbEntity
  8
0
  6
CONTINUOUS
 62
     1
100
AcDbLine
 10
-654.6279526038561
 20
327.3614373961309
 30
0.0
 11
-654.9147330124651
 21
326.4055102422958
 31
0.0
  0
LINE
  5
173
330
87
100
AcDbEntity
  8
0
  6
CONTINUOUS
 62
     1
100
AcDbLine
 10
-654.9147330124651
 20
326.4055102422958
 30
0.0
 11
-654.9279526038572
 21
326.3614373961309
 31
0.0
  0
LINE
  5
174
330
87
100
AcDbEntity
  8
0
  6
CONTINUOUS
 62
     7
100
AcDbLine
 10
-654.9279526038572
 20
326.3614373961309
 30
0.0
 11
-655.4477530319964
 21
326.2927172735458
 31
0.0
  0
LINE
  5
175
330
87
100
AcDbEntity
  8
0
  6
CONTINUOUS
 62
     7
100
AcDbLine
 10
-655.4477530319964
 20
326.2927172735458
 30
0.0
 11
-655.6229849655901
 21
326.2368090704208
 31
0.0
  0
LINE
  5
176
330
87
100
AcDbEntity
  8
0
  6
CONTINUOUS
 62
     7
100
AcDbLine
 10
-655.6229849655901
 20
326.2368090704208
 30
0.0
 11
-655.6902457077776
 21
326.2104418829208
 31
0.0
  0
LINE
  5
177
330
87
100
AcDbEntity
  8
0
  6
CONTINUOUS
 62
     7
100
AcDbLine
 10
-655.6902457077776
 20
326.2104418829208
 30
0.0
 11
-655.9622183640276
 21
326.0732348516708
 31
0.0
  0
LINE
  5
178
330
87
100
AcDbEntity
  8
0
  6
CONTINUOUS
 62
     7
100
AcDbLine
 10
-655.9622183640276
 20
326.0732348516708
 30
0.0
 11
-656.2699576218401
 21
325.8443530157338
 31
0.0
  0
LINE
  5
179
330
87
100
AcDbEntity
  8
0
  6
CONTINUOUS
 62
     7
100
AcDbLine
 10
-656.2699576218401
 20
325.8443530157338
 30
0.0
 11
-656.3423758347308
 21
325.775444324328
 31
0.0
  0
LINE
  5
17A
330
87
100
AcDbEntity
  8
0
  6
CONTINUOUS
 62
     7
100
AcDbLine
 10
-656.3423758347308
 20
325.775444324328
 30
0.0
 11
-656.5283499558245
 21
325.5609057501088
 31
0.0
  0
LINE
  5
17B
330
87
100
AcDbEntity
  8
0
  6
CONTINUOUS
 62
     7
100
AcDbLine
 10
-656.5283499558245
 20
325.5609057501088
 30
0.0
 11
-656.7248526413714
 21
325.2396166876088
 31
0.0
  0
LINE
  5
17C
330
87
100
AcDbEntity
  8
0
  6
CONTINUOUS
 62
     7
100
AcDbLine
 10
-656.7248526413714
 20
325.2396166876088
 30
0.0
 11
-656.7762442429339
 21
325.125541980578
 31
0.0
  0
LINE
  5
17D
330
87
100
AcDbEntity
  8
0
  6
CONTINUOUS
 62
     7
100
AcDbLine
 10
-656.7762442429339
 20
325.125541980578
 30
0.0
 11
-656.7979117234026
 21
325.070854480578
 31
0.0
  0
LINE
  5
17E
330
87
100
AcDbEntity
  8
0
  6
CONTINUOUS
 62
     7
100
AcDbLine
 10
-656.7979117234026
 20
325.070854480578
 30
0.0
 11
-656.9180269842764
 21
324.560444834171
 31
0.0
  0
LINE
  5
17F
330
87
100
AcDbEntity
  8
0
  6
CONTINUOUS
 62
     7
100
AcDbLine
 10
-654.8009637705582
 20
326.3614373961359
 30
0.0
 11
-655.332182963637
 21
326.284233386828
 31
0.0
  0
LINE
  5
180
330
87
100
AcDbEntity
  8
0
  6
CONTINUOUS
 62
     1
100
AcDbLine
 10
-655.332182963637
 20
326.284233386828
 30
0.0
 11
-655.511626323012
 21
326.221000964953
 31
0.0
  0
LINE
  5
181
330
87
100
AcDbEntity
  8
0
  6
CONTINUOUS
 62
     1
100
AcDbLine
 10
-655.511626323012
 20
326.221000964953
 30
0.0
 11
-655.7643729050433
 21
326.0945971563588
 31
0.0
  0
LINE
  5
182
330
87
100
AcDbEntity
  8
0
  6
CONTINUOUS
 62
     1
100
AcDbLine
 10
-655.7643729050433
 20
326.0945971563588
 30
0.0
 11
-655.8574210007464
 21
326.035454089953
 31
0.0
  0
LINE
  5
183
330
87
100
AcDbEntity
  8
0
  6
CONTINUOUS
 62
     1
100
AcDbLine
 10
-655.8574210007464
 20
326.035454089953
 30
0.0
 11
-656.1661063034808
 21
325.7756274297958
 31
0.0
  0
LINE
  5
184
330
87
100
AcDbEntity
  8
0
  6
CONTINUOUS
 62
     1
100
AcDbLine
 10
-656.1661063034808
 20
325.7756274297958
 30
0.0
 11
-656.4168692429339
 21
325.455864246203
 31
0.0
  0
LINE
  5
185
330
87
100
AcDbEntity
  8
0
  6
CONTINUOUS
 62
     1
100
AcDbLine
 10
-656.4168692429339
 20
325.455864246203
 30
0.0
 11
-656.5960379441058
 21
325.0976489141708
 31
0.0
  0
LINE
  5
186
330
87
100
AcDbEntity
  8
0
  6
CONTINUOUS
 62
     1
100
AcDbLine
 10
-656.5960379441058
 20
325.0976489141708
 30
0.0
 11
-656.6161795456683
 21
325.042534168078
 31
0.0
  0
LINE
  5
187
330
87
100
AcDbEntity
  8
0
  6
CONTINUOUS
 62
     1
100
AcDbLine
 10
-656.6161795456683
 20
325.042534168078
 30
0.0
 11
-656.6570425827776
 21
324.9117358282338
 31
0.0
  0
LINE
  5
188
330
87
100
AcDbEntity
  8
0
  6
CONTINUOUS
 62
     1
100
AcDbLine
 10
-656.6570425827776
 20
324.9117358282338
 30
0.0
 11
-656.7315712757463
 21
324.361437396135
 31
0.0
  0
LINE
  5
189
330
87
100
AcDbEntity
  8
0
  6
CONTINUOUS
 62
     1
100
AcDbLine
 10
-654.3379526038698
 20
330.2614373959909
 30
0.0
 11
-654.3379526038698
 21
332.2614373959909
 31
0.0
  0
LINE
  5
18A
330
87
100
AcDbEntity
  8
0
  6
CONTINUOUS
 62
     7
100
AcDbLine
 10
-654.9279526038572
 20
326.3614373961309
 30
0.0
 11
-654.8009637705582
 21
326.3614373961359
 31
0.0
  0
LINE
  5
18B
330
87
100
AcDbEntity
  8
0
  6
CONTINUOUS
 62
     7
100
AcDbLine
 10
-656.6180269842753
 20
327.5604448341728
 30
0.0
 11
-656.9180269842764
 21
324.560444834171
 31
0.0
  0
LINE
  5
18C
330
87
100
AcDbEntity
  8
0
  6
CONTINUOUS
 62
     1
100
AcDbLine
 10
-656.9180269842764
 20
324.560444834171
 30
0.0
 11
-656.7315712757463
 21
324.361437396135
 31
0.0
  0
LINE
  5
18D
330
87
100
AcDbEntity
  8
0
  6
CONTINUOUS
 62
     1
100
AcDbLine
 10
-654.6279526038561
 20
327.3614373961309
 30
0.0
 11
-656.6180269842753
 21
327.5604448341728
 31
0.0
  0
LINE
  5
18E
330
87
100
AcDbEntity
  8
0
  6
CONTINUOUS
 62
     7
100
AcDbLine
 10
-657.1157522995745
 20
322.58318358214
 30
0.0
 11
-656.9180269842764
 21
324.560444834171
 31
0.0
  0
LINE
  5
18F
330
87
100
AcDbEntity
  8
0
  6
CONTINUOUS
 62
     1
100
AcDbLine
 10
-657.1479277280905
 20
322.0020841661617
 30
0.0
 11
-656.9928580124651
 21
322.880913074328
 31
0.0
  0
LINE
  5
190
330
87
100
AcDbEntity
  8
0
  6
CONTINUOUS
 62
     1
100
AcDbLine
 10
-656.9928580124651
 20
322.880913074328
 30
0.0
 11
-656.7315712757463
 21
324.361437396135
 31
0.0
  0
LINE
  5
191
330
87
100
AcDbEntity
  8
0
  6
CONTINUOUS
 62
     7
100
AcDbLine
 10
-656.328026984289
 20
330.4604448340328
 30
0.0
 11
-656.6180269842753
 21
327.5604448341728
 31
0.0
  0
LINE
  5
192
330
87
100
AcDbEntity
  8
0
  6
CONTINUOUS
 62
     1
100
AcDbLine
 10
-654.3379526038698
 20
330.2614373959909
 30
0.0
 11
-654.6279526038561
 21
327.3614373961309
 31
0.0
  0
LINE
  5
193
330
87
100
AcDbEntity
  8
0
  6
CONTINUOUS
 62
     7
100
AcDbLine
 10
-655.7521658737933
 20
331.6756518438588
 30
0.0
 11
-655.7764053372539
 21
331.639375397594
 31
0.0
  0
LINE
  5
194
330
87
100
AcDbEntity
  8
0
  6
CONTINUOUS
 62
     7
100
AcDbLine
 10
-654.3379526038698
 20
332.2614373959909
 30
0.0
 11
-655.0184882559897
 21
332.1260620090179
 31
0.0
  0
LINE
  5
195
330
87
100
AcDbEntity
  8
0
  6
CONTINUOUS
 62
     7
100
AcDbLine
 10
-656.1897366364537
 20
331.0108372201021
 30
0.0
 11
-656.328026984289
 21
330.4604448340328
 31
0.0
  0
LINE
  5
196
330
87
100
AcDbEntity
  8
0
  6
CONTINUOUS
 62
     7
100
AcDbLine
 10
-654.8813467819964
 20
332.18621092589
 30
0.0
 11
-655.0184880597408
 21
332.1260653201198
 31
0.0
  0
LINE
  5
197
330
87
100
AcDbEntity
  8
0
  6
CONTINUOUS
 62
     7
100
AcDbLine
 10
-655.1918698522786
 20
332.050025829215
 30
0.0
 11
-655.3855582077776
 21
331.9650805547958
 31
0.0
  0
LINE
  5
198
330
87
100
AcDbEntity
  8
0
  6
CONTINUOUS
 62
     7
100
AcDbLine
 10
-655.9282217819964
 20
331.4742358282338
 30
0.0
 11
-656.1535987062962
 21
331.0748730116388
 31
0.0
  0
LINE
  5
199
330
87
100
AcDbEntity
  8
0
  6
CONTINUOUS
 62
     7
100
AcDbLine
 10
-656.1897366364537
 20
331.0108372201021
 30
0.0
 11
-656.1983023484026
 21
330.995659168078
 31
0.0
  0
LINE
  5
19A
330
87
100
AcDbEntity
  8
0
  6
CONTINUOUS
 62
     7
100
AcDbLine
 10
-655.6799307663714
 20
331.74431639464
 30
0.0
 11
-655.7285479136335
 21
331.6914326983188
 31
0.0
  0
LINE
  5
19B
330
87
100
AcDbEntity
  8
0
  6
CONTINUOUS
 62
     7
100
AcDbLine
 10
-655.7764053372539
 20
331.639375397594
 30
0.0
 11
-655.9282217819964
 21
331.4742358282338
 31
0.0
  0
LINE
  5
19C
330
87
100
AcDbEntity
  8
0
  6
CONTINUOUS
 62
     1
100
AcDbLine
 10
-654.3379526038698
 20
330.2614373959909
 30
0.0
 11
-656.328026984289
 21
330.4604448340328
 31
0.0
  0
LINE
  5
19D
330
87
100
AcDbEntity
  8
0
  6
CONTINUOUS
 62
     1
100
AcDbLine
 10
-651.0023683515137
 20
330.2614373959909
 30
0.0
 11
-650.0169242891752
 21
330.2614373959909
 31
0.0
  0
LINE
  5
19E
330
87
100
AcDbEntity
  8
0
  6
CONTINUOUS
 62
     1
100
AcDbLine
 10
-651.0023683515137
 20
327.3614373961327
 30
0.0
 11
-651.0023683515137
 21
330.2614373959909
 31
0.0
  0
LINE
  5
19F
330
87
100
AcDbEntity
  8
0
  6
CONTINUOUS
 62
     7
100
AcDbLine
 10
-650.7765309497681
 20
332.2614373959909
 30
0.0
 11
-654.3379526038698
 21
332.2614373959909
 31
0.0
  0
LINE
  5
1A0
330
87
100
AcDbEntity
  8
0
  6
CONTINUOUS
 62
     1
100
AcDbLine
 10
-651.0023683515137
 20
330.2614373959909
 30
0.0
 11
-654.3379526038698
 21
330.2614373959909
 31
0.0
  0
LINE
  5
1A1
330
87
100
AcDbEntity
  8
0
  6
CONTINUOUS
 62
     1
100
AcDbLine
 10
-649.8136706276036
 20
331.2614373959909
 30
0.0
 11
-649.8508292038714
 21
331.5366137579208
 31
0.0
  0
LINE
  5
1A2
330
87
100
AcDbEntity
  8
0
  6
CONTINUOUS
 62
     1
100
AcDbLine
 10
-649.8508292038714
 20
331.5366137579208
 30
0.0
 11
-649.8812857468401
 21
331.6295092657338
 31
0.0
  0
LINE
  5
1A3
330
87
100
AcDbEntity
  8
0
  6
CONTINUOUS
 62
     1
100
AcDbLine
 10
-649.8812857468401
 20
331.6295092657338
 30
0.0
 11
-649.9706412155901
 21
331.808647449328
 31
0.0
  0
LINE
  5
1A4
330
87
100
AcDbEntity
  8
0
  6
CONTINUOUS
 62
     1
100
AcDbLine
 10
-649.9706412155901
 20
331.808647449328
 30
0.0
 11
-650.0387869675433
 21
331.9040453985458
 31
0.0
  0
LINE
  5
1A5
330
87
100
AcDbEntity
  8
0
  6
CONTINUOUS
 62
     1
100
AcDbLine
 10
-650.0387869675433
 20
331.9040453985458
 30
0.0
 11
-650.0957022507464
 21
331.968559558703
 31
0.0
  0
LINE
  5
1A6
330
87
100
AcDbEntity
  8
0
  6
CONTINUOUS
 62
     1
100
AcDbLine
 10
-650.0957022507464
 20
331.968559558703
 30
0.0
 11
-650.249663432387
 21
332.098442371203
 31
0.0
  0
LINE
  5
1A7
330
87
100
AcDbEntity
  8
0
  6
CONTINUOUS
 62
     1
100
AcDbLine
 10
-650.249663432387
 20
332.098442371203
 30
0.0
 11
-650.4221182663714
 21
332.191215808703
 31
0.0
  0
LINE
  5
1A8
330
87
100
AcDbEntity
  8
0
  6
CONTINUOUS
 62
     1
100
AcDbLine
 10
-650.4221182663714
 20
332.191215808703
 30
0.0
 11
-650.5115958054339
 21
332.22283201964
 31
0.0
  0
LINE
  5
1A9
330
87
100
AcDbEntity
  8
0
  6
CONTINUOUS
 62
     1
100
AcDbLine
 10
-650.5115958054339
 20
332.22283201964
 30
0.0
 11
-650.612212260512
 21
332.24675780089
 31
0.0
  0
LINE
  5
1AA
330
87
100
AcDbEntity
  8
0
  6
CONTINUOUS
 62
     7
100
AcDbLine
 10
-650.612212260512
 20
332.24675780089
 30
0.0
 11
-650.7765309497681
 21
332.2614373959909
 31
0.0
  0
LINE
  5
1AB
330
87
100
AcDbEntity
  8
0
  6
CONTINUOUS
 62
     1
100
AcDbLine
 10
-649.8136706276036
 20
331.2614373959909
 30
0.0
 11
-649.8835440476214
 21
331.2172778204208
 31
0.0
  0
LINE
  5
1AC
330
87
100
AcDbEntity
  8
0
  6
CONTINUOUS
 62
     1
100
AcDbLine
 10
-649.8835440476214
 20
331.2172778204208
 30
0.0
 11
-649.903960307387
 21
331.1833422735458
 31
0.0
  0
LINE
  5
1AD
330
87
100
AcDbEntity
  8
0
  6
CONTINUOUS
 62
     1
100
AcDbLine
 10
-649.903960307387
 20
331.1833422735458
 30
0.0
 11
-649.9397574265276
 21
331.0888598516708
 31
0.0
  0
LINE
  5
1AE
330
87
100
AcDbEntity
  8
0
  6
CONTINUOUS
 62
     1
100
AcDbLine
 10
-649.9397574265276
 20
331.0888598516708
 30
0.0
 11
-649.9684439499651
 21
330.962700183703
 31
0.0
  0
LINE
  5
1AF
330
87
100
AcDbEntity
  8
0
  6
CONTINUOUS
 62
     1
100
AcDbLine
 10
-649.9684439499651
 20
330.962700183703
 30
0.0
 11
-649.990141948012
 21
330.8105395391708
 31
0.0
  0
LINE
  5
1B0
330
87
100
AcDbEntity
  8
0
  6
CONTINUOUS
 62
     1
100
AcDbLine
 10
-649.990141948012
 20
330.8105395391708
 30
0.0
 11
-650.0052176316058
 21
330.6385424688588
 31
0.0
  0
LINE
  5
1B1
330
87
100
AcDbEntity
  8
0
  6
CONTINUOUS
 62
     1
100
AcDbLine
 10
-650.0052176316058
 20
330.6385424688588
 30
0.0
 11
-650.0103751023089
 21
330.547172839953
 31
0.0
  0
LINE
  5
1B2
330
87
100
AcDbEntity
  8
0
  6
CONTINUOUS
 62
     1
100
AcDbLine
 10
-650.0103751023089
 20
330.547172839953
 30
0.0
 11
-650.0169242891752
 21
330.2614373959909
 31
0.0
  0
LINE
  5
1B3
330
87
100
AcDbEntity
  8
0
  6
CONTINUOUS
 62
     7
100
AcDbLine
 10
-649.307768901137
 20
326.374321277453
 30
0.0
 11
-649.2970594882536
 21
326.3726896494509
 31
0.0
  0
LINE
  5
1B4
330
87
100
AcDbEntity
  8
0
  6
CONTINUOUS
 62
     7
100
AcDbLine
 10
-649.2970594882536
 20
326.3726896494509
 30
0.0
 11
-649.2857394884959
 21
326.3709649957477
 31
0.0
  0
LINE
  5
1B5
330
87
100
AcDbEntity
  8
0
  6
CONTINUOUS
 62
     7
100
AcDbLine
 10
-649.2857394884959
 20
326.3709649957477
 30
0.0
 11
-649.2857352097308
 21
326.3709643438588
 31
0.0
  0
LINE
  5
1B6
330
87
100
AcDbEntity
  8
0
  6
CONTINUOUS
 62
     7
100
AcDbLine
 10
-649.4235831101214
 20
326.3709643438588
 30
0.0
 11
-649.1423007491921
 21
326.3614373961368
 31
0.0
  0
LINE
  5
1B7
330
87
100
AcDbEntity
  8
0
  6
CONTINUOUS
 62
     1
100
AcDbLine
 10
-647.5119009812151
 20
327.3614428594838
 30
0.0
 11
-650.0169242891752
 21
327.3614373961391
 31
0.0
  0
LINE
  5
1B8
330
87
100
AcDbEntity
  8
0
  6
CONTINUOUS
 62
     1
100
AcDbLine
 10
-644.7979422387925
 20
327.3614428594838
 30
0.0
 11
-647.5119009812151
 21
327.3614428594838
 31
0.0
  0
LINE
  5
1B9
330
87
100
AcDbEntity
  8
0
  6
CONTINUOUS
 62
     7
100
AcDbLine
 10
-641.8414059889037
 20
332.2614373959909
 30
0.0
 11
-641.9730215866839
 21
332.22283201964
 31
0.0
  0
LINE
  5
1BA
330
87
100
AcDbEntity
  8
0
  6
CONTINUOUS
 62
     1
100
AcDbLine
 10
-641.9730215866839
 20
332.22283201964
 30
0.0
 11
-642.0174551804339
 21
332.191215808703
 31
0.0
  0
LINE
  5
1BB
330
87
100
AcDbEntity
  8
0
  6
CONTINUOUS
 62
     1
100
AcDbLine
 10
-642.0174551804339
 20
332.191215808703
 30
0.0
 11
-642.0800772507464
 21
332.1280444219838
 31
0.0
  0
LINE
  5
1BC
330
87
100
AcDbEntity
  8
0
  6
CONTINUOUS
 62
     1
100
AcDbLine
 10
-642.0800772507464
 20
332.1280444219838
 30
0.0
 11
-642.1031180222308
 21
332.098442371203
 31
0.0
  0
LINE
  5
1BD
330
87
100
AcDbEntity
  8
0
  6
CONTINUOUS
 62
     1
100
AcDbLine
 10
-642.1031180222308
 20
332.098442371203
 30
0.0
 11
-642.179595073012
 21
331.968559558703
 31
0.0
  0
LINE
  5
1BE
330
87
100
AcDbEntity
  8
0
  6
CONTINUOUS
 62
     1
100
AcDbLine
 10
-642.179595073012
 20
331.968559558703
 30
0.0
 11
-642.2417288620745
 21
331.808647449328
 31
0.0
  0
LINE
  5
1BF
330
87
100
AcDbEntity
  8
0
  6
CONTINUOUS
 62
     1
100
AcDbLine
 10
-642.2417288620745
 20
331.808647449328
 30
0.0
 11
-642.2861014206683
 21
331.6295092657338
 31
0.0
  0
LINE
  5
1C0
330
87
100
AcDbEntity
  8
0
  6
CONTINUOUS
 62
     1
100
AcDbLine
 10
-642.2861014206683
 20
331.6295092657338
 30
0.0
 11
-642.2910757859026
 21
331.601982410265
 31
0.0
  0
LINE
  5
1C1
330
87
100
AcDbEntity
  8
0
  6
CONTINUOUS
 62
     1
100
AcDbLine
 10
-642.2910757859026
 20
331.601982410265
 30
0.0
 11
-642.3012076218401
 21
331.5366137579208
 31
0.0
  0
LINE
  5
1C2
330
87
100
AcDbEntity
  8
0
  6
CONTINUOUS
 62
     1
100
AcDbLine
 10
-642.3012076218401
 20
331.5366137579208
 30
0.0
 11
-642.3196668584696
 21
331.2614373959909
 31
0.0
  0
LINE
  5
1C3
330
87
100
AcDbEntity
  8
0
  6
CONTINUOUS
 62
     1
100
AcDbLine
 10
-640.7979277280338
 20
328.7614373959909
 30
0.0
 11
-641.7979277280338
 21
328.7614373959909
 31
0.0
  0
LINE
  5
1C4
330
87
100
AcDbEntity
  8
0
  6
CONTINUOUS
 62
     1
100
AcDbLine
 10
-647.5119009812151
 20
331.2614672735458
 30
0.0
 11
-649.8136706276036
 21
331.2614373959909
 31
0.0
  0
LINE
  5
1C5
330
87
100
AcDbEntity
  8
0
  6
CONTINUOUS
 62
     1
100
AcDbLine
 10
-644.7979422387925
 20
331.2614672735458
 30
0.0
 11
-647.5119009812151
 21
331.2614672735458
 31
0.0
  0
LINE
  5
1C6
330
87
100
AcDbEntity
  8
0
  6
CONTINUOUS
 62
     7
100
AcDbLine
 10
-642.7979277280319
 20
326.3614373961341
 30
0.0
 11
-645.1479277280869
 21
326.3614373961359
 31
0.0
  0
LINE
  5
1C7
330
87
100
AcDbEntity
  8
0
  6
CONTINUOUS
 62
     1
100
AcDbLine
 10
-641.8557961018796
 20
331.2614373959909
 30
0.0
 11
-642.3196668584696
 21
331.2614373959909
 31
0.0
  0
LINE
  5
1C8
330
87
100
AcDbEntity
  8
0
  6
CONTINUOUS
 62
     7
100
AcDbLine
 10
-641.7979277280356
 20
331.1698493217227
 30
0.0
 11
-641.7979277280338
 21
328.7614373959909
 31
0.0
  0
LINE
  5
1C9
330
87
100
AcDbEntity
  8
0
  6
CONTINUOUS
 62
     1
100
AcDbLine
 10
-645.1479277280869
 20
324.3614373961318
 30
0.0
 11
-645.1479277280869
 21
326.3614373961359
 31
0.0
  0
LINE
  5
1CA
330
87
100
AcDbEntity
  8
0
  6
CONTINUOUS
 62
     7
100
AcDbLine
 10
-644.974761088637
 20
332.2614672735458
 30
0.0
 11
-650.7765309497681
 21
332.2614373959909
 31
0.0
  0
LINE
  5
1CB
330
87
100
AcDbEntity
  8
0
  6
CONTINUOUS
 62
     7
100
AcDbLine
 10
-643.7979285028123
 20
332.2614473448398
 30
0.0
 11
-644.974761088637
 21
332.2614672735458
 31
0.0
  0
LINE
  5
1CC
330
87
100
AcDbEntity
  8
0
  6
CONTINUOUS
 62
     1
100
AcDbLine
 10
-642.3196668584678
 20
327.3614373961368
 30
0.0
 11
-642.3196668584696
 21
331.2614373959909
 31
0.0
  0
LINE
  5
1CD
330
87
100
AcDbEntity
  8
0
  6
CONTINUOUS
 62
     1
100
AcDbLine
 10
-641.7979277280319
 20
327.3614373961341
 30
0.0
 11
-642.3196668584678
 21
327.3614373961368
 31
0.0
  0
LINE
  5
1CE
330
87
100
AcDbEntity
  8
0
  6
CONTINUOUS
 62
     1
100
AcDbLine
 10
-644.7979277280319
 20
327.3614373961341
 30
0.0
 11
-642.3196668584678
 21
327.3614373961368
 31
0.0
  0
LINE
  5
1CF
330
87
100
AcDbEntity
  8
0
  6
CONTINUOUS
 62
     1
100
AcDbLine
 10
-640.7979277280319
 20
327.1898645208808
 30
0.0
 11
-640.8620596726214
 21
326.6501391485458
 31
0.0
  0
LINE
  5
1D0
330
87
100
AcDbEntity
  8
0
  6
CONTINUOUS
 62
     1
100
AcDbLine
 10
-640.8620596726214
 20
326.6501391485458
 30
0.0
 11
-641.0330496628558
 21
326.161430652453
 31
0.0
  0
LINE
  5
1D1
330
87
100
AcDbEntity
  8
0
  6
CONTINUOUS
 62
     1
100
AcDbLine
 10
-641.0330496628558
 20
326.161430652453
 30
0.0
 11
-641.560698588637
 21
325.3817065313588
 31
0.0
  0
LINE
  5
1D2
330
87
100
AcDbEntity
  8
0
  6
CONTINUOUS
 62
     1
100
AcDbLine
 10
-641.560698588637
 20
325.3817065313588
 30
0.0
 11
-641.8646231491839
 21
325.079521472765
 31
0.0
  0
LINE
  5
1D3
330
87
100
AcDbEntity
  8
0
  6
CONTINUOUS
 62
     1
100
AcDbLine
 10
-641.8646231491839
 20
325.079521472765
 30
0.0
 11
-642.1752615769183
 21
324.8182299688588
 31
0.0
  0
LINE
  5
1D4
330
87
100
AcDbEntity
  8
0
  6
CONTINUOUS
 62
     1
100
AcDbLine
 10
-642.1752615769183
 20
324.8182299688588
 30
0.0
 11
-642.4868460495745
 21
324.583427722765
 31
0.0
  0
LINE
  5
1D5
330
87
100
AcDbEntity
  8
0
  6
CONTINUOUS
 62
     1
100
AcDbLine
 10
-642.4868460495745
 20
324.583427722765
 30
0.0
 11
-642.7979277280301
 21
324.3614373961341
 31
0.0
  0
LINE
  5
1D6
330
87
100
AcDbEntity
  8
0
  6
CONTINUOUS
 62
     1
100
AcDbLine
 10
-642.7979277280319
 20
326.3614373961341
 30
0.0
 11
-642.7979277280301
 21
324.3614373961341
 31
0.0
  0
LINE
  5
1D7
330
87
100
AcDbEntity
  8
0
  6
CONTINUOUS
 62
     1
100
AcDbLine
 10
-642.593901713637
 20
326.456962879015
 30
0.0
 11
-642.7120282051801
 21
326.3785297494128
 31
0.0
  0
LINE
  5
1D8
330
87
100
AcDbEntity
  8
0
  6
CONTINUOUS
 62
     1
100
AcDbLine
 10
-642.7979277280301
 20
324.3614373961341
 30
0.0
 11
-645.1479277280869
 21
324.3614373961318
 31
0.0
  0
LINE
  5
1D9
330
87
100
AcDbEntity
  8
0
  6
CONTINUOUS
 62
     1
100
AcDbLine
 10
-640.7979277280319
 20
327.1898645208808
 30
0.0
 11
-641.7979277280319
 21
327.1898645208798
 31
0.0
  0
LINE
  5
1DA
330
87
100
AcDbEntity
  8
0
  6
CONTINUOUS
 62
     7
100
AcDbLine
 10
-641.7979277280319
 20
327.1898645208798
 30
0.0
 11
-641.8134451706683
 21
326.9769213751088
 31
0.0
  0
LINE
  5
1DB
330
87
100
AcDbEntity
  8
0
  6
CONTINUOUS
 62
     1
100
AcDbLine
 10
-641.8134451706683
 20
326.9769213751088
 30
0.0
 11
-641.8155203659808
 21
326.962822254015
 31
0.0
  0
LINE
  5
1DC
330
87
100
AcDbEntity
  8
0
  6
CONTINUOUS
 62
     1
100
AcDbLine
 10
-641.8155203659808
 20
326.962822254015
 30
0.0
 11
-641.8300162155901
 21
326.8802416876088
 31
0.0
  0
LINE
  5
1DD
330
87
100
AcDbEntity
  8
0
  6
CONTINUOUS
 62
     1
100
AcDbLine
 10
-641.8300162155901
 20
326.8802416876088
 30
0.0
 11
-641.9154959519183
 21
326.572685535265
 31
0.0
  0
LINE
  5
1DE
330
87
100
AcDbEntity
  8
0
  6
CONTINUOUS
 62
     1
100
AcDbLine
 10
-641.9154959519183
 20
326.572685535265
 30
0.0
 11
-642.1570731003558
 21
325.992485339953
 31
0.0
  0
LINE
  5
1DF
330
87
100
AcDbEntity
  8
0
  6
CONTINUOUS
 62
     1
100
AcDbLine
 10
-642.1570731003558
 20
325.992485339953
 30
0.0
 11
-642.1874380905901
 21
325.924614246203
 31
0.0
  0
LINE
  5
1E0
330
87
100
AcDbEntity
  8
0
  6
CONTINUOUS
 62
     1
100
AcDbLine
 10
-642.1874380905901
 20
325.924614246203
 30
0.0
 11
-642.3312979538714
 21
325.59539061339
 31
0.0
  0
LINE
  5
1E1
330
87
100
AcDbEntity
  8
0
  6
CONTINUOUS
 62
     1
100
AcDbLine
 10
-642.3312979538714
 20
325.59539061339
 30
0.0
 11
-642.4866019089495
 21
325.2131274297958
 31
0.0
  0
LINE
  5
1E2
330
87
100
AcDbEntity
  8
0
  6
CONTINUOUS
 62
     1
100
AcDbLine
 10
-642.4866019089495
 20
325.2131274297958
 30
0.0
 11
-642.5126334030901
 21
325.1457446172958
 31
0.0
  0
LINE
  5
1E3
330
87
100
AcDbEntity
  8
0
  6
CONTINUOUS
 62
     1
100
AcDbLine
 10
-642.5126334030901
 20
325.1457446172958
 30
0.0
 11
-642.6423941452776
 21
324.7974780157338
 31
0.0
  0
LINE
  5
1E4
330
87
100
AcDbEntity
  8
0
  6
CONTINUOUS
 62
     1
100
AcDbLine
 10
-642.6423941452776
 20
324.7974780157338
 30
0.0
 11
-642.7979277280301
 21
324.3614373961341
 31
0.0
  0
LINE
  5
1E5
330
87
100
AcDbEntity
  8
0
  6
CONTINUOUS
 62
     7
100
AcDbLine
 10
-641.7979277280319
 20
327.1898645208798
 30
0.0
 11
-641.7979277280338
 21
328.7614373959909
 31
0.0
  0
LINE
  5
1E6
330
87
100
AcDbEntity
  8
0
  6
CONTINUOUS
 62
     1
100
AcDbLine
 10
-644.7979277280319
 20
331.2614373959909
 30
0.0
 11
-642.3196668584696
 21
331.2614373959909
 31
0.0
  0
LINE
  5
1E7
330
87
100
AcDbEntity
  8
0
  6
CONTINUOUS
 62
     1
100
AcDbLine
 10
-641.8557961018796
 20
331.2614373959909
 30
0.0
 11
-641.8117667038714
 21
331.238334949328
 31
0.0
  0
LINE
  5
1E8
330
87
100
AcDbEntity
  8
0
  6
CONTINUOUS
 62
     7
100
AcDbLine
 10
-641.8117667038714
 20
331.238334949328
 30
0.0
 11
-641.7979277280356
 21
331.1698493217227
 31
0.0
  0
LINE
  5
1E9
330
87
100
AcDbEntity
  8
0
  6
CONTINUOUS
 62
     7
100
AcDbLine
 10
-641.7979277280356
 20
331.1698493217227
 30
0.0
 11
-641.7593375046526
 21
331.4349291876088
 31
0.0
  0
LINE
  5
1EA
330
87
100
AcDbEntity
  8
0
  6
CONTINUOUS
 62
     1
100
AcDbLine
 10
-641.7593375046526
 20
331.4349291876088
 30
0.0
 11
-641.7277212937151
 21
331.524467761828
 31
0.0
  0
LINE
  5
1EB
330
87
100
AcDbEntity
  8
0
  6
CONTINUOUS
 62
     1
100
AcDbLine
 10
-641.7277212937151
 20
331.524467761828
 30
0.0
 11
-641.6645193894183
 21
331.65056639464
 31
0.0
  0
LINE
  5
1EC
330
87
100
AcDbEntity
  8
0
  6
CONTINUOUS
 62
     1
100
AcDbLine
 10
-641.6645193894183
 20
331.65056639464
 30
0.0
 11
-641.634917338637
 21
331.6970141485458
 31
0.0
  0
LINE
  5
1ED
330
87
100
AcDbEntity
  8
0
  6
CONTINUOUS
 62
     1
100
AcDbLine
 10
-641.634917338637
 20
331.6970141485458
 30
0.0
 11
-641.505034526137
 21
331.8510668829208
 31
0.0
  0
LINE
  5
1EE
330
87
100
AcDbEntity
  8
0
  6
CONTINUOUS
 62
     1
100
AcDbLine
 10
-641.505034526137
 20
331.8510668829208
 30
0.0
 11
-641.3451529343401
 21
331.9761889532338
 31
0.0
  0
LINE
  5
1EF
330
87
100
AcDbEntity
  8
0
  6
CONTINUOUS
 62
     1
100
AcDbLine
 10
-641.3451529343401
 20
331.9761889532338
 30
0.0
 11
-641.1660147507464
 21
332.0655444219838
 31
0.0
  0
LINE
  5
1F0
330
87
100
AcDbEntity
  8
0
  6
CONTINUOUS
 62
     1
100
AcDbLine
 10
-641.1660147507464
 20
332.0655444219838
 30
0.0
 11
-641.1384878952776
 21
332.075615222765
 31
0.0
  0
LINE
  5
1F1
330
87
100
AcDbEntity
  8
0
  6
CONTINUOUS
 62
     1
100
AcDbLine
 10
-641.1384878952776
 20
332.075615222765
 30
0.0
 11
-641.0730887253558
 21
332.096000964953
 31
0.0
  0
LINE
  5
1F2
330
87
100
AcDbEntity
  8
0
  6
CONTINUOUS
 62
     1
100
AcDbLine
 10
-641.0730887253558
 20
332.096000964953
 30
0.0
 11
-640.7979277280338
 21
332.1332140920149
 31
0.0
  0
LINE
  5
1F3
330
87
100
AcDbEntity
  8
0
  6
CONTINUOUS
 62
     1
100
AcDbLine
 10
-641.8557961018796
 20
331.2614373959909
 30
0.0
 11
-641.8194266159808
 21
331.5366137579208
 31
0.0
  0
LINE
  5
1F4
330
87
100
AcDbEntity
  8
0
  6
CONTINUOUS
 62
     1
100
AcDbLine
 10
-641.8194266159808
 20
331.5366137579208
 30
0.0
 11
-641.7896414597308
 21
331.6295092657338
 31
0.0
  0
LINE
  5
1F5
330
87
100
AcDbEntity
  8
0
  6
CONTINUOUS
 62
     1
100
AcDbLine
 10
-641.7896414597308
 20
331.6295092657338
 30
0.0
 11
-641.7022391159808
 21
331.808647449328
 31
0.0
  0
LINE
  5
1F6
330
87
100
AcDbEntity
  8
0
  6
CONTINUOUS
 62
     1
100
AcDbLine
 10
-641.7022391159808
 20
331.808647449328
 30
0.0
 11
-641.5798636276995
 21
331.968559558703
 31
0.0
  0
LINE
  5
1F7
330
87
100
AcDbEntity
  8
0
  6
CONTINUOUS
 62
     1
100
AcDbLine
 10
-641.5798636276995
 20
331.968559558703
 30
0.0
 11
-641.4292288620745
 21
332.098442371203
 31
0.0
  0
LINE
  5
1F8
330
87
100
AcDbEntity
  8
0
  6
CONTINUOUS
 62
     1
100
AcDbLine
 10
-641.4292288620745
 20
332.098442371203
 30
0.0
 11
-641.2604666550433
 21
332.191215808703
 31
0.0
  0
LINE
  5
1F9
330
87
100
AcDbEntity
  8
0
  6
CONTINUOUS
 62
     1
100
AcDbLine
 10
-641.2604666550433
 20
332.191215808703
 30
0.0
 11
-641.1729117234026
 21
332.22283201964
 31
0.0
  0
LINE
  5
1FA
330
87
100
AcDbEntity
  8
0
  6
CONTINUOUS
 62
     7
100
AcDbLine
 10
-641.1729117234026
 20
332.22283201964
 30
0.0
 11
-640.9136644757218
 21
332.2614373959909
 31
0.0
  0
LINE
  5
1FB
330
87
100
AcDbEntity
  8
0
  6
CONTINUOUS
 62
     7
100
AcDbLine
 10
-643.7979277280319
 20
332.2614373959909
 30
0.0
 11
-641.8414059889037
 21
332.2614373959909
 31
0.0
  0
LINE
  5
1FC
330
87
100
AcDbEntity
  8
0
  6
CONTINUOUS
 62
     7
100
AcDbLine
 10
-644.7979277280319
 20
327.3614373961341
 30
0.0
 11
-644.7979277280319
 21
331.2614373959909
 31
0.0
  0
LINE
  5
1FD
330
87
100
AcDbEntity
  8
0
  6
CONTINUOUS
 62
     7
100
AcDbLine
 10
-640.9136644757218
 20
332.2614373959909
 30
0.0
 11
-641.8414059889037
 21
332.2614373959909
 31
0.0
  0
LINE
  5
1FE
330
87
100
AcDbEntity
  8
0
  6
CONTINUOUS
 62
     1
100
AcDbLine
 10
-625.5642841804474
 20
324.3614373961391
 30
0.0
 11
-637.1479277280978
 21
324.3614373961409
 31
0.0
  0
LINE
  5
1FF
330
87
100
AcDbEntity
  8
0
  6
CONTINUOUS
 62
     7
100
AcDbLine
 10
-627.4948916866488
 20
326.36143739614
 30
0.0
 11
-630.0768729050433
 21
326.3614428594838
 31
0.0
  0
LINE
  5
200
330
87
100
AcDbEntity
  8
0
  6
CONTINUOUS
 62
     7
100
AcDbLine
 10
-633.3211050827776
 20
326.3614428594838
 30
0.0
 11
-637.1479277280978
 21
326.3614373961409
 31
0.0
  0
LINE
  5
201
330
87
100
AcDbEntity
  8
0
  6
CONTINUOUS
 62
     7
100
AcDbLine
 10
-630.0768729050433
 20
326.3614428594838
 30
0.0
 11
-633.3211050827776
 21
326.3614428594838
 31
0.0
  0
LINE
  5
202
330
87
100
AcDbEntity
  8
0
  6
CONTINUOUS
 62
     7
100
AcDbLine
 10
-625.1479277280978
 20
322.0020841661617
 30
0.0
 11
-625.1479277280941
 21
308.5897047034878
 31
0.0
  0
LINE
  5
203
330
87
100
AcDbEntity
  8
0
  6
CONTINUOUS
 62
     7
100
AcDbLine
 10
-625.1543875534808
 20
322.2611010626088
 30
0.0
 11
-625.1479277280978
 21
322.0020841661617
 31
0.0
  0
LINE
  5
204
330
87
100
AcDbEntity
  8
0
  6
CONTINUOUS
 62
     1
100
AcDbLine
 10
-637.7761885975997
 20
331.2614373959909
 30
0.0
 11
-635.2979277280319
 21
331.2614373959909
 31
0.0
  0
LINE
  5
205
330
87
100
AcDbEntity
  8
0
  6
CONTINUOUS
 62
     7
100
AcDbLine
 10
-635.2979277280319
 20
327.3614373961409
 30
0.0
 11
-635.2979277280319
 21
331.2614373959909
 31
0.0
  0
LINE
  5
206
330
87
100
AcDbEntity
  8
0
  6
CONTINUOUS
 62
     7
100
AcDbLine
 10
-631.5193245064766
 20
332.2614373959909
 30
0.0
 11
-634.0768729050433
 21
332.2614672735458
 31
0.0
  0
LINE
  5
207
330
87
100
AcDbEntity
  8
0
  6
CONTINUOUS
 62
     7
100
AcDbLine
 10
-634.0768729050433
 20
332.2614672735458
 30
0.0
 11
-636.2979219578137
 21
332.2614378921398
 31
0.0
  0
LINE
  5
208
330
87
100
AcDbEntity
  8
0
  6
CONTINUOUS
 62
     7
100
AcDbLine
 10
-637.1479277280978
 20
326.3614373961409
 30
0.0
 11
-637.2979277280319
 21
326.3614373961368
 31
0.0
  0
LINE
  5
209
330
87
100
AcDbEntity
  8
0
  6
CONTINUOUS
 62
     7
100
AcDbLine
 10
-638.2544494671638
 20
332.2614373959909
 30
0.0
 11
-639.1821909803439
 21
332.2614373959909
 31
0.0
  0
LINE
  5
20A
330
87
100
AcDbEntity
  8
0
  6
CONTINUOUS
 62
     7
100
AcDbLine
 10
-638.2544494671638
 20
332.2614373959909
 30
0.0
 11
-636.2979277280319
 21
332.2614373959909
 31
0.0
  0
LINE
  5
20B
330
87
100
AcDbEntity
  8
0
  6
CONTINUOUS
 62
     1
100
AcDbLine
 10
-639.2979277280338
 20
332.133214092014
 30
0.0
 11
-639.0227652390276
 21
332.096000964953
 31
0.0
  0
LINE
  5
20C
330
87
100
AcDbEntity
  8
0
  6
CONTINUOUS
 62
     1
100
AcDbLine
 10
-639.0227652390276
 20
332.096000964953
 30
0.0
 11
-638.9573660691058
 21
332.075615222765
 31
0.0
  0
LINE
  5
20D
330
87
100
AcDbEntity
  8
0
  6
CONTINUOUS
 62
     1
100
AcDbLine
 10
-638.9573660691058
 20
332.075615222765
 30
0.0
 11
-638.929839213637
 21
332.0655444219838
 31
0.0
  0
LINE
  5
20E
330
87
100
AcDbEntity
  8
0
  6
CONTINUOUS
 62
     1
100
AcDbLine
 10
-638.929839213637
 20
332.0655444219838
 30
0.0
 11
-638.7507315476214
 21
331.9761889532338
 31
0.0
  0
LINE
  5
20F
330
87
100
AcDbEntity
  8
0
  6
CONTINUOUS
 62
     1
100
AcDbLine
 10
-638.7507315476214
 20
331.9761889532338
 30
0.0
 11
-638.5908194382464
 21
331.8510668829208
 31
0.0
  0
LINE
  5
210
330
87
100
AcDbEntity
  8
0
  6
CONTINUOUS
 62
     1
100
AcDbLine
 10
-638.5908194382464
 20
331.8510668829208
 30
0.0
 11
-638.4609366257464
 21
331.6970141485458
 31
0.0
  0
LINE
  5
211
330
87
100
AcDbEntity
  8
0
  6
CONTINUOUS
 62
     1
100
AcDbLine
 10
-638.4609366257464
 20
331.6970141485458
 30
0.0
 11
-638.4313345749651
 21
331.65056639464
 31
0.0
  0
LINE
  5
212
330
87
100
AcDbEntity
  8
0
  6
CONTINUOUS
 62
     1
100
AcDbLine
 10
-638.4313345749651
 20
331.65056639464
 30
0.0
 11
-638.3681326706683
 21
331.524467761828
 31
0.0
  0
LINE
  5
213
330
87
100
AcDbEntity
  8
0
  6
CONTINUOUS
 62
     1
100
AcDbLine
 10
-638.3681326706683
 20
331.524467761828
 30
0.0
 11
-638.3365469773089
 21
331.4349291876088
 31
0.0
  0
LINE
  5
214
330
87
100
AcDbEntity
  8
0
  6
CONTINUOUS
 62
     7
100
AcDbLine
 10
-638.3365469773089
 20
331.4349291876088
 30
0.0
 11
-638.2979277280356
 21
331.1698493217209
 31
0.0
  0
LINE
  5
215
330
87
100
AcDbEntity
  8
0
  6
CONTINUOUS
 62
     1
100
AcDbLine
 10
-637.7761885975997
 20
331.2614373959909
 30
0.0
 11
-638.2400593541897
 21
331.2614373959909
 31
0.0
  0
LINE
  5
216
330
87
100
AcDbEntity
  8
0
  6
CONTINUOUS
 62
     1
100
AcDbLine
 10
-639.2979277280338
 20
332.133214092014
 30
0.0
 11
-639.2702627976214
 21
332.2291186407338
 31
0.0
  0
LINE
  5
217
330
87
100
AcDbEntity
  8
0
  6
CONTINUOUS
 62
     1
100
AcDbLine
 10
-639.2702627976214
 20
332.2291186407338
 30
0.0
 11
-639.1821909803439
 21
332.2614373959909
 31
0.0
  0
LINE
  5
218
330
87
100
AcDbEntity
  8
0
  6
CONTINUOUS
 62
     1
100
AcDbLine
 10
-640.9136644757218
 20
332.2614373959909
 30
0.0
 11
-640.8256216843401
 21
332.2291186407338
 31
0.0
  0
LINE
  5
219
330
87
100
AcDbEntity
  8
0
  6
CONTINUOUS
 62
     1
100
AcDbLine
 10
-640.8256216843401
 20
332.2291186407338
 30
0.0
 11
-640.7979277280338
 21
332.1332140920149
 31
0.0
  0
LINE
  5
21A
330
87
100
AcDbEntity
  8
0
  6
CONTINUOUS
 62
     1
100
AcDbLine
 10
-640.7979277280319
 20
327.1898645208808
 30
0.0
 11
-640.7979277280338
 21
328.7614373959909
 31
0.0
  0
LINE
  5
21B
330
87
100
AcDbEntity
  8
0
  6
CONTINUOUS
 62
     7
100
AcDbLine
 10
-640.9136644757218
 20
332.2614373959909
 30
0.0
 11
-639.1821909803439
 21
332.2614373959909
 31
0.0
  0
LINE
  5
21C
330
87
100
AcDbEntity
  8
0
  6
CONTINUOUS
 62
     1
100
AcDbLine
 10
-632.482184828641
 20
331.2614373959909
 30
0.0
 11
-634.7839651901995
 21
331.2614672735458
 31
0.0
  0
LINE
  5
21D
330
87
100
AcDbEntity
  8
0
  6
CONTINUOUS
 62
     1
100
AcDbLine
 10
-634.7839651901995
 20
331.2614672735458
 30
0.0
 11
-635.2979416361231
 21
331.2614597189318
 31
0.0
  0
LINE
  5
21E
330
87
100
AcDbEntity
  8
0
  6
CONTINUOUS
 62
     1
100
AcDbLine
 10
-638.2979277280319
 20
327.189864520883
 30
0.0
 11
-639.2979277280319
 21
327.1898645208817
 31
0.0
  0
LINE
  5
21F
330
87
100
AcDbEntity
  8
0
  6
CONTINUOUS
 62
     1
100
AcDbLine
 10
-639.2979277280319
 20
327.1898645208817
 30
0.0
 11
-639.2979277280338
 21
328.7614373959909
 31
0.0
  0
LINE
  5
220
330
87
100
AcDbEntity
  8
0
  6
CONTINUOUS
 62
     1
100
AcDbLine
 10
-637.4809561569964
 20
326.437553699328
 30
0.0
 11
-637.3841935020137
 21
326.3785981867068
 31
0.0
  0
LINE
  5
221
330
87
100
AcDbEntity
  8
0
  6
CONTINUOUS
 62
     1
100
AcDbLine
 10
-637.2979277280301
 20
324.3614373961368
 30
0.0
 11
-637.5832205612933
 21
325.1457446172958
 31
0.0
  0
LINE
  5
222
330
87
100
AcDbEntity
  8
0
  6
CONTINUOUS
 62
     1
100
AcDbLine
 10
-637.5832205612933
 20
325.1457446172958
 30
0.0
 11
-637.609282573012
 21
325.2131274297958
 31
0.0
  0
LINE
  5
223
330
87
100
AcDbEntity
  8
0
  6
CONTINUOUS
 62
     1
100
AcDbLine
 10
-637.609282573012
 20
325.2131274297958
 30
0.0
 11
-637.9084158737933
 21
325.924614246203
 31
0.0
  0
LINE
  5
224
330
87
100
AcDbEntity
  8
0
  6
CONTINUOUS
 62
     1
100
AcDbLine
 10
-637.9084158737933
 20
325.924614246203
 30
0.0
 11
-637.9387808640276
 21
325.992485339953
 31
0.0
  0
LINE
  5
225
330
87
100
AcDbEntity
  8
0
  6
CONTINUOUS
 62
     1
100
AcDbLine
 10
-637.9387808640276
 20
325.992485339953
 30
0.0
 11
-638.1803580124651
 21
326.572685535265
 31
0.0
  0
LINE
  5
226
330
87
100
AcDbEntity
  8
0
  6
CONTINUOUS
 62
     1
100
AcDbLine
 10
-638.1803580124651
 20
326.572685535265
 30
0.0
 11
-638.2658682663714
 21
326.8802416876088
 31
0.0
  0
LINE
  5
227
330
87
100
AcDbEntity
  8
0
  6
CONTINUOUS
 62
     1
100
AcDbLine
 10
-638.2658682663714
 20
326.8802416876088
 30
0.0
 11
-638.2803335984026
 21
326.962822254015
 31
0.0
  0
LINE
  5
228
330
87
100
AcDbEntity
  8
0
  6
CONTINUOUS
 62
     1
100
AcDbLine
 10
-638.2803335984026
 20
326.962822254015
 30
0.0
 11
-638.2824087937151
 21
326.9769213751088
 31
0.0
  0
LINE
  5
229
330
87
100
AcDbEntity
  8
0
  6
CONTINUOUS
 62
     7
100
AcDbLine
 10
-638.2824087937151
 20
326.9769213751088
 30
0.0
 11
-638.2979277280319
 21
327.189864520883
 31
0.0
  0
LINE
  5
22A
330
87
100
AcDbEntity
  8
0
  6
CONTINUOUS
 62
     1
100
AcDbLine
 10
-637.2979277280301
 20
324.3614373961368
 30
0.0
 11
-638.5351858933245
 21
325.3817065313588
 31
0.0
  0
LINE
  5
22B
330
87
100
AcDbEntity
  8
0
  6
CONTINUOUS
 62
     1
100
AcDbLine
 10
-638.5351858933245
 20
325.3817065313588
 30
0.0
 11
-639.0628043015276
 21
326.161430652453
 31
0.0
  0
LINE
  5
22C
330
87
100
AcDbEntity
  8
0
  6
CONTINUOUS
 62
     1
100
AcDbLine
 10
-639.0628043015276
 20
326.161430652453
 30
0.0
 11
-639.233794291762
 21
326.6501391485458
 31
0.0
  0
LINE
  5
22D
330
87
100
AcDbEntity
  8
0
  6
CONTINUOUS
 62
     1
100
AcDbLine
 10
-639.233794291762
 20
326.6501391485458
 30
0.0
 11
-639.2979277280319
 21
327.1898645208817
 31
0.0
  0
LINE
  5
22E
330
87
100
AcDbEntity
  8
0
  6
CONTINUOUS
 62
     1
100
AcDbLine
 10
-637.7761885975979
 20
327.3614373961368
 30
0.0
 11
-638.2979277280319
 21
327.3614373961368
 31
0.0
  0
LINE
  5
22F
330
87
100
AcDbEntity
  8
0
  6
CONTINUOUS
 62
     7
100
AcDbLine
 10
-638.2979277280319
 20
327.189864520883
 30
0.0
 11
-638.2979277280338
 21
328.7614373959909
 31
0.0
  0
LINE
  5
230
330
87
100
AcDbEntity
  8
0
  6
CONTINUOUS
 62
     1
100
AcDbLine
 10
-637.1479277280978
 20
324.3614373961409
 30
0.0
 11
-637.2979277280301
 21
324.3614373961368
 31
0.0
  0
LINE
  5
231
330
87
100
AcDbEntity
  8
0
  6
CONTINUOUS
 62
     1
100
AcDbLine
 10
-637.2979277280301
 20
324.3614373961368
 30
0.0
 11
-637.2979277280319
 21
326.3614373961368
 31
0.0
  0
LINE
  5
232
330
87
100
AcDbEntity
  8
0
  6
CONTINUOUS
 62
     1
100
AcDbLine
 10
-637.1479277280978
 20
324.3614373961409
 30
0.0
 11
-637.1479277280978
 21
326.3614373961409
 31
0.0
  0
LINE
  5
233
330
87
100
AcDbEntity
  8
0
  6
CONTINUOUS
 62
     1
100
AcDbLine
 10
-637.7761885975979
 20
327.3614373961368
 30
0.0
 11
-635.2979277280319
 21
327.3614373961409
 31
0.0
  0
LINE
  5
234
330
87
100
AcDbEntity
  8
0
  6
CONTINUOUS
 62
     1
100
AcDbLine
 10
-632.2789311670713
 20
327.3614373961391
 30
0.0
 11
-634.7839651901995
 21
327.3614428594838
 31
0.0
  0
LINE
  5
235
330
87
100
AcDbEntity
  8
0
  6
CONTINUOUS
 62
     1
100
AcDbLine
 10
-634.7839651901995
 20
327.3614428594838
 30
0.0
 11
-635.2979416361231
 21
327.3614414780627
 31
0.0
  0
LINE
  5
236
330
87
100
AcDbEntity
  8
0
  6
CONTINUOUS
 62
     7
100
AcDbLine
 10
-633.1535547070525
 20
326.3614373961391
 30
0.0
 11
-632.9880972702776
 21
326.374321277453
 31
0.0
  0
LINE
  5
237
330
87
100
AcDbEntity
  8
0
  6
CONTINUOUS
 62
     1
100
AcDbLine
 10
-632.9880972702776
 20
326.374321277453
 30
0.0
 11
-632.8719473679339
 21
326.4013598516708
 31
0.0
  0
LINE
  5
238
330
87
100
AcDbEntity
  8
0
  6
CONTINUOUS
 62
     1
100
AcDbLine
 10
-632.8719473679339
 20
326.4013598516708
 30
0.0
 11
-632.6821585495745
 21
326.489799793078
 31
0.0
  0
LINE
  5
239
330
87
100
AcDbEntity
  8
0
  6
CONTINUOUS
 62
     1
100
AcDbLine
 10
-632.6821585495745
 20
326.489799793078
 30
0.0
 11
-632.6135550339495
 21
326.540336902453
 31
0.0
  0
LINE
  5
23A
330
87
100
AcDbEntity
  8
0
  6
CONTINUOUS
 62
     1
100
AcDbLine
 10
-632.6135550339495
 20
326.540336902453
 30
0.0
 11
-632.4962759812151
 21
326.6616137579208
 31
0.0
  0
LINE
  5
23B
330
87
100
AcDbEntity
  8
0
  6
CONTINUOUS
 62
     1
100
AcDbLine
 10
-632.4962759812151
 20
326.6616137579208
 30
0.0
 11
-632.4164725144183
 21
326.7836840704208
 31
0.0
  0
LINE
  5
23C
330
87
100
AcDbEntity
  8
0
  6
CONTINUOUS
 62
     1
100
AcDbLine
 10
-632.4164725144183
 20
326.7836840704208
 30
0.0
 11
-632.3920889694964
 21
326.8315356329208
 31
0.0
  0
LINE
  5
23D
330
87
100
AcDbEntity
  8
0
  6
CONTINUOUS
 62
     1
100
AcDbLine
 10
-632.3920889694964
 20
326.8315356329208
 30
0.0
 11
-632.3636465866839
 21
326.8969653204208
 31
0.0
  0
LINE
  5
23E
330
87
100
AcDbEntity
  8
0
  6
CONTINUOUS
 62
     1
100
AcDbLine
 10
-632.3636465866839
 20
326.8969653204208
 30
0.0
 11
-632.3242789109026
 21
327.0154955938588
 31
0.0
  0
LINE
  5
23F
330
87
100
AcDbEntity
  8
0
  6
CONTINUOUS
 62
     1
100
AcDbLine
 10
-632.3242789109026
 20
327.0154955938588
 30
0.0
 11
-632.3028250534808
 21
327.1079028204208
 31
0.0
  0
LINE
  5
240
330
87
100
AcDbEntity
  8
0
  6
CONTINUOUS
 62
     1
100
AcDbLine
 10
-632.3028250534808
 20
327.1079028204208
 30
0.0
 11
-632.2851553757464
 21
327.23113280089
 31
0.0
  0
LINE
  5
241
330
87
100
AcDbEntity
  8
0
  6
CONTINUOUS
 62
     1
100
AcDbLine
 10
-637.7761885975979
 20
327.3614373961368
 30
0.0
 11
-637.7761885975997
 21
331.2614373959909
 31
0.0
  0
LINE
  5
242
330
87
100
AcDbEntity
  8
0
  6
CONTINUOUS
 62
     7
100
AcDbLine
 10
-638.2544494671638
 20
332.2614373959909
 30
0.0
 11
-638.1728201706683
 21
332.24675780089
 31
0.0
  0
LINE
  5
243
330
87
100
AcDbEntity
  8
0
  6
CONTINUOUS
 62
     1
100
AcDbLine
 10
-638.1728201706683
 20
332.24675780089
 30
0.0
 11
-638.1228628952776
 21
332.22283201964
 31
0.0
  0
LINE
  5
244
330
87
100
AcDbEntity
  8
0
  6
CONTINUOUS
 62
     1
100
AcDbLine
 10
-638.1228628952776
 20
332.22283201964
 30
0.0
 11
-638.0783987839495
 21
332.191215808703
 31
0.0
  0
LINE
  5
245
330
87
100
AcDbEntity
  8
0
  6
CONTINUOUS
 62
     1
100
AcDbLine
 10
-638.0783987839495
 20
332.191215808703
 30
0.0
 11
-637.9927359421526
 21
332.098442371203
 31
0.0
  0
LINE
  5
246
330
87
100
AcDbEntity
  8
0
  6
CONTINUOUS
 62
     1
100
AcDbLine
 10
-637.9927359421526
 20
332.098442371203
 30
0.0
 11
-637.9162588913714
 21
331.968559558703
 31
0.0
  0
LINE
  5
247
330
87
100
AcDbEntity
  8
0
  6
CONTINUOUS
 62
     1
100
AcDbLine
 10
-637.9162588913714
 20
331.968559558703
 30
0.0
 11
-637.8879996140276
 21
331.9040453985458
 31
0.0
  0
LINE
  5
248
330
87
100
AcDbEntity
  8
0
  6
CONTINUOUS
 62
     1
100
AcDbLine
 10
-637.8879996140276
 20
331.9040453985458
 30
0.0
 11
-637.854155619887
 21
331.808647449328
 31
0.0
  0
LINE
  5
249
330
87
100
AcDbEntity
  8
0
  6
CONTINUOUS
 62
     1
100
AcDbLine
 10
-637.854155619887
 20
331.808647449328
 30
0.0
 11
-637.8097830612933
 21
331.6295092657338
 31
0.0
  0
LINE
  5
24A
330
87
100
AcDbEntity
  8
0
  6
CONTINUOUS
 62
     1
100
AcDbLine
 10
-637.8097830612933
 20
331.6295092657338
 30
0.0
 11
-637.7946463425433
 21
331.5366137579208
 31
0.0
  0
LINE
  5
24B
330
87
100
AcDbEntity
  8
0
  6
CONTINUOUS
 62
     1
100
AcDbLine
 10
-637.7946463425433
 20
331.5366137579208
 30
0.0
 11
-637.7761885975997
 21
331.2614373959909
 31
0.0
  0
LINE
  5
24C
330
87
100
AcDbEntity
  8
0
  6
CONTINUOUS
 62
     1
100
AcDbLine
 10
-638.2400593541897
 20
331.2614373959909
 30
0.0
 11
-638.2764273484026
 21
331.5366137579208
 31
0.0
  0
LINE
  5
24D
330
87
100
AcDbEntity
  8
0
  6
CONTINUOUS
 62
     1
100
AcDbLine
 10
-638.2764273484026
 20
331.5366137579208
 30
0.0
 11
-638.3062125046526
 21
331.6295092657338
 31
0.0
  0
LINE
  5
24E
330
87
100
AcDbEntity
  8
0
  6
CONTINUOUS
 62
     1
100
AcDbLine
 10
-638.3062125046526
 20
331.6295092657338
 30
0.0
 11
-638.3936453659808
 21
331.808647449328
 31
0.0
  0
LINE
  5
24F
330
87
100
AcDbEntity
  8
0
  6
CONTINUOUS
 62
     1
100
AcDbLine
 10
-638.3936453659808
 20
331.808647449328
 30
0.0
 11
-638.4603262741839
 21
331.9040453985458
 31
0.0
  0
LINE
  5
250
330
87
100
AcDbEntity
  8
0
  6
CONTINUOUS
 62
     1
100
AcDbLine
 10
-638.4603262741839
 20
331.9040453985458
 30
0.0
 11
-638.516020854262
 21
331.968559558703
 31
0.0
  0
LINE
  5
251
330
87
100
AcDbEntity
  8
0
  6
CONTINUOUS
 62
     1
100
AcDbLine
 10
-638.516020854262
 20
331.968559558703
 30
0.0
 11
-638.666655619887
 21
332.098442371203
 31
0.0
  0
LINE
  5
252
330
87
100
AcDbEntity
  8
0
  6
CONTINUOUS
 62
     1
100
AcDbLine
 10
-638.666655619887
 20
332.098442371203
 30
0.0
 11
-638.8354178269183
 21
332.191215808703
 31
0.0
  0
LINE
  5
253
330
87
100
AcDbEntity
  8
0
  6
CONTINUOUS
 62
     1
100
AcDbLine
 10
-638.8354178269183
 20
332.191215808703
 30
0.0
 11
-638.9229727585589
 21
332.22283201964
 31
0.0
  0
LINE
  5
254
330
87
100
AcDbEntity
  8
0
  6
CONTINUOUS
 62
     1
100
AcDbLine
 10
-638.9229727585589
 20
332.22283201964
 30
0.0
 11
-639.021391948012
 21
332.24675780089
 31
0.0
  0
LINE
  5
255
330
87
100
AcDbEntity
  8
0
  6
CONTINUOUS
 62
     7
100
AcDbLine
 10
-639.021391948012
 20
332.24675780089
 30
0.0
 11
-639.1821909803439
 21
332.2614373959909
 31
0.0
  0
LINE
  5
256
330
87
100
AcDbEntity
  8
0
  6
CONTINUOUS
 62
     1
100
AcDbLine
 10
-638.2979277280338
 20
328.7614373959909
 30
0.0
 11
-639.2979277280338
 21
328.7614373959909
 31
0.0
  0
LINE
  5
257
330
87
100
AcDbEntity
  8
0
  6
CONTINUOUS
 62
     1
100
AcDbLine
 10
-640.7979277280338
 20
328.7614373959909
 30
0.0
 11
-639.2979277280338
 21
328.7614373959909
 31
0.0
  0
LINE
  5
258
330
87
100
AcDbEntity
  8
0
  6
CONTINUOUS
 62
     1
100
AcDbLine
 10
-639.2979277280338
 20
332.133214092014
 30
0.0
 11
-639.2979277280338
 21
328.7614373959909
 31
0.0
  0
LINE
  5
259
330
87
100
AcDbEntity
  8
0
  6
CONTINUOUS
 62
     7
100
AcDbLine
 10
-638.2979277280356
 20
331.1698493217209
 30
0.0
 11
-638.284087260512
 21
331.238334949328
 31
0.0
  0
LINE
  5
25A
330
87
100
AcDbEntity
  8
0
  6
CONTINUOUS
 62
     1
100
AcDbLine
 10
-638.284087260512
 20
331.238334949328
 30
0.0
 11
-638.2400593541897
 21
331.2614373959909
 31
0.0
  0
LINE
  5
25B
330
87
100
AcDbEntity
  8
0
  6
CONTINUOUS
 62
     7
100
AcDbLine
 10
-638.2979277280356
 20
331.1698493217209
 30
0.0
 11
-638.2979277280338
 21
328.7614373959909
 31
0.0
  0
LINE
  5
25C
330
87
100
AcDbEntity
  8
0
  6
CONTINUOUS
 62
     1
100
AcDbLine
 10
-640.7979277280338
 20
332.1332140920149
 30
0.0
 11
-640.7979277280338
 21
328.7614373959909
 31
0.0
  0
LINE
  5
25D
330
87
100
AcDbEntity
  8
0
  6
CONTINUOUS
 62
     1
100
AcDbLine
 10
-632.482184828641
 20
331.2614373959909
 30
0.0
 11
-632.4123221237933
 21
331.2172778204208
 31
0.0
  0
LINE
  5
25E
330
87
100
AcDbEntity
  8
0
  6
CONTINUOUS
 62
     1
100
AcDbLine
 10
-632.4123221237933
 20
331.2172778204208
 30
0.0
 11
-632.3919058640276
 21
331.1833422735458
 31
0.0
  0
LINE
  5
25F
330
87
100
AcDbEntity
  8
0
  6
CONTINUOUS
 62
     1
100
AcDbLine
 10
-632.3919058640276
 20
331.1833422735458
 30
0.0
 11
-632.356108744887
 21
331.0888598516708
 31
0.0
  0
LINE
  5
260
330
87
100
AcDbEntity
  8
0
  6
CONTINUOUS
 62
     1
100
AcDbLine
 10
-632.356108744887
 20
331.0888598516708
 30
0.0
 11
-632.3274222214495
 21
330.962700183703
 31
0.0
  0
LINE
  5
261
330
87
100
AcDbEntity
  8
0
  6
CONTINUOUS
 62
     1
100
AcDbLine
 10
-632.3274222214495
 20
330.962700183703
 30
0.0
 11
-632.3057242234026
 21
330.8105395391708
 31
0.0
  0
LINE
  5
262
330
87
100
AcDbEntity
  8
0
  6
CONTINUOUS
 62
     1
100
AcDbLine
 10
-632.3057242234026
 20
330.8105395391708
 30
0.0
 11
-632.2906485398089
 21
330.6385424688588
 31
0.0
  0
LINE
  5
263
330
87
100
AcDbEntity
  8
0
  6
CONTINUOUS
 62
     1
100
AcDbLine
 10
-632.2906485398089
 20
330.6385424688588
 30
0.0
 11
-632.2854910691058
 21
330.547172839953
 31
0.0
  0
LINE
  5
264
330
87
100
AcDbEntity
  8
0
  6
CONTINUOUS
 62
     1
100
AcDbLine
 10
-632.2854910691058
 20
330.547172839953
 30
0.0
 11
-632.2789311670713
 21
330.2614373959909
 31
0.0
  0
LINE
  5
265
330
87
100
AcDbEntity
  8
0
  6
CONTINUOUS
 62
     7
100
AcDbLine
 10
-627.9579028523185
 20
332.2614373959909
 30
0.0
 11
-631.5193245064766
 21
332.2614373959909
 31
0.0
  0
LINE
  5
266
330
87
100
AcDbEntity
  8
0
  6
CONTINUOUS
 62
     1
100
AcDbLine
 10
-632.2789311670713
 20
327.3614373961391
 30
0.0
 11
-632.2789311670713
 21
330.2614373959909
 31
0.0
  0
LINE
  5
267
330
87
100
AcDbEntity
  8
0
  6
CONTINUOUS
 62
     1
100
AcDbLine
 10
-631.2934871047328
 20
327.361437396145
 30
0.0
 11
-631.2934871047328
 21
330.2614373959909
 31
0.0
  0
LINE
  5
268
330
87
100
AcDbEntity
  8
0
  6
CONTINUOUS
 62
     1
100
AcDbLine
 10
-632.482184828641
 20
331.2614373959909
 30
0.0
 11
-632.4450369675433
 21
331.5366137579208
 31
0.0
  0
LINE
  5
269
330
87
100
AcDbEntity
  8
0
  6
CONTINUOUS
 62
     1
100
AcDbLine
 10
-632.4450369675433
 20
331.5366137579208
 30
0.0
 11
-632.4145804245745
 21
331.6295092657338
 31
0.0
  0
LINE
  5
26A
330
87
100
AcDbEntity
  8
0
  6
CONTINUOUS
 62
     1
100
AcDbLine
 10
-632.4145804245745
 20
331.6295092657338
 30
0.0
 11
-632.3252249558245
 21
331.808647449328
 31
0.0
  0
LINE
  5
26B
330
87
100
AcDbEntity
  8
0
  6
CONTINUOUS
 62
     1
100
AcDbLine
 10
-632.3252249558245
 20
331.808647449328
 30
0.0
 11
-632.2570792038714
 21
331.9040453985458
 31
0.0
  0
LINE
  5
26C
330
87
100
AcDbEntity
  8
0
  6
CONTINUOUS
 62
     1
100
AcDbLine
 10
-632.2570792038714
 20
331.9040453985458
 30
0.0
 11
-632.2001639206683
 21
331.968559558703
 31
0.0
  0
LINE
  5
26D
330
87
100
AcDbEntity
  8
0
  6
CONTINUOUS
 62
     1
100
AcDbLine
 10
-632.2001639206683
 20
331.968559558703
 30
0.0
 11
-632.0462027390276
 21
332.098442371203
 31
0.0
  0
LINE
  5
26E
330
87
100
AcDbEntity
  8
0
  6
CONTINUOUS
 62
     1
100
AcDbLine
 10
-632.0462027390276
 20
332.098442371203
 30
0.0
 11
-631.8737479050433
 21
332.191215808703
 31
0.0
  0
LINE
  5
26F
330
87
100
AcDbEntity
  8
0
  6
CONTINUOUS
 62
     1
100
AcDbLine
 10
-631.8737479050433
 20
332.191215808703
 30
0.0
 11
-631.7842703659808
 21
332.22283201964
 31
0.0
  0
LINE
  5
270
330
87
100
AcDbEntity
  8
0
  6
CONTINUOUS
 62
     1
100
AcDbLine
 10
-631.7842703659808
 20
332.22283201964
 30
0.0
 11
-631.6836539109026
 21
332.24675780089
 31
0.0
  0
LINE
  5
271
330
87
100
AcDbEntity
  8
0
  6
CONTINUOUS
 62
     7
100
AcDbLine
 10
-631.6836539109026
 20
332.24675780089
 30
0.0
 11
-631.5193245064766
 21
332.2614373959909
 31
0.0
  0
LINE
  5
272
330
87
100
AcDbEntity
  8
0
  6
CONTINUOUS
 62
     1
100
AcDbLine
 10
-631.2934871047328
 20
330.2614373959909
 30
0.0
 11
-632.2789311670713
 21
330.2614373959909
 31
0.0
  0
LINE
  5
273
330
87
100
AcDbEntity
  8
0
  6
CONTINUOUS
 62
     1
100
AcDbLine
 10
-627.667902852334
 20
327.3614373961468
 30
0.0
 11
-627.9579028523185
 21
330.2614373959909
 31
0.0
  0
LINE
  5
274
330
87
100
AcDbEntity
  8
0
  6
CONTINUOUS
 62
     1
100
AcDbLine
 10
-631.5193245064766
 20
332.2614373959909
 30
0.0
 11
-631.4416800339495
 21
332.1730883672958
 31
0.0
  0
LINE
  5
275
330
87
100
AcDbEntity
  8
0
  6
CONTINUOUS
 62
     1
100
AcDbLine
 10
-631.4416800339495
 20
332.1730883672958
 30
0.0
 11
-631.3792410691058
 21
331.9162524297958
 31
0.0
  0
LINE
  5
276
330
87
100
AcDbEntity
  8
0
  6
CONTINUOUS
 62
     1
100
AcDbLine
 10
-631.3792410691058
 20
331.9162524297958
 30
0.0
 11
-631.3485098679339
 21
331.675590808703
 31
0.0
  0
LINE
  5
277
330
87
100
AcDbEntity
  8
0
  6
CONTINUOUS
 62
     1
100
AcDbLine
 10
-631.3485098679339
 20
331.675590808703
 30
0.0
 11
-631.3473501999651
 21
331.664116199328
 31
0.0
  0
LINE
  5
278
330
87
100
AcDbEntity
  8
0
  6
CONTINUOUS
 62
     1
100
AcDbLine
 10
-631.3473501999651
 20
331.664116199328
 30
0.0
 11
-631.3232413132464
 21
331.359672839953
 31
0.0
  0
LINE
  5
279
330
87
100
AcDbEntity
  8
0
  6
CONTINUOUS
 62
     1
100
AcDbLine
 10
-631.3232413132464
 20
331.359672839953
 30
0.0
 11
-631.3069144089495
 21
331.026298816515
 31
0.0
  0
LINE
  5
27A
330
87
100
AcDbEntity
  8
0
  6
CONTINUOUS
 62
     1
100
AcDbLine
 10
-631.3069144089495
 20
331.026298816515
 30
0.0
 11
-631.3007803757464
 21
330.832939441515
 31
0.0
  0
LINE
  5
27B
330
87
100
AcDbEntity
  8
0
  6
CONTINUOUS
 62
     1
100
AcDbLine
 10
-631.3007803757464
 20
330.832939441515
 30
0.0
 11
-631.2934871047328
 21
330.2614373959909
 31
0.0
  0
LINE
  5
27C
330
87
100
AcDbEntity
  8
0
  6
CONTINUOUS
 62
     1
100
AcDbLine
 10
-625.5642841804474
 20
324.3614373961391
 30
0.0
 11
-625.638823588637
 21
324.9117358282338
 31
0.0
  0
LINE
  5
27D
330
87
100
AcDbEntity
  8
0
  6
CONTINUOUS
 62
     1
100
AcDbLine
 10
-625.638823588637
 20
324.9117358282338
 30
0.0
 11
-625.6796866257464
 21
325.042534168078
 31
0.0
  0
LINE
  5
27E
330
87
100
AcDbEntity
  8
0
  6
CONTINUOUS
 62
     1
100
AcDbLine
 10
-625.6796866257464
 20
325.042534168078
 30
0.0
 11
-625.6998282273089
 21
325.0976489141708
 31
0.0
  0
LINE
  5
27F
330
87
100
AcDbEntity
  8
0
  6
CONTINUOUS
 62
     1
100
AcDbLine
 10
-625.6998282273089
 20
325.0976489141708
 30
0.0
 11
-625.8789969284808
 21
325.455864246203
 31
0.0
  0
LINE
  5
280
330
87
100
AcDbEntity
  8
0
  6
CONTINUOUS
 62
     1
100
AcDbLine
 10
-625.8789969284808
 20
325.455864246203
 30
0.0
 11
-626.1297598679339
 21
325.7756274297958
 31
0.0
  0
LINE
  5
281
330
87
100
AcDbEntity
  8
0
  6
CONTINUOUS
 62
     1
100
AcDbLine
 10
-626.1297598679339
 20
325.7756274297958
 30
0.0
 11
-626.4384451706683
 21
326.035454089953
 31
0.0
  0
LINE
  5
282
330
87
100
AcDbEntity
  8
0
  6
CONTINUOUS
 62
     1
100
AcDbLine
 10
-626.4384451706683
 20
326.035454089953
 30
0.0
 11
-626.5314932663714
 21
326.0945971563588
 31
0.0
  0
LINE
  5
283
330
87
100
AcDbEntity
  8
0
  6
CONTINUOUS
 62
     1
100
AcDbLine
 10
-626.5314932663714
 20
326.0945971563588
 30
0.0
 11
-626.7842398484026
 21
326.221000964953
 31
0.0
  0
LINE
  5
284
330
87
100
AcDbEntity
  8
0
  6
CONTINUOUS
 62
     1
100
AcDbLine
 10
-626.7842398484026
 20
326.221000964953
 30
0.0
 11
-626.9636832077776
 21
326.284233386828
 31
0.0
  0
LINE
  5
285
330
87
100
AcDbEntity
  8
0
  6
CONTINUOUS
 62
     7
100
AcDbLine
 10
-626.9636832077776
 20
326.284233386828
 30
0.0
 11
-627.4948916866488
 21
326.36143739614
 31
0.0
  0
LINE
  5
286
330
87
100
AcDbEntity
  8
0
  6
CONTINUOUS
 62
     7
100
AcDbLine
 10
-627.3679028523347
 20
326.3614373961459
 30
0.0
 11
-627.4948916866488
 21
326.36143739614
 31
0.0
  0
LINE
  5
287
330
87
100
AcDbEntity
  8
0
  6
CONTINUOUS
 62
     7
100
AcDbLine
 10
-625.3778284719137
 20
324.5604448341878
 30
0.0
 11
-625.497954448012
 21
325.070854480578
 31
0.0
  0
LINE
  5
288
330
87
100
AcDbEntity
  8
0
  6
CONTINUOUS
 62
     7
100
AcDbLine
 10
-625.497954448012
 20
325.070854480578
 30
0.0
 11
-625.5196219284808
 21
325.125541980578
 31
0.0
  0
LINE
  5
289
330
87
100
AcDbEntity
  8
0
  6
CONTINUOUS
 62
     7
100
AcDbLine
 10
-625.5196219284808
 20
325.125541980578
 30
0.0
 11
-625.5710135300433
 21
325.2396166876088
 31
0.0
  0
LINE
  5
28A
330
87
100
AcDbEntity
  8
0
  6
CONTINUOUS
 62
     7
100
AcDbLine
 10
-625.7675162155901
 20
325.5609057501088
 30
0.0
 11
-625.9534903366839
 21
325.775444324328
 31
0.0
  0
LINE
  5
28B
330
87
100
AcDbEntity
  8
0
  6
CONTINUOUS
 62
     7
100
AcDbLine
 10
-625.9534903366839
 20
325.775444324328
 30
0.0
 11
-626.0259085495745
 21
325.8443530157338
 31
0.0
  0
LINE
  5
28C
330
87
100
AcDbEntity
  8
0
  6
CONTINUOUS
 62
     7
100
AcDbLine
 10
-626.0259085495745
 20
325.8443530157338
 30
0.0
 11
-626.333647807387
 21
326.0732348516708
 31
0.0
  0
LINE
  5
28D
330
87
100
AcDbEntity
  8
0
  6
CONTINUOUS
 62
     7
100
AcDbLine
 10
-626.333647807387
 20
326.0732348516708
 30
0.0
 11
-626.605620463637
 21
326.2104418829208
 31
0.0
  0
LINE
  5
28E
330
87
100
AcDbEntity
  8
0
  6
CONTINUOUS
 62
     7
100
AcDbLine
 10
-626.605620463637
 20
326.2104418829208
 30
0.0
 11
-626.6728812058245
 21
326.2368090704208
 31
0.0
  0
LINE
  5
28F
330
87
100
AcDbEntity
  8
0
  6
CONTINUOUS
 62
     7
100
AcDbLine
 10
-626.6728812058245
 20
326.2368090704208
 30
0.0
 11
-626.8481131394183
 21
326.2927172735458
 31
0.0
  0
LINE
  5
290
330
87
100
AcDbEntity
  8
0
  6
CONTINUOUS
 62
     7
100
AcDbLine
 10
-626.8481131394183
 20
326.2927172735458
 30
0.0
 11
-627.3679028523347
 21
326.3614373961459
 31
0.0
  0
LINE
  5
291
330
87
100
AcDbEntity
  8
0
  6
CONTINUOUS
 62
     7
100
AcDbLine
 10
-625.5710135300433
 20
325.2396166876088
 30
0.0
 11
-625.5860647998306
 21
325.2642260630269
 31
0.0
  0
LINE
  5
292
330
87
100
AcDbEntity
  8
0
  6
CONTINUOUS
 62
     7
100
AcDbLine
 10
-625.5860647998306
 20
325.2642260630269
 30
0.0
 11
-625.5869436745052
 21
325.2656630551969
 31
0.0
  0
LINE
  5
293
330
87
100
AcDbEntity
  8
0
  6
CONTINUOUS
 62
     7
100
AcDbLine
 10
-625.5869436745052
 20
325.2656630551969
 30
0.0
 11
-625.7675162155901
 21
325.5609057501088
 31
0.0
  0
LINE
  5
294
330
87
100
AcDbEntity
  8
0
  6
CONTINUOUS
 62
     1
100
AcDbLine
 10
-627.9579028523185
 20
330.2614373959909
 30
0.0
 11
-631.2934871047328
 21
330.2614373959909
 31
0.0
  0
LINE
  5
295
330
87
100
AcDbEntity
  8
0
  6
CONTINUOUS
 62
     1
100
AcDbLine
 10
-625.6778284719148
 20
327.5604448341887
 30
0.0
 11
-627.667902852334
 21
327.3614373961468
 31
0.0
  0
LINE
  5
296
330
87
100
AcDbEntity
  8
0
  6
CONTINUOUS
 62
     1
100
AcDbLine
 10
-627.667902852334
 20
327.3614373961468
 30
0.0
 11
-631.2934871047328
 21
327.361437396145
 31
0.0
  0
LINE
  5
297
330
87
100
AcDbEntity
  8
0
  6
CONTINUOUS
 62
     1
100
AcDbLine
 10
-633.1535547070525
 20
326.3614373961391
 30
0.0
 11
-632.5922842819964
 21
326.4013598516708
 31
0.0
  0
LINE
  5
298
330
87
100
AcDbEntity
  8
0
  6
CONTINUOUS
 62
     1
100
AcDbLine
 10
-632.5922842819964
 20
326.4013598516708
 30
0.0
 11
-632.4295645554339
 21
326.430229480578
 31
0.0
  0
LINE
  5
299
330
87
100
AcDbEntity
  8
0
  6
CONTINUOUS
 62
     1
100
AcDbLine
 10
-632.4295645554339
 20
326.430229480578
 30
0.0
 11
-632.0452261765276
 21
326.540336902453
 31
0.0
  0
LINE
  5
29A
330
87
100
AcDbEntity
  8
0
  6
CONTINUOUS
 62
     1
100
AcDbLine
 10
-632.0452261765276
 20
326.540336902453
 30
0.0
 11
-631.800688823012
 21
326.653862293078
 31
0.0
  0
LINE
  5
29B
330
87
100
AcDbEntity
  8
0
  6
CONTINUOUS
 62
     1
100
AcDbLine
 10
-631.800688823012
 20
326.653862293078
 30
0.0
 11
-631.7870779831683
 21
326.6616137579208
 31
0.0
  0
LINE
  5
29C
330
87
100
AcDbEntity
  8
0
  6
CONTINUOUS
 62
     1
100
AcDbLine
 10
-631.7870779831683
 20
326.6616137579208
 30
0.0
 11
-631.6081229050433
 21
326.7836840704208
 31
0.0
  0
LINE
  5
29D
330
87
100
AcDbEntity
  8
0
  6
CONTINUOUS
 62
     1
100
AcDbLine
 10
-631.6081229050433
 20
326.7836840704208
 30
0.0
 11
-631.552886088637
 21
326.8315356329208
 31
0.0
  0
LINE
  5
29E
330
87
100
AcDbEntity
  8
0
  6
CONTINUOUS
 62
     1
100
AcDbLine
 10
-631.552886088637
 20
326.8315356329208
 30
0.0
 11
-631.4881277878558
 21
326.8969653204208
 31
0.0
  0
LINE
  5
29F
330
87
100
AcDbEntity
  8
0
  6
CONTINUOUS
 62
     1
100
AcDbLine
 10
-631.4881277878558
 20
326.8969653204208
 30
0.0
 11
-631.4252920944964
 21
326.974907214953
 31
0.0
  0
LINE
  5
2A0
330
87
100
AcDbEntity
  8
0
  6
CONTINUOUS
 62
     1
100
AcDbLine
 10
-631.4252920944964
 20
326.974907214953
 30
0.0
 11
-631.3486929734026
 21
327.107841785265
 31
0.0
  0
LINE
  5
2A1
330
87
100
AcDbEntity
  8
0
  6
CONTINUOUS
 62
     1
100
AcDbLine
 10
-631.3486929734026
 20
327.107841785265
 30
0.0
 11
-631.3078604538714
 21
327.23113280089
 31
0.0
  0
LINE
  5
2A2
330
87
100
AcDbEntity
  8
0
  6
CONTINUOUS
 62
     1
100
AcDbLine
 10
-631.3078604538714
 20
327.23113280089
 30
0.0
 11
-631.2934871047328
 21
327.361437396145
 31
0.0
  0
LINE
  5
2A3
330
87
100
AcDbEntity
  8
0
  6
CONTINUOUS
 62
     1
100
AcDbLine
 10
-632.2789311670713
 20
327.3614373961391
 30
0.0
 11
-631.2934871047328
 21
327.361437396145
 31
0.0
  0
LINE
  5
2A4
330
87
100
AcDbEntity
  8
0
  6
CONTINUOUS
 62
     1
100
AcDbLine
 10
-632.2851553757464
 20
327.23113280089
 30
0.0
 11
-632.2789311670713
 21
327.3614373961391
 31
0.0
  0
LINE
  5
2A5
330
87
100
AcDbEntity
  8
0
  6
CONTINUOUS
 62
     1
100
AcDbLine
 10
-625.3778284719137
 20
324.5604448341878
 30
0.0
 11
-625.5642841804474
 21
324.3614373961391
 31
0.0
  0
LINE
  5
2A6
330
87
100
AcDbEntity
  8
0
  6
CONTINUOUS
 62
     1
100
AcDbLine
 10
-627.3679028523347
 20
326.3614373961459
 30
0.0
 11
-627.4194632370745
 21
326.533256824328
 31
0.0
  0
LINE
  5
2A7
330
87
100
AcDbEntity
  8
0
  6
CONTINUOUS
 62
     1
100
AcDbLine
 10
-627.4194632370745
 20
326.533256824328
 30
0.0
 11
-627.5026846726214
 21
326.81072264464
 31
0.0
  0
LINE
  5
2A8
330
87
100
AcDbEntity
  8
0
  6
CONTINUOUS
 62
     1
100
AcDbLine
 10
-627.5026846726214
 20
326.81072264464
 30
0.0
 11
-627.667902852334
 21
327.3614373961468
 31
0.0
  0
LINE
  5
2A9
330
87
100
AcDbEntity
  8
0
  6
CONTINUOUS
 62
     7
100
AcDbLine
 10
-625.3778284719137
 20
324.5604448341878
 30
0.0
 11
-625.6778284719148
 21
327.5604448341887
 31
0.0
  0
LINE
  5
2AA
330
87
100
AcDbEntity
  8
0
  6
CONTINUOUS
 62
     7
100
AcDbLine
 10
-625.2165823776995
 20
322.94792967589
 30
0.0
 11
-625.2362192480505
 21
323.1443127024359
 31
0.0
  0
LINE
  5
2AB
330
87
100
AcDbEntity
  8
0
  6
CONTINUOUS
 62
     7
100
AcDbLine
 10
-625.2775374529592
 20
323.5575248887899
 30
0.0
 11
-625.3002615769183
 21
323.7847827032338
 31
0.0
  0
LINE
  5
2AC
330
87
100
AcDbEntity
  8
0
  6
CONTINUOUS
 62
     7
100
AcDbLine
 10
-625.3778284719137
 20
324.5604448341878
 30
0.0
 11
-625.1801443894183
 21
322.583549793078
 31
0.0
  0
LINE
  5
2AD
330
87
100
AcDbEntity
  8
0
  6
CONTINUOUS
 62
     1
100
AcDbLine
 10
-625.5642841804474
 20
324.3614373961391
 30
0.0
 11
-625.3033133347308
 21
322.88249998839
 31
0.0
  0
LINE
  5
2AE
330
87
100
AcDbEntity
  8
0
  6
CONTINUOUS
 62
     1
100
AcDbLine
 10
-625.3033133347308
 20
322.88249998839
 30
0.0
 11
-625.1479277280978
 21
322.0020841661617
 31
0.0
  0
LINE
  5
2AF
330
87
100
AcDbEntity
  8
0
  6
CONTINUOUS
 62
     1
100
AcDbLine
 10
-627.9579028523185
 20
330.2614373959909
 30
0.0
 11
-627.9579028523185
 21
332.2614373959909
 31
0.0
  0
LINE
  5
2B0
330
87
100
AcDbEntity
  8
0
  6
CONTINUOUS
 62
     7
100
AcDbLine
 10
-626.5195574119898
 20
331.6395199346389
 30
0.0
 11
-626.1439168320576
 21
331.077341430343
 31
0.0
  0
LINE
  5
2B1
330
87
100
AcDbEntity
  8
0
  6
CONTINUOUS
 62
     7
100
AcDbLine
 10
-627.9579028523185
 20
332.2614373959909
 30
0.0
 11
-627.2767240949561
 21
332.1259321824077
 31
0.0
  0
LINE
  5
2B2
330
87
100
AcDbEntity
  8
0
  6
CONTINUOUS
 62
     7
100
AcDbLine
 10
-627.1039567418775
 20
332.0499993838189
 30
0.0
 11
-626.5670574490196
 21
331.6912584330489
 31
0.0
  0
LINE
  5
2B3
330
87
100
AcDbEntity
  8
0
  6
CONTINUOUS
 62
     7
100
AcDbLine
 10
-626.5670574490196
 20
331.6912584330489
 30
0.0
 11
-626.5437002976214
 21
331.6756518438588
 31
0.0
  0
LINE
  5
2B4
330
87
100
AcDbEntity
  8
0
  6
CONTINUOUS
 62
     7
100
AcDbLine
 10
-626.1101370651995
 20
331.026787097765
 30
0.0
 11
-626.1058672208947
 21
331.0097944957511
 31
0.0
  0
LINE
  5
2B5
330
87
100
AcDbEntity
  8
0
  6
CONTINUOUS
 62
     7
100
AcDbLine
 10
-626.0967703659808
 20
330.9936450079208
 30
0.0
 11
-626.1058672208947
 21
331.0097944957511
 31
0.0
  0
LINE
  5
2B6
330
87
100
AcDbEntity
  8
0
  6
CONTINUOUS
 62
     7
100
AcDbLine
 10
-626.1439168320576
 20
331.077341430343
 30
0.0
 11
-626.3669730026995
 21
331.47332030089
 31
0.0
  0
LINE
  5
2B7
330
87
100
AcDbEntity
  8
0
  6
CONTINUOUS
 62
     7
100
AcDbLine
 10
-626.9093619187151
 20
331.9644702032338
 30
0.0
 11
-627.1039567418775
 21
332.0499993838189
 31
0.0
  0
LINE
  5
2B8
330
87
100
AcDbEntity
  8
0
  6
CONTINUOUS
 62
     7
100
AcDbLine
 10
-627.2767254902465
 20
332.1259354731178
 30
0.0
 11
-627.4124747116839
 21
332.185600574328
 31
0.0
  0
LINE
  5
2B9
330
87
100
AcDbEntity
  8
0
  6
CONTINUOUS
 62
     7
100
AcDbLine
 10
-626.3669730026995
 20
331.47332030089
 30
0.0
 11
-626.5195574119898
 21
331.6395199346389
 31
0.0
  0
LINE
  5
2BA
330
87
100
AcDbEntity
  8
0
  6
CONTINUOUS
 62
     7
100
AcDbLine
 10
-626.5670574490196
 20
331.6912584330489
 30
0.0
 11
-626.6149283249651
 21
331.7434008672958
 31
0.0
  0
LINE
  5
2BB
330
87
100
AcDbEntity
  8
0
  6
CONTINUOUS
 62
     1
100
AcDbLine
 10
-627.9579028523185
 20
330.2614373959909
 30
0.0
 11
-625.9678284718993
 21
330.4604448340328
 31
0.0
  0
LINE
  5
2BC
330
87
100
AcDbEntity
  8
0
  6
CONTINUOUS
 62
     7
100
AcDbLine
 10
-625.6778284719148
 20
327.5604448341887
 30
0.0
 11
-625.9678284718993
 21
330.4604448340328
 31
0.0
  0
LINE
  5
2BD
330
87
100
AcDbEntity
  8
0
  6
CONTINUOUS
 62
     7
100
AcDbLine
 10
-625.2870756198681
 20
305.2110803110259
 30
0.0
 11
-625.2682791550433
 21
305.1903451040521
 31
0.0
  0
LINE
  5
2BE
330
87
100
AcDbEntity
  8
0
  6
CONTINUOUS
 62
     7
100
AcDbLine
 10
-625.2870212295511
 20
309.1118935633981
 30
0.0
 11
-625.2682791550433
 21
309.1325510099659
 31
0.0
  0
LINE
  5
2BF
330
87
100
AcDbEntity
  8
0
  6
CONTINUOUS
 62
     7
100
AcDbLine
 10
-657.0087901687202
 20
305.2110810292338
 30
0.0
 11
-657.0275870163714
 21
305.1903365209828
 31
0.0
  0
LINE
  5
2C0
330
87
100
AcDbEntity
  8
0
  6
CONTINUOUS
 62
     7
100
AcDbLine
 10
-657.0275870163714
 20
309.132557208849
 30
0.0
 11
-657.0088256570016
 21
309.1118573976678
 31
0.0
  0
LINE
  5
2C1
330
87
100
AcDbEntity
  8
0
  6
CONTINUOUS
 62
     7
100
AcDbLine
 10
-649.1430960495745
 20
326.3614962652459
 30
0.0
 11
-649.2857394884959
 21
326.3709649957477
 31
0.0
  0
LINE
  5
2C2
330
87
100
AcDbEntity
  8
0
  6
CONTINUOUS
 62
     7
100
AcDbLine
 10
-649.2857394884959
 20
326.3709649957477
 30
0.0
 11
-649.2861319382464
 21
326.3709910467401
 31
0.0
  0
LINE
  5
2C3
330
87
100
AcDbEntity
  8
0
  6
CONTINUOUS
 62
     7
100
AcDbLine
 10
-649.2861319382464
 20
326.3709910467401
 30
0.0
 11
-649.2970572312151
 21
326.3726904943719
 31
0.0
  0
LINE
  5
2C4
330
87
100
AcDbEntity
  8
0
  6
CONTINUOUS
 62
     7
100
AcDbLine
 10
-652.2189932663714
 20
326.3614428594838
 30
0.0
 11
-648.974761088637
 21
326.3614428594838
 31
0.0
  0
LINE
  5
2C5
330
87
100
AcDbEntity
  8
0
  6
CONTINUOUS
 62
     7
100
AcDbLine
 10
-645.1479483444964
 20
326.3614428594838
 30
0.0
 11
-648.974761088637
 21
326.3614428594838
 31
0.0
  0
LINE
  5
2C6
330
87
100
AcDbEntity
  8
0
  6
CONTINUOUS
 62
     7
100
AcDbLine
 10
-657.1479483444964
 20
322.0020678594838
 30
0.0
 11
-657.1414786179339
 21
322.2611144140487
 31
0.0
  0
LINE
  5
2C7
330
87
100
AcDbEntity
  8
0
  6
CONTINUOUS
 62
     7
100
AcDbLine
 10
-657.1414786179339
 20
322.2611144140487
 30
0.0
 11
-657.1157522995745
 21
322.58318358214
 31
0.0
  0
LINE
  5
2C8
330
87
100
AcDbEntity
  8
0
  6
CONTINUOUS
 62
     7
100
AcDbLine
 10
-625.377837260512
 20
324.5604174688588
 30
0.0
 11
-625.4979849655901
 21
325.070883090807
 31
0.0
  0
LINE
  5
2C9
330
87
100
AcDbEntity
  8
0
  6
CONTINUOUS
 62
     7
100
AcDbLine
 10
-625.4979849655901
 20
325.070883090807
 30
0.0
 11
-625.5196524460589
 21
325.1255515173207
 31
0.0
  0
LINE
  5
2CA
330
87
100
AcDbEntity
  8
0
  6
CONTINUOUS
 62
     7
100
AcDbLine
 10
-625.5196524460589
 20
325.1255515173207
 30
0.0
 11
-625.5710135300433
 21
325.2396109655629
 31
0.0
  0
LINE
  5
2CB
330
87
100
AcDbEntity
  8
0
  6
CONTINUOUS
 62
     7
100
AcDbLine
 10
-625.5710135300433
 20
325.2396109655629
 30
0.0
 11
-625.5860647998306
 21
325.2642260630269
 31
0.0
  0
LINE
  5
2CC
330
87
100
AcDbEntity
  8
0
  6
CONTINUOUS
 62
     7
100
AcDbLine
 10
-625.5860647998306
 20
325.2642260630269
 30
0.0
 11
-625.5869436745052
 21
325.2656630551969
 31
0.0
  0
LINE
  5
2CD
330
87
100
AcDbEntity
  8
0
  6
CONTINUOUS
 62
     7
100
AcDbLine
 10
-637.1479483444964
 20
326.3614428594838
 30
0.0
 11
-633.3211050827776
 21
326.3614428594838
 31
0.0
  0
LINE
  5
2CE
330
87
100
AcDbEntity
  8
0
  6
CONTINUOUS
 62
     7
100
AcDbLine
 10
-630.0768729050433
 20
326.3614428594838
 30
0.0
 11
-633.3211050827776
 21
326.3614428594838
 31
0.0
  0
LINE
  5
2CF
330
87
100
AcDbEntity
  8
0
  6
CONTINUOUS
 62
     7
100
AcDbLine
 10
-625.1479483444964
 20
322.0020678594838
 30
0.0
 11
-625.1543875534808
 21
322.2611144140487
 31
0.0
  0
LINE
  5
2D0
330
87
100
AcDbEntity
  8
0
  6
CONTINUOUS
 62
     7
100
AcDbLine
 10
-625.1543875534808
 20
322.2611144140487
 30
0.0
 11
-625.1801443894183
 21
322.583549793078
 31
0.0
  0
ARC
  5
2D1
330
87
100
AcDbEntity
  8
0
  6
CONTINUOUS
 62
     7
100
AcDbCircle
 10
-656.847927728093
 20
293.0614373959907
 30
0.0
 40
0.3000000000010914
100
AcDbArc
 50
180.0
 51
269.9999999989578
  0
ARC
  5
2D2
330
87
100
AcDbEntity
  8
0
  6
CONTINUOUS
 62
     7
100
AcDbCircle
 10
-656.6479277280905
 20
300.7614373959877
 30
0.0
 40
0.5000000000032401
100
AcDbArc
 50
89.99999999958311
 51
179.9999999996287
  0
ARC
  5
2D3
330
87
100
AcDbEntity
  8
0
  6
CONTINUOUS
 62
     7
100
AcDbCircle
 10
-625.6479277280941
 20
300.7614373959909
 30
0.0
 40
0.5
100
AcDbArc
 50
0.0
 51
90.00000000041689
  0
ARC
  5
2D4
330
87
100
AcDbEntity
  8
0
  6
CONTINUOUS
 62
     7
100
AcDbCircle
 10
-625.447927728097
 20
293.0614373959875
 30
0.0
 40
0.2999999999975103
100
AcDbArc
 50
269.9999999996526
 51
0.00000000060795
  0
ARC
  5
2D5
330
87
100
AcDbEntity
  8
0
  6
CONTINUOUS
 62
     7
100
AcDbCircle
 10
-654.3379526038698
 20
330.2614373959909
 30
0.0
 40
2.0
100
AcDbArc
 50
90.0
 51
174.289406862502
  0
ARC
  5
2D6
330
87
100
AcDbEntity
  8
0
  6
CONTINUOUS
 62
     7
100
AcDbCircle
 10
-642.7979277280319
 20
327.3614373961341
 30
0.0
 40
1.0
100
AcDbArc
 50
270.0
 51
0.0
  0
ARC
  5
2D7
330
87
100
AcDbEntity
  8
0
  6
CONTINUOUS
 62
     7
100
AcDbCircle
 10
-645.7979277280319
 20
327.3614373961341
 30
0.0
 40
1.0
100
AcDbArc
 50
270.0
 51
0.0
  0
ARC
  5
2D8
330
87
100
AcDbEntity
  8
0
  6
CONTINUOUS
 62
     7
100
AcDbCircle
 10
-643.7979277280319
 20
331.2614373959909
 30
0.0
 40
1.0
100
AcDbArc
 50
90.0
 51
180.0
  0
ARC
  5
2D9
330
87
100
AcDbEntity
  8
0
  6
CONTINUOUS
 62
     7
100
AcDbCircle
 10
-636.2979277280319
 20
331.2614373959909
 30
0.0
 40
1.0
100
AcDbArc
 50
0.0
 51
90.0
  0
ARC
  5
2DA
330
87
100
AcDbEntity
  8
0
  6
CONTINUOUS
 62
     7
100
AcDbCircle
 10
-637.2979352138955
 20
327.3614373961082
 30
0.0
 40
1.000000000000614
100
AcDbArc
 50
189.9994984037658
 51
270.0004289083865
  0
ARC
  5
2DB
330
87
100
AcDbEntity
  8
0
  6
CONTINUOUS
 62
     7
100
AcDbCircle
 10
-634.297927728072
 20
327.361446364182
 30
0.0
 40
1.000000000000195
100
AcDbArc
 50
180.0005138309039
 51
259.9993393824973
  0
ARC
  5
2DC
330
87
100
AcDbEntity
  8
0
  6
CONTINUOUS
 62
     7
100
AcDbCircle
 10
-627.9579028523185
 20
330.2614373959909
 30
0.0
 40
1.999999999999185
100
AcDbArc
 50
5.71059313749802
 51
90.0
  0
SPLINE
  5
2DD
330
87
100
AcDbEntity
  8
0
  6
CONTINUOUS
 62
     1
100
AcDbSpline
210
0.0
220
0.0
230
1.0
 70
  1064
 71
     3
 72
    11
 73
     7
 74
     5
 42
0.000000001
 43
0.0000000001
 44
0.00000001
 40
0.0
 40
0.0
 40
0.0
 40
0.0
 40
0.1913443766141049
 40
0.4227071987281354
 40
0.6852862847373705
 40
0.9647070267737703
 40
0.9647070267737703
 40
0.9647070267737703
 40
0.9647070267737703
 10
-642.5939079955806
 20
326.4569907277069
 30
0.0
 10
-642.5536639955636
 20
326.5069517826659
 30
0.0
 10
-642.4647592345467
 20
326.6173229349254
 30
0.0
 10
-642.3857604886897
 20
326.8349883494058
 30
0.0
 10
-642.329758999459
 20
327.087153393922
 30
0.0
 10
-642.3230998740053
 20
327.2681348388676
 30
0.0
 10
-642.3196668584678
 20
327.3614373961368
 30
0.0
 11
-642.5939079955806
 21
326.4569907277069
 31
0.0
 11
-642.4814081970858
 21
326.6117694941287
 31
0.0
 11
-642.3940043974308
 21
326.8259874513733
 31
0.0
 11
-642.3386272668292
 21
327.0826606888072
 31
0.0
 11
-642.3196668584678
 21
327.3614373961368
 31
0.0
  0
SPLINE
  5
2DE
330
87
100
AcDbEntity
  8
0
  6
CONTINUOUS
 62
     1
100
AcDbSpline
210
0.0
220
0.0
230
1.0
 70
  1064
 71
     3
 72
    11
 73
     7
 74
     5
 42
0.000000001
 43
0.0000000001
 44
0.00000001
 40
0.0
 40
0.0
 40
0.0
 40
0.0
 40
0.2910117472842149
 40
0.5629977210493275
 40
0.7999858396822583
 40
0.992997527094982
 40
0.992997527094982
 40
0.992997527094982
 40
0.992997527094982
 10
-637.7761885975979
 20
327.3614373961368
 30
0.0
 10
-637.7724766785142
 20
327.2642375962965
 30
0.0
 10
-637.7652955046191
 20
327.0761927289521
 30
0.0
 10
-637.7047921290391
 20
326.8159976404933
 30
0.0
 10
-637.62003230536
 20
326.5937464330248
 30
0.0
 10
-637.524041476107
 20
326.4859483615454
 30
0.0
 10
-637.480954586159
 20
326.4375616285361
 30
0.0
 11
-637.7761885975979
 21
327.3614373961368
 31
0.0
 11
-637.7555949391668
 21
327.0711552294197
 31
0.0
 11
-637.6955884148492
 21
326.8058712531513
 31
0.0
 11
-637.6013357755893
 21
326.5884320415821
 31
0.0
 11
-637.480954586159
 21
326.4375616285361
 31
0.0
  0
ENDBLK
  5
89
330
87
100
AcDbEntity
  8
0
100
AcDbBlockEnd
  0
BLOCK
  5
8C
330
8A
100
AcDbEntity
  8
0
100
AcDbBlockBegin
  2
PD00800A12700__7
 70
     0
 10
-657.1479483444964
 20
292.76143739599
 30
0.0
  3
PD00800A12700__7
  1

  0
INSERT
  5
8B
330
8A
100
AcDbEntity
  8
0
100
AcDbBlockReference
  2
CARC_MONT_1_1__6
 10
-657.1479483444964
 20
292.76143739599
 30
0.0
  0
ENDBLK
  5
8D
330
8A
100
AcDbEntity
  8
0
100
AcDbBlockEnd
  0
BLOCK
  5
90
330
8E
100
AcDbEntity
  8
0
100
AcDbBlockBegin
  2
GFS0086A00200_GRUPPO_C6__8
 70
     0
 10
-657.1479483444964
 20
292.76143739599
 30
0.0
  3
GFS0086A00200_GRUPPO_C6__8
  1

  0
INSERT
  5
8F
330
8E
100
AcDbEntity
  8
0
100
AcDbBlockReference
  2
PD00800A12700__7
 10
-657.1479483444964
 20
292.76143739599
 30
0.0
  0
ENDBLK
  5
91
330
8E
100
AcDbEntity
  8
0
100
AcDbBlockEnd
  0
BLOCK
  5
93
330
92
100
AcDbEntity
  8
0
100
AcDbBlockBegin
  2
PX009563__9
 70
     0
 10
-722.7647391159808
 20
289.2614373959641
 30
0.0
  3
PX009563__9
  1

  0
LINE
  5
2DF
330
92
100
AcDbEntity
  8
0
  6
CONTINUOUS
 62
     1
100
AcDbLine
 10
-698.264709818608
 20
316.4575898186718
 30
0.0
 11
-715.264709818608
 21
316.4575898186718
 31
0.0
  0
LINE
  5
2E0
330
92
100
AcDbEntity
  8
0
  6
CONTINUOUS
 62
     1
100
AcDbLine
 10
-693.5574708090699
 20
329.7614373959659
 30
0.0
 11
-719.971948828148
 21
329.7614373959659
 31
0.0
  0
LINE
  5
2E1
330
92
100
AcDbEntity
  8
0
  6
CONTINUOUS
 62
     7
100
AcDbLine
 10
-693.5574708090699
 20
331.2614373959659
 30
0.0
 11
-719.971948828148
 21
331.2614373959659
 31
0.0
  0
LINE
  5
2E2
330
92
100
AcDbEntity
  8
0
  6
CONTINUOUS
 62
     7
100
AcDbLine
 10
-691.2647098186026
 20
297.7614373959659
 30
0.0
 11
-722.2647098186026
 21
297.761437395965
 31
0.0
  0
LINE
  5
2E3
330
92
100
AcDbEntity
  8
0
  6
CONTINUOUS
 62
     1
100
AcDbLine
 10
-714.7647098186026
 20
309.7614373959659
 30
0.0
 11
-698.7647098186135
 21
309.7614373959659
 31
0.0
  0
LINE
  5
2E4
330
92
100
AcDbEntity
  8
0
  6
CONTINUOUS
 62
     1
100
AcDbLine
 10
-706.7647098186026
 20
289.5614373959661
 30
0.0
 11
-722.7647098186026
 21
289.5614373959647
 31
0.0
  0
LINE
  5
2E5
330
92
100
AcDbEntity
  8
0
  6
CONTINUOUS
 62
     1
100
AcDbLine
 10
-714.7647098186026
 20
309.7614373959659
 30
0.0
 11
-714.7647098186026
 21
302.7614371873488
 31
0.0
  0
LINE
  5
2E6
330
92
100
AcDbEntity
  8
0
  6
CONTINUOUS
 62
     1
100
AcDbLine
 10
-722.7647098186026
 20
297.2614373959659
 30
0.0
 11
-706.7647098186026
 21
297.2614373959659
 31
0.0
  0
LINE
  5
2E7
330
92
100
AcDbEntity
  8
0
  6
CONTINUOUS
 62
     7
100
AcDbLine
 10
-722.7647098186026
 20
289.5614373959647
 30
0.0
 11
-722.7647098186026
 21
297.2614373959659
 31
0.0
  0
LINE
  5
2E8
330
92
100
AcDbEntity
  8
0
  6
CONTINUOUS
 62
     7
100
AcDbLine
 10
-722.7647098186026
 20
301.7714373959657
 30
0.0
 11
-722.7647098186026
 21
297.2614373959659
 31
0.0
  0
LINE
  5
2E9
330
92
100
AcDbEntity
  8
0
  6
CONTINUOUS
 62
     1
100
AcDbLine
 10
-706.7647098186026
 20
289.5614373959661
 30
0.0
 11
-706.7647098186026
 21
297.2614373959659
 31
0.0
  0
LINE
  5
2EA
330
92
100
AcDbEntity
  8
0
  6
CONTINUOUS
 62
     1
100
AcDbLine
 10
-710.7647098186026
 20
300.9032118647097
 30
0.0
 11
-710.7647098186026
 21
297.7614373959659
 31
0.0
  0
LINE
  5
2EB
330
92
100
AcDbEntity
  8
0
  6
CONTINUOUS
 62
     7
100
AcDbLine
 10
-709.764709818608
 20
297.7614373959659
 30
0.0
 11
-709.764709818608
 21
300.7614373959659
 31
0.0
  0
LINE
  5
2EC
330
92
100
AcDbEntity
  8
0
  6
CONTINUOUS
 62
     1
100
AcDbLine
 10
-710.7547098186078
 20
297.7614369857838
 30
0.0
 11
-710.7547098186078
 21
300.7614373959659
 31
0.0
  0
LINE
  5
2ED
330
92
100
AcDbEntity
  8
0
  6
CONTINUOUS
 62
     1
100
AcDbLine
 10
-722.7647098186026
 20
301.7714373959657
 30
0.0
 11
-711.8546280747396
 21
301.7714373959657
 31
0.0
  0
LINE
  5
2EE
330
92
100
AcDbEntity
  8
0
  6
CONTINUOUS
 62
     7
100
AcDbLine
 10
-722.7647098186026
 20
309.7614373959659
 30
0.0
 11
-722.7647098186026
 21
301.7714373959657
 31
0.0
  0
LINE
  5
2EF
330
92
100
AcDbEntity
  8
0
  6
CONTINUOUS
 62
     7
100
AcDbLine
 10
-721.774709818601
 20
302.7614373959659
 30
0.0
 11
-718.549956401137
 21
302.7614374116188
 31
0.0
  0
LINE
  5
2F0
330
92
100
AcDbEntity
  8
0
  6
CONTINUOUS
 62
     7
100
AcDbLine
 10
-718.549956401137
 20
302.7614374116188
 30
0.0
 11
-715.6606094991548
 21
302.7614374116188
 31
0.0
  0
LINE
  5
2F1
330
92
100
AcDbEntity
  8
0
  6
CONTINUOUS
 62
     7
100
AcDbLine
 10
-715.6606094991548
 20
302.7614374116188
 30
0.0
 11
-714.9780569870745
 21
302.7614374116188
 31
0.0
  0
LINE
  5
2F2
330
92
100
AcDbEntity
  8
0
  6
CONTINUOUS
 62
     7
100
AcDbLine
 10
-714.9780569870745
 20
302.7614374116188
 30
0.0
 11
-711.764709818608
 21
302.7614373959659
 31
0.0
  0
LINE
  5
2F3
330
92
100
AcDbEntity
  8
0
  6
CONTINUOUS
 62
     1
100
AcDbLine
 10
-714.7647098186026
 20
309.7614373959659
 30
0.0
 11
-722.7647098186026
 21
309.7614373959659
 31
0.0
  0
LINE
  5
2F4
330
92
100
AcDbEntity
  8
0
  6
CONTINUOUS
 62
     7
100
AcDbLine
 10
-709.7845117987945
 20
301.042178918231
 30
0.0
 11
-709.764709818608
 21
300.7614373959659
 31
0.0
  0
LINE
  5
2F5
330
92
100
AcDbEntity
  8
0
  6
CONTINUOUS
 62
     1
100
AcDbLine
 10
-710.7647098186026
 20
300.9032118647097
 30
0.0
 11
-709.7845117987945
 21
301.042178918231
 31
0.0
  0
LINE
  5
2F6
330
92
100
AcDbEntity
  8
0
  6
CONTINUOUS
 62
     1
100
AcDbLine
 10
-710.7547098186078
 20
300.7614373959659
 30
0.0
 11
-709.764709818608
 21
300.7614373959659
 31
0.0
  0
LINE
  5
2F7
330
92
100
AcDbEntity
  8
0
  6
CONTINUOUS
 62
     1
100
AcDbLine
 10
-710.7647098186026
 20
300.9032118647097
 30
0.0
 11
-710.7547098186078
 21
300.7614373959659
 31
0.0
  0
LINE
  5
2F8
330
92
100
AcDbEntity
  8
0
  6
CONTINUOUS
 62
     7
100
AcDbLine
 10
-709.7845117987945
 20
301.042178918231
 30
0.0
 11
-709.9170218308245
 21
301.5269341126209
 31
0.0
  0
LINE
  5
2F9
330
92
100
AcDbEntity
  8
0
  6
CONTINUOUS
 62
     7
100
AcDbLine
 10
-709.9341727097308
 20
301.5671219483147
 30
0.0
 11
-710.2171316941058
 21
302.0283560559278
 31
0.0
  0
LINE
  5
2FA
330
92
100
AcDbEntity
  8
0
  6
CONTINUOUS
 62
     7
100
AcDbLine
 10
-710.2171316941058
 20
302.0283560559278
 30
0.0
 11
-710.350737651137
 21
302.1758856430779
 31
0.0
  0
LINE
  5
2FB
330
92
100
AcDbEntity
  8
0
  6
CONTINUOUS
 62
     7
100
AcDbLine
 10
-710.350737651137
 20
302.1758856430779
 30
0.0
 11
-710.4678030808245
 21
302.28393646629
 31
0.0
  0
LINE
  5
2FC
330
92
100
AcDbEntity
  8
0
  6
CONTINUOUS
 62
     7
100
AcDbLine
 10
-710.4678030808245
 20
302.28393646629
 30
0.0
 11
-710.757475932387
 21
302.4892897561317
 31
0.0
  0
LINE
  5
2FD
330
92
100
AcDbEntity
  8
0
  6
CONTINUOUS
 62
     7
100
AcDbLine
 10
-710.9998465378558
 20
302.6094102814918
 30
0.0
 11
-711.2445975144183
 21
302.6926274255047
 31
0.0
  0
LINE
  5
2FE
330
92
100
AcDbEntity
  8
0
  6
CONTINUOUS
 62
     7
100
AcDbLine
 10
-711.2445975144183
 20
302.6926274255047
 30
0.0
 11
-711.764709818608
 21
302.7614373959659
 31
0.0
  0
LINE
  5
2FF
330
92
100
AcDbEntity
  8
0
  6
CONTINUOUS
 62
     7
100
AcDbLine
 10
-710.757475932387
 20
302.4892897561317
 30
0.0
 11
-710.9947752398475
 21
302.6068969116059
 31
0.0
  0
LINE
  5
300
330
92
100
AcDbEntity
  8
0
  6
CONTINUOUS
 62
     7
100
AcDbLine
 10
-710.9947752398475
 20
302.6068969116059
 30
0.0
 11
-710.9998465378558
 21
302.6094102814918
 31
0.0
  0
LINE
  5
301
330
92
100
AcDbEntity
  8
0
  6
CONTINUOUS
 62
     7
100
AcDbLine
 10
-709.9170218308245
 20
301.5269341126209
 30
0.0
 11
-709.9341727097308
 21
301.5671219483147
 31
0.0
  0
LINE
  5
302
330
92
100
AcDbEntity
  8
0
  6
CONTINUOUS
 62
     1
100
AcDbLine
 10
-711.764709818608
 20
302.7614373959659
 30
0.0
 11
-711.789458354262
 21
302.7232222512489
 31
0.0
  0
LINE
  5
303
330
92
100
AcDbEntity
  8
0
  6
CONTINUOUS
 62
     1
100
AcDbLine
 10
-711.789458354262
 20
302.7232222512489
 30
0.0
 11
-711.7978201706683
 21
302.6919279053941
 31
0.0
  0
LINE
  5
304
330
92
100
AcDbEntity
  8
0
  6
CONTINUOUS
 62
     1
100
AcDbLine
 10
-711.7978201706683
 20
302.6919279053941
 30
0.0
 11
-711.8095999558245
 21
302.6293601945167
 31
0.0
  0
LINE
  5
305
330
92
100
AcDbEntity
  8
0
  6
CONTINUOUS
 62
     1
100
AcDbLine
 10
-711.8095999558245
 20
302.6293601945167
 30
0.0
 11
-711.8139334519183
 21
302.60006284268
 31
0.0
  0
LINE
  5
306
330
92
100
AcDbEntity
  8
0
  6
CONTINUOUS
 62
     1
100
AcDbLine
 10
-711.8139334519183
 20
302.60006284268
 30
0.0
 11
-711.828276713637
 21
302.4714732125531
 31
0.0
  0
LINE
  5
307
330
92
100
AcDbEntity
  8
0
  6
CONTINUOUS
 62
     1
100
AcDbLine
 10
-711.828276713637
 20
302.4714732125531
 30
0.0
 11
-711.839995463637
 21
302.3131751671558
 31
0.0
  0
LINE
  5
308
330
92
100
AcDbEntity
  8
0
  6
CONTINUOUS
 62
     1
100
AcDbLine
 10
-711.839995463637
 20
302.3131751671558
 30
0.0
 11
-711.848296244887
 21
302.1358513489499
 31
0.0
  0
LINE
  5
309
330
92
100
AcDbEntity
  8
0
  6
CONTINUOUS
 62
     1
100
AcDbLine
 10
-711.848296244887
 20
302.1358513489499
 30
0.0
 11
-711.8511648972308
 21
302.0438442036639
 31
0.0
  0
LINE
  5
30A
330
92
100
AcDbEntity
  8
0
  6
CONTINUOUS
 62
     1
100
AcDbLine
 10
-711.8511648972308
 20
302.0438442036639
 30
0.0
 11
-711.8546280747396
 21
301.7714373959657
 31
0.0
  0
LINE
  5
30B
330
92
100
AcDbEntity
  8
0
  6
CONTINUOUS
 62
     1
100
AcDbLine
 10
-710.7647098186026
 20
300.9032118647097
 30
0.0
 11
-710.847075541762
 21
301.1683058694139
 31
0.0
  0
LINE
  5
30C
330
92
100
AcDbEntity
  8
0
  6
CONTINUOUS
 62
     1
100
AcDbLine
 10
-710.847075541762
 20
301.1683058694139
 30
0.0
 11
-711.002837260512
 21
301.4012322083249
 31
0.0
  0
LINE
  5
30D
330
92
100
AcDbEntity
  8
0
  6
CONTINUOUS
 62
     1
100
AcDbLine
 10
-711.002837260512
 20
301.4012322083249
 30
0.0
 11
-711.140776713637
 21
301.5302900925408
 31
0.0
  0
LINE
  5
30E
330
92
100
AcDbEntity
  8
0
  6
CONTINUOUS
 62
     1
100
AcDbLine
 10
-711.140776713637
 20
301.5302900925408
 30
0.0
 11
-711.3002615769183
 21
301.6340312764178
 31
0.0
  0
LINE
  5
30F
330
92
100
AcDbEntity
  8
0
  6
CONTINUOUS
 62
     1
100
AcDbLine
 10
-711.3002615769183
 20
301.6340312764178
 30
0.0
 11
-711.5683890183245
 21
301.7366900250449
 31
0.0
  0
LINE
  5
310
330
92
100
AcDbEntity
  8
0
  6
CONTINUOUS
 62
     1
100
AcDbLine
 10
-711.5683890183245
 20
301.7366900250449
 30
0.0
 11
-711.8546280747396
 21
301.7714373959657
 31
0.0
  0
LINE
  5
311
330
92
100
AcDbEntity
  8
0
  6
CONTINUOUS
 62
     1
100
AcDbLine
 10
-698.7647098186135
 20
302.7614371873488
 30
0.0
 11
-698.7647098186135
 21
309.7614373959659
 31
0.0
  0
LINE
  5
312
330
92
100
AcDbEntity
  8
0
  6
CONTINUOUS
 62
     1
100
AcDbLine
 10
-690.7647098186135
 20
289.5614373959661
 30
0.0
 11
-706.7647098186026
 21
289.5614373959661
 31
0.0
  0
LINE
  5
313
330
92
100
AcDbEntity
  8
0
  6
CONTINUOUS
 62
     1
100
AcDbLine
 10
-690.764709818608
 20
297.2614373959659
 30
0.0
 11
-706.7647098186026
 21
297.2614373959659
 31
0.0
  0
LINE
  5
314
330
92
100
AcDbEntity
  8
0
  6
CONTINUOUS
 62
     1
100
AcDbLine
 10
-702.764709818608
 20
300.7614373959659
 30
0.0
 11
-702.764709818608
 21
297.7614373959659
 31
0.0
  0
LINE
  5
315
330
92
100
AcDbEntity
  8
0
  6
CONTINUOUS
 62
     7
100
AcDbLine
 10
-703.764709818608
 20
300.7614373959659
 30
0.0
 11
-703.7647391159808
 21
297.7614372328048
 31
0.0
  0
LINE
  5
316
330
92
100
AcDbEntity
  8
0
  6
CONTINUOUS
 62
     7
100
AcDbLine
 10
-690.7647098186135
 20
289.5614373959661
 30
0.0
 11
-690.764709818608
 21
297.2614373959659
 31
0.0
  0
LINE
  5
317
330
92
100
AcDbEntity
  8
0
  6
CONTINUOUS
 62
     7
100
AcDbLine
 10
-690.764709818608
 20
297.2614373959659
 30
0.0
 11
-690.7647098186135
 21
301.7614373959659
 31
0.0
  0
LINE
  5
318
330
92
100
AcDbEntity
  8
0
  6
CONTINUOUS
 62
     1
100
AcDbLine
 10
-702.764709818608
 20
300.7614373959659
 30
0.0
 11
-703.764709818608
 21
300.7614373959659
 31
0.0
  0
LINE
  5
319
330
92
100
AcDbEntity
  8
0
  6
CONTINUOUS
 62
     1
100
AcDbLine
 10
-701.6738007276981
 20
301.7614373959659
 30
0.0
 11
-701.6773367722308
 21
302.036595802022
 31
0.0
  0
LINE
  5
31A
330
92
100
AcDbEntity
  8
0
  6
CONTINUOUS
 62
     1
100
AcDbLine
 10
-701.6773367722308
 20
302.036595802022
 30
0.0
 11
-701.6802054245745
 21
302.129532302929
 31
0.0
  0
LINE
  5
31B
330
92
100
AcDbEntity
  8
0
  6
CONTINUOUS
 62
     1
100
AcDbLine
 10
-701.6802054245745
 20
302.129532302929
 30
0.0
 11
-701.688628276137
 21
302.308647121502
 31
0.0
  0
LINE
  5
31C
330
92
100
AcDbEntity
  8
0
  6
CONTINUOUS
 62
     1
100
AcDbLine
 10
-701.688628276137
 20
302.308647121502
 30
0.0
 11
-701.7004080612933
 21
302.4685440018898
 31
0.0
  0
LINE
  5
31D
330
92
100
AcDbEntity
  8
0
  6
CONTINUOUS
 62
     1
100
AcDbLine
 10
-701.7004080612933
 20
302.4685440018898
 30
0.0
 11
-701.7149344284808
 21
302.5984330132728
 31
0.0
  0
LINE
  5
31E
330
92
100
AcDbEntity
  8
0
  6
CONTINUOUS
 62
     1
100
AcDbLine
 10
-701.7149344284808
 20
302.5984330132728
 30
0.0
 11
-701.7193289597308
 21
302.628026004149
 31
0.0
  0
LINE
  5
31F
330
92
100
AcDbEntity
  8
0
  6
CONTINUOUS
 62
     1
100
AcDbLine
 10
-701.7193289597308
 20
302.628026004149
 30
0.0
 11
-701.7312308151995
 21
302.6912255242601
 31
0.0
  0
LINE
  5
320
330
92
100
AcDbEntity
  8
0
  6
CONTINUOUS
 62
     1
100
AcDbLine
 10
-701.7312308151995
 20
302.6912255242601
 30
0.0
 11
-701.7397147019183
 21
302.7228364899879
 31
0.0
  0
LINE
  5
321
330
92
100
AcDbEntity
  8
0
  6
CONTINUOUS
 62
     1
100
AcDbLine
 10
-701.7397147019183
 20
302.7228364899879
 30
0.0
 11
-701.764709818608
 21
302.7614373959659
 31
0.0
  0
LINE
  5
322
330
92
100
AcDbEntity
  8
0
  6
CONTINUOUS
 62
     1
100
AcDbLine
 10
-701.6738007276981
 20
301.7614373959659
 30
0.0
 11
-701.984038432387
 21
301.7201509282118
 31
0.0
  0
LINE
  5
323
330
92
100
AcDbEntity
  8
0
  6
CONTINUOUS
 62
     1
100
AcDbLine
 10
-701.984038432387
 20
301.7201509282118
 30
0.0
 11
-702.0833426316058
 21
301.6882843777667
 31
0.0
  0
LINE
  5
324
330
92
100
AcDbEntity
  8
0
  6
CONTINUOUS
 62
     1
100
AcDbLine
 10
-702.0833426316058
 20
301.6882843777667
 30
0.0
 11
-702.2705984909808
 21
301.5985388562208
 31
0.0
  0
LINE
  5
325
330
92
100
AcDbEntity
  8
0
  6
CONTINUOUS
 62
     1
100
AcDbLine
 10
-702.2705984909808
 20
301.5985388562208
 30
0.0
 11
-702.4365530808245
 21
301.4763703003659
 31
0.0
  0
LINE
  5
326
330
92
100
AcDbEntity
  8
0
  6
CONTINUOUS
 62
     1
100
AcDbLine
 10
-702.4365530808245
 20
301.4763703003659
 30
0.0
 11
-702.5744314987933
 21
301.3257560685411
 31
0.0
  0
LINE
  5
327
330
92
100
AcDbEntity
  8
0
  6
CONTINUOUS
 62
     1
100
AcDbLine
 10
-702.5744314987933
 20
301.3257560685411
 30
0.0
 11
-702.6782522995745
 21
301.1516108468309
 31
0.0
  0
LINE
  5
328
330
92
100
AcDbEntity
  8
0
  6
CONTINUOUS
 62
     1
100
AcDbLine
 10
-702.6782522995745
 20
301.1516108468309
 30
0.0
 11
-702.7156668503558
 21
301.05783414395
 31
0.0
  0
LINE
  5
329
330
92
100
AcDbEntity
  8
0
  6
CONTINUOUS
 62
     1
100
AcDbLine
 10
-702.7156668503558
 20
301.05783414395
 30
0.0
 11
-702.764709818608
 21
300.7614373959659
 31
0.0
  0
LINE
  5
32A
330
92
100
AcDbEntity
  8
0
  6
CONTINUOUS
 62
     7
100
AcDbLine
 10
-701.764709818608
 20
302.7614373959659
 30
0.0
 11
-702.3334647019183
 21
302.6788625672589
 31
0.0
  0
LINE
  5
32B
330
92
100
AcDbEntity
  8
0
  6
CONTINUOUS
 62
     7
100
AcDbLine
 10
-702.3334647019183
 20
302.6788625672589
 30
0.0
 11
-702.5155936081683
 21
302.6151294663678
 31
0.0
  0
LINE
  5
32C
330
92
100
AcDbEntity
  8
0
  6
CONTINUOUS
 62
     7
100
AcDbLine
 10
-702.5295096237933
 20
302.6094407990709
 30
0.0
 11
-702.858794291762
 21
302.4356422379738
 31
0.0
  0
LINE
  5
32D
330
92
100
AcDbEntity
  8
0
  6
CONTINUOUS
 62
     7
100
AcDbLine
 10
-702.858794291762
 20
302.4356422379738
 30
0.0
 11
-703.1631766159808
 21
302.191199268414
 31
0.0
  0
LINE
  5
32E
330
92
100
AcDbEntity
  8
0
  6
CONTINUOUS
 62
     7
100
AcDbLine
 10
-703.1631766159808
 20
302.191199268414
 30
0.0
 11
-703.178862651137
 21
302.1756891861687
 31
0.0
  0
LINE
  5
32F
330
92
100
AcDbEntity
  8
0
  6
CONTINUOUS
 62
     7
100
AcDbLine
 10
-703.178862651137
 20
302.1756891861687
 30
0.0
 11
-703.4158621628558
 21
301.88998935671
 31
0.0
  0
LINE
  5
330
330
92
100
AcDbEntity
  8
0
  6
CONTINUOUS
 62
     7
100
AcDbLine
 10
-703.6748343308245
 20
301.3542384758721
 30
0.0
 11
-703.764709818608
 21
300.7614373959659
 31
0.0
  0
LINE
  5
331
330
92
100
AcDbEntity
  8
0
  6
CONTINUOUS
 62
     7
100
AcDbLine
 10
-703.4158621628558
 20
301.88998935671
 30
0.0
 11
-703.5198141909677
 21
301.6997879551668
 31
0.0
  0
LINE
  5
332
330
92
100
AcDbEntity
  8
0
  6
CONTINUOUS
 62
     7
100
AcDbLine
 10
-703.5198141909677
 20
301.6997879551668
 30
0.0
 11
-703.6061697800433
 21
301.5417828217278
 31
0.0
  0
LINE
  5
333
330
92
100
AcDbEntity
  8
0
  6
CONTINUOUS
 62
     7
100
AcDbLine
 10
-703.612212260512
 20
301.5274266854058
 30
0.0
 11
-703.6748343308245
 21
301.3542384758721
 31
0.0
  0
LINE
  5
334
330
92
100
AcDbEntity
  8
0
  6
CONTINUOUS
 62
     7
100
AcDbLine
 10
-703.6061697800433
 20
301.5417828217278
 30
0.0
 11
-703.612212260512
 21
301.5274266854058
 31
0.0
  0
LINE
  5
335
330
92
100
AcDbEntity
  8
0
  6
CONTINUOUS
 62
     7
100
AcDbLine
 10
-702.5155936081683
 20
302.6151294663678
 30
0.0
 11
-702.5205289267142
 21
302.613111979038
 31
0.0
  0
LINE
  5
336
330
92
100
AcDbEntity
  8
0
  6
CONTINUOUS
 62
     7
100
AcDbLine
 10
-702.5205289267142
 20
302.613111979038
 30
0.0
 11
-702.5295096237933
 21
302.6094407990709
 31
0.0
  0
LINE
  5
337
330
92
100
AcDbEntity
  8
0
  6
CONTINUOUS
 62
     1
100
AcDbLine
 10
-701.6738007276981
 20
301.7614373959659
 30
0.0
 11
-690.7647098186135
 21
301.7614373959659
 31
0.0
  0
LINE
  5
338
330
92
100
AcDbEntity
  8
0
  6
CONTINUOUS
 62
     7
100
AcDbLine
 10
-694.9865408737933
 20
302.7614374116188
 30
0.0
 11
-691.7647098186135
 21
302.7614373959659
 31
0.0
  0
LINE
  5
339
330
92
100
AcDbEntity
  8
0
  6
CONTINUOUS
 62
     7
100
AcDbLine
 10
-698.5552054245745
 20
302.7614374116188
 30
0.0
 11
-694.9865408737933
 21
302.7614374116188
 31
0.0
  0
LINE
  5
33A
330
92
100
AcDbEntity
  8
0
  6
CONTINUOUS
 62
     7
100
AcDbLine
 10
-701.764709818608
 20
302.7614373959659
 30
0.0
 11
-699.8281790655619
 21
302.761437405411
 31
0.0
  0
LINE
  5
33B
330
92
100
AcDbEntity
  8
0
  6
CONTINUOUS
 62
     7
100
AcDbLine
 10
-699.8281790655619
 20
302.761437405411
 30
0.0
 11
-698.5552054245745
 21
302.7614374116188
 31
0.0
  0
LINE
  5
33C
330
92
100
AcDbEntity
  8
0
  6
CONTINUOUS
 62
     1
100
AcDbLine
 10
-698.7647098186135
 20
309.7614373959659
 30
0.0
 11
-690.7647098186135
 21
309.7614373959659
 31
0.0
  0
LINE
  5
33D
330
92
100
AcDbEntity
  8
0
  6
CONTINUOUS
 62
     7
100
AcDbLine
 10
-690.7647098186135
 20
301.7614373959659
 30
0.0
 11
-690.7647098186135
 21
309.7614373959659
 31
0.0
  0
LINE
  5
33E
330
92
100
AcDbEntity
  8
0
  6
CONTINUOUS
 62
     1
100
AcDbLine
 10
-699.7080854915821
 20
319.7614373959659
 30
0.0
 11
-713.821334145634
 21
319.7614373959659
 31
0.0
  0
LINE
  5
33F
330
92
100
AcDbEntity
  8
0
  6
CONTINUOUS
 62
     7
100
AcDbLine
 10
-700.574110895368
 20
320.2614373959659
 30
0.0
 11
-712.9553087418499
 21
320.2614373959659
 31
0.0
  0
LINE
  5
340
330
92
100
AcDbEntity
  8
0
  6
CONTINUOUS
 62
     1
100
AcDbLine
 10
-698.6666336072558
 20
317.9575898186718
 30
0.0
 11
-714.8627860299621
 21
317.9575898186718
 31
0.0
  0
LINE
  5
341
330
92
100
AcDbEntity
  8
0
  6
CONTINUOUS
 62
     1
100
AcDbLine
 10
-715.2529288011665
 20
312.7614373959659
 30
0.0
 11
-715.2617483933245
 21
312.7692883566147
 31
0.0
  0
LINE
  5
342
330
92
100
AcDbEntity
  8
0
  6
CONTINUOUS
 62
     1
100
AcDbLine
 10
-715.2617483933245
 20
312.7692883566147
 30
0.0
 11
-715.264709818608
 21
312.7928104293687
 31
0.0
  0
LINE
  5
343
330
92
100
AcDbEntity
  8
0
  6
CONTINUOUS
 62
     7
100
AcDbLine
 10
-714.7647098186026
 20
311.7614373959659
 30
0.0
 11
-720.7647098186026
 21
311.7614373959659
 31
0.0
  0
LINE
  5
344
330
92
100
AcDbEntity
  8
0
  6
CONTINUOUS
 62
     7
100
AcDbLine
 10
-715.264709818608
 20
312.7928104293687
 30
0.0
 11
-715.3033133347308
 21
312.5198100164657
 31
0.0
  0
LINE
  5
345
330
92
100
AcDbEntity
  8
0
  6
CONTINUOUS
 62
     1
100
AcDbLine
 10
-715.3033133347308
 20
312.5198100164657
 30
0.0
 11
-715.3349295456683
 21
312.4276030615097
 31
0.0
  0
LINE
  5
346
330
92
100
AcDbEntity
  8
0
  6
CONTINUOUS
 62
     1
100
AcDbLine
 10
-715.3349295456683
 20
312.4276030615097
 30
0.0
 11
-715.398100932387
 21
312.2977011755238
 31
0.0
  0
LINE
  5
347
330
92
100
AcDbEntity
  8
0
  6
CONTINUOUS
 62
     1
100
AcDbLine
 10
-715.398100932387
 20
312.2977011755238
 30
0.0
 11
-715.4277029831683
 21
312.249892528368
 31
0.0
  0
LINE
  5
348
330
92
100
AcDbEntity
  8
0
  6
CONTINUOUS
 62
     1
100
AcDbLine
 10
-715.4277029831683
 20
312.249892528368
 30
0.0
 11
-715.5575857956683
 21
312.0912497595077
 31
0.0
  0
LINE
  5
349
330
92
100
AcDbEntity
  8
0
  6
CONTINUOUS
 62
     1
100
AcDbLine
 10
-715.5575857956683
 20
312.0912497595077
 30
0.0
 11
-715.7174979050433
 21
311.9623797491317
 31
0.0
  0
LINE
  5
34A
330
92
100
AcDbEntity
  8
0
  6
CONTINUOUS
 62
     1
100
AcDbLine
 10
-715.7174979050433
 20
311.9623797491317
 30
0.0
 11
-715.896636088637
 21
311.8703148916488
 31
0.0
  0
LINE
  5
34B
330
92
100
AcDbEntity
  8
0
  6
CONTINUOUS
 62
     1
100
AcDbLine
 10
-715.896636088637
 20
311.8703148916488
 30
0.0
 11
-715.9241629441058
 21
311.8599608495961
 31
0.0
  0
LINE
  5
34C
330
92
100
AcDbEntity
  8
0
  6
CONTINUOUS
 62
     1
100
AcDbLine
 10
-715.9241629441058
 20
311.8599608495961
 30
0.0
 11
-715.9895315964495
 21
311.83895235808
 31
0.0
  0
LINE
  5
34D
330
92
100
AcDbEntity
  8
0
  6
CONTINUOUS
 62
     1
100
AcDbLine
 10
-715.9895315964495
 20
311.83895235808
 30
0.0
 11
-716.264709818608
 21
311.8006536877197
 31
0.0
  0
LINE
  5
34E
330
92
100
AcDbEntity
  8
0
  6
CONTINUOUS
 62
     1
100
AcDbLine
 10
-716.2515427991129
 20
311.7614373959659
 30
0.0
 11
-716.2614432175433
 21
311.7712510183578
 31
0.0
  0
LINE
  5
34F
330
92
100
AcDbEntity
  8
0
  6
CONTINUOUS
 62
     1
100
AcDbLine
 10
-716.2614432175433
 20
311.7712510183578
 30
0.0
 11
-716.264709818608
 21
311.8006536877197
 31
0.0
  0
LINE
  5
350
330
92
100
AcDbEntity
  8
0
  6
CONTINUOUS
 62
     7
100
AcDbLine
 10
-722.7647098186026
 20
316.7614373959659
 30
0.0
 11
-722.7647098186044
 21
323.996705206137
 31
0.0
  0
LINE
  5
351
330
92
100
AcDbEntity
  8
0
  6
CONTINUOUS
 62
     1
100
AcDbLine
 10
-720.7647098186026
 20
316.7614373959659
 30
0.0
 11
-720.7647098186044
 21
323.996705206137
 31
0.0
  0
LINE
  5
352
330
92
100
AcDbEntity
  8
0
  6
CONTINUOUS
 62
     1
100
AcDbLine
 10
-716.264709818608
 20
316.3816279243488
 30
0.0
 11
-716.0827322800433
 21
316.3828967169061
 31
0.0
  0
LINE
  5
353
330
92
100
AcDbEntity
  8
0
  6
CONTINUOUS
 62
     1
100
AcDbLine
 10
-716.0827322800433
 20
316.3828967169061
 30
0.0
 11
-715.9241629441058
 21
316.3861687734848
 31
0.0
  0
LINE
  5
354
330
92
100
AcDbEntity
  8
0
  6
CONTINUOUS
 62
     1
100
AcDbLine
 10
-715.9241629441058
 20
316.3861687734848
 30
0.0
 11
-715.896636088637
 21
316.3869612768417
 31
0.0
  0
LINE
  5
355
330
92
100
AcDbEntity
  8
0
  6
CONTINUOUS
 62
     1
100
AcDbLine
 10
-715.896636088637
 20
316.3869612768417
 30
0.0
 11
-715.7174979050433
 21
316.394010837389
 31
0.0
  0
LINE
  5
356
330
92
100
AcDbEntity
  8
0
  6
CONTINUOUS
 62
     1
100
AcDbLine
 10
-715.7174979050433
 20
316.394010837389
 30
0.0
 11
-715.5575857956683
 21
316.403877551867
 31
0.0
  0
LINE
  5
357
330
92
100
AcDbEntity
  8
0
  6
CONTINUOUS
 62
     1
100
AcDbLine
 10
-715.5575857956683
 20
316.403877551867
 30
0.0
 11
-715.4277029831683
 21
316.4160235479599
 31
0.0
  0
LINE
  5
358
330
92
100
AcDbEntity
  8
0
  6
CONTINUOUS
 62
     1
100
AcDbLine
 10
-715.4277029831683
 20
316.4160235479599
 30
0.0
 11
-715.398100932387
 21
316.4196837499867
 31
0.0
  0
LINE
  5
359
330
92
100
AcDbEntity
  8
0
  6
CONTINUOUS
 62
     1
100
AcDbLine
 10
-715.398100932387
 20
316.4196837499867
 30
0.0
 11
-715.3349295456683
 21
316.4296286657577
 31
0.0
  0
LINE
  5
35A
330
92
100
AcDbEntity
  8
0
  6
CONTINUOUS
 62
     1
100
AcDbLine
 10
-715.3349295456683
 20
316.4296286657577
 30
0.0
 11
-715.3033133347308
 21
316.436688716723
 31
0.0
  0
LINE
  5
35B
330
92
100
AcDbEntity
  8
0
  6
CONTINUOUS
 62
     1
100
AcDbLine
 10
-715.3033133347308
 20
316.436688716723
 30
0.0
 11
-715.281401713637
 21
316.4437678411728
 31
0.0
  0
LINE
  5
35C
330
92
100
AcDbEntity
  8
0
  6
CONTINUOUS
 62
     1
100
AcDbLine
 10
-715.281401713637
 20
316.4437678411728
 30
0.0
 11
-715.264709818608
 21
316.4575898186718
 31
0.0
  0
LINE
  5
35D
330
92
100
AcDbEntity
  8
0
  6
CONTINUOUS
 62
     7
100
AcDbLine
 10
-715.264709818608
 20
316.4575898186718
 30
0.0
 11
-715.264709818608
 21
312.7928104293687
 31
0.0
  0
LINE
  5
35E
330
92
100
AcDbEntity
  8
0
  6
CONTINUOUS
 62
     1
100
AcDbLine
 10
-720.7647098186026
 20
311.7614373959659
 30
0.0
 11
-720.7647098186026
 21
316.7614373959659
 31
0.0
  0
LINE
  5
35F
330
92
100
AcDbEntity
  8
0
  6
CONTINUOUS
 62
     1
100
AcDbLine
 10
-716.2531527039682
 20
316.7614373959659
 30
0.0
 11
-720.7647098186026
 21
316.7614373959659
 31
0.0
  0
LINE
  5
360
330
92
100
AcDbEntity
  8
0
  6
CONTINUOUS
 62
     7
100
AcDbLine
 10
-722.7647391159808
 20
310.2942803457509
 30
0.0
 11
-722.7647098186026
 21
316.7614373959659
 31
0.0
  0
LINE
  5
361
330
92
100
AcDbEntity
  8
0
  6
CONTINUOUS
 62
     1
100
AcDbLine
 10
-715.2560419826277
 20
316.6854755016429
 30
0.0
 11
-716.2531527039682
 21
316.7614373959659
 31
0.0
  0
LINE
  5
362
330
92
100
AcDbEntity
  8
0
  6
CONTINUOUS
 62
     1
100
AcDbLine
 10
-714.8627860299621
 20
317.9575898186718
 30
0.0
 11
-715.7288114337462
 21
318.4575898186718
 31
0.0
  0
LINE
  5
363
330
92
100
AcDbEntity
  8
0
  6
CONTINUOUS
 62
     1
100
AcDbLine
 10
-716.264709818608
 20
311.8006536877197
 30
0.0
 11
-716.264709818608
 21
316.3816279243488
 31
0.0
  0
LINE
  5
364
330
92
100
AcDbEntity
  8
0
  6
CONTINUOUS
 62
     1
100
AcDbLine
 10
-715.2529288011665
 20
312.7614373959659
 30
0.0
 11
-715.2914725144183
 21
312.4862788275009
 31
0.0
  0
LINE
  5
365
330
92
100
AcDbEntity
  8
0
  6
CONTINUOUS
 62
     1
100
AcDbLine
 10
-715.2914725144183
 20
312.4862788275009
 30
0.0
 11
-715.3230276901995
 21
312.3933423116928
 31
0.0
  0
LINE
  5
366
330
92
100
AcDbEntity
  8
0
  6
CONTINUOUS
 62
     1
100
AcDbLine
 10
-715.3230276901995
 20
312.3933423116928
 30
0.0
 11
-715.415679057387
 21
312.2142279699579
 31
0.0
  0
LINE
  5
367
330
92
100
AcDbEntity
  8
0
  6
CONTINUOUS
 62
     1
100
AcDbLine
 10
-715.415679057387
 20
312.2142279699579
 30
0.0
 11
-715.5454397995745
 21
312.0543311193719
 31
0.0
  0
LINE
  5
368
330
92
100
AcDbEntity
  8
0
  6
CONTINUOUS
 62
     1
100
AcDbLine
 10
-715.5454397995745
 20
312.0543311193719
 30
0.0
 11
-715.7051077683245
 21
311.9244416311508
 31
0.0
  0
LINE
  5
369
330
92
100
AcDbEntity
  8
0
  6
CONTINUOUS
 62
     1
100
AcDbLine
 10
-715.7051077683245
 20
311.9244416311508
 30
0.0
 11
-715.883940776137
 21
311.8316491201649
 31
0.0
  0
LINE
  5
36A
330
92
100
AcDbEntity
  8
0
  6
CONTINUOUS
 62
     1
100
AcDbLine
 10
-715.883940776137
 20
311.8316491201649
 30
0.0
 11
-715.9767752487933
 21
311.8000386312729
 31
0.0
  0
LINE
  5
36B
330
92
100
AcDbEntity
  8
0
  6
CONTINUOUS
 62
     7
100
AcDbLine
 10
-715.9767752487933
 20
311.8000386312729
 30
0.0
 11
-716.2515427991129
 21
311.7614373959659
 31
0.0
  0
LINE
  5
36C
330
92
100
AcDbEntity
  8
0
  6
CONTINUOUS
 62
     1
100
AcDbLine
 10
-720.7647098186026
 20
316.7614373959659
 30
0.0
 11
-722.7647098186026
 21
316.7614373959659
 31
0.0
  0
LINE
  5
36D
330
92
100
AcDbEntity
  8
0
  6
CONTINUOUS
 62
     1
100
AcDbLine
 10
-714.6873595494199
 20
320.2614373959659
 30
0.0
 11
-715.7288114337462
 21
318.4575898186718
 31
0.0
  0
LINE
  5
36E
330
92
100
AcDbEntity
  8
0
  6
CONTINUOUS
 62
     1
100
AcDbLine
 10
-716.264709818608
 20
316.3816279243488
 30
0.0
 11
-716.2618094284808
 21
316.571454341723
 31
0.0
  0
LINE
  5
36F
330
92
100
AcDbEntity
  8
0
  6
CONTINUOUS
 62
     1
100
AcDbLine
 10
-716.2618094284808
 20
316.571454341723
 30
0.0
 11
-716.2531527039682
 21
316.7614373959659
 31
0.0
  0
LINE
  5
370
330
92
100
AcDbEntity
  8
0
  6
CONTINUOUS
 62
     7
100
AcDbLine
 10
-713.821334145634
 20
319.7614373959659
 30
0.0
 11
-714.8627860299621
 21
317.9575898186718
 31
0.0
  0
LINE
  5
371
330
92
100
AcDbEntity
  8
0
  6
CONTINUOUS
 62
     1
100
AcDbLine
 10
-698.2764908360514
 20
312.7614373959659
 30
0.0
 11
-715.2529288011665
 21
312.7614373959659
 31
0.0
  0
LINE
  5
372
330
92
100
AcDbEntity
  8
0
  6
CONTINUOUS
 62
     1
100
AcDbLine
 10
-714.7647098186026
 20
311.7614373959659
 30
0.0
 11
-714.7647098186026
 21
309.7614373959659
 31
0.0
  0
LINE
  5
373
330
92
100
AcDbEntity
  8
0
  6
CONTINUOUS
 62
     7
100
AcDbLine
 10
-712.9553087418499
 20
320.2614373959659
 30
0.0
 11
-712.9553087418499
 21
320.9840886348347
 31
0.0
  0
LINE
  5
374
330
92
100
AcDbEntity
  8
0
  6
CONTINUOUS
 62
     1
100
AcDbLine
 10
-713.821334145634
 20
319.7614373959659
 30
0.0
 11
-714.6873595494199
 21
320.2614373959659
 31
0.0
  0
LINE
  5
375
330
92
100
AcDbEntity
  8
0
  6
CONTINUOUS
 62
     1
100
AcDbLine
 10
-700.574110895368
 20
321.2098435571479
 30
0.0
 11
-701.588774760512
 21
320.6686423376327
 31
0.0
  0
LINE
  5
376
330
92
100
AcDbEntity
  8
0
  6
CONTINUOUS
 62
     1
100
AcDbLine
 10
-701.588774760512
 20
320.6686423376327
 30
0.0
 11
-701.937651713637
 21
320.5703776434189
 31
0.0
  0
LINE
  5
377
330
92
100
AcDbEntity
  8
0
  6
CONTINUOUS
 62
     1
100
AcDbLine
 10
-701.937651713637
 20
320.5703776434189
 30
0.0
 11
-702.0505667526995
 21
320.561662967516
 31
0.0
  0
LINE
  5
378
330
92
100
AcDbEntity
  8
0
  6
CONTINUOUS
 62
     1
100
AcDbLine
 10
-702.0505667526995
 20
320.561662967516
 30
0.0
 11
-702.4219046433245
 21
320.5614379003769
 31
0.0
  0
LINE
  5
379
330
92
100
AcDbEntity
  8
0
  6
CONTINUOUS
 62
     1
100
AcDbLine
 10
-711.1074515183245
 20
320.5614379003769
 30
0.0
 11
-711.4787894089495
 21
320.5616438940297
 31
0.0
  0
LINE
  5
37A
330
92
100
AcDbEntity
  8
0
  6
CONTINUOUS
 62
     1
100
AcDbLine
 10
-711.4787894089495
 20
320.5616438940297
 30
0.0
 11
-711.591704448012
 21
320.5702593878041
 31
0.0
  0
LINE
  5
37B
330
92
100
AcDbEntity
  8
0
  6
CONTINUOUS
 62
     1
100
AcDbLine
 10
-711.591704448012
 20
320.5702593878041
 30
0.0
 11
-711.940581401137
 21
320.668295200182
 31
0.0
  0
LINE
  5
37C
330
92
100
AcDbEntity
  8
0
  6
CONTINUOUS
 62
     1
100
AcDbLine
 10
-711.940581401137
 20
320.668295200182
 30
0.0
 11
-712.9553087418499
 21
321.2092611154731
 31
0.0
  0
LINE
  5
37D
330
92
100
AcDbEntity
  8
0
  6
CONTINUOUS
 62
     1
100
AcDbLine
 10
-712.9553087418499
 20
321.2092611154731
 30
0.0
 11
-713.2651663620745
 21
321.2341311529408
 31
0.0
  0
LINE
  5
37E
330
92
100
AcDbEntity
  8
0
  6
CONTINUOUS
 62
     1
100
AcDbLine
 10
-713.2651663620745
 20
321.2341311529408
 30
0.0
 11
-713.3876639206683
 21
321.2141383245717
 31
0.0
  0
LINE
  5
37F
330
92
100
AcDbEntity
  8
0
  6
CONTINUOUS
 62
     1
100
AcDbLine
 10
-713.3876639206683
 20
321.2141383245717
 30
0.0
 11
-713.868804057387
 21
321.040617282702
 31
0.0
  0
LINE
  5
380
330
92
100
AcDbEntity
  8
0
  6
CONTINUOUS
 62
     1
100
AcDbLine
 10
-713.868804057387
 20
321.040617282702
 30
0.0
 11
-714.3342581589495
 21
320.7100604131947
 31
0.0
  0
LINE
  5
381
330
92
100
AcDbEntity
  8
0
  6
CONTINUOUS
 62
     1
100
AcDbLine
 10
-714.3342581589495
 20
320.7100604131947
 30
0.0
 11
-714.6873595494199
 21
320.2614373959659
 31
0.0
  0
LINE
  5
382
330
92
100
AcDbEntity
  8
0
  6
CONTINUOUS
 62
     7
100
AcDbLine
 10
-713.4120779831683
 20
320.1510279730087
 30
0.0
 11
-713.4120779831683
 21
320.151026065661
 31
0.0
  0
LINE
  5
383
330
92
100
AcDbEntity
  8
0
  6
CONTINUOUS
 62
     1
100
AcDbLine
 10
-722.7647098186044
 20
323.996705206137
 30
0.0
 11
-720.7647098186044
 21
323.996705206137
 31
0.0
  0
LINE
  5
384
330
92
100
AcDbEntity
  8
0
  6
CONTINUOUS
 62
     7
100
AcDbLine
 10
-722.6484267951091
 20
325.5172770486761
 30
0.0
 11
-722.7647098186044
 21
323.996705206137
 31
0.0
  0
LINE
  5
385
330
92
100
AcDbEntity
  8
0
  6
CONTINUOUS
 62
     1
100
AcDbLine
 10
-722.6484267951091
 20
325.5172770486761
 30
0.0
 11
-720.6716833998089
 21
325.2131626801679
 31
0.0
  0
LINE
  5
386
330
92
100
AcDbEntity
  8
0
  6
CONTINUOUS
 62
     1
100
AcDbLine
 10
-720.6716833998089
 20
325.2131626801679
 30
0.0
 11
-720.7647098186044
 21
323.996705206137
 31
0.0
  0
LINE
  5
387
330
92
100
AcDbEntity
  8
0
  6
CONTINUOUS
 62
     7
100
AcDbLine
 10
-719.971948828148
 20
331.2614373959659
 30
0.0
 11
-720.477831383454
 21
331.2614373959659
 31
0.0
  0
LINE
  5
388
330
92
100
AcDbEntity
  8
0
  6
CONTINUOUS
 62
     1
100
AcDbLine
 10
-719.971948828148
 20
329.7614373959659
 30
0.0
 11
-720.6716833998089
 21
325.2131626801679
 31
0.0
  0
LINE
  5
389
330
92
100
AcDbEntity
  8
0
  6
CONTINUOUS
 62
     1
100
AcDbLine
 10
-719.971948828148
 20
329.7614373959659
 30
0.0
 11
-719.971948828148
 21
331.2614373959659
 31
0.0
  0
LINE
  5
38A
330
92
100
AcDbEntity
  8
0
  6
CONTINUOUS
 62
     7
100
AcDbLine
 10
-721.9603889299306
 20
329.9895231723458
 30
0.0
 11
-722.6484267951091
 21
325.5172770486761
 31
0.0
  0
LINE
  5
38B
330
92
100
AcDbEntity
  8
0
  6
CONTINUOUS
 62
     1
100
AcDbLine
 10
-721.9603889299306
 20
329.9895231723458
 30
0.0
 11
-721.8730765183245
 21
329.990682895495
 31
0.0
  0
LINE
  5
38C
330
92
100
AcDbEntity
  8
0
  6
CONTINUOUS
 62
     1
100
AcDbLine
 10
-721.8730765183245
 20
329.990682895495
 30
0.0
 11
-721.8069754441058
 21
329.9853804662948
 31
0.0
  0
LINE
  5
38D
330
92
100
AcDbEntity
  8
0
  6
CONTINUOUS
 62
     1
100
AcDbLine
 10
-721.8069754441058
 20
329.9853804662948
 30
0.0
 11
-721.6228323776995
 21
329.9667800024281
 31
0.0
  0
LINE
  5
38E
330
92
100
AcDbEntity
  8
0
  6
CONTINUOUS
 62
     1
100
AcDbLine
 10
-721.6228323776995
 20
329.9667800024281
 30
0.0
 11
-721.0745535691058
 21
329.9018824651967
 31
0.0
  0
LINE
  5
38F
330
92
100
AcDbEntity
  8
0
  6
CONTINUOUS
 62
     1
100
AcDbLine
 10
-721.0745535691058
 20
329.9018824651967
 30
0.0
 11
-719.971948828148
 21
329.7614373959659
 31
0.0
  0
LINE
  5
390
330
92
100
AcDbEntity
  8
0
  6
CONTINUOUS
 62
     7
100
AcDbLine
 10
-720.477831383454
 20
331.2614373959659
 30
0.0
 11
-720.871977885512
 21
331.2087195471058
 31
0.0
  0
LINE
  5
391
330
92
100
AcDbEntity
  8
0
  6
CONTINUOUS
 62
     7
100
AcDbLine
 10
-720.871977885512
 20
331.2087195471058
 30
0.0
 11
-720.9985647995745
 21
331.1681483343368
 31
0.0
  0
LINE
  5
392
330
92
100
AcDbEntity
  8
0
  6
CONTINUOUS
 62
     7
100
AcDbLine
 10
-720.9985647995745
 20
331.1681483343368
 30
0.0
 11
-721.0518484909808
 21
331.1472552374139
 31
0.0
  0
LINE
  5
393
330
92
100
AcDbEntity
  8
0
  6
CONTINUOUS
 62
     7
100
AcDbLine
 10
-721.2384939987933
 20
331.0542758062607
 30
0.0
 11
-721.454497416762
 21
330.8998854711781
 31
0.0
  0
LINE
  5
394
330
92
100
AcDbEntity
  8
0
  6
CONTINUOUS
 62
     7
100
AcDbLine
 10
-721.538481791762
 20
330.8220961645379
 30
0.0
 11
-721.6399832566058
 21
330.7098124578729
 31
0.0
  0
LINE
  5
395
330
92
100
AcDbEntity
  8
0
  6
CONTINUOUS
 62
     7
100
AcDbLine
 10
-721.6399832566058
 20
330.7098124578729
 30
0.0
 11
-721.7890311081683
 21
330.490015323473
 31
0.0
  0
LINE
  5
396
330
92
100
AcDbEntity
  8
0
  6
CONTINUOUS
 62
     7
100
AcDbLine
 10
-721.8483572800433
 20
330.3710940435658
 30
0.0
 11
-721.863677104262
 21
330.335460956408
 31
0.0
  0
LINE
  5
397
330
92
100
AcDbEntity
  8
0
  6
CONTINUOUS
 62
     7
100
AcDbLine
 10
-721.863677104262
 20
330.335460956408
 30
0.0
 11
-721.9603889299306
 21
329.9895231723458
 31
0.0
  0
LINE
  5
398
330
92
100
AcDbEntity
  8
0
  6
CONTINUOUS
 62
     7
100
AcDbLine
 10
-721.0518484909808
 20
331.1472552374139
 30
0.0
 11
-721.0698206675443
 21
331.1383022078289
 31
0.0
  0
LINE
  5
399
330
92
100
AcDbEntity
  8
0
  6
CONTINUOUS
 62
     7
100
AcDbLine
 10
-721.0698206675443
 20
331.1383022078289
 30
0.0
 11
-721.2384939987933
 21
331.0542758062607
 31
0.0
  0
LINE
  5
39A
330
92
100
AcDbEntity
  8
0
  6
CONTINUOUS
 62
     7
100
AcDbLine
 10
-721.7890311081683
 20
330.490015323473
 30
0.0
 11
-721.8207855729815
 21
330.4263624451728
 31
0.0
  0
LINE
  5
39B
330
92
100
AcDbEntity
  8
0
  6
CONTINUOUS
 62
     7
100
AcDbLine
 10
-721.8207855729815
 20
330.4263624451728
 30
0.0
 11
-721.8483572800433
 21
330.3710940435658
 31
0.0
  0
LINE
  5
39C
330
92
100
AcDbEntity
  8
0
  6
CONTINUOUS
 62
     7
100
AcDbLine
 10
-721.454497416762
 20
330.8998854711781
 30
0.0
 11
-721.5157820941204
 21
330.843121429541
 31
0.0
  0
LINE
  5
39D
330
92
100
AcDbEntity
  8
0
  6
CONTINUOUS
 62
     7
100
AcDbLine
 10
-721.5157820941204
 20
330.843121429541
 30
0.0
 11
-721.538481791762
 21
330.8220961645379
 31
0.0
  0
LINE
  5
39E
330
92
100
AcDbEntity
  8
0
  6
CONTINUOUS
 62
     7
100
AcDbLine
 10
-712.9553087418499
 20
320.9840886348347
 30
0.0
 11
-712.9553087418499
 21
321.2092611154731
 31
0.0
  0
LINE
  5
39F
330
92
100
AcDbEntity
  8
0
  6
CONTINUOUS
 62
     1
100
AcDbLine
 10
-702.4219046433245
 20
320.5614379003769
 30
0.0
 11
-702.7647391106057
 21
320.5614379003769
 31
0.0
  0
LINE
  5
3A0
330
92
100
AcDbEntity
  8
0
  6
CONTINUOUS
 62
     1
100
AcDbLine
 10
-710.7647391106766
 20
320.5614379003769
 30
0.0
 11
-711.1074515183245
 21
320.5614379003769
 31
0.0
  0
LINE
  5
3A1
330
92
100
AcDbEntity
  8
0
  6
CONTINUOUS
 62
     1
100
AcDbLine
 10
-698.8420600878035
 20
320.2614373959618
 30
0.0
 11
-699.7080854915821
 21
319.7614373959659
 31
0.0
  0
LINE
  5
3A2
330
92
100
AcDbEntity
  8
0
  6
CONTINUOUS
 62
     1
100
AcDbLine
 10
-700.574110895368
 20
321.2098435571479
 30
0.0
 11
-700.140288432387
 21
321.2138236120468
 31
0.0
  0
LINE
  5
3A3
330
92
100
AcDbEntity
  8
0
  6
CONTINUOUS
 62
     1
100
AcDbLine
 10
-700.140288432387
 20
321.2138236120468
 30
0.0
 11
-699.1934500534808
 21
320.708399112536
 31
0.0
  0
LINE
  5
3A4
330
92
100
AcDbEntity
  8
0
  6
CONTINUOUS
 62
     1
100
AcDbLine
 10
-699.1934500534808
 20
320.708399112536
 30
0.0
 11
-698.8420600878035
 21
320.2614373959618
 31
0.0
  0
LINE
  5
3A5
330
92
100
AcDbEntity
  8
0
  6
CONTINUOUS
 62
     7
100
AcDbLine
 10
-700.574110895368
 20
320.9635476549729
 30
0.0
 11
-700.574110895368
 21
320.2614373959659
 31
0.0
  0
LINE
  5
3A6
330
92
100
AcDbEntity
  8
0
  6
CONTINUOUS
 62
     7
100
AcDbLine
 10
-700.574110895368
 20
320.2614373959659
 30
0.0
 11
-700.387358744887
 21
320.2438414648309
 31
0.0
  0
LINE
  5
3A7
330
92
100
AcDbEntity
  8
0
  6
CONTINUOUS
 62
     1
100
AcDbLine
 10
-698.7647098186135
 20
311.7614373959659
 30
0.0
 11
-698.7647098186135
 21
309.7614373959659
 31
0.0
  0
LINE
  5
3A8
330
92
100
AcDbEntity
  8
0
  6
CONTINUOUS
 62
     7
100
AcDbLine
 10
-699.7080854915821
 20
319.7614373959659
 30
0.0
 11
-698.6666336072558
 21
317.9575898186718
 31
0.0
  0
LINE
  5
3A9
330
92
100
AcDbEntity
  8
0
  6
CONTINUOUS
 62
     7
100
AcDbLine
 10
-690.7647098186135
 20
309.7614373959659
 30
0.0
 11
-690.7647098186135
 21
316.7614373959659
 31
0.0
  0
LINE
  5
3AA
330
92
100
AcDbEntity
  8
0
  6
CONTINUOUS
 62
     1
100
AcDbLine
 10
-692.7647098186135
 20
311.7614373959659
 30
0.0
 11
-692.7647098186135
 21
316.7614373959659
 31
0.0
  0
LINE
  5
3AB
330
92
100
AcDbEntity
  8
0
  6
CONTINUOUS
 62
     1
100
AcDbLine
 10
-697.2778768381031
 20
311.7614373959659
 30
0.0
 11
-697.267973979262
 21
311.7712510183578
 31
0.0
  0
LINE
  5
3AC
330
92
100
AcDbEntity
  8
0
  6
CONTINUOUS
 62
     1
100
AcDbLine
 10
-697.267973979262
 20
311.7712510183578
 30
0.0
 11
-697.264709818608
 21
311.8006536877197
 31
0.0
  0
LINE
  5
3AD
330
92
100
AcDbEntity
  8
0
  6
CONTINUOUS
 62
     7
100
AcDbLine
 10
-698.7647098186135
 20
311.7614373959659
 30
0.0
 11
-692.7647098186135
 21
311.7614373959659
 31
0.0
  0
LINE
  5
3AE
330
92
100
AcDbEntity
  8
0
  6
CONTINUOUS
 62
     7
100
AcDbLine
 10
-698.264709818608
 20
312.7928104293687
 30
0.0
 11
-698.2261038620745
 21
312.5198100164657
 31
0.0
  0
LINE
  5
3AF
330
92
100
AcDbEntity
  8
0
  6
CONTINUOUS
 62
     1
100
AcDbLine
 10
-698.2261038620745
 20
312.5198100164657
 30
0.0
 11
-698.194487651137
 21
312.4276030615097
 31
0.0
  0
LINE
  5
3B0
330
92
100
AcDbEntity
  8
0
  6
CONTINUOUS
 62
     1
100
AcDbLine
 10
-698.194487651137
 20
312.4276030615097
 30
0.0
 11
-698.1313162644183
 21
312.2977011755238
 31
0.0
  0
LINE
  5
3B1
330
92
100
AcDbEntity
  8
0
  6
CONTINUOUS
 62
     1
100
AcDbLine
 10
-698.1313162644183
 20
312.2977011755238
 30
0.0
 11
-698.101714213637
 21
312.249892528368
 31
0.0
  0
LINE
  5
3B2
330
92
100
AcDbEntity
  8
0
  6
CONTINUOUS
 62
     1
100
AcDbLine
 10
-698.101714213637
 20
312.249892528368
 30
0.0
 11
-697.971831401137
 21
312.0912497595077
 31
0.0
  0
LINE
  5
3B3
330
92
100
AcDbEntity
  8
0
  6
CONTINUOUS
 62
     1
100
AcDbLine
 10
-697.971831401137
 20
312.0912497595077
 30
0.0
 11
-697.811919291762
 21
311.9623797491317
 31
0.0
  0
LINE
  5
3B4
330
92
100
AcDbEntity
  8
0
  6
CONTINUOUS
 62
     1
100
AcDbLine
 10
-697.811919291762
 20
311.9623797491317
 30
0.0
 11
-697.6327811081683
 21
311.8703148916488
 31
0.0
  0
LINE
  5
3B5
330
92
100
AcDbEntity
  8
0
  6
CONTINUOUS
 62
     1
100
AcDbLine
 10
-697.6327811081683
 20
311.8703148916488
 30
0.0
 11
-697.6052542526995
 21
311.8599608495961
 31
0.0
  0
LINE
  5
3B6
330
92
100
AcDbEntity
  8
0
  6
CONTINUOUS
 62
     1
100
AcDbLine
 10
-697.6052542526995
 20
311.8599608495961
 30
0.0
 11
-697.5398856003558
 21
311.83895235808
 31
0.0
  0
LINE
  5
3B7
330
92
100
AcDbEntity
  8
0
  6
CONTINUOUS
 62
     1
100
AcDbLine
 10
-697.5398856003558
 20
311.83895235808
 30
0.0
 11
-697.264709818608
 21
311.8006536877197
 31
0.0
  0
LINE
  5
3B8
330
92
100
AcDbEntity
  8
0
  6
CONTINUOUS
 62
     7
100
AcDbLine
 10
-698.264709818608
 20
316.4575898186718
 30
0.0
 11
-698.264709818608
 21
312.7928104293687
 31
0.0
  0
LINE
  5
3B9
330
92
100
AcDbEntity
  8
0
  6
CONTINUOUS
 62
     1
100
AcDbLine
 10
-692.7647098186135
 20
323.9967052061361
 30
0.0
 11
-692.7647098186135
 21
316.7614373959659
 31
0.0
  0
LINE
  5
3BA
330
92
100
AcDbEntity
  8
0
  6
CONTINUOUS
 62
     1
100
AcDbLine
 10
-697.264709818608
 20
311.8006536877197
 30
0.0
 11
-697.264709818608
 21
316.3816279243488
 31
0.0
  0
LINE
  5
3BB
330
92
100
AcDbEntity
  8
0
  6
CONTINUOUS
 62
     1
100
AcDbLine
 10
-697.8006082034717
 20
318.4575898186718
 30
0.0
 11
-698.6666336072558
 21
317.9575898186718
 31
0.0
  0
LINE
  5
3BC
330
92
100
AcDbEntity
  8
0
  6
CONTINUOUS
 62
     1
100
AcDbLine
 10
-698.2764908360514
 20
312.7614373959659
 30
0.0
 11
-698.237944682387
 21
312.4862788275009
 31
0.0
  0
LINE
  5
3BD
330
92
100
AcDbEntity
  8
0
  6
CONTINUOUS
 62
     1
100
AcDbLine
 10
-698.237944682387
 20
312.4862788275009
 30
0.0
 11
-698.2063895066058
 21
312.3933423116928
 31
0.0
  0
LINE
  5
3BE
330
92
100
AcDbEntity
  8
0
  6
CONTINUOUS
 62
     1
100
AcDbLine
 10
-698.2063895066058
 20
312.3933423116928
 30
0.0
 11
-698.1137381394183
 21
312.2142279699579
 31
0.0
  0
LINE
  5
3BF
330
92
100
AcDbEntity
  8
0
  6
CONTINUOUS
 62
     1
100
AcDbLine
 10
-698.1137381394183
 20
312.2142279699579
 30
0.0
 11
-697.9839773972308
 21
312.0543311193719
 31
0.0
  0
LINE
  5
3C0
330
92
100
AcDbEntity
  8
0
  6
CONTINUOUS
 62
     1
100
AcDbLine
 10
-697.9839773972308
 20
312.0543311193719
 30
0.0
 11
-697.8243094284808
 21
311.9244416311508
 31
0.0
  0
LINE
  5
3C1
330
92
100
AcDbEntity
  8
0
  6
CONTINUOUS
 62
     1
100
AcDbLine
 10
-697.8243094284808
 20
311.9244416311508
 30
0.0
 11
-697.6454764206683
 21
311.8316491201649
 31
0.0
  0
LINE
  5
3C2
330
92
100
AcDbEntity
  8
0
  6
CONTINUOUS
 62
     1
100
AcDbLine
 10
-697.6454764206683
 20
311.8316491201649
 30
0.0
 11
-697.552641948012
 21
311.8000386312729
 31
0.0
  0
LINE
  5
3C3
330
92
100
AcDbEntity
  8
0
  6
CONTINUOUS
 62
     7
100
AcDbLine
 10
-697.552641948012
 20
311.8000386312729
 30
0.0
 11
-697.2778768381031
 21
311.7614373959659
 31
0.0
  0
LINE
  5
3C4
330
92
100
AcDbEntity
  8
0
  6
CONTINUOUS
 62
     1
100
AcDbLine
 10
-692.7647098186135
 20
316.7614373959659
 30
0.0
 11
-697.2762669332496
 21
316.7614373959659
 31
0.0
  0
LINE
  5
3C5
330
92
100
AcDbEntity
  8
0
  6
CONTINUOUS
 62
     1
100
AcDbLine
 10
-690.7647098186135
 20
316.7614373959659
 30
0.0
 11
-692.7647098186135
 21
316.7614373959659
 31
0.0
  0
LINE
  5
3C6
330
92
100
AcDbEntity
  8
0
  6
CONTINUOUS
 62
     1
100
AcDbLine
 10
-698.2764908360514
 20
312.7614373959659
 30
0.0
 11
-698.2676688034808
 21
312.7692883566147
 31
0.0
  0
LINE
  5
3C7
330
92
100
AcDbEntity
  8
0
  6
CONTINUOUS
 62
     1
100
AcDbLine
 10
-698.2676688034808
 20
312.7692883566147
 30
0.0
 11
-698.264709818608
 21
312.7928104293687
 31
0.0
  0
LINE
  5
3C8
330
92
100
AcDbEntity
  8
0
  6
CONTINUOUS
 62
     7
100
AcDbLine
 10
-690.7647098186135
 20
323.9967052061361
 30
0.0
 11
-690.7647098186135
 21
316.7614373959659
 31
0.0
  0
LINE
  5
3C9
330
92
100
AcDbEntity
  8
0
  6
CONTINUOUS
 62
     1
100
AcDbLine
 10
-698.2733776545901
 20
316.6854755016429
 30
0.0
 11
-697.2762669332496
 21
316.7614373959659
 31
0.0
  0
LINE
  5
3CA
330
92
100
AcDbEntity
  8
0
  6
CONTINUOUS
 62
     1
100
AcDbLine
 10
-697.8006082034717
 20
318.4575898186718
 30
0.0
 11
-698.8420600878035
 21
320.2614373959618
 31
0.0
  0
LINE
  5
3CB
330
92
100
AcDbEntity
  8
0
  6
CONTINUOUS
 62
     1
100
AcDbLine
 10
-697.264709818608
 20
316.3816279243488
 30
0.0
 11
-697.2676077683245
 21
316.571454341723
 31
0.0
  0
LINE
  5
3CC
330
92
100
AcDbEntity
  8
0
  6
CONTINUOUS
 62
     1
100
AcDbLine
 10
-697.2676077683245
 20
316.571454341723
 30
0.0
 11
-697.2762669332496
 21
316.7614373959659
 31
0.0
  0
LINE
  5
3CD
330
92
100
AcDbEntity
  8
0
  6
CONTINUOUS
 62
     1
100
AcDbLine
 10
-698.264709818608
 20
316.4575898186718
 30
0.0
 11
-698.2480154831683
 21
316.4437678411728
 31
0.0
  0
LINE
  5
3CE
330
92
100
AcDbEntity
  8
0
  6
CONTINUOUS
 62
     1
100
AcDbLine
 10
-698.2480154831683
 20
316.4437678411728
 30
0.0
 11
-698.2261038620745
 21
316.436688716723
 31
0.0
  0
LINE
  5
3CF
330
92
100
AcDbEntity
  8
0
  6
CONTINUOUS
 62
     1
100
AcDbLine
 10
-698.2261038620745
 20
316.436688716723
 30
0.0
 11
-698.194487651137
 21
316.4296286657577
 31
0.0
  0
LINE
  5
3D0
330
92
100
AcDbEntity
  8
0
  6
CONTINUOUS
 62
     1
100
AcDbLine
 10
-698.194487651137
 20
316.4296286657577
 30
0.0
 11
-698.1313162644183
 21
316.4196837499867
 31
0.0
  0
LINE
  5
3D1
330
92
100
AcDbEntity
  8
0
  6
CONTINUOUS
 62
     1
100
AcDbLine
 10
-698.1313162644183
 20
316.4196837499867
 30
0.0
 11
-698.101714213637
 21
316.4160235479599
 31
0.0
  0
LINE
  5
3D2
330
92
100
AcDbEntity
  8
0
  6
CONTINUOUS
 62
     1
100
AcDbLine
 10
-698.101714213637
 20
316.4160235479599
 30
0.0
 11
-697.971831401137
 21
316.403877551867
 31
0.0
  0
LINE
  5
3D3
330
92
100
AcDbEntity
  8
0
  6
CONTINUOUS
 62
     1
100
AcDbLine
 10
-697.971831401137
 20
316.403877551867
 30
0.0
 11
-697.811919291762
 21
316.394010837389
 31
0.0
  0
LINE
  5
3D4
330
92
100
AcDbEntity
  8
0
  6
CONTINUOUS
 62
     1
100
AcDbLine
 10
-697.811919291762
 20
316.394010837389
 30
0.0
 11
-697.6327811081683
 21
316.3869612768417
 31
0.0
  0
LINE
  5
3D5
330
92
100
AcDbEntity
  8
0
  6
CONTINUOUS
 62
     1
100
AcDbLine
 10
-697.6327811081683
 20
316.3869612768417
 30
0.0
 11
-697.5398856003558
 21
316.3845608785878
 31
0.0
  0
LINE
  5
3D6
330
92
100
AcDbEntity
  8
0
  6
CONTINUOUS
 62
     1
100
AcDbLine
 10
-697.5398856003558
 20
316.3845608785878
 30
0.0
 11
-697.446684916762
 21
316.3828967169061
 31
0.0
  0
LINE
  5
3D7
330
92
100
AcDbEntity
  8
0
  6
CONTINUOUS
 62
     1
100
AcDbLine
 10
-697.446684916762
 20
316.3828967169061
 30
0.0
 11
-697.264709818608
 21
316.3816279243488
 31
0.0
  0
LINE
  5
3D8
330
92
100
AcDbEntity
  8
0
  6
CONTINUOUS
 62
     7
100
AcDbLine
 10
-700.574110895368
 20
321.2098435571479
 30
0.0
 11
-700.574110895368
 21
320.9635476549729
 31
0.0
  0
LINE
  5
3D9
330
92
100
AcDbEntity
  8
0
  6
CONTINUOUS
 62
     1
100
AcDbLine
 10
-690.8809928421069
 20
325.5172770486747
 30
0.0
 11
-692.857736237409
 21
325.2131626801679
 31
0.0
  0
LINE
  5
3DA
330
92
100
AcDbEntity
  8
0
  6
CONTINUOUS
 62
     1
100
AcDbLine
 10
-690.7647098186135
 20
323.9967052061361
 30
0.0
 11
-692.7647098186135
 21
323.9967052061361
 31
0.0
  0
LINE
  5
3DB
330
92
100
AcDbEntity
  8
0
  6
CONTINUOUS
 62
     1
100
AcDbLine
 10
-692.7647098186135
 20
323.9967052061361
 30
0.0
 11
-692.857736237409
 21
325.2131626801679
 31
0.0
  0
LINE
  5
3DC
330
92
100
AcDbEntity
  8
0
  6
CONTINUOUS
 62
     7
100
AcDbLine
 10
-691.5690307072873
 20
329.9895231723458
 30
0.0
 11
-690.8809928421069
 21
325.5172770486747
 31
0.0
  0
LINE
  5
3DD
330
92
100
AcDbEntity
  8
0
  6
CONTINUOUS
 62
     1
100
AcDbLine
 10
-693.5574708090699
 20
329.7614373959659
 30
0.0
 11
-692.857736237409
 21
325.2131626801679
 31
0.0
  0
LINE
  5
3DE
330
92
100
AcDbEntity
  8
0
  6
CONTINUOUS
 62
     1
100
AcDbLine
 10
-693.5574708090699
 20
329.7614373959659
 30
0.0
 11
-692.1538382370745
 21
329.9384635046249
 31
0.0
  0
LINE
  5
3DF
330
92
100
AcDbEntity
  8
0
  6
CONTINUOUS
 62
     1
100
AcDbLine
 10
-692.1538382370745
 20
329.9384635046249
 30
0.0
 11
-691.9065848191058
 21
329.9667800024281
 31
0.0
  0
LINE
  5
3E0
330
92
100
AcDbEntity
  8
0
  6
CONTINUOUS
 62
     1
100
AcDbLine
 10
-691.9065848191058
 20
329.9667800024281
 30
0.0
 11
-691.7224417526995
 21
329.9853804662948
 31
0.0
  0
LINE
  5
3E1
330
92
100
AcDbEntity
  8
0
  6
CONTINUOUS
 62
     1
100
AcDbLine
 10
-691.7224417526995
 20
329.9853804662948
 30
0.0
 11
-691.6563406784808
 21
329.990682895495
 31
0.0
  0
LINE
  5
3E2
330
92
100
AcDbEntity
  8
0
  6
CONTINUOUS
 62
     1
100
AcDbLine
 10
-691.6563406784808
 20
329.990682895495
 30
0.0
 11
-691.5690307072873
 21
329.9895231723458
 31
0.0
  0
LINE
  5
3E3
330
92
100
AcDbEntity
  8
0
  6
CONTINUOUS
 62
     7
100
AcDbLine
 10
-691.5690307072873
 20
329.9895231723458
 30
0.0
 11
-691.6657400925433
 21
330.335460956408
 31
0.0
  0
LINE
  5
3E4
330
92
100
AcDbEntity
  8
0
  6
CONTINUOUS
 62
     7
100
AcDbLine
 10
-691.6657400925433
 20
330.335460956408
 30
0.0
 11
-691.681059916762
 21
330.3710940435658
 31
0.0
  0
LINE
  5
3E5
330
92
100
AcDbEntity
  8
0
  6
CONTINUOUS
 62
     7
100
AcDbLine
 10
-691.740386088637
 20
330.490015323473
 30
0.0
 11
-691.8894339401995
 21
330.7098124578729
 31
0.0
  0
LINE
  5
3E6
330
92
100
AcDbEntity
  8
0
  6
CONTINUOUS
 62
     7
100
AcDbLine
 10
-691.8894339401995
 20
330.7098124578729
 30
0.0
 11
-691.9909354050433
 21
330.8220961645379
 31
0.0
  0
LINE
  5
3E7
330
92
100
AcDbEntity
  8
0
  6
CONTINUOUS
 62
     7
100
AcDbLine
 10
-692.0749197800433
 20
330.8998854711781
 30
0.0
 11
-692.290923198012
 21
331.0542758062607
 31
0.0
  0
LINE
  5
3E8
330
92
100
AcDbEntity
  8
0
  6
CONTINUOUS
 62
     7
100
AcDbLine
 10
-692.4775687058245
 20
331.1472552374139
 30
0.0
 11
-692.5308523972308
 21
331.1681483343368
 31
0.0
  0
LINE
  5
3E9
330
92
100
AcDbEntity
  8
0
  6
CONTINUOUS
 62
     7
100
AcDbLine
 10
-692.5308523972308
 20
331.1681483343368
 30
0.0
 11
-692.6574393112933
 21
331.2087195471058
 31
0.0
  0
LINE
  5
3EA
330
92
100
AcDbEntity
  8
0
  6
CONTINUOUS
 62
     7
100
AcDbLine
 10
-692.6574393112933
 20
331.2087195471058
 30
0.0
 11
-693.0515882537638
 21
331.2614373959659
 31
0.0
  0
LINE
  5
3EB
330
92
100
AcDbEntity
  8
0
  6
CONTINUOUS
 62
     7
100
AcDbLine
 10
-692.290923198012
 20
331.0542758062607
 30
0.0
 11
-692.4595965223089
 21
331.1383022043647
 31
0.0
  0
LINE
  5
3EC
330
92
100
AcDbEntity
  8
0
  6
CONTINUOUS
 62
     7
100
AcDbLine
 10
-692.4595965223089
 20
331.1383022043647
 30
0.0
 11
-692.4775687058245
 21
331.1472552374139
 31
0.0
  0
LINE
  5
3ED
330
92
100
AcDbEntity
  8
0
  6
CONTINUOUS
 62
     7
100
AcDbLine
 10
-691.681059916762
 20
330.3710940435658
 30
0.0
 11
-691.7086316238237
 21
330.4263624451728
 31
0.0
  0
LINE
  5
3EE
330
92
100
AcDbEntity
  8
0
  6
CONTINUOUS
 62
     7
100
AcDbLine
 10
-691.7086316238237
 20
330.4263624451728
 30
0.0
 11
-691.740386088637
 21
330.490015323473
 31
0.0
  0
LINE
  5
3EF
330
92
100
AcDbEntity
  8
0
  6
CONTINUOUS
 62
     7
100
AcDbLine
 10
-691.9909354050433
 20
330.8220961645379
 30
0.0
 11
-692.0136351051879
 21
330.8431214318589
 31
0.0
  0
LINE
  5
3F0
330
92
100
AcDbEntity
  8
0
  6
CONTINUOUS
 62
     7
100
AcDbLine
 10
-692.0136351051879
 20
330.8431214318589
 30
0.0
 11
-692.0749197800433
 21
330.8998854711781
 31
0.0
  0
LINE
  5
3F1
330
92
100
AcDbEntity
  8
0
  6
CONTINUOUS
 62
     7
100
AcDbLine
 10
-693.0515882537638
 20
331.2614373959659
 30
0.0
 11
-693.5574708090699
 21
331.2614373959659
 31
0.0
  0
LINE
  5
3F2
330
92
100
AcDbEntity
  8
0
  6
CONTINUOUS
 62
     1
100
AcDbLine
 10
-693.5574708090699
 20
331.2614373959659
 30
0.0
 11
-693.5574708090699
 21
329.7614373959659
 31
0.0
  0
LINE
  5
3F3
330
92
100
AcDbEntity
  8
0
  6
CONTINUOUS
 62
     7
100
AcDbLine
 10
-714.7647391159808
 20
311.7614377096429
 30
0.0
 11
-698.7647391159808
 21
311.7614377096429
 31
0.0
  0
LINE
  5
3F4
330
92
100
AcDbEntity
  8
0
  6
CONTINUOUS
 62
     7
100
AcDbLine
 10
-713.4069510300433
 20
320.1534083441029
 30
0.0
 11
-713.4120779831683
 21
320.151026065661
 31
0.0
  0
LINE
  5
3F5
330
92
100
AcDbEntity
  8
0
  6
CONTINUOUS
 62
     7
100
AcDbLine
 10
-713.1401053269183
 20
320.244209583117
 30
0.0
 11
-713.1714773972308
 21
320.237781818224
 31
0.0
  0
LINE
  5
3F6
330
92
100
AcDbEntity
  8
0
  6
CONTINUOUS
 62
     7
100
AcDbLine
 10
-713.4120779831683
 20
320.151026065661
 30
0.0
 11
-713.4224557193338
 21
320.1436560324528
 31
0.0
  0
LINE
  5
3F7
330
92
100
AcDbEntity
  8
0
  6
CONTINUOUS
 62
     7
100
AcDbLine
 10
-713.5803509300458
 20
320.0315224295327
 30
0.0
 11
-713.6448050339495
 21
319.9857485845819
 31
0.0
  0
LINE
  5
3F8
330
92
100
AcDbEntity
  8
0
  6
CONTINUOUS
 62
     7
100
AcDbLine
 10
-712.9552908737933
 20
320.2614367559677
 30
0.0
 11
-713.120757182387
 21
320.2476523473988
 31
0.0
  0
LINE
  5
3F9
330
92
100
AcDbEntity
  8
0
  6
CONTINUOUS
 62
     7
100
AcDbLine
 10
-713.1714773972308
 20
320.237781818224
 30
0.0
 11
-713.2107230026995
 21
320.225431735827
 31
0.0
  0
LINE
  5
3FA
330
92
100
AcDbEntity
  8
0
  6
CONTINUOUS
 62
     7
100
AcDbLine
 10
-713.6624441941058
 20
319.9685442999139
 30
0.0
 11
-713.6448050339495
 21
319.9857485845819
 31
0.0
  0
LINE
  5
3FB
330
92
100
AcDbEntity
  8
0
  6
CONTINUOUS
 62
     7
100
AcDbLine
 10
-713.120757182387
 20
320.2476523473988
 30
0.0
 11
-713.1333914597308
 21
320.245451267077
 31
0.0
  0
LINE
  5
3FC
330
92
100
AcDbEntity
  8
0
  6
CONTINUOUS
 62
     7
100
AcDbLine
 10
-713.1401053269183
 20
320.244209583117
 30
0.0
 11
-713.1333914597308
 21
320.245451267077
 31
0.0
  0
LINE
  5
3FD
330
92
100
AcDbEntity
  8
0
  6
CONTINUOUS
 62
     7
100
AcDbLine
 10
-721.9604178269183
 20
329.9895232275258
 30
0.0
 11
-721.8635550339495
 21
330.335560138537
 31
0.0
  0
LINE
  5
3FE
330
92
100
AcDbEntity
  8
0
  6
CONTINUOUS
 62
     7
100
AcDbLine
 10
-721.8635550339495
 20
330.335560138537
 30
0.0
 11
-721.848296244887
 21
330.3711379125839
 31
0.0
  0
LINE
  5
3FF
330
92
100
AcDbEntity
  8
0
  6
CONTINUOUS
 62
     7
100
AcDbLine
 10
-721.515776713637
 20
330.843120868517
 30
0.0
 11
-721.4544363816058
 21
330.8998854711781
 31
0.0
  0
LINE
  5
400
330
92
100
AcDbEntity
  8
0
  6
CONTINUOUS
 62
     7
100
AcDbLine
 10
-721.4544363816058
 20
330.8998854711781
 30
0.0
 11
-721.0697928269183
 21
331.138302142931
 31
0.0
  0
LINE
  5
401
330
92
100
AcDbEntity
  8
0
  6
CONTINUOUS
 62
     7
100
AcDbLine
 10
-721.848296244887
 20
330.3711379125839
 30
0.0
 11
-721.8207693894183
 21
330.4263632848988
 31
0.0
  0
LINE
  5
402
330
92
100
AcDbEntity
  8
0
  6
CONTINUOUS
 62
     7
100
AcDbLine
 10
-714.9780569870745
 20
302.7614374116188
 30
0.0
 11
-715.6606131394183
 21
302.7614374116188
 31
0.0
  0
LINE
  5
403
330
92
100
AcDbEntity
  8
0
  6
CONTINUOUS
 62
     7
100
AcDbLine
 10
-711.7647391159808
 20
302.7614374116188
 30
0.0
 11
-714.9780569870745
 21
302.7614374116188
 31
0.0
  0
LINE
  5
404
330
92
100
AcDbEntity
  8
0
  6
CONTINUOUS
 62
     7
100
AcDbLine
 10
-709.9341727097308
 20
301.5671219483147
 30
0.0
 11
-709.9170218308245
 21
301.5269341126209
 31
0.0
  0
LINE
  5
405
330
92
100
AcDbEntity
  8
0
  6
CONTINUOUS
 62
     7
100
AcDbLine
 10
-709.9170218308245
 20
301.5269341126209
 30
0.0
 11
-709.9170208337437
 21
301.5269317762691
 31
0.0
  0
LINE
  5
406
330
92
100
AcDbEntity
  8
0
  6
CONTINUOUS
 62
     7
100
AcDbLine
 10
-709.9170208337437
 20
301.5269317762691
 30
0.0
 11
-709.7845145066058
 21
301.042179103209
 31
0.0
  0
LINE
  5
407
330
92
100
AcDbEntity
  8
0
  6
CONTINUOUS
 62
     7
100
AcDbLine
 10
-722.7343436081683
 20
310.1087334707509
 30
0.0
 11
-722.7647391159808
 21
310.2942803457509
 31
0.0
  0
LINE
  5
408
330
92
100
AcDbEntity
  8
0
  6
CONTINUOUS
 62
     7
100
AcDbLine
 10
-703.7647391159808
 20
300.761437352015
 30
0.0
 11
-703.6748343308245
 21
301.3542384758721
 31
0.0
  0
LINE
  5
409
330
92
100
AcDbEntity
  8
0
  6
CONTINUOUS
 62
     7
100
AcDbLine
 10
-703.6748343308245
 20
301.3542384758721
 30
0.0
 11
-703.612212260512
 21
301.5274266854058
 31
0.0
  0
LINE
  5
40A
330
92
100
AcDbEntity
  8
0
  6
CONTINUOUS
 62
     7
100
AcDbLine
 10
-703.6061697800433
 20
301.5417828217278
 30
0.0
 11
-703.5198050339495
 21
301.6997879698997
 31
0.0
  0
LINE
  5
40B
330
92
100
AcDbEntity
  8
0
  6
CONTINUOUS
 62
     7
100
AcDbLine
 10
-703.612212260512
 20
301.5274266854058
 30
0.0
 11
-703.6061697800433
 21
301.5417828217278
 31
0.0
  0
LINE
  5
40C
330
92
100
AcDbEntity
  8
0
  6
CONTINUOUS
 62
     7
100
AcDbLine
 10
-694.9865408737933
 20
302.7614374116188
 30
0.0
 11
-698.5552054245745
 21
302.7614374116188
 31
0.0
  0
LINE
  5
40D
330
92
100
AcDbEntity
  8
0
  6
CONTINUOUS
 62
     7
100
AcDbLine
 10
-698.5552054245745
 20
302.7614374116188
 30
0.0
 11
-699.8282156784808
 21
302.7614374116188
 31
0.0
  0
LINE
  5
40E
330
92
100
AcDbEntity
  8
0
  6
CONTINUOUS
 62
     7
100
AcDbLine
 10
-691.5690604050433
 20
329.9895232275258
 30
0.0
 11
-691.6658621628558
 21
330.335560138537
 31
0.0
  0
LINE
  5
40F
330
92
100
AcDbEntity
  8
0
  6
CONTINUOUS
 62
     7
100
AcDbLine
 10
-691.6658621628558
 20
330.335560138537
 30
0.0
 11
-691.6811209519183
 21
330.3711379125839
 31
0.0
  0
LINE
  5
410
330
92
100
AcDbEntity
  8
0
  6
CONTINUOUS
 62
     7
100
AcDbLine
 10
-692.459624369887
 20
331.138302142931
 30
0.0
 11
-692.2915945847308
 21
331.0545180395379
 31
0.0
  0
LINE
  5
411
330
92
100
AcDbEntity
  8
0
  6
CONTINUOUS
 62
     7
100
AcDbLine
 10
-692.2915945847308
 20
331.0545180395379
 30
0.0
 11
-692.0136404831683
 21
330.843120868517
 31
0.0
  0
LINE
  5
412
330
92
100
AcDbEntity
  8
0
  6
CONTINUOUS
 62
     7
100
AcDbLine
 10
-691.6811209519183
 20
330.3711379125839
 30
0.0
 11
-691.708647807387
 21
330.4263632848988
 31
0.0
  0
LINE
  5
413
330
92
100
AcDbEntity
  8
0
  6
CONTINUOUS
 62
     7
100
AcDbLine
 10
-700.3730154831683
 20
320.241012866808
 30
0.0
 11
-700.387358744887
 21
320.2438414648309
 31
0.0
  0
LINE
  5
414
330
92
100
AcDbEntity
  8
0
  6
CONTINUOUS
 62
     7
100
AcDbLine
 10
-700.3730154831683
 20
320.241012866808
 30
0.0
 11
-700.3572073776995
 21
320.237631137682
 31
0.0
  0
LINE
  5
415
330
92
100
AcDbEntity
  8
0
  6
CONTINUOUS
 62
     7
100
AcDbLine
 10
-699.879302104262
 20
319.9806006506219
 30
0.0
 11
-699.8889456589495
 21
319.9886096075311
 31
0.0
  0
LINE
  5
416
330
92
100
AcDbEntity
  8
0
  6
CONTINUOUS
 62
     7
100
AcDbLine
 10
-700.387358744887
 20
320.2438414648309
 30
0.0
 11
-700.574126323012
 21
320.2614367559677
 31
0.0
  0
LINE
  5
417
330
92
100
AcDbEntity
  8
0
  6
CONTINUOUS
 62
     7
100
AcDbLine
 10
-700.3572073776995
 20
320.237631137682
 30
0.0
 11
-700.191468578847
 21
320.1853228804498
 31
0.0
  0
LINE
  5
418
330
92
100
AcDbEntity
  8
0
  6
CONTINUOUS
 62
     7
100
AcDbLine
 10
-700.191468578847
 20
320.1853228804498
 30
0.0
 11
-700.1914358933245
 21
320.185312564684
 31
0.0
  0
LINE
  5
419
330
92
100
AcDbEntity
  8
0
  6
CONTINUOUS
 62
     7
100
AcDbLine
 10
-700.1914358933245
 20
320.185312564684
 30
0.0
 11
-700.1912919669812
 21
320.1852453990568
 31
0.0
  0
LINE
  5
41A
330
92
100
AcDbEntity
  8
0
  6
CONTINUOUS
 62
     7
100
AcDbLine
 10
-700.1912919669812
 20
320.1852453990568
 30
0.0
 11
-700.1831961472308
 21
320.1814673498398
 31
0.0
  0
ARC
  5
41B
330
92
100
AcDbEntity
  8
0
  6
CONTINUOUS
 62
     7
100
AcDbCircle
 10
-722.4647098186033
 20
289.5614373959661
 30
0.0
 40
0.2999999999992724
100
AcDbArc
 50
180.0000000002714
 51
270.0000000003474
  0
ARC
  5
41C
330
92
100
AcDbEntity
  8
0
  6
CONTINUOUS
 62
     7
100
AcDbCircle
 10
-722.2647098186044
 20
297.2614373959659
 30
0.0
 40
0.4999999999990905
100
AcDbArc
 50
89.99999999979156
 51
180.0
  0
ARC
  5
41D
330
92
100
AcDbEntity
  8
0
  6
CONTINUOUS
 62
     7
100
AcDbCircle
 10
-721.774709818601
 20
301.7714373959643
 30
0.0
 40
0.9900000000016007
100
AcDbArc
 50
90.0
 51
179.999999999921
  0
ARC
  5
41E
330
92
100
AcDbEntity
  8
0
  6
CONTINUOUS
 62
     7
100
AcDbCircle
 10
-691.0647098186146
 20
289.5614373959661
 30
0.0
 40
0.3000000000001819
100
AcDbArc
 50
270.0000000024318
 51
0.0
  0
ARC
  5
41F
330
92
100
AcDbEntity
  8
0
  6
CONTINUOUS
 62
     7
100
AcDbCircle
 10
-691.2647098186117
 20
297.2614373959641
 30
0.0
 40
0.500000000003638
100
AcDbArc
 50
0.00000000020844
 51
89.99999999895779
  0
ARC
  5
420
330
92
100
AcDbEntity
  8
0
  6
CONTINUOUS
 62
     7
100
AcDbCircle
 10
-691.7647098186135
 20
301.7614373959659
 30
0.0
 40
1.0
100
AcDbArc
 50
0.0
 51
90.0
  0
ARC
  5
421
330
92
100
AcDbEntity
  8
0
  6
CONTINUOUS
 62
     7
100
AcDbCircle
 10
-720.7647098186026
 20
309.7614373959659
 30
0.0
 40
2.0
100
AcDbArc
 50
90.0
 51
180.0
  0
ARC
  5
422
330
92
100
AcDbEntity
  8
0
  6
CONTINUOUS
 62
     1
100
AcDbCircle
 10
-712.264709818608
 20
316.4575898186699
 30
0.0
 40
4.000000000001294
100
AcDbArc
 50
149.9999999999787
 51
175.6435075357857
  0
ARC
  5
423
330
92
100
AcDbEntity
  8
0
  6
CONTINUOUS
 62
     7
100
AcDbCircle
 10
-712.264709818608
 20
316.4575898186736
 30
0.0
 40
2.99999999999973
100
AcDbArc
 50
150.0000000000371
 51
180.0000000000347
  0
ARC
  5
424
330
92
100
AcDbEntity
  8
0
  6
CONTINUOUS
 62
     7
100
AcDbCircle
 10
-712.9553087418499
 20
319.2614373959659
 30
0.0
 40
1.0
100
AcDbArc
 50
90.0
 51
149.9999999999897
  0
ARC
  5
425
330
92
100
AcDbEntity
  8
0
  6
CONTINUOUS
 62
     7
100
AcDbCircle
 10
-700.5741108953662
 20
319.261437395965
 30
0.0
 40
1.000000000000143
100
AcDbArc
 50
30.00000000005544
 51
90.00000000010422
  0
ARC
  5
426
330
92
100
AcDbEntity
  8
0
  6
CONTINUOUS
 62
     7
100
AcDbCircle
 10
-692.7647098186135
 20
309.7614373959659
 30
0.0
 40
2.0
100
AcDbArc
 50
0.0
 51
90.0
  0
ARC
  5
427
330
92
100
AcDbEntity
  8
0
  6
CONTINUOUS
 62
     1
100
AcDbCircle
 10
-701.264709818608
 20
316.4575898186704
 30
0.0
 40
3.999999999999281
100
AcDbArc
 50
4.35649246420896
 51
30.00000000002794
  0
ARC
  5
428
330
92
100
AcDbEntity
  8
0
  6
CONTINUOUS
 62
     7
100
AcDbCircle
 10
-701.264709818608
 20
316.4575898186704
 30
0.0
 40
3.0
100
AcDbArc
 50
0.00000000002714
 51
30.00000000003382
  0
ARC
  5
429
330
92
100
AcDbEntity
  8
0
  6
CONTINUOUS
 62
     7
100
AcDbCircle
 10
-700.7647098186135
 20
323.9967052061379
 30
0.0
 40
10.0
100
AcDbArc
 50
359.9999999999895
 51
8.74616226254015
  0
ENDBLK
  5
94
330
92
100
AcDbEntity
  8
0
100
AcDbBlockEnd
  0
BLOCK
  5
97
330
95
100
AcDbEntity
  8
0
100
AcDbBlockBegin
  2
PD00800A12800_CARCASSA__10
 70
     0
 10
-722.7647391159808
 20
289.2614373959641
 30
0.0
  3
PD00800A12800_CARCASSA__10
  1

  0
INSERT
  5
96
330
95
100
AcDbEntity
  8
0
100
AcDbBlockReference
  2
PX009563__9
 10
-722.7647391159808
 20
289.2614373959641
 30
0.0
  0
ENDBLK
  5
98
330
95
100
AcDbEntity
  8
0
100
AcDbBlockEnd
  0
BLOCK
  5
9A
330
99
100
AcDbEntity
  8
0
100
AcDbBlockBegin
  2
PX009565_CORPO_MONT_1__11
 70
     0
 10
-661.0479422409808
 20
290.2614373959909
 30
0.0
  3
PX009565_CORPO_MONT_1__11
  1

  0
LINE
  5
42A
330
99
100
AcDbEntity
  8
0
  6
CONTINUOUS
 62
     1
100
AcDbLine
 10
-627.8479277280967
 20
290.7614373959909
 30
0.0
 11
-660.5479277280956
 21
290.7614373959909
 31
0.0
  0
LINE
  5
42B
330
99
100
AcDbEntity
  8
0
  6
CONTINUOUS
 62
     7
100
AcDbLine
 10
-660.5479277280956
 20
292.7614373959909
 30
0.0
 11
-657.1479046067088
 21
292.7614373959909
 31
0.0
  0
LINE
  5
42C
330
99
100
AcDbEntity
  8
0
  6
CONTINUOUS
 62
     1
100
AcDbLine
 10
-657.1479043630752
 20
292.5614373959907
 30
0.0
 11
-660.5479277280956
 21
292.5614373959907
 31
0.0
  0
LINE
  5
42D
330
99
100
AcDbEntity
  8
0
  6
CONTINUOUS
 62
     7
100
AcDbLine
 10
-627.8479277280967
 20
290.2614373959909
 30
0.0
 11
-660.5479277280956
 21
290.2614373959909
 31
0.0
  0
LINE
  5
42E
330
99
100
AcDbEntity
  8
0
  6
CONTINUOUS
 62
     7
100
AcDbLine
 10
-661.0479277280956
 20
303.2614373959909
 30
0.0
 11
-661.0479277280956
 21
293.2614373959909
 31
0.0
  0
LINE
  5
42F
330
99
100
AcDbEntity
  8
0
  6
CONTINUOUS
 62
     1
100
AcDbLine
 10
-660.5479277280956
 20
292.5614373959907
 30
0.0
 11
-660.5479277280956
 21
292.7614373959909
 31
0.0
  0
LINE
  5
430
330
99
100
AcDbEntity
  8
0
  6
CONTINUOUS
 62
     1
100
AcDbLine
 10
-660.5479277280956
 20
293.2614373959909
 30
0.0
 11
-660.5479277280956
 21
292.7614373959909
 31
0.0
  0
LINE
  5
431
330
99
100
AcDbEntity
  8
0
  6
CONTINUOUS
 62
     7
100
AcDbLine
 10
-660.9014811055476
 20
290.407884018538
 30
0.0
 11
-660.8479521004865
 21
290.36394952411
 31
0.0
  0
LINE
  5
432
330
99
100
AcDbEntity
  8
0
  6
CONTINUOUS
 62
     1
100
AcDbLine
 10
-660.5479277280956
 20
303.2614373959909
 30
0.0
 11
-660.5479277280956
 21
293.2614373959909
 31
0.0
  0
LINE
  5
433
330
99
100
AcDbEntity
  8
0
  6
CONTINUOUS
 62
     7
100
AcDbLine
 10
-661.0479277280956
 20
290.7614373959909
 30
0.0
 11
-661.0479277280956
 21
293.2614373959909
 31
0.0
  0
LINE
  5
434
330
99
100
AcDbEntity
  8
0
  6
CONTINUOUS
 62
     7
100
AcDbLine
 10
-661.0479277280956
 20
293.2614373959909
 30
0.0
 11
-661.022612651137
 21
293.0415585592518
 31
0.0
  0
LINE
  5
435
330
99
100
AcDbEntity
  8
0
  6
CONTINUOUS
 62
     1
100
AcDbLine
 10
-661.022612651137
 20
293.0415585592518
 30
0.0
 11
-661.0104361374651
 21
292.9954159811268
 31
0.0
  0
LINE
  5
436
330
99
100
AcDbEntity
  8
0
  6
CONTINUOUS
 62
     1
100
AcDbLine
 10
-661.0104361374651
 20
292.9954159811268
 30
0.0
 11
-660.9421377976214
 21
292.830804164721
 31
0.0
  0
LINE
  5
437
330
99
100
AcDbEntity
  8
0
  6
CONTINUOUS
 62
     1
100
AcDbLine
 10
-660.9421377976214
 20
292.830804164721
 30
0.0
 11
-660.9022208054339
 21
292.7674496725331
 31
0.0
  0
LINE
  5
438
330
99
100
AcDbEntity
  8
0
  6
CONTINUOUS
 62
     1
100
AcDbLine
 10
-660.9022208054339
 20
292.7674496725331
 30
0.0
 11
-660.8767081101214
 21
292.7340634420639
 31
0.0
  0
LINE
  5
439
330
99
100
AcDbEntity
  8
0
  6
CONTINUOUS
 62
     1
100
AcDbLine
 10
-660.8767081101214
 20
292.7340634420639
 30
0.0
 11
-660.8139944870745
 21
292.6687558248768
 31
0.0
  0
LINE
  5
43A
330
99
100
AcDbEntity
  8
0
  6
CONTINUOUS
 62
     1
100
AcDbLine
 10
-660.8139944870745
 20
292.6687558248768
 30
0.0
 11
-660.7901602585589
 21
292.6490414694081
 31
0.0
  0
LINE
  5
43B
330
99
100
AcDbEntity
  8
0
  6
CONTINUOUS
 62
     1
100
AcDbLine
 10
-660.7901602585589
 20
292.6490414694081
 30
0.0
 11
-660.7581778366839
 21
292.6263363912831
 31
0.0
  0
LINE
  5
43C
330
99
100
AcDbEntity
  8
0
  6
CONTINUOUS
 62
     1
100
AcDbLine
 10
-660.7581778366839
 20
292.6263363912831
 30
0.0
 11
-660.7400809128558
 21
292.6151669576889
 31
0.0
  0
LINE
  5
43D
330
99
100
AcDbEntity
  8
0
  6
CONTINUOUS
 62
     1
100
AcDbLine
 10
-660.7400809128558
 20
292.6151669576889
 30
0.0
 11
-660.6597891648089
 21
292.5791562155018
 31
0.0
  0
LINE
  5
43E
330
99
100
AcDbEntity
  8
0
  6
CONTINUOUS
 62
     1
100
AcDbLine
 10
-660.6597891648089
 20
292.5791562155018
 30
0.0
 11
-660.604888041762
 21
292.5659726217518
 31
0.0
  0
LINE
  5
43F
330
99
100
AcDbEntity
  8
0
  6
CONTINUOUS
 62
     1
100
AcDbLine
 10
-660.604888041762
 20
292.5659726217518
 30
0.0
 11
-660.5479277280956
 21
292.5614373959907
 31
0.0
  0
LINE
  5
440
330
99
100
AcDbEntity
  8
0
  6
CONTINUOUS
 62
     1
100
AcDbLine
 10
-661.0479277280956
 20
290.7614373959909
 30
0.0
 11
-660.5479277280956
 21
290.7614373959909
 31
0.0
  0
LINE
  5
441
330
99
100
AcDbEntity
  8
0
  6
CONTINUOUS
 62
     1
100
AcDbLine
 10
-660.5479277280956
 20
293.2614373959909
 30
0.0
 11
-657.147928079763
 21
293.2614373959909
 31
0.0
  0
LINE
  5
442
330
99
100
AcDbEntity
  8
0
  6
CONTINUOUS
 62
     1
100
AcDbLine
 10
-660.5479277280956
 20
290.2614373959909
 30
0.0
 11
-660.5479277280956
 21
290.7614373959909
 31
0.0
  0
LINE
  5
443
330
99
100
AcDbEntity
  8
0
  6
CONTINUOUS
 62
     7
100
AcDbLine
 10
-661.0479277280956
 20
290.7614373959909
 30
0.0
 11
-661.0383292038714
 21
290.6638730123768
 31
0.0
  0
LINE
  5
444
330
99
100
AcDbEntity
  8
0
  6
CONTINUOUS
 62
     7
100
AcDbLine
 10
-661.0098868210589
 20
290.5701230123768
 30
0.0
 11
-660.9636832077776
 21
290.483636195971
 31
0.0
  0
LINE
  5
445
330
99
100
AcDbEntity
  8
0
  6
CONTINUOUS
 62
     7
100
AcDbLine
 10
-660.9636832077776
 20
290.483636195971
 30
0.0
 11
-660.9200194624791
 21
290.4304607619811
 31
0.0
  0
LINE
  5
446
330
99
100
AcDbEntity
  8
0
  6
CONTINUOUS
 62
     7
100
AcDbLine
 10
-660.9200194624791
 20
290.4304607619811
 30
0.0
 11
-660.9014811055476
 21
290.407884018538
 31
0.0
  0
LINE
  5
447
330
99
100
AcDbEntity
  8
0
  6
CONTINUOUS
 62
     7
100
AcDbLine
 10
-661.0383292038714
 20
290.6638730123768
 30
0.0
 11
-661.0159912318959
 21
290.59024398887
 31
0.0
  0
LINE
  5
448
330
99
100
AcDbEntity
  8
0
  6
CONTINUOUS
 62
     7
100
AcDbLine
 10
-661.0159912318959
 20
290.59024398887
 30
0.0
 11
-661.0098868210589
 21
290.5701230123768
 31
0.0
  0
LINE
  5
449
330
99
100
AcDbEntity
  8
0
  6
CONTINUOUS
 62
     1
100
AcDbLine
 10
-660.5479277280956
 20
290.7614373959909
 30
0.0
 11
-660.5479277280956
 21
292.5614373959907
 31
0.0
  0
LINE
  5
44A
330
99
100
AcDbEntity
  8
0
  6
CONTINUOUS
 62
     1
100
AcDbLine
 10
-661.0479277280956
 20
293.2614373959909
 30
0.0
 11
-661.022612651137
 21
293.1043637350331
 31
0.0
  0
LINE
  5
44B
330
99
100
AcDbEntity
  8
0
  6
CONTINUOUS
 62
     7
100
AcDbLine
 10
-661.022612651137
 20
293.1043637350331
 30
0.0
 11
-661.0104361374651
 21
293.0714657858139
 31
0.0
  0
LINE
  5
44C
330
99
100
AcDbEntity
  8
0
  6
CONTINUOUS
 62
     1
100
AcDbLine
 10
-660.5479277280956
 20
293.2614373959909
 30
0.0
 11
-661.0479277280956
 21
293.2614373959909
 31
0.0
  0
LINE
  5
44D
330
99
100
AcDbEntity
  8
0
  6
CONTINUOUS
 62
     1
100
AcDbLine
 10
-660.5479277280956
 20
303.2614373959909
 30
0.0
 11
-657.1479301727177
 21
303.2614373959909
 31
0.0
  0
LINE
  5
44E
330
99
100
AcDbEntity
  8
0
  6
CONTINUOUS
 62
     7
100
AcDbLine
 10
-661.0479277280956
 20
303.2614373959909
 30
0.0
 11
-661.0479277280956
 21
304.7614373959909
 31
0.0
  0
LINE
  5
44F
330
99
100
AcDbEntity
  8
0
  6
CONTINUOUS
 62
     1
100
AcDbLine
 10
-660.5479277280956
 20
303.2614373959909
 30
0.0
 11
-660.5479277280956
 21
305.2614373959909
 31
0.0
  0
LINE
  5
450
330
99
100
AcDbEntity
  8
0
  6
CONTINUOUS
 62
     1
100
AcDbLine
 10
-660.5479277280956
 20
303.2614373959909
 30
0.0
 11
-661.0479277280956
 21
303.2614373959909
 31
0.0
  0
LINE
  5
451
330
99
100
AcDbEntity
  8
0
  6
CONTINUOUS
 62
     7
100
AcDbLine
 10
-660.5479277280956
 20
305.2614373959909
 30
0.0
 11
-657.1479298348168
 21
305.2614373959909
 31
0.0
  0
LINE
  5
452
330
99
100
AcDbEntity
  8
0
  6
CONTINUOUS
 62
     7
100
AcDbLine
 10
-627.6565848191058
 20
290.2994931295639
 30
0.0
 11
-627.4943743375024
 21
290.4078840053981
 31
0.0
  0
LINE
  5
453
330
99
100
AcDbEntity
  8
0
  6
CONTINUOUS
 62
     7
100
AcDbLine
 10
-627.8477744084557
 20
292.7614678893679
 30
0.0
 11
-627.8476258800638
 21
292.761497429824
 31
0.0
  0
LINE
  5
454
330
99
100
AcDbEntity
  8
0
  6
CONTINUOUS
 62
     1
100
AcDbLine
 10
-627.8479277280967
 20
290.7614373959909
 30
0.0
 11
-627.8479277280967
 21
291.211455527724
 31
0.0
  0
LINE
  5
455
330
99
100
AcDbEntity
  8
0
  6
CONTINUOUS
 62
     1
100
AcDbLine
 10
-627.8479277280967
 20
290.2614373959909
 30
0.0
 11
-627.8479277280967
 21
290.7614373959909
 31
0.0
  0
LINE
  5
456
330
99
100
AcDbEntity
  8
0
  6
CONTINUOUS
 62
     1
100
AcDbLine
 10
-627.4982456207035
 20
292.7614377091109
 30
0.0
 11
-627.498223028033
 21
292.7614672741611
 31
0.0
  0
LINE
  5
457
330
99
100
AcDbEntity
  8
0
  6
CONTINUOUS
 62
     1
100
AcDbLine
 10
-627.8479277317329
 20
292.761497428779
 30
0.0
 11
-627.847927729943
 21
292.761467888728
 31
0.0
  0
LINE
  5
458
330
99
100
AcDbEntity
  8
0
  6
CONTINUOUS
 62
     7
100
AcDbLine
 10
-627.3479277280967
 20
290.7614373959909
 30
0.0
 11
-627.3479277280967
 21
291.2114677377349
 31
0.0
  0
LINE
  5
459
330
99
100
AcDbEntity
  8
0
  6
CONTINUOUS
 62
     7
100
AcDbLine
 10
-627.3479277280967
 20
292.7614679731737
 30
0.0
 11
-627.3479277280967
 21
292.7614974774729
 31
0.0
  0
LINE
  5
45A
330
99
100
AcDbEntity
  8
0
  6
CONTINUOUS
 62
     1
100
AcDbLine
 10
-627.8479277280967
 20
290.7614373959909
 30
0.0
 11
-627.3859854538714
 21
290.7614071920639
 31
0.0
  0
LINE
  5
45B
330
99
100
AcDbEntity
  8
0
  6
CONTINUOUS
 62
     7
100
AcDbLine
 10
-627.3859854538714
 20
290.7614071920639
 30
0.0
 11
-627.3479277280967
 21
290.7614373959909
 31
0.0
  0
LINE
  5
45C
330
99
100
AcDbEntity
  8
0
  6
CONTINUOUS
 62
     7
100
AcDbLine
 10
-660.8479542370442
 20
290.3641472341869
 30
0.0
 11
-660.9006250590865
 21
290.4073146098981
 31
0.0
  0
LINE
  5
45D
330
99
100
AcDbEntity
  8
0
  6
CONTINUOUS
 62
     7
100
AcDbLine
 10
-661.0479422409808
 20
290.7614071920639
 30
0.0
 11
-661.0374136765276
 21
290.6622241094838
 31
0.0
  0
LINE
  5
45E
330
99
100
AcDbEntity
  8
0
  6
CONTINUOUS
 62
     7
100
AcDbLine
 10
-661.0374136765276
 20
290.6622241094838
 30
0.0
 11
-661.0159912318959
 21
290.59024398887
 31
0.0
  0
LINE
  5
45F
330
99
100
AcDbEntity
  8
0
  6
CONTINUOUS
 62
     7
100
AcDbLine
 10
-660.9021413630708
 20
290.4088688303227
 30
0.0
 11
-660.9200125534808
 21
290.430465991808
 31
0.0
  0
ARC
  5
460
330
99
100
AcDbEntity
  8
0
  6
CONTINUOUS
 62
     7
100
AcDbCircle
 10
-660.5479277280956
 20
293.2614373959909
 30
0.0
 40
0.5
100
AcDbArc
 50
180.0
 51
270.0
  0
ARC
  5
461
330
99
100
AcDbEntity
  8
0
  6
CONTINUOUS
 62
     7
100
AcDbCircle
 10
-660.5479277280956
 20
290.7614373959909
 30
0.0
 40
0.5
100
AcDbArc
 50
180.0
 51
270.0
  0
ARC
  5
462
330
99
100
AcDbEntity
  8
0
  6
CONTINUOUS
 62
     7
100
AcDbCircle
 10
-660.5479277280956
 20
304.7614373959909
 30
0.0
 40
0.5
100
AcDbArc
 50
90.0
 51
180.0
  0
ARC
  5
463
330
99
100
AcDbEntity
  8
0
  6
CONTINUOUS
 62
     7
100
AcDbCircle
 10
-627.8479277280967
 20
290.7614373959909
 30
0.0
 40
0.5
100
AcDbArc
 50
270.0
 51
0.0
  0
ENDBLK
  5
9B
330
99
100
AcDbEntity
  8
0
100
AcDbBlockEnd
  0
BLOCK
  5
9E
330
9C
100
AcDbEntity
  8
0
100
AcDbBlockBegin
  2
PD00700A29300_CORPO_RE__12
 70
     0
 10
-661.0479422409808
 20
290.2614373959909
 30
0.0
  3
PD00700A29300_CORPO_RE__12
  1

  0
INSERT
  5
9D
330
9C
100
AcDbEntity
  8
0
100
AcDbBlockReference
  2
PX009565_CORPO_MONT_1__11
 10
-661.0479422409808
 20
290.2614373959909
 30
0.0
  0
ENDBLK
  5
9F
330
9C
100
AcDbEntity
  8
0
100
AcDbBlockEnd
  0
BLOCK
  5
A1
330
A0
100
AcDbEntity
  8
0
100
AcDbBlockBegin
  2
PX009557_BIELLA_C_TIPO__13
 70
     0
 10
-700.3345023267229
 20
274.0525333356309
 30
0.0
  3
PX009557_BIELLA_C_TIPO__13
  1

  0
LINE
  5
464
330
A0
100
AcDbEntity
  8
0
  6
CONTINUOUS
 62
     1
100
AcDbLine
 10
-680.0693851461529
 20
277.3366994384587
 30
0.0
 11
-679.9321530380421
 21
277.6034715293968
 31
0.0
  0
LINE
  5
465
330
A0
100
AcDbEntity
  8
0
  6
CONTINUOUS
 62
     1
100
AcDbLine
 10
-679.9321530380421
 20
277.6034715293968
 30
0.0
 11
-699.6787007328712
 21
287.7614320511907
 31
0.0
  0
LINE
  5
466
330
A0
100
AcDbEntity
  8
0
  6
CONTINUOUS
 62
     1
100
AcDbLine
 10
-683.3163221864561
 20
284.9525333355737
 30
0.0
 11
-677.31042073975
 21
284.95253333558
 31
0.0
  0
LINE
  5
467
330
A0
100
AcDbEntity
  8
0
  6
CONTINUOUS
 62
     1
100
AcDbLine
 10
-690.7647595660328
 20
288.1239926989761
 30
0.0
 11
-685.7407560964148
 21
285.5395597289989
 31
0.0
  0
LINE
  5
468
330
A0
100
AcDbEntity
  8
0
  6
CONTINUOUS
 62
     7
100
AcDbLine
 10
-680.0693851461529
 20
277.3366994384587
 30
0.0
 11
-700.3345023267229
 21
287.7614209376839
 31
0.0
  0
LINE
  5
469
330
A0
100
AcDbEntity
  8
0
  6
CONTINUOUS
 62
     1
100
AcDbLine
 10
-685.7407560964148
 20
285.5395597289989
 30
0.0
 11
-685.603523988304
 21
285.806331819937
 31
0.0
  0
LINE
  5
46A
330
A0
100
AcDbEntity
  8
0
  6
CONTINUOUS
 62
     1
100
AcDbLine
 10
-683.3163221864561
 20
285.2525333355738
 30
0.0
 11
-683.3163221864561
 21
284.9525333355737
 31
0.0
  0
LINE
  5
46B
330
A0
100
AcDbEntity
  8
0
  6
CONTINUOUS
 62
     7
100
AcDbLine
 10
-683.3163221864561
 20
285.2525333355738
 30
0.0
 11
-677.31042073975
 21
285.2525333355798
 31
0.0
  0
LINE
  5
46C
330
A0
100
AcDbEntity
  8
0
  6
CONTINUOUS
 62
     7
100
AcDbLine
 10
-690.7647350727166
 20
288.4613467243307
 30
0.0
 11
-685.603523988304
 21
285.806331819937
 31
0.0
  0
LINE
  5
46D
330
A0
100
AcDbEntity
  8
0
  6
CONTINUOUS
 62
     7
100
AcDbLine
 10
-667.8184500534808
 20
276.6687319830189
 30
0.0
 11
-670.8119654078328
 21
275.110910234378
 31
0.0
  0
LINE
  5
46E
330
A0
100
AcDbEntity
  8
0
  6
CONTINUOUS
 62
     7
100
AcDbLine
 10
-666.6913612192711
 20
276.9589789461229
 30
0.0
 11
-667.8184500534808
 21
276.6687319830189
 31
0.0
  0
LINE
  5
46F
330
A0
100
AcDbEntity
  8
0
  6
CONTINUOUS
 62
     1
100
AcDbLine
 10
-666.6913612192711
 20
276.9589789461229
 30
0.0
 11
-666.7491480954704
 21
277.2533608017779
 31
0.0
  0
LINE
  5
470
330
A0
100
AcDbEntity
  8
0
  6
CONTINUOUS
 62
     7
100
AcDbLine
 10
-666.6913612192711
 20
276.9589789461229
 30
0.0
 11
-667.8184500534808
 21
276.6687319830189
 31
0.0
  0
LINE
  5
471
330
A0
100
AcDbEntity
  8
0
  6
CONTINUOUS
 62
     7
100
AcDbLine
 10
-677.61255850214
 20
275.5549785969529
 30
0.0
 11
-680.0693851461529
 21
277.3366994384587
 31
0.0
  0
LINE
  5
472
330
A0
100
AcDbEntity
  8
0
  6
CONTINUOUS
 62
     7
100
AcDbLine
 10
-670.8222647507464
 20
275.1031191900497
 30
0.0
 11
-670.8222201083263
 21
275.103152960271
 31
0.0
  0
LINE
  5
473
330
A0
100
AcDbEntity
  8
0
  6
CONTINUOUS
 62
     7
100
AcDbLine
 10
-670.8222201083263
 20
275.103152960271
 30
0.0
 11
-670.8119654078328
 21
275.110910234378
 31
0.0
  0
LINE
  5
474
330
A0
100
AcDbEntity
  8
0
  6
CONTINUOUS
 62
     1
100
AcDbLine
 10
-677.4016215947086
 20
275.7682990626458
 30
0.0
 11
-679.9321530380421
 21
277.6034715293968
 31
0.0
  0
LINE
  5
475
330
A0
100
AcDbEntity
  8
0
  6
CONTINUOUS
 62
     1
100
AcDbLine
 10
-677.61255850214
 20
275.5549785969529
 30
0.0
 11
-677.4016215947086
 21
275.7682990626458
 31
0.0
  0
LINE
  5
476
330
A0
100
AcDbEntity
  8
0
  6
CONTINUOUS
 62
     1
100
AcDbLine
 10
-670.9933704096875
 20
275.349850028681
 30
0.0
 11
-670.8119654078328
 21
275.110910234378
 31
0.0
  0
LINE
  5
477
330
A0
100
AcDbEntity
  8
0
  6
CONTINUOUS
 62
     1
100
AcDbLine
 10
-655.521412883334
 20
279.1516291018329
 30
0.0
 11
-655.5791997595334
 21
279.4460109574889
 31
0.0
  0
LINE
  5
478
330
A0
100
AcDbEntity
  8
0
  6
CONTINUOUS
 62
     1
100
AcDbLine
 10
-655.5791997595334
 20
279.4460109574889
 30
0.0
 11
-666.7491480954704
 21
277.2533608017779
 31
0.0
  0
LINE
  5
479
330
A0
100
AcDbEntity
  8
0
  6
CONTINUOUS
 62
     7
100
AcDbLine
 10
-655.239653666762
 20
279.2241843298207
 30
0.0
 11
-654.3867178757464
 21
279.6975157812367
 31
0.0
  0
LINE
  5
47A
330
A0
100
AcDbEntity
  8
0
  6
CONTINUOUS
 62
     7
100
AcDbLine
 10
-654.3867178757464
 20
279.6975157812367
 30
0.0
 11
-654.2490530808245
 21
279.8233073309189
 31
0.0
  0
LINE
  5
47B
330
A0
100
AcDbEntity
  8
0
  6
CONTINUOUS
 62
     7
100
AcDbLine
 10
-654.2490530808245
 20
279.8233073309189
 30
0.0
 11
-653.8105765183245
 21
280.4033473089467
 31
0.0
  0
LINE
  5
47C
330
A0
100
AcDbEntity
  8
0
  6
CONTINUOUS
 62
     7
100
AcDbLine
 10
-653.8105765183245
 20
280.4033473089467
 30
0.0
 11
-653.7798453171526
 21
280.461206729723
 31
0.0
  0
LINE
  5
47D
330
A0
100
AcDbEntity
  8
0
  6
CONTINUOUS
 62
     7
100
AcDbLine
 10
-653.7798453171526
 20
280.461206729723
 30
0.0
 11
-653.5576011831599
 21
281.0850320052518
 31
0.0
  0
LINE
  5
47E
330
A0
100
AcDbEntity
  8
0
  6
CONTINUOUS
 62
     7
100
AcDbLine
 10
-655.521412883334
 20
279.1516291018329
 30
0.0
 11
-666.6913612192711
 21
276.9589789461229
 31
0.0
  0
LINE
  5
47F
330
A0
100
AcDbEntity
  8
0
  6
CONTINUOUS
 62
     1
100
AcDbLine
 10
-670.6022168069358
 20
284.9525333355869
 30
0.0
 11
-669.0555449156091
 21
284.9525333355878
 31
0.0
  0
LINE
  5
480
330
A0
100
AcDbEntity
  8
0
  6
CONTINUOUS
 62
     1
100
AcDbLine
 10
-670.6022168069358
 20
285.252533335587
 30
0.0
 11
-670.6022168069358
 21
284.9525333355869
 31
0.0
  0
LINE
  5
481
330
A0
100
AcDbEntity
  8
0
  6
CONTINUOUS
 62
     1
100
AcDbLine
 10
-668.0346434360945
 20
285.0517872190089
 30
0.0
 11
-669.0555449156091
 21
284.9525333355878
 31
0.0
  0
LINE
  5
482
330
A0
100
AcDbEntity
  8
0
  6
CONTINUOUS
 62
     7
100
AcDbLine
 10
-677.31042073975
 20
285.2525333355798
 30
0.0
 11
-675.8528795792663
 21
285.4698107432478
 31
0.0
  0
LINE
  5
483
330
A0
100
AcDbEntity
  8
0
  6
CONTINUOUS
 62
     1
100
AcDbLine
 10
-677.31042073975
 20
284.95253333558
 30
0.0
 11
-675.7646172247969
 21
285.1829681182117
 31
0.0
  0
LINE
  5
484
330
A0
100
AcDbEntity
  8
0
  6
CONTINUOUS
 62
     1
100
AcDbLine
 10
-675.7646172247969
 20
285.1829681182117
 30
0.0
 11
-675.8521155369654
 21
285.46992463995
 31
0.0
  0
LINE
  5
485
330
A0
100
AcDbEntity
  8
0
  6
CONTINUOUS
 62
     1
100
AcDbLine
 10
-677.31042073975
 20
285.2525333355798
 30
0.0
 11
-677.31042073975
 21
284.95253333558
 31
0.0
  0
LINE
  5
486
330
A0
100
AcDbEntity
  8
0
  6
CONTINUOUS
 62
     1
100
AcDbLine
 10
-672.0605220097223
 20
285.4699246399537
 30
0.0
 11
-672.1480203218889
 21
285.1829681182157
 31
0.0
  0
LINE
  5
487
330
A0
100
AcDbEntity
  8
0
  6
CONTINUOUS
 62
     7
100
AcDbLine
 10
-677.31042073975
 20
285.2525333355798
 30
0.0
 11
-675.8521155369654
 21
285.46992463995
 31
0.0
  0
LINE
  5
488
330
A0
100
AcDbEntity
  8
0
  6
CONTINUOUS
 62
     1
100
AcDbLine
 10
-669.0555449156091
 20
284.9525333355878
 30
0.0
 11
-669.0555449156091
 21
285.2525333355879
 31
0.0
  0
LINE
  5
489
330
A0
100
AcDbEntity
  8
0
  6
CONTINUOUS
 62
     1
100
AcDbLine
 10
-668.092430312292
 20
285.3461690746649
 30
0.0
 11
-668.0346434360945
 21
285.0517872190089
 31
0.0
  0
LINE
  5
48A
330
A0
100
AcDbEntity
  8
0
  6
CONTINUOUS
 62
     7
100
AcDbLine
 10
-668.092430312292
 20
285.3461690746649
 30
0.0
 11
-662.8663704264291
 21
286.3720396228409
 31
0.0
  0
LINE
  5
48B
330
A0
100
AcDbEntity
  8
0
  6
CONTINUOUS
 62
     1
100
AcDbLine
 10
-662.8663704264291
 20
286.3720396228409
 30
0.0
 11
-662.8085835502297
 21
286.0776577671859
 31
0.0
  0
LINE
  5
48C
330
A0
100
AcDbEntity
  8
0
  6
CONTINUOUS
 62
     1
100
AcDbLine
 10
-668.0346434360945
 20
285.0517872190089
 30
0.0
 11
-662.8085835502297
 21
286.0776577671859
 31
0.0
  0
LINE
  5
48D
330
A0
100
AcDbEntity
  8
0
  6
CONTINUOUS
 62
     7
100
AcDbLine
 10
-668.092430312292
 20
285.3461690746649
 30
0.0
 11
-669.0555449156091
 21
285.2525333355879
 31
0.0
  0
LINE
  5
48E
330
A0
100
AcDbEntity
  8
0
  6
CONTINUOUS
 62
     7
100
AcDbLine
 10
-670.6022168069358
 20
285.252533335587
 30
0.0
 11
-669.0555449156091
 21
285.2525333355879
 31
0.0
  0
LINE
  5
48F
330
A0
100
AcDbEntity
  8
0
  6
CONTINUOUS
 62
     1
100
AcDbLine
 10
-660.5479277280901
 20
288.8252217533059
 30
0.0
 11
-660.8479277280894
 21
288.8252217533059
 31
0.0
  0
LINE
  5
490
330
A0
100
AcDbEntity
  8
0
  6
CONTINUOUS
 62
     1
100
AcDbLine
 10
-653.8510454633797
 20
281.1474055124968
 30
0.0
 11
-653.5576011831599
 21
281.0850320052518
 31
0.0
  0
LINE
  5
491
330
A0
100
AcDbEntity
  8
0
  6
CONTINUOUS
 62
     7
100
AcDbLine
 10
-653.5576011831599
 20
281.0850320052518
 30
0.0
 11
-652.4702258612724
 21
286.20073068492
 31
0.0
  0
LINE
  5
492
330
A0
100
AcDbEntity
  8
0
  6
CONTINUOUS
 62
     1
100
AcDbLine
 10
-653.8510454633797
 20
281.1474055124968
 30
0.0
 11
-651.9138073067934
 21
290.2613944732188
 31
0.0
  0
LINE
  5
493
330
A0
100
AcDbEntity
  8
0
  6
CONTINUOUS
 62
     7
100
AcDbLine
 10
-660.8479277280912
 20
290.3721124298409
 30
0.0
 11
-660.8479277280894
 21
288.8252217533059
 31
0.0
  0
LINE
  5
494
330
A0
100
AcDbEntity
  8
0
  6
CONTINUOUS
 62
     1
100
AcDbLine
 10
-660.5479277280901
 20
290.2614070119321
 30
0.0
 11
-660.5479277280901
 21
288.8252217533059
 31
0.0
  0
LINE
  5
495
330
A0
100
AcDbEntity
  8
0
  6
CONTINUOUS
 62
     7
100
AcDbLine
 10
-653.5576011831599
 20
281.0850320052518
 30
0.0
 11
-651.6071030774365
 21
290.2614041219299
 31
0.0
  0
LINE
  5
496
330
A0
100
AcDbEntity
  8
0
  6
CONTINUOUS
 62
     7
100
AcDbLine
 10
-660.9124918556154
 20
288.4235008224769
 30
0.0
 11
-660.8564139206683
 21
288.6194155767689
 31
0.0
  0
LINE
  5
497
330
A0
100
AcDbEntity
  8
0
  6
CONTINUOUS
 62
     7
100
AcDbLine
 10
-660.8564139206683
 20
288.6194155767689
 30
0.0
 11
-660.8479277280894
 21
288.8252217533059
 31
0.0
  0
LINE
  5
498
330
A0
100
AcDbEntity
  8
0
  6
CONTINUOUS
 62
     7
100
AcDbLine
 10
-670.8119498093401
 20
275.1109030798207
 30
0.0
 11
-667.8184500534808
 21
276.6687319830189
 31
0.0
  0
LINE
  5
499
330
A0
100
AcDbEntity
  8
0
  6
CONTINUOUS
 62
     7
100
AcDbLine
 10
-666.6913748581683
 20
276.9589884832631
 30
0.0
 11
-667.8184500534808
 21
276.6687319830189
 31
0.0
  0
LINE
  5
49A
330
A0
100
AcDbEntity
  8
0
  6
CONTINUOUS
 62
     7
100
AcDbLine
 10
-666.6913748581683
 20
276.9589884832631
 30
0.0
 11
-667.8184500534808
 21
276.6687319830189
 31
0.0
  0
ARC
  5
49B
330
A0
100
AcDbEntity
  8
0
  6
CONTINUOUS
 62
     7
100
AcDbCircle
 10
-683.3163221864615
 20
290.2525333355738
 30
0.0
 40
5.000000000000237
100
AcDbArc
 50
242.7779384257428
 51
270.0000000000625
  0
ARC
  5
49C
330
A0
100
AcDbEntity
  8
0
  6
CONTINUOUS
 62
     1
100
AcDbCircle
 10
-683.3163221864615
 20
290.2525333355738
 30
0.0
 40
5.300000000000259
100
AcDbArc
 50
242.7779384257402
 51
270.000000000059
  0
ARC
  5
49D
330
A0
100
AcDbEntity
  8
0
  6
CONTINUOUS
 62
     1
100
AcDbCircle
 10
-664.7651320126297
 20
267.1462504242759
 30
0.0
 40
10.29999999999901
100
AcDbArc
 50
101.1058945762513
 51
127.2060586689827
  0
ARC
  5
49E
330
A0
100
AcDbEntity
  8
0
  6
CONTINUOUS
 62
     7
100
AcDbCircle
 10
-673.9563187733365
 20
279.2525333356307
 30
0.0
 40
5.199999999999971
100
AcDbArc
 50
225.3218951524133
 51
307.2060586689754
  0
ARC
  5
49F
330
A0
100
AcDbEntity
  8
0
  6
CONTINUOUS
 62
     1
100
AcDbCircle
 10
-673.9563187733365
 20
279.2525333356307
 30
0.0
 40
4.899999999999663
100
AcDbArc
 50
225.3218951524178
 51
307.2060586689865
  0
ARC
  5
4A0
330
A0
100
AcDbEntity
  8
0
  6
CONTINUOUS
 62
     1
100
AcDbCircle
 10
-656.0029701849944
 20
281.6048112322947
 30
0.0
 40
2.199999999999324
100
AcDbArc
 50
281.1058945762514
 51
348.0000000000312
  0
ARC
  5
4A1
330
A0
100
AcDbEntity
  8
0
  6
CONTINUOUS
 62
     7
100
AcDbCircle
 10
-656.0029701849944
 20
281.6048112322947
 30
0.0
 40
2.499999999999912
100
AcDbArc
 50
281.1058945762502
 51
348.0000000000327
  0
ARC
  5
4A2
330
A0
100
AcDbEntity
  8
0
  6
CONTINUOUS
 62
     1
100
AcDbCircle
 10
-670.602216806943
 20
290.2525333355866
 30
0.0
 40
5.299999999999605
100
AcDbArc
 50
253.0425737050852
 51
270.0000000000787
  0
ARC
  5
4A3
330
A0
100
AcDbEntity
  8
0
  6
CONTINUOUS
 62
     7
100
AcDbCircle
 10
-670.602216806943
 20
290.2525333355879
 30
0.0
 40
5.000000000000852
100
AcDbArc
 50
253.0425737050882
 51
270.0000000000834
  0
ARC
  5
4A4
330
A0
100
AcDbEntity
  8
0
  6
CONTINUOUS
 62
     7
100
AcDbCircle
 10
-673.9563187733384
 20
279.2525333356311
 30
0.0
 40
6.500000000000302
100
AcDbArc
 50
73.04257370505755
 51
106.957426295044
  0
ARC
  5
4A5
330
A0
100
AcDbEntity
  8
0
  6
CONTINUOUS
 62
     1
100
AcDbCircle
 10
-673.9563187733365
 20
279.2525333356307
 30
0.0
 40
6.200000000000148
100
AcDbArc
 50
73.0425737050723
 51
106.957426295051
  0
ARC
  5
4A6
330
A0
100
AcDbEntity
  8
0
  6
CONTINUOUS
 62
     7
100
AcDbCircle
 10
-663.3479277280894
 20
288.8252217533027
 30
0.0
 40
2.499999999999912
100
AcDbArc
 50
281.1058945762502
 51
0.00000000007426
  0
ARC
  5
4A7
330
A0
100
AcDbEntity
  8
0
  6
CONTINUOUS
 62
     1
100
AcDbCircle
 10
-663.3479277280894
 20
288.8252217533027
 30
0.0
 40
2.799999999999496
100
AcDbArc
 50
281.1058945762534
 51
0.0000000000663
  0
ENDBLK
  5
A2
330
A0
100
AcDbEntity
  8
0
100
AcDbBlockEnd
  0
BLOCK
  5
A5
330
A3
100
AcDbEntity
  8
0
100
AcDbBlockBegin
  2
PD05300A10600_BIELLA_E__14
 70
     0
 10
-700.3345023267229
 20
274.0525333356309
 30
0.0
  3
PD05300A10600_BIELLA_E__14
  1

  0
INSERT
  5
A4
330
A3
100
AcDbEntity
  8
0
100
AcDbBlockReference
  2
PX009557_BIELLA_C_TIPO__13
 10
-700.3345023267229
 20
274.0525333356309
 30
0.0
  0
ENDBLK
  5
A6
330
A3
100
AcDbEntity
  8
0
100
AcDbBlockEnd
  0
BLOCK
  5
A8
330
A7
100
AcDbEntity
  8
0
100
AcDbBlockBegin
  2
BIELLA_T_TIPO_KK__15
 70
     0
 10
-695.2716901718122
 20
274.0701773718129
 30
0.0
  3
BIELLA_T_TIPO_KK__15
  1

  0
LINE
  5
4A8
330
A7
100
AcDbEntity
  8
0
  6
CONTINUOUS
 62
     1
100
AcDbLine
 10
-694.9273317621719
 20
284.9799037553848
 30
0.0
 11
-693.8541279811161
 21
279.930876933427
 31
0.0
  0
LINE
  5
4A9
330
A7
100
AcDbEntity
  8
0
  6
CONTINUOUS
 62
     1
100
AcDbLine
 10
-687.3147098185909
 20
287.2525333355707
 30
0.0
 11
-687.3147098185927
 21
288.7613984804889
 31
0.0
  0
LINE
  5
4AA
330
A7
100
AcDbEntity
  8
0
  6
CONTINUOUS
 62
     1
100
AcDbLine
 10
-687.3147098185909
 20
287.2525333355707
 30
0.0
 11
-687.0147098185917
 21
287.2525333355707
 31
0.0
  0
LINE
  5
4AB
330
A7
100
AcDbEntity
  8
0
  6
CONTINUOUS
 62
     7
100
AcDbLine
 10
-687.0147098185917
 20
287.2525333355707
 30
0.0
 11
-687.0147098185935
 21
288.7614117705589
 31
0.0
  0
LINE
  5
4AC
330
A7
100
AcDbEntity
  8
0
  6
CONTINUOUS
 62
     7
100
AcDbLine
 10
-695.2716901718122
 20
285.1570623944049
 30
0.0
 11
-694.1475722613359
 21
279.8685034261807
 31
0.0
  0
LINE
  5
4AD
330
A7
100
AcDbEntity
  8
0
  6
CONTINUOUS
 62
     1
100
AcDbLine
 10
-692.5187360249947
 20
278.6161629591029
 30
0.0
 11
-692.576522901194
 21
278.3217811034479
 31
0.0
  0
LINE
  5
4AE
330
A7
100
AcDbEntity
  8
0
  6
CONTINUOUS
 62
     1
100
AcDbLine
 10
-693.8541279811161
 20
279.930876933427
 30
0.0
 11
-694.1475722613359
 21
279.8685034261807
 31
0.0
  0
LINE
  5
4AF
330
A7
100
AcDbEntity
  8
0
  6
CONTINUOUS
 62
     7
100
AcDbLine
 10
-674.979643901137
 20
274.1542075231801
 30
0.0
 11
-674.8340669415775
 21
274.1457791256498
 31
0.0
  0
LINE
  5
4B0
330
A7
100
AcDbEntity
  8
0
  6
CONTINUOUS
 62
     7
100
AcDbLine
 10
-673.9563284771866
 20
274.094961134067
 30
0.0
 11
-673.5282584030901
 21
274.0701773718129
 31
0.0
  0
LINE
  5
4B1
330
A7
100
AcDbEntity
  8
0
  6
CONTINUOUS
 62
     7
100
AcDbLine
 10
-672.6662283737933
 20
274.2151034429799
 30
0.0
 11
-672.5960587230511
 21
274.2417493754579
 31
0.0
  0
LINE
  5
4B2
330
A7
100
AcDbEntity
  8
0
  6
CONTINUOUS
 62
     7
100
AcDbLine
 10
-672.1724514870402
 20
274.402608232364
 30
0.0
 11
-671.5776053269183
 21
274.6284926489129
 31
0.0
  0
LINE
  5
4B3
330
A7
100
AcDbEntity
  8
0
  6
CONTINUOUS
 62
     7
100
AcDbLine
 10
-671.5776053269183
 20
274.6284926489129
 30
0.0
 11
-671.0142492540072
 21
275.0035127845181
 31
0.0
  0
LINE
  5
4B4
330
A7
100
AcDbEntity
  8
0
  6
CONTINUOUS
 62
     7
100
AcDbLine
 10
-676.4424829713716
 20
274.685369272408
 30
0.0
 11
-676.380757989753
 21
274.6589518341439
 31
0.0
  0
LINE
  5
4B5
330
A7
100
AcDbEntity
  8
0
  6
CONTINUOUS
 62
     7
100
AcDbLine
 10
-676.109387198474
 20
274.542808889471
 30
0.0
 11
-675.5440359909808
 21
274.3008463934189
 31
0.0
  0
LINE
  5
4B6
330
A7
100
AcDbEntity
  8
0
  6
CONTINUOUS
 62
     7
100
AcDbLine
 10
-673.5282584030901
 20
274.0701773718129
 30
0.0
 11
-673.0785657292854
 21
274.145780529745
 31
0.0
  0
LINE
  5
4B7
330
A7
100
AcDbEntity
  8
0
  6
CONTINUOUS
 62
     7
100
AcDbLine
 10
-672.7580203134821
 20
274.1996712135538
 30
0.0
 11
-672.6662283737933
 21
274.2151034429799
 31
0.0
  0
LINE
  5
4B8
330
A7
100
AcDbEntity
  8
0
  6
CONTINUOUS
 62
     7
100
AcDbLine
 10
-675.5440359909808
 20
274.3008463934189
 30
0.0
 11
-675.3165491778018
 21
274.241741367181
 31
0.0
  0
LINE
  5
4B9
330
A7
100
AcDbEntity
  8
0
  6
CONTINUOUS
 62
     7
100
AcDbLine
 10
-675.1059281760063
 20
274.1870183717529
 30
0.0
 11
-674.979643901137
 21
274.1542075231801
 31
0.0
  0
LINE
  5
4BA
330
A7
100
AcDbEntity
  8
0
  6
CONTINUOUS
 62
     1
100
AcDbLine
 10
-677.5218335238133
 20
275.47218252841
 30
0.0
 11
-678.0786734421526
 21
275.7104971960321
 31
0.0
  0
LINE
  5
4BB
330
A7
100
AcDbEntity
  8
0
  6
CONTINUOUS
 62
     1
100
AcDbLine
 10
-678.0786734421526
 20
275.7104971960321
 30
0.0
 11
-679.2395518847698
 21
276.0094718360228
 31
0.0
  0
LINE
  5
4BC
330
A7
100
AcDbEntity
  8
0
  6
CONTINUOUS
 62
     1
100
AcDbLine
 10
-679.2395518847698
 20
276.0094718360228
 30
0.0
 11
-679.2973387609691
 21
275.7150899803669
 31
0.0
  0
LINE
  5
4BD
330
A7
100
AcDbEntity
  8
0
  6
CONTINUOUS
 62
     1
100
AcDbLine
 10
-676.4424829713716
 20
274.685369272408
 30
0.0
 11
-676.4366411447791
 21
274.696138982089
 31
0.0
  0
LINE
  5
4BE
330
A7
100
AcDbEntity
  8
0
  6
CONTINUOUS
 62
     1
100
AcDbLine
 10
-692.5187360249947
 20
278.6161629591029
 30
0.0
 11
-679.2395518847698
 21
276.0094718360228
 31
0.0
  0
LINE
  5
4BF
330
A7
100
AcDbEntity
  8
0
  6
CONTINUOUS
 62
     7
100
AcDbLine
 10
-692.576522901194
 20
278.3217811034479
 30
0.0
 11
-679.2973387609691
 21
275.7150899803669
 31
0.0
  0
LINE
  5
4C0
330
A7
100
AcDbEntity
  8
0
  6
CONTINUOUS
 62
     7
100
AcDbLine
 10
-675.8528795333641
 20
285.4697783484439
 30
0.0
 11
-675.8521155369617
 21
285.4699246399509
 31
0.0
  0
LINE
  5
4C1
330
A7
100
AcDbEntity
  8
0
  6
CONTINUOUS
 62
     7
100
AcDbLine
 10
-674.9972010172078
 20
285.6686508652897
 30
0.0
 11
-675.8521155369617
 21
285.4699246399509
 31
0.0
  0
LINE
  5
4C2
330
A7
100
AcDbEntity
  8
0
  6
CONTINUOUS
 62
     7
100
AcDbLine
 10
-685.0147098185898
 20
285.2525333355738
 30
0.0
 11
-677.31046390562
 21
285.2525333355807
 31
0.0
  0
LINE
  5
4C3
330
A7
100
AcDbEntity
  8
0
  6
CONTINUOUS
 62
     1
100
AcDbLine
 10
-674.9935293991839
 20
285.6461108282338
 30
0.0
 11
-674.9972010172078
 21
285.6686508652897
 31
0.0
  0
LINE
  5
4C4
330
A7
100
AcDbEntity
  8
0
  6
CONTINUOUS
 62
     1
100
AcDbLine
 10
-674.9916814143617
 20
285.6346750633338
 30
0.0
 11
-674.9935293991839
 21
285.6461108282338
 31
0.0
  0
LINE
  5
4C5
330
A7
100
AcDbEntity
  8
0
  6
CONTINUOUS
 62
     7
100
AcDbLine
 10
-674.9972010172078
 20
285.6686508652897
 30
0.0
 11
-664.0290062284403
 21
287.4480134081659
 31
0.0
  0
LINE
  5
4C6
330
A7
100
AcDbEntity
  8
0
  6
CONTINUOUS
 62
     1
100
AcDbLine
 10
-675.8521155369617
 20
285.4699246399509
 30
0.0
 11
-675.8521061845186
 21
285.469894022157
 31
0.0
  0
LINE
  5
4C7
330
A7
100
AcDbEntity
  8
0
  6
CONTINUOUS
 62
     7
100
AcDbLine
 10
-686.8202598518146
 20
286.4322369999959
 30
0.0
 11
-687.007964213637
 21
287.0878804281479
 31
0.0
  0
LINE
  5
4C8
330
A7
100
AcDbEntity
  8
0
  6
CONTINUOUS
 62
     7
100
AcDbLine
 10
-687.007964213637
 20
287.0878804281479
 30
0.0
 11
-687.0147098185917
 21
287.2525333355707
 31
0.0
  0
LINE
  5
4C9
330
A7
100
AcDbEntity
  8
0
  6
CONTINUOUS
 62
     1
100
AcDbLine
 10
-687.1791628113679
 20
286.6168629847339
 30
0.0
 11
-687.3069144089495
 21
287.0631869390741
 31
0.0
  0
LINE
  5
4CA
330
A7
100
AcDbEntity
  8
0
  6
CONTINUOUS
 62
     1
100
AcDbLine
 10
-687.3069144089495
 20
287.0631869390741
 30
0.0
 11
-687.3147098185909
 21
287.2525333355707
 31
0.0
  0
LINE
  5
4CB
330
A7
100
AcDbEntity
  8
0
  6
CONTINUOUS
 62
     1
100
AcDbLine
 10
-673.110031752798
 20
285.6708828971127
 30
0.0
 11
-663.9809655094923
 21
287.151884906797
 31
0.0
  0
LINE
  5
4CC
330
A7
100
AcDbEntity
  8
0
  6
CONTINUOUS
 62
     7
100
AcDbLine
 10
-662.0105282081986
 20
287.9971185576969
 30
0.0
 11
-660.9125185364865
 21
288.423494906373
 31
0.0
  0
LINE
  5
4CD
330
A7
100
AcDbEntity
  8
0
  6
CONTINUOUS
 62
     1
100
AcDbLine
 10
-652.2934083201435
 20
287.0326096430408
 30
0.0
 11
-652.055430532404
 21
286.7514626867878
 31
0.0
  0
LINE
  5
4CE
330
A7
100
AcDbEntity
  8
0
  6
CONTINUOUS
 62
     1
100
AcDbLine
 10
-652.3897250556329
 20
286.5794958892448
 30
0.0
 11
-652.055430532404
 21
286.7514626867878
 31
0.0
  0
LINE
  5
4CF
330
A7
100
AcDbEntity
  8
0
  6
CONTINUOUS
 62
     7
100
AcDbLine
 10
-652.470237811207
 20
286.2007121310867
 30
0.0
 11
-650.2522073326691
 21
287.3417047939761
 31
0.0
  0
LINE
  5
4D0
330
A7
100
AcDbEntity
  8
0
  6
CONTINUOUS
 62
     1
100
AcDbLine
 10
-651.974272807387
 20
288.4997609213119
 30
0.0
 11
-651.6877952937721
 21
288.43885678792
 31
0.0
  0
LINE
  5
4D1
330
A7
100
AcDbEntity
  8
0
  6
CONTINUOUS
 62
     1
100
AcDbLine
 10
-651.9812426297722
 20
288.5012414221988
 30
0.0
 11
-651.974272807387
 21
288.4997609213119
 31
0.0
  0
LINE
  5
4D2
330
A7
100
AcDbEntity
  8
0
  6
CONTINUOUS
 62
     1
100
AcDbLine
 10
-662.0105282081986
 20
287.9971185576969
 30
0.0
 11
-661.9019331486434
 21
287.717463210814
 31
0.0
  0
LINE
  5
4D3
330
A7
100
AcDbEntity
  8
0
  6
CONTINUOUS
 62
     1
100
AcDbLine
 10
-661.9019331486434
 20
287.717463210814
 30
0.0
 11
-661.0161450199103
 21
288.06143022473
 31
0.0
  0
LINE
  5
4D4
330
A7
100
AcDbEntity
  8
0
  6
CONTINUOUS
 62
     1
100
AcDbLine
 10
-664.0290062284403
 20
287.4480134081659
 30
0.0
 11
-663.9809655094923
 21
287.151884906797
 31
0.0
  0
LINE
  5
4D5
330
A7
100
AcDbEntity
  8
0
  6
CONTINUOUS
 62
     1
100
AcDbLine
 10
-663.9809655094923
 20
287.151884906797
 30
0.0
 11
-661.9019331486434
 21
287.717463210814
 31
0.0
  0
LINE
  5
4D6
330
A7
100
AcDbEntity
  8
0
  6
CONTINUOUS
 62
     1
100
AcDbLine
 10
-651.3943510135523
 20
288.3764832806751
 30
0.0
 11
-651.6877952937721
 21
288.43885678792
 31
0.0
  0
LINE
  5
4D7
330
A7
100
AcDbEntity
  8
0
  6
CONTINUOUS
 62
     7
100
AcDbLine
 10
-645.5368768275312
 20
289.7673511327089
 30
0.0
 11
-644.7946879495721
 21
290.2614057840137
 31
0.0
  0
LINE
  5
4D8
330
A7
100
AcDbEntity
  8
0
  6
CONTINUOUS
 62
     1
100
AcDbLine
 10
-645.6741089356419
 20
290.0341232236469
 30
0.0
 11
-645.5368768275312
 21
289.7673511327089
 31
0.0
  0
LINE
  5
4D9
330
A7
100
AcDbEntity
  8
0
  6
CONTINUOUS
 62
     7
100
AcDbLine
 10
-651.6877952937721
 20
288.43885678792
 30
0.0
 11
-651.3003971940961
 21
290.2614215520189
 31
0.0
  0
LINE
  5
4DA
330
A7
100
AcDbEntity
  8
0
  6
CONTINUOUS
 62
     1
100
AcDbLine
 10
-652.055430532404
 20
286.7514626867878
 30
0.0
 11
-651.8228445847308
 21
286.7603915289169
 31
0.0
  0
LINE
  5
4DB
330
A7
100
AcDbEntity
  8
0
  6
CONTINUOUS
 62
     1
100
AcDbLine
 10
-651.8228445847308
 20
286.7603915289169
 30
0.0
 11
-651.765776713637
 21
286.7693713262811
 31
0.0
  0
LINE
  5
4DC
330
A7
100
AcDbEntity
  8
0
  6
CONTINUOUS
 62
     1
100
AcDbLine
 10
-651.765776713637
 20
286.7693713262811
 30
0.0
 11
-651.5942374069964
 21
286.8071120336781
 31
0.0
  0
LINE
  5
4DD
330
A7
100
AcDbEntity
  8
0
  6
CONTINUOUS
 62
     1
100
AcDbLine
 10
-651.5942374069964
 20
286.8071120336781
 30
0.0
 11
-651.3283682663714
 21
286.8853791311508
 31
0.0
  0
LINE
  5
4DE
330
A7
100
AcDbEntity
  8
0
  6
CONTINUOUS
 62
     1
100
AcDbLine
 10
-651.3283682663714
 20
286.8853791311508
 30
0.0
 11
-651.1348868210589
 21
286.9518158987289
 31
0.0
  0
LINE
  5
4DF
330
A7
100
AcDbEntity
  8
0
  6
CONTINUOUS
 62
     1
100
AcDbLine
 10
-651.1348868210589
 20
286.9518158987289
 30
0.0
 11
-651.0341482956683
 21
286.9894679144159
 31
0.0
  0
LINE
  5
4E0
330
A7
100
AcDbEntity
  8
0
  6
CONTINUOUS
 62
     1
100
AcDbLine
 10
-651.0341482956683
 20
286.9894679144159
 30
0.0
 11
-650.9340811569964
 21
287.0287497595077
 31
0.0
  0
LINE
  5
4E1
330
A7
100
AcDbEntity
  8
0
  6
CONTINUOUS
 62
     1
100
AcDbLine
 10
-650.9340811569964
 20
287.0287497595077
 30
0.0
 11
-650.8347464401995
 21
287.0695517614608
 31
0.0
  0
LINE
  5
4E2
330
A7
100
AcDbEntity
  8
0
  6
CONTINUOUS
 62
     1
100
AcDbLine
 10
-650.8347464401995
 20
287.0695517614608
 30
0.0
 11
-650.7360831101214
 21
287.1117394521957
 31
0.0
  0
LINE
  5
4E3
330
A7
100
AcDbEntity
  8
0
  6
CONTINUOUS
 62
     1
100
AcDbLine
 10
-650.7360831101214
 20
287.1117394521957
 30
0.0
 11
-650.6380606491839
 21
287.1552565649281
 31
0.0
  0
LINE
  5
4E4
330
A7
100
AcDbEntity
  8
0
  6
CONTINUOUS
 62
     1
100
AcDbLine
 10
-650.6380606491839
 20
287.1552565649281
 30
0.0
 11
-650.5407095749651
 21
287.2000353887811
 31
0.0
  0
LINE
  5
4E5
330
A7
100
AcDbEntity
  8
0
  6
CONTINUOUS
 62
     1
100
AcDbLine
 10
-650.5407095749651
 20
287.2000353887811
 30
0.0
 11
-650.4439383347308
 21
287.2460635259877
 31
0.0
  0
LINE
  5
4E6
330
A7
100
AcDbEntity
  8
0
  6
CONTINUOUS
 62
     1
100
AcDbLine
 10
-650.4439383347308
 20
287.2460635259877
 30
0.0
 11
-650.3477774460589
 21
287.2932990148788
 31
0.0
  0
LINE
  5
4E7
330
A7
100
AcDbEntity
  8
0
  6
CONTINUOUS
 62
     7
100
AcDbLine
 10
-650.3477774460589
 20
287.2932990148788
 30
0.0
 11
-650.2522073326691
 21
287.3417047939761
 31
0.0
  0
LINE
  5
4E8
330
A7
100
AcDbEntity
  8
0
  6
CONTINUOUS
 62
     1
100
AcDbLine
 10
-650.3894394407798
 20
287.6084768849137
 30
0.0
 11
-650.2522073326691
 21
287.3417047939761
 31
0.0
  0
LINE
  5
4E9
330
A7
100
AcDbEntity
  8
0
  6
CONTINUOUS
 62
     1
100
AcDbLine
 10
-652.055430532404
 20
286.7514626867878
 30
0.0
 11
-651.3825409496494
 21
287.4912055042669
 31
0.0
  0
LINE
  5
4EA
330
A7
100
AcDbEntity
  8
0
  6
CONTINUOUS
 62
     7
100
AcDbLine
 10
-650.2522073326691
 20
287.3417047939761
 30
0.0
 11
-645.5368768275312
 21
289.7673511327089
 31
0.0
  0
LINE
  5
4EB
330
A7
100
AcDbEntity
  8
0
  6
CONTINUOUS
 62
     1
100
AcDbLine
 10
-650.3894394407798
 20
287.6084768849137
 30
0.0
 11
-645.6741089356419
 21
290.0341232236469
 31
0.0
  0
LINE
  5
4EC
330
A7
100
AcDbEntity
  8
0
  6
CONTINUOUS
 62
     1
100
AcDbLine
 10
-645.6741089356419
 20
290.0341232236469
 30
0.0
 11
-645.3880959118706
 21
290.2613991669959
 31
0.0
  0
LINE
  5
4ED
330
A7
100
AcDbEntity
  8
0
  6
CONTINUOUS
 62
     1
100
AcDbLine
 10
-651.3943510135523
 20
288.3764832806751
 30
0.0
 11
-650.9936968922175
 21
290.261412723396
 31
0.0
  0
LINE
  5
4EE
330
A7
100
AcDbEntity
  8
0
  6
CONTINUOUS
 62
     7
100
AcDbLine
 10
-650.453276713637
 20
287.2643683508168
 30
0.0
 11
-650.5339957077776
 21
287.2468941763168
 31
0.0
  0
ARC
  5
4EF
330
A7
100
AcDbEntity
  8
0
  6
CONTINUOUS
 62
     7
100
AcDbCircle
 10
-692.1912770598683
 20
280.2843268078177
 30
0.0
 40
2.000000000000277
100
AcDbArc
 50
192.0000000000412
 51
258.8941054238232
  0
ARC
  5
4F0
330
A7
100
AcDbEntity
  8
0
  6
CONTINUOUS
 62
     1
100
AcDbCircle
 10
-692.1912770598683
 20
280.2843268078177
 30
0.0
 40
1.700000000000442
100
AcDbArc
 50
192.000000000015
 51
258.8941054238414
  0
ARC
  5
4F1
330
A7
100
AcDbEntity
  8
0
  6
CONTINUOUS
 62
     7
100
AcDbCircle
 10
-681.223567967596
 20
265.9023614585167
 30
0.0
 40
9.999999999999881
100
AcDbArc
 50
61.4380621505108
 51
78.89410542383483
  0
ARC
  5
4F2
330
A7
100
AcDbEntity
  8
0
  6
CONTINUOUS
 62
     7
100
AcDbCircle
 10
-665.6303635267031
 20
297.3189634537944
 30
0.0
 40
9.999999999999702
100
AcDbArc
 50
279.2147745506377
 51
291.2220615742839
  0
ARC
  5
4F3
330
A7
100
AcDbEntity
  8
0
  6
CONTINUOUS
 62
     1
100
AcDbCircle
 10
-650.7096476930383
 20
288.2309450971029
 30
0.0
 40
0.7000000000002919
100
AcDbArc
 50
168.0000000000269
 51
297.2220615742934
  0
ARC
  5
4F4
330
A7
100
AcDbEntity
  8
0
  6
CONTINUOUS
 62
     7
100
AcDbCircle
 10
-650.7096476930383
 20
288.2309450971029
 30
0.0
 40
0.9999999999998429
100
AcDbArc
 50
168.0000000000385
 51
297.2220615743083
  0
ENDBLK
  5
A9
330
A7
100
AcDbEntity
  8
0
100
AcDbBlockEnd
  0
BLOCK
  5
AC
330
AA
100
AcDbEntity
  8
0
100
AcDbBlockBegin
  2
PD05300A10500_BIELLA_C__16
 70
     0
 10
-695.2716901718122
 20
274.0701773718129
 30
0.0
  3
PD05300A10500_BIELLA_C__16
  1

  0
INSERT
  5
AB
330
AA
100
AcDbEntity
  8
0
100
AcDbBlockReference
  2
BIELLA_T_TIPO_KK__15
 10
-695.2716901718122
 20
274.0701773718129
 30
0.0
  0
ENDBLK
  5
AD
330
AA
100
AcDbEntity
  8
0
100
AcDbBlockEnd
  0
BLOCK
  5
AF
330
AE
100
AcDbEntity
  8
0
100
AcDbBlockBegin
  2
CORPO_PORTA_1__17
 70
     0
 10
-690.7647708761106
 20
288.7614373959659
 30
0.0
  3
CORPO_PORTA_1__17
  1

  0
LINE
  5
4F5
330
AE
100
AcDbEntity
  8
0
  6
CONTINUOUS
 62
     7
100
AcDbLine
 10
-686.7647098186026
 20
288.7614373959659
 30
0.0
 11
-690.7647708761106
 21
288.7614373959659
 31
0.0
  0
LINE
  5
4F6
330
AE
100
AcDbEntity
  8
0
  6
CONTINUOUS
 62
     1
100
AcDbLine
 10
-686.7647098186026
 20
289.2614373959659
 30
0.0
 11
-690.7647708761106
 21
289.2614373959659
 31
0.0
  0
LINE
  5
4F7
330
AE
100
AcDbEntity
  8
0
  6
CONTINUOUS
 62
     1
100
AcDbLine
 10
-686.7647098186026
 20
289.2614373959659
 30
0.0
 11
-686.7647098186026
 21
288.7614373959659
 31
0.0
  0
LINE
  5
4F8
330
AE
100
AcDbEntity
  8
0
  6
CONTINUOUS
 62
     1
100
AcDbLine
 10
-686.7647098186026
 20
289.2614373959659
 30
0.0
 11
-686.2647098186026
 21
289.2614373959659
 31
0.0
  0
LINE
  5
4F9
330
AE
100
AcDbEntity
  8
0
  6
CONTINUOUS
 62
     7
100
AcDbLine
 10
-686.2647098186026
 20
300.4614373959657
 30
0.0
 11
-686.2647098186026
 21
289.2614373959659
 31
0.0
  0
LINE
  5
4FA
330
AE
100
AcDbEntity
  8
0
  6
CONTINUOUS
 62
     7
100
AcDbLine
 10
-686.7647098186026
 20
288.7614373959659
 30
0.0
 11
-686.619536479262
 21
288.782952602221
 31
0.0
  0
LINE
  5
4FB
330
AE
100
AcDbEntity
  8
0
  6
CONTINUOUS
 62
     7
100
AcDbLine
 10
-686.2862234909808
 20
289.1162655905018
 30
0.0
 11
-686.2647098186026
 21
289.2614373959659
 31
0.0
  0
LINE
  5
4FC
330
AE
100
AcDbEntity
  8
0
  6
CONTINUOUS
 62
     7
100
AcDbLine
 10
-686.573393901137
 20
288.7994931295639
 30
0.0
 11
-686.4869070847308
 21
288.845696742846
 31
0.0
  0
LINE
  5
4FD
330
AE
100
AcDbEntity
  8
0
  6
CONTINUOUS
 62
     7
100
AcDbLine
 10
-686.3489676316058
 20
288.983636195971
 30
0.0
 11
-686.3027640183245
 21
289.0701230123768
 31
0.0
  0
LINE
  5
4FE
330
AE
100
AcDbEntity
  8
0
  6
CONTINUOUS
 62
     7
100
AcDbLine
 10
-686.4869070847308
 20
288.845696742846
 30
0.0
 11
-686.4598090352647
 21
288.8679472766139
 31
0.0
  0
LINE
  5
4FF
330
AE
100
AcDbEntity
  8
0
  6
CONTINUOUS
 62
     7
100
AcDbLine
 10
-686.4598090352647
 20
288.8679472766139
 30
0.0
 11
-686.4111624558245
 21
288.9078915670639
 31
0.0
  0
LINE
  5
500
330
AE
100
AcDbEntity
  8
0
  6
CONTINUOUS
 62
     7
100
AcDbLine
 10
-686.3027640183245
 20
289.0701230123768
 30
0.0
 11
-686.2992705579145
 21
289.079868606731
 31
0.0
  0
LINE
  5
501
330
AE
100
AcDbEntity
  8
0
  6
CONTINUOUS
 62
     7
100
AcDbLine
 10
-686.2992705579145
 20
289.079868606731
 30
0.0
 11
-686.2862234909808
 21
289.1162655905018
 31
0.0
  0
LINE
  5
502
330
AE
100
AcDbEntity
  8
0
  6
CONTINUOUS
 62
     7
100
AcDbLine
 10
-686.4111624558245
 20
288.9078915670639
 30
0.0
 11
-686.3712181857627
 21
288.9565381216739
 31
0.0
  0
LINE
  5
503
330
AE
100
AcDbEntity
  8
0
  6
CONTINUOUS
 62
     7
100
AcDbLine
 10
-686.3712181857627
 20
288.9565381216739
 30
0.0
 11
-686.3489676316058
 21
288.983636195971
 31
0.0
  0
LINE
  5
504
330
AE
100
AcDbEntity
  8
0
  6
CONTINUOUS
 62
     7
100
AcDbLine
 10
-686.619536479262
 20
288.782952602221
 30
0.0
 11
-686.5831393318476
 21
288.7959997278149
 31
0.0
  0
LINE
  5
505
330
AE
100
AcDbEntity
  8
0
  6
CONTINUOUS
 62
     7
100
AcDbLine
 10
-686.5831393318476
 20
288.7959997278149
 30
0.0
 11
-686.573393901137
 21
288.7994931295639
 31
0.0
  0
LINE
  5
506
330
AE
100
AcDbEntity
  8
0
  6
CONTINUOUS
 62
     1
100
AcDbLine
 10
-686.7647098186026
 20
300.4614373959657
 30
0.0
 11
-686.7647098186026
 21
289.2614373959659
 31
0.0
  0
LINE
  5
507
330
AE
100
AcDbEntity
  8
0
  6
CONTINUOUS
 62
     7
100
AcDbLine
 10
-690.7647626879298
 20
301.4614373959657
 30
0.0
 11
-687.2647098186026
 21
301.4614373959657
 31
0.0
  0
LINE
  5
508
330
AE
100
AcDbEntity
  8
0
  6
CONTINUOUS
 62
     7
100
AcDbLine
 10
-687.2647098186026
 20
301.4614373959657
 30
0.0
 11
-687.0696097214495
 21
301.4421934440857
 31
0.0
  0
LINE
  5
509
330
AE
100
AcDbEntity
  8
0
  6
CONTINUOUS
 62
     7
100
AcDbLine
 10
-687.0696097214495
 20
301.4421934440857
 30
0.0
 11
-686.8820486862933
 21
301.3853086784607
 31
0.0
  0
LINE
  5
50A
330
AE
100
AcDbEntity
  8
0
  6
CONTINUOUS
 62
     7
100
AcDbLine
 10
-686.8820486862933
 20
301.3853086784607
 30
0.0
 11
-686.8294630165383
 21
301.357206064974
 31
0.0
  0
LINE
  5
50B
330
AE
100
AcDbEntity
  8
0
  6
CONTINUOUS
 62
     7
100
AcDbLine
 10
-686.8294630165383
 20
301.357206064974
 30
0.0
 11
-686.8254096560831
 21
301.3550398850489
 31
0.0
  0
LINE
  5
50C
330
AE
100
AcDbEntity
  8
0
  6
CONTINUOUS
 62
     7
100
AcDbLine
 10
-686.8254096560831
 20
301.3550398850489
 30
0.0
 11
-686.709136088637
 21
301.2929014518991
 31
0.0
  0
LINE
  5
50D
330
AE
100
AcDbEntity
  8
0
  6
CONTINUOUS
 62
     7
100
AcDbLine
 10
-686.709136088637
 20
301.2929014518991
 30
0.0
 11
-686.5576030637003
 21
301.1685441508639
 31
0.0
  0
LINE
  5
50E
330
AE
100
AcDbEntity
  8
0
  6
CONTINUOUS
 62
     1
100
AcDbLine
 10
-686.5715091233342
 20
301.0184117675467
 30
0.0
 11
-686.5395193894183
 21
301.1183409050241
 31
0.0
  0
LINE
  5
50F
330
AE
100
AcDbEntity
  8
0
  6
CONTINUOUS
 62
     1
100
AcDbLine
 10
-686.5395193894183
 20
301.1183409050241
 30
0.0
 11
-686.5574879751039
 21
301.168224646045
 31
0.0
  0
LINE
  5
510
330
AE
100
AcDbEntity
  8
0
  6
CONTINUOUS
 62
     1
100
AcDbLine
 10
-686.5574879751039
 20
301.168224646045
 30
0.0
 11
-686.5575115362863
 21
301.1682900557498
 31
0.0
  0
LINE
  5
511
330
AE
100
AcDbEntity
  8
0
  6
CONTINUOUS
 62
     1
100
AcDbLine
 10
-686.5575115362863
 20
301.1682900557498
 30
0.0
 11
-686.5576030637003
 21
301.1685441508639
 31
0.0
  0
LINE
  5
512
330
AE
100
AcDbEntity
  8
0
  6
CONTINUOUS
 62
     1
100
AcDbLine
 10
-686.2647098186026
 20
300.4614373959657
 30
0.0
 11
-686.4111564411505
 21
300.4614373959639
 31
0.0
  0
LINE
  5
513
330
AE
100
AcDbEntity
  8
0
  6
CONTINUOUS
 62
     7
100
AcDbLine
 10
-686.433257182387
 20
301.0170225456491
 30
0.0
 11
-686.3408499558245
 21
300.8441099479919
 31
0.0
  0
LINE
  5
514
330
AE
100
AcDbEntity
  8
0
  6
CONTINUOUS
 62
     7
100
AcDbLine
 10
-686.2839041550433
 20
300.6565489128357
 30
0.0
 11
-686.2647098186026
 21
300.4614373959657
 31
0.0
  0
LINE
  5
515
330
AE
100
AcDbEntity
  8
0
  6
CONTINUOUS
 62
     7
100
AcDbLine
 10
-686.5576030637003
 20
301.1685441508639
 30
0.0
 11
-686.5230953542905
 21
301.126494800561
 31
0.0
  0
LINE
  5
516
330
AE
100
AcDbEntity
  8
0
  6
CONTINUOUS
 62
     7
100
AcDbLine
 10
-686.5230953542905
 20
301.126494800561
 30
0.0
 11
-686.5209859447732
 21
301.1239243807549
 31
0.0
  0
LINE
  5
517
330
AE
100
AcDbEntity
  8
0
  6
CONTINUOUS
 62
     7
100
AcDbLine
 10
-686.5209859447732
 20
301.1239243807549
 30
0.0
 11
-686.433257182387
 21
301.0170225456491
 31
0.0
  0
LINE
  5
518
330
AE
100
AcDbEntity
  8
0
  6
CONTINUOUS
 62
     7
100
AcDbLine
 10
-686.3408499558245
 20
300.8441099479919
 30
0.0
 11
-686.3288918149228
 21
300.8047237025598
 31
0.0
  0
LINE
  5
519
330
AE
100
AcDbEntity
  8
0
  6
CONTINUOUS
 62
     7
100
AcDbLine
 10
-686.3288918149228
 20
300.8047237025598
 30
0.0
 11
-686.3286508149595
 21
300.803929926687
 31
0.0
  0
LINE
  5
51A
330
AE
100
AcDbEntity
  8
0
  6
CONTINUOUS
 62
     7
100
AcDbLine
 10
-686.3286508149595
 20
300.803929926687
 30
0.0
 11
-686.2839041550433
 21
300.6565489128357
 31
0.0
  0
LINE
  5
51B
330
AE
100
AcDbEntity
  8
0
  6
CONTINUOUS
 62
     1
100
AcDbLine
 10
-686.5715091233342
 20
301.0184117675467
 30
0.0
 11
-686.7771292526995
 21
301.1183409050241
 31
0.0
  0
LINE
  5
51C
330
AE
100
AcDbEntity
  8
0
  6
CONTINUOUS
 62
     1
100
AcDbLine
 10
-686.7771292526995
 20
301.1183409050241
 30
0.0
 11
-687.0147098186007
 21
301.1685441508639
 31
0.0
  0
LINE
  5
51D
330
AE
100
AcDbEntity
  8
0
  6
CONTINUOUS
 62
     1
100
AcDbLine
 10
-686.5715091233342
 20
301.0184117675467
 30
0.0
 11
-686.5072928269183
 21
300.8893980339299
 31
0.0
  0
LINE
  5
51E
330
AE
100
AcDbEntity
  8
0
  6
CONTINUOUS
 62
     1
100
AcDbLine
 10
-686.5072928269183
 20
300.8893980339299
 30
0.0
 11
-686.4570608933245
 21
300.7589048698669
 31
0.0
  0
LINE
  5
51F
330
AE
100
AcDbEntity
  8
0
  6
CONTINUOUS
 62
     1
100
AcDbLine
 10
-686.4570608933245
 20
300.7589048698669
 30
0.0
 11
-686.4236136276995
 21
300.6238340690857
 31
0.0
  0
LINE
  5
520
330
AE
100
AcDbEntity
  8
0
  6
CONTINUOUS
 62
     1
100
AcDbLine
 10
-686.4236136276995
 20
300.6238340690857
 30
0.0
 11
-686.4111564411505
 21
300.4614373959639
 31
0.0
  0
LINE
  5
521
330
AE
100
AcDbEntity
  8
0
  6
CONTINUOUS
 62
     1
100
AcDbLine
 10
-686.4111564411505
 20
300.4614373959639
 30
0.0
 11
-686.7647098186026
 21
300.4614373959657
 31
0.0
  0
LINE
  5
522
330
AE
100
AcDbEntity
  8
0
  6
CONTINUOUS
 62
     1
100
AcDbLine
 10
-690.764762339244
 20
300.4614373959657
 30
0.0
 11
-686.7647098186026
 21
300.4614373959657
 31
0.0
  0
LINE
  5
523
330
AE
100
AcDbEntity
  8
0
  6
CONTINUOUS
 62
     7
100
AcDbLine
 10
-686.2647098186026
 20
300.4614373959657
 30
0.0
 11
-686.2839041550433
 21
300.6565489128357
 31
0.0
  0
LINE
  5
524
330
AE
100
AcDbEntity
  8
0
  6
CONTINUOUS
 62
     7
100
AcDbLine
 10
-686.2839041550433
 20
300.6565489128357
 30
0.0
 11
-686.307768901137
 21
300.7517027214299
 31
0.0
  0
LINE
  5
525
330
AE
100
AcDbEntity
  8
0
  6
CONTINUOUS
 62
     7
100
AcDbLine
 10
-686.3408499558245
 20
300.8441099479919
 30
0.0
 11
-686.433257182387
 21
301.0170225456491
 31
0.0
  0
LINE
  5
526
330
AE
100
AcDbEntity
  8
0
  6
CONTINUOUS
 62
     7
100
AcDbLine
 10
-686.9743948776995
 20
301.4183897331491
 30
0.0
 11
-687.0071207367218
 21
301.4232422968521
 31
0.0
  0
LINE
  5
527
330
AE
100
AcDbEntity
  8
0
  6
CONTINUOUS
 62
     7
100
AcDbLine
 10
-686.709136088637
 20
301.2929014518991
 30
0.0
 11
-686.8254096560831
 21
301.3550398850489
 31
0.0
  0
LINE
  5
528
330
AE
100
AcDbEntity
  8
0
  6
CONTINUOUS
 62
     7
100
AcDbLine
 10
-686.8254096560831
 20
301.3550398850489
 30
0.0
 11
-686.8820486862933
 21
301.3853086784607
 31
0.0
  0
LINE
  5
529
330
AE
100
AcDbEntity
  8
0
  6
CONTINUOUS
 62
     7
100
AcDbLine
 10
-686.433257182387
 20
301.0170225456491
 30
0.0
 11
-686.5230828820822
 21
301.1265155315809
 31
0.0
  0
LINE
  5
52A
330
AE
100
AcDbEntity
  8
0
  6
CONTINUOUS
 62
     7
100
AcDbLine
 10
-686.8820486862933
 20
301.3853086784607
 30
0.0
 11
-686.8971695502114
 21
301.3907254056549
 31
0.0
  0
LINE
  5
52B
330
AE
100
AcDbEntity
  8
0
  6
CONTINUOUS
 62
     7
100
AcDbLine
 10
-686.8971695502114
 20
301.3907254056549
 30
0.0
 11
-686.9743948776995
 21
301.4183897331491
 31
0.0
  0
LINE
  5
52C
330
AE
100
AcDbEntity
  8
0
  6
CONTINUOUS
 62
     7
100
AcDbLine
 10
-686.5576569843452
 20
301.1686312402831
 30
0.0
 11
-686.5597345522801
 21
301.1703356325029
 31
0.0
  0
LINE
  5
52D
330
AE
100
AcDbEntity
  8
0
  6
CONTINUOUS
 62
     7
100
AcDbLine
 10
-686.5597345522801
 20
301.1703356325029
 30
0.0
 11
-686.709136088637
 21
301.2929014518991
 31
0.0
  0
LINE
  5
52E
330
AE
100
AcDbEntity
  8
0
  6
CONTINUOUS
 62
     7
100
AcDbLine
 10
-686.307768901137
 20
300.7517027214299
 30
0.0
 11
-686.3359396188789
 21
300.8303936193288
 31
0.0
  0
LINE
  5
52F
330
AE
100
AcDbEntity
  8
0
  6
CONTINUOUS
 62
     7
100
AcDbLine
 10
-686.3359396188789
 20
300.8303936193288
 30
0.0
 11
-686.3408499558245
 21
300.8441099479919
 31
0.0
  0
LINE
  5
530
330
AE
100
AcDbEntity
  8
0
  6
CONTINUOUS
 62
     1
100
AcDbLine
 10
-686.7647098186026
 20
300.4614373959657
 30
0.0
 11
-686.8271780808245
 21
300.6565489128357
 31
0.0
  0
LINE
  5
531
330
AE
100
AcDbEntity
  8
0
  6
CONTINUOUS
 62
     1
100
AcDbLine
 10
-686.8271780808245
 20
300.6565489128357
 30
0.0
 11
-686.8896780808245
 21
300.8441099479919
 31
0.0
  0
LINE
  5
532
330
AE
100
AcDbEntity
  8
0
  6
CONTINUOUS
 62
     1
100
AcDbLine
 10
-686.8896780808245
 20
300.8441099479919
 30
0.0
 11
-686.9521780808245
 21
301.0170225456491
 31
0.0
  0
LINE
  5
533
330
AE
100
AcDbEntity
  8
0
  6
CONTINUOUS
 62
     1
100
AcDbLine
 10
-686.9521780808245
 20
301.0170225456491
 30
0.0
 11
-687.0147098186007
 21
301.1685441508639
 31
0.0
  0
LINE
  5
534
330
AE
100
AcDbEntity
  8
0
  6
CONTINUOUS
 62
     1
100
AcDbLine
 10
-687.0147098186007
 20
301.1685441508639
 30
0.0
 11
-687.0771780808245
 21
301.2929014518991
 31
0.0
  0
LINE
  5
535
330
AE
100
AcDbEntity
  8
0
  6
CONTINUOUS
 62
     1
100
AcDbLine
 10
-687.0771780808245
 20
301.2929014518991
 30
0.0
 11
-687.1396780808245
 21
301.3853086784607
 31
0.0
  0
LINE
  5
536
330
AE
100
AcDbEntity
  8
0
  6
CONTINUOUS
 62
     1
100
AcDbLine
 10
-687.1396780808245
 20
301.3853086784607
 30
0.0
 11
-687.2021780808245
 21
301.4421934440857
 31
0.0
  0
LINE
  5
537
330
AE
100
AcDbEntity
  8
0
  6
CONTINUOUS
 62
     7
100
AcDbLine
 10
-687.2021780808245
 20
301.4421934440857
 30
0.0
 11
-687.2647098186026
 21
301.4614373959657
 31
0.0
  0
LINE
  5
538
330
AE
100
AcDbEntity
  8
0
  6
CONTINUOUS
 62
     7
100
AcDbLine
 10
-686.3073416550433
 20
300.7485957697159
 30
0.0
 11
-686.3359671433245
 21
300.8303936079269
 31
0.0
  0
LINE
  5
539
330
AE
100
AcDbEntity
  8
0
  6
CONTINUOUS
 62
     7
100
AcDbLine
 10
-686.2877594016991
 20
300.6692468473107
 30
0.0
 11
-686.3073416550433
 21
300.7485957697159
 31
0.0
  0
LINE
  5
53A
330
AE
100
AcDbEntity
  8
0
  6
CONTINUOUS
 62
     7
100
AcDbLine
 10
-686.8971854050433
 20
301.3907253995667
 30
0.0
 11
-686.8835097826341
 21
301.3857518095397
 31
0.0
  0
LINE
  5
53B
330
AE
100
AcDbEntity
  8
0
  6
CONTINUOUS
 62
     7
100
AcDbLine
 10
-686.2646780808245
 20
300.4614195183049
 30
0.0
 11
-686.2862234909808
 21
300.6613834455739
 31
0.0
  0
LINE
  5
53C
330
AE
100
AcDbEntity
  8
0
  6
CONTINUOUS
 62
     7
100
AcDbLine
 10
-686.2862234909808
 20
300.6613834455739
 30
0.0
 11
-686.3286508149595
 21
300.803929926687
 31
0.0
  0
LINE
  5
53D
330
AE
100
AcDbEntity
  8
0
  6
CONTINUOUS
 62
     7
100
AcDbLine
 10
-686.3286508149595
 20
300.803929926687
 30
0.0
 11
-686.3288870651995
 21
300.804723675562
 31
0.0
  0
LINE
  5
53E
330
AE
100
AcDbEntity
  8
0
  6
CONTINUOUS
 62
     7
100
AcDbLine
 10
-686.5209647019183
 20
301.1239446357017
 30
0.0
 11
-686.5230828820822
 21
301.1265155315809
 31
0.0
  0
LINE
  5
53F
330
AE
100
AcDbEntity
  8
0
  6
CONTINUOUS
 62
     7
100
AcDbLine
 10
-686.5230828820822
 20
301.1265155315809
 30
0.0
 11
-686.557524760512
 21
301.1683186248079
 31
0.0
  0
LINE
  5
540
330
AE
100
AcDbEntity
  8
0
  6
CONTINUOUS
 62
     7
100
AcDbLine
 10
-686.7099905808245
 20
301.2929499104748
 30
0.0
 11
-686.557524760512
 21
301.1683186248079
 31
0.0
  0
LINE
  5
541
330
AE
100
AcDbEntity
  8
0
  6
CONTINUOUS
 62
     7
100
AcDbLine
 10
-686.8294363816058
 20
301.3572060719257
 30
0.0
 11
-686.8254096560831
 21
301.3550398850489
 31
0.0
  0
LINE
  5
542
330
AE
100
AcDbEntity
  8
0
  6
CONTINUOUS
 62
     7
100
AcDbLine
 10
-686.8254096560831
 20
301.3550398850489
 30
0.0
 11
-686.7099905808245
 21
301.2929499104748
 31
0.0
  0
LINE
  5
543
330
AE
100
AcDbEntity
  8
0
  6
CONTINUOUS
 62
     7
100
AcDbLine
 10
-686.3489676316058
 20
288.983636195971
 30
0.0
 11
-686.3027640183245
 21
289.0701230123768
 31
0.0
  0
LINE
  5
544
330
AE
100
AcDbEntity
  8
0
  6
CONTINUOUS
 62
     7
100
AcDbLine
 10
-686.573393901137
 20
288.7994931295639
 30
0.0
 11
-686.4869070847308
 21
288.845696742846
 31
0.0
  0
LINE
  5
545
330
AE
100
AcDbEntity
  8
0
  6
CONTINUOUS
 62
     7
100
AcDbLine
 10
-686.3489676316058
 20
288.983636195971
 30
0.0
 11
-686.371245463637
 21
288.9565384939438
 31
0.0
  0
LINE
  5
546
330
AE
100
AcDbEntity
  8
0
  6
CONTINUOUS
 62
     7
100
AcDbLine
 10
-686.4869070847308
 20
288.845696742846
 30
0.0
 11
-686.4598090352647
 21
288.8679472766139
 31
0.0
  0
LINE
  5
547
330
AE
100
AcDbEntity
  8
0
  6
CONTINUOUS
 62
     7
100
AcDbLine
 10
-686.573393901137
 20
288.7994931295639
 30
0.0
 11
-686.583159526137
 21
288.7959998205429
 31
0.0
  0
LINE
  5
548
330
AE
100
AcDbEntity
  8
0
  6
CONTINUOUS
 62
     7
100
AcDbLine
 10
-686.3027640183245
 20
289.0701230123768
 30
0.0
 11
-686.2992850144183
 21
289.0798686102157
 31
0.0
  0
ARC
  5
549
330
AE
100
AcDbEntity
  8
0
  6
CONTINUOUS
 62
     7
100
AcDbCircle
 10
-686.7647098186026
 20
289.2614373959659
 30
0.0
 40
0.5
100
AcDbArc
 50
270.0
 51
0.0
  0
ENDBLK
  5
B0
330
AE
100
AcDbEntity
  8
0
100
AcDbBlockEnd
  0
BLOCK
  5
B3
330
B1
100
AcDbEntity
  8
0
100
AcDbBlockBegin
  2
PD00700A29200_CORPO_RE__18
 70
     0
 10
-690.7647708761106
 20
288.7614373959659
 30
0.0
  3
PD00700A29200_CORPO_RE__18
  1

  0
INSERT
  5
B2
330
B1
100
AcDbEntity
  8
0
100
AcDbBlockReference
  2
CORPO_PORTA_1__17
 10
-690.7647708761106
 20
288.7614373959659
 30
0.0
  0
ENDBLK
  5
B4
330
B1
100
AcDbEntity
  8
0
100
AcDbBlockEnd
  0
BLOCK
  5
B6
330
B5
100
AcDbEntity
  8
0
100
AcDbBlockBegin
  2
PD02500A18500_BOCCOLA___19
 70
     0
 10
-677.2370023299518
 20
274.1787703588739
 30
0.0
  3
PD02500A18500_BOCCOLA___19
  1

  0
LINE
  5
54A
330
B5
100
AcDbEntity
  8
0
  6
CONTINUOUS
 62
     7
100
AcDbLine
 10
-675.1316824753558
 20
274.1871111944447
 30
0.0
 11
-675.1590672315833
 21
274.2004207053269
 31
0.0
  0
LINE
  5
54B
330
B5
100
AcDbEntity
  8
0
  6
CONTINUOUS
 62
     7
100
AcDbLine
 10
-677.1336045899989
 20
275.160083308941
 30
0.0
 11
-677.2131033737933
 21
275.1987212255731
 31
0.0
  0
LINE
  5
54C
330
B5
100
AcDbEntity
  8
0
  6
CONTINUOUS
 62
     7
100
AcDbLine
 10
-672.7924424803678
 20
274.1907282159809
 30
0.0
 11
-672.8175040085589
 21
274.1787703588739
 31
0.0
  0
LINE
  5
54D
330
B5
100
AcDbEntity
  8
0
  6
CONTINUOUS
 62
     7
100
AcDbLine
 10
-677.2131033737933
 20
275.1987212255731
 30
0.0
 11
-677.2370023299518
 21
275.228912597745
 31
0.0
  0
LINE
  5
54E
330
B5
100
AcDbEntity
  8
0
  6
CONTINUOUS
 62
     7
100
AcDbLine
 10
-672.8175040085589
 20
274.1787703588739
 30
0.0
 11
-672.8381822121664
 21
274.178844887912
 31
0.0
  0
LINE
  5
54F
330
B5
100
AcDbEntity
  8
0
  6
CONTINUOUS
 62
     7
100
AcDbLine
 10
-675.0787698942459
 20
274.1869204852378
 30
0.0
 11
-675.1316824753558
 21
274.1871111944447
 31
0.0
  0
ENDBLK
  5
B7
330
B5
100
AcDbEntity
  8
0
100
AcDbBlockEnd
  0
BLOCK
  5
B9
330
B8
100
AcDbEntity
  8
0
100
AcDbBlockBegin
  2
PD02500A18500_BOCCOLA___20
 70
     0
 10
-675.2464721133747
 20
274.215108728115
 30
0.0
  3
PD02500A18500_BOCCOLA___20
  1

  0
LINE
  5
550
330
B8
100
AcDbEntity
  8
0
  6
CONTINUOUS
 62
     7
100
AcDbLine
 10
-675.2464285691058
 20
274.2151091650258
 30
0.0
 11
-675.2464119699616
 21
274.215108728115
 31
0.0
  0
LINE
  5
551
330
B8
100
AcDbEntity
  8
0
  6
CONTINUOUS
 62
     7
100
AcDbLine
 10
-675.2464721133747
 20
274.2151315649817
 30
0.0
 11
-675.2464285691058
 21
274.2151091650258
 31
0.0
  0
ENDBLK
  5
BA
330
B8
100
AcDbEntity
  8
0
100
AcDbBlockEnd
  0
BLOCK
  5
C2
330
BB
100
AcDbEntity
  8
0
100
AcDbBlockBegin
  2
GFS0086A00100_GRUPPO_C__21
 70
     0
 10
-700.3345023267229
 20
274.0525333356309
 30
0.0
  3
GFS0086A00100_GRUPPO_C__21
  1

  0
INSERT
  5
BC
330
BB
100
AcDbEntity
  8
0
100
AcDbBlockReference
  2
PD00700A29300_CORPO_RE__12
 10
-661.0479422409808
 20
290.2614373959909
 30
0.0
  0
INSERT
  5
BD
330
BB
100
AcDbEntity
  8
0
100
AcDbBlockReference
  2
PD05300A10600_BIELLA_E__14
 10
-700.3345023267229
 20
274.0525333356309
 30
0.0
  0
INSERT
  5
BE
330
BB
100
AcDbEntity
  8
0
100
AcDbBlockReference
  2
PD05300A10500_BIELLA_C__16
 10
-695.2716901718122
 20
274.0701773718129
 30
0.0
  0
INSERT
  5
BF
330
BB
100
AcDbEntity
  8
0
100
AcDbBlockReference
  2
PD00700A29200_CORPO_RE__18
 10
-690.7647708761106
 20
288.7614373959659
 30
0.0
  0
INSERT
  5
C0
330
BB
100
AcDbEntity
  8
0
100
AcDbBlockReference
  2
PD02500A18500_BOCCOLA___19
 10
-677.2370023299518
 20
274.1787703588739
 30
0.0
  0
INSERT
  5
C1
330
BB
100
AcDbEntity
  8
0
100
AcDbBlockReference
  2
PD02500A18500_BOCCOLA___20
 10
-675.2464721133747
 20
274.215108728115
 30
0.0
  0
ENDBLK
  5
C3
330
BB
100
AcDbEntity
  8
0
100
AcDbBlockEnd
  0
BLOCK
  5
C9
330
C4
100
AcDbEntity
  8
0
100
AcDbBlockBegin
  2
GFS0086A00300_GRUPPO_C__22
 70
     0
 10
-722.7647391159808
 20
274.0525333356309
 30
0.0
  3
GFS0086A00300_GRUPPO_C__22
  1

  0
INSERT
  5
C5
330
C4
100
AcDbEntity
  8
0
100
AcDbBlockReference
  2
PD00600A08800_VITE_SPE1__5
 10
-710.7647391159808
 20
320.2614360269577
 30
0.0
  0
INSERT
  5
C6
330
C4
100
AcDbEntity
  8
0
100
AcDbBlockReference
  2
GFS0086A00200_GRUPPO_C6__8
 10
-657.1479483444964
 20
292.76143739599
 30
0.0
  0
INSERT
  5
C7
330
C4
100
AcDbEntity
  8
0
100
AcDbBlockReference
  2
PD00800A12800_CARCASSA__10
 10
-722.7647391159808
 20
289.2614373959641
 30
0.0
  0
INSERT
  5
C8
330
C4
100
AcDbEntity
  8
0
100
AcDbBlockReference
  2
GFS0086A00100_GRUPPO_C__21
 10
-700.3345023267229
 20
274.0525333356309
 30
0.0
  0
ENDBLK
  5
CA
330
C4
100
AcDbEntity
  8
0
100
AcDbBlockEnd
  0
BLOCK
  5
CF
330
CB
100
AcDbEntity
  8
0
100
AcDbBlockBegin
  2
00S0086A00100_CERNIERA__23
 70
     0
 10
-722.7647391159808
 20
274.0525333356309
 30
0.0
  3
00S0086A00100_CERNIERA__23
  1

  0
INSERT
  5
CC
330
CB
100
AcDbEntity
  8
0
100
AcDbBlockReference
  2
PD04800A18100_MOSTRINA1__1
 10
-722.7647098186135
 20
287.7614373959659
 30
0.0
  0
INSERT
  5
CD
330
CB
100
AcDbEntity
  8
0
100
AcDbBlockReference
  2
PD04800A18200_MOSTRINA1__4
 10
-657.1479277280996
 20
291.2114373959917
 30
0.0
  0
INSERT
  5
CE
330
CB
100
AcDbEntity
  8
0
100
AcDbBlockReference
  2
GFS0086A00300_GRUPPO_C__22
 10
-722.7647391159808
 20
274.0525333356309
 30
0.0
  0
ENDBLK
  5
D0
330
CB
100
AcDbEntity
  8
0
100
AcDbBlockEnd
  0
BLOCK
  5
D3
330
D1
100
AcDbEntity
  8
0
100
AcDbBlockBegin
  2
TKKZ0TEC47500_TECNICO___24
 70
     0
 10
-722.7647391159808
 20
274.0525333356309
 30
0.0
  3
TKKZ0TEC47500_TECNICO___24
  1

  0
INSERT
  5
D2
330
D1
100
AcDbEntity
  8
0
100
AcDbBlockReference
  2
00S0086A00100_CERNIERA__23
 10
-722.7647391159808
 20
274.0525333356309
 30
0.0
  0
ENDBLK
  5
D4
330
D1
100
AcDbEntity
  8
0
100
AcDbBlockEnd
  0
BLOCK
  5
D7
330
D5
100
AcDbEntity
  8
0
100
AcDbBlockBegin
  2
GEN15
 70
     0
 10
-166.8471365769183
 20
301.8347151830917
 30
0.0
  3
GEN15
  1

  0
INSERT
  5
D6
330
D5
100
AcDbEntity
  8
0
100
AcDbBlockReference
  2
TKKZ0TEC47500_TECNICO___24
 10
-722.7647391159808
 20
274.0525333356309
 30
0.0
  0
DIMENSION
  5
55D
330
D5
100
AcDbEntity
  8
1
100
AcDbDimension
  2
*D26
 10
-657.1479277280905
 20
339.9651216170311
 30
0.0
 11
-639.6343277280941
 21
343.7151216170311
 31
0.0
 70
    32
  1
<>
 53
0.00013888888889
  3
ME10_DIM_10
100
AcDbAlignedDimension
 13
-625.1479277280978
 23
322.0020841661617
 33
0.0
 14
-657.1479277280905
 24
322.0020841661617
 34
0.0
100
AcDbRotatedDimension
  0
DIMENSION
  5
568
330
D5
100
AcDbEntity
  8
1
100
AcDbDimension
  2
*D27
 10
-722.7647098186026
 20
339.9651216170311
 30
0.0
 11
-705.467309818608
 21
343.7151216170311
 31
0.0
 70
    32
  1
<>
 53
0.00013888888889
  3
ME10_DIM_11
100
AcDbAlignedDimension
 13
-690.7647098186135
 23
316.7614373959659
 33
0.0
 14
-722.7647098186026
 24
316.7614373959659
 34
0.0
100
AcDbRotatedDimension
  0
DIMENSION
  5
573
330
D5
100
AcDbEntity
  8
1
100
AcDbDimension
  2
*D28
 10
-741.340479362377
 20
287.7614373959659
 30
0.0
 11
-745.090479362377
 21
309.5114373959659
 31
0.0
 70
    32
  1
<>
 53
90.0
  3
ME10_DIM_12
100
AcDbAlignedDimension
 13
-719.971948828148
 23
331.2614373959659
 33
0.0
 14
-722.7647098186135
 24
287.7614373959659
 34
0.0
 50
90.0
100
AcDbRotatedDimension
  0
DIMENSION
  5
57E
330
D5
100
AcDbEntity
  8
1
100
AcDbDimension
  2
*D29
 10
-605.9066129003238
 20
291.2614373959909
 30
0.0
 11
-609.6566129003238
 21
311.7614373959909
 31
0.0
 70
    32
  1
<>
 53
90.0
  3
ME10_DIM_13
100
AcDbAlignedDimension
 13
-627.9579028523185
 23
332.2614373959909
 33
0.0
 14
-625.1479277280996
 24
291.2614373959909
 34
0.0
 50
90.0
100
AcDbRotatedDimension
  0
DIMENSION
  5
58B
330
D5
100
AcDbEntity
  8
1
100
AcDbDimension
  2
*D30
 10
-686.2647098186026
 20
353.97813986876
 30
0.0
 11
-673.6563187733491
 21
357.72813986876
 31
0.0
 70
    32
  1
<>
 53
0.00013888888889
  3
ME10_DIM_14
100
AcDbAlignedDimension
 13
-661.0479277280956
 23
303.2614373959909
 33
0.0
 14
-686.2647098186026
 24
300.4614373959657
 34
0.0
100
AcDbRotatedDimension
  0
DIMENSION
  5
596
330
D5
100
AcDbEntity
  8
1
100
AcDbDimension
  2
*D31
 10
-657.1479277280905
 20
339.9651216170311
 30
0.0
 11
-673.956318773352
 21
343.7151216170311
 31
0.0
 70
    32
  1
<>
 53
0.00013888888889
  3
ME10_DIM_15
100
AcDbAlignedDimension
 13
-690.7647098186135
 23
316.7614373959659
 33
0.0
 14
-657.1479277280905
 24
322.0020841661617
 34
0.0
100
AcDbRotatedDimension
  0
DIMENSION
  5
5A2
330
D5
100
AcDbEntity
  8
1
100
AcDbDimension
  2
*D32
 10
-686.2647098186026
 20
353.97813986876
 30
0.0
 11
-704.5147098186026
 21
357.72813986876
 31
0.0
 70
    32
  1
<>
 53
0.00013888888889
  3
ME10_DIM_16
100
AcDbAlignedDimension
 13
-722.7647098186026
 23
316.7614373959659
 33
0.0
 14
-686.2647098186026
 24
300.4614373959657
 34
0.0
100
AcDbRotatedDimension
  0
DIMENSION
  5
5AE
330
D5
100
AcDbEntity
  8
1
100
AcDbDimension
  2
*D33
 10
-661.0479277280956
 20
353.97813986876
 30
0.0
 11
-643.0979277280967
 21
357.72813986876
 31
0.0
 70
    32
  1
<>
 53
0.00013888888889
  3
ME10_DIM_17
100
AcDbAlignedDimension
 13
-625.1479277280978
 23
322.0020841661617
 33
0.0
 14
-661.0479277280956
 24
303.2614373959909
 34
0.0
100
AcDbRotatedDimension
  0
ENDBLK
  5
D8
330
D5
100
AcDbEntity
  8
0
100
AcDbBlockEnd
  0
BLOCK
  5
55A
330
552
100
AcDbEntity
  8
0
100
AcDbBlockBegin
  2
*D26
 70
     1
 10
0.0
 20
0.0
 30
0.0
  3
*D26
  1

  0
LINE
  5
553
330
552
100
AcDbEntity
  8
1
  6
CONTINUOUS
 62
     1
100
AcDbLine
 10
-657.1479277280905
 20
339.9651216170311
 30
0.0
 11
-625.1479277280978
 21
339.9651216170311
 31
0.0
  0
LINE
  5
554
330
552
100
AcDbEntity
  8
1
  6
CONTINUOUS
 62
     1
100
AcDbLine
 10
-657.1479277280905
 20
323.5020841661618
 30
0.0
 11
-657.1479277280905
 21
340.9651216170311
 31
0.0
  0
LINE
  5
555
330
552
100
AcDbEntity
  8
1
  6
CONTINUOUS
 62
     1
100
AcDbLine
 10
-625.1479277280978
 20
323.5020841661618
 30
0.0
 11
-625.1479277280978
 21
340.9651216170311
 31
0.0
  0
SOLID
  5
556
330
552
100
AcDbEntity
  8
1
 62
     1
100
AcDbTrace
 10
-653.6479277280905
 20
340.425905358587
 30
0.0
 11
-653.6479277280905
 21
339.5043378754752
 31
0.0
 12
-657.1479277280905
 22
339.9651216170311
 32
0.0
 13
-657.1479277280905
 23
339.9651216170311
 33
0.0
  0
SOLID
  5
557
330
552
100
AcDbEntity
  8
1
 62
     1
100
AcDbTrace
 10
-628.6479277280978
 20
339.5043378754752
 30
0.0
 11
-628.6479277280978
 21
340.425905358587
 31
0.0
 12
-625.1479277280978
 22
339.9651216170311
 32
0.0
 13
-625.1479277280978
 23
339.9651216170311
 33
0.0
  0
MTEXT
  5
559
330
552
100
AcDbEntity
  8
1
 62
     3
100
AcDbMText
 10
-642.2593277280941
 20
341.9651216170311
 30
0.0
 40
3.5
 41
0.0
 71
     7
 72
     1
  1
32
  7
CONVERTER_11
 11
0.9999999999970619
 21
2.424068405545306E-6
 31
0.0
1001
ACAD
1000
MTEXTBEGIN
1070
    44
1040
0.60024009603842
1000
MTEXTEND
  0
ENDBLK
  5
55B
330
552
100
AcDbEntity
  8
0
100
AcDbBlockEnd
  0
BLOCK
  5
565
330
55E
100
AcDbEntity
  8
0
100
AcDbBlockBegin
  2
*D27
 70
     1
 10
0.0
 20
0.0
 30
0.0
  3
*D27
  1

  0
LINE
  5
55F
330
55E
100
AcDbEntity
  8
1
  6
CONTINUOUS
 62
     1
100
AcDbLine
 10
-722.7647098186026
 20
339.9651216170311
 30
0.0
 11
-690.7647098186135
 21
339.9651216170311
 31
0.0
  0
LINE
  5
560
330
55E
100
AcDbEntity
  8
1
  6
CONTINUOUS
 62
     1
100
AcDbLine
 10
-722.7647098186026
 20
318.2614373959659
 30
0.0
 11
-722.7647098186026
 21
340.9651216170311
 31
0.0
  0
LINE
  5
561
330
55E
100
AcDbEntity
  8
1
  6
CONTINUOUS
 62
     1
100
AcDbLine
 10
-690.7647098186135
 20
318.2614373959659
 30
0.0
 11
-690.7647098186135
 21
340.9651216170311
 31
0.0
  0
SOLID
  5
562
330
55E
100
AcDbEntity
  8
1
 62
     1
100
AcDbTrace
 10
-719.2647098186026
 20
340.425905358587
 30
0.0
 11
-719.2647098186026
 21
339.5043378754752
 31
0.0
 12
-722.7647098186026
 22
339.9651216170311
 32
0.0
 13
-722.7647098186026
 23
339.9651216170311
 33
0.0
  0
SOLID
  5
563
330
55E
100
AcDbEntity
  8
1
 62
     1
100
AcDbTrace
 10
-694.2647098186135
 20
339.5043378754752
 30
0.0
 11
-694.2647098186135
 21
340.425905358587
 31
0.0
 12
-690.7647098186135
 22
339.9651216170311
 32
0.0
 13
-690.7647098186135
 23
339.9651216170311
 33
0.0
  0
MTEXT
  5
564
330
55E
100
AcDbEntity
  8
1
 62
     3
100
AcDbMText
 10
-708.092309818608
 20
341.9651216170311
 30
0.0
 40
3.5
 41
0.0
 71
     7
 72
     1
  1
32
  7
CONVERTER_11
 11
0.9999999999970619
 21
2.424068405545306E-6
 31
0.0
1001
ACAD
1000
MTEXTBEGIN
1070
    44
1040
0.60024009603842
1000
MTEXTEND
  0
ENDBLK
  5
566
330
55E
100
AcDbEntity
  8
0
100
AcDbBlockEnd
  0
BLOCK
  5
570
330
569
100
AcDbEntity
  8
0
100
AcDbBlockBegin
  2
*D28
 70
     1
 10
0.0
 20
0.0
 30
0.0
  3
*D28
  1

  0
LINE
  5
56A
330
569
100
AcDbEntity
  8
1
  6
CONTINUOUS
 62
     1
100
AcDbLine
 10
-741.340479362377
 20
287.7614373959659
 30
0.0
 11
-741.340479362377
 21
331.2614373959659
 31
0.0
  0
LINE
  5
56B
330
569
100
AcDbEntity
  8
1
  6
CONTINUOUS
 62
     1
100
AcDbLine
 10
-721.471948828148
 20
331.2614373959659
 30
0.0
 11
-742.340479362377
 21
331.2614373959659
 31
0.0
  0
LINE
  5
56C
330
569
100
AcDbEntity
  8
1
  6
CONTINUOUS
 62
     1
100
AcDbLine
 10
-724.2647098186135
 20
287.7614373959659
 30
0.0
 11
-742.340479362377
 21
287.7614373959659
 31
0.0
  0
SOLID
  5
56D
330
569
100
AcDbEntity
  8
1
 62
     1
100
AcDbTrace
 10
-741.8012631039329
 20
291.2614373959659
 30
0.0
 11
-740.879695620821
 21
291.2614373959659
 31
0.0
 12
-741.340479362377
 22
287.7614373959659
 32
0.0
 13
-741.340479362377
 23
287.7614373959659
 33
0.0
  0
SOLID
  5
56E
330
569
100
AcDbEntity
  8
1
 62
     1
100
AcDbTrace
 10
-740.879695620821
 20
327.7614373959659
 30
0.0
 11
-741.8012631039329
 21
327.7614373959659
 31
0.0
 12
-741.340479362377
 22
331.2614373959659
 32
0.0
 13
-741.340479362377
 23
331.2614373959659
 33
0.0
  0
MTEXT
  5
56F
330
569
100
AcDbEntity
  8
1
 62
     3
100
AcDbMText
 10
-743.340479362377
 20
304.7426873959659
 30
0.0
 40
3.5
 41
0.0
 71
     7
 72
     1
  1
43.5
  7
CONVERTER_11
 11
0.0
 21
1.0
 31
0.0
1001
ACAD
1000
MTEXTBEGIN
1070
    44
1040
0.60024009603842
1000
MTEXTEND
  0
ENDBLK
  5
571
330
569
100
AcDbEntity
  8
0
100
AcDbBlockEnd
  0
BLOCK
  5
57B
330
574
100
AcDbEntity
  8
0
100
AcDbBlockBegin
  2
*D29
 70
     1
 10
0.0
 20
0.0
 30
0.0
  3
*D29
  1

  0
LINE
  5
575
330
574
100
AcDbEntity
  8
1
  6
CONTINUOUS
 62
     1
100
AcDbLine
 10
-605.9066129003238
 20
291.2614373959909
 30
0.0
 11
-605.9066129003238
 21
332.2614373959909
 31
0.0
  0
LINE
  5
576
330
574
100
AcDbEntity
  8
1
  6
CONTINUOUS
 62
     1
100
AcDbLine
 10
-626.4579028523185
 20
332.2614373959909
 30
0.0
 11
-604.9066129003238
 21
332.2614373959909
 31
0.0
  0
LINE
  5
577
330
574
100
AcDbEntity
  8
1
  6
CONTINUOUS
 62
     1
100
AcDbLine
 10
-623.6479277280996
 20
291.2614373959909
 30
0.0
 11
-604.9066129003238
 21
291.2614373959909
 31
0.0
  0
SOLID
  5
578
330
574
100
AcDbEntity
  8
1
 62
     1
100
AcDbTrace
 10
-606.3673966418797
 20
294.7614373959909
 30
0.0
 11
-605.4458291587679
 21
294.7614373959909
 31
0.0
 12
-605.9066129003238
 22
291.2614373959909
 32
0.0
 13
-605.9066129003238
 23
291.2614373959909
 33
0.0
  0
SOLID
  5
579
330
574
100
AcDbEntity
  8
1
 62
     1
100
AcDbTrace
 10
-605.4458291587679
 20
328.7614373959909
 30
0.0
 11
-606.3673966418797
 21
328.7614373959909
 31
0.0
 12
-605.9066129003238
 22
332.2614373959909
 32
0.0
 13
-605.9066129003238
 23
332.2614373959909
 33
0.0
  0
MTEXT
  5
57A
330
574
100
AcDbEntity
  8
1
 62
     3
100
AcDbMText
 10
-607.9066129003238
 20
309.6614373959909
 30
0.0
 40
3.5
 41
0.0
 71
     7
 72
     1
  1
41
  7
CONVERTER_11
 11
0.0
 21
1.0
 31
0.0
1001
ACAD
1000
MTEXTBEGIN
1070
    44
1040
0.60024009603842
1000
MTEXTEND
  0
ENDBLK
  5
57C
330
574
100
AcDbEntity
  8
0
100
AcDbBlockEnd
  0
BLOCK
  5
588
330
57F
100
AcDbEntity
  8
0
100
AcDbBlockBegin
  2
*D30
 70
     1
 10
0.0
 20
0.0
 30
0.0
  3
*D30
  1

  0
LINE
  5
580
330
57F
100
AcDbEntity
  8
1
  6
CONTINUOUS
 62
     1
100
AcDbLine
 10
-686.2647098186026
 20
353.97813986876
 30
0.0
 11
-661.0479277280956
 21
353.97813986876
 31
0.0
  0
LINE
  5
581
330
57F
100
AcDbEntity
  8
1
  6
CONTINUOUS
 62
     1
100
AcDbLine
 10
-686.2647098186026
 20
344.174016042824
 30
0.0
 11
-686.2647098186026
 21
354.97813986876
 31
0.0
  0
LINE
  5
582
330
57F
100
AcDbEntity
  8
1
  6
CONTINUOUS
 62
     1
100
AcDbLine
 10
-686.2647098186026
 20
301.9614373959657
 30
0.0
 11
-686.2647098186026
 21
336.514806472088
 31
0.0
  0
LINE
  5
583
330
57F
100
AcDbEntity
  8
1
  6
CONTINUOUS
 62
     1
100
AcDbLine
 10
-661.0479277280956
 20
342.995676108864
 30
0.0
 11
-661.0479277280956
 21
354.97813986876
 31
0.0
  0
LINE
  5
584
330
57F
100
AcDbEntity
  8
1
  6
CONTINUOUS
 62
     1
100
AcDbLine
 10
-661.0479277280956
 20
304.7614373959909
 30
0.0
 11
-661.0479277280956
 21
337.221810432464
 31
0.0
  0
SOLID
  5
585
330
57F
100
AcDbEntity
  8
1
 62
     1
100
AcDbTrace
 10
-682.7647098186026
 20
354.4389236103159
 30
0.0
 11
-682.7647098186026
 21
353.5173561272042
 31
0.0
 12
-686.2647098186026
 22
353.97813986876
 32
0.0
 13
-686.2647098186026
 23
353.97813986876
 33
0.0
  0
SOLID
  5
586
330
57F
100
AcDbEntity
  8
1
 62
     1
100
AcDbTrace
 10
-664.5479277280956
 20
353.5173561272042
 30
0.0
 11
-664.5479277280956
 21
354.4389236103159
 31
0.0
 12
-661.0479277280956
 22
353.97813986876
 32
0.0
 13
-661.0479277280956
 23
353.97813986876
 33
0.0
  0
MTEXT
  5
587
330
57F
100
AcDbEntity
  8
1
 62
     3
100
AcDbMText
 10
-678.425068773349
 20
355.97813986876
 30
0.0
 40
3.5
 41
0.0
 71
     7
 72
     1
  1
25.2
  7
CONVERTER_11
 11
0.9999999999970619
 21
2.424068405545306E-6
 31
0.0
1001
ACAD
1000
MTEXTBEGIN
1070
    44
1040
0.60024009603842
1000
MTEXTEND
  0
ENDBLK
  5
589
330
57F
100
AcDbEntity
  8
0
100
AcDbBlockEnd
  0
BLOCK
  5
593
330
58C
100
AcDbEntity
  8
0
100
AcDbBlockBegin
  2
*D31
 70
     1
 10
0.0
 20
0.0
 30
0.0
  3
*D31
  1

  0
LINE
  5
58D
330
58C
100
AcDbEntity
  8
1
  6
CONTINUOUS
 62
     1
100
AcDbLine
 10
-657.1479277280905
 20
339.9651216170311
 30
0.0
 11
-690.7647098186135
 21
339.9651216170311
 31
0.0
  0
LINE
  5
58E
330
58C
100
AcDbEntity
  8
1
  6
CONTINUOUS
 62
     1
100
AcDbLine
 10
-657.1479277280905
 20
323.5020841661617
 30
0.0
 11
-657.1479277280905
 21
340.9651216170311
 31
0.0
  0
LINE
  5
58F
330
58C
100
AcDbEntity
  8
1
  6
CONTINUOUS
 62
     1
100
AcDbLine
 10
-690.7647098186135
 20
318.2614373959659
 30
0.0
 11
-690.7647098186135
 21
340.9651216170311
 31
0.0
  0
SOLID
  5
590
330
58C
100
AcDbEntity
  8
1
 62
     1
100
AcDbTrace
 10
-660.6479277280905
 20
339.5043378754752
 30
0.0
 11
-660.6479277280905
 21
340.425905358587
 31
0.0
 12
-657.1479277280905
 22
339.9651216170311
 32
0.0
 13
-657.1479277280905
 23
339.9651216170311
 33
0.0
  0
SOLID
  5
591
330
58C
100
AcDbEntity
  8
1
 62
     1
100
AcDbTrace
 10
-687.2647098186135
 20
340.425905358587
 30
0.0
 11
-687.2647098186135
 21
339.5043378754752
 31
0.0
 12
-690.7647098186135
 22
339.9651216170311
 32
0.0
 13
-690.7647098186135
 23
339.9651216170311
 33
0.0
  0
MTEXT
  5
592
330
58C
100
AcDbEntity
  8
1
 62
     3
100
AcDbMText
 10
-680.650068773352
 20
341.9651216170311
 30
0.0
 40
3.5
 41
0.0
 71
     7
 72
     1
  1
\C3;33.6\C3;\H2.1;{\Fgdt;`}1
  7
CONVERTER_11
 11
0.9999999999970619
 21
2.424068405545306E-6
 31
0.0
1001
ACAD
1000
MTEXTBEGIN
1070
    44
1040
0.60024009603842
1000
MTEXTEND
  0
ENDBLK
  5
594
330
58C
100
AcDbEntity
  8
0
100
AcDbBlockEnd
  0
BLOCK
  5
59F
330
597
100
AcDbEntity
  8
0
100
AcDbBlockBegin
  2
*D32
 70
     1
 10
0.0
 20
0.0
 30
0.0
  3
*D32
  1

  0
LINE
  5
598
330
597
100
AcDbEntity
  8
1
  6
CONTINUOUS
 62
     1
100
AcDbLine
 10
-686.2647098186026
 20
353.97813986876
 30
0.0
 11
-722.7647098186026
 21
353.97813986876
 31
0.0
  0
LINE
  5
599
330
597
100
AcDbEntity
  8
1
  6
CONTINUOUS
 62
     1
100
AcDbLine
 10
-686.2647098186026
 20
345.823691950367
 30
0.0
 11
-686.2647098186026
 21
354.97813986876
 31
0.0
  0
LINE
  5
59A
330
597
100
AcDbEntity
  8
1
  6
CONTINUOUS
 62
     1
100
AcDbLine
 10
-686.2647098186026
 20
301.9614373959657
 30
0.0
 11
-686.2647098186026
 21
332.272782709835
 31
0.0
  0
LINE
  5
59B
330
597
100
AcDbEntity
  8
1
  6
CONTINUOUS
 62
     1
100
AcDbLine
 10
-722.7647098186026
 20
318.2614373959659
 30
0.0
 11
-722.7647098186026
 21
354.97813986876
 31
0.0
  0
SOLID
  5
59C
330
597
100
AcDbEntity
  8
1
 62
     1
100
AcDbTrace
 10
-689.7647098186026
 20
353.5173561272042
 30
0.0
 11
-689.7647098186026
 21
354.4389236103159
 31
0.0
 12
-686.2647098186026
 22
353.97813986876
 32
0.0
 13
-686.2647098186026
 23
353.97813986876
 33
0.0
  0
SOLID
  5
59D
330
597
100
AcDbEntity
  8
1
 62
     1
100
AcDbTrace
 10
-719.2647098186026
 20
354.4389236103159
 30
0.0
 11
-719.2647098186026
 21
353.5173561272042
 31
0.0
 12
-722.7647098186026
 22
353.97813986876
 32
0.0
 13
-722.7647098186026
 23
353.97813986876
 33
0.0
  0
MTEXT
  5
59E
330
597
100
AcDbEntity
  8
1
 62
     3
100
AcDbMText
 10
-709.2834598186025
 20
355.97813986876
 30
0.0
 40
3.5
 41
0.0
 71
     7
 72
     1
  1
36.5
  7
CONVERTER_11
 11
0.9999999999970619
 21
2.424068405545306E-6
 31
0.0
1001
ACAD
1000
MTEXTBEGIN
1070
    44
1040
0.60024009603842
1000
MTEXTEND
  0
ENDBLK
  5
5A0
330
597
100
AcDbEntity
  8
0
100
AcDbBlockEnd
  0
BLOCK
  5
5AB
330
5A3
100
AcDbEntity
  8
0
100
AcDbBlockBegin
  2
*D33
 70
     1
 10
0.0
 20
0.0
 30
0.0
  3
*D33
  1

  0
LINE
  5
5A4
330
5A3
100
AcDbEntity
  8
1
  6
CONTINUOUS
 62
     1
100
AcDbLine
 10
-661.0479277280956
 20
353.97813986876
 30
0.0
 11
-625.1479277280978
 21
353.97813986876
 31
0.0
  0
LINE
  5
5A5
330
5A3
100
AcDbEntity
  8
1
  6
CONTINUOUS
 62
     1
100
AcDbLine
 10
-661.0479277280956
 20
345.705857956971
 30
0.0
 11
-661.0479277280956
 21
354.97813986876
 31
0.0
  0
LINE
  5
5A6
330
5A3
100
AcDbEntity
  8
1
  6
CONTINUOUS
 62
     1
100
AcDbLine
 10
-661.0479277280956
 20
304.7614373959909
 30
0.0
 11
-661.0479277280956
 21
333.686790630586
 31
0.0
  0
LINE
  5
5A7
330
5A3
100
AcDbEntity
  8
1
  6
CONTINUOUS
 62
     1
100
AcDbLine
 10
-625.1479277280978
 20
323.5020841661617
 30
0.0
 11
-625.1479277280978
 21
354.97813986876
 31
0.0
  0
SOLID
  5
5A8
330
5A3
100
AcDbEntity
  8
1
 62
     1
100
AcDbTrace
 10
-657.5479277280956
 20
354.4389236103159
 30
0.0
 11
-657.5479277280956
 21
353.5173561272042
 31
0.0
 12
-661.0479277280956
 22
353.97813986876
 32
0.0
 13
-661.0479277280956
 23
353.97813986876
 33
0.0
  0
SOLID
  5
5A9
330
5A3
100
AcDbEntity
  8
1
 62
     1
100
AcDbTrace
 10
-628.6479277280978
 20
353.5173561272042
 30
0.0
 11
-628.6479277280978
 21
354.4389236103159
 31
0.0
 12
-625.1479277280978
 22
353.97813986876
 32
0.0
 13
-625.1479277280978
 23
353.97813986876
 33
0.0
  0
MTEXT
  5
5AA
330
5A3
100
AcDbEntity
  8
1
 62
     3
100
AcDbMText
 10
-647.6479277280966
 20
355.97813986876
 30
0.0
 40
3.5
 41
0.0
 71
     7
 72
     1
  1
\C3;36\C3;\H2.1;{\Fgdt;`}1
  7
CONVERTER_11
 11
0.9999999999970619
 21
2.424068405545306E-6
 31
0.0
1001
ACAD
1000
MTEXTBEGIN
1070
    44
1040
0.60024009603842
1000
MTEXTEND
  0
ENDBLK
  5
5AC
330
5A3
100
AcDbEntity
  8
0
100
AcDbBlockEnd
  0
ENDSEC
  0
SECTION
  2
ENTITIES
  0
INSERT
  5
D9
330
1F
100
AcDbEntity
  8
0
100
AcDbBlockReference
  2
GEN15
 10
-166.8471365769183
 20
301.8347151830917
 30
0.0
  0
ENDSEC
  0
SECTION
  2
OBJECTS
  0
DICTIONARY
  5
C
330
0
100
AcDbDictionary
  3
ACAD_GROUP
350
D
  3
ACAD_LAYOUT
350
1A
  3
ACAD_MATERIAL
350
43
  3
ACAD_MLEADERSTYLE
350
6B
  3
ACAD_MLINESTYLE
350
17
  3
ACAD_PLOTSETTINGS
350
19
  3
ACAD_SCALELIST
350
47
  3
ACAD_VISUALSTYLE
350
2A
  3
ACDBHEADERROUNDTRIPXREC
350
5AF
  3
ACDBVARIABLEDICTIONARY
350
5D0
  0
DICTIONARY
  5
5D7
330
8
100
AcDbDictionary
280
     1
  3
ACAD_XREC_ROUNDTRIP
360
5D8
  0
DICTIONARY
  5
D
102
{ACAD_REACTORS
330
C
102
}
330
C
100
AcDbDictionary
  0
DICTIONARY
  5
1A
102
{ACAD_REACTORS
330
C
102
}
330
C
100
AcDbDictionary
  0
DICTIONARY
  5
43
102
{ACAD_REACTORS
330
C
102
}
330
C
100
AcDbDictionary
  3
BYBLOCK
350
45
  3
BYLAYER
350
44
  3
GLOBAL
350
46
  0
DICTIONARY
  5
6B
102
{ACAD_REACTORS
330
C
102
}
330
C
100
AcDbDictionary
  3
STANDARD
350
6C
  0
DICTIONARY
  5
17
102
{ACAD_REACTORS
330
C
102
}
330
C
100
AcDbDictionary
  3
STANDARD
350
18
  0
DICTIONARY
  5
19
102
{ACAD_REACTORS
330
C
102
}
330
C
100
AcDbDictionary
  0
DICTIONARY
  5
47
102
{ACAD_REACTORS
330
C
102
}
330
C
100
AcDbDictionary
  3
A0
350
48
  3
A1
350
49
  3
A2
350
4A
  3
A3
350
4B
  3
A4
350
4C
  3
A5
350
4D
  3
A6
350
4E
  3
A7
350
4F
  3
A8
350
50
  3
A9
350
51
  3
B0
350
52
  3
B1
350
53
  3
B2
350
54
  3
B3
350
55
  3
B4
350
56
  3
B5
350
57
  3
B6
350
58
  3
B7
350
59
  3
B8
350
5A
  3
B9
350
5B
  3
C0
350
5C
  3
C1
350
5D
  3
C2
350
5E
  3
C3
350
5F
  3
C4
350
60
  3
C5
350
61
  3
C6
350
62
  3
C7
350
63
  3
C8
350
64
  3
C9
350
65
  3
D0
350
66
  3
D1
350
67
  3
D2
350
68
  0
DICTIONARY
  5
2A
102
{ACAD_REACTORS
330
C
102
}
330
C
100
AcDbDictionary
  3
2DWIREFRAME
350
2F
  3
BASIC
350
32
  3
BRIGHTEN
350
36
  3
COLORCHANGE
350
3A
  3
CONCEPTUAL
350
34
  3
DIM
350
35
  3
EDGECOLOROFF
350
3D
  3
FACEPATTERN
350
39
  3
FLAT
350
2B
  3
FLATWITHEDGES
350
2C
  3
GOURAUD
350
2D
  3
GOURAUDWITHEDGES
350
2E
  3
HIDDEN
350
31
  3
JITTEROFF
350
3B
  3
LINEPATTERN
350
38
  3
OVERHANGOFF
350
3C
  3
REALISTIC
350
33
  3
SHADED
350
42
  3
SHADED_WITH_EDGES
350
41
  3
SHADES_OF_GRAY
350
3E
  3
SKETCHY
350
3F
  3
THICKEN
350
37
  3
WIREFRAME
350
30
  3
X-RAY
350
40
  0
DICTIONARY
  5
5AF
102
{ACAD_REACTORS
330
C
102
}
330
C
100
AcDbDictionary
  3
CEPSNID
350
5B9
  3
CEPSNTYPE
350
5B8
  3
DIMSTYLEDATA
350
5CF
  3
FINGERPRINTGUID
350
5BA
  3
HYPERLINKBASE
350
5B2
  3
INSUNITS
350
5B7
  3
LAYOUTDICT
350
5B4
  3
LWETCUNION
350
5B6
  3
PLOTSETDICT
350
5B5
  3
PSVPSCALE
350
5BC
  3
PUCSBASE
350
5BF
  3
PUCSORGBACK
350
5C5
  3
PUCSORGBOTTOM
350
5C1
  3
PUCSORGFRONT
350
5C4
  3
PUCSORGLEFT
350
5C2
  3
PUCSORGRIGHT
350
5C3
  3
PUCSORGTOP
350
5C0
  3
PUCSORTHOREF
350
5BD
  3
PUCSORTHOVIEW
350
5BE
  3
STYLESHEET
350
5B3
  3
TSTACKALIGN
350
5B0
  3
TSTACKSIZE
350
5B1
  3
UCSBASE
350
5C8
  3
UCSORGBACK
350
5CE
  3
UCSORGBOTTOM
350
5CA
  3
UCSORGFRONT
350
5CD
  3
UCSORGLEFT
350
5CB
  3
UCSORGRIGHT
350
5CC
  3
UCSORGTOP
350
5C9
  3
UCSORTHOREF
350
5C6
  3
UCSORTHOVIEW
350
5C7
  3
VERSIONGUID
350
5BB
  0
DICTIONARY
  5
5D0
102
{ACAD_REACTORS
330
C
102
}
330
C
100
AcDbDictionary
  3
CANNOSCALE
350
5D9
  3
CMLEADERSTYLE
350
5D2
  3
CTABLESTYLE
350
5D1
  3
DIMASSOC
350
5D5
  3
HIDETEXT
350
5D6
  3
MSLTSCALE
350
5DA
  0
XRECORD
  5
5D8
102
{ACAD_REACTORS
330
5D7
102
}
330
5D7
100
AcDbXrecord
102
VTR_0.000_0.000_1.000_1.000_VISUALSTYLE
340
2F
102
VTR_0.000_0.000_1.000_1.000_GRIDDISPLAY
 70
     3
102
VTR_0.000_0.000_1.000_1.000_GRIDMAJOR
 70
     5
102
VTR_0.000_0.000_1.000_1.000_DEFAULTLIGHTING
280
     1
102
VTR_0.000_0.000_1.000_1.000_DEFAULTLIGHTINGTYPE
 70
     1
102
VTR_0.000_0.000_1.000_1.000_BRIGHTNESS
141
0.0
102
VTR_0.000_0.000_1.000_1.000_CONTRAST
142
0.0
  0
MATERIAL
  5
45
102
{ACAD_REACTORS
330
43
102
}
102
{ACAD_XDICTIONARY
360
5DD
102
}
330
43
100
AcDbMaterial
  1
BYBLOCK
  0
MATERIAL
  5
44
102
{ACAD_REACTORS
330
43
102
}
102
{ACAD_XDICTIONARY
360
5DB
102
}
330
43
100
AcDbMaterial
  1
BYLAYER
  0
MATERIAL
  5
46
102
{ACAD_REACTORS
330
43
102
}
102
{ACAD_XDICTIONARY
360
5DF
102
}
330
43
100
AcDbMaterial
  1
GLOBAL
  0
ACAD_PROXY_OBJECT
  5
6C
102
{ACAD_REACTORS
330
6B
102
}
330
6B
100
AcDbProxyObject
 90
      499
 91
      505
 93
      610
310
40901902A4063FBFFFFFE056BD1B81E855B9FC0AD7A3703D0AD73F4214DD185B99185C9900AD7A3703D0AC73F90141901A02B5E8DC0F42B1CFC02B5E8DC0F42B1CFE5764000000000000300FC0
340
14
340
0
340
11
340
0
 94
        0
1001
ACAD_MLEADERVER
1070
     2
  0
MLINESTYLE
  5
18
102
{ACAD_REACTORS
330
17
102
}
330
17
100
AcDbMlineStyle
  2
Standard
 70
     0
  3

 62
   256
 51
90.0
 52
90.0
 71
     2
 49
0.5
 62
   256
  6
BYLAYER
 49
-0.5
 62
   256
  6
BYLAYER
  0
ACAD_PROXY_OBJECT
  5
48
102
{ACAD_REACTORS
330
47
102
}
330
47
100
AcDbProxyObject
 90
      499
 91
      503
 93
       41
310
903313A31580
  0
ACAD_PROXY_OBJECT
  5
49
102
{ACAD_REACTORS
330
47
102
}
330
47
100
AcDbProxyObject
 90
      499
 91
      503
 93
      105
310
903313A324000000000000004000
  0
ACAD_PROXY_OBJECT
  5
4A
102
{ACAD_REACTORS
330
47
102
}
330
47
100
AcDbProxyObject
 90
      499
 91
      503
 93
      105
310
903313A344000000000000104000
  0
ACAD_PROXY_OBJECT
  5
4B
102
{ACAD_REACTORS
330
47
102
}
330
47
100
AcDbProxyObject
 90
      499
 91
      503
 93
      105
310
903313A354000000000000144000
  0
ACAD_PROXY_OBJECT
  5
4C
102
{ACAD_REACTORS
330
47
102
}
330
47
100
AcDbProxyObject
 90
      499
 91
      503
 93
      105
310
903313A384000000000000204000
  0
ACAD_PROXY_OBJECT
  5
4D
102
{ACAD_REACTORS
330
47
102
}
330
47
100
AcDbProxyObject
 90
      499
 91
      503
 93
      113
310
904313A31304000000000000244000
  0
ACAD_PROXY_OBJECT
  5
4E
102
{ACAD_REACTORS
330
47
102
}
330
47
100
AcDbProxyObject
 90
      499
 91
      503
 93
      113
310
904313A31364000000000000304000
  0
ACAD_PROXY_OBJECT
  5
4F
102
{ACAD_REACTORS
330
47
102
}
330
47
100
AcDbProxyObject
 90
      499
 91
      503
 93
      113
310
904313A32304000000000000344000
  0
ACAD_PROXY_OBJECT
  5
50
102
{ACAD_REACTORS
330
47
102
}
330
47
100
AcDbProxyObject
 90
      499
 91
      503
 93
      113
310
904313A333040000000000003E4000
  0
ACAD_PROXY_OBJECT
  5
51
102
{ACAD_REACTORS
330
47
102
}
330
47
100
AcDbProxyObject
 90
      499
 91
      503
 93
      113
310
904313A34304000000000000444000
  0
ACAD_PROXY_OBJECT
  5
52
102
{ACAD_REACTORS
330
47
102
}
330
47
100
AcDbProxyObject
 90
      499
 91
      503
 93
      113
310
904313A35304000000000000494000
  0
ACAD_PROXY_OBJECT
  5
53
102
{ACAD_REACTORS
330
47
102
}
330
47
100
AcDbProxyObject
 90
      499
 91
      503
 93
      121
310
905313A3130304000000000000594000
  0
ACAD_PROXY_OBJECT
  5
54
102
{ACAD_REACTORS
330
47
102
}
330
47
100
AcDbProxyObject
 90
      499
 91
      503
 93
      105
310
903323A310000000000000010100
  0
ACAD_PROXY_OBJECT
  5
55
102
{ACAD_REACTORS
330
47
102
}
330
47
100
AcDbProxyObject
 90
      499
 91
      503
 93
      105
310
903343A310000000000000410100
  0
ACAD_PROXY_OBJECT
  5
56
102
{ACAD_REACTORS
330
47
102
}
330
47
100
AcDbProxyObject
 90
      499
 91
      503
 93
      105
310
903383A310000000000000810100
  0
ACAD_PROXY_OBJECT
  5
57
102
{ACAD_REACTORS
330
47
102
}
330
47
100
AcDbProxyObject
 90
      499
 91
      503
 93
      113
310
90431303A310000000000000910100
  0
ACAD_PROXY_OBJECT
  5
58
102
{ACAD_REACTORS
330
47
102
}
330
47
100
AcDbProxyObject
 90
      499
 91
      503
 93
      121
310
9053130303A310000000000001650100
  0
ACAD_PROXY_OBJECT
  5
59
102
{ACAD_REACTORS
330
47
102
}
330
47
100
AcDbProxyObject
 90
      499
 91
      503
 93
      257
310
90E312F31323822203D2031272D3022000000000000200FC000000000000284000
  0
ACAD_PROXY_OBJECT
  5
5A
102
{ACAD_REACTORS
330
47
102
}
330
47
100
AcDbProxyObject
 90
      499
 91
      503
 93
      249
310
90D312F363422203D2031272D3022000000000000240FC000000000000284000
  0
ACAD_PROXY_OBJECT
  5
5B
102
{ACAD_REACTORS
330
47
102
}
330
47
100
AcDbProxyObject
 90
      499
 91
      503
 93
      249
310
90D312F333222203D2031272D3022000000000000280FC000000000000284000
  0
ACAD_PROXY_OBJECT
  5
5C
102
{ACAD_REACTORS
330
47
102
}
330
47
100
AcDbProxyObject
 90
      499
 91
      503
 93
      249
310
90D312F313622203D2031272D30220000000000002C0FC000000000000284000
  0
ACAD_PROXY_OBJECT
  5
5D
102
{ACAD_REACTORS
330
47
102
}
330
47
100
AcDbProxyObject
 90
      499
 91
      503
 93
      249
310
90D332F333222203D2031272D30220000000000002E0FC000000000000284000
  0
ACAD_PROXY_OBJECT
  5
5E
102
{ACAD_REACTORS
330
47
102
}
330
47
100
AcDbProxyObject
 90
      499
 91
      503
 93
      241
310
90C312F3822203D2031272D3022000000000000300FC000000000000284000
  0
ACAD_PROXY_OBJECT
  5
5F
102
{ACAD_REACTORS
330
47
102
}
330
47
100
AcDbProxyObject
 90
      499
 91
      503
 93
      249
310
90D332F313622203D2031272D3022000000000000320FC000000000000284000
  0
ACAD_PROXY_OBJECT
  5
60
102
{ACAD_REACTORS
330
47
102
}
330
47
100
AcDbProxyObject
 90
      499
 91
      503
 93
      241
310
90C312F3422203D2031272D3022000000000000340FC000000000000284000
  0
ACAD_PROXY_OBJECT
  5
61
102
{ACAD_REACTORS
330
47
102
}
330
47
100
AcDbProxyObject
 90
      499
 91
      503
 93
      241
310
90C332F3822203D2031272D3022000000000000360FC000000000000284000
  0
ACAD_PROXY_OBJECT
  5
62
102
{ACAD_REACTORS
330
47
102
}
330
47
100
AcDbProxyObject
 90
      499
 91
      503
 93
      241
310
90C312F3222203D2031272D3022000000000000380FC000000000000284000
  0
ACAD_PROXY_OBJECT
  5
63
102
{ACAD_REACTORS
330
47
102
}
330
47
100
AcDbProxyObject
 90
      499
 91
      503
 93
      241
310
90C332F3422203D2031272D30220000000000003A0FC000000000000284000
  0
ACAD_PROXY_OBJECT
  5
64
102
{ACAD_REACTORS
330
47
102
}
330
47
100
AcDbProxyObject
 90
      499
 91
      503
 93
      161
310
90A3122203D2031272D30224000000000000284000
  0
ACAD_PROXY_OBJECT
  5
65
102
{ACAD_REACTORS
330
47
102
}
330
47
100
AcDbProxyObject
 90
      499
 91
      503
 93
      257
310
90E312D312F3222203D2031272D30220000000000003E0FC000000000000284000
  0
ACAD_PROXY_OBJECT
  5
66
102
{ACAD_REACTORS
330
47
102
}
330
47
100
AcDbProxyObject
 90
      499
 91
      503
 93
      225
310
90A3322203D2031272D302200000000000002100000000000000284000
  0
ACAD_PROXY_OBJECT
  5
67
102
{ACAD_REACTORS
330
47
102
}
330
47
100
AcDbProxyObject
 90
      499
 91
      503
 93
      225
310
90A3622203D2031272D302200000000000006100000000000000284000
  0
ACAD_PROXY_OBJECT
  5
68
102
{ACAD_REACTORS
330
47
102
}
330
47
100
AcDbProxyObject
 90
      499
 91
      503
 93
      249
310
90D31272D3022203D2031272D30220000000000000A100000000000000284000
  0
ACAD_PROXY_OBJECT
  5
2F
102
{ACAD_REACTORS
330
2A
102
}
330
2A
100
AcDbProxyObject
 90
      499
 91
      501
 93
      436
310
42CC9915DA5C99599C985B595049028333333333333E33F0000000000000F90107901411070040501600405405064090741402480A0340
1001
ACAD
1000
AcDbSavedByObjectVersion
1070
     0
  0
ACAD_PROXY_OBJECT
  5
32
102
{ACAD_REACTORS
330
2A
102
}
330
2A
100
AcDbProxyObject
 90
      499
 91
      501
 93
      388
310
4150985CDA58D07406404333333333333E33F0000000000000F90107A41107004050150841D405064090741402480A0350
1001
ACAD
1000
AcDbSavedByObjectVersion
1070
     0
  0
ACAD_PROXY_OBJECT
  5
36
102
{ACAD_REACTORS
330
2A
102
}
330
2A
100
AcDbProxyObject
 90
      499
 91
      501
 93
      428
310
42109C9A59DA1D195B90C409028333333333333E33F0000000000000F9010790141107004050150841D405064090741402480A029950
1001
ACAD
1000
AcDbSavedByObjectVersion
1070
     0
  0
ACAD_PROXY_OBJECT
  5
3A
102
{ACAD_REACTORS
330
2A
102
}
330
2A
100
AcDbProxyObject
 90
      499
 91
      501
 93
      452
310
42D0DBDB1BDC90DA185B99D95104090240C333333333333E33F0000000000000F90108901411070040501508421405064090741402480A0350
1001
ACAD
1000
AcDbSavedByObjectVersion
1070
     0
  0
ACAD_PROXY_OBJECT
  5
34
102
{ACAD_REACTORS
330
2A
102
}
330
2A
100
AcDbProxyObject
 90
      499
 91
      501
 93
      500
310
4290DBDB98D95C1D1D585B10940D028333333333333E33F0000000000000F90107902409070040501000000000018199010841D405064090740C02480A0340
1001
ACAD
1000
AcDbSavedByObjectVersion
1070
     0
  0
ACAD_PROXY_OBJECT
  5
35
102
{ACAD_REACTORS
330
2A
102
}
330
2A
100
AcDbProxyObject
 90
      499
 91
      501
 93
      412
310
40D11A5B50B409028333333333333E33F0000000000000F9010790141107004050150841D405064090741402480A02677FFFFFD0
1001
ACAD
1000
AcDbSavedByObjectVersion
1070
     0
  0
ACAD_PROXY_OBJECT
  5
3D
102
{ACAD_REACTORS
330
2A
102
}
330
2A
100
AcDbProxyObject
 90
      499
 91
      501
 93
      452
310
43115919D950DBDB1BDC93D999916409028333333333333E33F0000000000000F9010790141107004050150841D405064090741402480A0350
1001
ACAD
1000
AcDbSavedByObjectVersion
1070
     0
  0
ACAD_PROXY_OBJECT
  5
39
102
{ACAD_REACTORS
330
2A
102
}
330
2A
100
AcDbProxyObject
 90
      499
 91
      501
 93
      444
310
42D19858D95C185D1D195C9B90F409028333333333333E33F0000000000000F9010790141107004050150841D405064090741402480A0350
1001
ACAD
1000
AcDbSavedByObjectVersion
1070
     0
  0
ACAD_PROXY_OBJECT
  5
2B
102
{ACAD_REACTORS
330
2A
102
}
330
2A
100
AcDbProxyObject
 90
      499
 91
      501
 93
      380
310
41119B185D240901404333333333333E33F0000000000000F9010740A907004050150841D405064090741402480A1B50
1001
ACAD
1000
AcDbSavedByObjectVersion
1070
     0
  0
ACAD_PROXY_OBJECT
  5
2C
102
{ACAD_REACTORS
330
2A
102
}
330
2A
100
AcDbProxyObject
 90
      499
 91
      501
 93
      468
310
43519B185D15DA5D1A115919D95CD0140901404333333333333E33F0000000000000F90107409019070040501600405405064090741402480A1B50
1001
ACAD
1000
AcDbSavedByObjectVersion
1070
     0
  0
ACAD_PROXY_OBJECT
  5
2D
102
{ACAD_REACTORS
330
2A
102
}
330
2A
100
AcDbProxyObject
 90
      499
 91
      501
 93
      404
310
41D1DBDD5C985D5910240902404333333333333E33F0000000000000F9010740A9070040501641D405064090741402480A1B50
1001
ACAD
1000
AcDbSavedByObjectVersion
1070
     0
  0
ACAD_PROXY_OBJECT
  5
2E
102
{ACAD_REACTORS
330
2A
102
}
330
2A
100
AcDbProxyObject
 90
      499
 91
      501
 93
      492
310
4411DBDD5C985D5915DA5D1A115919D95CD0340902404333333333333E33F0000000000000F90107409019070040501600405405064090741402480A1B50
1001
ACAD
1000
AcDbSavedByObjectVersion
1070
     0
  0
ACAD_PROXY_OBJECT
  5
31
102
{ACAD_REACTORS
330
2A
102
}
330
2A
100
AcDbProxyObject
 90
      499
 91
      501
 93
      476
310
41921A5919195B90640502408333333333333E33F0000000000000F901079024090700405020000000000001110200405405064090740C02480A0340
1001
ACAD
1000
AcDbSavedByObjectVersion
1070
     0
  0
ACAD_PROXY_OBJECT
  5
3B
102
{ACAD_REACTORS
330
2A
102
}
330
2A
100
AcDbProxyObject
 90
      499
 91
      501
 93
      428
310
42529A5D1D195C93D999914409028333333333333E33F0000000000000F9010790141107004050150A41D405064090741402480A0350
1001
ACAD
1000
AcDbSavedByObjectVersion
1070
     0
  0
ACAD_PROXY_OBJECT
  5
38
102
{ACAD_REACTORS
330
2A
102
}
330
2A
100
AcDbProxyObject
 90
      499
 91
      501
 93
      444
310
42D31A5B995C185D1D195C9B90E409028333333333333E33F0000000000000F9010790141107004050750841D405064090741402483A0350
1001
ACAD
1000
AcDbSavedByObjectVersion
1070
     0
  0
ACAD_PROXY_OBJECT
  5
3C
102
{ACAD_REACTORS
330
2A
102
}
330
2A
100
AcDbProxyObject
 90
      499
 91
      501
 93
      444
310
42D3DD995C9A185B99D3D999915409028333333333333E33F0000000000000F9010790141107004050150941D405064090741402480A0350
1001
ACAD
1000
AcDbSavedByObjectVersion
1070
     0
  0
ACAD_PROXY_OBJECT
  5
33
102
{ACAD_REACTORS
330
2A
102
}
330
2A
100
AcDbProxyObject
 90
      499
 91
      501
 93
      428
310
425499585B1A5CDD1A58D08409038333333333333E33F0000000000000F9010740A907004050150800405405064090740C02480A1B40
1001
ACAD
1000
AcDbSavedByObjectVersion
1070
     0
  0
ACAD_PROXY_OBJECT
  5
42
102
{ACAD_REACTORS
330
2A
102
}
330
2A
100
AcDbProxyObject
 90
      499
 91
      501
 93
      420
310
4194DA1859195911B40902404333333333333E33F0000000000000F9010740A41107004050150800405405064090840C02480A0B40
1001
ACAD
1000
AcDbSavedByObjectVersion
1070
     0
  0
ACAD_PROXY_OBJECT
  5
41
102
{ACAD_REACTORS
330
2A
102
}
330
2A
100
AcDbProxyObject
 90
      499
 91
      501
 93
      516
310
4454DA18591959081DDA5D1A08195919D95CD1A40902404333333333333E33F0000000000000F901074090142907004050250800405405064090740C02480A0B40
1001
ACAD
1000
AcDbSavedByObjectVersion
1070
     0
  0
ACAD_PROXY_OBJECT
  5
3E
102
{ACAD_REACTORS
330
2A
102
}
330
2A
100
AcDbProxyObject
 90
      499
 91
      501
 93
      532
310
4394DA1859195CC81BD98811DC985E5174090240C333333333333E33F0000000000000F901079024090741D01000000000000111010841D405064090740C02480A0340
1001
ACAD
1000
AcDbSavedByObjectVersion
1070
     0
  0
ACAD_PROXY_OBJECT
  5
3F
102
{ACAD_REACTORS
330
2A
102
}
330
2A
100
AcDbProxyObject
 90
      499
 91
      501
 93
      476
310
41D4DAD95D18DA1E51840502408333333333333E33F0000000000000F901079024090741D01000000000000111010B41D405064090741802480A0340
1001
ACAD
1000
AcDbSavedByObjectVersion
1070
     0
  0
ACAD_PROXY_OBJECT
  5
37
102
{ACAD_REACTORS
330
2A
102
}
330
2A
100
AcDbProxyObject
 90
      499
 91
      501
 93
      412
310
41D51A1A58DAD95B90D409028333333333333E33F0000000000000F9010790141107004050150C41D405064090741402480A0350
1001
ACAD
1000
AcDbSavedByObjectVersion
1070
     0
  0
ACAD_PROXY_OBJECT
  5
30
102
{ACAD_REACTORS
330
2A
102
}
330
2A
100
AcDbProxyObject
 90
      499
 91
      501
 93
      420
310
4255DA5C99599C985B595059028333333333333E33F0000000000000F90107901411070040501600405405064090740C02480A0340
1001
ACAD
1000
AcDbSavedByObjectVersion
1070
     0
  0
ACAD_PROXY_OBJECT
  5
40
102
{ACAD_REACTORS
330
2A
102
}
330
2A
100
AcDbProxyObject
 90
      499
 91
      501
 93
      404
310
41560B54985E51940902404000000000000E03F0000000000000F9010740501907004050150841D405064090740C02480A1B40
1001
ACAD
1000
AcDbSavedByObjectVersion
1070
     0
  0
XRECORD
  5
5B9
102
{ACAD_REACTORS
330
5AF
102
}
330
5AF
100
AcDbXrecord
340
0
  0
XRECORD
  5
5B8
102
{ACAD_REACTORS
330
5AF
102
}
330
5AF
100
AcDbXrecord
 90
        0
  0
XRECORD
  5
5CF
102
{ACAD_REACTORS
330
5AF
102
}
330
5AF
100
AcDbXrecord
1000
DSTYLE
1002
{
1070
   171
 70
     2
1070
   143
 40
25.4
1070
   274
 70
     2
1070
    41
 40
0.18
1070
   141
 40
0.09
1070
   271
 70
     4
1070
    43
 40
0.38
1070
   278
 70
    46
1070
    44
 40
0.18
1070
    42
 40
0.0625
1070
   147
 40
0.09
1070
    77
 70
     0
1070
   272
 70
     4
1070
    73
 70
     1
1070
   172
 70
     0
1070
    74
 70
     1
1070
   283
 70
     1
1070
   340
340
11
1070
   140
 40
0.18
1070
   284
 70
     0
1070
    78
 70
     0
1002
}
  0
XRECORD
  5
5BA
102
{ACAD_REACTORS
330
5AF
102
}
330
5AF
100
AcDbXrecord
  1
{9b4f5028-8580-49ee-a19b-b6bfd870dc85}
  0
XRECORD
  5
5B2
102
{ACAD_REACTORS
330
5AF
102
}
330
5AF
100
AcDbXrecord
  1

  0
XRECORD
  5
5B7
102
{ACAD_REACTORS
330
5AF
102
}
330
5AF
100
AcDbXrecord
 90
        4
  0
XRECORD
  5
5B4
102
{ACAD_REACTORS
330
5AF
102
}
330
5AF
100
AcDbXrecord
340
1A
  0
XRECORD
  5
5B6
102
{ACAD_REACTORS
330
5AF
102
}
330
5AF
100
AcDbXrecord
 90
    10781
  0
XRECORD
  5
5B5
102
{ACAD_REACTORS
330
5AF
102
}
330
5AF
100
AcDbXrecord
340
19
  0
XRECORD
  5
5BC
102
{ACAD_REACTORS
330
5AF
102
}
330
5AF
100
AcDbXrecord
 40
0.0
  0
XRECORD
  5
5BF
102
{ACAD_REACTORS
330
5AF
102
}
330
5AF
100
AcDbXrecord
340
0
  0
XRECORD
  5
5C5
102
{ACAD_REACTORS
330
5AF
102
}
330
5AF
100
AcDbXrecord
 10
0.0
 20
0.0
 30
0.0
  0
XRECORD
  5
5C1
102
{ACAD_REACTORS
330
5AF
102
}
330
5AF
100
AcDbXrecord
 10
0.0
 20
0.0
 30
0.0
  0
XRECORD
  5
5C4
102
{ACAD_REACTORS
330
5AF
102
}
330
5AF
100
AcDbXrecord
 10
0.0
 20
0.0
 30
0.0
  0
XRECORD
  5
5C2
102
{ACAD_REACTORS
330
5AF
102
}
330
5AF
100
AcDbXrecord
 10
0.0
 20
0.0
 30
0.0
  0
XRECORD
  5
5C3
102
{ACAD_REACTORS
330
5AF
102
}
330
5AF
100
AcDbXrecord
 10
0.0
 20
0.0
 30
0.0
  0
XRECORD
  5
5C0
102
{ACAD_REACTORS
330
5AF
102
}
330
5AF
100
AcDbXrecord
 10
0.0
 20
0.0
 30
0.0
  0
XRECORD
  5
5BD
102
{ACAD_REACTORS
330
5AF
102
}
330
5AF
100
AcDbXrecord
340
0
  0
XRECORD
  5
5BE
102
{ACAD_REACTORS
330
5AF
102
}
330
5AF
100
AcDbXrecord
 70
     0
  0
XRECORD
  5
5B3
102
{ACAD_REACTORS
330
5AF
102
}
330
5AF
100
AcDbXrecord
  1

  0
XRECORD
  5
5B0
102
{ACAD_REACTORS
330
5AF
102
}
330
5AF
100
AcDbXrecord
 90
        1
  0
XRECORD
  5
5B1
102
{ACAD_REACTORS
330
5AF
102
}
330
5AF
100
AcDbXrecord
 90
       70
  0
XRECORD
  5
5C8
102
{ACAD_REACTORS
330
5AF
102
}
330
5AF
100
AcDbXrecord
340
0
  0
XRECORD
  5
5CE
102
{ACAD_REACTORS
330
5AF
102
}
330
5AF
100
AcDbXrecord
 10
0.0
 20
0.0
 30
0.0
  0
XRECORD
  5
5CA
102
{ACAD_REACTORS
330
5AF
102
}
330
5AF
100
AcDbXrecord
 10
0.0
 20
0.0
 30
0.0
  0
XRECORD
  5
5CD
102
{ACAD_REACTORS
330
5AF
102
}
330
5AF
100
AcDbXrecord
 10
0.0
 20
0.0
 30
0.0
  0
XRECORD
  5
5CB
102
{ACAD_REACTORS
330
5AF
102
}
330
5AF
100
AcDbXrecord
 10
0.0
 20
0.0
 30
0.0
  0
XRECORD
  5
5CC
102
{ACAD_REACTORS
330
5AF
102
}
330
5AF
100
AcDbXrecord
 10
0.0
 20
0.0
 30
0.0
  0
XRECORD
  5
5C9
102
{ACAD_REACTORS
330
5AF
102
}
330
5AF
100
AcDbXrecord
 10
0.0
 20
0.0
 30
0.0
  0
XRECORD
  5
5C6
102
{ACAD_REACTORS
330
5AF
102
}
330
5AF
100
AcDbXrecord
340
0
  0
XRECORD
  5
5C7
102
{ACAD_REACTORS
330
5AF
102
}
330
5AF
100
AcDbXrecord
 70
     0
  0
XRECORD
  5
5BB
102
{ACAD_REACTORS
330
5AF
102
}
330
5AF
100
AcDbXrecord
  1
{FAEB1C32-E019-11D5-929B-00C0DF256EC4}
  0
DICTIONARYVAR
  5
5D9
102
{ACAD_REACTORS
330
5D0
102
}
330
5D0
100
DictionaryVariables
280
     0
  1
1:1
  0
DICTIONARYVAR
  5
5D2
102
{ACAD_REACTORS
330
5D0
102
}
330
5D0
100
DictionaryVariables
280
     0
  1
Standard
  0
DICTIONARYVAR
  5
5D1
102
{ACAD_REACTORS
330
5D0
102
}
330
5D0
100
DictionaryVariables
280
     0
  1
Standard
  0
DICTIONARYVAR
  5
5D5
102
{ACAD_REACTORS
330
5D0
102
}
330
5D0
100
DictionaryVariables
280
     0
  1
2
  0
DICTIONARYVAR
  5
5D6
102
{ACAD_REACTORS
330
5D0
102
}
330
5D0
100
DictionaryVariables
280
     0
  1
1
  0
DICTIONARYVAR
  5
5DA
102
{ACAD_REACTORS
330
5D0
102
}
330
5D0
100
DictionaryVariables
280
     0
  1
1
  0
DICTIONARY
  5
5DD
330
45
100
AcDbDictionary
280
     1
  3
ACAD_XREC_ROUNDTRIP
360
5DE
  0
DICTIONARY
  5
5DB
330
44
100
AcDbDictionary
280
     1
  3
ACAD_XREC_ROUNDTRIP
360
5DC
  0
DICTIONARY
  5
5DF
330
46
100
AcDbDictionary
280
     1
  3
ACAD_XREC_ROUNDTRIP
360
5E0
  0
XRECORD
  5
5DE
102
{ACAD_REACTORS
330
5DD
102
}
330
5DD
100
AcDbXrecord
102
MATERIAL
148
0.0
149
0.0
149
0.0
 93
        0
 94
      127
282
     0
 72
     1
 77
     1
171
     1
175
     1
179
     1
273
     0
  0
XRECORD
  5
5DC
102
{ACAD_REACTORS
330
5DB
102
}
330
5DB
100
AcDbXrecord
102
MATERIAL
148
0.0
149
0.0
149
0.0
 93
        0
 94
      127
282
     0
 72
     1
 77
     1
171
     1
175
     1
179
     1
273
     0
  0
XRECORD
  5
5E0
102
{ACAD_REACTORS
330
5DF
102
}
330
5DF
100
AcDbXrecord
102
MATERIAL
148
0.0
149
0.0
149
0.0
 93
        0
 94
      127
282
     0
 72
     1
 77
     1
171
     1
175
     1
179
     1
273
     0
  0
ENDSEC
  0
EOF
