  0
SECTION
  2
HEADER
  9
$ACADVER
  1
AC1009
  9
$INSBASE
 10
0
 20
0
  9
$EXTMIN
 10
3.900995788579573
 20
11.6045322792626
  9
$EXTMAX
 10
191.16917471714
 20
265.4586631980533
  9
$LIMMIN
 10
3.900995788579573
 20
11.6045322792626
  9
$LIMMAX
 10
191.16917471714
 20
265.4586631980533
  9
$VIEWCTR
 10
10
 20
10
  9
$VIEWSIZE
 40
10
  9
$SNAPMODE
 70
0
  9
$SNAPUNIT
 10
1
 20
1
  9
$SNAPBASE
 10
0
 20
0
  9
$SNAPANG
 50
0
  9
$SNAPSTYLE
 70
0
  9
$SNAPISOPAIR
 70
0
  9
$GRIDMODE
 70
0
  9
$GRIDUNIT
 10
0
 20
0
  9
$ORTHOMODE
 70
0
  9
$REGENMODE
 70
1
  9
$FILLMODE
 70
1
  9
$QTEXTMODE
 70
0
  9
$DRAGMODE
 70
2
  9
$LTSCALE
 40
1
  9
$OSMODE
 70
0
  9
$ATTMODE
 70
1
  9
$TEXTSIZE
 40
3.5
  9
$TRACEWID
 40
0.5
  9
$TEXTSTYLE
  7
STANDARD
  9
$CLAYER
  8
0
  9
$CELTYPE
  6
BYLAYER
  9
$CECOLOR
 62
256
  9
$DIMSCALE
 40
1
  9
$DIMASZ
 40
0.18
  9
$DIMEXO
 40
0.0625
  9
$DIMDLI
 40
0.38
  9
$DIMRND
 40
0
  9
$DIMDLE
 40
0
  9
$DIMEXE
 40
0.18
  9
$DIMTP
 40
0
  9
$DIMTM
 40
0
  9
$DIMTXT
 40
0.18
  9
$DIMCEN
 40
0.09
  9
$DIMTSZ
 40
0
  9
$DIMTOL
 70
0
  9
$DIMLIM
 70
0
  9
$DIMTIH
 70
1
  9
$DIMTOH
 70
1
  9
$DIMSE1
 70
0
  9
$DIMSE2
 70
0
  9
$DIMTAD
 70
0
  9
$DIMZIN
 70
0
  9
$DIMBLK
  1

  9
$DIMASO
 70
1
  9
$DIMSHO
 70
1
  9
$DIMPOST
  1

  9
$DIMAPOST
  1

  9
$DIMALT
 70
0
  9
$DIMALTD
 70
2
  9
$DIMALTF
 40
25.4
  9
$DIMLFAC
 40
1
  9
$DIMTOFL
 70
0
  9
$DIMTVP
 40
0
  9
$DIMTIX
 70
0
  9
$DIMSOXD
 70
0
  9
$DIMSAH
 70
0
  9
$DIMBLK1
  1

  9
$DIMBLK2
  1

  9
$DIMSTYLE
  2
*UNNAMED
  9
$DIMCLRD
 70
0
  9
$DIMCLRE
 70
0
  9
$DIMCLRT
 70
0
  9
$DIMTFAC
 40
1
  9
$DIMGAP
 40
0.09
  9
$LUNITS
 70
2
  9
$LUPREC
 70
4
  9
$AXISMODE
 70
0
  9
$AXISUNIT
 10
0
 20
0
  9
$SKETCHINC
 40
0.1
  9
$FILLETRAD
 40
2
  9
$AUNITS
 70
0
  9
$AUPREC
 70
0
  9
$MENU
  1
ACAD
  9
$ELEVATION
 40
0
  9
$THICKNESS
 40
0
  9
$VIEWDIR
 10
0
 20
0
 30
1
  9
$LIMCHECK
 70
0
  9
$BLIPMODE
 70
1
  9
$CHAMFERA
 40
0
  9
$CHAMFERB
 40
0
  9
$FASTZOOM
 70
1
  9
$SKPOLY
 70
0
  9
$ANGBASE
 50
0
  9
$ANGDIR
 70
0
  9
$PDMODE
 70
0
  9
$PDSIZE
 40
0
  9
$PLINEWID
 40
0
  9
$COORDS
 70
2
  0
ENDSEC
  0
SECTION
  2
TABLES
  0
TABLE
  2
DIMSTYLE
 70
1
  0
DIMSTYLE
  2
DMST_1
 70
0
  3

  4

  5

  6

  7

 40
1
 41
5
 42
0
 43
7
 44
2
 45
0
 46
0
 47
0
 48
0
140
5
141
0
142
0
143
25.4
144
1
145
0
146
1
147
0.09
 71
0
 72
0
 73
0
 74
0
 75
0
 76
0
 77
1
 78
9
170
0
171
2
172
0
173
0
174
0
175
0
176
1
177
1
178
3
  0
ENDTAB
  0
TABLE
  2
LTYPE
 70
9
  0
LTYPE
  2
CONTINUOUS
 70
64
  3
Solid line
 72
65
 73
0
 40
0
  0
LTYPE
  2
BORDER
 70
64
  3
__ __ . __ __ .
 72
65
 73
6
 40
11.69065076599694
 49
3.340185933141983
 49
-1.670092966570991
 49
3.340185933141983
 49
-1.670092966570991
 49
0
 49
-1.670092966570991
  0
LTYPE
  2
CENTER
 70
64
  3
____ _ ____ _
 72
65
 73
4
 40
13.36074373256793
 49
8.350464832854957
 49
-1.670092966570991
 49
1.670092966570991
 49
-1.670092966570991
  0
LTYPE
  2
DASHDOT
 70
64
  3
__ . __ . __ .
 72
65
 73
4
 40
6.680371866283966
 49
3.340185933141983
 49
-1.670092966570991
 49
0
 49
-1.670092966570991
  0
LTYPE
  2
DASHED
 70
64
  3
__ __ __ __ __
 72
65
 73
2
 40
5.010278899712974
 49
3.340185933141983
 49
-1.670092966570991
  0
LTYPE
  2
DIVIDE
 70
64
  3
__ . . __ . . 
 72
65
 73
6
 40
8.350464832854957
 49
3.340185933141983
 49
-1.670092966570991
 49
0
 49
-1.670092966570991
 49
0
 49
-1.670092966570991
  0
LTYPE
  2
DOT
 70
64
  3
..............
 72
65
 73
4
 40
3.340185933141983
 49
0
 49
-1.670092966570991
 49
0
 49
-1.670092966570991
  0
LTYPE
  2
HIDDEN
 70
64
  3
_ _ _ _ _ _ _
 72
65
 73
2
 40
2.505139449856487
 49
1.670092966570991
 49
-0.8350464832854957
  0
LTYPE
  2
PHANTOM
 70
64
  3
_____ _ _ _____ _ _ 
 72
65
 73
6
 40
16.70092966570991
 49
8.350464832854957
 49
-1.670092966570991
 49
1.670092966570991
 49
-1.670092966570991
 49
1.670092966570991
 49
-1.670092966570991
  0
ENDTAB
  0
TABLE
  2
LAYER
 70
3
  0
LAYER
  2
1
 70
0
 62
7
  6
CONTINUOUS
  0
LAYER
  2
0
 70
0
 62
7
  6
CONTINUOUS
  0
ENDTAB
  0
TABLE
  2
STYLE
 70
4
  0
STYLE
  2
STANDARD
 70
0
 40
0
 41
1
 50
0
 71
0
 42
3.5
  3
txt
  4

  0
STYLE
  2
SIMPLEX
 70
0
 40
0
 41
1
 50
0
 71
0
 42
3.5
  3
simplex
  4

  0
STYLE
  2
COMPLEX
 70
0
 40
0
 41
1
 50
0
 71
0
 42
3.5
  3
complex
  4

  0
STYLE
  2
ITALIC
 70
0
 40
0
 41
1
 50
0
 71
0
 42
3.5
  3
italic
  4

  0
ENDTAB
  0
TABLE
  2
VIEW
 70
0
  0
ENDTAB
  0
ENDSEC
  0
SECTION
  2
BLOCKS
  0
BLOCK
  8
1
  2
*D0
 70
1
 10
0
 20
0
 30
0
  0
LINE
  8
1
 62
1
 10
117.5052018249391
 20
73.4586631980533
 30
0
 11
117.5052018249391
 21
100.4586631980533
 31
0
  0
LINE
  8
1
 62
1
 10
93.11381862119259
 20
100.4586631980533
 30
0
 11
119.5052018249391
 21
100.4586631980533
 31
0
  0
LINE
  8
1
 62
1
 10
95.11381862119259
 20
73.4586631980533
 30
0
 11
119.5052018249391
 21
73.4586631980533
 31
0
  0
SOLID
  8
1
 62
1
 10
117.5052018249391
 20
73.4586631980533
 30
0
 11
116.8552018249391
 21
78.4586631980533
 31
0
 12
118.1552018249391
 22
78.4586631980533
 32
0
 13
118.1552018249391
 23
78.4586631980533
 33
0
  0
SOLID
  8
1
 62
1
 10
117.5052018249391
 20
100.4586631980533
 30
0
 11
118.1552018249391
 21
95.4586631980533
 31
0
 12
116.8552018249391
 22
95.4586631980533
 32
0
 13
116.8552018249391
 23
95.4586631980533
 33
0
  0
TEXT
  8
1
 62
3
 10
115.7543713423074
 20
82.84548732658639
 30
0
 40
5
  1
27
 50
90
 41
0.9
  0
ENDBLK
  8
0
  0
BLOCK
  8
1
  2
*D1
 70
1
 10
0
 20
0
 30
0
  0
LINE
  8
1
 62
1
 10
117.5052018249391
 20
100.4586631980533
 30
0
 11
117.5052018249391
 21
144.4586631980533
 31
0
  0
LINE
  8
1
 62
1
 10
93.11381862119259
 20
100.4586631980533
 30
0
 11
119.5052018249391
 21
100.4586631980533
 31
0
  0
LINE
  8
1
 62
1
 10
93.11381862119259
 20
144.4586631980533
 30
0
 11
119.5052018249391
 21
144.4586631980533
 31
0
  0
SOLID
  8
1
 62
1
 10
117.5052018249391
 20
100.4586631980533
 30
0
 11
116.8552018249391
 21
105.4586631980533
 31
0
 12
118.1552018249391
 22
105.4586631980533
 32
0
 13
118.1552018249391
 23
105.4586631980533
 33
0
  0
SOLID
  8
1
 62
1
 10
117.5052018249391
 20
144.4586631980533
 30
0
 11
118.1552018249391
 21
139.4586631980533
 31
0
 12
116.8552018249391
 22
139.4586631980533
 32
0
 13
116.8552018249391
 23
139.4586631980533
 33
0
  0
TEXT
  8
1
 62
3
 10
115.4744801786989
 20
118.951447432086
 30
0
 40
5
  1
44
 50
90
 41
0.9
  0
ENDBLK
  8
0
  0
BLOCK
  8
1
  2
*D2
 70
1
 10
0
 20
0
 30
0
  0
LINE
  8
1
 62
1
 10
117.5052018249391
 20
144.4586631980533
 30
0
 11
117.5052018249391
 21
184.4586631980533
 31
0
  0
LINE
  8
1
 62
1
 10
93.11381862119259
 20
144.4586631980533
 30
0
 11
119.5052018249391
 21
144.4586631980533
 31
0
  0
LINE
  8
1
 62
1
 10
93.11381862119259
 20
184.4586631980533
 30
0
 11
119.5052018249391
 21
184.4586631980533
 31
0
  0
SOLID
  8
1
 62
1
 10
117.5052018249391
 20
144.4586631980533
 30
0
 11
116.8552018249391
 21
149.4586631980533
 31
0
 12
118.1552018249391
 22
149.4586631980533
 32
0
 13
118.1552018249391
 23
149.4586631980533
 33
0
  0
SOLID
  8
1
 62
1
 10
117.5052018249391
 20
184.4586631980533
 30
0
 11
118.1552018249391
 21
179.4586631980533
 31
0
 12
116.8552018249391
 22
179.4586631980533
 32
0
 13
116.8552018249391
 23
179.4586631980533
 33
0
  0
TEXT
  8
1
 62
3
 10
115.1945890150904
 20
160.655230809757
 30
0
 40
5
  1
40
 50
90
 41
0.9
  0
ENDBLK
  8
0
  0
BLOCK
  8
1
  2
*D3
 70
1
 10
0
 20
0
 30
0
  0
LINE
  8
1
 62
1
 10
117.5052018249391
 20
184.4586631980533
 30
0
 11
117.5052018249391
 21
228.4586631980533
 31
0
  0
LINE
  8
1
 62
1
 10
93.11381862119259
 20
184.4586631980533
 30
0
 11
119.5052018249391
 21
184.4586631980533
 31
0
  0
LINE
  8
1
 62
1
 10
93.11381862119259
 20
228.4586631980533
 30
0
 11
119.5052018249391
 21
228.4586631980533
 31
0
  0
SOLID
  8
1
 62
1
 10
117.5052018249391
 20
184.4586631980533
 30
0
 11
116.8552018249391
 21
189.4586631980533
 31
0
 12
118.1552018249391
 22
189.4586631980533
 32
0
 13
118.1552018249391
 23
189.4586631980533
 33
0
  0
SOLID
  8
1
 62
1
 10
117.5052018249391
 20
228.4586631980533
 30
0
 11
118.1552018249391
 21
223.4586631980533
 31
0
 12
116.8552018249391
 22
223.4586631980533
 32
0
 13
116.8552018249391
 23
223.4586631980533
 33
0
  0
TEXT
  8
1
 62
3
 10
115.7543713423074
 20
202.359014187427
 30
0
 40
5
  1
44
 50
90
 41
0.9
  0
ENDBLK
  8
0
  0
BLOCK
  8
1
  2
*D4
 70
1
 10
0
 20
0
 30
0
  0
LINE
  8
1
 62
1
 10
117.5052018249391
 20
228.4586631980533
 30
0
 11
117.5052018249391
 21
265.4586631980533
 31
0
  0
LINE
  8
1
 62
1
 10
95.11381862119259
 20
265.4586631980533
 30
0
 11
119.5052018249391
 21
265.4586631980533
 31
0
  0
LINE
  8
1
 62
1
 10
93.11381862119259
 20
228.4586631980533
 30
0
 11
119.5052018249391
 21
228.4586631980533
 31
0
  0
SOLID
  8
1
 62
1
 10
117.5052018249391
 20
228.4586631980533
 30
0
 11
116.8552018249391
 21
233.4586631980533
 31
0
 12
118.1552018249391
 22
233.4586631980533
 32
0
 13
118.1552018249391
 23
233.4586631980533
 33
0
  0
SOLID
  8
1
 62
1
 10
117.5052018249391
 20
265.4586631980533
 30
0
 11
118.1552018249391
 21
260.4586631980533
 31
0
 12
116.8552018249391
 22
260.4586631980533
 32
0
 13
116.8552018249391
 23
260.4586631980533
 33
0
  0
TEXT
  8
1
 62
3
 10
115.4744801786989
 20
243.223124074272
 30
0
 40
5
  1
37
 50
90
 41
0.9
  0
ENDBLK
  8
0
  0
BLOCK
  8
1
  2
*D5
 70
1
 10
0
 20
0
 30
0
  0
LINE
  8
1
 62
1
 10
55.8083655173083
 20
248.4586631980533
 30
0
 11
55.8083655173083
 21
265.4586631980533
 31
0
  0
LINE
  8
1
 62
1
 10
73.11381862119259
 20
265.4586631980533
 30
0
 11
53.8083655173083
 21
265.4586631980533
 31
0
  0
LINE
  8
1
 62
1
 10
78.53381862119261
 20
248.4586631980533
 30
0
 11
53.8083655173083
 21
248.4586631980533
 31
0
  0
SOLID
  8
1
 62
1
 10
55.8083655173083
 20
248.4586631980533
 30
0
 11
55.1583655173083
 21
253.4586631980533
 31
0
 12
56.4583655173083
 22
253.4586631980533
 32
0
 13
56.4583655173083
 23
253.4586631980533
 33
0
  0
SOLID
  8
1
 62
1
 10
55.8083655173083
 20
265.4586631980533
 30
0
 11
56.4583655173083
 21
260.4586631980533
 31
0
 12
55.1583655173083
 22
260.4586631980533
 32
0
 13
55.1583655173083
 23
260.4586631980533
 33
0
  0
TEXT
  8
1
 62
3
 10
53.3386418576061
 20
254.608988291396
 30
0
 40
5
  1
17
 50
90
 41
0.9
  0
ENDBLK
  8
0
  0
BLOCK
  8
1
  2
*D6
 70
1
 10
0
 20
0
 30
0
  0
LINE
  8
1
 62
1
 10
55.8083655173083
 20
165.4586631980533
 30
0
 11
55.8083655173083
 21
248.4586631980533
 31
0
  0
LINE
  8
1
 62
1
 10
78.53381862119261
 20
165.4586631980533
 30
0
 11
53.8083655173083
 21
165.4586631980533
 31
0
  0
LINE
  8
1
 62
1
 10
78.53381862119261
 20
248.4586631980533
 30
0
 11
53.8083655173083
 21
248.4586631980533
 31
0
  0
SOLID
  8
1
 62
1
 10
55.8083655173083
 20
248.4586631980533
 30
0
 11
56.4583655173083
 21
243.4586631980533
 31
0
 12
55.1583655173083
 22
243.4586631980533
 32
0
 13
55.1583655173083
 23
243.4586631980533
 33
0
  0
SOLID
  8
1
 62
1
 10
55.8083655173083
 20
165.4586631980533
 30
0
 11
55.1583655173083
 21
170.4586631980533
 31
0
 12
56.4583655173083
 22
170.4586631980533
 32
0
 13
56.4583655173083
 23
170.4586631980533
 33
0
  0
TEXT
  8
1
 62
3
 10
53.6185330212146
 20
204.038361169078
 30
0
 40
5
  1
83
 50
90
 41
0.9
  0
ENDBLK
  8
0
  0
BLOCK
  8
1
  2
*D7
 70
1
 10
0
 20
0
 30
0
  0
LINE
  8
1
 62
1
 10
55.8083655173083
 20
88.45866319805327
 30
0
 11
55.8083655173083
 21
165.4586631980533
 31
0
  0
LINE
  8
1
 62
1
 10
78.53381862119259
 20
88.45866319805327
 30
0
 11
53.8083655173083
 21
88.45866319805327
 31
0
  0
LINE
  8
1
 62
1
 10
78.53381862119259
 20
165.4586631980533
 30
0
 11
53.8083655173083
 21
165.4586631980533
 31
0
  0
SOLID
  8
1
 62
1
 10
55.8083655173083
 20
165.4586631980533
 30
0
 11
56.4583655173083
 21
160.4586631980533
 31
0
 12
55.1583655173083
 22
160.4586631980533
 32
0
 13
55.1583655173083
 23
160.4586631980533
 33
0
  0
SOLID
  8
1
 62
1
 10
55.8083655173083
 20
88.45866319805327
 30
0
 11
55.1583655173083
 21
93.45866319805327
 31
0
 12
56.4583655173083
 22
93.45866319805327
 32
0
 13
56.4583655173083
 23
93.45866319805327
 33
0
  0
TEXT
  8
1
 62
3
 10
53.8984241848231
 20
124.269379540648
 30
0
 40
5
  1
77
 50
90
 41
0.9
  0
ENDBLK
  8
0
  0
BLOCK
  8
1
  2
*D8
 70
1
 10
0
 20
0
 30
0
  0
LINE
  8
1
 62
1
 10
55.8083655173083
 20
73.4586631980533
 30
0
 11
55.8083655173083
 21
88.45866319805327
 31
0
  0
LINE
  8
1
 62
1
 10
78.53381862119261
 20
88.45866319805327
 30
0
 11
53.8083655173083
 21
88.45866319805327
 31
0
  0
LINE
  8
1
 62
1
 10
73.11381862119259
 20
73.4586631980533
 30
0
 11
53.8083655173083
 21
73.4586631980533
 31
0
  0
SOLID
  8
1
 62
1
 10
55.8083655173083
 20
88.45866319805327
 30
0
 11
56.4583655173083
 21
83.45866319805327
 31
0
 12
55.1583655173083
 22
83.45866319805327
 32
0
 13
55.1583655173083
 23
83.45866319805327
 33
0
  0
SOLID
  8
1
 62
1
 10
55.8083655173083
 20
73.4586631980533
 30
0
 11
55.1583655173083
 21
78.4586631980533
 31
0
 12
56.4583655173083
 22
78.4586631980533
 32
0
 13
56.4583655173083
 23
78.4586631980533
 33
0
  0
TEXT
  8
1
 62
3
 10
53.6185330212146
 20
77.7177728908074
 30
0
 40
5
  1
15
 50
90
 41
0.9
  0
ENDBLK
  8
0
  0
BLOCK
  8
1
  2
*D9
 70
1
 10
0
 20
0
 30
0
  0
LINE
  8
1
 62
1
 10
117.5052018249391
 20
30.5554069835365
 30
0
 11
117.5052018249391
 21
40.5554069835365
 31
0
  0
LINE
  8
1
 62
1
 10
117.5052018249391
 20
30.5554069835365
 30
0
 11
117.5052018249391
 21
20.5554069835365
 31
0
  0
LINE
  8
1
 62
1
 10
117.5052018249391
 20
40.5554069835365
 30
0
 11
117.5052018249391
 21
50.5554069835365
 31
0
  0
LINE
  8
1
 62
1
 10
93.11381862119259
 20
30.5554069835365
 30
0
 11
119.5052018249391
 21
30.5554069835365
 31
0
  0
LINE
  8
1
 62
1
 10
95.11381862119259
 20
40.5554069835365
 30
0
 11
119.5052018249391
 21
40.5554069835365
 31
0
  0
SOLID
  8
1
 62
1
 10
117.5052018249391
 20
30.5554069835365
 30
0
 11
118.1552018249391
 21
25.5554069835365
 31
0
 12
116.8552018249391
 22
25.5554069835365
 32
0
 13
116.8552018249391
 23
25.5554069835365
 33
0
  0
SOLID
  8
1
 62
1
 10
117.5052018249391
 20
40.5554069835365
 30
0
 11
116.8552018249391
 21
45.5554069835365
 31
0
 12
118.1552018249391
 22
45.5554069835365
 32
0
 13
118.1552018249391
 23
45.5554069835365
 33
0
  0
TEXT
  8
1
 62
3
 10
115.7543713423074
 20
32.4895272210865
 30
0
 40
5
  1
10
 50
90
 41
0.9
  0
ENDBLK
  8
0
  0
BLOCK
  8
1
  2
*D10
 70
1
 10
0
 20
0
 30
0
  0
LINE
  8
1
 62
1
 10
73.11381862119259
 20
13.6045322792626
 30
0
 11
95.11381862119259
 21
13.6045322792626
 31
0
  0
LINE
  8
1
 62
1
 10
73.11381862119259
 20
30.5554069835365
 30
0
 11
73.11381862119259
 21
11.6045322792626
 31
0
  0
LINE
  8
1
 62
1
 10
95.11381862119259
 20
32.5554069835365
 30
0
 11
95.11381862119259
 21
11.6045322792626
 31
0
  0
SOLID
  8
1
 62
1
 10
73.11381862119259
 20
13.6045322792626
 30
0
 11
78.11381862119259
 21
14.2545322792626
 31
0
 12
78.11381862119259
 22
12.9545322792626
 32
0
 13
78.11381862119259
 23
12.9545322792626
 33
0
  0
SOLID
  8
1
 62
1
 10
95.11381862119259
 20
13.6045322792626
 30
0
 11
90.11381862119259
 21
12.9545322792626
 31
0
 12
90.11381862119259
 22
14.2545322792626
 32
0
 13
90.11381862119259
 23
14.2545322792626
 33
0
  0
TEXT
  8
1
 62
3
 10
80.6755814906292
 20
15.3563839137494
 30
0
 40
5
  1
22
 41
0.9
  0
ENDBLK
  8
0
  0
BLOCK
  8
1
  2
*D11
 70
1
 10
0
 20
0
 30
0
  0
LINE
  8
1
 62
1
 10
78.11381862119259
 20
196.553876464412
 30
0
 11
93.11381862119259
 21
196.553876464412
 31
0
  0
LINE
  8
1
 62
1
 10
78.11381862119259
 20
184.4586631980533
 30
0
 11
78.11381862119259
 21
198.553876464412
 31
0
  0
LINE
  8
1
 62
1
 10
93.11381862119259
 20
184.4586631980533
 30
0
 11
93.11381862119259
 21
198.553876464412
 31
0
  0
SOLID
  8
1
 62
1
 10
78.11381862119259
 20
196.553876464412
 30
0
 11
83.11381862119259
 21
197.203876464412
 31
0
 12
83.11381862119259
 22
195.903876464412
 32
0
 13
83.11381862119259
 23
195.903876464412
 33
0
  0
SOLID
  8
1
 62
1
 10
93.11381862119259
 20
196.553876464412
 30
0
 11
88.11381862119259
 21
195.903876464412
 31
0
 12
88.11381862119259
 22
197.203876464412
 32
0
 13
88.11381862119259
 23
197.203876464412
 33
0
  0
TEXT
  8
1
 62
3
 10
81.98536381784631
 20
198.291082078865
 30
0
 40
5
  1
15
 41
0.9
  0
ENDBLK
  8
0
  0
BLOCK
  8
1
  2
*D12
 70
1
 10
0
 20
0
 30
0
  0
LINE
  8
1
 62
1
 10
83.11381862119259
 20
196.553876464412
 30
0
 11
93.11381862119259
 21
196.553876464412
 31
0
  0
LINE
  8
1
 62
1
 10
93.11381862119259
 20
196.553876464412
 30
0
 11
95.11381862119259
 21
196.553876464412
 31
0
  0
LINE
  8
1
 62
1
 10
95.11381862119259
 20
196.553876464412
 30
0
 11
105.1138186211926
 21
196.553876464412
 31
0
  0
LINE
  8
1
 62
1
 10
93.11381862119259
 20
184.4586631980533
 30
0
 11
93.11381862119259
 21
198.553876464412
 31
0
  0
LINE
  8
1
 62
1
 10
95.11381862119259
 20
265.4586631980533
 30
0
 11
95.11381862119259
 21
194.553876464412
 31
0
  0
SOLID
  8
1
 62
1
 10
93.11381862119259
 20
196.553876464412
 30
0
 11
88.11381862119259
 21
195.903876464412
 31
0
 12
88.11381862119259
 22
197.203876464412
 32
0
 13
88.11381862119259
 23
197.203876464412
 33
0
  0
SOLID
  8
1
 62
1
 10
95.11381862119259
 20
196.553876464412
 30
0
 11
100.1138186211926
 21
197.203876464412
 31
0
 12
100.1138186211926
 22
195.903876464412
 32
0
 13
100.1138186211926
 23
195.903876464412
 33
0
  0
TEXT
  8
1
 62
3
 10
101.398398288792
 20
198.291082078865
 30
0
 40
5
  1
2
 41
0.9
  0
ENDBLK
  8
0
  0
BLOCK
  8
1
  2
*D13
 70
1
 10
0
 20
0
 30
0
  0
LINE
  8
1
 62
1
 10
39.5940836771798
 20
73.4586631980533
 30
0
 11
39.5940836771798
 21
265.4586631980533
 31
0
  0
LINE
  8
1
 62
1
 10
73.11381862119259
 20
265.4586631980533
 30
0
 11
37.5940836771798
 21
265.4586631980533
 31
0
  0
LINE
  8
1
 62
1
 10
73.11381862119259
 20
73.4586631980533
 30
0
 11
37.5940836771798
 21
73.4586631980533
 31
0
  0
SOLID
  8
1
 62
1
 10
39.5940836771798
 20
73.4586631980533
 30
0
 11
38.9440836771798
 21
78.4586631980533
 31
0
 12
40.2440836771798
 22
78.4586631980533
 32
0
 13
40.2440836771798
 23
78.4586631980533
 33
0
  0
SOLID
  8
1
 62
1
 10
39.5940836771798
 20
265.4586631980533
 30
0
 11
40.2440836771798
 21
260.4586631980533
 31
0
 12
38.9440836771798
 22
260.4586631980533
 32
0
 13
38.9440836771798
 23
260.4586631980533
 33
0
  0
TEXT
  8
1
 62
3
 10
37.6647366955286
 20
164.473162918319
 30
0
 40
5
  1
192
 50
90
 41
0.9
  0
ENDBLK
  8
0
  0
BLOCK
  8
1
  2
*D14
 70
1
 10
0
 20
0
 30
0
  0
LINE
  8
1
 62
1
 10
72.71381862119259
 20
55.9596563181297
 30
0
 11
82.7138186211926
 21
55.9596563181297
 31
0
  0
LINE
  8
1
 62
1
 10
82.7138186211926
 20
55.9596563181297
 30
0
 11
95.11381862119259
 21
55.9596563181297
 31
0
  0
LINE
  8
1
 62
1
 10
95.11381862119259
 20
55.9596563181297
 30
0
 11
114.017463563095
 21
55.9596563181297
 31
0
  0
LINE
  8
1
 62
1
 10
82.7138186211926
 20
84.27866319805328
 30
0
 11
82.7138186211926
 21
53.9596563181297
 31
0
  0
LINE
  8
1
 62
1
 10
95.11381862119259
 20
73.4586631980533
 30
0
 11
95.11381862119259
 21
53.9596563181297
 31
0
  0
SOLID
  8
1
 62
1
 10
82.7138186211926
 20
55.9596563181297
 30
0
 11
77.7138186211926
 21
55.3096563181297
 31
0
 12
77.7138186211926
 22
56.6096563181297
 32
0
 13
77.7138186211926
 23
56.6096563181297
 33
0
  0
SOLID
  8
1
 62
1
 10
95.11381862119259
 20
55.9596563181297
 30
0
 11
100.1138186211926
 21
56.6096563181297
 31
0
 12
100.1138186211926
 22
55.3096563181297
 32
0
 13
100.1138186211926
 23
55.3096563181297
 33
0
  0
TEXT
  8
1
 62
3
 10
101.767463563095
 20
58.0763733326361
 30
0
 40
5
  1
12,4
 41
0.9
  0
ENDBLK
  8
0
  0
ENDSEC
  0
SECTION
  2
ENTITIES
  0
LINE
  8
1
 62
7
 10
73.11381862119259
 20
73.4586631980533
 30
0
 11
95.11381862119259
 21
73.4586631980533
 31
0
  0
LINE
  8
1
 62
7
 10
95.11381862119259
 20
73.4586631980533
 30
0
 11
95.11381862119259
 21
265.4586631980533
 31
0
  0
LINE
  8
1
 62
7
 10
73.11381862119259
 20
73.4586631980533
 30
0
 11
73.11381862119259
 21
265.4586631980533
 31
0
  0
LINE
  8
1
 62
7
 10
73.11381862119259
 20
265.4586631980533
 30
0
 11
95.11381862119259
 21
265.4586631980533
 31
0
  0
LINE
  8
1
 62
3
  6
DASHED
 10
93.11381862119259
 20
184.4586631980533
 30
0
 11
93.11381862119259
 21
144.4586631980533
 31
0
  0
LINE
  8
1
 62
2
  6
DIVIDE
 10
86.89381862119259
 20
88.45866319805327
 30
0
 11
78.53381862119261
 21
88.45866319805327
 31
0
  0
LINE
  8
1
 62
2
  6
DIVIDE
 10
82.7138186211926
 20
92.63866319805327
 30
0
 11
82.7138186211926
 21
84.27866319805328
 31
0
  0
LINE
  8
1
 62
2
  6
DIVIDE
 10
86.89381862119259
 20
165.4586631980533
 30
0
 11
78.53381862119261
 21
165.4586631980533
 31
0
  0
LINE
  8
1
 62
2
  6
DIVIDE
 10
82.7138186211926
 20
169.6386631980533
 30
0
 11
82.7138186211926
 21
161.2786631980533
 31
0
  0
LINE
  8
1
 62
2
  6
DIVIDE
 10
86.89381862119259
 20
248.4586631980533
 30
0
 11
78.53381862119261
 21
248.4586631980533
 31
0
  0
LINE
  8
1
 62
2
  6
DIVIDE
 10
82.7138186211926
 20
252.6386631980533
 30
0
 11
82.7138186211926
 21
244.2786631980533
 31
0
  0
LINE
  8
1
 62
7
 10
78.11381862119259
 20
228.4586631980533
 30
0
 11
93.11381862119259
 21
228.4586631980533
 31
0
  0
LINE
  8
1
 62
7
 10
78.11381862119259
 20
184.4586631980533
 30
0
 11
93.11381862119259
 21
184.4586631980533
 31
0
  0
LINE
  8
1
 62
7
 10
78.11381862119259
 20
144.4586631980533
 30
0
 11
93.11381862119259
 21
144.4586631980533
 31
0
  0
LINE
  8
1
 62
7
 10
78.11381862119259
 20
100.4586631980533
 30
0
 11
93.11381862119259
 21
100.4586631980533
 31
0
  0
LINE
  8
1
 62
7
 10
78.11381862119259
 20
100.4586631980533
 30
0
 11
78.11381862119259
 21
144.4586631980533
 31
0
  0
LINE
  8
1
 62
7
 10
78.11381862119259
 20
184.4586631980533
 30
0
 11
78.11381862119259
 21
228.4586631980533
 31
0
  0
LINE
  8
1
 62
7
 10
93.11381862119259
 20
184.4586631980533
 30
0
 11
93.11381862119259
 21
228.4586631980533
 31
0
  0
LINE
  8
1
 62
7
 10
93.11381862119259
 20
144.4586631980533
 30
0
 11
93.11381862119259
 21
100.4586631980533
 31
0
  0
LINE
  8
1
 62
3
  6
DASHED
 10
93.11381862119259
 20
100.4586631980533
 30
0
 11
93.11381862119259
 21
73.4586631980533
 31
0
  0
LINE
  8
1
 62
3
  6
DASHED
 10
93.11381862119259
 20
228.4586631980533
 30
0
 11
93.11381862119259
 21
265.4586631980533
 31
0
  0
LINE
  8
1
 62
7
 10
73.11381862119259
 20
30.5554069835365
 30
0
 11
93.11381862119259
 21
30.5554069835365
 31
0
  0
LINE
  8
1
 62
7
 10
73.11381862119259
 20
32.5554069835365
 30
0
 11
92.61381862119259
 21
32.5554069835365
 31
0
  0
LINE
  8
1
 62
7
 10
93.11381862119259
 20
40.5554069835365
 30
0
 11
95.11381862119259
 21
40.5554069835365
 31
0
  0
LINE
  8
1
 62
7
 10
95.11381862119259
 20
32.5554069835365
 30
0
 11
95.11381862119259
 21
40.5554069835365
 31
0
  0
LINE
  8
1
 62
7
 10
93.11381862119259
 20
33.0554069835365
 30
0
 11
93.11381862119259
 21
40.5554069835365
 31
0
  0
LINE
  8
1
 62
7
 10
73.11381862119259
 20
32.5554069835365
 30
0
 11
73.11381862119259
 21
30.5554069835365
 31
0
  0
LINE
  8
1
 62
2
  6
PHANTOM
 10
82.7138186211926
 20
35.2604909187328
 30
0
 11
82.7138186211926
 21
28.2604909187328
 31
0
  0
LINE
  8
1
 62
3
  6
DASHED
 10
78.11381862119259
 20
32.5554069835365
 30
0
 11
78.11381862119259
 21
30.5554069835365
 31
0
  0
LINE
  8
1
 62
3
  6
DASHED
 10
93.11381862119259
 20
32.8176455135048
 30
0
 11
93.11381862119259
 21
30.5554069835365
 31
0
  0
LINE
  8
1
 62
3
  6
DASHED
 10
78.9138186211926
 20
30.5554069835365
 30
0
 11
80.61381862119261
 21
32.2554069835365
 31
0
  0
LINE
  8
1
 62
3
  6
DASHED
 10
86.5138186211926
 20
30.5554069835365
 30
0
 11
84.8138186211926
 21
32.2554069835365
 31
0
  0
LINE
  8
1
 62
3
  6
DASHED
 10
80.61381862119261
 20
32.2554069835365
 30
0
 11
84.8138186211926
 21
32.2554069835365
 31
0
  0
LINE
  8
1
 62
3
  6
DASHED
 10
84.8138186211926
 20
32.2554069835365
 30
0
 11
84.8138186211926
 21
32.5554069835365
 31
0
  0
LINE
  8
1
 62
3
  6
DASHED
 10
80.61381862119261
 20
32.2554069835365
 30
0
 11
80.61381862119261
 21
32.5554069835365
 31
0
  0
LINE
  8
1
 62
7
 10
6
 20
265.4586631980533
 30
0
 11
16
 21
265.4586631980533
 31
0
  0
LINE
  8
1
 62
7
 10
6
 20
73.4586631980533
 30
0
 11
16
 21
73.45866319805344
 31
0
  0
LINE
  8
1
 62
7
 10
16
 20
265.4586631980533
 30
0
 11
16
 21
73.45866319805344
 31
0
  0
LINE
  8
1
 62
7
 10
6
 20
265.4586631980533
 30
0
 11
6
 21
73.4586631980533
 31
0
  0
LINE
  8
1
 62
3
  6
DASHED
 10
8
 20
265.4586631980533
 30
0
 11
8
 21
73.45866319805333
 31
0
  0
LINE
  8
1
 62
2
  6
PHANTOM
 10
3.900995788579573
 20
248.4586631980533
 30
0
 11
9.900995788579573
 21
248.4586631980533
 31
0
  0
LINE
  8
1
 62
2
  6
PHANTOM
 10
3.900995788579573
 20
165.4586631980533
 30
0
 11
9.900995788579573
 21
165.4586631980533
 31
0
  0
LINE
  8
1
 62
2
  6
PHANTOM
 10
3.900995788579573
 20
88.45866319805327
 30
0
 11
9.900995788579573
 21
88.45866319805327
 31
0
  0
LINE
  8
1
 62
3
  6
DASHED
 10
8
 20
228.4586631980533
 30
0
 11
6
 21
228.4586631980533
 31
0
  0
LINE
  8
1
 62
3
  6
DASHED
 10
6
 20
184.4586631980533
 30
0
 11
8
 21
184.4586631980533
 31
0
  0
LINE
  8
1
 62
3
  6
DASHED
 10
8
 20
144.4586631980533
 30
0
 11
6
 21
144.4586631980533
 31
0
  0
LINE
  8
1
 62
3
  6
DASHED
 10
6
 20
100.4586631980533
 30
0
 11
8
 21
100.4586631980533
 31
0
  0
CIRCLE
  8
1
 62
7
 10
82.7138186211926
 20
248.4586631980533
 30
0
 40
2.099999999999994
  0
CIRCLE
  8
1
 62
7
 10
82.7138186211926
 20
248.4586631980533
 30
0
 40
3.799999999999997
  0
CIRCLE
  8
1
 62
7
 10
82.7138186211926
 20
165.4586631980533
 30
0
 40
3.799999999999997
  0
CIRCLE
  8
1
 62
7
 10
82.7138186211926
 20
165.4586631980533
 30
0
 40
2.099999999999994
  0
CIRCLE
  8
1
 62
7
 10
82.7138186211926
 20
88.45866319805327
 30
0
 40
2.099999999999994
  0
CIRCLE
  8
1
 62
7
 10
82.7138186211926
 20
88.45866319805327
 30
0
 40
3.799999999999997
  0
ARC
  8
1
 62
7
 10
92.61381862119259
 20
33.0554069835365
 30
0
 40
0.5
 50
270
 51
0
  0
ARC
  8
1
 62
7
 10
93.11381862119259
 20
32.5554069835365
 30
0
 40
2
 50
270
 51
0
  0
TEXT
  8
1
 62
7
 10
132.19417471714
 20
90.21092966420301
 30
0
 40
7
  1
B_1206_131
 41
0.9
 72
1
 73
2
 11
163.69417471714
 21
93.71092966420301
 31
0
  0
DIMENSION
  8
1
  6
CONTINUOUS
 62
1
  2
*D0
  3
DMST_1
 10
117.5052018249391
 20
73.4586631980533
 30
0
 11
113.2543713423074
 21
86.59548732658639
 31
0
 12
0
 22
0
 32
0
 70
0
 13
93.11381862119259
 23
100.4586631980533
 33
0
 14
95.11381862119259
 24
73.4586631980533
 34
0
 50
90
 53
0
  0
DIMENSION
  8
1
  6
CONTINUOUS
 62
1
  2
*D1
  3
DMST_1
 10
117.5052018249391
 20
144.4586631980533
 30
0
 11
112.9744801786989
 21
122.701447432086
 31
0
 12
0
 22
0
 32
0
 70
0
 13
93.11381862119259
 23
100.4586631980533
 33
0
 14
93.11381862119259
 24
144.4586631980533
 34
0
 50
90
 53
0
  0
DIMENSION
  8
1
  6
CONTINUOUS
 62
1
  2
*D2
  3
DMST_1
 10
117.5052018249391
 20
144.4586631980533
 30
0
 11
112.6945890150904
 21
164.405230809757
 31
0
 12
0
 22
0
 32
0
 70
0
 13
93.11381862119259
 23
184.4586631980533
 33
0
 14
93.11381862119259
 24
144.4586631980533
 34
0
 50
90
 53
0
  0
DIMENSION
  8
1
  6
CONTINUOUS
 62
1
  2
*D3
  3
DMST_1
 10
117.5052018249391
 20
184.4586631980533
 30
0
 11
113.2543713423074
 21
206.109014187427
 31
0
 12
0
 22
0
 32
0
 70
0
 13
93.11381862119259
 23
228.4586631980533
 33
0
 14
93.11381862119259
 24
184.4586631980533
 34
0
 50
90
 53
0
  0
DIMENSION
  8
1
  6
CONTINUOUS
 62
1
  2
*D4
  3
DMST_1
 10
117.5052018249391
 20
265.4586631980533
 30
0
 11
112.9744801786989
 21
246.973124074272
 31
0
 12
0
 22
0
 32
0
 70
0
 13
93.11381862119259
 23
228.4586631980533
 33
0
 14
95.11381862119259
 24
265.4586631980533
 34
0
 50
90
 53
0
  0
DIMENSION
  8
1
  6
CONTINUOUS
 62
1
  2
*D5
  3
DMST_1
 10
55.8083655173083
 20
265.4586631980533
 30
0
 11
50.8386418576061
 21
257.608988291396
 31
0
 12
0
 22
0
 32
0
 70
0
 13
78.53381862119261
 23
248.4586631980533
 33
0
 14
73.11381862119259
 24
265.4586631980533
 34
0
 50
90
 53
0
  0
DIMENSION
  8
1
  6
CONTINUOUS
 62
1
  2
*D6
  3
DMST_1
 10
55.8083655173083
 20
248.4586631980533
 30
0
 11
51.1185330212146
 21
207.788361169078
 31
0
 12
0
 22
0
 32
0
 70
0
 13
78.53381862119261
 23
165.4586631980533
 33
0
 14
78.53381862119261
 24
248.4586631980533
 34
0
 50
90
 53
0
  0
DIMENSION
  8
1
  6
CONTINUOUS
 62
1
  2
*D7
  3
DMST_1
 10
55.8083655173083
 20
165.4586631980533
 30
0
 11
51.3984241848231
 21
128.019379540648
 31
0
 12
0
 22
0
 32
0
 70
0
 13
78.53381862119261
 23
88.45866319805327
 33
0
 14
78.53381862119261
 24
165.4586631980533
 34
0
 50
90
 53
0
  0
DIMENSION
  8
1
  6
CONTINUOUS
 62
1
  2
*D8
  3
DMST_1
 10
55.8083655173083
 20
73.4586631980533
 30
0
 11
51.1185330212146
 21
80.7177728908074
 31
0
 12
0
 22
0
 32
0
 70
0
 13
78.53381862119261
 23
88.45866319805327
 33
0
 14
73.11381862119259
 24
73.4586631980533
 34
0
 50
90
 53
0
  0
DIMENSION
  8
1
  6
CONTINUOUS
 62
1
  2
*D9
  3
DMST_1
 10
117.5052018249391
 20
30.5554069835365
 30
0
 11
113.2543713423074
 21
35.4895272210865
 31
0
 12
0
 22
0
 32
0
 70
0
 13
95.11381862119259
 23
40.5554069835365
 33
0
 14
93.11381862119259
 24
30.5554069835365
 34
0
 50
90
 53
0
  0
DIMENSION
  8
1
  6
CONTINUOUS
 62
1
  2
*D10
  3
DMST_1
 10
95.11381862119259
 20
13.6045322792626
 30
0
 11
84.4255814906292
 21
17.8563839137494
 31
0
 12
0
 22
0
 32
0
 70
0
 13
73.11381862119259
 23
30.5554069835365
 33
0
 14
95.11381862119259
 24
32.5554069835365
 34
0
 53
0
  0
DIMENSION
  8
1
  6
CONTINUOUS
 62
1
  2
*D11
  3
DMST_1
 10
78.11381862119259
 20
196.553876464412
 30
0
 11
84.98536381784631
 21
200.791082078865
 31
0
 12
0
 22
0
 32
0
 70
0
 13
93.11381862119259
 23
184.4586631980533
 33
0
 14
78.11381862119259
 24
184.4586631980533
 34
0
 53
0
  0
DIMENSION
  8
1
  6
CONTINUOUS
 62
1
  2
*D12
  3
DMST_1
 10
95.11381862119259
 20
196.553876464412
 30
0
 11
102.898398288792
 21
200.791082078865
 31
0
 12
0
 22
0
 32
0
 70
0
 13
93.11381862119259
 23
184.4586631980533
 33
0
 14
95.11381862119259
 24
265.4586631980533
 34
0
 53
0
  0
DIMENSION
  8
1
  6
CONTINUOUS
 62
1
  2
*D13
  3
DMST_1
 10
39.5940836771798
 20
265.4586631980533
 30
0
 11
35.1647366955286
 21
169.723162918319
 31
0
 12
0
 22
0
 32
0
 70
0
 13
73.11381862119259
 23
73.4586631980533
 33
0
 14
73.11381862119259
 24
265.4586631980533
 34
0
 50
90
 53
0
  0
DIMENSION
  8
1
  6
CONTINUOUS
 62
1
  2
*D14
  3
DMST_1
 10
95.11381862119259
 20
55.9596563181297
 30
0
 11
107.892463563095
 21
60.3263733326361
 31
0
 12
0
 22
0
 32
0
 70
0
 13
82.7138186211926
 23
84.27866319805328
 33
0
 14
95.11381862119259
 24
73.4586631980533
 34
0
 53
0
  0
ENDSEC
  0
EOF
