  0
SECTION
  2
HEADER
  9
$ACADVER
  1
AC1027
  9
$ACADMAINTVER
 70
    57
  9
$DWGCODEPAGE
  3
ANSI_1252
  9
$REQUIREDVERSIONS
160
                 0
  9
$INSBASE
 10
0.0
 20
0.0
 30
0.0
  9
$EXTMIN
 10
-19.1280042312818
 20
6.261552894816787
 30
0.0
  9
$EXTMAX
 10
514.513268351313
 20
578.010324674236
 30
0.0
  9
$LIMMIN
 10
0.0
 20
0.0
  9
$LIMMAX
 10
578.1229517856595
 20
678.5245250512062
  9
$ORTHOMODE
 70
     1
  9
$REGENMODE
 70
     1
  9
$FILLMODE
 70
     1
  9
$QTEXTMODE
 70
     0
  9
$MIRRTEXT
 70
     1
  9
$LTSCALE
 40
1.0
  9
$ATTMODE
 70
     1
  9
$TEXTSIZE
 40
15.0
  9
$TRACEWID
 40
0.05
  9
$TEXTSTYLE
  7
STANDARD
  9
$CLAYER
  8
BEMASSUNG
  9
$CELTYPE
  6
BYLAYER
  9
$CECOLOR
 62
   256
  9
$CELTSCALE
 40
1.0
  9
$DISPSILH
 70
     0
  9
$DIMSCALE
 40
1.0
  9
$DIMASZ
 40
4.0
  9
$DIMEXO
 40
0.0
  9
$DIMDLI
 40
8.0
  9
$DIMRND
 40
0.0
  9
$DIMDLE
 40
0.0
  9
$DIMEXE
 40
1.0
  9
$DIMTP
 40
0.0
  9
$DIMTM
 40
0.0
  9
$DIMTXT
 40
4.349999999999999
  9
$DIMCEN
 40
1.5
  9
$DIMTSZ
 40
0.0
  9
$DIMTOL
 70
     0
  9
$DIMLIM
 70
     0
  9
$DIMTIH
 70
     0
  9
$DIMTOH
 70
     0
  9
$DIMSE1
 70
     1
  9
$DIMSE2
 70
     0
  9
$DIMTAD
 70
     1
  9
$DIMZIN
 70
     8
  9
$DIMBLK
  1

  9
$DIMASO
 70
     1
  9
$DIMSHO
 70
     1
  9
$DIMPOST
  1

  9
$DIMAPOST
  1

  9
$DIMALT
 70
     0
  9
$DIMALTD
 70
     2
  9
$DIMALTF
 40
25.39999999999999
  9
$DIMLFAC
 40
1.0
  9
$DIMTOFL
 70
     1
  9
$DIMTVP
 40
0.0
  9
$DIMTIX
 70
     1
  9
$DIMSOXD
 70
     0
  9
$DIMSAH
 70
     1
  9
$DIMBLK1
  1

  9
$DIMBLK2
  1
None
  9
$DIMSTYLE
  2
Katalog 09
  9
$DIMCLRD
 70
     2
  9
$DIMCLRE
 70
     2
  9
$DIMCLRT
 70
     3
  9
$DIMTFAC
 40
0.4285714285714286
  9
$DIMGAP
 40
1.0
  9
$DIMJUST
 70
     0
  9
$DIMSD1
 70
     0
  9
$DIMSD2
 70
     0
  9
$DIMTOLJ
 70
     1
  9
$DIMTZIN
 70
     8
  9
$DIMALTZ
 70
     8
  9
$DIMALTTZ
 70
     8
  9
$DIMUPT
 70
     0
  9
$DIMDEC
 70
     2
  9
$DIMTDEC
 70
     2
  9
$DIMALTU
 70
     2
  9
$DIMALTTD
 70
     2
  9
$DIMTXSTY
  7
ARIAL-STANDARD
  9
$DIMAUNIT
 70
     0
  9
$DIMADEC
 70
     0
  9
$DIMALTRND
 40
0.0
  9
$DIMAZIN
 70
     0
  9
$DIMDSEP
 70
    46
  9
$DIMATFIT
 70
     3
  9
$DIMFRAC
 70
     0
  9
$DIMLDRBLK
  1

  9
$DIMLUNIT
 70
     2
  9
$DIMLWD
 70
    -2
  9
$DIMLWE
 70
    -2
  9
$DIMTMOVE
 70
     0
  9
$DIMFXL
 40
1.0
  9
$DIMFXLON
 70
     0
  9
$DIMJOGANG
 40
0.7853981633974483
  9
$DIMTFILL
 70
     0
  9
$DIMTFILLCLR
 70
     0
  9
$DIMARCSYM
 70
     0
  9
$DIMLTYPE
  6

  9
$DIMLTEX1
  6

  9
$DIMLTEX2
  6

  9
$DIMTXTDIRECTION
 70
     0
  9
$LUNITS
 70
     2
  9
$LUPREC
 70
     4
  9
$SKETCHINC
 40
0.1
  9
$FILLETRAD
 40
0.0
  9
$AUNITS
 70
     0
  9
$AUPREC
 70
     0
  9
$MENU
  1
.
  9
$ELEVATION
 40
0.0
  9
$PELEVATION
 40
0.0
  9
$THICKNESS
 40
0.0
  9
$LIMCHECK
 70
     0
  9
$CHAMFERA
 40
0.5
  9
$CHAMFERB
 40
0.5
  9
$CHAMFERC
 40
1.0
  9
$CHAMFERD
 40
0.0
  9
$SKPOLY
 70
     0
  9
$TDCREATE
 40
2451317.556842628
  9
$TDUCREATE
 40
2451317.515175960
  9
$TDUPDATE
 40
2457234.456548484
  9
$TDUUPDATE
 40
2457234.414881817
  9
$TDINDWG
 40
0.5973660648
  9
$TDUSRTIMER
 40
0.5973660648
  9
$USRTIMER
 70
     1
  9
$ANGBASE
 50
0.0
  9
$ANGDIR
 70
     0
  9
$PDMODE
 70
     0
  9
$PDSIZE
 40
0.0
  9
$PLINEWID
 40
0.0
  9
$SPLFRAME
 70
     0
  9
$SPLINETYPE
 70
     6
  9
$SPLINESEGS
 70
     8
  9
$HANDSEED
  5
33E
  9
$SURFTAB1
 70
     6
  9
$SURFTAB2
 70
     6
  9
$SURFTYPE
 70
     6
  9
$SURFU
 70
     6
  9
$SURFV
 70
     6
  9
$UCSBASE
  2

  9
$UCSNAME
  2

  9
$UCSORG
 10
0.0
 20
0.0
 30
0.0
  9
$UCSXDIR
 10
1.0
 20
0.0
 30
0.0
  9
$UCSYDIR
 10
0.0
 20
1.0
 30
0.0
  9
$UCSORTHOREF
  2

  9
$UCSORTHOVIEW
 70
     0
  9
$UCSORGTOP
 10
0.0
 20
0.0
 30
0.0
  9
$UCSORGBOTTOM
 10
0.0
 20
0.0
 30
0.0
  9
$UCSORGLEFT
 10
0.0
 20
0.0
 30
0.0
  9
$UCSORGRIGHT
 10
0.0
 20
0.0
 30
0.0
  9
$UCSORGFRONT
 10
0.0
 20
0.0
 30
0.0
  9
$UCSORGBACK
 10
0.0
 20
0.0
 30
0.0
  9
$PUCSBASE
  2

  9
$PUCSNAME
  2

  9
$PUCSORG
 10
0.0
 20
0.0
 30
0.0
  9
$PUCSXDIR
 10
1.0
 20
0.0
 30
0.0
  9
$PUCSYDIR
 10
0.0
 20
1.0
 30
0.0
  9
$PUCSORTHOREF
  2

  9
$PUCSORTHOVIEW
 70
     0
  9
$PUCSORGTOP
 10
0.0
 20
0.0
 30
0.0
  9
$PUCSORGBOTTOM
 10
0.0
 20
0.0
 30
0.0
  9
$PUCSORGLEFT
 10
0.0
 20
0.0
 30
0.0
  9
$PUCSORGRIGHT
 10
0.0
 20
0.0
 30
0.0
  9
$PUCSORGFRONT
 10
0.0
 20
0.0
 30
0.0
  9
$PUCSORGBACK
 10
0.0
 20
0.0
 30
0.0
  9
$USERI1
 70
     0
  9
$USERI2
 70
     0
  9
$USERI3
 70
     0
  9
$USERI4
 70
     0
  9
$USERI5
 70
     0
  9
$USERR1
 40
0.0
  9
$USERR2
 40
0.0
  9
$USERR3
 40
0.0
  9
$USERR4
 40
0.0
  9
$USERR5
 40
0.0
  9
$WORLDVIEW
 70
     1
  9
$SHADEDGE
 70
     3
  9
$SHADEDIF
 70
    70
  9
$TILEMODE
 70
     1
  9
$MAXACTVP
 70
    48
  9
$PINSBASE
 10
0.0
 20
0.0
 30
0.0
  9
$PLIMCHECK
 70
     0
  9
$PEXTMIN
 10
1.000000000000000E+20
 20
1.000000000000000E+20
 30
1.000000000000000E+20
  9
$PEXTMAX
 10
-1.000000000000000E+20
 20
-1.000000000000000E+20
 30
-1.000000000000000E+20
  9
$PLIMMIN
 10
0.0
 20
0.0
  9
$PLIMMAX
 10
12.0
 20
9.0
  9
$UNITMODE
 70
     0
  9
$VISRETAIN
 70
     1
  9
$PLINEGEN
 70
     0
  9
$PSLTSCALE
 70
     1
  9
$TREEDEPTH
 70
  3020
  9
$CMLSTYLE
  2
STANDARD
  9
$CMLJUST
 70
     0
  9
$CMLSCALE
 40
1.0
  9
$PROXYGRAPHICS
 70
     1
  9
$MEASUREMENT
 70
     1
  9
$CELWEIGHT
370
    -1
  9
$ENDCAPS
280
     0
  9
$JOINSTYLE
280
     0
  9
$LWDISPLAY
290
     0
  9
$INSUNITS
 70
     0
  9
$HYPERLINKBASE
  1

  9
$STYLESHEET
  1

  9
$XEDIT
290
     1
  9
$CEPSNTYPE
380
     0
  9
$PSTYLEMODE
290
     1
  9
$FINGERPRINTGUID
  2
{30BF2CBE-0392-4F08-B0E6-1F6FEEB7D092}
  9
$VERSIONGUID
  2
{C94EEE92-4A9C-4021-BF5D-BE1FCD6E3139}
  9
$EXTNAMES
290
     1
  9
$PSVPSCALE
 40
0.0
  9
$OLESTARTUP
290
     0
  9
$SORTENTS
280
   127
  9
$INDEXCTL
280
     0
  9
$HIDETEXT
280
     1
  9
$XCLIPFRAME
280
     0
  9
$HALOGAP
280
     0
  9
$OBSCOLOR
 70
   257
  9
$OBSLTYPE
280
     0
  9
$INTERSECTIONDISPLAY
280
     0
  9
$INTERSECTIONCOLOR
 70
   257
  9
$DIMASSOC
280
     1
  9
$PROJECTNAME
  1

  9
$CAMERADISPLAY
290
     0
  9
$LENSLENGTH
 40
50.0
  9
$CAMERAHEIGHT
 40
0.0
  9
$STEPSPERSEC
 40
2.0
  9
$STEPSIZE
 40
6.0
  9
$3DDWFPREC
 40
2.0
  9
$PSOLWIDTH
 40
0.25
  9
$PSOLHEIGHT
 40
4.0
  9
$LOFTANG1
 40
1.570796326794896
  9
$LOFTANG2
 40
1.570796326794896
  9
$LOFTMAG1
 40
0.0
  9
$LOFTMAG2
 40
0.0
  9
$LOFTPARAM
 70
     7
  9
$LOFTNORMALS
280
     1
  9
$LATITUDE
 40
37.795
  9
$LONGITUDE
 40
-122.394
  9
$NORTHDIRECTION
 40
0.0
  9
$TIMEZONE
 70
 -8000
  9
$LIGHTGLYPHDISPLAY
280
     1
  9
$TILEMODELIGHTSYNCH
280
     1
  9
$CMATERIAL
347
44
  9
$SOLIDHIST
280
     1
  9
$SHOWHIST
280
     1
  9
$DWFFRAME
280
     2
  9
$DGNFRAME
280
     0
  9
$REALWORLDSCALE
290
     1
  9
$INTERFERECOLOR
 62
     1
  9
$INTERFEREOBJVS
345
5E
  9
$INTERFEREVPVS
346
5F
  9
$CSHADOW
280
     0
  9
$SHADOWPLANELOCATION
 40
0.0
  0
ENDSEC
  0
SECTION
  2
CLASSES
  0
CLASS
  1
ACDBDICTIONARYWDFLT
  2
AcDbDictionaryWithDefault
  3
ObjectDBX Classes
 90
        0
 91
        1
280
     0
281
     0
  0
CLASS
  1
ACME_DOCUMENT
  2
AcMeDbDoc
  3
AcMeServices
 90
     1024
 91
        0
280
     0
281
     0
  0
CLASS
  1
AMGSETTINGSOBJ
  2
AmgSettingsObj
  3
"AcadM|Product Description: AutoCAD Mechanical|Company: Autodesk, Inc."
 90
     1024
 91
        2
280
     0
281
     0
  0
CLASS
  1
ACMESCOPE
  2
AcMeScope
  3
AcMeServices
 90
     1024
 91
        1
280
     0
281
     0
  0
CLASS
  1
ACMECOMMANDHISTORY
  2
AcMeCommandHistory
  3
AcMeServices
 90
     1024
 91
        0
280
     0
281
     0
  0
CLASS
  1
ACIMSYSVARMAN
  2
AcImSysVarManager
  3
AcMeServices
 90
     1024
 91
        2
280
     0
281
     0
  0
CLASS
  1
ACIMREALSYSVAR
  2
AcImRealSysVar
  3
AcMeServices
 90
     1024
 91
        1
280
     0
281
     0
  0
CLASS
  1
ACIMINTSYSVAR
  2
AcImIntSysVar
  3
AcMeServices
 90
     1024
 91
       26
280
     0
281
     0
  0
CLASS
  1
ACMEDRAWINGMAN
  2
AcMeDrawingMan
  3
AcMeServices
 90
     1024
 91
        0
280
     0
281
     0
  0
CLASS
  1
ACMEVIEW
  2
AcMeView
  3
AcMeServices
 90
     1024
 91
        0
280
     0
281
     0
  0
CLASS
  1
ACDBENTITYCACHE
  2
AcMeEntityCache
  3
AcMeServices
 90
     1024
 91
        0
280
     0
281
     0
  0
CLASS
  1
GSMANAGER
  2
AcMeGSManager
  3
AcMeServices
 90
     1024
 91
        0
280
     1
281
     0
  0
CLASS
  1
AMDTINTERNALREACTOR
  2
AmdtInternalReactor
  3
AcMeServices
 90
     1024
 91
        1
280
     0
281
     0
  0
CLASS
  1
ACMESTATEMGR
  2
AcMeStateMgr
  3
AcMeServices
 90
     1024
 91
        1
280
     0
281
     0
  0
CLASS
  1
ACGREFMASTER
  2
AcGrefMaster
  3
AcAttribServices
 90
     1024
 91
        1
280
     0
281
     0
  0
CLASS
  1
ACME_DATABASE
  2
AcMeDbDatabase
  3
AcMeServices
 90
     1024
 91
        0
280
     0
281
     0
  0
CLASS
  1
ACRFINSADJUSTERMGR
  2
AcRfInsAdjusterMgr
  3
AcMeServices
 90
     1024
 91
        0
280
     0
281
     0
  0
CLASS
  1
ACGREFACADMASTER
  2
AcGrefacadMaster
  3
AcGrefServices
 90
     1024
 91
        0
280
     0
281
     0
  0
CLASS
  1
AMIMASTER
  2
AmiMaster
  3
AmiServices
 90
     1024
 91
        0
280
     0
281
     0
  0
CLASS
  1
ACMDATADICTIONARY
  2
AcmDataDictionary
  3
"AcmSymBB|Product Description: AutoCAD Mechanical|Company: Autodesk, Inc."
 90
     1024
 91
        1
280
     0
281
     0
  0
CLASS
  1
ACMDATAENTRYBLOCK
  2
AcmDataEntryBlock
  3
AcmSymBB|Product Description: AutoCAD Mechanical|Company: Autodesk, Inc.
 90
     1024
 91
        1
280
     0
281
     0
  0
CLASS
  1
ACIMSTRSYSVAR
  2
AcImStrSysVar
  3
AcMeServices
 90
     1024
 91
        1
280
     0
281
     0
  0
CLASS
  1
ACMSTANDARDDIN
  2
AcmStandardDIN
  3
"Amdt_StdImp|Product Description: AutoCAD Mechanical|Company: Autodesk, Inc."
 90
     1024
 91
        1
280
     0
281
     0
  0
CLASS
  1
AMGOBJPROPCFG
  2
AmgObjPropCfg
  3
"AmgLay|Product Description: AutoCAD Mechanical|Company: Autodesk, Inc."
 90
     1024
 91
        1
280
     0
281
     0
  0
CLASS
  1
AMDTEDGESTANDARDDIN
  2
AmdtEdgeStdDIN
  3
"Amdt_StdImp|Product Description: AutoCAD Mechanical|Company: Autodesk, Inc."
 90
     1024
 91
        1
280
     0
281
     0
  0
CLASS
  1
ACMSURFSTANDARDDIN
  2
AcmSurfTextStdDIN
  3
"Amdt_StdImp|Product Description: AutoCAD Mechanical|Company: Autodesk, Inc."
 90
     1024
 91
        1
280
     0
281
     0
  0
CLASS
  1
ACMFCFSTANDARDDIN
  2
AcmFCFStdDIN
  3
"Amdt_StdImp|Product Description: AutoCAD Mechanical|Company: Autodesk, Inc."
 90
     1024
 91
        1
280
     0
281
     0
  0
CLASS
  1
ACMWELDSTANDARDDIN
  2
AcmWeldingStdDIN
  3
"Amdt_StdImp|Product Description: AutoCAD Mechanical|Company: Autodesk, Inc."
 90
     1024
 91
        1
280
     0
281
     0
  0
CLASS
  1
ACMIDSTANDARDDIN
  2
AcmIdStdDIN
  3
"Amdt_StdImp|Product Description: AutoCAD Mechanical|Company: Autodesk, Inc."
 90
     1024
 91
        1
280
     0
281
     0
  0
CLASS
  1
ACMDATUMSTANDARDDIN
  2
AcmDatumStdDIN
  3
"Amdt_StdImp|Product Description: AutoCAD Mechanical|Company: Autodesk, Inc."
 90
     1024
 91
        1
280
     0
281
     0
  0
CLASS
  1
ACMBOMSTANDARDDIN
  2
AcmBOMStdDIN
  3
"Amdt_StdImp|Product Description: AutoCAD Mechanical|Company: Autodesk, Inc."
 90
     1024
 91
        1
280
     0
281
     0
  0
CLASS
  1
ACMDETAILSTANDARDDIN
  2
AmdtDetailSymStdDIN
  3
"Amdt_StdImp|Product Description: AutoCAD Mechanical|Company: Autodesk, Inc."
 90
     1024
 91
        1
280
     0
281
     0
  0
CLASS
  1
ACMSECTIONSTANDARDDIN
  2
AmdtSectionSymStdDIN
  3
"Amdt_StdImp|Product Description: AutoCAD Mechanical|Company: Autodesk, Inc."
 90
     1024
 91
        1
280
     0
281
     0
  0
CLASS
  1
ACMCENTERLINESTANDARDDIN
  2
AmdtCenterLineStdDIN
  3
"Amdt_StdImp|Product Description: AutoCAD Mechanical|Company: Autodesk, Inc."
 90
     1024
 91
        1
280
     0
281
     0
  0
CLASS
  1
ACMNOTESTANDARDDIN
  2
AmdtNoteStdDIN
  3
"Amdt_StdImp|Product Description: AutoCAD Mechanical|Company: Autodesk, Inc."
 90
     1024
 91
        1
280
     0
281
     0
  0
CLASS
  1
ACAMGLAYSTD
  2
AcAmgLayStd
  3
"AmgLay|Product Description: AutoCAD Mechanical|Company: Autodesk, Inc."
 90
     1024
 91
        1
280
     0
281
     0
  0
CLASS
  1
ACAMGDIMSTD
  2
AcAmgDimStd
  3
"AmgDim|Product Description: AutoCAD Mechanical|Company: Autodesk, Inc."
 90
     1024
 91
        1
280
     0
281
     0
  0
CLASS
  1
ACAMGHOLECHARTSTDDIN
  2
AcAmgHoleChartStdDIN
  3
AmgDim|Product Description: AutoCAD Mechanical|Company: Autodesk, Inc.
 90
     1024
 91
        1
280
     0
281
     0
  0
CLASS
  1
ACAMGTITLESTD
  2
AcAmgTitleStd
  3
"AmgTitle|Product Description: AutoCAD Mechanical|Company: Autodesk, Inc."
 90
     1024
 91
        1
280
     0
281
     0
  0
CLASS
  1
ACAMGFILTERDAT
  2
AcAmgFilterDat
  3
"AcadM|Product Description: AutoCAD Mechanical|Company: Autodesk, Inc."
 90
     1024
 91
        0
280
     0
281
     0
  0
CLASS
  1
LAYER_INDEX
  2
AcDbLayerIndex
  3
ObjectDBX Classes
 90
        0
 91
        0
280
     0
281
     0
  0
CLASS
  1
IDBUFFER
  2
AcDbIdBuffer
  3
ObjectDBX Classes
 90
        0
 91
        0
280
     0
281
     0
  0
CLASS
  1
DICTIONARYVAR
  2
AcDbDictionaryVar
  3
ObjectDBX Classes
 90
        0
 91
        9
280
     0
281
     0
  0
CLASS
  1
TABLESTYLE
  2
AcDbTableStyle
  3
ObjectDBX Classes
 90
     4095
 91
        1
280
     0
281
     0
  0
CLASS
  1
AM_DRAWING_MGR
  2
AcDmDwgMgr
  3
AcMechDwgViewMgmt
 90
     1024
 91
        1
280
     0
281
     0
  0
CLASS
  1
AM_DWG_DOCUMENT
  2
AcDmDwgDocument
  3
AcMechDwgViewMgmt
 90
     1024
 91
        1
280
     0
281
     0
  0
CLASS
  1
AM_DWG_SHEET
  2
AcDmSheet
  3
AcMechDwgViewMgmt
 90
     1024
 91
        1
280
     0
281
     0
  0
CLASS
  1
AM_VIEWDIMPARMAP
  2
AcDmViewDimParMap
  3
AcMechDwgViewMgmt
 90
     1024
 91
        1
280
     0
281
     0
  0
CLASS
  1
AM_DWGMGR_NAME
  2
AcDmDwgMgrName
  3
AcMechDwgViewMgmt
 90
     1024
 91
        1
280
     0
281
     0
  0
CLASS
  1
AMDTMENUSTATEMGR
  2
AmdtMenuStateMgr
  3
McadcomServices
 90
     1024
 91
        0
280
     0
281
     0
  0
CLASS
  1
AMDTMCOMMENUSTATE
  2
AmdtMcomMenuState
  3
McadcomServices
 90
     1024
 91
        0
280
     0
281
     0
  0
CLASS
  1
MAPIAMMOUDLE
  2
MApiAmModule
  3
MApiAmServices
 90
     1024
 91
        0
280
     0
281
     0
  0
CLASS
  1
AMDTADMENUSTATE
  2
AmdtAdMenuState
  3
DesignerServices
 90
     1024
 91
        0
280
     1
281
     0
  0
CLASS
  1
ADAPPL
  2
AcAdAppl
  3
DesignerAssemblies
 90
     1024
 91
        0
280
     0
281
     0
  0
CLASS
  1
DEPMGR
  2
AcAdDepMgr
  3
DesignerAssemblies
 90
     1024
 91
        0
280
     0
281
     0
  0
CLASS
  1
PARAMMGR
  2
AcAdParamMgr
  3
DesignerAssemblies
 90
     1024
 91
        0
280
     0
281
     0
  0
CLASS
  1
PARAMSCOPE
  2
AcAdParamScope
  3
DesignerAssemblies
 90
     1024
 91
        0
280
     0
281
     0
  0
CLASS
  1
NAMEDAPPL
  2
AcAdNamedAppl
  3
DesignerAssemblies
 90
     1024
 91
        0
280
     0
281
     0
  0
CLASS
  1
AMDTDMMENUSTATE
  2
AmdtDmMenuState
  3
AcMechDwgViewMgmt
 90
     1024
 91
        0
280
     1
281
     0
  0
CLASS
  1
AMDTAMMENUSTATE
  2
AmdtAmMenuState
  3
DesignerAssemblies
 90
     1024
 91
        0
280
     0
281
     0
  0
CLASS
  1
ACAMPROJECT
  2
AcAmProject
  3
DesignerAssemblies
 90
     1024
 91
        0
280
     0
281
     0
  0
CLASS
  1
ACAMGRCOMPDEF
  2
AcAmGrCompDef
  3
DesignerAssemblies
 90
     1024
 91
        0
280
     0
281
     0
  0
CLASS
  1
ACCMCONTEXT
  2
AcCmContext
  3
DesignerAssemblies
 90
     1024
 91
        0
280
     0
281
     0
  0
CLASS
  1
ACAMCOMPDEF
  2
AcAmCompDef
  3
DesignerAssemblies
 90
     1024
 91
        0
280
     0
281
     0
  0
CLASS
  1
ACAMCOMPDEFMGR
  2
AcAmCompDefMgr
  3
DesignerAssemblies
 90
     1024
 91
        0
280
     0
281
     0
  0
CLASS
  1
AMCONTEXTMGR
  2
AcAmContextMgr
  3
DesignerAssemblies
 90
     1024
 91
        0
280
     0
281
     0
  0
CLASS
  1
ACAMCONTEXTMODELER
  2
AcAmContextModeler
  3
DesignerAssemblies
 90
     1024
 91
        0
280
     0
281
     0
  0
CLASS
  1
ACRFATTGENMGR
  2
AcRfAttGeneralMgr
  3
AcAttribServices
 90
     1024
 91
        0
280
     0
281
     0
  0
CLASS
  1
ACRFOBJATTMGR
  2
AcRfObjAttGroupMgr
  3
AcAttribServices
 90
     1024
 91
        0
280
     0
281
     0
  0
CLASS
  1
ACRFMCADAPIATTHOLDER
  2
AcRfMCADAPIAttHolder
  3
AcAttribServices
 90
     1024
 91
        0
280
     0
281
     0
  0
CLASS
  1
AMDTSYSATTR
  2
AmdtSystemAttribute
  3
AcAttribServices
 90
     1024
 91
        0
280
     0
281
     0
  0
CLASS
  1
ACMTHREADLINESTANDARDDIN
  2
AmdtThreadLineStdDIN
  3
"Amdt_StdImp|Product Description: AutoCAD Mechanical|Company: Autodesk, Inc."
 90
     1024
 91
        1
280
     0
281
     0
  0
CLASS
  1
CATALOGSTATE
  2
AcAmCatalogState
  3
DesignerAssemblies
 90
     1024
 91
        0
280
     0
281
     0
  0
CLASS
  1
ACAMGRCOMPDEFSET
  2
AcAmGrCompDefSet
  3
DesignerAssemblies
 90
     1024
 91
        0
280
     0
281
     0
  0
CLASS
  1
AMDTBROWSERDBTAB
  2
AmdtBrowserDbTab
  3
McadcomServices
 90
     1024
 91
        0
280
     0
281
     0
  0
CLASS
  1
CBROWSERAPPOBJECT
  2
CBrowserAppObject
  3
McadcomServices
 90
     1024
 91
        0
280
     0
281
     0
  0
CLASS
  1
DM_PLACEHOLDER
  2
AcDmSelsetPlaceholder
  3
McadcomServices
 90
     1024
 91
        0
280
     0
281
     0
  0
CLASS
  1
MATERIAL
  2
AcDbMaterial
  3
ObjectDBX Classes
 90
     1153
 91
        3
280
     0
281
     0
  0
CLASS
  1
VISUALSTYLE
  2
AcDbVisualStyle
  3
ObjectDBX Classes
 90
     4095
 91
        3
280
     0
281
     0
  0
CLASS
  1
SCALE
  2
AcDbScale
  3
ObjectDBX Classes
 90
     1153
 91
       17
280
     0
281
     0
  0
CLASS
  1
MLEADERSTYLE
  2
AcDbMLeaderStyle
  3
ACDB_MLEADERSTYLE_CLASS
 90
     4095
 91
        0
280
     0
281
     0
  0
CLASS
  1
ACMTAPERSTANDARDDIN
  2
AcmTaperStdDIN
  3
"Amdt_StdImp|Product Description: AutoCAD Mechanical|Company: Autodesk, Inc."
 90
     1024
 91
        1
280
     0
281
     0
  0
CLASS
  1
ACMANOOTATIONVIEWSTANDARDDIN
  2
AmdtAnViewStdDIN
  3
"Amdt_StdImp|Product Description: AutoCAD Mechanical|Company: Autodesk, Inc."
 90
     1024
 91
        1
280
     0
281
     0
  0
CLASS
  1
CAMSSTRUCTBTNSTATE
  2
StructBtnState
  3
DesignerAssemblies
 90
     1024
 91
        0
280
     0
281
     0
  0
CLASS
  1
CELLSTYLEMAP
  2
AcDbCellStyleMap
  3
ObjectDBX Classes
 90
     1152
 91
        1
280
     0
281
     0
  0
CLASS
  1
PLOTSETTINGS
  2
AcDbPlotSettings
  3
ObjectDBX Classes
 90
        0
 91
        0
280
     0
281
     0
  0
CLASS
  1
SORTENTSTABLE
  2
AcDbSortentsTable
  3
ObjectDBX Classes
 90
        0
 91
        2
280
     0
281
     0
  0
CLASS
  1
ACDBSECTIONVIEWSTYLE
  2
AcDbSectionViewStyle
  3
ObjectDBX Classes
 90
     1025
 91
        2
280
     0
281
     0
  0
CLASS
  1
ACDBDETAILVIEWSTYLE
  2
AcDbDetailViewStyle
  3
ObjectDBX Classes
 90
     1025
 91
        2
280
     0
281
     0
  0
CLASS
  1
ACMSECTIONSTANDARDCUSTOM
  2
AmdtSectionSymStdCustom
  3
"Amdt_StdImp|Product Description: AutoCAD Mechanical|Company: Autodesk, Inc."
 90
     1024
 91
        1
280
     0
281
     0
  0
CLASS
  1
ACMDETAILTANDARDCUSTOM
  2
AmdtDetailSymStdCustom
  3
"Amdt_StdImp|Product Description: AutoCAD Mechanical|Company: Autodesk, Inc."
 90
     1024
 91
        1
280
     0
281
     0
  0
CLASS
  1
FIELD
  2
AcDbField
  3
ObjectDBX Classes
 90
     1152
 91
        6
280
     0
281
     0
  0
CLASS
  1
FIELDLIST
  2
AcDbFieldList
  3
ObjectDBX Classes
 90
     1152
 91
        1
280
     0
281
     0
  0
ENDSEC
  0
SECTION
  2
TABLES
  0
TABLE
  2
VPORT
  5
2D
330
0
100
AcDbSymbolTable
 70
     1
  0
VPORT
  5
2E
330
2D
100
AcDbSymbolTableRecord
100
AcDbViewportTableRecord
  2
*Active
 70
     0
 10
0.0
 20
0.0
 11
1.0
 21
1.0
 12
194.4724372639625
 22
406.1806259493659
 13
0.0
 23
0.0
 14
10.0
 24
10.0
 15
10.0
 25
10.0
 16
0.0
 26
0.0
 36
1.0
 17
0.0
 27
0.0
 37
0.0
 40
1267.527290098029
 41
2.179646017699115
 42
50.0
 43
0.0
 44
0.0
 50
0.0
 51
0.0
 71
     0
 72
  5000
 73
     1
 74
     0
 75
     0
 76
     0
 77
     0
 78
     0
281
     0
 65
     1
110
0.0
120
0.0
130
0.0
111
1.0
121
0.0
131
0.0
112
0.0
122
1.0
132
0.0
 79
     0
146
0.0
348
2F
 60
     3
 61
     5
292
     1
282
     1
141
0.0
142
0.0
 63
   250
421
  3355443
1001
ACAD_NAV_VCDISPLAY
1070
     3
  0
ENDTAB
  0
TABLE
  2
LTYPE
  5
28
330
0
100
AcDbSymbolTable
 70
    14
  0
LTYPE
  5
29
330
28
100
AcDbSymbolTableRecord
100
AcDbLinetypeTableRecord
  2
BYBLOCK
 70
     0
  3

 72
    65
 73
     0
 40
0.0
  0
LTYPE
  5
2A
330
28
100
AcDbSymbolTableRecord
100
AcDbLinetypeTableRecord
  2
BYLAYER
 70
     0
  3

 72
    65
 73
     0
 40
0.0
  0
LTYPE
  5
15
330
28
100
AcDbSymbolTableRecord
100
AcDbLinetypeTableRecord
  2
CONTINUOUS
 70
     0
  3
Solid line
 72
    65
 73
     0
 40
0.0
  0
LTYPE
  5
9F
330
28
100
AcDbSymbolTableRecord
100
AcDbLinetypeTableRecord
  2
STRICHPUNKT
 70
     0
  3
Strichpunkt __ . __ . __ . __ . __ . __ . __ . 
 72
    65
 73
     4
 40
25.4
 49
12.7
 74
     0
 49
-6.349999999999999
 74
     0
 49
0.0
 74
     0
 49
-6.349999999999999
 74
     0
  0
LTYPE
  5
87
330
28
100
AcDbSymbolTableRecord
100
AcDbLinetypeTableRecord
  2
STRICHPUNKT2
 70
     0
  3
Strichpunkt (.5x) _._._._._._._._._._._._._._._
 72
    65
 73
     4
 40
12.7
 49
6.349999999999999
 74
     0
 49
-3.174999999999999
 74
     0
 49
0.0
 74
     0
 49
-3.174999999999999
 74
     0
  0
LTYPE
  5
2C6
330
28
100
AcDbSymbolTableRecord
100
AcDbLinetypeTableRecord
  2
AM_ISO02W050
 70
     0
  3
__ __ __ __ __ __ __ __ __ __ __ __ __ __ __
 72
    65
 73
     2
 40
7.5
 49
6.0
 74
     0
 49
-1.5
 74
     0
  0
LTYPE
  5
2D8
330
28
100
AcDbSymbolTableRecord
100
AcDbLinetypeTableRecord
  2
ACDINWELD
 70
     0
  3
_ _ _ _ _
 72
    65
 73
     2
 40
2.0
 49
2.0
 74
     0
 49
-1.0
 74
     0
  0
LTYPE
  5
2DB
330
28
100
AcDbSymbolTableRecord
100
AcDbLinetypeTableRecord
  2
ACDINTGB
 70
     0
  3
__ . . __ . .
 72
    65
 73
     6
 40
9.0
 49
4.0
 74
     0
 49
-1.0
 74
     0
 49
1.0
 74
     0
 49
-1.0
 74
     0
 49
1.0
 74
     0
 49
-1.0
 74
     0
  0
LTYPE
  5
2DC
330
28
100
AcDbSymbolTableRecord
100
AcDbLinetypeTableRecord
  2
ACDINTGL
 70
     0
  3
_ _ _ _ _
 72
    65
 73
     2
 40
3.0
 49
2.0
 74
     0
 49
-1.0
 74
     0
  0
LTYPE
  5
2F5
330
28
100
AcDbSymbolTableRecord
100
AcDbLinetypeTableRecord
  2
CENTER
 70
     0
  3
__ . __
 72
    65
 73
     4
 40
7.0
 49
4.0
 74
     0
 49
-1.0
 74
     0
 49
1.0
 74
     0
 49
-1.0
 74
     0
  0
LTYPE
  5
2C1
330
28
100
AcDbSymbolTableRecord
100
AcDbLinetypeTableRecord
  2
gen3
 70
     0
  3
-- -- -- -- -- -- -- -- -- -- -- -- -- -- --
 72
    65
 73
     2
 40
6.25
 49
4.75
 74
     0
 49
-1.5
 74
     0
  0
LTYPE
  5
2C2
330
28
100
AcDbSymbolTableRecord
100
AcDbLinetypeTableRecord
  2
gen7
 70
     0
  3
____ . ____ . ____ . ____ . ____ . ____ . ____
 72
    65
 73
     4
 40
13.75
 49
9.75
 74
     0
 49
-1.5
 74
     0
 49
1.0
 74
     0
 49
-1.5
 74
     0
  0
LTYPE
  5
2C3
330
28
100
AcDbSymbolTableRecord
100
AcDbLinetypeTableRecord
  2
gen3a
 70
     0
  3
 - - - - -
 72
    65
 73
     2
 40
3.125
 49
2.25
 74
     0
 49
-0.875
 74
     0
  0
LTYPE
  5
2C4
330
28
100
AcDbSymbolTableRecord
100
AcDbLinetypeTableRecord
  2
gen7a
 70
     0
  3
__ . __ . __
 72
    65
 73
     4
 40
6.875
 49
4.75
 74
     0
 49
-0.875
 74
     0
 49
0.375
 74
     0
 49
-0.875
 74
     0
  0
LTYPE
  5
2C5
330
28
100
AcDbSymbolTableRecord
100
AcDbLinetypeTableRecord
  2
gen4a
 70
     0
  3
_____ . . _____ . . _____ . . ____ .. ____
 72
    65
 73
     6
 40
16.25
 49
9.75
 74
     0
 49
-1.5
 74
     0
 49
1.0
 74
     0
 49
-1.5
 74
     0
 49
1.0
 74
     0
 49
-1.5
 74
     0
  0
LTYPE
  5
2C7
330
28
100
AcDbSymbolTableRecord
100
AcDbLinetypeTableRecord
  2
genzigzag
 70
     0
  3
/\/-/\/-/\/-/\/-/\/-/\/
 72
    65
 73
     2
 40
12.0001
 49
0.0001
 74
     4
 75
   135
340
2C8
 46
2.0
 50
0.0
 44
0.0
 45
0.0
 49
-12.0
 74
     0
  0
ENDTAB
  0
TABLE
  2
LAYER
  5
1F
102
{ACAD_XDICTIONARY
360
20
102
}
330
0
100
AcDbSymbolTable
 70
    10
  0
LAYER
  5
6
102
{ACAD_XDICTIONARY
360
7
102
}
330
1F
100
AcDbSymbolTableRecord
100
AcDbLayerTableRecord
  2
0
 70
     0
 62
     7
  6
CONTINUOUS
370
    -3
390
9
347
C
348
0
  0
LAYER
  5
234
102
{ACAD_XDICTIONARY
360
235
102
}
330
1F
100
AcDbSymbolTableRecord
100
AcDbLayerTableRecord
  2
UMRISS03
 70
     0
 62
     3
  6
CONTINUOUS
370
    -3
390
9
347
C
348
0
  0
LAYER
  5
8A
102
{ACAD_XDICTIONARY
360
8B
102
}
330
1F
100
AcDbSymbolTableRecord
100
AcDbLayerTableRecord
  2
UMRISS05
 70
     0
 62
     4
  6
CONTINUOUS
370
    -3
390
9
347
C
348
0
  0
LAYER
  5
58
102
{ACAD_XDICTIONARY
360
59
102
}
330
1F
100
AcDbSymbolTableRecord
100
AcDbLayerTableRecord
  2
BEMASSUNG
 70
     0
 62
     2
  6
CONTINUOUS
370
    -3
390
9
347
C
348
0
  0
LAYER
  5
84
102
{ACAD_XDICTIONARY
360
85
102
}
330
1F
100
AcDbSymbolTableRecord
100
AcDbLayerTableRecord
  2
ACHSEN
 70
     0
 62
     1
  6
STRICHPUNKT2
370
    -3
390
9
347
C
348
0
  0
LAYER
  5
7E
330
1F
100
AcDbSymbolTableRecord
100
AcDbLayerTableRecord
  2
DEFPOINTS
 70
     0
 62
     7
  6
CONTINUOUS
290
     0
370
    -3
390
9
347
C
348
0
  0
LAYER
  5
9C
102
{ACAD_XDICTIONARY
360
9D
102
}
330
1F
100
AcDbSymbolTableRecord
100
AcDbLayerTableRecord
  2
5
 70
     0
 62
     1
  6
STRICHPUNKT
370
    -3
390
9
347
C
348
0
  0
LAYER
  5
162
102
{ACAD_XDICTIONARY
360
163
102
}
330
1F
100
AcDbSymbolTableRecord
100
AcDbLayerTableRecord
  2
6
 70
     0
 62
     7
  6
CONTINUOUS
370
    -3
390
9
347
C
348
0
  0
LAYER
  5
72
102
{ACAD_XDICTIONARY
360
73
102
}
330
1F
100
AcDbSymbolTableRecord
100
AcDbLayerTableRecord
  2
BEMASSUNG-DEUTSCH
 70
     0
 62
     3
  6
CONTINUOUS
370
    -3
390
9
347
C
348
0
  0
LAYER
  5
A3
102
{ACAD_XDICTIONARY
360
A4
102
}
330
1F
100
AcDbSymbolTableRecord
100
AcDbLayerTableRecord
  2
LAYER3
 70
     0
 62
     4
  6
CONTINUOUS
370
    -3
390
9
347
C
348
0
  0
ENDTAB
  0
TABLE
  2
STYLE
  5
25
330
0
100
AcDbSymbolTable
 70
     6
  0
STYLE
  5
26
330
25
100
AcDbSymbolTableRecord
100
AcDbTextStyleTableRecord
  2
STANDARD
 70
     0
 40
0.0
 41
1.0
 50
0.0
 71
     0
 42
15.0
  3
txt
  4

  0
STYLE
  5
35
330
25
100
AcDbSymbolTableRecord
100
AcDbTextStyleTableRecord
  2
ARIAL-STANDARD
 70
     0
 40
0.0
 41
1.0
 50
0.0
 71
     0
 42
10.0
  3
arial.ttf
  4

1001
ACAD
1000
Arial
1071
       34
  0
STYLE
  5
3E
330
25
100
AcDbSymbolTableRecord
100
AcDbTextStyleTableRecord
  2
NORM
 70
     0
 40
0.0
 41
1.0
 50
0.0
 71
     0
 42
2.399999999999999
  3
SIMPLEX
  4

  0
STYLE
  5
303
330
25
100
AcDbSymbolTableRecord
100
AcDbTextStyleTableRecord
  2
ACDINTS
 70
     0
 40
1.0
 41
1.0
 50
0.0
 71
     0
 42
10.0
  3
isocp.shx
  4

  0
STYLE
  5
2D6
330
25
100
AcDbSymbolTableRecord
100
AcDbTextStyleTableRecord
  2
ACDINGDT
 70
     0
 40
0.0
 41
1.0
 50
0.0
 71
     0
 42
10.0
  3
amgdt.shx
  4

  0
STYLE
  5
2C8
330
25
100
AcDbSymbolTableRecord
100
AcDbTextStyleTableRecord
  2

 70
     1
 40
0.0
 41
1.0
 50
0.0
 71
     0
 42
10.0
  3
genltshp.shx
  4

  0
ENDTAB
  0
TABLE
  2
VIEW
  5
2B
330
0
100
AcDbSymbolTable
 70
     0
  0
ENDTAB
  0
TABLE
  2
UCS
  5
2C
330
0
100
AcDbSymbolTable
 70
     0
  0
ENDTAB
  0
TABLE
  2
APPID
  5
32
330
0
100
AcDbSymbolTable
 70
    12
  0
APPID
  5
24
330
32
100
AcDbSymbolTableRecord
100
AcDbRegAppTableRecord
  2
ACAD
 70
     0
  0
APPID
  5
1A
330
32
100
AcDbSymbolTableRecord
100
AcDbRegAppTableRecord
  2
ACAD_PSEXT
 70
     0
  0
APPID
  5
82
330
32
100
AcDbSymbolTableRecord
100
AcDbRegAppTableRecord
  2
ACAD_DSTYLE_DIMINSPECT
 70
     0
  0
APPID
  5
3A
330
32
100
AcDbSymbolTableRecord
100
AcDbRegAppTableRecord
  2
ACAD_DSTYLE_DIMJAG
 70
     0
  0
APPID
  5
39
330
32
100
AcDbSymbolTableRecord
100
AcDbRegAppTableRecord
  2
ACAD_DSTYLE_DIMBREAK
 70
     0
  0
APPID
  5
3B
330
32
100
AcDbSymbolTableRecord
100
AcDbRegAppTableRecord
  2
ACAD_DSTYLE_DIMTALN
 70
     0
  0
APPID
  5
31
330
32
100
AcDbSymbolTableRecord
100
AcDbRegAppTableRecord
  2
ACAD_NAV_VCDISPLAY
 70
     0
  0
APPID
  5
307
330
32
100
AcDbSymbolTableRecord
100
AcDbRegAppTableRecord
  2
AD_DRAW
 70
     0
  0
APPID
  5
308
330
32
100
AcDbSymbolTableRecord
100
AcDbRegAppTableRecord
  2
MCAD_NO_VIS
 70
     0
  0
APPID
  5
309
330
32
100
AcDbSymbolTableRecord
100
AcDbRegAppTableRecord
  2
ACADM_DIM_EDIT
 70
     0
  0
APPID
  5
30A
330
32
100
AcDbSymbolTableRecord
100
AcDbRegAppTableRecord
  2
AMDT_DM_ADJ
 70
     0
  0
APPID
  5
32C
330
32
100
AcDbSymbolTableRecord
100
AcDbRegAppTableRecord
  2
ACATTRIBSERVICES
 70
     0
  0
ENDTAB
  0
TABLE
  2
DIMSTYLE
  5
33
330
0
100
AcDbSymbolTable
 70
     5
100
AcDbDimStyleTable
 71
     4
340
34
340
3C
340
3D
340
3F
  0
DIMSTYLE
105
3F
330
33
100
AcDbSymbolTableRecord
100
AcDbDimStyleTableRecord
  2
PROSPEKT
 70
     0
 40
1.5
 41
3.5
 42
0.5
 43
8.0
 44
1.3
 73
     0
 74
     0
 77
     1
 78
     8
140
3.5
141
1.5
143
25.39999999999999
146
0.5
147
1.0
172
     1
174
     1
176
     2
177
     2
178
     3
271
     2
272
     2
279
     2
284
     8
285
     8
286
     8
340
3E
  0
DIMSTYLE
105
3D
330
33
100
AcDbSymbolTableRecord
100
AcDbDimStyleTableRecord
  2
EPS
 70
     0
 40
1.7
 41
3.5
 42
0.5
 43
8.0
 44
0.5
 73
     0
 74
     0
 77
     1
 78
     8
140
3.5
141
1.5
143
25.39999999999999
146
0.5
147
1.0
172
     1
174
     1
176
     2
177
     2
178
     3
271
     2
272
     2
279
     2
284
     8
285
     8
286
     8
340
3E
  0
DIMSTYLE
105
2FD
330
33
100
AcDbSymbolTableRecord
100
AcDbDimStyleTableRecord
  2
EPS$0
 70
     0
 40
1.7
 41
3.5
 42
0.5
 43
8.0
 44
0.5
 73
     0
 74
     0
 77
     1
 78
     8
140
3.5
141
1.5
143
25.39999999999999
146
0.5
147
1.0
172
     1
174
     1
176
     2
177
     2
178
     3
271
     2
272
     2
279
     2
284
     8
285
     8
286
     8
340
3E
  0
DIMSTYLE
105
3C
330
33
100
AcDbSymbolTableRecord
100
AcDbDimStyleTableRecord
  2
NORMAL
 70
     0
 41
3.5
 42
0.0
 43
8.0
 44
0.5
 73
     0
 74
     0
 77
     1
 78
     8
140
3.5
141
1.5
146
0.5
147
1.0
172
     1
173
     1
174
     1
176
   256
177
   256
178
     3
271
     2
272
     2
284
     8
340
35
344
36
1001
ACAD_DSTYLE_DIMJAG
1070
   388
1040
1.5
1001
ACAD_DSTYLE_DIMTALN
1070
   392
1070
     0
  0
DIMSTYLE
105
34
102
{ACAD_REACTORS
330
24F
330
25C
330
238
330
1EB
330
1DE
330
1C4
330
132
330
125
330
1F8
330
1D1
330
18E
330
181
330
167
330
174
330
19B
330
27F
330
D4
330
E1
330
EF
330
71
330
B0
330
C3
330
28C
330
272
330
214
330
207
330
2A8
330
112
330
29B
330
FE
330
8E
102
}
330
33
100
AcDbSymbolTableRecord
100
AcDbDimStyleTableRecord
  2
Katalog 09
 70
     0
 41
4.0
 42
0.0
 43
8.0
 44
1.0
 73
     0
 74
     0
 75
     1
 77
     1
 78
     8
140
4.349999999999999
141
1.5
143
25.39999999999999
146
0.4285714285714286
147
1.0
172
     1
173
     1
174
     1
176
     2
177
     2
178
     3
271
     2
272
     2
284
     8
285
     8
286
     8
340
35
343
36
1001
ACAD_DSTYLE_DIMBREAK
1070
   391
1040
3.75
1001
ACAD_DSTYLE_DIMJAG
1070
   388
1040
1.5
1001
ACAD_DSTYLE_DIMTALN
1070
   392
1070
     0
  0
ENDTAB
  0
TABLE
  2
BLOCK_RECORD
  5
1
330
0
100
AcDbSymbolTable
 70
    33
  0
BLOCK_RECORD
  5
2
102
{ACAD_XDICTIONARY
360
3
102
}
330
1
100
AcDbSymbolTableRecord
100
AcDbBlockTableRecord
  2
*MODEL_SPACE
340
17
 70
     0
280
     1
281
     0
  0
BLOCK_RECORD
  5
1B
330
1
100
AcDbSymbolTableRecord
100
AcDbBlockTableRecord
  2
*PAPER_SPACE
340
1E
 70
     0
280
     1
281
     0
  0
BLOCK_RECORD
  5
2A9
330
1
100
AcDbSymbolTableRecord
100
AcDbBlockTableRecord
  2
*D0
340
0
 70
     0
280
     1
281
     0
  0
BLOCK_RECORD
  5
29C
330
1
100
AcDbSymbolTableRecord
100
AcDbBlockTableRecord
  2
*D1
340
0
 70
     0
280
     1
281
     0
  0
BLOCK_RECORD
  5
28D
330
1
100
AcDbSymbolTableRecord
100
AcDbBlockTableRecord
  2
*D2
340
0
 70
     0
280
     1
281
     0
  0
BLOCK_RECORD
  5
280
330
1
100
AcDbSymbolTableRecord
100
AcDbBlockTableRecord
  2
*D3
340
0
 70
     0
280
     1
281
     0
  0
BLOCK_RECORD
  5
273
330
1
100
AcDbSymbolTableRecord
100
AcDbBlockTableRecord
  2
*D4
340
0
 70
     0
280
     1
281
     0
  0
BLOCK_RECORD
  5
25D
330
1
100
AcDbSymbolTableRecord
100
AcDbBlockTableRecord
  2
*D5
340
0
 70
     0
280
     1
281
     0
  0
BLOCK_RECORD
  5
250
330
1
100
AcDbSymbolTableRecord
100
AcDbBlockTableRecord
  2
*D6
340
0
 70
     0
280
     1
281
     0
  0
BLOCK_RECORD
  5
239
330
1
100
AcDbSymbolTableRecord
100
AcDbBlockTableRecord
  2
*D7
340
0
 70
     0
280
     1
281
     0
  0
BLOCK_RECORD
  5
215
330
1
100
AcDbSymbolTableRecord
100
AcDbBlockTableRecord
  2
*D8
340
0
 70
     0
280
     1
281
     0
  0
BLOCK_RECORD
  5
208
330
1
100
AcDbSymbolTableRecord
100
AcDbBlockTableRecord
  2
*D9
340
0
 70
     0
280
     1
281
     0
  0
BLOCK_RECORD
  5
1F9
330
1
100
AcDbSymbolTableRecord
100
AcDbBlockTableRecord
  2
*D10
340
0
 70
     0
280
     1
281
     0
  0
BLOCK_RECORD
  5
1EC
330
1
100
AcDbSymbolTableRecord
100
AcDbBlockTableRecord
  2
*D11
340
0
 70
     0
280
     1
281
     0
  0
BLOCK_RECORD
  5
1DF
330
1
100
AcDbSymbolTableRecord
100
AcDbBlockTableRecord
  2
*D12
340
0
 70
     0
280
     1
281
     0
  0
BLOCK_RECORD
  5
1D2
330
1
100
AcDbSymbolTableRecord
100
AcDbBlockTableRecord
  2
*D13
340
0
 70
     0
280
     1
281
     0
  0
BLOCK_RECORD
  5
1C5
330
1
100
AcDbSymbolTableRecord
100
AcDbBlockTableRecord
  2
*D14
340
0
 70
     0
280
     1
281
     0
  0
BLOCK_RECORD
  5
19C
330
1
100
AcDbSymbolTableRecord
100
AcDbBlockTableRecord
  2
*D15
340
0
 70
     0
280
     1
281
     0
  0
BLOCK_RECORD
  5
18F
330
1
100
AcDbSymbolTableRecord
100
AcDbBlockTableRecord
  2
*D16
340
0
 70
     0
280
     1
281
     0
  0
BLOCK_RECORD
  5
182
330
1
100
AcDbSymbolTableRecord
100
AcDbBlockTableRecord
  2
*D17
340
0
 70
     0
280
     1
281
     0
  0
BLOCK_RECORD
  5
175
330
1
100
AcDbSymbolTableRecord
100
AcDbBlockTableRecord
  2
*D18
340
0
 70
     0
280
     1
281
     0
  0
BLOCK_RECORD
  5
168
330
1
100
AcDbSymbolTableRecord
100
AcDbBlockTableRecord
  2
*D19
340
0
 70
     0
280
     1
281
     0
  0
BLOCK_RECORD
  5
133
330
1
100
AcDbSymbolTableRecord
100
AcDbBlockTableRecord
  2
*D20
340
0
 70
     0
280
     1
281
     0
  0
BLOCK_RECORD
  5
126
330
1
100
AcDbSymbolTableRecord
100
AcDbBlockTableRecord
  2
*D21
340
0
 70
     0
280
     1
281
     0
  0
BLOCK_RECORD
  5
113
330
1
100
AcDbSymbolTableRecord
100
AcDbBlockTableRecord
  2
*D22
340
0
 70
     0
280
     1
281
     0
  0
BLOCK_RECORD
  5
FF
330
1
100
AcDbSymbolTableRecord
100
AcDbBlockTableRecord
  2
*D23
340
0
 70
     0
280
     1
281
     0
  0
BLOCK_RECORD
  5
F0
330
1
100
AcDbSymbolTableRecord
100
AcDbBlockTableRecord
  2
*D24
340
0
 70
     0
280
     1
281
     0
  0
BLOCK_RECORD
  5
E2
330
1
100
AcDbSymbolTableRecord
100
AcDbBlockTableRecord
  2
*D25
340
0
 70
     0
280
     1
281
     0
  0
BLOCK_RECORD
  5
D5
330
1
100
AcDbSymbolTableRecord
100
AcDbBlockTableRecord
  2
*D26
340
0
 70
     0
280
     1
281
     0
  0
BLOCK_RECORD
  5
C4
330
1
100
AcDbSymbolTableRecord
100
AcDbBlockTableRecord
  2
*D27
340
0
 70
     0
280
     1
281
     0
  0
BLOCK_RECORD
  5
B1
330
1
100
AcDbSymbolTableRecord
100
AcDbBlockTableRecord
  2
*D28
340
0
 70
     0
280
     1
281
     0
  0
BLOCK_RECORD
  5
8F
330
1
100
AcDbSymbolTableRecord
100
AcDbBlockTableRecord
  2
*D29
340
0
 70
     0
280
     1
281
     0
  0
BLOCK_RECORD
  5
75
330
1
100
AcDbSymbolTableRecord
100
AcDbBlockTableRecord
  2
*D30
340
0
 70
     0
280
     1
281
     0
  0
BLOCK_RECORD
  5
36
330
1
100
AcDbSymbolTableRecord
100
AcDbBlockTableRecord
  2
_None
340
0
 70
     0
280
     1
281
     0
  0
BLOCK_RECORD
  5
2E6
330
1
100
AcDbSymbolTableRecord
100
AcDbBlockTableRecord
  2
_ACMFILLED15
340
0
 70
     0
280
     1
281
     0
  0
ENDTAB
  0
ENDSEC
  0
SECTION
  2
BLOCKS
  0
BLOCK
  5
5
330
2
100
AcDbEntity
  8
0
100
AcDbBlockBegin
  2
*MODEL_SPACE
 70
     0
 10
0.0
 20
0.0
 30
0.0
  3
*MODEL_SPACE
  1

  0
ENDBLK
  5
16
330
2
100
AcDbEntity
  8
0
100
AcDbBlockEnd
  0
BLOCK
  5
1C
330
1B
100
AcDbEntity
 67
     1
  8
0
100
AcDbBlockBegin
  2
*PAPER_SPACE
 70
     0
 10
0.0
 20
0.0
 30
0.0
  3
*PAPER_SPACE
  1

  0
ENDBLK
  5
1D
330
1B
100
AcDbEntity
 67
     1
  8
0
100
AcDbBlockEnd
  0
BLOCK
  5
2AA
330
2A9
100
AcDbEntity
  8
0
100
AcDbBlockBegin
  2
*D0
 70
     1
 10
0.0
 20
0.0
 30
0.0
  3
*D0
  1

  0
LINE
  5
2AB
330
2A9
100
AcDbEntity
  8
BEMASSUNG-DEUTSCH
 62
     2
440
 16777216
370
    -2
100
AcDbLine
 10
138.7450460668162
 20
295.791407035637
 30
0.0
 11
186.1516403131235
 21
295.791407035637
 31
0.0
  0
LINE
  5
2AC
330
2A9
100
AcDbEntity
  8
BEMASSUNG-DEUTSCH
 62
     2
440
 16777216
370
    -2
100
AcDbLine
 10
138.7450460668163
 20
475.791407035637
 30
0.0
 11
186.1516403131235
 21
475.791407035637
 31
0.0
  0
LINE
  5
2AD
330
2A9
100
AcDbEntity
  8
BEMASSUNG-DEUTSCH
 62
     2
440
 16777216
370
    -2
100
AcDbLine
 10
185.1516403131235
 20
299.791407035637
 30
0.0
 11
185.1516403131235
 21
471.791407035637
 31
0.0
  0
SOLID
  5
2AE
330
2A9
100
AcDbEntity
  8
BEMASSUNG-DEUTSCH
 62
     2
440
 16777216
100
AcDbTrace
 10
184.4849736464568
 20
299.791407035637
 30
0.0
 11
185.8183069797901
 21
299.791407035637
 31
0.0
 12
185.1516403131235
 22
295.791407035637
 32
0.0
 13
185.1516403131235
 23
295.791407035637
 33
0.0
  0
SOLID
  5
2AF
330
2A9
100
AcDbEntity
  8
BEMASSUNG-DEUTSCH
 62
     2
440
 16777216
100
AcDbTrace
 10
184.4849736464569
 20
471.791407035637
 30
0.0
 11
185.8183069797902
 21
471.791407035637
 31
0.0
 12
185.1516403131235
 22
475.791407035637
 32
0.0
 13
185.1516403131235
 23
475.791407035637
 33
0.0
  0
MTEXT
  5
2B0
330
2A9
100
AcDbEntity
  8
BEMASSUNG-DEUTSCH
 62
     3
440
 16777216
100
AcDbMText
 10
181.9306478165341
 20
385.791407035637
 30
0.0
 40
4.349999999999999
 41
0.0
 46
0.0
 71
     5
 72
     1
  1
\A1;180
  7
ARIAL-STANDARD
 11
0.0000000000000001
 21
1.0
 31
0.0
 73
     1
 44
1.0
  0
POINT
  5
2B1
330
2A9
100
AcDbEntity
  8
DEFPOINTS
 62
     0
440
 16777216
100
AcDbPoint
 10
138.7450460668162
 20
295.791407035637
 30
0.0
  0
POINT
  5
2B2
330
2A9
100
AcDbEntity
  8
DEFPOINTS
 62
     0
440
 16777216
100
AcDbPoint
 10
138.7450460668163
 20
475.791407035637
 30
0.0
  0
POINT
  5
2B3
330
2A9
100
AcDbEntity
  8
DEFPOINTS
 62
     0
440
 16777216
100
AcDbPoint
 10
185.1516403131235
 20
475.791407035637
 30
0.0
  0
ENDBLK
  5
2B4
330
2A9
100
AcDbEntity
  8
0
100
AcDbBlockEnd
  0
BLOCK
  5
29D
330
29C
100
AcDbEntity
  8
0
100
AcDbBlockBegin
  2
*D1
 70
     1
 10
0.0
 20
0.0
 30
0.0
  3
*D1
  1

  0
LINE
  5
29E
330
29C
100
AcDbEntity
  8
BEMASSUNG-DEUTSCH
 62
     2
440
 16777216
370
    -2
100
AcDbLine
 10
250.2609576778905
 20
545.791407035637
 30
0.0
 11
263.6537345899441
 21
545.7914070356369
 31
0.0
  0
LINE
  5
29F
330
29C
100
AcDbEntity
  8
BEMASSUNG-DEUTSCH
 62
     2
440
 16777216
370
    -2
100
AcDbLine
 10
250.2609576778906
 20
225.791407035637
 30
0.0
 11
263.653734589944
 21
225.791407035637
 31
0.0
  0
LINE
  5
2A0
330
29C
100
AcDbEntity
  8
BEMASSUNG-DEUTSCH
 62
     2
440
 16777216
370
    -2
100
AcDbLine
 10
262.653734589944
 20
541.7914070356369
 30
0.0
 11
262.653734589944
 21
229.791407035637
 31
0.0
  0
SOLID
  5
2A1
330
29C
100
AcDbEntity
  8
BEMASSUNG-DEUTSCH
 62
     2
440
 16777216
100
AcDbTrace
 10
261.9870679232774
 20
541.7914070356369
 30
0.0
 11
263.3204012566107
 21
541.7914070356369
 31
0.0
 12
262.653734589944
 22
545.7914070356369
 32
0.0
 13
262.653734589944
 23
545.7914070356369
 33
0.0
  0
SOLID
  5
2A2
330
29C
100
AcDbEntity
  8
BEMASSUNG-DEUTSCH
 62
     2
440
 16777216
100
AcDbTrace
 10
261.9870679232773
 20
229.791407035637
 30
0.0
 11
263.3204012566107
 21
229.791407035637
 31
0.0
 12
262.653734589944
 22
225.791407035637
 32
0.0
 13
262.653734589944
 23
225.791407035637
 33
0.0
  0
MTEXT
  5
2A3
330
29C
100
AcDbEntity
  8
BEMASSUNG-DEUTSCH
 62
     3
440
 16777216
100
AcDbMText
 10
259.4312584644324
 20
385.791407035637
 30
0.0
 40
4.349999999999999
 41
0.0
 46
0.0
 71
     5
 72
     1
  1
\A1;320
  7
ARIAL-STANDARD
 11
0.0000000000000001
 21
1.0
 31
0.0
 73
     1
 44
1.0
  0
POINT
  5
2A4
330
29C
100
AcDbEntity
  8
DEFPOINTS
 62
     0
440
 16777216
100
AcDbPoint
 10
250.2609576778905
 20
545.791407035637
 30
0.0
  0
POINT
  5
2A5
330
29C
100
AcDbEntity
  8
DEFPOINTS
 62
     0
440
 16777216
100
AcDbPoint
 10
250.2609576778906
 20
225.791407035637
 30
0.0
  0
POINT
  5
2A6
330
29C
100
AcDbEntity
  8
DEFPOINTS
 62
     0
440
 16777216
100
AcDbPoint
 10
262.653734589944
 20
225.791407035637
 30
0.0
  0
ENDBLK
  5
2A7
330
29C
100
AcDbEntity
  8
0
100
AcDbBlockEnd
  0
BLOCK
  5
28E
330
28D
100
AcDbEntity
  8
0
100
AcDbBlockBegin
  2
*D2
 70
     1
 10
0.0
 20
0.0
 30
0.0
  3
*D2
  1

  0
LINE
  5
28F
330
28D
100
AcDbEntity
  8
BEMASSUNG-DEUTSCH
 62
     2
440
 16777216
370
    -2
100
AcDbLine
 10
127.2474615951077
 20
406.2914070356369
 30
0.0
 11
127.2474615951077
 21
423.8315573321061
 31
0.0
  0
LINE
  5
290
330
28D
100
AcDbEntity
  8
BEMASSUNG-DEUTSCH
 62
     2
440
 16777216
370
    -2
100
AcDbLine
 10
136.2474615951077
 20
406.2914070356369
 30
0.0
 11
136.2474615951077
 21
423.8315573321061
 31
0.0
  0
LINE
  5
291
330
28D
100
AcDbEntity
  8
BEMASSUNG-DEUTSCH
 62
     2
440
 16777216
370
    -2
100
AcDbLine
 10
123.2474615951077
 20
422.8315573321062
 30
0.0
 11
119.2474615951077
 21
422.8315573321062
 31
0.0
  0
LINE
  5
292
330
28D
100
AcDbEntity
  8
BEMASSUNG-DEUTSCH
 62
     2
440
 16777216
370
    -2
100
AcDbLine
 10
140.2474615951077
 20
422.8315573321062
 30
0.0
 11
144.2474615951077
 21
422.8315573321062
 31
0.0
  0
LINE
  5
293
330
28D
100
AcDbEntity
  8
BEMASSUNG-DEUTSCH
 62
     2
440
 16777216
370
    -2
100
AcDbLine
 10
127.2474615951077
 20
422.8315573321062
 30
0.0
 11
136.2474615951077
 21
422.8315573321062
 31
0.0
  0
SOLID
  5
294
330
28D
100
AcDbEntity
  8
BEMASSUNG-DEUTSCH
 62
     2
440
 16777216
100
AcDbTrace
 10
123.2474615951077
 20
423.4982239987728
 30
0.0
 11
123.2474615951077
 21
422.1648906654395
 31
0.0
 12
127.2474615951077
 22
422.8315573321062
 32
0.0
 13
127.2474615951077
 23
422.8315573321062
 33
0.0
  0
SOLID
  5
295
330
28D
100
AcDbEntity
  8
BEMASSUNG-DEUTSCH
 62
     2
440
 16777216
100
AcDbTrace
 10
140.2474615951077
 20
423.4982239987728
 30
0.0
 11
140.2474615951077
 21
422.1648906654395
 31
0.0
 12
136.2474615951077
 22
422.8315573321062
 32
0.0
 13
136.2474615951077
 23
422.8315573321062
 33
0.0
  0
MTEXT
  5
296
330
28D
100
AcDbEntity
  8
BEMASSUNG-DEUTSCH
 62
     3
440
 16777216
100
AcDbMText
 10
131.7474615951077
 20
426.080738778218
 30
0.0
 40
4.349999999999999
 41
0.0
 46
0.0
 71
     5
 72
     1
  1
\A1;8/9
  7
ARIAL-STANDARD
 73
     1
 44
1.0
  0
POINT
  5
297
330
28D
100
AcDbEntity
  8
DEFPOINTS
 62
     0
440
 16777216
100
AcDbPoint
 10
127.2474615951077
 20
406.2914070356369
 30
0.0
  0
POINT
  5
298
330
28D
100
AcDbEntity
  8
DEFPOINTS
 62
     0
440
 16777216
100
AcDbPoint
 10
136.2474615951077
 20
406.2914070356369
 30
0.0
  0
POINT
  5
299
330
28D
100
AcDbEntity
  8
DEFPOINTS
 62
     0
440
 16777216
100
AcDbPoint
 10
136.2474615951077
 20
422.8315573321062
 30
0.0
  0
ENDBLK
  5
29A
330
28D
100
AcDbEntity
  8
0
100
AcDbBlockEnd
  0
BLOCK
  5
281
330
280
100
AcDbEntity
  8
0
100
AcDbBlockBegin
  2
*D3
 70
     1
 10
0.0
 20
0.0
 30
0.0
  3
*D3
  1

  0
LINE
  5
282
330
280
100
AcDbEntity
  8
BEMASSUNG-DEUTSCH
 62
     2
440
 16777216
370
    -2
100
AcDbLine
 10
71.74504606681631
 20
416.791407035637
 30
0.0
 11
57.462276184343
 21
416.791407035637
 31
0.0
  0
LINE
  5
283
330
280
100
AcDbEntity
  8
BEMASSUNG-DEUTSCH
 62
     2
440
 16777216
370
    -2
100
AcDbLine
 10
71.74504606681631
 20
446.791407035637
 30
0.0
 11
57.46227618434301
 21
446.791407035637
 31
0.0
  0
LINE
  5
284
330
280
100
AcDbEntity
  8
BEMASSUNG-DEUTSCH
 62
     2
440
 16777216
370
    -2
100
AcDbLine
 10
58.462276184343
 20
420.791407035637
 30
0.0
 11
58.46227618434301
 21
442.7914070356369
 31
0.0
  0
SOLID
  5
285
330
280
100
AcDbEntity
  8
BEMASSUNG-DEUTSCH
 62
     2
440
 16777216
100
AcDbTrace
 10
57.79560951767634
 20
420.791407035637
 30
0.0
 11
59.12894285100967
 21
420.791407035637
 31
0.0
 12
58.462276184343
 22
416.791407035637
 32
0.0
 13
58.462276184343
 23
416.791407035637
 33
0.0
  0
SOLID
  5
286
330
280
100
AcDbEntity
  8
BEMASSUNG-DEUTSCH
 62
     2
440
 16777216
100
AcDbTrace
 10
57.79560951767635
 20
442.7914070356369
 30
0.0
 11
59.12894285100968
 21
442.7914070356369
 31
0.0
 12
58.46227618434301
 22
446.791407035637
 32
0.0
 13
58.46227618434301
 23
446.791407035637
 33
0.0
  0
MTEXT
  5
287
330
280
100
AcDbEntity
  8
BEMASSUNG-DEUTSCH
 62
     3
440
 16777216
100
AcDbMText
 10
55.23980005883134
 20
431.791407035637
 30
0.0
 40
4.349999999999999
 41
0.0
 46
0.0
 71
     5
 72
     1
  1
\A1;30
  7
ARIAL-STANDARD
 11
0.0000000000000001
 21
1.0
 31
0.0
 73
     1
 44
1.0
  0
POINT
  5
288
330
280
100
AcDbEntity
  8
DEFPOINTS
 62
     0
440
 16777216
100
AcDbPoint
 10
71.74504606681631
 20
416.791407035637
 30
0.0
  0
POINT
  5
289
330
280
100
AcDbEntity
  8
DEFPOINTS
 62
     0
440
 16777216
100
AcDbPoint
 10
71.74504606681631
 20
446.791407035637
 30
0.0
  0
POINT
  5
28A
330
280
100
AcDbEntity
  8
DEFPOINTS
 62
     0
440
 16777216
100
AcDbPoint
 10
58.46227618434301
 20
446.791407035637
 30
0.0
  0
ENDBLK
  5
28B
330
280
100
AcDbEntity
  8
0
100
AcDbBlockEnd
  0
BLOCK
  5
274
330
273
100
AcDbEntity
  8
0
100
AcDbBlockBegin
  2
*D4
 70
     1
 10
0.0
 20
0.0
 30
0.0
  3
*D4
  1

  0
LINE
  5
275
330
273
100
AcDbEntity
  8
BEMASSUNG-DEUTSCH
 62
     2
440
 16777216
370
    -2
100
AcDbLine
 10
141.7450460668163
 20
401.7914070356369
 30
0.0
 11
175.2770126099102
 21
401.7914070356369
 31
0.0
  0
LINE
  5
276
330
273
100
AcDbEntity
  8
BEMASSUNG-DEUTSCH
 62
     2
440
 16777216
370
    -2
100
AcDbLine
 10
138.7450460668163
 20
475.791407035637
 30
0.0
 11
175.2770126099103
 21
475.791407035637
 31
0.0
  0
LINE
  5
277
330
273
100
AcDbEntity
  8
BEMASSUNG-DEUTSCH
 62
     2
440
 16777216
370
    -2
100
AcDbLine
 10
174.2770126099102
 20
405.7914070356369
 30
0.0
 11
174.2770126099103
 21
471.791407035637
 31
0.0
  0
SOLID
  5
278
330
273
100
AcDbEntity
  8
BEMASSUNG-DEUTSCH
 62
     2
440
 16777216
100
AcDbTrace
 10
173.6103459432436
 20
405.7914070356369
 30
0.0
 11
174.9436792765769
 21
405.7914070356369
 31
0.0
 12
174.2770126099102
 22
401.7914070356369
 32
0.0
 13
174.2770126099102
 23
401.7914070356369
 33
0.0
  0
SOLID
  5
279
330
273
100
AcDbEntity
  8
BEMASSUNG-DEUTSCH
 62
     2
440
 16777216
100
AcDbTrace
 10
173.6103459432436
 20
471.791407035637
 30
0.0
 11
174.9436792765769
 21
471.791407035637
 31
0.0
 12
174.2770126099103
 22
475.791407035637
 32
0.0
 13
174.2770126099103
 23
475.791407035637
 33
0.0
  0
MTEXT
  5
27A
330
273
100
AcDbEntity
  8
BEMASSUNG-DEUTSCH
 62
     3
440
 16777216
100
AcDbMText
 10
171.1020126099102
 20
438.791407035637
 30
0.0
 40
4.349999999999999
 41
0.0
 46
0.0
 71
     5
 72
     1
  1
\A1;74
  7
ARIAL-STANDARD
 11
0.0000000000000001
 21
1.0
 31
0.0
 73
     1
 44
1.0
  0
POINT
  5
27B
330
273
100
AcDbEntity
  8
DEFPOINTS
 62
     0
440
 16777216
100
AcDbPoint
 10
141.7450460668163
 20
401.7914070356369
 30
0.0
  0
POINT
  5
27C
330
273
100
AcDbEntity
  8
DEFPOINTS
 62
     0
440
 16777216
100
AcDbPoint
 10
138.7450460668163
 20
475.791407035637
 30
0.0
  0
POINT
  5
27D
330
273
100
AcDbEntity
  8
DEFPOINTS
 62
     0
440
 16777216
100
AcDbPoint
 10
174.2770126099103
 20
475.791407035637
 30
0.0
  0
ENDBLK
  5
27E
330
273
100
AcDbEntity
  8
0
100
AcDbBlockEnd
  0
BLOCK
  5
25E
330
25D
100
AcDbEntity
  8
0
100
AcDbBlockBegin
  2
*D5
 70
     1
 10
0.0
 20
0.0
 30
0.0
  3
*D5
  1

  0
LINE
  5
25F
330
25D
100
AcDbEntity
  8
BEMASSUNG-DEUTSCH
 62
     2
440
 16777216
370
    -2
100
AcDbLine
 10
84.83560939215834
 20
161.7390366434338
 30
0.0
 11
116.5561777902247
 21
161.7390366434338
 31
0.0
  0
LINE
  5
260
330
25D
100
AcDbEntity
  8
BEMASSUNG-DEUTSCH
 62
     2
440
 16777216
370
    -2
100
AcDbLine
 10
120.4434939009005
 20
159.9390366434338
 30
0.0
 11
114.5561777902247
 21
159.9390366434338
 31
0.0
  0
LINE
  5
261
330
25D
100
AcDbEntity
  8
BEMASSUNG-DEUTSCH
 62
     2
440
 16777216
370
    -2
100
AcDbLine
 10
115.5561777902247
 20
155.9390366434338
 30
0.0
 11
115.5561777902247
 21
151.9390366434338
 31
0.0
  0
LINE
  5
262
330
25D
100
AcDbEntity
  8
BEMASSUNG-DEUTSCH
 62
     2
440
 16777216
370
    -2
100
AcDbLine
 10
115.5561777902247
 20
165.7390366434338
 30
0.0
 11
115.5561777902247
 21
179.2580680213328
 31
0.0
  0
LINE
  5
263
330
25D
100
AcDbEntity
  8
BEMASSUNG-DEUTSCH
 62
     2
440
 16777216
370
    -2
100
AcDbLine
 10
115.5561777902247
 20
159.9390366434338
 30
0.0
 11
115.5561777902247
 21
161.7390366434338
 31
0.0
  0
SOLID
  5
264
330
25D
100
AcDbEntity
  8
BEMASSUNG-DEUTSCH
 62
     2
440
 16777216
100
AcDbTrace
 10
114.889511123558
 20
155.9390366434338
 30
0.0
 11
116.2228444568913
 21
155.9390366434338
 31
0.0
 12
115.5561777902247
 22
159.9390366434338
 32
0.0
 13
115.5561777902247
 23
159.9390366434338
 33
0.0
  0
SOLID
  5
265
330
25D
100
AcDbEntity
  8
BEMASSUNG-DEUTSCH
 62
     2
440
 16777216
100
AcDbTrace
 10
114.889511123558
 20
165.7390366434338
 30
0.0
 11
116.2228444568914
 21
165.7390366434338
 31
0.0
 12
115.5561777902247
 22
161.7390366434338
 32
0.0
 13
115.5561777902247
 23
161.7390366434338
 33
0.0
  0
MTEXT
  5
266
330
25D
100
AcDbEntity
  8
BEMASSUNG-DEUTSCH
 62
     3
440
 16777216
100
AcDbMText
 10
112.3351852936353
 20
174.4985523323833
 30
0.0
 40
4.349999999999999
 41
0.0
 46
0.0
 71
     5
 72
     1
  1
\A1;1.8
  7
ARIAL-STANDARD
 11
0.0000000000000001
 21
1.0
 31
0.0
 73
     1
 44
1.0
  0
POINT
  5
267
330
25D
100
AcDbEntity
  8
DEFPOINTS
 62
     0
440
 16777216
100
AcDbPoint
 10
84.83560939215834
 20
161.7390366434338
 30
0.0
  0
POINT
  5
268
330
25D
100
AcDbEntity
  8
DEFPOINTS
 62
     0
440
 16777216
100
AcDbPoint
 10
120.4434939009005
 20
159.9390366434338
 30
0.0
  0
POINT
  5
269
330
25D
100
AcDbEntity
  8
DEFPOINTS
 62
     0
440
 16777216
100
AcDbPoint
 10
115.5561777902247
 20
159.9390366434338
 30
0.0
  0
ENDBLK
  5
26A
330
25D
100
AcDbEntity
  8
0
100
AcDbBlockEnd
  0
BLOCK
  5
251
330
250
100
AcDbEntity
  8
0
100
AcDbBlockBegin
  2
*D6
 70
     1
 10
0.0
 20
0.0
 30
0.0
  3
*D6
  1

  0
LINE
  5
252
330
250
100
AcDbEntity
  8
BEMASSUNG-DEUTSCH
 62
     2
440
 16777216
370
    -2
100
AcDbLine
 10
164.8356093921583
 20
159.9390366434338
 30
0.0
 11
179.2606750426482
 21
159.9390366434338
 31
0.0
  0
LINE
  5
253
330
250
100
AcDbEntity
  8
BEMASSUNG-DEUTSCH
 62
     2
440
 16777216
370
    -2
100
AcDbLine
 10
164.8356093921582
 20
145.9390366434337
 30
0.0
 11
179.2606750426482
 21
145.9390366434337
 31
0.0
  0
LINE
  5
254
330
250
100
AcDbEntity
  8
BEMASSUNG-DEUTSCH
 62
     2
440
 16777216
370
    -2
100
AcDbLine
 10
178.2606750426482
 20
155.9390366434338
 30
0.0
 11
178.2606750426482
 21
149.9390366434337
 31
0.0
  0
SOLID
  5
255
330
250
100
AcDbEntity
  8
BEMASSUNG-DEUTSCH
 62
     2
440
 16777216
100
AcDbTrace
 10
177.5940083759815
 20
155.9390366434338
 30
0.0
 11
178.9273417093148
 21
155.9390366434338
 31
0.0
 12
178.2606750426482
 22
159.9390366434338
 32
0.0
 13
178.2606750426482
 23
159.9390366434338
 33
0.0
  0
SOLID
  5
256
330
250
100
AcDbEntity
  8
BEMASSUNG-DEUTSCH
 62
     2
440
 16777216
100
AcDbTrace
 10
177.5940083759815
 20
149.9390366434337
 30
0.0
 11
178.9273417093148
 21
149.9390366434337
 31
0.0
 12
178.2606750426482
 22
145.9390366434337
 32
0.0
 13
178.2606750426482
 23
145.9390366434337
 33
0.0
  0
MTEXT
  5
257
330
250
100
AcDbEntity
  8
BEMASSUNG-DEUTSCH
 62
     3
440
 16777216
100
AcDbMText
 10
175.0767732691147
 20
152.9390366434338
 30
0.0
 40
4.349999999999999
 41
0.0
 46
0.0
 71
     5
 72
     1
  1
\A1;14
  7
ARIAL-STANDARD
 11
0.0000000000000001
 21
1.0
 31
0.0
 73
     1
 44
1.0
  0
POINT
  5
258
330
250
100
AcDbEntity
  8
DEFPOINTS
 62
     0
440
 16777216
100
AcDbPoint
 10
164.8356093921583
 20
159.9390366434338
 30
0.0
  0
POINT
  5
259
330
250
100
AcDbEntity
  8
DEFPOINTS
 62
     0
440
 16777216
100
AcDbPoint
 10
164.8356093921582
 20
145.9390366434337
 30
0.0
  0
POINT
  5
25A
330
250
100
AcDbEntity
  8
DEFPOINTS
 62
     0
440
 16777216
100
AcDbPoint
 10
178.2606750426482
 20
145.9390366434337
 30
0.0
  0
ENDBLK
  5
25B
330
250
100
AcDbEntity
  8
0
100
AcDbBlockEnd
  0
BLOCK
  5
23A
330
239
100
AcDbEntity
  8
0
100
AcDbBlockBegin
  2
*D7
 70
     1
 10
0.0
 20
0.0
 30
0.0
  3
*D7
  1

  0
LINE
  5
23B
330
239
100
AcDbEntity
  8
BEMASSUNG-DEUTSCH
 62
     2
440
 16777216
370
    -2
100
AcDbLine
 10
96.8366742055411
 20
152.9390366434338
 30
0.0
 11
96.8366742055411
 21
134.8659239179862
 31
0.0
  0
LINE
  5
23C
330
239
100
AcDbEntity
  8
BEMASSUNG-DEUTSCH
 62
     2
440
 16777216
370
    -2
100
AcDbLine
 10
106.8345445787756
 20
152.9390366434338
 30
0.0
 11
106.8345445787756
 21
134.8659239179862
 31
0.0
  0
LINE
  5
23D
330
239
100
AcDbEntity
  8
BEMASSUNG-DEUTSCH
 62
     2
440
 16777216
370
    -2
100
AcDbLine
 10
92.8366742055411
 20
135.8659239179862
 30
0.0
 11
88.83667420554109
 21
135.8659239179862
 31
0.0
  0
LINE
  5
23E
330
239
100
AcDbEntity
  8
BEMASSUNG-DEUTSCH
 62
     2
440
 16777216
370
    -2
100
AcDbLine
 10
110.8345445787756
 20
135.8659239179862
 30
0.0
 11
114.8345445787756
 21
135.8659239179862
 31
0.0
  0
LINE
  5
23F
330
239
100
AcDbEntity
  8
BEMASSUNG-DEUTSCH
 62
     2
440
 16777216
370
    -2
100
AcDbLine
 10
96.8366742055411
 20
135.8659239179862
 30
0.0
 11
106.8345445787756
 21
135.8659239179862
 31
0.0
  0
SOLID
  5
240
330
239
100
AcDbEntity
  8
BEMASSUNG-DEUTSCH
 62
     2
440
 16777216
100
AcDbTrace
 10
92.8366742055411
 20
136.5325905846529
 30
0.0
 11
92.8366742055411
 21
135.1992572513196
 31
0.0
 12
96.8366742055411
 22
135.8659239179862
 32
0.0
 13
96.8366742055411
 23
135.8659239179862
 33
0.0
  0
SOLID
  5
241
330
239
100
AcDbEntity
  8
BEMASSUNG-DEUTSCH
 62
     2
440
 16777216
100
AcDbTrace
 10
110.8345445787756
 20
136.5325905846529
 30
0.0
 11
110.8345445787756
 21
135.1992572513196
 31
0.0
 12
106.8345445787756
 22
135.8659239179862
 32
0.0
 13
106.8345445787756
 23
135.8659239179862
 33
0.0
  0
MTEXT
  5
242
330
239
100
AcDbEntity
  8
BEMASSUNG-DEUTSCH
 62
     3
440
 16777216
100
AcDbMText
 10
101.8356093921583
 20
139.0869164145756
 30
0.0
 40
4.349999999999999
 41
0.0
 46
0.0
 71
     5
 72
     1
  1
\A1;M10
  7
ARIAL-STANDARD
 73
     1
 44
1.0
  0
POINT
  5
243
330
239
100
AcDbEntity
  8
DEFPOINTS
 62
     0
440
 16777216
100
AcDbPoint
 10
96.8366742055411
 20
152.9390366434338
 30
0.0
  0
POINT
  5
244
330
239
100
AcDbEntity
  8
DEFPOINTS
 62
     0
440
 16777216
100
AcDbPoint
 10
106.8345445787756
 20
152.9390366434338
 30
0.0
  0
POINT
  5
245
330
239
100
AcDbEntity
  8
DEFPOINTS
 62
     0
440
 16777216
100
AcDbPoint
 10
106.8345445787756
 20
135.8659239179862
 30
0.0
  0
ENDBLK
  5
246
330
239
100
AcDbEntity
  8
0
100
AcDbBlockEnd
  0
BLOCK
  5
216
330
215
100
AcDbEntity
  8
0
100
AcDbBlockBegin
  2
*D8
 70
     1
 10
0.0
 20
0.0
 30
0.0
  3
*D8
  1

  0
LINE
  5
217
330
215
100
AcDbEntity
  8
BEMASSUNG-DEUTSCH
 62
     2
440
 16777216
370
    -2
100
AcDbLine
 10
158.3914233927997
 20
323.791407035637
 30
0.0
 11
175.2770126099103
 21
323.791407035637
 31
0.0
  0
LINE
  5
218
330
215
100
AcDbEntity
  8
BEMASSUNG-DEUTSCH
 62
     2
440
 16777216
370
    -2
100
AcDbLine
 10
141.7450460668163
 20
401.7914070356369
 30
0.0
 11
175.2770126099103
 21
401.7914070356369
 31
0.0
  0
LINE
  5
219
330
215
100
AcDbEntity
  8
BEMASSUNG-DEUTSCH
 62
     2
440
 16777216
370
    -2
100
AcDbLine
 10
174.2770126099103
 20
327.791407035637
 30
0.0
 11
174.2770126099103
 21
397.791407035637
 31
0.0
  0
SOLID
  5
21A
330
215
100
AcDbEntity
  8
BEMASSUNG-DEUTSCH
 62
     2
440
 16777216
100
AcDbTrace
 10
173.6103459432436
 20
327.791407035637
 30
0.0
 11
174.9436792765769
 21
327.791407035637
 31
0.0
 12
174.2770126099103
 22
323.791407035637
 32
0.0
 13
174.2770126099103
 23
323.791407035637
 33
0.0
  0
SOLID
  5
21B
330
215
100
AcDbEntity
  8
BEMASSUNG-DEUTSCH
 62
     2
440
 16777216
100
AcDbTrace
 10
173.6103459432436
 20
397.791407035637
 30
0.0
 11
174.9436792765769
 21
397.791407035637
 31
0.0
 12
174.2770126099103
 22
401.7914070356369
 32
0.0
 13
174.2770126099103
 23
401.7914070356369
 33
0.0
  0
MTEXT
  5
21C
330
215
100
AcDbEntity
  8
BEMASSUNG-DEUTSCH
 62
     3
440
 16777216
100
AcDbMText
 10
171.0560201133209
 20
362.7914070356371
 30
0.0
 40
4.349999999999999
 41
0.0
 46
0.0
 71
     5
 72
     1
  1
\A1;78
  7
ARIAL-STANDARD
 11
0.0000000000000001
 21
1.0
 31
0.0
 73
     1
 44
1.0
  0
POINT
  5
21D
330
215
100
AcDbEntity
  8
DEFPOINTS
 62
     0
440
 16777216
100
AcDbPoint
 10
158.3914233927997
 20
323.791407035637
 30
0.0
  0
POINT
  5
21E
330
215
100
AcDbEntity
  8
DEFPOINTS
 62
     0
440
 16777216
100
AcDbPoint
 10
141.7450460668163
 20
401.7914070356369
 30
0.0
  0
POINT
  5
21F
330
215
100
AcDbEntity
  8
DEFPOINTS
 62
     0
440
 16777216
100
AcDbPoint
 10
174.2770126099103
 20
401.7914070356369
 30
0.0
  0
ENDBLK
  5
220
330
215
100
AcDbEntity
  8
0
100
AcDbBlockEnd
  0
BLOCK
  5
209
330
208
100
AcDbEntity
  8
0
100
AcDbBlockBegin
  2
*D9
 70
     1
 10
0.0
 20
0.0
 30
0.0
  3
*D9
  1

  0
LINE
  5
20A
330
208
100
AcDbEntity
  8
BEMASSUNG-DEUTSCH
 62
     2
440
 16777216
370
    -2
100
AcDbLine
 10
138.7450460668162
 20
295.791407035637
 30
0.0
 11
175.2770126099102
 21
295.791407035637
 31
0.0
  0
LINE
  5
20B
330
208
100
AcDbEntity
  8
BEMASSUNG-DEUTSCH
 62
     2
440
 16777216
370
    -2
100
AcDbLine
 10
158.3914233927997
 20
323.791407035637
 30
0.0
 11
175.2770126099103
 21
323.791407035637
 31
0.0
  0
LINE
  5
20C
330
208
100
AcDbEntity
  8
BEMASSUNG-DEUTSCH
 62
     2
440
 16777216
370
    -2
100
AcDbLine
 10
174.2770126099102
 20
299.791407035637
 30
0.0
 11
174.2770126099102
 21
319.791407035637
 31
0.0
  0
SOLID
  5
20D
330
208
100
AcDbEntity
  8
BEMASSUNG-DEUTSCH
 62
     2
440
 16777216
100
AcDbTrace
 10
173.6103459432436
 20
299.791407035637
 30
0.0
 11
174.9436792765769
 21
299.791407035637
 31
0.0
 12
174.2770126099102
 22
295.791407035637
 32
0.0
 13
174.2770126099102
 23
295.791407035637
 33
0.0
  0
SOLID
  5
20E
330
208
100
AcDbEntity
  8
BEMASSUNG-DEUTSCH
 62
     2
440
 16777216
100
AcDbTrace
 10
173.6103459432436
 20
319.791407035637
 30
0.0
 11
174.9436792765769
 21
319.791407035637
 31
0.0
 12
174.2770126099103
 22
323.791407035637
 32
0.0
 13
174.2770126099103
 23
323.791407035637
 33
0.0
  0
MTEXT
  5
20F
330
208
100
AcDbEntity
  8
BEMASSUNG-DEUTSCH
 62
     3
440
 16777216
100
AcDbMText
 10
171.0560201133209
 20
309.7914070356371
 30
0.0
 40
4.349999999999999
 41
0.0
 46
0.0
 71
     5
 72
     1
  1
\A1;28
  7
ARIAL-STANDARD
 11
0.0000000000000001
 21
1.0
 31
0.0
 73
     1
 44
1.0
  0
POINT
  5
210
330
208
100
AcDbEntity
  8
DEFPOINTS
 62
     0
440
 16777216
100
AcDbPoint
 10
138.7450460668162
 20
295.791407035637
 30
0.0
  0
POINT
  5
211
330
208
100
AcDbEntity
  8
DEFPOINTS
 62
     0
440
 16777216
100
AcDbPoint
 10
158.3914233927997
 20
323.791407035637
 30
0.0
  0
POINT
  5
212
330
208
100
AcDbEntity
  8
DEFPOINTS
 62
     0
440
 16777216
100
AcDbPoint
 10
174.2770126099103
 20
323.791407035637
 30
0.0
  0
ENDBLK
  5
213
330
208
100
AcDbEntity
  8
0
100
AcDbBlockEnd
  0
BLOCK
  5
1FA
330
1F9
100
AcDbEntity
  8
0
100
AcDbBlockBegin
  2
*D10
 70
     1
 10
0.0
 20
0.0
 30
0.0
  3
*D10
  1

  0
LINE
  5
1FB
330
1F9
100
AcDbEntity
  8
BEMASSUNG-DEUTSCH
 62
     2
440
 16777216
370
    -2
100
AcDbLine
 10
123.1179614949545
 20
295.791407035637
 30
0.0
 11
127.230521593549
 21
295.791407035637
 31
0.0
  0
LINE
  5
1FC
330
1F9
100
AcDbEntity
  8
BEMASSUNG-DEUTSCH
 62
     2
440
 16777216
370
    -2
100
AcDbLine
 10
108.6463547258539
 20
240.791407035637
 30
0.0
 11
127.230521593549
 21
240.791407035637
 31
0.0
  0
LINE
  5
1FD
330
1F9
100
AcDbEntity
  8
BEMASSUNG-DEUTSCH
 62
     2
440
 16777216
370
    -2
100
AcDbLine
 10
126.230521593549
 20
291.791407035637
 30
0.0
 11
126.230521593549
 21
244.791407035637
 31
0.0
  0
SOLID
  5
1FE
330
1F9
100
AcDbEntity
  8
BEMASSUNG-DEUTSCH
 62
     2
440
 16777216
100
AcDbTrace
 10
125.5638549268823
 20
291.791407035637
 30
0.0
 11
126.8971882602156
 21
291.791407035637
 31
0.0
 12
126.230521593549
 22
295.791407035637
 32
0.0
 13
126.230521593549
 23
295.791407035637
 33
0.0
  0
SOLID
  5
1FF
330
1F9
100
AcDbEntity
  8
BEMASSUNG-DEUTSCH
 62
     2
440
 16777216
100
AcDbTrace
 10
125.5638549268823
 20
244.791407035637
 30
0.0
 11
126.8971882602156
 21
244.791407035637
 31
0.0
 12
126.230521593549
 22
240.791407035637
 32
0.0
 13
126.230521593549
 23
240.791407035637
 33
0.0
  0
MTEXT
  5
200
330
1F9
100
AcDbEntity
  8
BEMASSUNG-DEUTSCH
 62
     3
440
 16777216
100
AcDbMText
 10
123.018430870493
 20
268.291407035637
 30
0.0
 40
4.349999999999999
 41
0.0
 46
0.0
 71
     5
 72
     1
  1
\A1;55
  7
ARIAL-STANDARD
 11
0.0000000000000001
 21
1.0
 31
0.0
 73
     1
 44
1.0
  0
POINT
  5
201
330
1F9
100
AcDbEntity
  8
DEFPOINTS
 62
     0
440
 16777216
100
AcDbPoint
 10
123.1179614949545
 20
295.791407035637
 30
0.0
  0
POINT
  5
202
330
1F9
100
AcDbEntity
  8
DEFPOINTS
 62
     0
440
 16777216
100
AcDbPoint
 10
108.6463547258539
 20
240.791407035637
 30
0.0
  0
POINT
  5
203
330
1F9
100
AcDbEntity
  8
DEFPOINTS
 62
     0
440
 16777216
100
AcDbPoint
 10
126.230521593549
 20
240.791407035637
 30
0.0
  0
ENDBLK
  5
204
330
1F9
100
AcDbEntity
  8
0
100
AcDbBlockEnd
  0
BLOCK
  5
1ED
330
1EC
100
AcDbEntity
  8
0
100
AcDbBlockBegin
  2
*D11
 70
     1
 10
0.0
 20
0.0
 30
0.0
  3
*D11
  1

  0
LINE
  5
1EE
330
1EC
100
AcDbEntity
  8
BEMASSUNG-DEUTSCH
 62
     2
440
 16777216
370
    -2
100
AcDbLine
 10
81.74504606681631
 20
225.791407035637
 30
0.0
 11
81.74504606681631
 21
205.6188235439763
 31
0.0
  0
LINE
  5
1EF
330
1EC
100
AcDbEntity
  8
BEMASSUNG-DEUTSCH
 62
     2
440
 16777216
370
    -2
100
AcDbLine
 10
131.7450460668163
 20
297.4914070356369
 30
0.0
 11
131.7450460668163
 21
205.6188235439763
 31
0.0
  0
LINE
  5
1F0
330
1EC
100
AcDbEntity
  8
BEMASSUNG-DEUTSCH
 62
     2
440
 16777216
370
    -2
100
AcDbLine
 10
85.74504606681632
 20
206.6188235439763
 30
0.0
 11
127.7450460668163
 21
206.6188235439763
 31
0.0
  0
SOLID
  5
1F1
330
1EC
100
AcDbEntity
  8
BEMASSUNG-DEUTSCH
 62
     2
440
 16777216
100
AcDbTrace
 10
85.74504606681632
 20
207.2854902106429
 30
0.0
 11
85.74504606681632
 21
205.9521568773096
 31
0.0
 12
81.74504606681631
 22
206.6188235439763
 32
0.0
 13
81.74504606681631
 23
206.6188235439763
 33
0.0
  0
SOLID
  5
1F2
330
1EC
100
AcDbEntity
  8
BEMASSUNG-DEUTSCH
 62
     2
440
 16777216
100
AcDbTrace
 10
127.7450460668163
 20
207.2854902106429
 30
0.0
 11
127.7450460668163
 21
205.9521568773096
 31
0.0
 12
131.7450460668163
 22
206.6188235439763
 32
0.0
 13
131.7450460668163
 23
206.6188235439763
 33
0.0
  0
MTEXT
  5
1F3
330
1EC
100
AcDbEntity
  8
BEMASSUNG-DEUTSCH
 62
     3
440
 16777216
100
AcDbMText
 10
106.7450460668163
 20
209.7938235439763
 30
0.0
 40
4.349999999999999
 41
0.0
 46
0.0
 71
     5
 72
     1
  1
\A1;DM
  7
ARIAL-STANDARD
 73
     1
 44
1.0
  0
POINT
  5
1F4
330
1EC
100
AcDbEntity
  8
DEFPOINTS
 62
     0
440
 16777216
100
AcDbPoint
 10
81.74504606681631
 20
225.791407035637
 30
0.0
  0
POINT
  5
1F5
330
1EC
100
AcDbEntity
  8
DEFPOINTS
 62
     0
440
 16777216
100
AcDbPoint
 10
131.7450460668163
 20
297.4914070356369
 30
0.0
  0
POINT
  5
1F6
330
1EC
100
AcDbEntity
  8
DEFPOINTS
 62
     0
440
 16777216
100
AcDbPoint
 10
131.7450460668163
 20
206.6188235439763
 30
0.0
  0
ENDBLK
  5
1F7
330
1EC
100
AcDbEntity
  8
0
100
AcDbBlockEnd
  0
BLOCK
  5
1E0
330
1DF
100
AcDbEntity
  8
0
100
AcDbBlockBegin
  2
*D12
 70
     1
 10
0.0
 20
0.0
 30
0.0
  3
*D12
  1

  0
LINE
  5
1E1
330
1DF
100
AcDbEntity
  8
BEMASSUNG-DEUTSCH
 62
     2
440
 16777216
370
    -2
100
AcDbLine
 10
158.7450460668162
 20
315.791407035637
 30
0.0
 11
158.7450460668162
 21
205.6188235439763
 31
0.0
  0
LINE
  5
1E2
330
1DF
100
AcDbEntity
  8
BEMASSUNG-DEUTSCH
 62
     2
440
 16777216
370
    -2
100
AcDbLine
 10
131.7450460668163
 20
297.4914070356369
 30
0.0
 11
131.7450460668163
 21
205.6188235439763
 31
0.0
  0
LINE
  5
1E3
330
1DF
100
AcDbEntity
  8
BEMASSUNG-DEUTSCH
 62
     2
440
 16777216
370
    -2
100
AcDbLine
 10
154.7450460668162
 20
206.6188235439763
 30
0.0
 11
135.7450460668163
 21
206.6188235439763
 31
0.0
  0
SOLID
  5
1E4
330
1DF
100
AcDbEntity
  8
BEMASSUNG-DEUTSCH
 62
     2
440
 16777216
100
AcDbTrace
 10
154.7450460668162
 20
207.2854902106429
 30
0.0
 11
154.7450460668162
 21
205.9521568773096
 31
0.0
 12
158.7450460668162
 22
206.6188235439763
 32
0.0
 13
158.7450460668162
 23
206.6188235439763
 33
0.0
  0
SOLID
  5
1E5
330
1DF
100
AcDbEntity
  8
BEMASSUNG-DEUTSCH
 62
     2
440
 16777216
100
AcDbTrace
 10
135.7450460668163
 20
207.2854902106429
 30
0.0
 11
135.7450460668163
 21
205.9521568773096
 31
0.0
 12
131.7450460668163
 22
206.6188235439763
 32
0.0
 13
131.7450460668163
 23
206.6188235439763
 33
0.0
  0
MTEXT
  5
1E6
330
1DF
100
AcDbEntity
  8
BEMASSUNG-DEUTSCH
 62
     3
440
 16777216
100
AcDbMText
 10
145.2450460668163
 20
209.8027253175097
 30
0.0
 40
4.349999999999999
 41
0.0
 46
0.0
 71
     5
 72
     1
  1
\A1;27
  7
ARIAL-STANDARD
 73
     1
 44
1.0
  0
POINT
  5
1E7
330
1DF
100
AcDbEntity
  8
DEFPOINTS
 62
     0
440
 16777216
100
AcDbPoint
 10
158.7450460668162
 20
315.791407035637
 30
0.0
  0
POINT
  5
1E8
330
1DF
100
AcDbEntity
  8
DEFPOINTS
 62
     0
440
 16777216
100
AcDbPoint
 10
131.7450460668163
 20
297.4914070356369
 30
0.0
  0
POINT
  5
1E9
330
1DF
100
AcDbEntity
  8
DEFPOINTS
 62
     0
440
 16777216
100
AcDbPoint
 10
131.7450460668163
 20
206.6188235439763
 30
0.0
  0
ENDBLK
  5
1EA
330
1DF
100
AcDbEntity
  8
0
100
AcDbBlockEnd
  0
BLOCK
  5
1D3
330
1D2
100
AcDbEntity
  8
0
100
AcDbBlockBegin
  2
*D13
 70
     1
 10
0.0
 20
0.0
 30
0.0
  3
*D13
  1

  0
LINE
  5
1D4
330
1D2
100
AcDbEntity
  8
BEMASSUNG-DEUTSCH
 62
     2
440
 16777216
370
    -2
100
AcDbLine
 10
81.74504606681631
 20
225.791407035637
 30
0.0
 11
57.462276184343
 21
225.791407035637
 31
0.0
  0
LINE
  5
1D5
330
1D2
100
AcDbEntity
  8
BEMASSUNG-DEUTSCH
 62
     2
440
 16777216
370
    -2
100
AcDbLine
 10
84.74504606681632
 20
295.791407035637
 30
0.0
 11
57.46227618434301
 21
295.791407035637
 31
0.0
  0
LINE
  5
1D6
330
1D2
100
AcDbEntity
  8
BEMASSUNG-DEUTSCH
 62
     2
440
 16777216
370
    -2
100
AcDbLine
 10
58.462276184343
 20
229.791407035637
 30
0.0
 11
58.46227618434301
 21
291.791407035637
 31
0.0
  0
SOLID
  5
1D7
330
1D2
100
AcDbEntity
  8
BEMASSUNG-DEUTSCH
 62
     2
440
 16777216
100
AcDbTrace
 10
57.79560951767633
 20
229.791407035637
 30
0.0
 11
59.12894285100966
 21
229.791407035637
 31
0.0
 12
58.462276184343
 22
225.791407035637
 32
0.0
 13
58.462276184343
 23
225.791407035637
 33
0.0
  0
SOLID
  5
1D8
330
1D2
100
AcDbEntity
  8
BEMASSUNG-DEUTSCH
 62
     2
440
 16777216
100
AcDbTrace
 10
57.79560951767635
 20
291.791407035637
 30
0.0
 11
59.12894285100968
 21
291.791407035637
 31
0.0
 12
58.46227618434301
 22
295.791407035637
 32
0.0
 13
58.46227618434301
 23
295.791407035637
 33
0.0
  0
MTEXT
  5
1D9
330
1D2
100
AcDbEntity
  8
BEMASSUNG-DEUTSCH
 62
     3
440
 16777216
100
AcDbMText
 10
55.2412836877536
 20
260.791407035637
 30
0.0
 40
4.349999999999999
 41
0.0
 46
0.0
 71
     5
 72
     1
  1
\A1;70
  7
ARIAL-STANDARD
 11
0.0000000000000001
 21
1.0
 31
0.0
 73
     1
 44
1.0
  0
POINT
  5
1DA
330
1D2
100
AcDbEntity
  8
DEFPOINTS
 62
     0
440
 16777216
100
AcDbPoint
 10
81.74504606681631
 20
225.791407035637
 30
0.0
  0
POINT
  5
1DB
330
1D2
100
AcDbEntity
  8
DEFPOINTS
 62
     0
440
 16777216
100
AcDbPoint
 10
84.74504606681632
 20
295.791407035637
 30
0.0
  0
POINT
  5
1DC
330
1D2
100
AcDbEntity
  8
DEFPOINTS
 62
     0
440
 16777216
100
AcDbPoint
 10
58.46227618434301
 20
295.791407035637
 30
0.0
  0
ENDBLK
  5
1DD
330
1D2
100
AcDbEntity
  8
0
100
AcDbBlockEnd
  0
BLOCK
  5
1C6
330
1C5
100
AcDbEntity
  8
0
100
AcDbBlockBegin
  2
*D14
 70
     1
 10
0.0
 20
0.0
 30
0.0
  3
*D14
  1

  0
LINE
  5
1C7
330
1C5
100
AcDbEntity
  8
BEMASSUNG-DEUTSCH
 62
     2
440
 16777216
370
    -2
100
AcDbLine
 10
108.6463547258539
 20
240.791407035637
 30
0.0
 11
127.230521593549
 21
240.791407035637
 31
0.0
  0
LINE
  5
1C8
330
1C5
100
AcDbEntity
  8
BEMASSUNG-DEUTSCH
 62
     2
440
 16777216
370
    -2
100
AcDbLine
 10
108.6463547258539
 20
220.791407035637
 30
0.0
 11
127.230521593549
 21
220.791407035637
 31
0.0
  0
LINE
  5
1C9
330
1C5
100
AcDbEntity
  8
BEMASSUNG-DEUTSCH
 62
     2
440
 16777216
370
    -2
100
AcDbLine
 10
126.230521593549
 20
236.791407035637
 30
0.0
 11
126.230521593549
 21
224.791407035637
 31
0.0
  0
SOLID
  5
1CA
330
1C5
100
AcDbEntity
  8
BEMASSUNG-DEUTSCH
 62
     2
440
 16777216
100
AcDbTrace
 10
125.5638549268823
 20
236.791407035637
 30
0.0
 11
126.8971882602156
 21
236.791407035637
 31
0.0
 12
126.230521593549
 22
240.791407035637
 32
0.0
 13
126.230521593549
 23
240.791407035637
 33
0.0
  0
SOLID
  5
1CB
330
1C5
100
AcDbEntity
  8
BEMASSUNG-DEUTSCH
 62
     2
440
 16777216
100
AcDbTrace
 10
125.5638549268823
 20
224.791407035637
 30
0.0
 11
126.8971882602156
 21
224.791407035637
 31
0.0
 12
126.230521593549
 22
220.791407035637
 32
0.0
 13
126.230521593549
 23
220.791407035637
 33
0.0
  0
MTEXT
  5
1CC
330
1C5
100
AcDbEntity
  8
BEMASSUNG-DEUTSCH
 62
     3
440
 16777216
100
AcDbMText
 10
123.0095290969596
 20
230.791407035637
 30
0.0
 40
4.349999999999999
 41
0.0
 46
0.0
 71
     5
 72
     1
  1
\A1;20
  7
ARIAL-STANDARD
 11
0.0000000000000001
 21
1.0
 31
0.0
 73
     1
 44
1.0
  0
POINT
  5
1CD
330
1C5
100
AcDbEntity
  8
DEFPOINTS
 62
     0
440
 16777216
100
AcDbPoint
 10
108.6463547258539
 20
240.791407035637
 30
0.0
  0
POINT
  5
1CE
330
1C5
100
AcDbEntity
  8
DEFPOINTS
 62
     0
440
 16777216
100
AcDbPoint
 10
108.6463547258539
 20
220.791407035637
 30
0.0
  0
POINT
  5
1CF
330
1C5
100
AcDbEntity
  8
DEFPOINTS
 62
     0
440
 16777216
100
AcDbPoint
 10
126.230521593549
 20
220.791407035637
 30
0.0
  0
ENDBLK
  5
1D0
330
1C5
100
AcDbEntity
  8
0
100
AcDbBlockEnd
  0
BLOCK
  5
19D
330
19C
100
AcDbEntity
  8
0
100
AcDbBlockBegin
  2
*D15
 70
     1
 10
0.0
 20
0.0
 30
0.0
  3
*D15
  1

  0
LINE
  5
19E
330
19C
100
AcDbEntity
  8
BEMASSUNG-DEUTSCH
 62
     2
440
 16777216
370
    -2
100
AcDbLine
 10
71.74504606681631
 20
416.791407035637
 30
0.0
 11
71.74504606681631
 21
400.9650123072962
 31
0.0
  0
LINE
  5
19F
330
19C
100
AcDbEntity
  8
BEMASSUNG-DEUTSCH
 62
     2
440
 16777216
370
    -2
100
AcDbLine
 10
81.74504606681631
 20
401.9650123072961
 30
0.0
 11
81.74504606681631
 21
402.9650123072961
 31
0.0
  0
LINE
  5
1A0
330
19C
100
AcDbEntity
  8
BEMASSUNG-DEUTSCH
 62
     2
440
 16777216
370
    -2
100
AcDbLine
 10
67.74504606681631
 20
401.9650123072961
 30
0.0
 11
63.74504606681631
 21
401.9650123072961
 31
0.0
  0
LINE
  5
1A1
330
19C
100
AcDbEntity
  8
BEMASSUNG-DEUTSCH
 62
     2
440
 16777216
370
    -2
100
AcDbLine
 10
85.74504606681632
 20
401.9650123072961
 30
0.0
 11
89.74504606681632
 21
401.9650123072961
 31
0.0
  0
LINE
  5
1A2
330
19C
100
AcDbEntity
  8
BEMASSUNG-DEUTSCH
 62
     2
440
 16777216
370
    -2
100
AcDbLine
 10
71.74504606681631
 20
401.9650123072961
 30
0.0
 11
81.74504606681631
 21
401.9650123072961
 31
0.0
  0
SOLID
  5
1A3
330
19C
100
AcDbEntity
  8
BEMASSUNG-DEUTSCH
 62
     2
440
 16777216
100
AcDbTrace
 10
67.74504606681631
 20
402.6316789739628
 30
0.0
 11
67.74504606681631
 21
401.2983456406295
 31
0.0
 12
71.74504606681631
 22
401.9650123072961
 32
0.0
 13
71.74504606681631
 23
401.9650123072961
 33
0.0
  0
SOLID
  5
1A4
330
19C
100
AcDbEntity
  8
BEMASSUNG-DEUTSCH
 62
     2
440
 16777216
100
AcDbTrace
 10
85.74504606681632
 20
402.6316789739628
 30
0.0
 11
85.74504606681632
 21
401.2983456406295
 31
0.0
 12
81.74504606681631
 22
401.9650123072961
 32
0.0
 13
81.74504606681631
 23
401.9650123072961
 33
0.0
  0
MTEXT
  5
1A5
330
19C
100
AcDbEntity
  8
BEMASSUNG-DEUTSCH
 62
     3
440
 16777216
100
AcDbMText
 10
76.74504606681631
 20
405.1860048038856
 30
0.0
 40
4.349999999999999
 41
0.0
 46
0.0
 71
     5
 72
     1
  1
\A1;10
  7
ARIAL-STANDARD
 73
     1
 44
1.0
  0
POINT
  5
1A6
330
19C
100
AcDbEntity
  8
DEFPOINTS
 62
     0
440
 16777216
100
AcDbPoint
 10
71.74504606681631
 20
416.791407035637
 30
0.0
  0
POINT
  5
1A7
330
19C
100
AcDbEntity
  8
DEFPOINTS
 62
     0
440
 16777216
100
AcDbPoint
 10
81.74504606681631
 20
401.9650123072961
 30
0.0
  0
POINT
  5
1A8
330
19C
100
AcDbEntity
  8
DEFPOINTS
 62
     0
440
 16777216
100
AcDbPoint
 10
81.74504606681631
 20
401.9650123072961
 30
0.0
  0
ENDBLK
  5
1A9
330
19C
100
AcDbEntity
  8
0
100
AcDbBlockEnd
  0
BLOCK
  5
190
330
18F
100
AcDbEntity
  8
0
100
AcDbBlockBegin
  2
*D16
 70
     1
 10
0.0
 20
0.0
 30
0.0
  3
*D16
  1

  0
LINE
  5
191
330
18F
100
AcDbEntity
  8
BEMASSUNG-DEUTSCH
 62
     2
440
 16777216
370
    -2
100
AcDbLine
 10
84.74504606681632
 20
295.791407035637
 30
0.0
 11
57.462276184343
 21
295.791407035637
 31
0.0
  0
LINE
  5
192
330
18F
100
AcDbEntity
  8
BEMASSUNG-DEUTSCH
 62
     2
440
 16777216
370
    -2
100
AcDbLine
 10
66.74504606681631
 20
326.791407035637
 30
0.0
 11
57.46227618434301
 21
326.791407035637
 31
0.0
  0
LINE
  5
193
330
18F
100
AcDbEntity
  8
BEMASSUNG-DEUTSCH
 62
     2
440
 16777216
370
    -2
100
AcDbLine
 10
58.462276184343
 20
299.791407035637
 30
0.0
 11
58.46227618434301
 21
322.791407035637
 31
0.0
  0
SOLID
  5
194
330
18F
100
AcDbEntity
  8
BEMASSUNG-DEUTSCH
 62
     2
440
 16777216
100
AcDbTrace
 10
57.79560951767634
 20
299.791407035637
 30
0.0
 11
59.12894285100967
 21
299.791407035637
 31
0.0
 12
58.462276184343
 22
295.791407035637
 32
0.0
 13
58.462276184343
 23
295.791407035637
 33
0.0
  0
SOLID
  5
195
330
18F
100
AcDbEntity
  8
BEMASSUNG-DEUTSCH
 62
     2
440
 16777216
100
AcDbTrace
 10
57.79560951767635
 20
322.791407035637
 30
0.0
 11
59.12894285100968
 21
322.791407035637
 31
0.0
 12
58.46227618434301
 22
326.791407035637
 32
0.0
 13
58.46227618434301
 23
326.791407035637
 33
0.0
  0
MTEXT
  5
196
330
18F
100
AcDbEntity
  8
BEMASSUNG-DEUTSCH
 62
     3
440
 16777216
100
AcDbMText
 10
55.23980005883136
 20
311.291407035637
 30
0.0
 40
4.349999999999999
 41
0.0
 46
0.0
 71
     5
 72
     1
  1
\A1;31
  7
ARIAL-STANDARD
 11
0.0000000000000001
 21
1.0
 31
0.0
 73
     1
 44
1.0
  0
POINT
  5
197
330
18F
100
AcDbEntity
  8
DEFPOINTS
 62
     0
440
 16777216
100
AcDbPoint
 10
84.74504606681632
 20
295.791407035637
 30
0.0
  0
POINT
  5
198
330
18F
100
AcDbEntity
  8
DEFPOINTS
 62
     0
440
 16777216
100
AcDbPoint
 10
66.74504606681631
 20
326.791407035637
 30
0.0
  0
POINT
  5
199
330
18F
100
AcDbEntity
  8
DEFPOINTS
 62
     0
440
 16777216
100
AcDbPoint
 10
58.46227618434301
 20
326.791407035637
 30
0.0
  0
ENDBLK
  5
19A
330
18F
100
AcDbEntity
  8
0
100
AcDbBlockEnd
  0
BLOCK
  5
183
330
182
100
AcDbEntity
  8
0
100
AcDbBlockBegin
  2
*D17
 70
     1
 10
0.0
 20
0.0
 30
0.0
  3
*D17
  1

  0
LINE
  5
184
330
182
100
AcDbEntity
  8
BEMASSUNG-DEUTSCH
 62
     2
440
 16777216
370
    -2
100
AcDbLine
 10
66.74504606681631
 20
326.7914070356368
 30
0.0
 11
66.74504606681631
 21
311.9083677208955
 31
0.0
  0
LINE
  5
185
330
182
100
AcDbEntity
  8
BEMASSUNG-DEUTSCH
 62
     2
440
 16777216
370
    -2
100
AcDbLine
 10
81.74504606681631
 20
312.9083677208955
 30
0.0
 11
81.74504606681631
 21
313.9083677208955
 31
0.0
  0
LINE
  5
186
330
182
100
AcDbEntity
  8
BEMASSUNG-DEUTSCH
 62
     2
440
 16777216
370
    -2
100
AcDbLine
 10
70.74504606681632
 20
312.9083677208955
 30
0.0
 11
77.74504606681631
 21
312.9083677208955
 31
0.0
  0
SOLID
  5
187
330
182
100
AcDbEntity
  8
BEMASSUNG-DEUTSCH
 62
     2
440
 16777216
100
AcDbTrace
 10
70.74504606681632
 20
313.5750343875622
 30
0.0
 11
70.74504606681632
 21
312.2417010542288
 31
0.0
 12
66.74504606681631
 22
312.9083677208955
 32
0.0
 13
66.74504606681631
 23
312.9083677208955
 33
0.0
  0
SOLID
  5
188
330
182
100
AcDbEntity
  8
BEMASSUNG-DEUTSCH
 62
     2
440
 16777216
100
AcDbTrace
 10
77.74504606681631
 20
313.5750343875622
 30
0.0
 11
77.74504606681631
 21
312.2417010542288
 31
0.0
 12
81.74504606681631
 22
312.9083677208955
 32
0.0
 13
81.74504606681631
 23
312.9083677208955
 33
0.0
  0
MTEXT
  5
189
330
182
100
AcDbEntity
  8
BEMASSUNG-DEUTSCH
 62
     3
440
 16777216
100
AcDbMText
 10
74.24504606681631
 20
316.1293602174849
 30
0.0
 40
4.349999999999999
 41
0.0
 46
0.0
 71
     5
 72
     1
  1
\A1;15
  7
ARIAL-STANDARD
 73
     1
 44
1.0
  0
POINT
  5
18A
330
182
100
AcDbEntity
  8
DEFPOINTS
 62
     0
440
 16777216
100
AcDbPoint
 10
66.74504606681631
 20
326.7914070356368
 30
0.0
  0
POINT
  5
18B
330
182
100
AcDbEntity
  8
DEFPOINTS
 62
     0
440
 16777216
100
AcDbPoint
 10
81.74504606681631
 20
312.9083677208955
 30
0.0
  0
POINT
  5
18C
330
182
100
AcDbEntity
  8
DEFPOINTS
 62
     0
440
 16777216
100
AcDbPoint
 10
81.74504606681631
 20
312.9083677208955
 30
0.0
  0
ENDBLK
  5
18D
330
182
100
AcDbEntity
  8
0
100
AcDbBlockEnd
  0
BLOCK
  5
176
330
175
100
AcDbEntity
  8
0
100
AcDbBlockBegin
  2
*D18
 70
     1
 10
0.0
 20
0.0
 30
0.0
  3
*D18
  1

  0
LINE
  5
177
330
175
100
AcDbEntity
  8
BEMASSUNG-DEUTSCH
 62
     2
440
 16777216
370
    -2
100
AcDbLine
 10
66.74504606681631
 20
358.791407035637
 30
0.0
 11
57.462276184343
 21
358.791407035637
 31
0.0
  0
LINE
  5
178
330
175
100
AcDbEntity
  8
BEMASSUNG-DEUTSCH
 62
     2
440
 16777216
370
    -2
100
AcDbLine
 10
71.74504606681631
 20
416.791407035637
 30
0.0
 11
57.46227618434301
 21
416.791407035637
 31
0.0
  0
LINE
  5
179
330
175
100
AcDbEntity
  8
BEMASSUNG-DEUTSCH
 62
     2
440
 16777216
370
    -2
100
AcDbLine
 10
58.462276184343
 20
362.791407035637
 30
0.0
 11
58.46227618434301
 21
412.791407035637
 31
0.0
  0
SOLID
  5
17A
330
175
100
AcDbEntity
  8
BEMASSUNG-DEUTSCH
 62
     2
440
 16777216
100
AcDbTrace
 10
57.79560951767633
 20
362.791407035637
 30
0.0
 11
59.12894285100966
 21
362.791407035637
 31
0.0
 12
58.462276184343
 22
358.791407035637
 32
0.0
 13
58.462276184343
 23
358.791407035637
 33
0.0
  0
SOLID
  5
17B
330
175
100
AcDbEntity
  8
BEMASSUNG-DEUTSCH
 62
     2
440
 16777216
100
AcDbTrace
 10
57.79560951767635
 20
412.791407035637
 30
0.0
 11
59.12894285100968
 21
412.791407035637
 31
0.0
 12
58.46227618434301
 22
416.791407035637
 32
0.0
 13
58.46227618434301
 23
416.791407035637
 33
0.0
  0
MTEXT
  5
17C
330
175
100
AcDbEntity
  8
BEMASSUNG-DEUTSCH
 62
     3
440
 16777216
100
AcDbMText
 10
55.24128368775357
 20
387.791407035637
 30
0.0
 40
4.349999999999999
 41
0.0
 46
0.0
 71
     5
 72
     1
  1
\A1;58
  7
ARIAL-STANDARD
 11
0.0000000000000001
 21
1.0
 31
0.0
 73
     1
 44
1.0
  0
POINT
  5
17D
330
175
100
AcDbEntity
  8
DEFPOINTS
 62
     0
440
 16777216
100
AcDbPoint
 10
66.74504606681631
 20
358.791407035637
 30
0.0
  0
POINT
  5
17E
330
175
100
AcDbEntity
  8
DEFPOINTS
 62
     0
440
 16777216
100
AcDbPoint
 10
71.74504606681631
 20
416.791407035637
 30
0.0
  0
POINT
  5
17F
330
175
100
AcDbEntity
  8
DEFPOINTS
 62
     0
440
 16777216
100
AcDbPoint
 10
58.46227618434301
 20
416.791407035637
 30
0.0
  0
ENDBLK
  5
180
330
175
100
AcDbEntity
  8
0
100
AcDbBlockEnd
  0
BLOCK
  5
169
330
168
100
AcDbEntity
  8
0
100
AcDbBlockBegin
  2
*D19
 70
     1
 10
0.0
 20
0.0
 30
0.0
  3
*D19
  1

  0
LINE
  5
16A
330
168
100
AcDbEntity
  8
BEMASSUNG-DEUTSCH
 62
     2
440
 16777216
370
    -2
100
AcDbLine
 10
66.74504606681631
 20
326.791407035637
 30
0.0
 11
57.462276184343
 21
326.791407035637
 31
0.0
  0
LINE
  5
16B
330
168
100
AcDbEntity
  8
BEMASSUNG-DEUTSCH
 62
     2
440
 16777216
370
    -2
100
AcDbLine
 10
66.74504606681631
 20
358.791407035637
 30
0.0
 11
57.46227618434301
 21
358.791407035637
 31
0.0
  0
LINE
  5
16C
330
168
100
AcDbEntity
  8
BEMASSUNG-DEUTSCH
 62
     2
440
 16777216
370
    -2
100
AcDbLine
 10
58.462276184343
 20
330.791407035637
 30
0.0
 11
58.46227618434301
 21
354.791407035637
 31
0.0
  0
SOLID
  5
16D
330
168
100
AcDbEntity
  8
BEMASSUNG-DEUTSCH
 62
     2
440
 16777216
100
AcDbTrace
 10
57.79560951767634
 20
330.791407035637
 30
0.0
 11
59.12894285100967
 21
330.791407035637
 31
0.0
 12
58.462276184343
 22
326.791407035637
 32
0.0
 13
58.462276184343
 23
326.791407035637
 33
0.0
  0
SOLID
  5
16E
330
168
100
AcDbEntity
  8
BEMASSUNG-DEUTSCH
 62
     2
440
 16777216
100
AcDbTrace
 10
57.79560951767635
 20
354.791407035637
 30
0.0
 11
59.12894285100968
 21
354.791407035637
 31
0.0
 12
58.46227618434301
 22
358.791407035637
 32
0.0
 13
58.46227618434301
 23
358.791407035637
 33
0.0
  0
MTEXT
  5
16F
330
168
100
AcDbEntity
  8
BEMASSUNG-DEUTSCH
 62
     3
440
 16777216
100
AcDbMText
 10
55.23980005883135
 20
342.791407035637
 30
0.0
 40
4.349999999999999
 41
0.0
 46
0.0
 71
     5
 72
     1
  1
\A1;32
  7
ARIAL-STANDARD
 11
0.0000000000000001
 21
1.0
 31
0.0
 73
     1
 44
1.0
  0
POINT
  5
170
330
168
100
AcDbEntity
  8
DEFPOINTS
 62
     0
440
 16777216
100
AcDbPoint
 10
66.74504606681631
 20
326.791407035637
 30
0.0
  0
POINT
  5
171
330
168
100
AcDbEntity
  8
DEFPOINTS
 62
     0
440
 16777216
100
AcDbPoint
 10
66.74504606681631
 20
358.791407035637
 30
0.0
  0
POINT
  5
172
330
168
100
AcDbEntity
  8
DEFPOINTS
 62
     0
440
 16777216
100
AcDbPoint
 10
58.46227618434301
 20
358.791407035637
 30
0.0
  0
ENDBLK
  5
173
330
168
100
AcDbEntity
  8
0
100
AcDbBlockEnd
  0
BLOCK
  5
134
330
133
100
AcDbEntity
  8
0
100
AcDbBlockBegin
  2
*D20
 70
     1
 10
0.0
 20
0.0
 30
0.0
  3
*D20
  1

  0
LINE
  5
135
330
133
100
AcDbEntity
  8
BEMASSUNG-DEUTSCH
 62
     2
440
 16777216
370
    -2
100
AcDbLine
 10
235.7609576778908
 20
229.8065780819378
 30
0.0
 11
235.7609576778908
 21
214.6466660162673
 31
0.0
  0
LINE
  5
136
330
133
100
AcDbEntity
  8
BEMASSUNG-DEUTSCH
 62
     2
440
 16777216
370
    -2
100
AcDbLine
 10
230.2609576778906
 20
225.791407035637
 30
0.0
 11
230.2609576778906
 21
214.6466660162673
 31
0.0
  0
LINE
  5
137
330
133
100
AcDbEntity
  8
BEMASSUNG-DEUTSCH
 62
     2
440
 16777216
370
    -2
100
AcDbLine
 10
239.7609576778908
 20
215.6466660162673
 30
0.0
 11
243.7609576778907
 21
215.6466660162673
 31
0.0
  0
LINE
  5
138
330
133
100
AcDbEntity
  8
BEMASSUNG-DEUTSCH
 62
     2
440
 16777216
370
    -2
100
AcDbLine
 10
226.2609576778906
 20
215.6466660162673
 30
0.0
 11
212.3087066546982
 21
215.6466660162673
 31
0.0
  0
LINE
  5
139
330
133
100
AcDbEntity
  8
BEMASSUNG-DEUTSCH
 62
     2
440
 16777216
370
    -2
100
AcDbLine
 10
235.7609576778908
 20
215.6466660162673
 30
0.0
 11
230.2609576778906
 21
215.6466660162673
 31
0.0
  0
SOLID
  5
13A
330
133
100
AcDbEntity
  8
BEMASSUNG-DEUTSCH
 62
     2
440
 16777216
100
AcDbTrace
 10
239.7609576778908
 20
216.313332682934
 30
0.0
 11
239.7609576778908
 21
214.9799993496007
 31
0.0
 12
235.7609576778908
 22
215.6466660162673
 32
0.0
 13
235.7609576778908
 23
215.6466660162673
 33
0.0
  0
SOLID
  5
13B
330
133
100
AcDbEntity
  8
BEMASSUNG-DEUTSCH
 62
     2
440
 16777216
100
AcDbTrace
 10
226.2609576778906
 20
216.313332682934
 30
0.0
 11
226.2609576778906
 21
214.9799993496007
 31
0.0
 12
230.2609576778906
 22
215.6466660162673
 32
0.0
 13
230.2609576778906
 23
215.6466660162673
 33
0.0
  0
MTEXT
  5
13C
330
133
100
AcDbEntity
  8
BEMASSUNG-DEUTSCH
 62
     3
440
 16777216
100
AcDbMText
 10
217.2848321662944
 20
218.8587567393232
 30
0.0
 40
4.349999999999999
 41
0.0
 46
0.0
 71
     5
 72
     1
  1
\A1;5.5
  7
ARIAL-STANDARD
 73
     1
 44
1.0
  0
POINT
  5
13D
330
133
100
AcDbEntity
  8
DEFPOINTS
 62
     0
440
 16777216
100
AcDbPoint
 10
235.7609576778908
 20
229.8065780819378
 30
0.0
  0
POINT
  5
13E
330
133
100
AcDbEntity
  8
DEFPOINTS
 62
     0
440
 16777216
100
AcDbPoint
 10
230.2609576778906
 20
225.791407035637
 30
0.0
  0
POINT
  5
13F
330
133
100
AcDbEntity
  8
DEFPOINTS
 62
     0
440
 16777216
100
AcDbPoint
 10
230.2609576778906
 20
215.6466660162673
 30
0.0
  0
ENDBLK
  5
140
330
133
100
AcDbEntity
  8
0
100
AcDbBlockEnd
  0
BLOCK
  5
127
330
126
100
AcDbEntity
  8
0
100
AcDbBlockBegin
  2
*D21
 70
     1
 10
0.0
 20
0.0
 30
0.0
  3
*D21
  1

  0
LINE
  5
128
330
126
100
AcDbEntity
  8
BEMASSUNG-DEUTSCH
 62
     2
440
 16777216
370
    -2
100
AcDbLine
 10
230.2609576778906
 20
225.791407035637
 30
0.0
 11
230.2609576778906
 21
203.0962482587943
 31
0.0
  0
LINE
  5
129
330
126
100
AcDbEntity
  8
BEMASSUNG-DEUTSCH
 62
     2
440
 16777216
370
    -2
100
AcDbLine
 10
250.2609576778906
 20
225.791407035637
 30
0.0
 11
250.2609576778906
 21
203.0962482587943
 31
0.0
  0
LINE
  5
12A
330
126
100
AcDbEntity
  8
BEMASSUNG-DEUTSCH
 62
     2
440
 16777216
370
    -2
100
AcDbLine
 10
234.2609576778906
 20
204.0962482587943
 30
0.0
 11
246.2609576778906
 21
204.0962482587943
 31
0.0
  0
SOLID
  5
12B
330
126
100
AcDbEntity
  8
BEMASSUNG-DEUTSCH
 62
     2
440
 16777216
100
AcDbTrace
 10
234.2609576778906
 20
204.7629149254609
 30
0.0
 11
234.2609576778906
 21
203.4295815921276
 31
0.0
 12
230.2609576778906
 22
204.0962482587943
 32
0.0
 13
230.2609576778906
 23
204.0962482587943
 33
0.0
  0
SOLID
  5
12C
330
126
100
AcDbEntity
  8
BEMASSUNG-DEUTSCH
 62
     2
440
 16777216
100
AcDbTrace
 10
246.2609576778906
 20
204.7629149254609
 30
0.0
 11
246.2609576778906
 21
203.4295815921276
 31
0.0
 12
250.2609576778906
 22
204.0962482587943
 32
0.0
 13
250.2609576778906
 23
204.0962482587943
 33
0.0
  0
MTEXT
  5
12D
330
126
100
AcDbEntity
  8
BEMASSUNG-DEUTSCH
 62
     3
440
 16777216
100
AcDbMText
 10
240.2609576778906
 20
207.3172407553836
 30
0.0
 40
4.349999999999999
 41
0.0
 46
0.0
 71
     5
 72
     1
  1
\A1;20
  7
ARIAL-STANDARD
 73
     1
 44
1.0
  0
POINT
  5
12E
330
126
100
AcDbEntity
  8
DEFPOINTS
 62
     0
440
 16777216
100
AcDbPoint
 10
230.2609576778906
 20
225.791407035637
 30
0.0
  0
POINT
  5
12F
330
126
100
AcDbEntity
  8
DEFPOINTS
 62
     0
440
 16777216
100
AcDbPoint
 10
250.2609576778906
 20
225.791407035637
 30
0.0
  0
POINT
  5
130
330
126
100
AcDbEntity
  8
DEFPOINTS
 62
     0
440
 16777216
100
AcDbPoint
 10
250.2609576778906
 20
204.0962482587943
 30
0.0
  0
ENDBLK
  5
131
330
126
100
AcDbEntity
  8
0
100
AcDbBlockEnd
  0
BLOCK
  5
114
330
113
100
AcDbEntity
  8
0
100
AcDbBlockBegin
  2
*D22
 70
     1
 10
0.0
 20
0.0
 30
0.0
  3
*D22
  1

  0
LINE
  5
115
330
113
100
AcDbEntity
  8
BEMASSUNG-DEUTSCH
 62
     2
440
 16777216
370
    -2
100
AcDbLine
 10
234.4609576778907
 20
358.7914070356342
 30
0.0
 11
234.4609576778907
 21
367.6948660989315
 31
0.0
  0
LINE
  5
116
330
113
100
AcDbEntity
  8
BEMASSUNG-DEUTSCH
 62
     2
440
 16777216
370
    -2
100
AcDbLine
 10
240.9609576778906
 20
358.7914070356342
 30
0.0
 11
240.9609576778906
 21
367.6948660989315
 31
0.0
  0
LINE
  5
117
330
113
100
AcDbEntity
  8
BEMASSUNG-DEUTSCH
 62
     2
440
 16777216
370
    -2
100
AcDbLine
 10
230.4609576778906
 20
366.6948660989315
 30
0.0
 11
226.4609576778906
 21
366.6948660989315
 31
0.0
  0
LINE
  5
118
330
113
100
AcDbEntity
  8
BEMASSUNG-DEUTSCH
 62
     2
440
 16777216
370
    -2
100
AcDbLine
 10
244.9609576778906
 20
366.6948660989315
 30
0.0
 11
248.9609576778906
 21
366.6948660989315
 31
0.0
  0
LINE
  5
119
330
113
100
AcDbEntity
  8
BEMASSUNG-DEUTSCH
 62
     2
440
 16777216
370
    -2
100
AcDbLine
 10
234.4609576778907
 20
366.6948660989315
 30
0.0
 11
240.9609576778906
 21
366.6948660989315
 31
0.0
  0
SOLID
  5
11A
330
113
100
AcDbEntity
  8
BEMASSUNG-DEUTSCH
 62
     2
440
 16777216
100
AcDbTrace
 10
230.4609576778906
 20
367.3615327655982
 30
0.0
 11
230.4609576778906
 21
366.0281994322648
 31
0.0
 12
234.4609576778907
 22
366.6948660989315
 32
0.0
 13
234.4609576778907
 23
366.6948660989315
 33
0.0
  0
SOLID
  5
11B
330
113
100
AcDbEntity
  8
BEMASSUNG-DEUTSCH
 62
     2
440
 16777216
100
AcDbTrace
 10
244.9609576778906
 20
367.3615327655982
 30
0.0
 11
244.9609576778906
 21
366.0281994322648
 31
0.0
 12
240.9609576778906
 22
366.6948660989315
 32
0.0
 13
240.9609576778906
 23
366.6948660989315
 33
0.0
  0
MTEXT
  5
11C
330
113
100
AcDbEntity
  8
BEMASSUNG-DEUTSCH
 62
     3
440
 16777216
100
AcDbMText
 10
237.7109576778906
 20
369.9158585955208
 30
0.0
 40
4.349999999999999
 41
0.0
 46
0.0
 71
     5
 72
     1
  1
\A1;6.5
  7
ARIAL-STANDARD
 73
     1
 44
1.0
  0
POINT
  5
11D
330
113
100
AcDbEntity
  8
DEFPOINTS
 62
     0
440
 16777216
100
AcDbPoint
 10
234.4609576778907
 20
358.7914070356342
 30
0.0
  0
POINT
  5
11E
330
113
100
AcDbEntity
  8
DEFPOINTS
 62
     0
440
 16777216
100
AcDbPoint
 10
240.9609576778906
 20
358.7914070356342
 30
0.0
  0
POINT
  5
11F
330
113
100
AcDbEntity
  8
DEFPOINTS
 62
     0
440
 16777216
100
AcDbPoint
 10
240.9609576778906
 20
366.6948660989315
 30
0.0
  0
ENDBLK
  5
120
330
113
100
AcDbEntity
  8
0
100
AcDbBlockEnd
  0
BLOCK
  5
100
330
FF
100
AcDbEntity
  8
0
100
AcDbBlockBegin
  2
*D23
 70
     1
 10
0.0
 20
0.0
 30
0.0
  3
*D23
  1

  0
LINE
  5
101
330
FF
100
AcDbEntity
  8
BEMASSUNG-DEUTSCH
 62
     2
440
 16777216
370
    -2
100
AcDbLine
 10
234.4609576778907
 20
415.291407035637
 30
0.0
 11
234.4609576778907
 21
406.6438847108711
 31
0.0
  0
LINE
  5
102
330
FF
100
AcDbEntity
  8
BEMASSUNG-DEUTSCH
 62
     2
440
 16777216
370
    -2
100
AcDbLine
 10
230.2609576778906
 20
402.2020203578845
 30
0.0
 11
230.2609576778906
 21
408.6438847108711
 31
0.0
  0
LINE
  5
103
330
FF
100
AcDbEntity
  8
BEMASSUNG-DEUTSCH
 62
     2
440
 16777216
370
    -2
100
AcDbLine
 10
226.2609576778906
 20
407.6438847108711
 30
0.0
 11
222.2609576778906
 21
407.6438847108711
 31
0.0
  0
LINE
  5
104
330
FF
100
AcDbEntity
  8
BEMASSUNG-DEUTSCH
 62
     2
440
 16777216
370
    -2
100
AcDbLine
 10
238.4609576778906
 20
407.6438847108711
 30
0.0
 11
252.5111282099507
 21
407.6438847108711
 31
0.0
  0
LINE
  5
105
330
FF
100
AcDbEntity
  8
BEMASSUNG-DEUTSCH
 62
     2
440
 16777216
370
    -2
100
AcDbLine
 10
230.2609576778906
 20
407.6438847108711
 30
0.0
 11
234.4609576778907
 21
407.6438847108711
 31
0.0
  0
SOLID
  5
106
330
FF
100
AcDbEntity
  8
BEMASSUNG-DEUTSCH
 62
     2
440
 16777216
100
AcDbTrace
 10
226.2609576778906
 20
408.3105513775378
 30
0.0
 11
226.2609576778906
 21
406.9772180442044
 31
0.0
 12
230.2609576778906
 22
407.6438847108711
 32
0.0
 13
230.2609576778906
 23
407.6438847108711
 33
0.0
  0
SOLID
  5
107
330
FF
100
AcDbEntity
  8
BEMASSUNG-DEUTSCH
 62
     2
440
 16777216
100
AcDbTrace
 10
238.4609576778906
 20
408.3105513775378
 30
0.0
 11
238.4609576778906
 21
406.9772180442044
 31
0.0
 12
234.4609576778907
 22
407.6438847108711
 32
0.0
 13
234.4609576778907
 23
407.6438847108711
 33
0.0
  0
MTEXT
  5
108
330
FF
100
AcDbEntity
  8
BEMASSUNG-DEUTSCH
 62
     3
440
 16777216
100
AcDbMText
 10
247.4860429439206
 20
410.8277864844045
 30
0.0
 40
4.349999999999999
 41
0.0
 46
0.0
 71
     5
 72
     1
  1
\A1;4.2
  7
ARIAL-STANDARD
 73
     1
 44
1.0
  0
POINT
  5
109
330
FF
100
AcDbEntity
  8
DEFPOINTS
 62
     0
440
 16777216
100
AcDbPoint
 10
234.4609576778907
 20
415.291407035637
 30
0.0
  0
POINT
  5
10A
330
FF
100
AcDbEntity
  8
DEFPOINTS
 62
     0
440
 16777216
100
AcDbPoint
 10
230.2609576778906
 20
402.2020203578845
 30
0.0
  0
POINT
  5
10B
330
FF
100
AcDbEntity
  8
DEFPOINTS
 62
     0
440
 16777216
100
AcDbPoint
 10
230.2609576778906
 20
407.6438847108711
 30
0.0
  0
ENDBLK
  5
10C
330
FF
100
AcDbEntity
  8
0
100
AcDbBlockEnd
  0
BLOCK
  5
F1
330
F0
100
AcDbEntity
  8
0
100
AcDbBlockBegin
  2
*D24
 70
     1
 10
0.0
 20
0.0
 30
0.0
  3
*D24
  1

  0
LINE
  5
F2
330
F0
100
AcDbEntity
  8
BEMASSUNG-DEUTSCH
 62
     2
440
 16777216
370
    -2
100
AcDbLine
 10
81.74504606681631
 20
545.791407035637
 30
0.0
 11
81.74504606681631
 21
559.4244165362338
 31
0.0
  0
LINE
  5
F3
330
F0
100
AcDbEntity
  8
BEMASSUNG-DEUTSCH
 62
     2
440
 16777216
370
    -2
100
AcDbLine
 10
84.74504606681632
 20
545.791407035637
 30
0.0
 11
84.74504606681632
 21
559.4244165362338
 31
0.0
  0
LINE
  5
F4
330
F0
100
AcDbEntity
  8
BEMASSUNG-DEUTSCH
 62
     2
440
 16777216
370
    -2
100
AcDbLine
 10
88.74504606681631
 20
558.4244165362338
 30
0.0
 11
92.74504606681631
 21
558.4244165362338
 31
0.0
  0
LINE
  5
F5
330
F0
100
AcDbEntity
  8
BEMASSUNG-DEUTSCH
 62
     2
440
 16777216
370
    -2
100
AcDbLine
 10
77.74504606681631
 20
558.4244165362338
 30
0.0
 11
68.89647853612054
 21
558.4244165362338
 31
0.0
  0
LINE
  5
F6
330
F0
100
AcDbEntity
  8
BEMASSUNG-DEUTSCH
 62
     2
440
 16777216
370
    -2
100
AcDbLine
 10
84.74504606681632
 20
558.4244165362338
 30
0.0
 11
81.74504606681631
 21
558.4244165362338
 31
0.0
  0
SOLID
  5
F7
330
F0
100
AcDbEntity
  8
BEMASSUNG-DEUTSCH
 62
     2
440
 16777216
100
AcDbTrace
 10
88.74504606681631
 20
559.0910832029004
 30
0.0
 11
88.74504606681631
 21
557.7577498695672
 31
0.0
 12
84.74504606681632
 22
558.4244165362338
 32
0.0
 13
84.74504606681632
 23
558.4244165362338
 33
0.0
  0
SOLID
  5
F8
330
F0
100
AcDbEntity
  8
BEMASSUNG-DEUTSCH
 62
     2
440
 16777216
100
AcDbTrace
 10
77.74504606681631
 20
559.0910832029004
 30
0.0
 11
77.74504606681631
 21
557.7577498695672
 31
0.0
 12
81.74504606681631
 22
558.4244165362338
 32
0.0
 13
81.74504606681631
 23
558.4244165362338
 33
0.0
  0
MTEXT
  5
F9
330
F0
100
AcDbEntity
  8
BEMASSUNG-DEUTSCH
 62
     3
440
 16777216
100
AcDbMText
 10
71.32076230146843
 20
561.6468926617454
 30
0.0
 40
4.349999999999999
 41
0.0
 46
0.0
 71
     5
 72
     1
  1
\A1;3
  7
ARIAL-STANDARD
 73
     1
 44
1.0
  0
POINT
  5
FA
330
F0
100
AcDbEntity
  8
DEFPOINTS
 62
     0
440
 16777216
100
AcDbPoint
 10
81.74504606681631
 20
545.791407035637
 30
0.0
  0
POINT
  5
FB
330
F0
100
AcDbEntity
  8
DEFPOINTS
 62
     0
440
 16777216
100
AcDbPoint
 10
84.74504606681632
 20
545.791407035637
 30
0.0
  0
POINT
  5
FC
330
F0
100
AcDbEntity
  8
DEFPOINTS
 62
     0
440
 16777216
100
AcDbPoint
 10
84.74504606681632
 20
558.4244165362338
 30
0.0
  0
ENDBLK
  5
FD
330
F0
100
AcDbEntity
  8
0
100
AcDbBlockEnd
  0
BLOCK
  5
E3
330
E2
100
AcDbEntity
  8
0
100
AcDbBlockBegin
  2
*D25
 70
     1
 10
0.0
 20
0.0
 30
0.0
  3
*D25
  1

  0
LINE
  5
E4
330
E2
100
AcDbEntity
  8
BEMASSUNG-DEUTSCH
 62
     2
440
 16777216
370
    -2
100
AcDbLine
 10
84.74504606681632
 20
475.791407035637
 30
0.0
 11
57.462276184343
 21
475.791407035637
 31
0.0
  0
LINE
  5
E5
330
E2
100
AcDbEntity
  8
BEMASSUNG-DEUTSCH
 62
     2
440
 16777216
370
    -2
100
AcDbLine
 10
81.74504606681631
 20
545.791407035637
 30
0.0
 11
57.46227618434301
 21
545.791407035637
 31
0.0
  0
LINE
  5
E6
330
E2
100
AcDbEntity
  8
BEMASSUNG-DEUTSCH
 62
     2
440
 16777216
370
    -2
100
AcDbLine
 10
58.462276184343
 20
479.791407035637
 30
0.0
 11
58.46227618434301
 21
541.791407035637
 31
0.0
  0
SOLID
  5
E7
330
E2
100
AcDbEntity
  8
BEMASSUNG-DEUTSCH
 62
     2
440
 16777216
100
AcDbTrace
 10
57.79560951767633
 20
479.791407035637
 30
0.0
 11
59.12894285100966
 21
479.791407035637
 31
0.0
 12
58.462276184343
 22
475.791407035637
 32
0.0
 13
58.462276184343
 23
475.791407035637
 33
0.0
  0
SOLID
  5
E8
330
E2
100
AcDbEntity
  8
BEMASSUNG-DEUTSCH
 62
     2
440
 16777216
100
AcDbTrace
 10
57.79560951767635
 20
541.791407035637
 30
0.0
 11
59.12894285100968
 21
541.791407035637
 31
0.0
 12
58.46227618434301
 22
545.791407035637
 32
0.0
 13
58.46227618434301
 23
545.791407035637
 33
0.0
  0
MTEXT
  5
E9
330
E2
100
AcDbEntity
  8
BEMASSUNG-DEUTSCH
 62
     3
440
 16777216
100
AcDbMText
 10
55.24128368775356
 20
510.791407035637
 30
0.0
 40
4.349999999999999
 41
0.0
 46
0.0
 71
     5
 72
     1
  1
\A1;70
  7
ARIAL-STANDARD
 11
0.0000000000000001
 21
1.0
 31
0.0
 73
     1
 44
1.0
  0
POINT
  5
EA
330
E2
100
AcDbEntity
  8
DEFPOINTS
 62
     0
440
 16777216
100
AcDbPoint
 10
84.74504606681632
 20
475.791407035637
 30
0.0
  0
POINT
  5
EB
330
E2
100
AcDbEntity
  8
DEFPOINTS
 62
     0
440
 16777216
100
AcDbPoint
 10
81.74504606681631
 20
545.791407035637
 30
0.0
  0
POINT
  5
EC
330
E2
100
AcDbEntity
  8
DEFPOINTS
 62
     0
440
 16777216
100
AcDbPoint
 10
58.46227618434301
 20
545.791407035637
 30
0.0
  0
ENDBLK
  5
ED
330
E2
100
AcDbEntity
  8
0
100
AcDbBlockEnd
  0
BLOCK
  5
D6
330
D5
100
AcDbEntity
  8
0
100
AcDbBlockBegin
  2
*D26
 70
     1
 10
0.0
 20
0.0
 30
0.0
  3
*D26
  1

  0
LINE
  5
D7
330
D5
100
AcDbEntity
  8
BEMASSUNG-DEUTSCH
 62
     2
440
 16777216
370
    -2
100
AcDbLine
 10
71.74504606681631
 20
446.791407035637
 30
0.0
 11
57.462276184343
 21
446.791407035637
 31
0.0
  0
LINE
  5
D8
330
D5
100
AcDbEntity
  8
BEMASSUNG-DEUTSCH
 62
     2
440
 16777216
370
    -2
100
AcDbLine
 10
84.74504606681632
 20
475.791407035637
 30
0.0
 11
57.46227618434301
 21
475.791407035637
 31
0.0
  0
LINE
  5
D9
330
D5
100
AcDbEntity
  8
BEMASSUNG-DEUTSCH
 62
     2
440
 16777216
370
    -2
100
AcDbLine
 10
58.462276184343
 20
450.791407035637
 30
0.0
 11
58.46227618434301
 21
471.791407035637
 31
0.0
  0
SOLID
  5
DA
330
D5
100
AcDbEntity
  8
BEMASSUNG-DEUTSCH
 62
     2
440
 16777216
100
AcDbTrace
 10
57.79560951767634
 20
450.791407035637
 30
0.0
 11
59.12894285100967
 21
450.791407035637
 31
0.0
 12
58.462276184343
 22
446.791407035637
 32
0.0
 13
58.462276184343
 23
446.791407035637
 33
0.0
  0
SOLID
  5
DB
330
D5
100
AcDbEntity
  8
BEMASSUNG-DEUTSCH
 62
     2
440
 16777216
100
AcDbTrace
 10
57.79560951767635
 20
471.791407035637
 30
0.0
 11
59.12894285100968
 21
471.791407035637
 31
0.0
 12
58.46227618434301
 22
475.791407035637
 32
0.0
 13
58.46227618434301
 23
475.791407035637
 33
0.0
  0
MTEXT
  5
DC
330
D5
100
AcDbEntity
  8
BEMASSUNG-DEUTSCH
 62
     3
440
 16777216
100
AcDbMText
 10
55.24128368775357
 20
461.291407035637
 30
0.0
 40
4.349999999999999
 41
0.0
 46
0.0
 71
     5
 72
     1
  1
\A1;29
  7
ARIAL-STANDARD
 11
0.0000000000000001
 21
1.0
 31
0.0
 73
     1
 44
1.0
  0
POINT
  5
DD
330
D5
100
AcDbEntity
  8
DEFPOINTS
 62
     0
440
 16777216
100
AcDbPoint
 10
71.74504606681631
 20
446.791407035637
 30
0.0
  0
POINT
  5
DE
330
D5
100
AcDbEntity
  8
DEFPOINTS
 62
     0
440
 16777216
100
AcDbPoint
 10
84.74504606681632
 20
475.791407035637
 30
0.0
  0
POINT
  5
DF
330
D5
100
AcDbEntity
  8
DEFPOINTS
 62
     0
440
 16777216
100
AcDbPoint
 10
58.46227618434301
 20
475.791407035637
 30
0.0
  0
ENDBLK
  5
E0
330
D5
100
AcDbEntity
  8
0
100
AcDbBlockEnd
  0
BLOCK
  5
C5
330
C4
100
AcDbEntity
  8
0
100
AcDbBlockBegin
  2
*D27
 70
     1
 10
0.0
 20
0.0
 30
0.0
  3
*D27
  1

  0
LINE
  5
C6
330
C4
100
AcDbEntity
  8
BEMASSUNG-DEUTSCH
 62
     2
440
 16777216
370
    -2
100
AcDbLine
 10
119.3772801569919
 20
475.791407035637
 30
0.0
 11
127.2305215935489
 21
475.791407035637
 31
0.0
  0
LINE
  5
C7
330
C4
100
AcDbEntity
  8
BEMASSUNG-DEUTSCH
 62
     2
440
 16777216
370
    -2
100
AcDbLine
 10
108.6463547258539
 20
530.7914070356369
 30
0.0
 11
127.230521593549
 21
530.7914070356369
 31
0.0
  0
LINE
  5
C8
330
C4
100
AcDbEntity
  8
BEMASSUNG-DEUTSCH
 62
     2
440
 16777216
370
    -2
100
AcDbLine
 10
126.2305215935489
 20
479.791407035637
 30
0.0
 11
126.230521593549
 21
526.7914070356369
 31
0.0
  0
SOLID
  5
C9
330
C4
100
AcDbEntity
  8
BEMASSUNG-DEUTSCH
 62
     2
440
 16777216
100
AcDbTrace
 10
125.5638549268823
 20
479.791407035637
 30
0.0
 11
126.8971882602156
 21
479.791407035637
 31
0.0
 12
126.2305215935489
 22
475.791407035637
 32
0.0
 13
126.2305215935489
 23
475.791407035637
 33
0.0
  0
SOLID
  5
CA
330
C4
100
AcDbEntity
  8
BEMASSUNG-DEUTSCH
 62
     2
440
 16777216
100
AcDbTrace
 10
125.5638549268823
 20
526.7914070356369
 30
0.0
 11
126.8971882602156
 21
526.7914070356369
 31
0.0
 12
126.230521593549
 22
530.7914070356369
 32
0.0
 13
126.230521593549
 23
530.7914070356369
 33
0.0
  0
MTEXT
  5
CB
330
C4
100
AcDbEntity
  8
BEMASSUNG-DEUTSCH
 62
     3
440
 16777216
100
AcDbMText
 10
123.0184308704929
 20
503.291407035637
 30
0.0
 40
4.349999999999999
 41
0.0
 46
0.0
 71
     5
 72
     1
  1
\A1;55
  7
ARIAL-STANDARD
 11
0.0000000000000001
 21
1.0
 31
0.0
 73
     1
 44
1.0
  0
POINT
  5
CC
330
C4
100
AcDbEntity
  8
DEFPOINTS
 62
     0
440
 16777216
100
AcDbPoint
 10
119.3772801569919
 20
475.791407035637
 30
0.0
  0
POINT
  5
CD
330
C4
100
AcDbEntity
  8
DEFPOINTS
 62
     0
440
 16777216
100
AcDbPoint
 10
108.6463547258539
 20
530.7914070356369
 30
0.0
  0
POINT
  5
CE
330
C4
100
AcDbEntity
  8
DEFPOINTS
 62
     0
440
 16777216
100
AcDbPoint
 10
126.230521593549
 20
530.7914070356369
 30
0.0
  0
ENDBLK
  5
CF
330
C4
100
AcDbEntity
  8
0
100
AcDbBlockEnd
  0
BLOCK
  5
B2
330
B1
100
AcDbEntity
  8
0
100
AcDbBlockBegin
  2
*D28
 70
     1
 10
0.0
 20
0.0
 30
0.0
  3
*D28
  1

  0
LINE
  5
B3
330
B1
100
AcDbEntity
  8
BEMASSUNG-DEUTSCH
 62
     2
440
 16777216
370
    -2
100
AcDbLine
 10
108.6463547258539
 20
530.7914070356369
 30
0.0
 11
127.2305215935489
 21
530.7914070356369
 31
0.0
  0
LINE
  5
B4
330
B1
100
AcDbEntity
  8
BEMASSUNG-DEUTSCH
 62
     2
440
 16777216
370
    -2
100
AcDbLine
 10
108.6463547258539
 20
550.791407035637
 30
0.0
 11
127.230521593549
 21
550.791407035637
 31
0.0
  0
LINE
  5
B5
330
B1
100
AcDbEntity
  8
BEMASSUNG-DEUTSCH
 62
     2
440
 16777216
370
    -2
100
AcDbLine
 10
126.2305215935489
 20
534.7914070356369
 30
0.0
 11
126.230521593549
 21
546.791407035637
 31
0.0
  0
SOLID
  5
B6
330
B1
100
AcDbEntity
  8
BEMASSUNG-DEUTSCH
 62
     2
440
 16777216
100
AcDbTrace
 10
125.5638549268823
 20
534.7914070356369
 30
0.0
 11
126.8971882602156
 21
534.7914070356369
 31
0.0
 12
126.2305215935489
 22
530.7914070356369
 32
0.0
 13
126.2305215935489
 23
530.7914070356369
 33
0.0
  0
SOLID
  5
B7
330
B1
100
AcDbEntity
  8
BEMASSUNG-DEUTSCH
 62
     2
440
 16777216
100
AcDbTrace
 10
125.5638549268823
 20
546.791407035637
 30
0.0
 11
126.8971882602156
 21
546.791407035637
 31
0.0
 12
126.230521593549
 22
550.791407035637
 32
0.0
 13
126.230521593549
 23
550.791407035637
 33
0.0
  0
MTEXT
  5
B8
330
B1
100
AcDbEntity
  8
BEMASSUNG-DEUTSCH
 62
     3
440
 16777216
100
AcDbMText
 10
123.0095290969595
 20
540.791407035637
 30
0.0
 40
4.349999999999999
 41
0.0
 46
0.0
 71
     5
 72
     1
  1
\A1;20
  7
ARIAL-STANDARD
 11
0.0000000000000001
 21
1.0
 31
0.0
 73
     1
 44
1.0
  0
POINT
  5
B9
330
B1
100
AcDbEntity
  8
DEFPOINTS
 62
     0
440
 16777216
100
AcDbPoint
 10
108.6463547258539
 20
530.7914070356369
 30
0.0
  0
POINT
  5
BA
330
B1
100
AcDbEntity
  8
DEFPOINTS
 62
     0
440
 16777216
100
AcDbPoint
 10
108.6463547258539
 20
550.791407035637
 30
0.0
  0
POINT
  5
BB
330
B1
100
AcDbEntity
  8
DEFPOINTS
 62
     0
440
 16777216
100
AcDbPoint
 10
126.230521593549
 20
550.791407035637
 30
0.0
  0
ENDBLK
  5
BC
330
B1
100
AcDbEntity
  8
0
100
AcDbBlockEnd
  0
BLOCK
  5
90
330
8F
100
AcDbEntity
  8
0
100
AcDbBlockBegin
  2
*D29
 70
     1
 10
0.0
 20
0.0
 30
0.0
  3
*D29
  1

  0
LINE
  5
91
330
8F
100
AcDbEntity
  8
BEMASSUNG-DEUTSCH
 62
     2
440
 16777216
370
    -2
100
AcDbLine
 10
234.4609576778907
 20
450.291407035637
 30
0.0
 11
234.4609576778907
 21
457.1238948970212
 31
0.0
  0
LINE
  5
92
330
8F
100
AcDbEntity
  8
BEMASSUNG-DEUTSCH
 62
     2
440
 16777216
370
    -2
100
AcDbLine
 10
246.4609576778907
 20
447.0775209248601
 30
0.0
 11
246.4609576778907
 21
457.1238948970212
 31
0.0
  0
LINE
  5
93
330
8F
100
AcDbEntity
  8
BEMASSUNG-DEUTSCH
 62
     2
440
 16777216
370
    -2
100
AcDbLine
 10
238.4609576778906
 20
456.1238948970212
 30
0.0
 11
242.4609576778907
 21
456.1238948970212
 31
0.0
  0
SOLID
  5
94
330
8F
100
AcDbEntity
  8
BEMASSUNG-DEUTSCH
 62
     2
440
 16777216
100
AcDbTrace
 10
238.4609576778906
 20
456.7905615636879
 30
0.0
 11
238.4609576778906
 21
455.4572282303546
 31
0.0
 12
234.4609576778907
 22
456.1238948970212
 32
0.0
 13
234.4609576778907
 23
456.1238948970212
 33
0.0
  0
SOLID
  5
95
330
8F
100
AcDbEntity
  8
BEMASSUNG-DEUTSCH
 62
     2
440
 16777216
100
AcDbTrace
 10
242.4609576778907
 20
456.7905615636879
 30
0.0
 11
242.4609576778907
 21
455.4572282303546
 31
0.0
 12
246.4609576778907
 22
456.1238948970212
 32
0.0
 13
246.4609576778907
 23
456.1238948970212
 33
0.0
  0
MTEXT
  5
96
330
8F
100
AcDbEntity
  8
BEMASSUNG-DEUTSCH
 62
     3
440
 16777216
100
AcDbMText
 10
240.4609576778907
 20
459.3077966705546
 30
0.0
 40
4.349999999999999
 41
0.0
 46
0.0
 71
     5
 72
     1
  1
\A1;12
  7
ARIAL-STANDARD
 73
     1
 44
1.0
  0
POINT
  5
97
330
8F
100
AcDbEntity
  8
DEFPOINTS
 62
     0
440
 16777216
100
AcDbPoint
 10
234.4609576778907
 20
450.291407035637
 30
0.0
  0
POINT
  5
98
330
8F
100
AcDbEntity
  8
DEFPOINTS
 62
     0
440
 16777216
100
AcDbPoint
 10
246.4609576778907
 20
447.0775209248601
 30
0.0
  0
POINT
  5
99
330
8F
100
AcDbEntity
  8
DEFPOINTS
 62
     0
440
 16777216
100
AcDbPoint
 10
246.4609576778907
 20
456.1238948970212
 30
0.0
  0
ENDBLK
  5
9A
330
8F
100
AcDbEntity
  8
0
100
AcDbBlockEnd
  0
BLOCK
  5
76
330
75
100
AcDbEntity
  8
0
100
AcDbBlockBegin
  2
*D30
 70
     1
 10
0.0
 20
0.0
 30
0.0
  3
*D30
  1

  0
LINE
  5
77
330
75
100
AcDbEntity
  8
BEMASSUNG-DEUTSCH
 62
     2
440
 16777216
370
    -2
100
AcDbLine
 10
84.74504606681632
 20
545.791407035637
 30
0.0
 11
84.74504606681632
 21
570.0471064930684
 31
0.0
  0
LINE
  5
78
330
75
100
AcDbEntity
  8
BEMASSUNG-DEUTSCH
 62
     2
440
 16777216
370
    -2
100
AcDbLine
 10
101.6957003963351
 20
552.896527384251
 30
0.0
 11
101.6957003963351
 21
570.0471064930684
 31
0.0
  0
LINE
  5
79
330
75
100
AcDbEntity
  8
BEMASSUNG-DEUTSCH
 62
     2
440
 16777216
370
    -2
100
AcDbLine
 10
88.74504606681631
 20
569.0471064930684
 30
0.0
 11
97.6957003963351
 21
569.0471064930684
 31
0.0
  0
SOLID
  5
7A
330
75
100
AcDbEntity
  8
BEMASSUNG-DEUTSCH
 62
     2
440
 16777216
100
AcDbTrace
 10
88.74504606681631
 20
569.713773159735
 30
0.0
 11
88.74504606681631
 21
568.3804398264018
 31
0.0
 12
84.74504606681632
 22
569.0471064930684
 32
0.0
 13
84.74504606681632
 23
569.0471064930684
 33
0.0
  0
SOLID
  5
7B
330
75
100
AcDbEntity
  8
BEMASSUNG-DEUTSCH
 62
     2
440
 16777216
100
AcDbTrace
 10
97.6957003963351
 20
569.713773159735
 30
0.0
 11
97.6957003963351
 21
568.3804398264018
 31
0.0
 12
101.6957003963351
 22
569.0471064930684
 32
0.0
 13
101.6957003963351
 23
569.0471064930684
 33
0.0
  0
MTEXT
  5
7C
330
75
100
AcDbEntity
  8
BEMASSUNG-DEUTSCH
 62
     3
440
 16777216
100
AcDbMText
 10
93.22037323157571
 20
572.2680989896578
 30
0.0
 40
4.349999999999999
 41
0.0
 46
0.0
 71
     5
 72
     1
  1
\A1;16.95
  7
ARIAL-STANDARD
 73
     1
 44
1.0
  0
POINT
  5
7D
330
75
100
AcDbEntity
  8
DEFPOINTS
 62
     0
440
 16777216
100
AcDbPoint
 10
84.74504606681632
 20
545.791407035637
 30
0.0
  0
POINT
  5
7F
330
75
100
AcDbEntity
  8
DEFPOINTS
 62
     0
440
 16777216
100
AcDbPoint
 10
101.6957003963351
 20
552.896527384251
 30
0.0
  0
POINT
  5
80
330
75
100
AcDbEntity
  8
DEFPOINTS
 62
     0
440
 16777216
100
AcDbPoint
 10
101.6957003963351
 20
569.0471064930684
 30
0.0
  0
ENDBLK
  5
81
330
75
100
AcDbEntity
  8
0
100
AcDbBlockEnd
  0
BLOCK
  5
37
330
36
100
AcDbEntity
  8
0
100
AcDbBlockBegin
  2
_None
 70
     0
 10
0.0
 20
0.0
 30
0.0
  3
_None
  1

  0
ENDBLK
  5
38
330
36
100
AcDbEntity
  8
0
100
AcDbBlockEnd
  0
BLOCK
  5
2E7
330
2E6
100
AcDbEntity
  8
0
100
AcDbBlockBegin
  2
_ACMFILLED15
 70
     0
 10
0.0
 20
0.0
 30
0.0
  3
_ACMFILLED15
  1

  0
TRACE
  5
2E8
330
2E6
100
AcDbEntity
  8
BEMASSUNG
 62
     0
100
AcDbTrace
 10
-1.0
 20
-0.131652497
 30
0.0
 11
-1.0
 21
0.131652497
 31
0.0
 12
0.0
 22
0.0
 32
0.0
 13
0.0
 23
0.0
 33
0.0
  0
ENDBLK
  5
2E9
330
2E6
100
AcDbEntity
  8
0
100
AcDbBlockEnd
  0
ENDSEC
  0
SECTION
  2
ENTITIES
  0
DIMENSION
  5
71
330
2
100
AcDbEntity
  8
BEMASSUNG-DEUTSCH
100
AcDbDimension
280
     0
  2
*D30
 10
101.6957003963351
 20
569.0471064930684
 30
0.0
 11
93.22037323157571
 21
572.2680989896578
 31
0.0
 71
     5
 42
16.95065432951878
 73
     0
 74
     0
 75
     0
  3
Katalog 09
100
AcDbAlignedDimension
 13
84.74504606681632
 23
545.791407035637
 33
0.0
 14
101.6957003963351
 24
552.896527384251
 34
0.0
100
AcDbRotatedDimension
1001
ACAD
1000
DSTYLE
1002
{
1070
    75
1070
     0
1070
   173
1070
     0
1070
   343
1005
0
1002
}
1001
ACAD_DSTYLE_DIMINSPECT
1070
   396
1000
100%
1070
   395
1000

1070
   394
1070
    33
1070
   393
1070
     0
  0
LWPOLYLINE
  5
83
330
2
100
AcDbEntity
  8
ACHSEN
 62
     1
100
AcDbPolyline
 90
        2
 70
     0
 43
0.0
 10
235.7609576778905
 20
541.9978962655606
 10
235.7609576778906
 20
529.806578081938
  0
LWPOLYLINE
  5
88
330
2
100
AcDbEntity
  8
ACHSEN
 62
     1
100
AcDbPolyline
 90
        2
 70
     0
 43
0.0
 10
229.661184660945
 20
535.791407035637
 10
242.1934461148672
 20
535.791407035637
  0
CIRCLE
  5
89
330
2
100
AcDbEntity
  8
UMRISS05
100
AcDbCircle
 10
235.7609576778906
 20
535.791407035637
 30
0.0
 40
4.75
  0
CIRCLE
  5
8D
330
2
100
AcDbEntity
  8
UMRISS05
100
AcDbCircle
 10
235.7609576778906
 20
535.791407035637
 30
0.0
 40
2.6
  0
DIMENSION
  5
8E
330
2
100
AcDbEntity
  8
BEMASSUNG-DEUTSCH
100
AcDbDimension
280
     0
  2
*D29
 10
246.4609576778907
 20
456.1238948970212
 30
0.0
 11
240.4609576778907
 21
459.3077966705546
 31
0.0
 71
     5
 42
12.00000000000005
 73
     0
 74
     0
 75
     0
  3
Katalog 09
100
AcDbAlignedDimension
 13
234.4609576778907
 23
450.291407035637
 33
0.0
 14
246.4609576778907
 24
447.0775209248601
 34
0.0
100
AcDbRotatedDimension
1001
ACAD
1000
DSTYLE
1002
{
1070
    75
1070
     0
1070
   173
1070
     0
1070
   343
1005
0
1002
}
1001
ACAD_DSTYLE_DIMINSPECT
1070
   396
1000
100%
1070
   395
1000

1070
   394
1070
    33
1070
   393
1070
     0
  0
LWPOLYLINE
  5
9B
330
2
100
AcDbEntity
  8
5
100
AcDbPolyline
 90
        2
 70
     0
 43
0.0
 10
79.30369965262838
 20
535.4981256250267
 10
88.63608085991558
 20
535.4981256250267
  0
LINE
  5
A0
330
2
100
AcDbEntity
  8
ACHSEN
100
AcDbLine
 10
87.74504606681631
 20
525.791407035637
 30
0.0
 11
108.6463547258539
 21
525.791407035637
 31
0.0
  0
LWPOLYLINE
  5
A1
330
2
100
AcDbEntity
  8
ACHSEN
100
AcDbPolyline
 90
        4
 70
     0
 43
0.0
 10
108.6463547258539
 20
530.7914070356369
 10
108.6463547258539
 20
550.791407035637
 10
94.74504606681632
 20
550.7914070356372
 10
94.74504606681632
 20
530.7914070356369
  0
ARC
  5
A2
330
2
100
AcDbEntity
  8
LAYER3
100
AcDbCircle
 10
98.74504606681632
 20
500.291407035637
 30
0.0
 40
10.0
100
AcDbArc
 50
326.6329870307677
 51
33.36701296923215
  0
ARC
  5
A6
330
2
100
AcDbEntity
  8
ACHSEN
100
AcDbCircle
 10
101.7450460668163
 20
501.7914070356369
 30
0.0
 40
3.0
100
AcDbArc
 50
0.0
 51
90.0
  0
LINE
  5
A7
330
2
100
AcDbEntity
  8
ACHSEN
100
AcDbLine
 10
94.74504606681632
 20
504.791407035637
 30
0.0
 11
94.74504606681632
 21
505.7914070356369
 31
0.0
  0
ARC
  5
A8
330
2
100
AcDbEntity
  8
LAYER3
100
AcDbCircle
 10
87.74504606681631
 20
502.791407035637
 30
0.0
 40
3.0
100
AcDbArc
 50
90.0
 51
180.0
  0
LINE
  5
A9
330
2
100
AcDbEntity
  8
LAYER3
100
AcDbLine
 10
87.74504606681631
 20
505.7914070356369
 30
0.0
 11
108.6463547258539
 21
505.7914070356369
 31
0.0
  0
LINE
  5
AA
330
2
100
AcDbEntity
  8
LAYER3
100
AcDbLine
 10
94.74504606681632
 20
494.791407035637
 30
0.0
 11
108.6463547258539
 21
494.791407035637
 31
0.0
  0
LINE
  5
AB
330
2
100
AcDbEntity
  8
ACHSEN
100
AcDbLine
 10
94.74504606681632
 20
504.791407035637
 30
0.0
 11
108.6463547258539
 21
504.791407035637
 31
0.0
  0
LINE
  5
AC
330
2
100
AcDbEntity
  8
ACHSEN
100
AcDbLine
 10
94.74504606681632
 20
514.791407035637
 30
0.0
 11
108.6463547258539
 21
514.791407035637
 31
0.0
  0
CIRCLE
  5
AD
330
2
100
AcDbEntity
  8
BEMASSUNG
100
AcDbCircle
 10
101.6957003963351
 20
500.291407035637
 30
0.0
 40
2.5
  0
ARC
  5
AE
330
2
100
AcDbEntity
  8
ACHSEN
100
AcDbCircle
 10
98.74504606681632
 20
520.291407035637
 30
0.0
 40
10.0
100
AcDbArc
 50
326.6329870307677
 51
33.36701296923215
  0
ARC
  5
AF
330
2
100
AcDbEntity
  8
ACHSEN
100
AcDbCircle
 10
87.74504606681631
 20
522.7914070356369
 30
0.0
 40
3.0
100
AcDbArc
 50
90.0
 51
180.0
  0
DIMENSION
  5
B0
330
2
100
AcDbEntity
  8
BEMASSUNG-DEUTSCH
100
AcDbDimension
280
     0
  2
*D28
 10
126.230521593549
 20
550.791407035637
 30
0.0
 11
123.0095290969595
 21
540.791407035637
 31
0.0
 71
     5
 42
20.0
 73
     0
 74
     0
 75
     0
  3
Katalog 09
100
AcDbAlignedDimension
 13
108.6463547258539
 23
530.7914070356369
 33
0.0
 14
108.6463547258539
 24
550.791407035637
 34
0.0
 50
90.0
100
AcDbRotatedDimension
1001
ACAD
1000
DSTYLE
1002
{
1070
    75
1070
     0
1070
   173
1070
     0
1070
   343
1005
0
1002
}
1001
ACAD_DSTYLE_DIMINSPECT
1070
   396
1000
100%
1070
   395
1000

1070
   394
1070
    33
1070
   393
1070
     0
  0
ARC
  5
BD
330
2
100
AcDbEntity
  8
UMRISS05
100
AcDbCircle
 10
138.7450460668163
 20
455.7914070356369
 30
0.0
 40
20.0
100
AcDbArc
 50
0.0
 51
90.0
  0
ARC
  5
BE
330
2
100
AcDbEntity
  8
LAYER3
100
AcDbCircle
 10
101.7450460668163
 20
481.791407035637
 30
0.0
 40
3.0
100
AcDbArc
 50
0.0
 51
90.0
  0
LINE
  5
BF
330
2
100
AcDbEntity
  8
LAYER3
100
AcDbLine
 10
104.7450460668163
 20
475.791407035637
 30
0.0
 11
104.7450460668163
 21
481.791407035637
 31
0.0
  0
LINE
  5
C0
330
2
100
AcDbEntity
  8
LAYER3
100
AcDbLine
 10
94.74504606681632
 20
484.7914070356369
 30
0.0
 11
101.7450460668163
 21
484.7914070356369
 31
0.0
  0
LINE
  5
C1
330
2
100
AcDbEntity
  8
UMRISS05
100
AcDbLine
 10
84.74504606681632
 20
445.291407035637
 30
0.0
 11
94.74504606681637
 21
445.291407035637
 31
0.0
  0
LINE
  5
C2
330
2
100
AcDbEntity
  8
UMRISS05
100
AcDbLine
 10
84.74504606681632
 20
475.791407035637
 30
0.0
 11
138.7450460668163
 21
475.791407035637
 31
0.0
  0
DIMENSION
  5
C3
330
2
100
AcDbEntity
  8
BEMASSUNG-DEUTSCH
100
AcDbDimension
280
     0
  2
*D27
 10
126.230521593549
 20
530.7914070356369
 30
0.0
 11
123.0184308704929
 21
503.291407035637
 31
0.0
 71
     5
 42
55.0
 73
     0
 74
     0
 75
     0
  3
Katalog 09
100
AcDbAlignedDimension
 13
119.3772801569919
 23
475.791407035637
 33
0.0
 14
108.6463547258539
 24
530.7914070356369
 34
0.0
 50
90.0
100
AcDbRotatedDimension
1001
ACAD
1000
DSTYLE
1002
{
1070
    75
1070
     0
1070
   173
1070
     0
1070
   343
1005
0
1002
}
1001
ACAD_DSTYLE_DIMINSPECT
1070
   396
1000
100%
1070
   395
1000

1070
   394
1070
    33
1070
   393
1070
     0
  0
LINE
  5
D0
330
2
100
AcDbEntity
  8
LAYER3
100
AcDbLine
 10
94.74504606681632
 20
484.7914070356369
 30
0.0
 11
94.74504606681632
 21
494.791407035637
 31
0.0
  0
LINE
  5
D1
330
2
100
AcDbEntity
  8
ACHSEN
100
AcDbLine
 10
104.7450460668163
 20
481.791407035637
 30
0.0
 11
104.7450460668163
 21
501.7914070356369
 31
0.0
  0
LWPOLYLINE
  5
D2
330
2
100
AcDbEntity
  8
UMRISS05
100
AcDbPolyline
 90
        5
 70
     0
 43
0.0
 10
101.7450460668163
 20
484.7914070356369
 10
108.6463547258539
 20
484.7954739901504
 10
108.6463547258539
 20
530.7914070356369
 10
94.74504606681632
 20
530.7914070356369
 10
94.74504606681632
 20
505.7914070356369
  0
LWPOLYLINE
  5
D3
330
2
100
AcDbEntity
  8
ACHSEN
100
AcDbPolyline
 90
        2
 70
     0
 43
0.0
 10
101.6957003963351
 20
552.896527384251
 10
101.6957003963351
 20
483.0761954715207
  0
DIMENSION
  5
D4
330
2
100
AcDbEntity
  8
BEMASSUNG-DEUTSCH
100
AcDbDimension
280
     0
  2
*D26
 10
58.46227618434301
 20
475.791407035637
 30
0.0
 11
55.24128368775357
 21
461.291407035637
 31
0.0
 71
     5
 42
29.0
 73
     0
 74
     0
 75
     0
  3
Katalog 09
100
AcDbAlignedDimension
 13
71.74504606681631
 23
446.791407035637
 33
0.0
 14
84.74504606681632
 24
475.791407035637
 34
0.0
 50
90.0
100
AcDbRotatedDimension
1001
ACAD
1000
DSTYLE
1002
{
1070
    75
1070
     0
1070
   173
1070
     0
1070
   343
1005
0
1002
}
1001
ACAD_DSTYLE_DIMINSPECT
1070
   396
1000
100%
1070
   395
1000

1070
   394
1070
    33
1070
   393
1070
     0
  0
DIMENSION
  5
E1
330
2
100
AcDbEntity
  8
BEMASSUNG-DEUTSCH
100
AcDbDimension
280
     0
  2
*D25
 10
58.46227618434301
 20
545.791407035637
 30
0.0
 11
55.24128368775356
 21
510.791407035637
 31
0.0
 71
     5
 42
70.0
 73
     0
 74
     0
 75
     0
  3
Katalog 09
100
AcDbAlignedDimension
 13
84.74504606681632
 23
475.791407035637
 33
0.0
 14
81.74504606681631
 24
545.791407035637
 34
0.0
 50
90.0
100
AcDbRotatedDimension
1001
ACAD
1000
DSTYLE
1002
{
1070
    75
1070
     0
1070
   173
1070
     0
1070
   343
1005
0
1002
}
1001
ACAD_DSTYLE_DIMINSPECT
1070
   396
1000
100%
1070
   395
1000

1070
   394
1070
    33
1070
   393
1070
     0
  0
LINE
  5
EE
330
2
100
AcDbEntity
  8
UMRISS05
100
AcDbLine
 10
81.74504606681631
 20
443.5775209248612
 30
0.0
 11
71.74504606681631
 21
443.5775209248612
 31
0.0
  0
DIMENSION
  5
EF
330
2
100
AcDbEntity
  8
BEMASSUNG-DEUTSCH
100
AcDbDimension
280
     0
  2
*D24
 10
84.74504606681632
 20
558.4244165362338
 30
0.0
 11
71.32076230146843
 21
558.4244165362338
 31
0.0
 70
   128
 71
     5
 42
3.0
 73
     0
 74
     0
 75
     0
  3
Katalog 09
100
AcDbAlignedDimension
 13
81.74504606681631
 23
545.791407035637
 33
0.0
 14
84.74504606681632
 24
545.791407035637
 34
0.0
100
AcDbRotatedDimension
1001
ACAD
1000
DSTYLE
1002
{
1070
    75
1070
     0
1070
   173
1070
     0
1070
   343
1005
0
1002
}
1001
ACAD_DSTYLE_DIMINSPECT
1070
   396
1000
100%
1070
   395
1000

1070
   394
1070
    33
1070
   393
1070
     0
  0
DIMENSION
  5
FE
330
2
100
AcDbEntity
  8
BEMASSUNG-DEUTSCH
100
AcDbDimension
280
     0
  2
*D23
 10
230.2609576778906
 20
407.6438847108711
 30
0.0
 11
247.4860429439206
 21
407.6438847108711
 31
0.0
 70
   128
 71
     5
 42
4.200000000000045
 73
     0
 74
     0
 75
     0
  3
Katalog 09
100
AcDbAlignedDimension
 13
234.4609576778907
 23
415.291407035637
 33
0.0
 14
230.2609576778906
 24
402.2020203578845
 34
0.0
100
AcDbRotatedDimension
1001
ACAD
1000
DSTYLE
1002
{
1070
    75
1070
     0
1070
   173
1070
     0
1070
   343
1005
0
1002
}
1001
ACAD_DSTYLE_DIMINSPECT
1070
   396
1000
100%
1070
   395
1000

1070
   394
1070
    33
1070
   393
1070
     0
  0
LWPOLYLINE
  5
10D
330
2
100
AcDbEntity
  8
UMRISS05
100
AcDbPolyline
 90
        4
 70
     1
 43
0.0
 10
240.9609576778906
 20
358.7914070356342
 10
240.9609576778906
 20
326.7914070356342
 10
234.4609576778907
 20
326.7914070356342
 10
234.4609576778907
 20
358.7914070356342
  0
LWPOLYLINE
  5
10E
330
2
100
AcDbEntity
  8
ACHSEN
 62
     1
100
AcDbPolyline
 90
        2
 70
     0
 43
0.0
 10
231.9898803131189
 20
307.7111795539373
 10
244.5221417670412
 20
307.7111795539373
  0
CIRCLE
  5
10F
330
2
100
AcDbEntity
  8
UMRISS05
100
AcDbCircle
 10
238.0896533300646
 20
307.7111795539373
 30
0.0
 40
2.6
  0
CIRCLE
  5
110
330
2
100
AcDbEntity
  8
UMRISS05
100
AcDbCircle
 10
238.0896533300646
 20
307.7111795539373
 30
0.0
 40
4.75
  0
LWPOLYLINE
  5
111
330
2
100
AcDbEntity
  8
ACHSEN
 62
     1
100
AcDbPolyline
 90
        2
 70
     0
 43
0.0
 10
238.0896533300646
 20
313.9176687838609
 10
238.0896533300646
 20
301.7263506002381
  0
DIMENSION
  5
112
330
2
100
AcDbEntity
  8
BEMASSUNG-DEUTSCH
100
AcDbDimension
280
     0
  2
*D22
 10
240.9609576778906
 20
366.6948660989315
 30
0.0
 11
237.7109576778906
 21
369.9158585955208
 31
0.0
 71
     5
 42
6.499999999999943
 73
     0
 74
     0
 75
     0
  3
Katalog 09
100
AcDbAlignedDimension
 13
234.4609576778907
 23
358.7914070356342
 33
0.0
 14
240.9609576778906
 24
358.7914070356342
 34
0.0
100
AcDbRotatedDimension
1001
ACAD
1000
DSTYLE
1002
{
1070
    75
1070
     0
1070
   173
1070
     0
1070
   343
1005
0
1002
}
1001
ACAD_DSTYLE_DIMINSPECT
1070
   396
1000
100%
1070
   395
1000

1070
   394
1070
    33
1070
   393
1070
     0
  0
LWPOLYLINE
  5
121
330
2
100
AcDbEntity
  8
ACHSEN
 62
     1
100
AcDbPolyline
 90
        2
 70
     0
 43
0.0
 10
235.7609576778908
 20
241.9978962655606
 10
235.7609576778908
 20
229.8065780819378
  0
LWPOLYLINE
  5
122
330
2
100
AcDbEntity
  8
ACHSEN
 62
     1
100
AcDbPolyline
 90
        2
 70
     0
 43
0.0
 10
229.6611846609451
 20
235.791407035637
 10
242.1934461148672
 20
235.791407035637
  0
CIRCLE
  5
123
330
2
100
AcDbEntity
  8
UMRISS05
100
AcDbCircle
 10
235.7609576778908
 20
235.791407035637
 30
0.0
 40
4.75
  0
CIRCLE
  5
124
330
2
100
AcDbEntity
  8
UMRISS05
100
AcDbCircle
 10
235.7609576778908
 20
235.791407035637
 30
0.0
 40
2.6
  0
DIMENSION
  5
125
330
2
100
AcDbEntity
  8
BEMASSUNG-DEUTSCH
100
AcDbDimension
280
     0
  2
*D21
 10
250.2609576778906
 20
204.0962482587943
 30
0.0
 11
240.2609576778906
 21
207.3172407553836
 31
0.0
 71
     5
 42
20.0
 73
     0
 74
     0
 75
     0
  3
Katalog 09
100
AcDbAlignedDimension
 13
230.2609576778906
 23
225.791407035637
 33
0.0
 14
250.2609576778906
 24
225.791407035637
 34
0.0
100
AcDbRotatedDimension
1001
ACAD
1000
DSTYLE
1002
{
1070
    75
1070
     0
1070
   173
1070
     0
1070
   343
1005
0
1002
}
1001
ACAD_DSTYLE_DIMINSPECT
1070
   396
1000
100%
1070
   395
1000

1070
   394
1070
    33
1070
   393
1070
     0
  0
DIMENSION
  5
132
330
2
100
AcDbEntity
  8
BEMASSUNG-DEUTSCH
100
AcDbDimension
280
     0
  2
*D20
 10
230.2609576778906
 20
215.6466660162673
 30
0.0
 11
217.2848321662944
 21
215.6466660162673
 31
0.0
 70
   128
 71
     5
 42
5.500000000000113
 73
     0
 74
     0
 75
     0
  3
Katalog 09
100
AcDbAlignedDimension
 13
235.7609576778908
 23
229.8065780819378
 33
0.0
 14
230.2609576778906
 24
225.791407035637
 34
0.0
100
AcDbRotatedDimension
1001
ACAD
1000
DSTYLE
1002
{
1070
    75
1070
     0
1070
   173
1070
     0
1070
   343
1005
0
1002
}
1001
ACAD_DSTYLE_DIMINSPECT
1070
   396
1000
100%
1070
   395
1000

1070
   394
1070
    33
1070
   393
1070
     0
  0
LWPOLYLINE
  5
141
330
2
100
AcDbEntity
  8
UMRISS05
100
AcDbPolyline
 90
        4
 70
     1
 43
0.0
 10
136.2474615951077
 20
406.2914070356369
 10
136.2474615951077
 20
397.291407035637
 10
127.2474615951077
 20
397.291407035637
 10
127.2474615951077
 20
406.2914070356369
  0
LINE
  5
142
330
2
100
AcDbEntity
  8
ACHSEN
100
AcDbLine
 10
131.7450460668163
 20
401.7914070356369
 30
0.0
 11
141.7450460668163
 21
401.7914070356369
 31
0.0
  0
LINE
  5
143
330
2
100
AcDbEntity
  8
ACHSEN
100
AcDbLine
 10
131.7450460668163
 20
401.7914070356369
 30
0.0
 11
131.7450460668163
 21
411.791407035637
 31
0.0
  0
LINE
  5
144
330
2
100
AcDbEntity
  8
UMRISS05
100
AcDbLine
 10
84.74504606681637
 20
418.2914070356369
 30
0.0
 11
94.74504606681637
 21
418.2914070356369
 31
0.0
  0
CIRCLE
  5
145
330
2
100
AcDbEntity
  8
UMRISS05
100
AcDbCircle
 10
131.7450460668163
 20
401.7914070356369
 30
0.0
 40
8.0
  0
LINE
  5
146
330
2
100
AcDbEntity
  8
ACHSEN
100
AcDbLine
 10
131.7450460668163
 20
401.7914070356369
 30
0.0
 11
121.7450460668163
 21
401.7914070356369
 31
0.0
  0
LINE
  5
147
330
2
100
AcDbEntity
  8
ACHSEN
100
AcDbLine
 10
141.7450460668163
 20
310.791407035637
 30
0.0
 11
141.7450460668163
 21
315.391407035637
 31
0.0
  0
LINE
  5
148
330
2
100
AcDbEntity
  8
ACHSEN
100
AcDbLine
 10
141.7450460668163
 20
310.791407035637
 30
0.0
 11
146.3450460668163
 21
310.791407035637
 31
0.0
  0
LINE
  5
149
330
2
100
AcDbEntity
  8
ACHSEN
100
AcDbLine
 10
136.8450460668163
 20
313.932401000544
 30
0.0
 11
136.8450460668165
 21
316.8668131847315
 31
0.0
  0
LINE
  5
14A
330
2
100
AcDbEntity
  8
ACHSEN
100
AcDbLine
 10
126.6450460668161
 20
316.8668131847315
 30
0.0
 11
126.6450460668163
 21
313.932401000544
 31
0.0
  0
LINE
  5
14B
330
2
100
AcDbEntity
  8
ACHSEN
100
AcDbLine
 10
141.7450460668163
 20
310.791407035637
 30
0.0
 11
137.1450460668163
 21
310.791407035637
 31
0.0
  0
LINE
  5
14C
330
2
100
AcDbEntity
  8
ACHSEN
100
AcDbLine
 10
131.7450460668163
 20
304.591407035637
 30
0.0
 11
131.7450460668163
 21
297.4914070356369
 31
0.0
  0
ARC
  5
14D
330
2
100
AcDbEntity
  8
ACHSEN
100
AcDbCircle
 10
131.7450460668163
 20
303.791407035637
 30
0.0
 40
5.099999999999965
100
AcDbArc
 50
180.0
 51
0.0
  0
LINE
  5
14E
330
2
100
AcDbEntity
  8
ACHSEN
100
AcDbLine
 10
131.7450460668163
 20
304.591407035637
 30
0.0
 11
138.8450460668163
 21
304.591407035637
 31
0.0
  0
CIRCLE
  5
14F
330
2
100
AcDbEntity
  8
UMRISS05
100
AcDbCircle
 10
141.7450460668163
 20
310.791407035637
 30
0.0
 40
2.6
  0
LINE
  5
150
330
2
100
AcDbEntity
  8
UMRISS05
100
AcDbLine
 10
136.8450460668163
 20
304.591407035637
 30
0.0
 11
136.8450460668163
 21
313.932401000544
 31
0.0
  0
LINE
  5
151
330
2
100
AcDbEntity
  8
UMRISS05
100
AcDbLine
 10
126.6450460668163
 20
313.932401000544
 30
0.0
 11
126.6450460668163
 21
304.591407035637
 31
0.0
  0
ARC
  5
152
330
2
100
AcDbEntity
  8
UMRISS05
100
AcDbCircle
 10
131.7450460668163
 20
304.591407035637
 30
0.0
 40
5.100000000000022
100
AcDbArc
 50
179.9999999999998
 51
0.0000000000001597
  0
LINE
  5
153
330
2
100
AcDbEntity
  8
ACHSEN
100
AcDbLine
 10
131.7450460668163
 20
323.791407035637
 30
0.0
 11
131.7450460668163
 21
304.591407035637
 31
0.0
  0
LINE
  5
154
330
2
100
AcDbEntity
  8
ACHSEN
100
AcDbLine
 10
141.7450460668163
 20
310.791407035637
 30
0.0
 11
141.7450460668163
 21
306.191407035637
 31
0.0
  0
LINE
  5
155
330
2
100
AcDbEntity
  8
ACHSEN
100
AcDbLine
 10
131.7450460668163
 20
323.791407035637
 30
0.0
 11
158.3914233927997
 21
323.791407035637
 31
0.0
  0
LINE
  5
156
330
2
100
AcDbEntity
  8
ACHSEN
100
AcDbLine
 10
121.7450460668163
 20
310.791407035637
 30
0.0
 11
121.7450460668163
 21
315.391407035637
 31
0.0
  0
LINE
  5
157
330
2
100
AcDbEntity
  8
ACHSEN
100
AcDbLine
 10
121.7450460668163
 20
310.791407035637
 30
0.0
 11
117.1450460668163
 21
310.791407035637
 31
0.0
  0
CIRCLE
  5
158
330
2
100
AcDbEntity
  8
UMRISS05
100
AcDbCircle
 10
121.7450460668163
 20
310.791407035637
 30
0.0
 40
2.6
  0
LINE
  5
159
330
2
100
AcDbEntity
  8
ACHSEN
100
AcDbLine
 10
121.7450460668163
 20
310.791407035637
 30
0.0
 11
121.7450460668163
 21
306.191407035637
 31
0.0
  0
ARC
  5
15A
330
2
100
AcDbEntity
  8
UMRISS05
100
AcDbCircle
 10
131.7450460668163
 20
323.791407035637
 30
0.0
 40
11.10000000000001
100
AcDbArc
 50
297.3522329091297
 51
242.6477670908702
  0
LINE
  5
15B
330
2
100
AcDbEntity
  8
ACHSEN
100
AcDbLine
 10
131.7450460668163
 20
323.791407035637
 30
0.0
 11
118.6450460668163
 21
323.791407035637
 31
0.0
  0
LINE
  5
15C
330
2
100
AcDbEntity
  8
ACHSEN
100
AcDbLine
 10
131.7450460668163
 20
304.591407035637
 30
0.0
 11
124.6450460668163
 21
304.591407035637
 31
0.0
  0
LINE
  5
15D
330
2
100
AcDbEntity
  8
ACHSEN
100
AcDbLine
 10
121.7450460668163
 20
310.791407035637
 30
0.0
 11
126.3450460668163
 21
310.791407035637
 31
0.0
  0
ARC
  5
15E
330
2
100
AcDbEntity
  8
ACHSEN
100
AcDbCircle
 10
131.7450460668163
 20
323.791407035637
 30
0.0
 40
8.599999999999987
100
AcDbArc
 50
306.3718424099366
 51
233.6281575900633
  0
LINE
  5
15F
330
2
100
AcDbEntity
  8
UMRISS05
100
AcDbLine
 10
138.7450460668162
 20
295.791407035637
 30
0.0
 11
84.74504606681632
 21
295.791407035637
 31
0.0
  0
LINE
  5
160
330
2
100
AcDbEntity
  8
ACHSEN
100
AcDbLine
 10
131.7450460668163
 20
323.791407035637
 30
0.0
 11
131.7450460668162
 21
401.7914070356369
 31
0.0
  0
POINT
  5
161
330
2
100
AcDbEntity
  8
6
  6
Continuous
 62
     7
100
AcDbPoint
 10
66.74504606681631
 20
326.7914070356368
 30
0.0
  0
POINT
  5
165
330
2
100
AcDbEntity
  8
6
  6
Continuous
 62
     7
100
AcDbPoint
 10
66.74504606681631
 20
326.7914070356368
 30
0.0
  0
LWPOLYLINE
  5
166
330
2
100
AcDbEntity
  8
UMRISS05
100
AcDbPolyline
 90
        2
 70
     0
 43
0.0
 10
67.74504606681631
 20
358.791407035637
 10
67.74504606681631
 20
326.7914070356368
  0
DIMENSION
  5
167
330
2
100
AcDbEntity
  8
BEMASSUNG-DEUTSCH
100
AcDbDimension
280
     0
  2
*D19
 10
58.46227618434301
 20
358.791407035637
 30
0.0
 11
55.23980005883135
 21
342.791407035637
 31
0.0
 71
     5
 42
32.0
 73
     0
 74
     0
 75
     0
  3
Katalog 09
100
AcDbAlignedDimension
 13
66.74504606681631
 23
326.791407035637
 33
0.0
 14
66.74504606681631
 24
358.791407035637
 34
0.0
 50
90.0
100
AcDbRotatedDimension
1001
ACAD
1000
DSTYLE
1002
{
1070
    75
1070
     0
1070
   173
1070
     0
1070
   343
1005
0
1002
}
1001
ACAD_DSTYLE_DIMINSPECT
1070
   396
1000
100%
1070
   395
1000

1070
   394
1070
    33
1070
   393
1070
     0
  0
DIMENSION
  5
174
330
2
100
AcDbEntity
  8
BEMASSUNG-DEUTSCH
100
AcDbDimension
280
     0
  2
*D18
 10
58.46227618434301
 20
416.791407035637
 30
0.0
 11
55.24128368775357
 21
387.791407035637
 31
0.0
 71
     5
 42
58.0
 73
     0
 74
     0
 75
     0
  3
Katalog 09
100
AcDbAlignedDimension
 13
66.74504606681631
 23
358.791407035637
 33
0.0
 14
71.74504606681631
 24
416.791407035637
 34
0.0
 50
90.0
100
AcDbRotatedDimension
1001
ACAD
1000
DSTYLE
1002
{
1070
    75
1070
     0
1070
   173
1070
     0
1070
   343
1005
0
1002
}
1001
ACAD_DSTYLE_DIMINSPECT
1070
   396
1000
100%
1070
   395
1000

1070
   394
1070
    33
1070
   393
1070
     0
  0
DIMENSION
  5
181
330
2
100
AcDbEntity
  8
BEMASSUNG-DEUTSCH
100
AcDbDimension
280
     0
  2
*D17
 10
81.74504606681631
 20
312.9083677208955
 30
0.0
 11
74.24504606681631
 21
316.1293602174849
 31
0.0
 71
     5
 42
15.0
 73
     0
 74
     0
 75
     0
  3
Katalog 09
100
AcDbAlignedDimension
 13
66.74504606681631
 23
326.7914070356368
 33
0.0
 14
81.74504606681631
 24
312.9083677208955
 34
0.0
100
AcDbRotatedDimension
1001
ACAD
1000
DSTYLE
1002
{
1070
    75
1070
     0
1070
   173
1070
     0
1070
   343
1005
0
1002
}
1001
ACAD_DSTYLE_DIMINSPECT
1070
   396
1000
100%
1070
   395
1000

1070
   394
1070
    33
1070
   393
1070
     0
  0
DIMENSION
  5
18E
330
2
100
AcDbEntity
  8
BEMASSUNG-DEUTSCH
100
AcDbDimension
280
     0
  2
*D16
 10
58.46227618434301
 20
326.791407035637
 30
0.0
 11
55.23980005883136
 21
311.291407035637
 31
0.0
 71
     5
 42
31.0
 73
     0
 74
     0
 75
     0
  3
Katalog 09
100
AcDbAlignedDimension
 13
84.74504606681632
 23
295.791407035637
 33
0.0
 14
66.74504606681631
 24
326.791407035637
 34
0.0
 50
90.0
100
AcDbRotatedDimension
1001
ACAD
1000
DSTYLE
1002
{
1070
    75
1070
     0
1070
   173
1070
     0
1070
   343
1005
0
1002
}
1001
ACAD_DSTYLE_DIMINSPECT
1070
   396
1000
100%
1070
   395
1000

1070
   394
1070
    33
1070
   393
1070
     0
  0
DIMENSION
  5
19B
330
2
100
AcDbEntity
  8
BEMASSUNG-DEUTSCH
100
AcDbDimension
280
     0
  2
*D15
 10
81.74504606681631
 20
401.9650123072961
 30
0.0
 11
76.74504606681631
 21
405.1860048038856
 31
0.0
 71
     5
 42
10.0
 73
     0
 74
     0
 75
     0
  3
Katalog 09
100
AcDbAlignedDimension
 13
71.74504606681631
 23
416.791407035637
 33
0.0
 14
81.74504606681631
 24
401.9650123072961
 34
0.0
100
AcDbRotatedDimension
1001
ACAD
1000
DSTYLE
1002
{
1070
    75
1070
     0
1070
   173
1070
     0
1070
   343
1005
0
1002
}
1001
ACAD_DSTYLE_DIMINSPECT
1070
   396
1000
100%
1070
   395
1000

1070
   394
1070
    33
1070
   393
1070
     0
  0
LWPOLYLINE
  5
1AA
330
2
100
AcDbEntity
  8
UMRISS05
100
AcDbPolyline
 90
        4
 70
     0
 43
0.0
 10
81.74504606681631
 20
358.791407035637
 10
66.74504606681631
 20
358.791407035637
 10
66.74504606681631
 20
326.791407035637
 10
81.74504606681631
 20
326.7914070356368
  0
LINE
  5
1AB
330
2
100
AcDbEntity
  8
UMRISS05
100
AcDbLine
 10
81.74504606681631
 20
420.0052931464127
 30
0.0
 11
71.74504606681631
 21
420.0052931464127
 31
0.0
  0
ARC
  5
1AC
330
2
100
AcDbEntity
  8
LAYER3
100
AcDbCircle
 10
101.7450460668163
 20
289.791407035637
 30
0.0
 40
3.0
100
AcDbArc
 50
270.0
 51
0.0
  0
ARC
  5
1AD
330
2
100
AcDbEntity
  8
ACHSEN
100
AcDbCircle
 10
101.7450460668163
 20
269.791407035637
 30
0.0
 40
3.0
100
AcDbArc
 50
270.0
 51
0.0
  0
LINE
  5
1AE
330
2
100
AcDbEntity
  8
ACHSEN
100
AcDbLine
 10
104.7450460668163
 20
289.791407035637
 30
0.0
 11
104.7450460668163
 21
269.791407035637
 31
0.0
  0
ARC
  5
1AF
330
2
100
AcDbEntity
  8
LAYER3
100
AcDbCircle
 10
98.74504606681632
 20
271.291407035637
 30
0.0
 40
10.0
100
AcDbArc
 50
326.6329870307678
 51
33.36701296923229
  0
LINE
  5
1B0
330
2
100
AcDbEntity
  8
LAYER3
100
AcDbLine
 10
94.74504606681632
 20
286.791407035637
 30
0.0
 11
94.74504606681632
 21
276.791407035637
 31
0.0
  0
LINE
  5
1B1
330
2
100
AcDbEntity
  8
ACHSEN
100
AcDbLine
 10
94.74504606681632
 20
266.791407035637
 30
0.0
 11
94.74504606681632
 21
265.791407035637
 31
0.0
  0
ARC
  5
1B2
330
2
100
AcDbEntity
  8
LAYER3
100
AcDbCircle
 10
87.74504606681631
 20
268.791407035637
 30
0.0
 40
3.0
100
AcDbArc
 50
180.0
 51
270.0
  0
LINE
  5
1B3
330
2
100
AcDbEntity
  8
ACHSEN
100
AcDbLine
 10
94.74504606681632
 20
266.791407035637
 30
0.0
 11
108.6463547258539
 21
266.791407035637
 31
0.0
  0
LINE
  5
1B4
330
2
100
AcDbEntity
  8
LAYER3
100
AcDbLine
 10
94.74504606681632
 20
276.791407035637
 30
0.0
 11
108.6463547258539
 21
276.791407035637
 31
0.0
  0
LINE
  5
1B5
330
2
100
AcDbEntity
  8
LAYER3
100
AcDbLine
 10
94.74504606681632
 20
286.791407035637
 30
0.0
 11
101.7450460668163
 21
286.791407035637
 31
0.0
  0
LINE
  5
1B6
330
2
100
AcDbEntity
  8
LAYER3
100
AcDbLine
 10
87.74504606681631
 20
265.791407035637
 30
0.0
 11
108.6463547258539
 21
265.791407035637
 31
0.0
  0
CIRCLE
  5
1B7
330
2
100
AcDbEntity
  8
BEMASSUNG
100
AcDbCircle
 10
101.6957003963351
 20
271.291407035637
 30
0.0
 40
2.5
  0
ARC
  5
1B8
330
2
100
AcDbEntity
  8
ACHSEN
100
AcDbCircle
 10
98.74504606681632
 20
251.291407035637
 30
0.0
 40
10.0
100
AcDbArc
 50
326.6329870307678
 51
33.36701296923229
  0
ARC
  5
1B9
330
2
100
AcDbEntity
  8
ACHSEN
100
AcDbCircle
 10
87.74504606681631
 20
248.791407035637
 30
0.0
 40
3.0
100
AcDbArc
 50
180.0
 51
270.0
  0
LWPOLYLINE
  5
1BA
330
2
100
AcDbEntity
  8
5
100
AcDbPolyline
 90
        2
 70
     0
 43
0.0
 10
79.30369965262838
 20
235.4546460032403
 10
88.63608085991558
 20
235.4546460032403
  0
LINE
  5
1BB
330
2
100
AcDbEntity
  8
ACHSEN
100
AcDbLine
 10
94.74504606681632
 20
256.791407035637
 30
0.0
 11
108.6463547258539
 21
256.791407035637
 31
0.0
  0
LINE
  5
1BC
330
2
100
AcDbEntity
  8
ACHSEN
100
AcDbLine
 10
87.74504606681631
 20
245.791407035637
 30
0.0
 11
108.6463547258539
 21
245.791407035637
 31
0.0
  0
LWPOLYLINE
  5
1BD
330
2
100
AcDbEntity
  8
UMRISS05
100
AcDbPolyline
 90
        5
 70
     0
 43
0.0
 10
101.7450460668163
 20
286.791407035637
 10
108.6463547258539
 20
286.7873400811236
 10
108.6463547258539
 20
240.791407035637
 10
94.74504606681632
 20
240.791407035637
 10
94.74504606681632
 20
265.791407035637
  0
POINT
  5
1BE
330
2
100
AcDbEntity
  8
6
  6
Continuous
 62
     7
100
AcDbPoint
 10
81.83560939215835
 20
161.7390366434338
 30
0.0
  0
LINE
  5
1BF
330
2
100
AcDbEntity
  8
UMRISS05
100
AcDbLine
 10
81.83560939215835
 20
161.7390366434338
 30
0.0
 11
84.83560939215834
 21
161.7390366434338
 31
0.0
  0
LINE
  5
1C0
330
2
100
AcDbEntity
  8
UMRISS05
100
AcDbLine
 10
84.83560939215834
 20
161.7390366434338
 30
0.0
 11
84.83560939215834
 21
159.9390366434338
 31
0.0
  0
LINE
  5
1C1
330
2
100
AcDbEntity
  8
UMRISS05
100
AcDbLine
 10
84.83560939215834
 20
159.9390366434338
 30
0.0
 11
164.8356093921583
 21
159.9390366434338
 31
0.0
  0
LWPOLYLINE
  5
1C2
330
2
100
AcDbEntity
  8
ACHSEN
100
AcDbPolyline
 90
        2
 70
     0
 43
0.0
 10
101.6957003963351
 20
218.686286687023
 10
101.6957003963351
 20
288.5066185997533
  0
LWPOLYLINE
  5
1C3
330
2
100
AcDbEntity
  8
ACHSEN
100
AcDbPolyline
 90
        4
 70
     0
 43
0.0
 10
108.6463547258539
 20
240.791407035637
 10
108.6463547258539
 20
220.791407035637
 10
94.74504606681632
 20
220.7914070356368
 10
94.74504606681632
 20
240.791407035637
  0
DIMENSION
  5
1C4
330
2
100
AcDbEntity
  8
BEMASSUNG-DEUTSCH
100
AcDbDimension
280
     0
  2
*D14
 10
126.230521593549
 20
220.791407035637
 30
0.0
 11
123.0095290969596
 21
230.791407035637
 31
0.0
 71
     5
 42
20.0
 73
     0
 74
     0
 75
     0
  3
Katalog 09
100
AcDbAlignedDimension
 13
108.6463547258539
 23
240.791407035637
 33
0.0
 14
108.6463547258539
 24
220.791407035637
 34
0.0
 50
90.0
100
AcDbRotatedDimension
1001
ACAD
1000
DSTYLE
1002
{
1070
    75
1070
     0
1070
   173
1070
     0
1070
   343
1005
0
1002
}
1001
ACAD_DSTYLE_DIMINSPECT
1070
   396
1000
100%
1070
   395
1000

1070
   394
1070
    33
1070
   393
1070
     0
  0
DIMENSION
  5
1D1
330
2
100
AcDbEntity
  8
BEMASSUNG-DEUTSCH
100
AcDbDimension
280
     0
  2
*D13
 10
58.46227618434301
 20
295.791407035637
 30
0.0
 11
55.2412836877536
 21
260.791407035637
 31
0.0
 71
     5
 42
69.99999999999997
 73
     0
 74
     0
 75
     0
  3
Katalog 09
100
AcDbAlignedDimension
 13
81.74504606681631
 23
225.791407035637
 33
0.0
 14
84.74504606681632
 24
295.791407035637
 34
0.0
 50
90.0
100
AcDbRotatedDimension
1001
ACAD
1000
DSTYLE
1002
{
1070
    75
1070
     0
1070
   173
1070
     0
1070
   343
1005
0
1002
}
1001
ACAD_DSTYLE_DIMINSPECT
1070
   396
1000
100%
1070
   395
1000

1070
   394
1070
    33
1070
   393
1070
     0
  0
DIMENSION
  5
1DE
330
2
100
AcDbEntity
  8
BEMASSUNG-DEUTSCH
100
AcDbDimension
280
     0
  2
*D12
 10
131.7450460668163
 20
206.6188235439763
 30
0.0
 11
145.2450460668163
 21
209.8027253175097
 31
0.0
 71
     5
 42
26.99999999999994
 73
     0
 74
     0
 75
     0
  3
Katalog 09
100
AcDbAlignedDimension
 13
158.7450460668162
 23
315.791407035637
 33
0.0
 14
131.7450460668163
 24
297.4914070356369
 34
0.0
100
AcDbRotatedDimension
1001
ACAD
1000
DSTYLE
1002
{
1070
    75
1070
     0
1070
   173
1070
     0
1070
   343
1005
0
1002
}
1001
ACAD_DSTYLE_DIMINSPECT
1070
   396
1000
100%
1070
   395
1000

1070
   394
1070
    33
1070
   393
1070
     0
  0
DIMENSION
  5
1EB
330
2
100
AcDbEntity
  8
BEMASSUNG-DEUTSCH
100
AcDbDimension
280
     0
  2
*D11
 10
131.7450460668163
 20
206.6188235439763
 30
0.0
 11
106.7450460668163
 21
209.7938235439763
 31
0.0
  1
DM
 71
     5
 42
50.0
 73
     0
 74
     0
 75
     0
  3
Katalog 09
100
AcDbAlignedDimension
 13
81.74504606681631
 23
225.791407035637
 33
0.0
 14
131.7450460668163
 24
297.4914070356369
 34
0.0
100
AcDbRotatedDimension
1001
ACAD
1000
DSTYLE
1002
{
1070
    75
1070
     0
1070
   173
1070
     0
1070
   343
1005
0
1002
}
1001
ACAD_DSTYLE_DIMINSPECT
1070
   396
1000
100%
1070
   395
1000

1070
   394
1070
    33
1070
   393
1070
     0
  0
DIMENSION
  5
1F8
330
2
100
AcDbEntity
  8
BEMASSUNG-DEUTSCH
100
AcDbDimension
280
     0
  2
*D10
 10
126.230521593549
 20
240.791407035637
 30
0.0
 11
123.018430870493
 21
268.291407035637
 31
0.0
 71
     5
 42
54.99999999999997
 73
     0
 74
     0
 75
     0
  3
Katalog 09
100
AcDbAlignedDimension
 13
123.1179614949545
 23
295.791407035637
 33
0.0
 14
108.6463547258539
 24
240.791407035637
 34
0.0
 50
90.0
100
AcDbRotatedDimension
1001
ACAD
1000
DSTYLE
1002
{
1070
    75
1070
     0
1070
   173
1070
     0
1070
   343
1005
0
1002
}
1001
ACAD_DSTYLE_DIMINSPECT
1070
   396
1000
100%
1070
   395
1000

1070
   394
1070
    33
1070
   393
1070
     0
  0
LINE
  5
205
330
2
100
AcDbEntity
  8
LAYER3
100
AcDbLine
 10
104.7450460668163
 20
295.8104783296534
 30
0.0
 11
104.7450460668163
 21
289.791407035637
 31
0.0
  0
ARC
  5
206
330
2
100
AcDbEntity
  8
UMRISS05
100
AcDbCircle
 10
138.7450460668162
 20
315.791407035637
 30
0.0
 40
20.0
100
AcDbArc
 50
270.0
 51
0.0
  0
DIMENSION
  5
207
330
2
100
AcDbEntity
  8
BEMASSUNG-DEUTSCH
100
AcDbDimension
280
     0
  2
*D9
 10
174.2770126099103
 20
323.791407035637
 30
0.0
 11
171.0560201133209
 21
309.7914070356371
 31
0.0
 71
     5
 42
28.0
 73
     0
 74
     0
 75
     0
  3
Katalog 09
100
AcDbAlignedDimension
 13
138.7450460668162
 23
295.791407035637
 33
0.0
 14
158.3914233927997
 24
323.791407035637
 34
0.0
 50
90.0
100
AcDbRotatedDimension
1001
ACAD
1000
DSTYLE
1002
{
1070
    75
1070
     0
1070
   173
1070
     0
1070
   343
1005
0
1002
}
1001
ACAD_DSTYLE_DIMINSPECT
1070
   396
1000
100%
1070
   395
1000

1070
   394
1070
    33
1070
   393
1070
     0
  0
DIMENSION
  5
214
330
2
100
AcDbEntity
  8
BEMASSUNG-DEUTSCH
100
AcDbDimension
280
     0
  2
*D8
 10
174.2770126099103
 20
401.7914070356369
 30
0.0
 11
171.0560201133209
 21
362.7914070356371
 31
0.0
 71
     5
 42
78.0
 73
     0
 74
     0
 75
     0
  3
Katalog 09
100
AcDbAlignedDimension
 13
158.3914233927997
 23
323.791407035637
 33
0.0
 14
141.7450460668163
 24
401.7914070356369
 34
0.0
 50
90.0
100
AcDbRotatedDimension
1001
ACAD
1000
DSTYLE
1002
{
1070
    75
1070
     0
1070
   173
1070
     0
1070
   343
1005
0
1002
}
1001
ACAD_DSTYLE_DIMINSPECT
1070
   396
1000
100%
1070
   395
1000

1070
   394
1070
    33
1070
   393
1070
     0
  0
LINE
  5
221
330
2
100
AcDbEntity
  8
UMRISS05
100
AcDbLine
 10
164.8356093921582
 20
149.9390366434337
 30
0.0
 11
164.8356093921582
 21
145.9390366434337
 31
0.0
  0
LINE
  5
222
330
2
100
AcDbEntity
  8
UMRISS05
100
AcDbLine
 10
160.8356093921583
 20
155.9390366434338
 30
0.0
 11
160.8356093921583
 21
151.9390366434338
 31
0.0
  0
LINE
  5
223
330
2
100
AcDbEntity
  8
UMRISS05
100
AcDbLine
 10
144.8356093921583
 20
157.9390366434338
 30
0.0
 11
164.8356093921583
 21
157.9390366434338
 31
0.0
  0
LINE
  5
224
330
2
100
AcDbEntity
  8
UMRISS05
100
AcDbLine
 10
164.8356093921582
 20
149.9390366434337
 30
0.0
 11
144.8356093921582
 21
149.9390366434337
 31
0.0
  0
LINE
  5
225
330
2
100
AcDbEntity
  8
UMRISS05
100
AcDbLine
 10
144.8356093921583
 20
155.9390366434338
 30
0.0
 11
160.8356093921583
 21
155.9390366434338
 31
0.0
  0
LINE
  5
226
330
2
100
AcDbEntity
  8
UMRISS05
100
AcDbLine
 10
144.8356093921583
 20
151.9390366434338
 30
0.0
 11
160.8356093921583
 21
151.9390366434338
 31
0.0
  0
LINE
  5
227
330
2
100
AcDbEntity
  8
ACHSEN
100
AcDbLine
 10
101.8356093921583
 20
152.9390366434338
 30
0.0
 11
101.8356093921583
 21
159.0190366434338
 31
0.0
  0
LINE
  5
228
330
2
100
AcDbEntity
  8
ACHSEN
100
AcDbLine
 10
101.8356093921583
 20
152.9390366434338
 30
0.0
 11
107.9156093921582
 21
152.9390366434338
 31
0.0
  0
LINE
  5
229
330
2
100
AcDbEntity
  8
ACHSEN
100
AcDbLine
 10
101.8356093921583
 20
152.9390366434338
 30
0.0
 11
101.8356093921583
 21
146.8590366434337
 31
0.0
  0
LWPOLYLINE
  5
22A
330
2
100
AcDbEntity
  8
UMRISS05
100
AcDbPolyline
 90
        2
 70
     0
 43
0.0
 10
88.83560939215835
 20
155.9390366434338
 10
94.83560939215834
 20
155.9390366434338
  0
LWPOLYLINE
  5
22B
330
2
100
AcDbEntity
  8
UMRISS05
100
AcDbPolyline
 90
        2
 70
     0
 43
0.0
 10
88.83560939215835
 20
150.9390366434337
 10
88.83560939215835
 20
155.9390366434338
  0
POINT
  5
22C
330
2
100
AcDbEntity
  8
6
  6
Continuous
 62
     7
100
AcDbPoint
 10
80.83560939215834
 20
145.4890366434338
 30
0.0
  0
LINE
  5
22D
330
2
100
AcDbEntity
  8
UMRISS05
100
AcDbLine
 10
80.83560939215834
 20
145.4890366434338
 30
0.0
 11
81.83560939215835
 21
145.4890366434338
 31
0.0
  0
LWPOLYLINE
  5
22E
330
2
100
AcDbEntity
  8
UMRISS05
100
AcDbPolyline
 90
        2
 70
     0
 43
0.0
 10
84.83560939215834
 20
150.9390366434337
 10
94.83560939215834
 20
150.9390366434337
  0
LWPOLYLINE
  5
22F
330
2
100
AcDbEntity
  8
UMRISS05
100
AcDbPolyline
 90
        2
 70
     0
 43
0.0
 10
84.83560939215834
 20
147.9390366434337
 10
94.83560939215834
 20
147.9390366434337
  0
LWPOLYLINE
  5
230
330
2
100
AcDbEntity
  8
UMRISS05
100
AcDbPolyline
 90
        2
 70
     0
 43
0.0
 10
88.83560939215835
 20
152.9390366434338
 10
84.83560939215834
 20
152.9390366434338
  0
LINE
  5
231
330
2
100
AcDbEntity
  8
UMRISS05
100
AcDbLine
 10
84.83560939215834
 20
141.7390366434338
 30
0.0
 11
81.83560939215835
 21
141.7390366434338
 31
0.0
  0
LINE
  5
232
330
2
100
AcDbEntity
  8
ACHSEN
100
AcDbLine
 10
101.8356093921583
 20
152.9390366434338
 30
0.0
 11
95.75560939215842
 21
152.9390366434338
 31
0.0
  0
CIRCLE
  5
233
330
2
100
AcDbEntity
  8
UMRISS03
100
AcDbCircle
 10
101.8356093921583
 20
152.9390366434338
 30
0.0
 40
4.08
  0
ARC
  5
237
330
2
100
AcDbEntity
  8
UMRISS03
100
AcDbCircle
 10
101.8356093921583
 20
152.9390366434338
 30
0.0
 40
4.998935186617246
100
AcDbArc
 50
168.4605497308278
 51
99.99934841922991
  0
DIMENSION
  5
238
330
2
100
AcDbEntity
  8
BEMASSUNG-DEUTSCH
100
AcDbDimension
280
     0
  2
*D7
 10
106.8345445787756
 20
135.8659239179862
 30
0.0
 11
101.8356093921583
 21
135.8659239179862
 31
0.0
 70
   128
  1
M<>
 71
     5
 42
9.997870373234491
 73
     0
 74
     0
 75
     0
  3
Katalog 09
100
AcDbAlignedDimension
 13
96.8366742055411
 23
152.9390366434338
 33
0.0
 14
106.8345445787756
 24
152.9390366434338
 34
0.0
100
AcDbRotatedDimension
1001
ACAD
1000
DSTYLE
1002
{
1070
    75
1070
     0
1070
   173
1070
     0
1070
   343
1005
0
1002
}
1001
ACAD_DSTYLE_DIMINSPECT
1070
   396
1000
100%
1070
   395
1000

1070
   394
1070
    33
1070
   393
1070
     0
  0
LINE
  5
247
330
2
100
AcDbEntity
  8
UMRISS05
100
AcDbLine
 10
164.8356093921582
 20
145.9390366434337
 30
0.0
 11
84.83560939215834
 21
145.9390366434335
 31
0.0
  0
LINE
  5
248
330
2
100
AcDbEntity
  8
UMRISS05
100
AcDbLine
 10
164.8356093921582
 20
147.9390366434337
 30
0.0
 11
108.8356093921583
 21
147.9390366434336
 31
0.0
  0
LWPOLYLINE
  5
249
330
2
100
AcDbEntity
  8
UMRISS05
100
AcDbPolyline
 90
        2
 70
     0
 43
0.0
 10
71.83560939215834
 20
155.4890366434338
 10
71.83560939215834
 20
157.4890366434338
  0
ARC
  5
24A
330
2
100
AcDbEntity
  8
UMRISS05
100
AcDbCircle
 10
72.61685939215834
 20
154.2390366434338
 30
0.0
 40
5.78125
100
AcDbArc
 50
145.7945420618957
 51
214.2054579381042
  0
LWPOLYLINE
  5
24B
330
2
100
AcDbEntity
  8
UMRISS05
100
AcDbPolyline
 90
        3
 70
     0
 43
0.0
 10
81.83560939215835
 20
155.4890366434338
 10
71.83560939215834
 20
155.4890366434338
 10
80.83560939215834
 20
145.4890366434338
  0
LINE
  5
24C
330
2
100
AcDbEntity
  8
UMRISS05
100
AcDbLine
 10
73.18097179686572
 20
155.4890366434338
 30
0.0
 11
81.83560939215835
 21
145.8727726486642
 31
0.0
  0
LINE
  5
24D
330
2
100
AcDbEntity
  8
UMRISS05
100
AcDbLine
 10
81.83560939215835
 20
157.4890366434338
 30
0.0
 11
67.83560939215835
 21
157.4890366434338
 31
0.0
  0
LINE
  5
24E
330
2
100
AcDbEntity
  8
UMRISS05
100
AcDbLine
 10
67.83560939215835
 20
150.9890366434338
 30
0.0
 11
75.88560939215835
 21
150.9890366434338
 31
0.0
  0
DIMENSION
  5
24F
330
2
100
AcDbEntity
  8
BEMASSUNG-DEUTSCH
100
AcDbDimension
280
     0
  2
*D6
 10
178.2606750426482
 20
145.9390366434337
 30
0.0
 11
175.0767732691147
 21
152.9390366434338
 31
0.0
 71
     5
 42
14.0
 73
     0
 74
     0
 75
     0
  3
Katalog 09
100
AcDbAlignedDimension
 13
164.8356093921583
 23
159.9390366434338
 33
0.0
 14
164.8356093921582
 24
145.9390366434337
 34
0.0
 50
90.0
100
AcDbRotatedDimension
1001
ACAD
1000
DSTYLE
1002
{
1070
    75
1070
     0
1070
   173
1070
     0
1070
   343
1005
0
1002
}
1001
ACAD_DSTYLE_DIMINSPECT
1070
   396
1000
100%
1070
   395
1000

1070
   394
1070
    33
1070
   393
1070
     0
  0
DIMENSION
  5
25C
330
2
100
AcDbEntity
  8
BEMASSUNG-DEUTSCH
100
AcDbDimension
280
     0
  2
*D5
 10
115.5561777902247
 20
159.9390366434338
 30
0.0
 11
115.5561777902247
 21
174.4985523323833
 31
0.0
 70
   128
 71
     5
 42
1.800000000000011
 73
     0
 74
     0
 75
     0
  3
Katalog 09
100
AcDbAlignedDimension
 13
84.83560939215834
 23
161.7390366434338
 33
0.0
 14
120.4434939009005
 24
159.9390366434338
 34
0.0
 50
90.0
100
AcDbRotatedDimension
1001
ACAD
1000
DSTYLE
1002
{
1070
    75
1070
     0
1070
   173
1070
     0
1070
   343
1005
0
1002
}
1001
ACAD_DSTYLE_DIMINSPECT
1070
   396
1000
100%
1070
   395
1000

1070
   394
1070
    33
1070
   393
1070
     0
  0
LWPOLYLINE
  5
26B
330
2
100
AcDbEntity
  8
UMRISS05
100
AcDbPolyline
 90
        2
 70
     0
 43
0.0
 10
108.8356093921583
 20
159.9390366434338
 10
108.8356093921583
 20
145.9390366434337
  0
LWPOLYLINE
  5
26C
330
2
100
AcDbEntity
  8
UMRISS05
100
AcDbPolyline
 90
        2
 70
     0
 43
0.0
 10
94.83560939215834
 20
159.9390366434338
 10
94.83560939215834
 20
145.9390366434337
  0
LINE
  5
26D
330
2
100
AcDbEntity
  8
UMRISS05
100
AcDbLine
 10
84.83560939215834
 20
159.9390366434338
 30
0.0
 11
84.83560939215834
 21
141.7390366434338
 31
0.0
  0
LINE
  5
26E
330
2
100
AcDbEntity
  8
UMRISS05
100
AcDbLine
 10
81.83560939215835
 20
141.7390366434338
 30
0.0
 11
81.83560939215835
 21
161.7390366434338
 31
0.0
  0
LINE
  5
26F
330
2
100
AcDbEntity
  8
UMRISS05
100
AcDbLine
 10
164.8356093921583
 20
159.9390366434338
 30
0.0
 11
164.8356093921583
 21
157.9390366434338
 31
0.0
  0
LINE
  5
270
330
2
100
AcDbEntity
  8
UMRISS05
100
AcDbLine
 10
144.8356093921583
 20
159.9390366434339
 30
0.0
 11
144.8356093921582
 21
147.9390366434337
 31
0.0
  0
LINE
  5
271
330
2
100
AcDbEntity
  8
UMRISS05
100
AcDbLine
 10
147.8356093921583
 20
159.9390366434339
 30
0.0
 11
147.8356093921583
 21
157.9390366434338
 31
0.0
  0
DIMENSION
  5
272
330
2
100
AcDbEntity
  8
BEMASSUNG-DEUTSCH
100
AcDbDimension
280
     0
  2
*D4
 10
174.2770126099103
 20
475.791407035637
 30
0.0
 11
171.1020126099102
 21
438.791407035637
 31
0.0
 71
     5
 42
74.0
 73
     0
 74
     0
 75
     0
  3
Katalog 09
100
AcDbAlignedDimension
 13
141.7450460668163
 23
401.7914070356369
 33
0.0
 14
138.7450460668163
 24
475.791407035637
 34
0.0
 50
90.0
100
AcDbRotatedDimension
1001
ACAD
1000
DSTYLE
1002
{
1070
    75
1070
     0
1070
   173
1070
     0
1070
   343
1005
0
1002
}
1001
ACAD_DSTYLE_DIMINSPECT
1070
   396
1000
100%
1070
   395
1000

1070
   394
1070
    33
1070
   393
1070
     0
  0
DIMENSION
  5
27F
330
2
100
AcDbEntity
  8
BEMASSUNG-DEUTSCH
100
AcDbDimension
280
     0
  2
*D3
 10
58.46227618434301
 20
446.791407035637
 30
0.0
 11
55.23980005883134
 21
431.791407035637
 31
0.0
 71
     5
 42
30.0
 73
     0
 74
     0
 75
     0
  3
Katalog 09
100
AcDbAlignedDimension
 13
71.74504606681631
 23
416.791407035637
 33
0.0
 14
71.74504606681631
 24
446.791407035637
 34
0.0
 50
90.0
100
AcDbRotatedDimension
1001
ACAD
1000
DSTYLE
1002
{
1070
    75
1070
     0
1070
   173
1070
     0
1070
   343
1005
0
1002
}
1001
ACAD_DSTYLE_DIMINSPECT
1070
   396
1000
100%
1070
   395
1000

1070
   394
1070
    33
1070
   393
1070
     0
  0
DIMENSION
  5
28C
330
2
100
AcDbEntity
  8
BEMASSUNG-DEUTSCH
100
AcDbDimension
280
     0
  2
*D2
 10
136.2474615951077
 20
422.8315573321062
 30
0.0
 11
131.7474615951077
 21
426.080738778218
 31
0.0
  1
8/<>
 71
     5
 42
9.0
 73
     0
 74
     0
 75
     0
  3
Katalog 09
100
AcDbAlignedDimension
 13
127.2474615951077
 23
406.2914070356369
 33
0.0
 14
136.2474615951077
 24
406.2914070356369
 34
0.0
100
AcDbRotatedDimension
1001
ACAD
1000
DSTYLE
1002
{
1070
    75
1070
     0
1070
   173
1070
     0
1070
   343
1005
0
1002
}
1001
ACAD_DSTYLE_DIMINSPECT
1070
   396
1000
100%
1070
   395
1000

1070
   394
1070
    33
1070
   393
1070
     0
  0
DIMENSION
  5
29B
330
2
100
AcDbEntity
  8
BEMASSUNG-DEUTSCH
100
AcDbDimension
280
     0
  2
*D1
 10
262.653734589944
 20
225.791407035637
 30
0.0
 11
259.4312584644324
 21
385.791407035637
 31
0.0
 71
     5
 42
319.9999999999999
 73
     0
 74
     0
 75
     0
  3
Katalog 09
100
AcDbAlignedDimension
 13
250.2609576778905
 23
545.791407035637
 33
0.0
 14
250.2609576778906
 24
225.791407035637
 34
0.0
 50
90.0
100
AcDbRotatedDimension
1001
ACAD
1000
DSTYLE
1002
{
1070
    75
1070
     0
1070
   173
1070
     0
1070
   343
1005
0
1002
}
1001
ACAD_DSTYLE_DIMINSPECT
1070
   396
1000
100%
1070
   395
1000

1070
   394
1070
    33
1070
   393
1070
     0
  0
DIMENSION
  5
2A8
330
2
100
AcDbEntity
  8
BEMASSUNG-DEUTSCH
100
AcDbDimension
280
     0
  2
*D0
 10
185.1516403131235
 20
475.791407035637
 30
0.0
 11
181.9306478165341
 21
385.791407035637
 31
0.0
 71
     5
 42
180.0
 73
     0
 74
     0
 75
     0
  3
Katalog 09
100
AcDbAlignedDimension
 13
138.7450460668162
 23
295.791407035637
 33
0.0
 14
138.7450460668163
 24
475.791407035637
 34
0.0
 50
90.0
100
AcDbRotatedDimension
1001
ACAD
1000
DSTYLE
1002
{
1070
    75
1070
     0
1070
   173
1070
     0
1070
   343
1005
0
1002
}
1001
ACAD_DSTYLE_DIMINSPECT
1070
   396
1000
100%
1070
   395
1000

1070
   394
1070
    33
1070
   393
1070
     0
  0
ARC
  5
2B5
330
2
100
AcDbEntity
  8
UMRISS05
100
AcDbCircle
 10
158.7654334667974
 20
432.6603815172243
 30
0.0
 40
79.0218222463634
100
AcDbArc
 50
349.4877911087178
 51
10.51220889128263
  0
LWPOLYLINE
  5
2B6
330
2
100
AcDbEntity
  8
UMRISS05
100
AcDbPolyline
 90
        4
 70
     1
 43
0.0
 10
81.74504606681631
 20
545.791407035637
 10
84.74504606681632
 20
545.791407035637
 10
84.74504606681632
 20
225.791407035637
 10
81.74504606681631
 20
225.791407035637
  0
LWPOLYLINE
  5
2B7
330
2
100
AcDbEntity
  8
UMRISS05
100
AcDbPolyline
 90
        4
 70
     0
 43
0.0
 10
81.74504606681631
 20
446.791407035637
 10
71.74504606681631
 20
446.791407035637
 10
71.74504606681631
 20
416.791407035637
 10
81.74504606681631
 20
416.791407035637
  0
LWPOLYLINE
  5
2B8
330
2
100
AcDbEntity
  8
UMRISS05
100
AcDbPolyline
 90
        4
 70
     1
 43
0.0
 10
230.2609576778906
 20
545.791407035637
 10
230.2609576778906
 20
225.791407035637
 10
250.2609576778906
 20
225.791407035637
 10
250.2609576778905
 20
545.791407035637
  0
LWPOLYLINE
  5
2B9
330
2
100
AcDbEntity
  8
UMRISS05
100
AcDbPolyline
 90
        4
 70
     0
 43
0.0
 10
236.4609576778906
 20
418.2432421095882
 10
246.4609576778907
 20
418.2432421095882
 10
246.4609576778907
 20
447.0775209248601
 10
236.4609576778906
 20
447.0775209248601
  0
LWPOLYLINE
  5
2BA
330
2
100
AcDbEntity
  8
UMRISS05
100
AcDbPolyline
 90
        4
 70
     1
 43
0.0
 10
234.4609576778907
 20
450.291407035637
 10
236.4609576778906
 20
450.291407035637
 10
236.4609576778906
 20
415.291407035637
 10
234.4609576778907
 20
415.291407035637
  0
ARC
  5
2BB
330
2
100
AcDbEntity
  8
UMRISS05
100
AcDbCircle
 10
167.2683301514838
 20
431.6603815172242
 30
0.0
 40
86.34958211993762
100
AcDbArc
 50
172.067267659153
 51
187.9327323408464
  0
LINE
  5
2BC
330
2
100
AcDbEntity
  8
UMRISS05
100
AcDbLine
 10
94.74504606681637
 20
445.291407035637
 30
0.0
 11
94.74504606681637
 21
418.2914070356369
 31
0.0
  0
LINE
  5
2BD
330
2
100
AcDbEntity
  8
UMRISS05
100
AcDbLine
 10
158.7450460668163
 20
455.7914070356369
 30
0.0
 11
158.7450460668162
 21
315.791407035637
 31
0.0
  0
ENDSEC
  0
SECTION
  2
OBJECTS
  0
DICTIONARY
  5
B
330
0
100
AcDbDictionary
281
     1
  3
ACAD_COLOR
350
54
  3
ACAD_DETAILVIEWSTYLE
350
2E0
  3
ACAD_FIELDLIST
350
306
  3
ACAD_GROUP
350
41
  3
ACAD_LAYOUT
350
18
  3
ACAD_MATERIAL
350
D
  3
ACAD_MLEADERSTYLE
350
57
  3
ACAD_MLINESTYLE
350
42
  3
ACAD_PLOTSETTINGS
350
43
  3
ACAD_PLOTSTYLENAME
350
A
  3
ACAD_SCALELIST
350
55
  3
ACAD_SECTIONVIEWSTYLE
350
2EF
  3
ACAD_TABLESTYLE
350
56
  3
ACAD_VISUALSTYLE
350
30
  3
ACDB_RECOMPOSE_DATA
350
33D
  3
AcDbVariableDictionary
350
32F
  3
AcmDictionary
350
2D0
  3
AMG
350
2C0
  0
DICTIONARY
  5
20
330
1F
100
AcDbDictionary
280
     1
281
     1
  3
ACAD_LAYERFILTERS
360
21
  3
ACAD_LAYERSTATES
360
22
  3
ACLYDICTIONARY
360
23
  0
DICTIONARY
  5
7
330
6
100
AcDbDictionary
280
     1
281
     1
  3
ADSK_XREC_LAYER_RECONCILED
360
8
  0
DICTIONARY
  5
235
330
234
100
AcDbDictionary
280
     1
281
     1
  3
ADSK_XREC_LAYER_RECONCILED
360
236
  0
DICTIONARY
  5
8B
330
8A
100
AcDbDictionary
280
     1
281
     1
  3
ADSK_XREC_LAYER_RECONCILED
360
8C
  0
DICTIONARY
  5
59
330
58
100
AcDbDictionary
280
     1
281
     1
  3
ADSK_XREC_LAYER_RECONCILED
360
5A
  0
DICTIONARY
  5
85
330
84
100
AcDbDictionary
280
     1
281
     1
  3
ADSK_XREC_LAYER_RECONCILED
360
86
  0
DICTIONARY
  5
9D
330
9C
100
AcDbDictionary
280
     1
281
     1
  3
ADSK_XREC_LAYER_RECONCILED
360
9E
  0
DICTIONARY
  5
163
330
162
100
AcDbDictionary
280
     1
281
     1
  3
ADSK_XREC_LAYER_RECONCILED
360
164
  0
DICTIONARY
  5
73
330
72
100
AcDbDictionary
280
     1
281
     1
  3
ADSK_XREC_LAYER_RECONCILED
360
74
  0
DICTIONARY
  5
A4
330
A3
100
AcDbDictionary
280
     1
281
     1
  3
ADSK_XREC_LAYER_RECONCILED
360
A5
  0
DICTIONARY
  5
3
330
2
100
AcDbDictionary
280
     1
281
     1
  3
ACAD_SORTENTS
360
2BE
  0
DICTIONARY
  5
54
102
{ACAD_REACTORS
330
B
102
}
330
B
100
AcDbDictionary
281
     1
  0
DICTIONARY
  5
2E0
102
{ACAD_REACTORS
330
B
102
}
330
B
100
AcDbDictionary
281
     1
  3
Metric50
350
2EB
  0
FIELDLIST
  5
306
102
{ACAD_REACTORS
330
B
102
}
330
B
100
AcDbIdSet
 90
        6
330
2E3
330
2E4
330
2E5
330
2F2
330
2F3
330
2F4
100
AcDbFieldList
  0
DICTIONARY
  5
41
102
{ACAD_REACTORS
330
B
102
}
330
B
100
AcDbDictionary
281
     1
  0
DICTIONARY
  5
18
102
{ACAD_REACTORS
330
B
102
}
330
B
100
AcDbDictionary
281
     1
  3
Layout1
350
1E
  3
Model
350
17
  0
DICTIONARY
  5
D
102
{ACAD_REACTORS
330
B
102
}
330
B
100
AcDbDictionary
281
     1
  3
ByBlock
350
4C
  3
ByLayer
350
44
  3
Global
350
C
  0
DICTIONARY
  5
57
102
{ACAD_REACTORS
330
B
102
}
330
B
100
AcDbDictionary
281
     1
  0
DICTIONARY
  5
42
102
{ACAD_REACTORS
330
B
102
}
330
B
100
AcDbDictionary
281
     1
  3
STANDARD
350
5B
  0
DICTIONARY
  5
43
102
{ACAD_REACTORS
330
B
102
}
330
B
100
AcDbDictionary
281
     1
  0
ACDBDICTIONARYWDFLT
  5
A
102
{ACAD_REACTORS
330
B
102
}
330
B
100
AcDbDictionary
281
     1
  3
Normal
350
9
100
AcDbDictionaryWithDefault
340
9
  0
DICTIONARY
  5
55
102
{ACAD_REACTORS
330
B
102
}
330
B
100
AcDbDictionary
281
     1
  3
A0
350
60
  3
A1
350
61
  3
A2
350
62
  3
A3
350
63
  3
A4
350
64
  3
A5
350
65
  3
A6
350
66
  3
A7
350
67
  3
A8
350
68
  3
A9
350
69
  3
B0
350
6A
  3
B1
350
6B
  3
B2
350
6C
  3
B3
350
6D
  3
B4
350
6E
  3
B5
350
6F
  3
B6
350
70
  0
DICTIONARY
  5
2EF
102
{ACAD_REACTORS
330
B
102
}
330
B
100
AcDbDictionary
281
     1
  3
Metric50
350
2F7
  0
DICTIONARY
  5
56
102
{ACAD_REACTORS
330
B
102
}
330
B
100
AcDbDictionary
281
     1
  3
Standard
350
5C
  0
DICTIONARY
  5
30
102
{ACAD_REACTORS
330
B
102
}
330
B
100
AcDbDictionary
281
     1
  3
2dWireframe
350
2F
  3
Realistic
350
5E
  3
Wireframe
350
5F
  0
XRECORD
  5
33D
102
{ACAD_REACTORS
330
B
102
}
330
B
100
AcDbXrecord
280
     1
 90
        1
330
5C
330
2EB
330
2F7
  0
DICTIONARY
  5
32F
102
{ACAD_REACTORS
330
B
102
}
330
B
100
AcDbDictionary
281
     1
  3
CANNOSCALE
350
335
  3
CMLEADERSTYLE
350
331
  3
CTABLESTYLE
350
330
  3
CVIEWDETAILSTYLE
350
332
  3
CVIEWSECTIONSTYLE
350
333
  3
LAYEREVAL
350
337
  3
LAYERNOTIFY
350
338
  3
LIGHTINGUNITS
350
336
  3
MSLTSCALE
350
334
  0
DICTIONARY
  5
2D0
102
{ACAD_REACTORS
330
B
102
}
330
B
100
AcDbDictionary
281
     1
  3
AcmStdDictionary
350
2D1
  0
DICTIONARY
  5
2C0
102
{ACAD_REACTORS
330
B
102
}
330
B
100
AcDbDictionary
281
     1
  3
AcMgSettings
350
2CA
  3
AMGLAYCFG
350
2BF
  0
DICTIONARY
  5
21
102
{ACAD_REACTORS
330
20
102
}
330
20
100
AcDbDictionary
281
     1
  0
DICTIONARY
  5
22
102
{ACAD_REACTORS
330
20
102
}
330
20
100
AcDbDictionary
281
     1
  0
DICTIONARY
  5
23
102
{ACAD_REACTORS
330
20
102
}
330
20
100
AcDbDictionary
281
     1
1001
ACAD
1000
<All
  0
XRECORD
  5
8
102
{ACAD_REACTORS
330
7
102
}
330
7
100
AcDbXrecord
280
     1
290
     1
  0
XRECORD
  5
236
102
{ACAD_REACTORS
330
235
102
}
330
235
100
AcDbXrecord
280
     1
290
     1
  0
XRECORD
  5
8C
102
{ACAD_REACTORS
330
8B
102
}
330
8B
100
AcDbXrecord
280
     1
290
     1
  0
XRECORD
  5
5A
102
{ACAD_REACTORS
330
59
102
}
330
59
100
AcDbXrecord
280
     1
290
     1
  0
XRECORD
  5
86
102
{ACAD_REACTORS
330
85
102
}
330
85
100
AcDbXrecord
280
     1
290
     1
  0
XRECORD
  5
9E
102
{ACAD_REACTORS
330
9D
102
}
330
9D
100
AcDbXrecord
280
     1
290
     1
  0
XRECORD
  5
164
102
{ACAD_REACTORS
330
163
102
}
330
163
100
AcDbXrecord
280
     1
290
     1
  0
XRECORD
  5
74
102
{ACAD_REACTORS
330
73
102
}
330
73
100
AcDbXrecord
280
     1
290
     1
  0
XRECORD
  5
A5
102
{ACAD_REACTORS
330
A4
102
}
330
A4
100
AcDbXrecord
280
     1
290
     1
  0
SORTENTSTABLE
  5
2BE
102
{ACAD_REACTORS
330
3
102
}
330
3
100
AcDbSortentsTable
330
2
331
EF
  5
231
331
B0
  5
26B
331
AC
  5
26F
331
165
  5
1AE
331
A8
  5
27F
331
122
  5
228
331
161
  5
1AF
331
1DE
  5
14A
331
19B
  5
18E
331
15D
  5
1B3
331
159
  5
1B7
331
A0
  5
2B6
331
155
  5
1BB
331
27F
  5
A8
331
2BA
  5
89
331
24C
  5
C1
331
112
  5
22A
331
151
  5
1BF
331
248
  5
D1
331
205
  5
147
331
14D
  5
1C3
331
D3
  5
238
331
2B6
  5
A0
331
10E
  5
22E
331
149
  5
1EB
331
145
  5
207
331
26F
  5
AC
331
88
  5
2BB
331
1C2
  5
14E
331
26B
  5
B0
331
141
  5
223
331
1BE
  5
152
331
238
  5
D3
331
1BA
  5
156
331
230
  5
FE
331
C3
  5
24A
331
FE
  5
230
331
BF
  5
24E
331
1B6
  5
15A
331
22C
  5
110
331
1B2
  5
15E
331
1AE
  5
165
331
228
  5
122
331
1AA
  5
181
331
224
  5
132
331
EE
  5
232
331
AF
  5
26C
331
AB
  5
270
331
125
  5
225
331
160
  5
1B0
331
121
  5
229
331
214
  5
144
331
A7
  5
28C
331
15C
  5
1B4
331
158
  5
1B8
331
9B
  5
2B7
331
2BD
  5
71
331
24F
  5
BE
331
154
  5
1BC
331
1D1
  5
14B
331
2B9
  5
8D
331
24B
  5
C2
331
111
  5
22B
331
150
  5
1C0
331
18E
  5
19B
331
247
  5
D2
331
14C
  5
1C4
331
D2
  5
247
331
2B5
  5
A1
331
10D
  5
22F
331
148
  5
1F8
331
272
  5
A9
331
144
  5
214
331
26E
  5
AD
331
1C1
  5
14F
331
1BD
  5
153
331
1F8
  5
148
331
237
  5
D4
331
1B9
  5
157
331
233
  5
E1
331
83
  5
2BC
331
C2
  5
24B
331
BE
  5
24F
331
22F
  5
10D
331
1B5
  5
15B
331
1B1
  5
15F
331
22B
  5
111
331
1AD
  5
166
331
227
  5
123
331
223
  5
141
331
167
  5
1AC
331
AE
  5
26D
331
AA
  5
271
331
124
  5
226
331
71
  5
2BD
331
15F
  5
1B1
331
A6
  5
29B
331
15B
  5
1B5
331
A2
  5
2A8
331
E1
  5
233
331
157
  5
1B9
331
2BC
  5
83
331
24E
  5
BF
331
153
  5
1BD
331
2B8
  5
8E
331
24A
  5
C3
331
110
  5
22C
331
207
  5
145
331
14F
  5
1C1
331
14B
  5
1D1
331
D1
  5
248
331
147
  5
205
331
271
  5
AA
331
8E
  5
2B8
331
143
  5
221
331
1C4
  5
14C
331
26D
  5
AE
331
1C0
  5
150
331
2A8
  5
A2
331
181
  5
1AA
331
1BC
  5
154
331
232
  5
EE
331
1B8
  5
158
331
C1
  5
24C
331
BD
  5
25C
331
22E
  5
10E
331
1B4
  5
15C
331
1B0
  5
160
331
1EB
  5
149
331
22A
  5
112
331
1AC
  5
167
331
226
  5
124
331
222
  5
142
331
166
  5
1AD
331
AD
  5
26E
331
A9
  5
272
331
28C
  5
A7
331
123
  5
227
331
15E
  5
1B2
331
15A
  5
1B6
331
A1
  5
2B5
331
156
  5
1BA
331
2BB
  5
88
331
24D
  5
C0
331
152
  5
1BE
331
249
  5
D0
331
206
  5
146
331
14E
  5
1C2
331
D4
  5
237
331
2B7
  5
9B
331
10F
  5
22D
331
14A
  5
1DE
331
D0
  5
249
331
146
  5
206
331
270
  5
AB
331
8D
  5
2B9
331
89
  5
2BA
331
26C
  5
AF
331
142
  5
222
331
1C3
  5
14D
331
1BF
  5
151
331
1BB
  5
155
331
231
  5
EF
331
C0
  5
24D
331
1B7
  5
159
331
29B
  5
A6
331
132
  5
224
331
22D
  5
10F
331
174
  5
1AB
331
1B3
  5
15D
331
25C
  5
BD
331
1AF
  5
161
331
229
  5
121
331
1AB
  5
174
331
225
  5
125
331
221
  5
143
  0
ACDBDETAILVIEWSTYLE
  5
2EB
102
{ACAD_XDICTIONARY
360
2EC
102
}
102
{ACAD_REACTORS
330
2E0
330
2EA
102
}
330
2E0
100
AcDbModelDocViewStyle
 70
     0
  3
Metric50
290
     0
100
AcDbDetailViewStyle
 70
     0
 71
     0
 90
        3
 71
     1
340
26
 62
   256
 40
5.0
340
0
 62
   256
 40
5.0
300

 40
0.0
280
     1
 71
     2
340
15
 90
       25
 62
   256
 71
     3
340
26
 62
   256
 40
5.0
 90
        0
 40
15.0
 90
        1
300
%<\AcVar ViewDetailId>% (%<\AcVar ViewScale \f "%sn">%)
 71
     4
340
15
 90
       25
 62
   256
340
15
 90
       25
 62
   256
280
     0
  0
LAYOUT
  5
1E
102
{ACAD_REACTORS
330
18
102
}
330
18
100
AcDbPlotSettings
  1

  2
G:\VORLAGEN\AutoCAD2002\Plotten\A3hoch-MSL.pc3
  4

  6

 40
0.0
 41
0.0
 42
0.0
 43
0.0
 44
0.0
 45
0.0
 46
0.0
 47
0.0
 48
0.0
 49
0.0
140
0.0
141
0.0
142
1.0
143
1.0
 70
   688
 72
     0
 73
     0
 74
     5
  7
Katalog 09.ctb
 75
    16
147
1.0
 76
     0
 77
     2
 78
   300
148
0.0
149
0.0
100
AcDbLayout
  1
Layout1
 70
     1
 71
     1
 10
0.0
 20
0.0
 11
12.0
 21
9.0
 12
0.0
 22
0.0
 32
0.0
 14
1.000000000000000E+20
 24
1.000000000000000E+20
 34
1.000000000000000E+20
 15
-1.000000000000000E+20
 25
-1.000000000000000E+20
 35
-1.000000000000000E+20
146
0.0
 13
0.0
 23
0.0
 33
0.0
 16
1.0
 26
0.0
 36
0.0
 17
0.0
 27
1.0
 37
0.0
 76
     0
330
1B
  0
LAYOUT
  5
17
102
{ACAD_XDICTIONARY
360
19
102
}
102
{ACAD_REACTORS
330
18
102
}
330
18
100
AcDbPlotSettings
  1

  2
G:\VORLAGEN\AutoCAD2002\Plotten\A3hoch-MSL.pc3
  4
A3
  6

 40
7.0
 41
5.0
 42
6.96832275390625
 43
6.988983154296875
 44
296.9683227539062
 45
419.9889831542968
 46
0.0
 47
0.0
 48
0.0
 49
0.0
140
0.0
141
0.0
142
1.0
143
3.812300216616782
 70
 11952
 72
     1
 73
     1
 74
     0
  7
Katalog 09.ctb
 75
     0
147
0.2623088275265602
 76
     0
 77
     2
 78
   300
148
902.2977609477315
149
92.00114031510338
100
AcDbLayout
  1
Model
 70
     1
 71
     0
 10
0.0
 20
0.0
 11
12.0
 21
9.0
 12
0.0
 22
0.0
 32
0.0
 14
0.0
 24
0.0
 34
0.0
 15
0.0
 25
0.0
 35
0.0
146
0.0
 13
0.0
 23
0.0
 33
0.0
 16
1.0
 26
0.0
 36
0.0
 17
0.0
 27
1.0
 37
0.0
 76
     0
330
2
331
2E
1001
ACAD_PSEXT
1000
G:\VORLAGEN\AutoCAD2002\Plotten\A3hoch-MSL.pc3
1000
HP LaserJet 5000 Series PCL
1000
CAD
1000
HP LaserJet 5000N
1070
     0
  0
MATERIAL
  5
4C
102
{ACAD_XDICTIONARY
360
4D
102
}
102
{ACAD_REACTORS
330
D
102
}
330
D
100
AcDbMaterial
  1
ByBlock
 72
     0
 43
0.0208333333333333
 43
0.0
 43
0.0
 43
0.0
 43
0.0
 43
0.0208333333333333
 43
0.0
 43
0.0
 43
0.0
 43
0.0
 43
1.0
 43
0.0
 43
0.0
 43
0.0
 43
0.0
 43
1.0
 77
     0
 47
0.0208333333333333
 47
0.0
 47
0.0
 47
0.0
 47
0.0
 47
0.0208333333333333
 47
0.0
 47
0.0
 47
0.0
 47
0.0
 47
1.0
 47
0.0
 47
0.0
 47
0.0
 47
0.0
 47
1.0
171
     0
 49
0.0208333333333333
 49
0.0
 49
0.0
 49
0.0
 49
0.0
 49
0.0208333333333333
 49
0.0
 49
0.0
 49
0.0
 49
0.0
 49
1.0
 49
0.0
 49
0.0
 49
0.0
 49
0.0
 49
1.0
175
     0
142
0.0208333333333333
142
0.0
142
0.0
142
0.0
142
0.0
142
0.0208333333333333
142
0.0
142
0.0
142
0.0
142
0.0
142
1.0
142
0.0
142
0.0
142
0.0
142
0.0
142
1.0
179
     0
144
0.0208333333333333
144
0.0
144
0.0
144
0.0
144
0.0
144
0.0208333333333333
144
0.0
144
0.0
144
0.0
144
0.0
144
1.0
144
0.0
144
0.0
144
0.0
144
0.0
144
1.0
147
0.0208333333333333
147
0.0
147
0.0
147
0.0
147
0.0
147
0.0208333333333333
147
0.0
147
0.0
147
0.0
147
0.0
147
1.0
147
0.0
147
0.0
147
0.0
147
0.0
147
1.0
  0
MATERIAL
  5
44
102
{ACAD_XDICTIONARY
360
45
102
}
102
{ACAD_REACTORS
330
D
102
}
330
D
100
AcDbMaterial
  1
ByLayer
 72
     0
 43
0.0208333333333333
 43
0.0
 43
0.0
 43
0.0
 43
0.0
 43
0.0208333333333333
 43
0.0
 43
0.0
 43
0.0
 43
0.0
 43
1.0
 43
0.0
 43
0.0
 43
0.0
 43
0.0
 43
1.0
 77
     0
 47
0.0208333333333333
 47
0.0
 47
0.0
 47
0.0
 47
0.0
 47
0.0208333333333333
 47
0.0
 47
0.0
 47
0.0
 47
0.0
 47
1.0
 47
0.0
 47
0.0
 47
0.0
 47
0.0
 47
1.0
171
     0
 49
0.0208333333333333
 49
0.0
 49
0.0
 49
0.0
 49
0.0
 49
0.0208333333333333
 49
0.0
 49
0.0
 49
0.0
 49
0.0
 49
1.0
 49
0.0
 49
0.0
 49
0.0
 49
0.0
 49
1.0
175
     0
142
0.0208333333333333
142
0.0
142
0.0
142
0.0
142
0.0
142
0.0208333333333333
142
0.0
142
0.0
142
0.0
142
0.0
142
1.0
142
0.0
142
0.0
142
0.0
142
0.0
142
1.0
179
     0
144
0.0208333333333333
144
0.0
144
0.0
144
0.0
144
0.0
144
0.0208333333333333
144
0.0
144
0.0
144
0.0
144
0.0
144
1.0
144
0.0
144
0.0
144
0.0
144
0.0
144
1.0
147
0.0208333333333333
147
0.0
147
0.0
147
0.0
147
0.0
147
0.0208333333333333
147
0.0
147
0.0
147
0.0
147
0.0
147
1.0
147
0.0
147
0.0
147
0.0
147
0.0
147
1.0
  0
MATERIAL
  5
C
102
{ACAD_XDICTIONARY
360
E
102
}
102
{ACAD_REACTORS
330
D
102
}
330
D
100
AcDbMaterial
  1
Global
 72
     0
 43
0.0208333333333333
 43
0.0
 43
0.0
 43
0.0
 43
0.0
 43
0.0208333333333333
 43
0.0
 43
0.0
 43
0.0
 43
0.0
 43
1.0
 43
0.0
 43
0.0
 43
0.0
 43
0.0
 43
1.0
 77
     0
 47
0.0208333333333333
 47
0.0
 47
0.0
 47
0.0
 47
0.0
 47
0.0208333333333333
 47
0.0
 47
0.0
 47
0.0
 47
0.0
 47
1.0
 47
0.0
 47
0.0
 47
0.0
 47
0.0
 47
1.0
171
     0
 49
0.0208333333333333
 49
0.0
 49
0.0
 49
0.0
 49
0.0
 49
0.0208333333333333
 49
0.0
 49
0.0
 49
0.0
 49
0.0
 49
1.0
 49
0.0
 49
0.0
 49
0.0
 49
0.0
 49
1.0
175
     0
142
0.0208333333333333
142
0.0
142
0.0
142
0.0
142
0.0
142
0.0208333333333333
142
0.0
142
0.0
142
0.0
142
0.0
142
1.0
142
0.0
142
0.0
142
0.0
142
0.0
142
1.0
179
     0
144
0.0208333333333333
144
0.0
144
0.0
144
0.0
144
0.0
144
0.0208333333333333
144
0.0
144
0.0
144
0.0
144
0.0
144
1.0
144
0.0
144
0.0
144
0.0
144
0.0
144
1.0
147
0.0208333333333333
147
0.0
147
0.0
147
0.0
147
0.0
147
0.0208333333333333
147
0.0
147
0.0
147
0.0
147
0.0
147
1.0
147
0.0
147
0.0
147
0.0
147
0.0
147
1.0
  0
MLINESTYLE
  5
5B
102
{ACAD_REACTORS
330
42
102
}
330
42
100
AcDbMlineStyle
  2
STANDARD
 70
     0
  3

 62
     0
 51
90.0
 52
90.0
 71
     2
 49
0.5
 62
   256
  6
BYLAYER
 49
-0.5
 62
   256
  6
BYLAYER
  0
ACDBPLACEHOLDER
  5
9
102
{ACAD_REACTORS
330
A
102
}
330
A
  0
SCALE
  5
60
102
{ACAD_REACTORS
330
55
102
}
330
55
100
AcDbScale
 70
     0
300
1:1
140
1.0
141
1.0
290
     1
  0
SCALE
  5
61
102
{ACAD_REACTORS
330
55
102
}
330
55
100
AcDbScale
 70
     0
300
1:2
140
1.0
141
2.0
290
     0
  0
SCALE
  5
62
102
{ACAD_REACTORS
330
55
102
}
330
55
100
AcDbScale
 70
     0
300
1:4
140
1.0
141
4.0
290
     0
  0
SCALE
  5
63
102
{ACAD_REACTORS
330
55
102
}
330
55
100
AcDbScale
 70
     0
300
1:5
140
1.0
141
5.0
290
     0
  0
SCALE
  5
64
102
{ACAD_REACTORS
330
55
102
}
330
55
100
AcDbScale
 70
     0
300
1:8
140
1.0
141
8.0
290
     0
  0
SCALE
  5
65
102
{ACAD_REACTORS
330
55
102
}
330
55
100
AcDbScale
 70
     0
300
1:10
140
1.0
141
10.0
290
     0
  0
SCALE
  5
66
102
{ACAD_REACTORS
330
55
102
}
330
55
100
AcDbScale
 70
     0
300
1:16
140
1.0
141
16.0
290
     0
  0
SCALE
  5
67
102
{ACAD_REACTORS
330
55
102
}
330
55
100
AcDbScale
 70
     0
300
1:20
140
1.0
141
20.0
290
     0
  0
SCALE
  5
68
102
{ACAD_REACTORS
330
55
102
}
330
55
100
AcDbScale
 70
     0
300
1:30
140
1.0
141
30.0
290
     0
  0
SCALE
  5
69
102
{ACAD_REACTORS
330
55
102
}
330
55
100
AcDbScale
 70
     0
300
1:40
140
1.0
141
40.0
290
     0
  0
SCALE
  5
6A
102
{ACAD_REACTORS
330
55
102
}
330
55
100
AcDbScale
 70
     0
300
1:50
140
1.0
141
50.0
290
     0
  0
SCALE
  5
6B
102
{ACAD_REACTORS
330
55
102
}
330
55
100
AcDbScale
 70
     0
300
1:100
140
1.0
141
100.0
290
     0
  0
SCALE
  5
6C
102
{ACAD_REACTORS
330
55
102
}
330
55
100
AcDbScale
 70
     0
300
2:1
140
2.0
141
1.0
290
     0
  0
SCALE
  5
6D
102
{ACAD_REACTORS
330
55
102
}
330
55
100
AcDbScale
 70
     0
300
4:1
140
4.0
141
1.0
290
     0
  0
SCALE
  5
6E
102
{ACAD_REACTORS
330
55
102
}
330
55
100
AcDbScale
 70
     0
300
8:1
140
8.0
141
1.0
290
     0
  0
SCALE
  5
6F
102
{ACAD_REACTORS
330
55
102
}
330
55
100
AcDbScale
 70
     0
300
10:1
140
10.0
141
1.0
290
     0
  0
SCALE
  5
70
102
{ACAD_REACTORS
330
55
102
}
330
55
100
AcDbScale
 70
     0
300
100:1
140
100.0
141
1.0
290
     0
  0
ACDBSECTIONVIEWSTYLE
  5
2F7
102
{ACAD_XDICTIONARY
360
2F8
102
}
102
{ACAD_REACTORS
330
2EF
330
2F6
102
}
330
2EF
100
AcDbModelDocViewStyle
 70
     0
  3
Metric50
290
     0
100
AcDbSectionViewStyle
 70
     0
 71
     0
 90
      102
 71
     1
340
26
 62
   256
 40
5.0
340
0
340
0
 62
   256
 40
5.0
300
I, O, Q, S, X, Z
 40
10.0
 90
        0
 40
2.5
 90
        0
 71
     2
340
15
 90
       25
 62
   256
340
15
 90
       50
 62
   256
 40
5.0
 40
2.5
 40
5.0
 71
     3
340
26
 62
   256
 40
5.0
 90
        0
 40
15.0
 90
        1
300
%<\AcVar ViewSectionStartId>%-%<\AcVar ViewSectionEndId>% (%<\AcVar ViewScale \f "%sn">%)
 71
     4
 62
   256
 62
   257
300
ANSI31
 40
1.0
 90
        0
290
     0
290
     0
 90
        6
 40
0.0
 40
1.570796326794896
 40
0.2617993877991494
 40
1.308996938995747
 40
-0.2617993877991494
 40
1.832595714594046
  0
TABLESTYLE
  5
5C
102
{ACAD_XDICTIONARY
360
5D
102
}
102
{ACAD_REACTORS
330
56
102
}
330
56
100
AcDbTableStyle
280
     0
  3
Standard
 70
     0
 71
     0
 40
1.5
 41
1.5
280
     0
281
     0
  7
STANDARD
140
4.5
170
     2
 62
     0
 63
     7
283
     0
 90
        4
 91
        0
  1

274
    -2
284
     1
 64
     0
275
    -2
285
     1
 65
     0
276
    -2
286
     1
 66
     0
277
    -2
287
     1
 67
     0
278
    -2
288
     1
 68
     0
279
    -2
289
     1
 69
     0
  7
STANDARD
140
6.0
170
     5
 62
     0
 63
     7
283
     0
 90
        4
 91
        0
  1

274
    -2
284
     1
 64
     0
275
    -2
285
     1
 65
     0
276
    -2
286
     1
 66
     0
277
    -2
287
     1
 67
     0
278
    -2
288
     1
 68
     0
279
    -2
289
     1
 69
     0
  7
STANDARD
140
4.5
170
     5
 62
     0
 63
     7
283
     0
 90
        4
 91
        0
  1

274
    -2
284
     1
 64
     0
275
    -2
285
     1
 65
     0
276
    -2
286
     1
 66
     0
277
    -2
287
     1
 67
     0
278
    -2
288
     1
 68
     0
279
    -2
289
     1
 69
     0
  0
VISUALSTYLE
  5
2F
102
{ACAD_REACTORS
330
30
102
}
330
30
100
AcDbVisualStyle
  2
2dWireframe
 70
     4
177
     3
291
     0
 70
    58
 90
        0
176
     1
 90
        2
176
     1
 90
        0
176
     1
 90
        0
176
     1
 40
0.6
176
     1
 40
30.0
176
     1
 62
     7
420
 16777215
176
     1
 90
        1
176
     1
 90
        4
176
     1
 62
     7
176
     1
 62
   257
176
     1
 90
        1
176
     1
 90
        1
176
     1
 40
1.0
176
     1
 90
        0
176
     1
 62
   257
176
     1
 40
1.0
176
     1
 90
        1
176
     1
 90
        6
176
     1
 90
        2
176
     1
 62
     7
176
     1
 90
        5
176
     1
 90
        0
176
     1
 90
        0
176
     1
290
     0
176
     1
 90
        1
176
     1
 40
0.0
176
     1
 90
        0
176
     1
290
     1
176
     1
290
     1
176
     1
290
     0
176
     1
290
     0
176
     1
290
     0
176
     1
290
     0
176
     1
290
     0
176
     1
290
     0
176
     1
290
     0
176
     1
 90
       50
176
     1
 40
0.0
176
     1
 40
1.0
176
     1
 90
        0
176
     1
 62
    18
420
        0
176
     1
 90
       50
176
     1
 90
        3
176
     1
 62
     5
420
      255
176
     1
290
     0
176
     1
 90
       50
176
     1
 90
       50
176
     1
 90
       50
176
     1
290
     0
176
     1
 90
       50
176
     1
 62
   256
176
     0
 40
1.0
176
     0
 90
        2
176
     1
  1
strokes_ogs.tif
176
     1
290
     0
176
     1
 40
1.0
176
     1
 40
1.0
176
     1
  0
VISUALSTYLE
  5
5E
102
{ACAD_REACTORS
330
30
102
}
330
30
100
AcDbVisualStyle
  2
Realistic
 70
     8
177
     3
291
     0
 70
    58
 90
        2
176
     1
 90
        2
176
     1
 90
        0
176
     1
 90
        0
176
     1
 40
0.6
176
     1
 40
30.0
176
     1
 62
     7
420
 16777215
176
     1
 90
        1
176
     1
 90
        0
176
     1
 62
     7
176
     1
 62
   257
176
     1
 90
        1
176
     1
 90
        1
176
     1
 40
1.0
176
     1
 90
        8
176
     1
 62
     8
420
  7895160
176
     1
 40
1.0
176
     1
 90
        1
176
     1
 90
        6
176
     1
 90
        2
176
     1
 62
     7
176
     1
 90
        5
176
     1
 90
        0
176
     1
 90
        0
176
     1
290
     0
176
     1
 90
       13
176
     1
 40
0.0
176
     1
 90
        0
176
     1
290
     0
176
     1
290
     1
176
     1
290
     1
176
     1
290
     0
176
     1
290
     0
176
     1
290
     0
176
     1
290
     0
176
     1
290
     0
176
     1
290
     0
176
     1
 90
       50
176
     1
 40
0.0
176
     1
 40
1.0
176
     1
 90
        0
176
     1
 62
    18
420
        0
176
     1
 90
       50
176
     1
 90
        3
176
     1
 62
     5
420
      255
176
     1
290
     0
176
     1
 90
       50
176
     1
 90
       50
176
     1
 90
       50
176
     1
290
     0
176
     1
 90
       50
176
     1
 62
   256
176
     0
 40
1.0
176
     0
 90
        2
176
     1
  1
strokes_ogs.tif
176
     1
290
     0
176
     1
 40
1.0
176
     1
 40
1.0
176
     1
  0
VISUALSTYLE
  5
5F
102
{ACAD_REACTORS
330
30
102
}
330
30
100
AcDbVisualStyle
  2
Wireframe
 70
     5
177
     3
291
     0
 70
    58
 90
        0
176
     1
 90
        2
176
     1
 90
        0
176
     1
 90
        0
176
     1
 40
0.6
176
     1
 40
30.0
176
     1
 62
     7
420
 16777215
176
     1
 90
        1
176
     1
 90
        4
176
     1
 62
     7
176
     1
 62
   257
176
     1
 90
        1
176
     1
 90
        1
176
     1
 40
1.0
176
     1
 90
        0
176
     1
 62
   257
176
     1
 40
1.0
176
     1
 90
        1
176
     1
 90
        6
176
     1
 90
        2
176
     1
 62
     7
176
     1
 90
        3
176
     1
 90
        0
176
     1
 90
        0
176
     1
290
     0
176
     1
 90
        1
176
     1
 40
0.0
176
     1
 90
        0
176
     1
290
     0
176
     1
290
     1
176
     1
290
     1
176
     1
290
     0
176
     1
290
     0
176
     1
290
     0
176
     1
290
     0
176
     1
290
     0
176
     1
290
     0
176
     1
 90
       50
176
     1
 40
0.0
176
     1
 40
1.0
176
     1
 90
        0
176
     1
 62
    18
420
        0
176
     1
 90
       50
176
     1
 90
        3
176
     1
 62
     5
420
      255
176
     1
290
     0
176
     1
 90
       50
176
     1
 90
       50
176
     1
 90
       50
176
     1
290
     0
176
     1
 90
       50
176
     1
 62
   256
176
     0
 40
1.0
176
     0
 90
        2
176
     1
  1
strokes_ogs.tif
176
     1
290
     0
176
     1
 40
1.0
176
     1
 40
1.0
176
     1
  0
DICTIONARYVAR
  5
335
102
{ACAD_REACTORS
330
32F
102
}
330
32F
100
DictionaryVariables
280
     0
  1
1:1
  0
DICTIONARYVAR
  5
331
102
{ACAD_REACTORS
330
32F
102
}
330
32F
100
DictionaryVariables
280
     0
  1
STANDARD
  0
DICTIONARYVAR
  5
330
102
{ACAD_REACTORS
330
32F
102
}
330
32F
100
DictionaryVariables
280
     0
  1
STANDARD
  0
DICTIONARYVAR
  5
332
102
{ACAD_REACTORS
330
32F
102
}
330
32F
100
DictionaryVariables
280
     0
  1

  0
DICTIONARYVAR
  5
333
102
{ACAD_REACTORS
330
32F
102
}
330
32F
100
DictionaryVariables
280
     0
  1

  0
DICTIONARYVAR
  5
337
102
{ACAD_REACTORS
330
32F
102
}
330
32F
100
DictionaryVariables
280
     0
  1
1
  0
DICTIONARYVAR
  5
338
102
{ACAD_REACTORS
330
32F
102
}
330
32F
100
DictionaryVariables
280
     0
  1
15
  0
DICTIONARYVAR
  5
336
102
{ACAD_REACTORS
330
32F
102
}
330
32F
100
DictionaryVariables
280
     0
  1
0
  0
DICTIONARYVAR
  5
334
102
{ACAD_REACTORS
330
32F
102
}
330
32F
100
DictionaryVariables
280
     0
  1
0
  0
DICTIONARY
  5
2D1
102
{ACAD_REACTORS
330
2D0
102
}
330
2D0
100
AcDbDictionary
281
     1
  0
DICTIONARY
  5
2CA
102
{ACAD_REACTORS
330
2C0
102
}
330
2C0
100
AcDbDictionary
281
     1
  3
DWGSETTINGS
350
2C9
  3
TRANSSETTINGS
350
2CB
  0
DICTIONARY
  5
2EC
330
2EB
100
AcDbDictionary
280
     1
281
     1
  3
ACAD_XREC_ROUNDTRIP
360
33B
  0
DICTIONARY
  5
19
330
17
100
AcDbDictionary
280
     1
281
     1
  0
DICTIONARY
  5
4D
330
4C
100
AcDbDictionary
280
     1
281
     1
  3
BUMPTILE
360
4E
  3
DIFFUSETILE
360
4F
  3
OPACITYTILE
360
50
  3
REFLECTIONTILE
360
51
  3
REFRACTIONTILE
360
52
  3
SPECULARTILE
360
53
  0
DICTIONARY
  5
45
330
44
100
AcDbDictionary
280
     1
281
     1
  3
BUMPTILE
360
46
  3
DIFFUSETILE
360
47
  3
OPACITYTILE
360
48
  3
REFLECTIONTILE
360
49
  3
REFRACTIONTILE
360
4A
  3
SPECULARTILE
360
4B
  0
DICTIONARY
  5
E
330
C
100
AcDbDictionary
280
     1
281
     1
  3
BUMPTILE
360
F
  3
DIFFUSETILE
360
10
  3
OPACITYTILE
360
11
  3
REFLECTIONTILE
360
12
  3
REFRACTIONTILE
360
13
  3
SPECULARTILE
360
14
  0
DICTIONARY
  5
2F8
330
2F7
100
AcDbDictionary
280
     1
281
     1
  3
ACAD_XREC_ROUNDTRIP
360
33C
  0
DICTIONARY
  5
5D
330
5C
100
AcDbDictionary
280
     1
281
     1
  3
ACAD_ROUNDTRIP_2008_TABLESTYLE_CELLSTYLEMAP
360
339
  0
XRECORD
  5
33B
102
{ACAD_REACTORS
330
2EC
102
}
330
2EC
100
AcDbXrecord
280
     1
102
DISPLAYNAME
  1
Metric50
102
FLAGS
 90
        0
  0
XRECORD
  5
4E
102
{ACAD_REACTORS
330
4D
102
}
330
4D
100
AcDbXrecord
280
     1
270
     1
271
     1
  0
XRECORD
  5
4F
102
{ACAD_REACTORS
330
4D
102
}
330
4D
100
AcDbXrecord
280
     1
270
     1
271
     1
  0
XRECORD
  5
50
102
{ACAD_REACTORS
330
4D
102
}
330
4D
100
AcDbXrecord
280
     1
270
     1
271
     1
  0
XRECORD
  5
51
102
{ACAD_REACTORS
330
4D
102
}
330
4D
100
AcDbXrecord
280
     1
270
     1
271
     1
  0
XRECORD
  5
52
102
{ACAD_REACTORS
330
4D
102
}
330
4D
100
AcDbXrecord
280
     1
270
     1
271
     1
  0
XRECORD
  5
53
102
{ACAD_REACTORS
330
4D
102
}
330
4D
100
AcDbXrecord
280
     1
270
     1
271
     1
  0
XRECORD
  5
46
102
{ACAD_REACTORS
330
45
102
}
330
45
100
AcDbXrecord
280
     1
270
     1
271
     1
  0
XRECORD
  5
47
102
{ACAD_REACTORS
330
45
102
}
330
45
100
AcDbXrecord
280
     1
270
     1
271
     1
  0
XRECORD
  5
48
102
{ACAD_REACTORS
330
45
102
}
330
45
100
AcDbXrecord
280
     1
270
     1
271
     1
  0
XRECORD
  5
49
102
{ACAD_REACTORS
330
45
102
}
330
45
100
AcDbXrecord
280
     1
270
     1
271
     1
  0
XRECORD
  5
4A
102
{ACAD_REACTORS
330
45
102
}
330
45
100
AcDbXrecord
280
     1
270
     1
271
     1
  0
XRECORD
  5
4B
102
{ACAD_REACTORS
330
45
102
}
330
45
100
AcDbXrecord
280
     1
270
     1
271
     1
  0
XRECORD
  5
F
102
{ACAD_REACTORS
330
E
102
}
330
E
100
AcDbXrecord
280
     1
270
     1
271
     1
  0
XRECORD
  5
10
102
{ACAD_REACTORS
330
E
102
}
330
E
100
AcDbXrecord
280
     1
270
     1
271
     1
  0
XRECORD
  5
11
102
{ACAD_REACTORS
330
E
102
}
330
E
100
AcDbXrecord
280
     1
270
     1
271
     1
  0
XRECORD
  5
12
102
{ACAD_REACTORS
330
E
102
}
330
E
100
AcDbXrecord
280
     1
270
     1
271
     1
  0
XRECORD
  5
13
102
{ACAD_REACTORS
330
E
102
}
330
E
100
AcDbXrecord
280
     1
270
     1
271
     1
  0
XRECORD
  5
14
102
{ACAD_REACTORS
330
E
102
}
330
E
100
AcDbXrecord
280
     1
270
     1
271
     1
  0
XRECORD
  5
33C
102
{ACAD_REACTORS
330
2F8
102
}
330
2F8
100
AcDbXrecord
280
     1
102
DISPLAYNAME
  1
Metric50
102
FLAGS
 90
        0
  0
CELLSTYLEMAP
  5
339
102
{ACAD_REACTORS
330
5D
102
}
330
5D
100
AcDbCellStyleMap
 90
        3
300
CELLSTYLE
  1
TABLEFORMAT_BEGIN
 90
        5
170
     1
 91
        0
 92
    32768
 62
   257
 93
        1
300
CONTENTFORMAT
  1
CONTENTFORMAT_BEGIN
 90
        0
 91
        0
 92
        4
 93
        0
300

 40
0.0
140
1.0
 94
        5
 62
     0
340
26
144
6.0
309
CONTENTFORMAT_END
171
     1
301
MARGIN
  1
CELLMARGIN_BEGIN
 40
1.5
 40
1.5
 40
1.5
 40
1.5
 40
0.18
 40
0.18
309
CELLMARGIN_END
 94
        6
 95
        1
302
GRIDFORMAT
  1
GRIDFORMAT_BEGIN
 90
        0
 91
        1
 62
     0
 92
       -2
340
0
 93
        0
 40
0.045
309
GRIDFORMAT_END
 95
        2
302
GRIDFORMAT
  1
GRIDFORMAT_BEGIN
 90
        0
 91
        1
 62
     0
 92
       -2
340
0
 93
        0
 40
0.045
309
GRIDFORMAT_END
 95
        4
302
GRIDFORMAT
  1
GRIDFORMAT_BEGIN
 90
        0
 91
        1
 62
     0
 92
       -2
340
0
 93
        0
 40
0.045
309
GRIDFORMAT_END
 95
        8
302
GRIDFORMAT
  1
GRIDFORMAT_BEGIN
 90
        0
 91
        1
 62
     0
 92
       -2
340
0
 93
        0
 40
0.045
309
GRIDFORMAT_END
 95
       16
302
GRIDFORMAT
  1
GRIDFORMAT_BEGIN
 90
        0
 91
        1
 62
     0
 92
       -2
340
0
 93
        0
 40
0.045
309
GRIDFORMAT_END
 95
       32
302
GRIDFORMAT
  1
GRIDFORMAT_BEGIN
 90
        0
 91
        1
 62
     0
 92
       -2
340
0
 93
        0
 40
0.045
309
GRIDFORMAT_END
309
TABLEFORMAT_END
  1
CELLSTYLE_BEGIN
 90
        1
 91
        1
300
_TITLE
309
CELLSTYLE_END
300
CELLSTYLE
  1
TABLEFORMAT_BEGIN
 90
        5
170
     1
 91
        0
 92
        0
 62
   257
 93
        1
300
CONTENTFORMAT
  1
CONTENTFORMAT_BEGIN
 90
        0
 91
        0
 92
        4
 93
        0
300

 40
0.0
140
1.0
 94
        5
 62
     0
340
26
144
4.5
309
CONTENTFORMAT_END
171
     1
301
MARGIN
  1
CELLMARGIN_BEGIN
 40
1.5
 40
1.5
 40
1.5
 40
1.5
 40
0.18
 40
0.18
309
CELLMARGIN_END
 94
        6
 95
        1
302
GRIDFORMAT
  1
GRIDFORMAT_BEGIN
 90
        0
 91
        1
 62
     0
 92
       -2
340
0
 93
        0
 40
0.045
309
GRIDFORMAT_END
 95
        2
302
GRIDFORMAT
  1
GRIDFORMAT_BEGIN
 90
        0
 91
        1
 62
     0
 92
       -2
340
0
 93
        0
 40
0.045
309
GRIDFORMAT_END
 95
        4
302
GRIDFORMAT
  1
GRIDFORMAT_BEGIN
 90
        0
 91
        1
 62
     0
 92
       -2
340
0
 93
        0
 40
0.045
309
GRIDFORMAT_END
 95
        8
302
GRIDFORMAT
  1
GRIDFORMAT_BEGIN
 90
        0
 91
        1
 62
     0
 92
       -2
340
0
 93
        0
 40
0.045
309
GRIDFORMAT_END
 95
       16
302
GRIDFORMAT
  1
GRIDFORMAT_BEGIN
 90
        0
 91
        1
 62
     0
 92
       -2
340
0
 93
        0
 40
0.045
309
GRIDFORMAT_END
 95
       32
302
GRIDFORMAT
  1
GRIDFORMAT_BEGIN
 90
        0
 91
        1
 62
     0
 92
       -2
340
0
 93
        0
 40
0.045
309
GRIDFORMAT_END
309
TABLEFORMAT_END
  1
CELLSTYLE_BEGIN
 90
        2
 91
        1
300
_HEADER
309
CELLSTYLE_END
300
CELLSTYLE
  1
TABLEFORMAT_BEGIN
 90
        5
170
     1
 91
        0
 92
        0
 62
   257
 93
        1
300
CONTENTFORMAT
  1
CONTENTFORMAT_BEGIN
 90
        0
 91
        0
 92
        4
 93
        0
300

 40
0.0
140
1.0
 94
        2
 62
     0
340
26
144
4.5
309
CONTENTFORMAT_END
171
     1
301
MARGIN
  1
CELLMARGIN_BEGIN
 40
1.5
 40
1.5
 40
1.5
 40
1.5
 40
0.18
 40
0.18
309
CELLMARGIN_END
 94
        6
 95
        1
302
GRIDFORMAT
  1
GRIDFORMAT_BEGIN
 90
        0
 91
        1
 62
     0
 92
       -2
340
0
 93
        0
 40
0.045
309
GRIDFORMAT_END
 95
        2
302
GRIDFORMAT
  1
GRIDFORMAT_BEGIN
 90
        0
 91
        1
 62
     0
 92
       -2
340
0
 93
        0
 40
0.045
309
GRIDFORMAT_END
 95
        4
302
GRIDFORMAT
  1
GRIDFORMAT_BEGIN
 90
        0
 91
        1
 62
     0
 92
       -2
340
0
 93
        0
 40
0.045
309
GRIDFORMAT_END
 95
        8
302
GRIDFORMAT
  1
GRIDFORMAT_BEGIN
 90
        0
 91
        1
 62
     0
 92
       -2
340
0
 93
        0
 40
0.045
309
GRIDFORMAT_END
 95
       16
302
GRIDFORMAT
  1
GRIDFORMAT_BEGIN
 90
        0
 91
        1
 62
     0
 92
       -2
340
0
 93
        0
 40
0.045
309
GRIDFORMAT_END
 95
       32
302
GRIDFORMAT
  1
GRIDFORMAT_BEGIN
 90
        0
 91
        1
 62
     0
 92
       -2
340
0
 93
        0
 40
0.045
309
GRIDFORMAT_END
309
TABLEFORMAT_END
  1
CELLSTYLE_BEGIN
 90
        3
 91
        2
300
_DATA
309
CELLSTYLE_END
  0
ENDSEC
  0
SECTION
  2
ACDSDATA
 70
     2
 71
     6
  0
ACDSSCHEMA
 90
        0
  1
AcDb_Thumbnail_Schema
  2
AcDbDs::ID
280
    10
 91
        8
  2
Thumbnail_Data
280
    15
 91
        0
101
ACDSRECORD
 95
        0
 90
        1
  2
AcDbDs::TreatedAsObjectData
280
     1
291
     1
101
ACDSRECORD
 95
        0
 90
        2
  2
AcDbDs::Legacy
280
     1
291
     1
101
ACDSRECORD
  1
AcDbDs::ID
 90
        3
  2
AcDs:Indexable
280
     1
291
     1
101
ACDSRECORD
  1
AcDbDs::ID
 90
        4
  2
AcDbDs::HandleAttribute
280
     7
282
     1
  0
ACDSSCHEMA
 90
        1
  1
AcDbDs::TreatedAsObjectDataSchema
  2
AcDbDs::TreatedAsObjectData
280
     1
 91
        0
  0
ACDSSCHEMA
 90
        2
  1
AcDbDs::LegacySchema
  2
AcDbDs::Legacy
280
     1
 91
        0
  0
ACDSSCHEMA
 90
        3
  1
AcDbDs::IndexedPropertySchema
  2
AcDs:Indexable
280
     1
 91
        0
  0
ACDSSCHEMA
 90
        4
  1
AcDbDs::HandleAttributeSchema
  2
AcDbDs::HandleAttribute
280
     7
 91
        1
284
     1
  0
ACDSRECORD
 90
        0
  2
AcDbDs::ID
280
    10
320
17
  2
Thumbnail_Data
280
    15
 94
     1979
310
89504E470D0A1A0A0000000D49484452000001000000008608030000000532A42500000300504C5445000000000000C8C8C80000000000000000000000000000000000000000000000000000330000660000990000CC0000FF0033000033330033660033990033CC0033FF0066000066330066660066990066CC0066FF0099
310
000099330099660099990099CC0099FF00CC0000CC3300CC6600CC9900CCCC00CCFF00FF0000FF3300FF6600FF9900FFCC00FFFF3300003300333300663300993300CC3300FF3333003333333333663333993333CC3333FF3366003366333366663366993366CC3366FF3399003399333399663399993399CC3399FF33CC00
310
33CC3333CC6633CC9933CCCC33CCFF33FF0033FF3333FF6633FF9933FFCC33FFFF6600006600336600666600996600CC6600FF6633006633336633666633996633CC6633FF6666006666336666666666996666CC6666FF6699006699336699666699996699CC6699FF66CC0066CC3366CC6666CC9966CCCC66CCFF66FF0066
310
FF3366FF6666FF9966FFCC66FFFF9900009900339900669900999900CC9900FF9933009933339933669933999933CC9933FF9966009966339966669966999966CC9966FF9999009999339999669999999999CC9999FF99CC0099CC3399CC6699CC9999CCCC99CCFF99FF0099FF3399FF6699FF9999FFCC99FFFFCC0000CC00
310
33CC0066CC0099CC00CCCC00FFCC3300CC3333CC3366CC3399CC33CCCC33FFCC6600CC6633CC6666CC6699CC66CCCC66FFCC9900CC9933CC9966CC9999CC99CCCC99FFCCCC00CCCC33CCCC66CCCC99CCCCCCCCCCFFCCFF00CCFF33CCFF66CCFF99CCFFCCCCFFFFFF0000FF0033FF0066FF0099FF00CCFF00FFFF3300FF3333
310
FF3366FF3399FF33CCFF33FFFF6600FF6633FF6666FF6699FF66CCFF66FFFF9900FF9933FF9966FF9999FF99CCFF99FFFFCC00FFCC33FFCC66FFCC99FFCCCCFFCCFFFFFF00FFFF33FFFF66FFFF99FFFFCCFFFFFF0000000D0D0D1A1A1A2828283535354343435050505D5D5D6B6B6B787878868686939393A1A1A1AEAEAEBB
310
BBBBC9C9C9D6D6D6E4E4E4F1F1F1FFFFFF00000000000000000000000000000000000000000000000000000000000008F1915C000004764944415478DAED9C4D72632B0C85B51C4DB4FF19936C43DBC8BCF9475CC0C65DFD5E95649D38153B7657B5BE7B10D20502E072B95C2E97CBE572B95C2E97CBE572B95C2E97CBE572
310
B95C2E97CBE572B95C2E97CBE572B9FE5B31637C588B0AA3AE01946F6397353F2E0D101DC0C62E7F8A88AF59DDD3520320061430DC0CEDC4CA188094D362E421845D5C148850381EED3920474719006E01C437D9F41088C1C4E803855D6E4B5C068062961380080B35A6472E719E8600080085D50140A6085A01C448F700E0
310
01A0BC3A3800D402A063125C004407843C1754A1FCAC4200880540CA767700F29C39F3D30CA03A80C22D00024C661985810D00F1076DA74109A09A252CFFDC0200A25B0744B3E41CD012811900D7B340AE0D7B02540FA05682709F03C620601300D2E524A17C695B3AD802A806C81F42330E90718CA1BD03D03FCE261C000B
310
0012B77C6600B3598A11B09742BA0BA1A705DA73445C1D30B1023636041E00528170020036003052AE02B600A2D39F85D009004BB3A8CA0194BF0E00D2E3CE0148AC1500CD0010A50324809D59C61020549A049F00E621303960310B4A00A4340936007110A761FE6A08580480C3D7DC5BC3310B88A8709B2E0C38805B4CF9
310
AEC80420CF11D201CD2C7981C80480BCDA592BFAE204825E09E7855091E745126CF5839C05D402A8FFED102308B5BE3D7483DD2CC52D1D4021C5DA7B817275CFBD00D7345960555630DCA2BF1708B003801B07B4D1A2BF14868F00801802F03500F6BD400320F305A135007366330980DF00C07700D4B7C3B2BF099B66082E
310
0194D248A303E8550E7807409449ACB50EB80780289AE1B036434AEB800F1C20FBE63507106877C0A612B40F80F9B7F9BAAE118B66680680460170730085A273333400D0DC0CA91E021D40DD2984D20133806E166866010349B02FEE94EB0F7C310D36AB886ED0C0CA10E57D5EC4B2109AB67E31F4779A59A40382FA95A1BC
310
2B90785A1C0D3209720390F61556B3F498956E93CB77351EABE3EF56879B03880DDC159EB6C870FB05C01B00C903C92CFA87400390F709BE03F0CA2C26F6085D39A02F223CF6D428BF2314EE019496C116805CD7E0AD03F2FA891100AD0E08D70E489F257B4380EE0194F86D0168E7055E039066B1E78032AB2D00C2AE17C8
310
042C01084707CC476678744C76004C87A62E1D00FB21A0B51912C7E61600E926D0D80A59CC7200A0F6CC500946DC086279AF60DA106FD20120635E1C301F139D702C00A25B50EBB972AE67A2911F27A3D3AF71CB6A06C04FB358D17299E1E80056B930F6F766598FD133DAFBC30AAEAF127F79FC1F6DEE3009EB9349CC1480
310
D808FE12CD07C7FEA55B3400485B4443698B0E4748BB7E2D563CC90001C579307CC96ABE336EC3047057C58DC0EB2BB43218C626E01BB748AF7C5DF1475E30B9ACE8E7877EF277FA51259ECEEA6F5802D04E82D36384E34372E89B0250F3381D85EB072C01E85798DA73610671F1AB35CA6B9B00F27C8E0F2F60FD1A537E7A
310
D8CA0197807A1E405B75CF4700EA50811F07F06D001E55F0773BC0580E68D9BFB575CF291FB7B2380D96D897F05607CC7F3EE2FFD41F988E1A97D47F4B440000000049454E44AE426082
  0
ENDSEC
  0
EOF
