  0
SECTION
  2
HEADER
  9
$ACADVER
  1
AC1021
  9
$DWGCODEPAGE
  3
ANSI_1252
  9
$EXTMAX
 10
120.0
 20
285.0
 30
0.0
  9
$EXTMIN
 10
0.0
 20
0.0
 30
0.0
  9
$LIMMIN
 10
0.0
 20
0.0
  9
$LIMMAX
 10
120.0
 20
285.0
  9
$VIEWCTR
 10
60.0
 20
142.5
  9
$VIEWSIZE
 40
285.0
  9
$CLAYER
  8
0
  9
$LTSCALE
 40
18.5777777778
  9
$CELTYPE
  6
BYLAYER
  9
$DIMSCALE
 40
1.0
  9
$DIMASZ
 40
3.5
  9
$DIMEXO
 40
0.0
  9
$DIMDLI
 40
12.8355555556
  9
$DIMEXE
 40
1.0
  9
$DIMCEN
 40
3.04
  9
$DIMLFAC
 40
1.0
  9
$DIMBLK
  1
_FILLED
  9
$DIMTXT
 40
2.5
  9
$DIMTOL
 70
1
  9
$DIMLIM
 70
0
  9
$DIMTFAC
 40
1.0
  9
$DIMTP
 40
0.001
  9
$DIMTM
 40
0.001
  9
$DIMGAP
 40
0.625
  9
$DIMDSEP
 70
46
  9
$PDMODE
 70
3
  9
$PDSIZE
 40
2.0
  9
$HANDSEED
  5
435
  9
$TILEMODE
 70
1
  9
$MEASUREMENT
 70
1
  9
$INSUNITS
 70
4
  0
ENDSEC
  0
SECTION
  2
CLASSES
  0
CLASS
  1
ACDBDICTIONARYWDFLT
  2
AcDbDictionaryWithDefault
  3
AutoCAD 2000
 90
0
 91
1
280
0
281
0
  0
CLASS
  1
ACDBPLACEHOLDER
  2
AcDbPlaceHolder
  3
AutoCAD 2000
 90
0
 91
1
280
0
281
0
  0
CLASS
  1
LAYOUT
  2
AcDbLayout
  3
AutoCAD 2000
 90
0
 91
0
280
0
281
0
  0
ENDSEC
  0
SECTION
  2
TABLES
  0
TABLE
  2
VPORT
  5
8
100
AcDbSymbolTable
 70
2
  0
VPORT
  5
1F4
100
AcDbSymbolTableRecord
100
AcDbViewportTableRecord
  2
*ACTIVE
 70
0
 10
0.0
 20
0.0
 11
1.0
 21
1.0
 12
60.0
 22
142.5
 13
0.0
 23
0.0
 14
1.0
 24
1.0
 15
0.0
 25
0.0
 16
0.0
 26
0.0
 36
1.0
 17
0.0
 27
0.0
 37
0.0
 40
285.0
 41
0.4210526316
 42
50.0
 43
0.0
 44
0.0
 50
0.0
 51
0.0
 71
0
 72
100
 73
1
 74
1
 75
0
 76
0
 77
0
 78
0
  0
ENDTAB
  0
TABLE
  2
LTYPE
  5
5
100
AcDbSymbolTable
 70
6
  0
LTYPE
  5
14
100
AcDbSymbolTableRecord
100
AcDbLinetypeTableRecord
  2
BYBLOCK
 70
0
  3

 72
65
 73
0
 40
0.0
  0
LTYPE
  5
15
100
AcDbSymbolTableRecord
100
AcDbLinetypeTableRecord
  2
BYLAYER
 70
0
  3

 72
65
 73
0
 40
0.0
  0
LTYPE
  5
16
100
AcDbSymbolTableRecord
100
AcDbLinetypeTableRecord
  2
CONTINUOUS
 70
64
  3
Solid line
 72
65
 73
0
 40
0.0
  0
LTYPE
  5
1F5
100
AcDbSymbolTableRecord
100
AcDbLinetypeTableRecord
  2
CENTER
 70
64
  3
____ _ ____ _ ____ _ ____ _ ____ _ ____ _ ____
 72
65
 73
4
 40
0.6
 49
0.375
 74
0
 49
-0.075
 74
0
 49
0.075
 74
0
 49
-0.075
 74
0
  0
LTYPE
  5
1F6
100
AcDbSymbolTableRecord
100
AcDbLinetypeTableRecord
  2
HIDDEN
 70
64
  3
- - - - - - - - - - - - - - - - - - - -
 72
65
 73
2
 40
0.2
 49
0.1
 74
0
 49
-0.1
 74
0
  0
LTYPE
  5
1F7
100
AcDbSymbolTableRecord
100
AcDbLinetypeTableRecord
  2
PHANTOM
 70
64
  3
_____ _ _ _____ _ _ _____ _ _ _____
 72
65
 73
6
 40
0.8
 49
0.45
 74
0
 49
-0.05
 74
0
 49
0.1
 74
0
 49
-0.05
 74
0
 49
0.1
 74
0
 49
-0.05
 74
0
  0
LTYPE
  5
1F8
100
AcDbSymbolTableRecord
100
AcDbLinetypeTableRecord
  2
DOT
 70
64
  3
. . . . . . . . . . . . . . . . . . . .
 72
65
 73
2
 40
0.2
 49
0.1
 74
0
 49
-0.1
 74
0
  0
LTYPE
  5
1F9
100
AcDbSymbolTableRecord
100
AcDbLinetypeTableRecord
  2
DASHED
 70
64
  3
- - - - - - - - - - - - - - - - - - - -
 72
65
 73
2
 40
0.2
 49
0.1
 74
0
 49
-0.1
 74
0
  0
ENDTAB
  0
TABLE
  2
LAYER
  5
2
100
AcDbSymbolTable
 70
36
  0
LAYER
  5
10
100
AcDbSymbolTableRecord
100
AcDbLayerTableRecord
  2
0
 70
0
 62
7
  6
CONTINUOUS
370
-3
390
F
  0
LAYER
  5
1FA
100
AcDbSymbolTableRecord
100
AcDbLayerTableRecord
  2
DEFAULT_1
 70
0
 62
7
  6
CENTER
370
-3
390
F
  0
LAYER
  5
1FB
100
AcDbSymbolTableRecord
100
AcDbLayerTableRecord
  2
DEFAULT_2
 70
0
 62
8
  6
HIDDEN
370
-3
390
F
  0
LAYER
  5
1FC
100
AcDbSymbolTableRecord
100
AcDbLayerTableRecord
  2
DEFAULT_3
 70
0
 62
7
  6
PHANTOM
370
-3
390
F
  0
LAYER
  5
1FD
100
AcDbSymbolTableRecord
100
AcDbLayerTableRecord
  2
AXIS
 70
0
 62
7
  6
CONTINUOUS
370
-3
390
F
  0
LAYER
  5
1FE
100
AcDbSymbolTableRecord
100
AcDbLayerTableRecord
  2
COORDSYS
 70
0
 62
7
  6
CONTINUOUS
370
-3
390
F
  0
LAYER
  5
1FF
100
AcDbSymbolTableRecord
100
AcDbLayerTableRecord
  2
CURVES
 70
0
 62
7
  6
CONTINUOUS
370
-3
390
F
  0
LAYER
  5
200
100
AcDbSymbolTableRecord
100
AcDbLayerTableRecord
  2
EINBAUREFERENZ
 70
0
 62
7
  6
CONTINUOUS
370
-3
390
F
  0
LAYER
  5
201
100
AcDbSymbolTableRecord
100
AcDbLayerTableRecord
  2
PLANES
 70
0
 62
7
  6
CONTINUOUS
370
-3
390
F
  0
LAYER
  5
202
100
AcDbSymbolTableRecord
100
AcDbLayerTableRecord
  2
POINTS
 70
0
 62
7
  6
CONTINUOUS
370
-3
390
F
  0
LAYER
  5
203
100
AcDbSymbolTableRecord
100
AcDbLayerTableRecord
  2
PROFIL-EINBAULAGE
 70
0
 62
7
  6
CONTINUOUS
370
-3
390
F
  0
LAYER
  5
204
100
AcDbSymbolTableRecord
100
AcDbLayerTableRecord
  2
S-AXIS
 70
0
 62
7
  6
CONTINUOUS
370
-3
390
F
  0
LAYER
  5
205
100
AcDbSymbolTableRecord
100
AcDbLayerTableRecord
  2
S-COORDSYS
 70
0
 62
7
  6
CONTINUOUS
370
-3
390
F
  0
LAYER
  5
206
100
AcDbSymbolTableRecord
100
AcDbLayerTableRecord
  2
S-PLANES
 70
0
 62
7
  6
CONTINUOUS
370
-3
390
F
  0
LAYER
  5
207
100
AcDbSymbolTableRecord
100
AcDbLayerTableRecord
  2
THREADS
 70
0
 62
7
  6
CONTINUOUS
370
-3
390
F
  0
LAYER
  5
208
100
AcDbSymbolTableRecord
100
AcDbLayerTableRecord
  2
HATCHING_BL0
 70
0
 62
7
  6
CONTINUOUS
370
-3
390
F
  0
LAYER
  5
209
100
AcDbSymbolTableRecord
100
AcDbLayerTableRecord
  2
93773502000_O_BL1
 70
0
 62
7
  6
CONTINUOUS
370
-3
390
F
  0
LAYER
  5
20A
100
AcDbSymbolTableRecord
100
AcDbLayerTableRecord
  2
94822901000_BL2
 70
0
 62
7
  6
CONTINUOUS
370
-3
390
F
  0
LAYER
  5
20B
100
AcDbSymbolTableRecord
100
AcDbLayerTableRecord
  2
94528901000_M_BL3
 70
0
 62
7
  6
CONTINUOUS
370
-3
390
F
  0
LAYER
  5
20C
100
AcDbSymbolTableRecord
100
AcDbLayerTableRecord
  2
95103801000_BL4
 70
0
 62
7
  6
CONTINUOUS
370
-3
390
F
  0
LAYER
  5
20D
100
AcDbSymbolTableRecord
100
AcDbLayerTableRecord
  2
94663701000_BL5
 70
0
 62
7
  6
CONTINUOUS
370
-3
390
F
  0
LAYER
  5
20E
100
AcDbSymbolTableRecord
100
AcDbLayerTableRecord
  2
94528901000_M_BL6
 70
0
 62
7
  6
CONTINUOUS
370
-3
390
F
  0
LAYER
  5
20F
100
AcDbSymbolTableRecord
100
AcDbLayerTableRecord
  2
93773502000_O_BL7
 70
0
 62
7
  6
CONTINUOUS
370
-3
390
F
  0
LAYER
  5
210
100
AcDbSymbolTableRecord
100
AcDbLayerTableRecord
  2
91511100000_BL8
 70
0
 62
7
  6
CONTINUOUS
370
-3
390
F
  0
ENDTAB
  0
TABLE
  2
STYLE
  5
3
100
AcDbSymbolTable
 70
1
  0
STYLE
  5
11
100
AcDbSymbolTableRecord
100
AcDbTextStyleTableRecord
  2
STANDARD
 70
0
 40
0.0
 41
1.0
 50
0.0
 71
0
 42
0.2
  3
arial.ttf
  4

  0
STYLE
  5
211
100
AcDbSymbolTableRecord
100
AcDbTextStyleTableRecord
  2
TEXTSTYLE_1
 70
0
 40
0.0
 41
0.8
 50
0.0
 71
0
 42
0.2
  3
gdt
  4

  0
STYLE
  5
212
100
AcDbSymbolTableRecord
100
AcDbTextStyleTableRecord
  2
TEXTSTYLE_2
 70
0
 40
0.0
 41
1.0
 50
0.0
 71
0
 42
0.2
  3
arialbd.ttf
  4

  0
ENDTAB
  0
TABLE
  2
VIEW
  5
6
100
AcDbSymbolTable
 70
0
  0
ENDTAB
  0
TABLE
  2
UCS
  5
7
100
AcDbSymbolTable
 70
0
  0
ENDTAB
  0
TABLE
  2
APPID
  5
9
100
AcDbSymbolTable
 70
1
  0
APPID
  5
213
100
AcDbSymbolTableRecord
100
AcDbRegAppTableRecord
  2
ACAD
 70
0
  0
ENDTAB
  0
TABLE
  2
BLOCK_RECORD
  5
1
100
AcDbSymbolTable
 70
0
  0
BLOCK_RECORD
  5
214
100
AcDbSymbolTableRecord
100
AcDbBlockTableRecord
  2
*Model_Space
  0
BLOCK_RECORD
  5
215
100
AcDbSymbolTableRecord
100
AcDbBlockTableRecord
  2
*Paper_Space
  0
BLOCK_RECORD
  5
216
100
AcDbSymbolTableRecord
100
AcDbBlockTableRecord
  2
_FILLED
  0
BLOCK_RECORD
  5
217
100
AcDbSymbolTableRecord
100
AcDbBlockTableRecord
  2
*D0
  0
BLOCK_RECORD
  5
218
100
AcDbSymbolTableRecord
100
AcDbBlockTableRecord
  2
*D1
  0
BLOCK_RECORD
  5
219
100
AcDbSymbolTableRecord
100
AcDbBlockTableRecord
  2
*D2
  0
BLOCK_RECORD
  5
21A
100
AcDbSymbolTableRecord
100
AcDbBlockTableRecord
  2
*D3
  0
BLOCK_RECORD
  5
21B
100
AcDbSymbolTableRecord
100
AcDbBlockTableRecord
  2
*D4
  0
BLOCK_RECORD
  5
21C
100
AcDbSymbolTableRecord
100
AcDbBlockTableRecord
  2
*D5
  0
BLOCK_RECORD
  5
21D
100
AcDbSymbolTableRecord
100
AcDbBlockTableRecord
  2
*D6
  0
BLOCK_RECORD
  5
21E
100
AcDbSymbolTableRecord
100
AcDbBlockTableRecord
  2
*D7
  0
BLOCK_RECORD
  5
21F
100
AcDbSymbolTableRecord
100
AcDbBlockTableRecord
  2
*D8
  0
BLOCK_RECORD
  5
220
100
AcDbSymbolTableRecord
100
AcDbBlockTableRecord
  2
*D9
  0
BLOCK_RECORD
  5
221
100
AcDbSymbolTableRecord
100
AcDbBlockTableRecord
  2
SYMBOL_0_BL9
  0
BLOCK_RECORD
  5
222
100
AcDbSymbolTableRecord
100
AcDbBlockTableRecord
  2
HATCHING_BL0
  0
BLOCK_RECORD
  5
223
100
AcDbSymbolTableRecord
100
AcDbBlockTableRecord
  2
93773502000_O_BL1
  0
BLOCK_RECORD
  5
224
100
AcDbSymbolTableRecord
100
AcDbBlockTableRecord
  2
94822901000_BL2
  0
BLOCK_RECORD
  5
225
100
AcDbSymbolTableRecord
100
AcDbBlockTableRecord
  2
94528901000_M_BL3
  0
BLOCK_RECORD
  5
226
100
AcDbSymbolTableRecord
100
AcDbBlockTableRecord
  2
95103801000_BL4
  0
BLOCK_RECORD
  5
227
100
AcDbSymbolTableRecord
100
AcDbBlockTableRecord
  2
94663701000_BL5
  0
BLOCK_RECORD
  5
228
100
AcDbSymbolTableRecord
100
AcDbBlockTableRecord
  2
94528901000_M_BL6
  0
BLOCK_RECORD
  5
229
100
AcDbSymbolTableRecord
100
AcDbBlockTableRecord
  2
93773502000_O_BL7
  0
BLOCK_RECORD
  5
22A
100
AcDbSymbolTableRecord
100
AcDbBlockTableRecord
  2
91511100000_BL8
  0
ENDTAB
  0
TABLE
  2
DIMSTYLE
  5
A
100
AcDbSymbolTable
 70
1
100
AcDbDimStyleTable
 71
0
  0
DIMSTYLE
105
22B
100
AcDbSymbolTableRecord
100
AcDbDimStyleTableRecord
  2
STANDARD
 70
0
  3

  4

 40
1.0
 41
3.5
 42
0.0
 43
0.38
 44
1.0
 45
0.0
 46
0.0
 47
0.001
 48
0.001
140
2.5
141
0.09
142
0.0
143
25.4
144
1.0
145
0.0
146
1.0
147
0.625
 71
1.0
 72
0.0
 73
0
 74
0
 75
0
 76
0
 77
1
 78
8
170
0
171
2
172
0
173
0
174
0
175
0
176
0
177
0
178
5
270
2
271
3
272
3
273
2
274
2
275
0
280
0
281
0
282
0
283
1
284
8
285
0
286
0
287
3
288
0
340
11
278
46
341
216
342
216
343
216
344
216
  0
DIMSTYLE
105
22C
100
AcDbSymbolTableRecord
100
AcDbDimStyleTableRecord
  2
DIMSTYLE_1
 70
0
  3

  4

 40
1.0
 41
3.5
 42
0.0
 43
0.38
 44
1.0
 45
0.0
 46
0.0
 47
0.1
 48
0.1
140
2.5
141
0.09
142
0.0
143
25.4
144
1.0
145
0.0
146
1.0
147
0.625
 71
0.0
 72
0.0
 73
0
 74
0
 75
0
 76
0
 77
1
 78
8
170
0
171
2
172
0
173
0
174
0
175
0
176
0
177
0
178
5
270
2
271
3
272
3
273
2
274
2
275
0
280
0
281
0
282
0
283
1
284
8
285
0
286
0
287
3
288
0
340
11
278
46
341
216
342
216
343
216
344
216
  0
DIMSTYLE
105
22D
100
AcDbSymbolTableRecord
100
AcDbDimStyleTableRecord
  2
DIMSTYLE_2
 70
0
  3

  4

 40
1.0
 41
3.5
 42
0.0
 43
0.38
 44
1.0
 45
0.0
 46
0.0
 47
0.2
 48
0.2
140
2.5
141
0.09
142
0.0
143
25.4
144
1.0
145
0.0
146
1.0
147
0.625
 71
0.0
 72
0.0
 73
0
 74
0
 75
0
 76
0
 77
1
 78
8
170
0
171
2
172
0
173
0
174
0
175
0
176
0
177
0
178
5
270
2
271
3
272
3
273
2
274
2
275
0
280
0
281
0
282
0
283
1
284
8
285
0
286
0
287
3
288
0
340
11
278
46
341
216
342
216
343
216
344
216
  0
DIMSTYLE
105
22E
100
AcDbSymbolTableRecord
100
AcDbDimStyleTableRecord
  2
DIMSTYLE_3
 70
0
  3

  4

 40
1.0
 41
3.5
 42
0.0
 43
0.38
 44
1.0
 45
0.0
 46
0.0
 47
0.3
 48
0.3
140
2.5
141
0.09
142
0.0
143
25.4
144
1.0
145
0.0
146
1.0
147
0.625
 71
0.0
 72
0.0
 73
0
 74
0
 75
0
 76
0
 77
1
 78
8
170
0
171
2
172
0
173
0
174
0
175
0
176
0
177
0
178
5
270
2
271
3
272
3
273
2
274
2
275
0
280
0
281
0
282
0
283
1
284
8
285
0
286
0
287
3
288
0
340
11
278
46
341
216
342
216
343
216
344
216
  0
DIMSTYLE
105
22F
100
AcDbSymbolTableRecord
100
AcDbDimStyleTableRecord
  2
DIMSTYLE_4
 70
0
  3

  4

 40
1.0
 41
3.5
 42
0.0
 43
0.38
 44
1.0
 45
0.0
 46
0.0
 47
0.5
 48
0.5
140
2.5
141
0.09
142
0.0
143
25.4
144
1.0
145
0.0
146
1.0
147
0.625
 71
0.0
 72
0.0
 73
0
 74
0
 75
0
 76
0
 77
1
 78
8
170
0
171
2
172
0
173
0
174
0
175
0
176
0
177
0
178
5
270
2
271
3
272
3
273
2
274
2
275
0
280
0
281
0
282
0
283
1
284
8
285
0
286
0
287
3
288
0
340
11
278
46
341
216
342
216
343
216
344
216
  0
ENDTAB
  0
ENDSEC
  0
SECTION
  2
BLOCKS
  0
BLOCK
  5
20
100
AcDbEntity
  8
0
100
AcDbBlockBegin
  2
*Model_Space
 70
0
 10
0.0
 20
0.0
 30
0.0
  3
*Model_Space
  1

  0
ENDBLK
  5
21
100
AcDbEntity
  8
0
100
AcDbBlockEnd
  0
BLOCK
  5
1C
100
AcDbEntity
  8
0
100
AcDbBlockBegin
  2
*Paper_Space
 70
0
 10
0.0
 20
0.0
 30
0.0
  3
*Paper_Space
  1

  0
ENDBLK
  5
1D
100
AcDbEntity
  8
0
100
AcDbBlockEnd
  0
BLOCK
  5
230
100
AcDbEntity
  8
0
100
AcDbBlockBegin
 62
2
  6
CONTINUOUS
  2
SYMBOL_0_BL9
 70
64
 10
31.0000000239
 20
34.7337833308
  3
SYMBOL_0_BL9
  1

  0
TEXT
  5
231
100
AcDbEntity
  8
0
100
AcDbText
 62
5
  6
CONTINUOUS
 10
11.6434778505
 20
31.9246550071
  7
TEXTSTYLE_2
 40
4.0
  1
6-40032-DS-0
 72
5
 11
46.721544765
 21
31.9246550071
100
AcDbText
  0
TEXT
  5
232
100
AcDbEntity
  8
0
100
AcDbText
 62
5
  6
CONTINUOUS
 10
10.9089559916
 20
23.9114176429
  7
STANDARD
 40
2.5
  1
Scale
 72
5
 11
19.6357217908
 21
23.9114176429
100
AcDbText
  0
TEXT
  5
233
100
AcDbEntity
  8
0
100
AcDbText
 62
5
  6
CONTINUOUS
 10
10.9089559916
 20
20.1614176429
  7
STANDARD
 40
2.5
  1
1:1
 72
5
 11
15.7602571068
 21
20.1614176429
100
AcDbText
  0
TEXT
  5
234
100
AcDbEntity
  8
0
100
AcDbText
 62
5
  6
CONTINUOUS
 10
10.9089559916
 20
12.7856067389
  7
STANDARD
 40
2.5
  1
Draft
 72
5
 11
18.4647180733
 21
12.7856067389
100
AcDbText
  0
TEXT
  5
235
100
AcDbEntity
  8
0
100
AcDbText
 62
5
  6
CONTINUOUS
 10
23.3811982505
 20
12.8471214613
  7
STANDARD
 40
2.5
  1
27.04.2018
 72
5
 11
40.8533172096
 21
12.8471214613
100
AcDbText
  0
TEXT
  5
236
100
AcDbEntity
  8
0
100
AcDbText
 62
5
  6
CONTINUOUS
 10
45.71759366
 20
12.8405295133
  7
STANDARD
 40
2.5
  1
Dr
 72
5
 11
49.435065779
 21
12.8405295133
100
AcDbText
  0
LINE
  5
237
100
AcDbEntity
  8
0
100
AcDbLine
 62
2
  6
CONTINUOUS
 10
10.0000000239
 20
59.7337833308
 11
52.0000000239
 21
59.7337833308
  0
LINE
  5
238
100
AcDbEntity
  8
0
100
AcDbLine
 62
2
  6
CONTINUOUS
 10
52.0000000239
 20
59.7337833308
 11
52.0000000239
 21
9.7337833308
  0
LINE
  5
239
100
AcDbEntity
  8
0
100
AcDbLine
 62
2
  6
CONTINUOUS
 10
10.0000000239
 20
9.7337833308
 11
52.0000000239
 21
9.7337833308
  0
LINE
  5
23A
100
AcDbEntity
  8
0
100
AcDbLine
 62
2
  6
CONTINUOUS
 10
10.0000000239
 20
39.7337833308
 11
21.0000000239
 21
39.7337833308
  0
LINE
  5
23B
100
AcDbEntity
  8
0
100
AcDbLine
 62
2
  6
CONTINUOUS
 10
10.0000000239
 20
27.7337833308
 11
21.0000000239
 21
27.7337833308
  0
LINE
  5
23C
100
AcDbEntity
  8
0
100
AcDbLine
 62
2
  6
CONTINUOUS
 10
10.0000000239
 20
18.7337833308
 11
21.0000000239
 21
18.7337833308
  0
LINE
  5
23D
100
AcDbEntity
  8
0
100
AcDbLine
 62
2
  6
CONTINUOUS
 10
21.0000000239
 20
39.7337833308
 11
43.0000000239
 21
39.7337833308
  0
LINE
  5
23E
100
AcDbEntity
  8
0
100
AcDbLine
 62
2
  6
CONTINUOUS
 10
43.0000000239
 20
39.7337833308
 11
52.0000000239
 21
39.7337833308
  0
LINE
  5
23F
100
AcDbEntity
  8
0
100
AcDbLine
 62
2
  6
CONTINUOUS
 10
21.0000000239
 20
27.7337833308
 11
43.0000000239
 21
27.7337833308
  0
LINE
  5
240
100
AcDbEntity
  8
0
100
AcDbLine
 62
2
  6
CONTINUOUS
 10
43.0000000239
 20
27.7337833308
 11
52.0000000239
 21
27.7337833308
  0
LINE
  5
241
100
AcDbEntity
  8
0
100
AcDbLine
 62
2
  6
CONTINUOUS
 10
21.0000000239
 20
18.7337833308
 11
21.0000000239
 21
9.7337833308
  0
LINE
  5
242
100
AcDbEntity
  8
0
100
AcDbLine
 62
2
  6
CONTINUOUS
 10
21.0000000239
 20
18.7337833308
 11
43.0000000239
 21
18.7337833308
  0
LINE
  5
243
100
AcDbEntity
  8
0
100
AcDbLine
 62
2
  6
CONTINUOUS
 10
43.0000000239
 20
18.7337833308
 11
43.0000000239
 21
9.7337833308
  0
LINE
  5
244
100
AcDbEntity
  8
0
100
AcDbLine
 62
2
  6
CONTINUOUS
 10
43.0000000239
 20
18.7337833308
 11
52.0000000239
 21
18.7337833308
  0
LINE
  5
245
100
AcDbEntity
  8
0
100
AcDbLine
 62
2
  6
CONTINUOUS
 10
10.0000000239
 20
9.7337833308
 11
10.0000000239
 21
59.7337833308
  0
ARC
  5
246
100
AcDbEntity
  8
0
100
AcDbCircle
 62
2
  6
CONTINUOUS
 10
17.6290122978
 20
55.8646108167
 40
1.2679261569
100
AcDbArc
 50
90.0
 51
180.0
  0
LINE
  5
247
100
AcDbEntity
  8
0
100
AcDbLine
 62
2
  6
CONTINUOUS
 10
17.6290122978
 20
57.1325369736
 11
44.0849627663
 21
57.1325369736
  0
ARC
  5
248
100
AcDbEntity
  8
0
100
AcDbCircle
 62
2
  6
CONTINUOUS
 10
44.0849627663
 20
55.8646108167
 40
1.2679261569
100
AcDbArc
 50
0.0
 51
90.0
  0
LINE
  5
249
100
AcDbEntity
  8
0
100
AcDbLine
 62
2
  6
CONTINUOUS
 10
45.3528889231
 20
55.8646108167
 11
45.3528889231
 21
43.4004617201
  0
ARC
  5
24A
100
AcDbEntity
  8
0
100
AcDbCircle
 62
2
  6
CONTINUOUS
 10
44.0849627663
 20
43.4004617201
 40
1.2679261569
100
AcDbArc
 50
270.0
 51
360.0
  0
LINE
  5
24B
100
AcDbEntity
  8
0
100
AcDbLine
 62
2
  6
CONTINUOUS
 10
44.0849627663
 20
42.1325355633
 11
17.6290122978
 21
42.1325355633
  0
ARC
  5
24C
100
AcDbEntity
  8
0
100
AcDbCircle
 62
2
  6
CONTINUOUS
 10
17.6290122978
 20
43.4004617201
 40
1.2679261569
100
AcDbArc
 50
180.0
 51
270.0
  0
LINE
  5
24D
100
AcDbEntity
  8
0
100
AcDbLine
 62
2
  6
CONTINUOUS
 10
16.3610861409
 20
43.4004617201
 11
16.3610861409
 21
55.8646108167
  0
ARC
  5
24E
100
AcDbEntity
  8
0
100
AcDbCircle
 62
2
  6
CONTINUOUS
 10
25.0981141224
 20
49.4518925499
 40
2.8108394023
100
AcDbArc
 50
35.2282226131
 51
336.934010569
  0
LINE
  5
24F
100
AcDbEntity
  8
0
100
AcDbLine
 62
2
  6
CONTINUOUS
 10
27.3941788183
 20
51.0732824034
 11
29.5865173301
 21
52.6955275653
  0
ARC
  5
250
100
AcDbEntity
  8
0
100
AcDbCircle
 62
2
  6
CONTINUOUS
 10
25.0981141224
 20
49.4518925499
 40
5.5377731507
100
AcDbArc
 50
35.8545159817
 51
11.4705154501
  0
LINE
  5
251
100
AcDbEntity
  8
0
100
AcDbLine
 62
2
  6
CONTINUOUS
 10
30.5252822719
 20
50.5531542559
 11
25.2029961896
 21
50.5531542559
  0
ARC
  5
252
100
AcDbEntity
  8
0
100
AcDbCircle
 62
2
  6
CONTINUOUS
 10
25.2029961896
 20
49.4518925499
 40
1.1012617061
100
AcDbArc
 50
90.0
 51
270.0
  0
LINE
  5
253
100
AcDbEntity
  8
0
100
AcDbLine
 62
2
  6
CONTINUOUS
 10
25.2029961896
 20
48.3506308437
 11
27.6842387906
 21
48.3506308437
  0
ARC
  5
254
100
AcDbEntity
  8
0
100
AcDbCircle
 62
2
  6
CONTINUOUS
 10
25.2029961896
 20
49.4518925499
 40
5.9153485927
100
AcDbArc
 50
349.2706340045
 51
10.7293659955
  0
LINE
  5
255
100
AcDbEntity
  8
0
100
AcDbLine
 62
2
  6
CONTINUOUS
 10
31.014929743
 20
48.3506308437
 11
32.8593870987
 21
48.3506308437
  0
LINE
  5
256
100
AcDbEntity
  8
0
100
AcDbLine
 62
2
  6
CONTINUOUS
 10
32.8593870987
 20
48.3506308437
 11
32.8593870987
 21
47.7737794739
  0
ARC
  5
257
100
AcDbEntity
  8
0
100
AcDbCircle
 62
2
  6
CONTINUOUS
 10
36.7610000003
 20
47.7737794739
 40
3.9016129016
100
AcDbArc
 50
180.0
 51
360.0
  0
LINE
  5
258
100
AcDbEntity
  8
0
100
AcDbLine
 62
2
  6
CONTINUOUS
 10
40.6626129019
 20
47.7737794739
 11
40.6626129019
 21
54.6959959122
  0
LINE
  5
259
100
AcDbEntity
  8
0
100
AcDbLine
 62
2
  6
CONTINUOUS
 10
40.6626129019
 20
54.6959959122
 11
37.9356791535
 21
54.6959959122
  0
LINE
  5
25A
100
AcDbEntity
  8
0
100
AcDbLine
 62
2
  6
CONTINUOUS
 10
37.9356791535
 20
54.6959959122
 11
37.9356791535
 21
47.7737794739
  0
ARC
  5
25B
100
AcDbEntity
  8
0
100
AcDbCircle
 62
2
  6
CONTINUOUS
 10
36.7610000003
 20
47.7737794739
 40
1.1746791532
100
AcDbArc
 50
180.0
 51
360.0
  0
LINE
  5
25C
100
AcDbEntity
  8
0
100
AcDbLine
 62
2
  6
CONTINUOUS
 10
35.5863208471
 20
47.7737794739
 11
35.5863208471
 21
54.6959959122
  0
LINE
  5
25D
100
AcDbEntity
  8
0
100
AcDbLine
 62
2
  6
CONTINUOUS
 10
35.5863208471
 20
54.6959959122
 11
32.8593870987
 21
54.6959959122
  0
LINE
  5
25E
100
AcDbEntity
  8
0
100
AcDbLine
 62
2
  6
CONTINUOUS
 10
32.8593870987
 20
54.6959959122
 11
32.8593870987
 21
50.5531542559
  0
LINE
  5
25F
100
AcDbEntity
  8
0
100
AcDbLine
 62
2
  6
CONTINUOUS
 10
32.8593870987
 20
50.5531542559
 11
31.014929743
 21
50.5531542559
  0
LINE
  5
260
100
AcDbEntity
  8
0
100
AcDbLine
 62
2
  6
CONTINUOUS
 10
45.1996126437
 20
56.4672019516
 11
45.2185459944
 21
56.4310455458
  0
LWPOLYLINE
  5
261
100
AcDbEntity
  8
0
100
AcDbPolyline
 62
2
  6
CONTINUOUS
 90
42
 70
0
 10
17.4964779251
 20
57.1255957147
 10
17.6290122978
 20
57.1325407154
 10
44.0849627663
 20
57.1325407154
 10
44.217497139
 20
57.1255957147
 10
44.3485794374
 20
57.1048357128
 10
44.4767734964
 20
57.0704857095
 10
44.600674795
 20
57.0229207051
 10
44.7189258447
 20
56.9626656994
 10
44.8302310623
 20
56.8903806926
 10
44.9333709645
 20
56.8068606848
 10
45.0272155289
 20
56.7130206759
 10
45.1107365748
 20
56.6098806662
 10
45.1830190283
 20
56.4985806558
 10
45.2432709475
 20
56.3803206447
 10
45.2908322
 20
56.256420633
 10
45.3251816945
 20
56.128230621
 10
45.345943091
 20
55.9971456086
 10
45.3528889232
 20
55.8646055962
 10
24.5102931399
 20
54.9583794481
 10
23.6929701738
 20
54.8084307932
 10
22.9072856488
 20
54.5378734845
 10
22.1709301607
 20
54.1527994329
 10
21.5004836049
 20
53.6618790259
 10
20.9110418611
 20
53.0761659043
 10
20.4158768919
 20
52.4088480764
 10
20.0261379092
 20
51.674950975
 10
16.3610861409
 20
43.4004594242
 10
16.3610861409
 20
55.8646055962
 10
16.368031973
 20
55.9971456086
 10
16.3887933695
 20
56.128230621
 10
16.4231428641
 20
56.256420633
 10
16.4707041165
 20
56.3803206447
 10
16.5309560358
 20
56.4985806558
 10
16.6032384892
 20
56.6098806662
 10
16.6867595352
 20
56.7130206759
 10
16.7806040996
 20
56.8068606848
 10
16.8837440018
 20
56.8903806926
 10
16.9950492193
 20
56.9626656994
 10
17.113300269
 20
57.0229207051
 10
17.2372015677
 20
57.0704857095
 10
17.3653956267
 20
57.1048357128
 10
17.4964779251
 20
57.1255957147
  0
HATCH
  5
262
100
AcDbEntity
  8
0
100
AcDbHatch
 62
2
  6
CONTINUOUS
 10
0.0
 20
0.0
 30
0.0
210
0.0
220
0.0
230
1.0
  2
SOLID
 70
1
 71
1
 91
1
 92
1
 93
41
 72
1
 10
17.4964779251
 20
57.1255957147
 11
17.6290122978
 21
57.1325407154
 72
1
 10
17.6290122978
 20
57.1325407154
 11
44.0849627663
 21
57.1325407154
 72
1
 10
44.0849627663
 20
57.1325407154
 11
44.217497139
 21
57.1255957147
 72
1
 10
44.217497139
 20
57.1255957147
 11
44.3485794374
 21
57.1048357128
 72
1
 10
44.3485794374
 20
57.1048357128
 11
44.4767734964
 21
57.0704857095
 72
1
 10
44.4767734964
 20
57.0704857095
 11
44.600674795
 21
57.0229207051
 72
1
 10
44.600674795
 20
57.0229207051
 11
44.7189258447
 21
56.9626656994
 72
1
 10
44.7189258447
 20
56.9626656994
 11
44.8302310623
 21
56.8903806926
 72
1
 10
44.8302310623
 20
56.8903806926
 11
44.9333709645
 21
56.8068606848
 72
1
 10
44.9333709645
 20
56.8068606848
 11
45.0272155289
 21
56.7130206759
 72
1
 10
45.0272155289
 20
56.7130206759
 11
45.1107365748
 21
56.6098806662
 72
1
 10
45.1107365748
 20
56.6098806662
 11
45.1830190283
 21
56.4985806558
 72
1
 10
45.1830190283
 20
56.4985806558
 11
45.2432709475
 21
56.3803206447
 72
1
 10
45.2432709475
 20
56.3803206447
 11
45.2908322
 21
56.256420633
 72
1
 10
45.2908322
 20
56.256420633
 11
45.3251816945
 21
56.128230621
 72
1
 10
45.3251816945
 20
56.128230621
 11
45.345943091
 21
55.9971456086
 72
1
 10
45.345943091
 20
55.9971456086
 11
45.3528889232
 21
55.8646055962
 72
1
 10
45.3528889232
 20
55.8646055962
 11
24.5102931399
 21
54.9583794481
 72
1
 10
24.5102931399
 20
54.9583794481
 11
23.6929701738
 21
54.8084307932
 72
1
 10
23.6929701738
 20
54.8084307932
 11
22.9072856488
 21
54.5378734845
 72
1
 10
22.9072856488
 20
54.5378734845
 11
22.1709301607
 21
54.1527994329
 72
1
 10
22.1709301607
 20
54.1527994329
 11
21.5004836049
 21
53.6618790259
 72
1
 10
21.5004836049
 20
53.6618790259
 11
20.9110418611
 21
53.0761659043
 72
1
 10
20.9110418611
 20
53.0761659043
 11
20.4158768919
 21
52.4088480764
 72
1
 10
20.4158768919
 20
52.4088480764
 11
20.0261379092
 21
51.674950975
 72
1
 10
20.0261379092
 20
51.674950975
 11
16.3610861409
 21
43.4004594242
 72
1
 10
16.3610861409
 20
43.4004594242
 11
16.3610861409
 21
55.8646055962
 72
1
 10
16.3610861409
 20
55.8646055962
 11
16.368031973
 21
55.9971456086
 72
1
 10
16.368031973
 20
55.9971456086
 11
16.3887933695
 21
56.128230621
 72
1
 10
16.3887933695
 20
56.128230621
 11
16.4231428641
 21
56.256420633
 72
1
 10
16.4231428641
 20
56.256420633
 11
16.4707041165
 21
56.3803206447
 72
1
 10
16.4707041165
 20
56.3803206447
 11
16.5309560358
 21
56.4985806558
 72
1
 10
16.5309560358
 20
56.4985806558
 11
16.6032384892
 21
56.6098806662
 72
1
 10
16.6032384892
 20
56.6098806662
 11
16.6867595352
 21
56.7130206759
 72
1
 10
16.6867595352
 20
56.7130206759
 11
16.7806040996
 21
56.8068606848
 72
1
 10
16.7806040996
 20
56.8068606848
 11
16.8837440018
 21
56.8903806926
 72
1
 10
16.8837440018
 20
56.8903806926
 11
16.9950492193
 21
56.9626656994
 72
1
 10
16.9950492193
 20
56.9626656994
 11
17.113300269
 21
57.0229207051
 72
1
 10
17.113300269
 20
57.0229207051
 11
17.2372015677
 21
57.0704857095
 72
1
 10
17.2372015677
 20
57.0704857095
 11
17.3653956267
 21
57.1048357128
 72
1
 10
17.3653956267
 20
57.1048357128
 11
17.4964779251
 21
57.1255957147
 97
1
330
261
 75
0
 76
1
 98
1
 10
0.0
 20
0.0
  0
LWPOLYLINE
  5
263
100
AcDbEntity
  8
0
100
AcDbPolyline
 62
2
  6
CONTINUOUS
 90
23
 70
0
 10
26.9669939813
 20
54.6647822994
 10
26.1659444963
 20
54.8857373913
 10
45.3528889232
 20
55.8646055962
 10
45.3528889231
 20
43.4004594242
 10
40.1398958888
 20
45.822974652
 10
40.3656203039
 20
46.280699695
 10
40.5296686661
 20
46.7639697405
 10
40.6292340626
 20
47.2645197875
 10
40.6626129019
 20
47.7737848354
 10
40.6626129019
 20
54.6960004863
 10
37.9356791535
 20
54.6960004863
 10
35.5863208471
 20
54.6960004863
 10
32.8593870987
 20
54.6960004863
 10
32.8593870987
 20
50.5531500968
 10
31.0149297429
 20
50.5531500968
 10
30.6289655903
 20
49.7286840021
 10
30.5252822719
 20
50.5531500968
 10
27.3941788183
 20
51.0732824034
 10
29.5865173301
 20
52.6955275653
 10
29.0506384437
 20
53.3306143699
 10
28.425763901
 20
53.8783672667
 10
27.7259634749
 20
54.3264529658
 10
26.9669939813
 20
54.6647822994
  0
HATCH
  5
264
100
AcDbEntity
  8
0
100
AcDbHatch
 62
2
  6
CONTINUOUS
 10
0.0
 20
0.0
 30
0.0
210
0.0
220
0.0
230
1.0
  2
SOLID
 70
1
 71
1
 91
1
 92
1
 93
22
 72
1
 10
26.9669939813
 20
54.6647822994
 11
26.1659444963
 21
54.8857373913
 72
1
 10
26.1659444963
 20
54.8857373913
 11
45.3528889232
 21
55.8646055962
 72
1
 10
45.3528889232
 20
55.8646055962
 11
45.3528889231
 21
43.4004594242
 72
1
 10
45.3528889231
 20
43.4004594242
 11
40.1398958888
 21
45.822974652
 72
1
 10
40.1398958888
 20
45.822974652
 11
40.3656203039
 21
46.280699695
 72
1
 10
40.3656203039
 20
46.280699695
 11
40.5296686661
 21
46.7639697405
 72
1
 10
40.5296686661
 20
46.7639697405
 11
40.6292340626
 21
47.2645197875
 72
1
 10
40.6292340626
 20
47.2645197875
 11
40.6626129019
 21
47.7737848354
 72
1
 10
40.6626129019
 20
47.7737848354
 11
40.6626129019
 21
54.6960004863
 72
1
 10
40.6626129019
 20
54.6960004863
 11
37.9356791535
 21
54.6960004863
 72
1
 10
37.9356791535
 20
54.6960004863
 11
35.5863208471
 21
54.6960004863
 72
1
 10
35.5863208471
 20
54.6960004863
 11
32.8593870987
 21
54.6960004863
 72
1
 10
32.8593870987
 20
54.6960004863
 11
32.8593870987
 21
50.5531500968
 72
1
 10
32.8593870987
 20
50.5531500968
 11
31.0149297429
 21
50.5531500968
 72
1
 10
31.0149297429
 20
50.5531500968
 11
30.6289655903
 21
49.7286840021
 72
1
 10
30.6289655903
 20
49.7286840021
 11
30.5252822719
 21
50.5531500968
 72
1
 10
30.5252822719
 20
50.5531500968
 11
27.3941788183
 21
51.0732824034
 72
1
 10
27.3941788183
 20
51.0732824034
 11
29.5865173301
 21
52.6955275653
 72
1
 10
29.5865173301
 20
52.6955275653
 11
29.0506384437
 21
53.3306143699
 72
1
 10
29.0506384437
 20
53.3306143699
 11
28.425763901
 21
53.8783672667
 72
1
 10
28.425763901
 20
53.8783672667
 11
27.7259634749
 21
54.3264529658
 72
1
 10
27.7259634749
 20
54.3264529658
 11
26.9669939813
 21
54.6647822994
 97
1
330
263
 75
0
 76
1
 98
1
 10
0.0
 20
0.0
  0
LWPOLYLINE
  5
265
100
AcDbEntity
  8
0
100
AcDbPolyline
 62
2
  6
CONTINUOUS
 90
20
 70
0
 10
24.5005684601
 20
52.1984826771
 10
24.9072650814
 20
52.2562453788
 10
25.3180376874
 20
52.2541151982
 10
25.7241133608
 20
52.1921376299
 10
26.1168194973
 20
52.0716363359
 10
26.4877690273
 20
51.8951848759
 10
26.8290395394
 20
51.6665517439
 10
27.1333424806
 20
51.3906198837
 10
27.3941788183
 20
51.0732824034
 10
30.5252822719
 20
50.5531500968
 10
25.2029961896
 20
50.5531500968
 10
25.0592526925
 20
50.5437328094
 10
22.4413895628
 20
50.3698428534
 10
22.6035508656
 20
50.7472582524
 10
22.8189888395
 20
51.0970083787
 10
23.0831023513
 20
51.4116235793
 10
23.3902506985
 20
51.6843845814
 10
23.7338740791
 20
51.9094659973
 10
24.1066336894
 20
52.0820607377
 10
24.5005684601
 20
52.1984826771
  0
HATCH
  5
266
100
AcDbEntity
  8
0
100
AcDbHatch
 62
2
  6
CONTINUOUS
 10
0.0
 20
0.0
 30
0.0
210
0.0
220
0.0
230
1.0
  2
SOLID
 70
1
 71
1
 91
1
 92
1
 93
19
 72
1
 10
24.5005684601
 20
52.1984826771
 11
24.9072650814
 21
52.2562453788
 72
1
 10
24.9072650814
 20
52.2562453788
 11
25.3180376874
 21
52.2541151982
 72
1
 10
25.3180376874
 20
52.2541151982
 11
25.7241133608
 21
52.1921376299
 72
1
 10
25.7241133608
 20
52.1921376299
 11
26.1168194973
 21
52.0716363359
 72
1
 10
26.1168194973
 20
52.0716363359
 11
26.4877690273
 21
51.8951848759
 72
1
 10
26.4877690273
 20
51.8951848759
 11
26.8290395394
 21
51.6665517439
 72
1
 10
26.8290395394
 20
51.6665517439
 11
27.1333424806
 21
51.3906198837
 72
1
 10
27.1333424806
 20
51.3906198837
 11
27.3941788183
 21
51.0732824034
 72
1
 10
27.3941788183
 20
51.0732824034
 11
30.5252822719
 21
50.5531500968
 72
1
 10
30.5252822719
 20
50.5531500968
 11
25.2029961896
 21
50.5531500968
 72
1
 10
25.2029961896
 20
50.5531500968
 11
25.0592526925
 21
50.5437328094
 72
1
 10
25.0592526925
 20
50.5437328094
 11
22.4413895628
 21
50.3698428534
 72
1
 10
22.4413895628
 20
50.3698428534
 11
22.6035508656
 21
50.7472582524
 72
1
 10
22.6035508656
 20
50.7472582524
 11
22.8189888395
 21
51.0970083787
 72
1
 10
22.8189888395
 20
51.0970083787
 11
23.0831023513
 21
51.4116235793
 72
1
 10
23.0831023513
 20
51.4116235793
 11
23.3902506985
 21
51.6843845814
 72
1
 10
23.3902506985
 20
51.6843845814
 11
23.7338740791
 21
51.9094659973
 72
1
 10
23.7338740791
 20
51.9094659973
 11
24.1066336894
 21
52.0820607377
 72
1
 10
24.1066336894
 20
52.0820607377
 11
24.5005684601
 21
52.1984826771
 97
1
330
265
 75
0
 76
1
 98
1
 10
0.0
 20
0.0
  0
LWPOLYLINE
  5
267
100
AcDbEntity
  8
0
100
AcDbPolyline
 62
2
  6
CONTINUOUS
 90
8
 70
0
 10
24.6523653366
 20
50.4056131636
 10
24.5325905397
 20
50.3255822029
 10
22.3359682285
 20
49.9728226855
 10
22.4413895628
 20
50.3698428534
 10
25.0592526925
 20
50.5437328094
 10
24.9179686864
 20
50.5156296733
 10
24.78156158
 20
50.4693257001
 10
24.6523653366
 20
50.4056131636
  0
HATCH
  5
268
100
AcDbEntity
  8
0
100
AcDbHatch
 62
2
  6
CONTINUOUS
 10
0.0
 20
0.0
 30
0.0
210
0.0
220
0.0
230
1.0
  2
SOLID
 70
1
 71
1
 91
1
 92
1
 93
7
 72
1
 10
24.6523653366
 20
50.4056131636
 11
24.5325905397
 21
50.3255822029
 72
1
 10
24.5325905397
 20
50.3255822029
 11
22.3359682285
 21
49.9728226855
 72
1
 10
22.3359682285
 20
49.9728226855
 11
22.4413895628
 21
50.3698428534
 72
1
 10
22.4413895628
 20
50.3698428534
 11
25.0592526925
 21
50.5437328094
 72
1
 10
25.0592526925
 20
50.5437328094
 11
24.9179686864
 21
50.5156296733
 72
1
 10
24.9179686864
 20
50.5156296733
 11
24.78156158
 21
50.4693257001
 72
1
 10
24.78156158
 20
50.4693257001
 11
24.6523653366
 21
50.4056131636
 97
1
330
267
 75
0
 76
1
 98
1
 10
0.0
 20
0.0
  0
LWPOLYLINE
  5
269
100
AcDbEntity
  8
0
100
AcDbPolyline
 62
2
  6
CONTINUOUS
 90
8
 70
0
 10
24.2492755759
 20
50.0025234029
 10
24.1855630394
 20
49.8733271595
 10
22.2895383581
 20
49.5646769534
 10
22.3359682285
 20
49.9728226855
 10
24.5325905397
 20
50.3255822029
 10
24.4242865694
 20
50.2306021701
 10
24.3293065366
 20
50.1222981998
 10
24.2492755759
 20
50.0025234029
  0
HATCH
  5
26A
100
AcDbEntity
  8
0
100
AcDbHatch
 62
2
  6
CONTINUOUS
 10
0.0
 20
0.0
 30
0.0
210
0.0
220
0.0
230
1.0
  2
SOLID
 70
1
 71
1
 91
1
 92
1
 93
7
 72
1
 10
24.2492755759
 20
50.0025234029
 11
24.1855630394
 21
49.8733271595
 72
1
 10
24.1855630394
 20
49.8733271595
 11
22.2895383581
 21
49.5646769534
 72
1
 10
22.2895383581
 20
49.5646769534
 11
22.3359682285
 21
49.9728226855
 72
1
 10
22.3359682285
 20
49.9728226855
 11
24.5325905397
 21
50.3255822029
 72
1
 10
24.5325905397
 20
50.3255822029
 11
24.4242865694
 21
50.2306021701
 72
1
 10
24.4242865694
 20
50.2306021701
 11
24.3293065366
 21
50.1222981998
 72
1
 10
24.3293065366
 20
50.1222981998
 11
24.2492755759
 21
50.0025234029
 97
1
330
269
 75
0
 76
1
 98
1
 10
0.0
 20
0.0
  0
LWPOLYLINE
  5
26B
100
AcDbEntity
  8
0
100
AcDbPolyline
 62
2
  6
CONTINUOUS
 90
7
 70
0
 10
31.0993048012
 20
49.9261221676
 10
31.1162282192
 20
49.6101200359
 10
30.6081153911
 20
48.8979814685
 10
30.6289655903
 20
49.7286840021
 10
31.0149297429
 20
50.5531500968
 10
31.0655063992
 20
50.2407670744
 10
31.0993048012
 20
49.9261221676
  0
HATCH
  5
26C
100
AcDbEntity
  8
0
100
AcDbHatch
 62
2
  6
CONTINUOUS
 10
0.0
 20
0.0
 30
0.0
210
0.0
220
0.0
230
1.0
  2
SOLID
 70
1
 71
1
 91
1
 92
1
 93
6
 72
1
 10
31.0993048012
 20
49.9261221676
 11
31.1162282192
 21
49.6101200359
 72
1
 10
31.1162282192
 20
49.6101200359
 11
30.6081153911
 21
48.8979814685
 72
1
 10
30.6081153911
 20
48.8979814685
 11
30.6289655903
 21
49.7286840021
 72
1
 10
30.6289655903
 20
49.7286840021
 11
31.0149297429
 21
50.5531500968
 72
1
 10
31.0149297429
 20
50.5531500968
 11
31.0655063992
 21
50.2407670744
 72
1
 10
31.0655063992
 20
50.2407670744
 11
31.0993048012
 21
49.9261221676
 97
1
330
26B
 75
0
 76
1
 98
1
 10
0.0
 20
0.0
  0
LWPOLYLINE
  5
26D
100
AcDbEntity
  8
0
100
AcDbPolyline
 62
2
  6
CONTINUOUS
 90
7
 70
0
 10
24.1111559301
 20
49.595636047
 10
24.1017344835
 20
49.4518925499
 10
22.3030915597
 20
49.1541224719
 10
22.2895383581
 20
49.5646769534
 10
24.1855630394
 20
49.8733271595
 10
24.1392590662
 20
49.736920053
 10
24.1111559301
 20
49.595636047
  0
HATCH
  5
26E
100
AcDbEntity
  8
0
100
AcDbHatch
 62
2
  6
CONTINUOUS
 10
0.0
 20
0.0
 30
0.0
210
0.0
220
0.0
230
1.0
  2
SOLID
 70
1
 71
1
 91
1
 92
1
 93
6
 72
1
 10
24.1111559301
 20
49.595636047
 11
24.1017344835
 21
49.4518925499
 72
1
 10
24.1017344835
 20
49.4518925499
 11
22.3030915597
 21
49.1541224719
 72
1
 10
22.3030915597
 20
49.1541224719
 11
22.2895383581
 21
49.5646769534
 72
1
 10
22.2895383581
 20
49.5646769534
 11
24.1855630394
 21
49.8733271595
 72
1
 10
24.1855630394
 20
49.8733271595
 11
24.1392590662
 21
49.736920053
 72
1
 10
24.1392590662
 20
49.736920053
 11
24.1111559301
 21
49.595636047
 97
1
330
26D
 75
0
 76
1
 98
1
 10
0.0
 20
0.0
  0
LWPOLYLINE
  5
26F
100
AcDbEntity
  8
0
100
AcDbPolyline
 62
2
  6
CONTINUOUS
 90
7
 70
0
 10
24.1392590662
 20
49.1668650467
 10
24.1855630394
 20
49.0304579403
 10
22.3763383759
 20
48.7499274999
 10
22.3030915597
 20
49.1541224719
 10
24.1017344835
 20
49.4518925499
 10
24.1111559301
 20
49.3081490527
 10
24.1392590662
 20
49.1668650467
  0
HATCH
  5
270
100
AcDbEntity
  8
0
100
AcDbHatch
 62
2
  6
CONTINUOUS
 10
0.0
 20
0.0
 30
0.0
210
0.0
220
0.0
230
1.0
  2
SOLID
 70
1
 71
1
 91
1
 92
1
 93
6
 72
1
 10
24.1392590662
 20
49.1668650467
 11
24.1855630394
 21
49.0304579403
 72
1
 10
24.1855630394
 20
49.0304579403
 11
22.3763383759
 21
48.7499274999
 72
1
 10
22.3763383759
 20
48.7499274999
 11
22.3030915597
 21
49.1541224719
 72
1
 10
22.3030915597
 20
49.1541224719
 11
24.1017344835
 21
49.4518925499
 72
1
 10
24.1017344835
 20
49.4518925499
 11
24.1111559301
 21
49.3081490527
 72
1
 10
24.1111559301
 20
49.3081490527
 11
24.1392590662
 21
49.1668650467
 97
1
330
26F
 75
0
 76
1
 98
1
 10
0.0
 20
0.0
  0
LWPOLYLINE
  5
271
100
AcDbEntity
  8
0
100
AcDbPolyline
 62
2
  6
CONTINUOUS
 90
7
 70
0
 10
31.0993048012
 20
48.9776629321
 10
31.0655063992
 20
48.6630180253
 10
30.4632011408
 20
48.0797508835
 10
30.6081153911
 20
48.8979814685
 10
31.1162282192
 20
49.6101200359
 10
31.1162282192
 20
49.2936650638
 10
31.0993048012
 20
48.9776629321
  0
HATCH
  5
272
100
AcDbEntity
  8
0
100
AcDbHatch
 62
2
  6
CONTINUOUS
 10
0.0
 20
0.0
 30
0.0
210
0.0
220
0.0
230
1.0
  2
SOLID
 70
1
 71
1
 91
1
 92
1
 93
6
 72
1
 10
31.0993048012
 20
48.9776629321
 11
31.0655063992
 21
48.6630180253
 72
1
 10
31.0655063992
 20
48.6630180253
 11
30.4632011408
 21
48.0797508835
 72
1
 10
30.4632011408
 20
48.0797508835
 11
30.6081153911
 21
48.8979814685
 72
1
 10
30.6081153911
 20
48.8979814685
 11
31.1162282192
 21
49.6101200359
 72
1
 10
31.1162282192
 20
49.6101200359
 11
31.1162282192
 21
49.2936650638
 72
1
 10
31.1162282192
 20
49.2936650638
 11
31.0993048012
 21
48.9776629321
 97
1
330
271
 75
0
 76
1
 98
1
 10
0.0
 20
0.0
  0
LWPOLYLINE
  5
273
100
AcDbEntity
  8
0
100
AcDbPolyline
 62
2
  6
CONTINUOUS
 90
7
 70
0
 10
24.3293065366
 20
48.7814869
 10
24.4242865694
 20
48.6731829296
 10
22.5077144663
 20
48.3607244753
 10
22.3763383759
 20
48.7499274999
 10
24.1855630394
 20
49.0304579403
 10
24.2492755759
 20
48.9012616968
 10
24.3293065366
 20
48.7814869
  0
HATCH
  5
274
100
AcDbEntity
  8
0
100
AcDbHatch
 62
2
  6
CONTINUOUS
 10
0.0
 20
0.0
 30
0.0
210
0.0
220
0.0
230
1.0
  2
SOLID
 70
1
 71
1
 91
1
 92
1
 93
6
 72
1
 10
24.3293065366
 20
48.7814869
 11
24.4242865694
 21
48.6731829296
 72
1
 10
24.4242865694
 20
48.6731829296
 11
22.5077144663
 21
48.3607244753
 72
1
 10
22.5077144663
 20
48.3607244753
 11
22.3763383759
 21
48.7499274999
 72
1
 10
22.3763383759
 20
48.7499274999
 11
24.1855630394
 21
49.0304579403
 72
1
 10
24.1855630394
 20
49.0304579403
 11
24.2492755759
 21
48.9012616968
 72
1
 10
24.2492755759
 20
48.9012616968
 11
24.3293065366
 21
48.7814869
 97
1
330
273
 75
0
 76
1
 98
1
 10
0.0
 20
0.0
  0
LWPOLYLINE
  5
275
100
AcDbEntity
  8
0
100
AcDbPolyline
 62
2
  6
CONTINUOUS
 90
9
 70
0
 10
24.9179686864
 20
48.3881554265
 10
25.0592526925
 20
48.3600522904
 10
22.6944140166
 20
47.9948256513
 10
22.5077144663
 20
48.3607244753
 10
24.4242865694
 20
48.6731829296
 10
24.5325905397
 20
48.5782028968
 10
24.6523653366
 20
48.4981719362
 10
24.78156158
 20
48.4344593997
 10
24.9179686864
 20
48.3881554265
  0
HATCH
  5
276
100
AcDbEntity
  8
0
100
AcDbHatch
 62
2
  6
CONTINUOUS
 10
0.0
 20
0.0
 30
0.0
210
0.0
220
0.0
230
1.0
  2
SOLID
 70
1
 71
1
 91
1
 92
1
 93
8
 72
1
 10
24.9179686864
 20
48.3881554265
 11
25.0592526925
 21
48.3600522904
 72
1
 10
25.0592526925
 20
48.3600522904
 11
22.6944140166
 21
47.9948256513
 72
1
 10
22.6944140166
 20
47.9948256513
 11
22.5077144663
 21
48.3607244753
 72
1
 10
22.5077144663
 20
48.3607244753
 11
24.4242865694
 21
48.6731829296
 72
1
 10
24.4242865694
 20
48.6731829296
 11
24.5325905397
 21
48.5782028968
 72
1
 10
24.5325905397
 20
48.5782028968
 11
24.6523653366
 21
48.4981719362
 72
1
 10
24.6523653366
 20
48.4981719362
 11
24.78156158
 21
48.4344593997
 72
1
 10
24.78156158
 20
48.4344593997
 11
24.9179686864
 21
48.3881554265
 97
1
330
275
 75
0
 76
1
 98
1
 10
0.0
 20
0.0
  0
LWPOLYLINE
  5
277
100
AcDbEntity
  8
0
100
AcDbPolyline
 62
2
  6
CONTINUOUS
 90
9
 70
0
 10
32.8593870987
 20
48.3506248897
 10
32.8593870987
 20
47.7737848354
 10
32.8927659379
 20
47.2645197875
 10
29.8169521117
 20
46.5537035466
 10
30.1974857512
 20
47.2924156551
 10
30.4632011408
 20
48.0797508835
 10
31.0655063992
 20
48.6630180253
 10
31.0149297429
 20
48.3506248897
 10
32.8593870987
 20
48.3506248897
  0
HATCH
  5
278
100
AcDbEntity
  8
0
100
AcDbHatch
 62
2
  6
CONTINUOUS
 10
0.0
 20
0.0
 30
0.0
210
0.0
220
0.0
230
1.0
  2
SOLID
 70
1
 71
1
 91
1
 92
1
 93
8
 72
1
 10
32.8593870987
 20
48.3506248897
 11
32.8593870987
 21
47.7737848354
 72
1
 10
32.8593870987
 20
47.7737848354
 11
32.8927659379
 21
47.2645197875
 72
1
 10
32.8927659379
 20
47.2645197875
 11
29.8169521117
 21
46.5537035466
 72
1
 10
29.8169521117
 20
46.5537035466
 11
30.1974857512
 21
47.2924156551
 72
1
 10
30.1974857512
 20
47.2924156551
 11
30.4632011408
 21
48.0797508835
 72
1
 10
30.4632011408
 20
48.0797508835
 11
31.0655063992
 21
48.6630180253
 72
1
 10
31.0655063992
 20
48.6630180253
 11
31.0149297429
 21
48.3506248897
 72
1
 10
31.0149297429
 20
48.3506248897
 11
32.8593870987
 21
48.3506248897
 97
1
330
277
 75
0
 76
1
 98
1
 10
0.0
 20
0.0
  0
LWPOLYLINE
  5
279
100
AcDbEntity
  8
0
100
AcDbPolyline
 62
2
  6
CONTINUOUS
 90
19
 70
0
 10
27.6842387906
 20
48.3506248897
 10
27.4961137435
 20
47.985462885
 10
27.2567743458
 20
47.6516136312
 10
26.9713321963
 20
47.3562131391
 10
26.6458835153
 20
47.1055703104
 10
26.2873789475
 20
46.9050381526
 10
25.9034751155
 20
46.7588994537
 10
25.5023710973
 20
46.6702753146
 10
25.0926333168
 20
46.6410584911
 10
24.6830125906
 20
46.6718729702
 10
24.2822572349
 20
46.7620606435
 10
23.8989262276
 20
46.9096953627
 10
23.5412064125
 20
47.1116240763
 10
23.2167376524
 20
47.3635341698
 10
22.9324496635
 20
47.6600455707
 10
22.6944140166
 20
47.9948256513
 10
25.0592526925
 20
48.3600522904
 10
25.2029961896
 20
48.3506248897
 10
27.6842387906
 20
48.3506248897
  0
HATCH
  5
27A
100
AcDbEntity
  8
0
100
AcDbHatch
 62
2
  6
CONTINUOUS
 10
0.0
 20
0.0
 30
0.0
210
0.0
220
0.0
230
1.0
  2
SOLID
 70
1
 71
1
 91
1
 92
1
 93
18
 72
1
 10
27.6842387906
 20
48.3506248897
 11
27.4961137435
 21
47.985462885
 72
1
 10
27.4961137435
 20
47.985462885
 11
27.2567743458
 21
47.6516136312
 72
1
 10
27.2567743458
 20
47.6516136312
 11
26.9713321963
 21
47.3562131391
 72
1
 10
26.9713321963
 20
47.3562131391
 11
26.6458835153
 21
47.1055703104
 72
1
 10
26.6458835153
 20
47.1055703104
 11
26.2873789475
 21
46.9050381526
 72
1
 10
26.2873789475
 20
46.9050381526
 11
25.9034751155
 21
46.7588994537
 72
1
 10
25.9034751155
 20
46.7588994537
 11
25.5023710973
 21
46.6702753146
 72
1
 10
25.5023710973
 20
46.6702753146
 11
25.0926333168
 21
46.6410584911
 72
1
 10
25.0926333168
 20
46.6410584911
 11
24.6830125906
 21
46.6718729702
 72
1
 10
24.6830125906
 20
46.6718729702
 11
24.2822572349
 21
46.7620606435
 72
1
 10
24.2822572349
 20
46.7620606435
 11
23.8989262276
 21
46.9096953627
 72
1
 10
23.8989262276
 20
46.9096953627
 11
23.5412064125
 21
47.1116240763
 72
1
 10
23.5412064125
 20
47.1116240763
 11
23.2167376524
 21
47.3635341698
 72
1
 10
23.2167376524
 20
47.3635341698
 11
22.9324496635
 21
47.6600455707
 72
1
 10
22.9324496635
 20
47.6600455707
 11
22.6944140166
 21
47.9948256513
 72
1
 10
22.6944140166
 20
47.9948256513
 11
25.0592526925
 21
48.3600522904
 72
1
 10
25.0592526925
 20
48.3600522904
 11
25.2029961896
 21
48.3506248897
 72
1
 10
25.2029961896
 20
48.3506248897
 11
27.6842387906
 21
48.3506248897
 97
1
330
279
 75
0
 76
1
 98
1
 10
0.0
 20
0.0
  0
LWPOLYLINE
  5
27B
100
AcDbEntity
  8
0
100
AcDbPolyline
 62
2
  6
CONTINUOUS
 90
28
 70
0
 10
35.5863208471
 20
47.7737848354
 10
35.5863208471
 20
54.6960004863
 10
37.9356791535
 20
54.6960004863
 10
37.9356791535
 20
47.7737848354
 10
37.9256296104
 20
47.620454821
 10
37.8956529319
 20
47.4697498068
 10
37.8462620271
 20
47.3242497932
 10
37.7783019882
 20
47.1864447802
 10
37.6929356302
 20
47.0586747682
 10
37.5916235952
 20
46.9431597573
 10
37.4760993602
 20
46.8418497478
 10
37.3483395768
 20
46.7564847398
 10
37.2105302505
 20
46.6885197334
 10
37.065029337
 20
46.6391247287
 10
36.9143263972
 20
46.6091547259
 10
36.7610000003
 20
46.5991003208
 10
36.6076736033
 20
46.6091547259
 10
36.4569706635
 20
46.6391247287
 10
36.31146975
 20
46.6885197334
 10
36.1736604237
 20
46.7564847398
 10
36.0459006404
 20
46.8418497478
 10
35.9303764053
 20
46.9431597573
 10
35.8290643703
 20
47.0586747682
 10
35.7436980123
 20
47.1864447802
 10
35.6757379734
 20
47.3242497932
 10
35.6263470686
 20
47.4697498068
 10
35.5963703901
 20
47.620454821
 10
35.5863208471
 20
47.7737848354
  0
HATCH
  5
27C
100
AcDbEntity
  8
0
100
AcDbHatch
 62
2
  6
CONTINUOUS
 10
0.0
 20
0.0
 30
0.0
210
0.0
220
0.0
230
1.0
  2
SOLID
 70
1
 71
1
 91
1
 92
1
 93
27
 72
1
 10
35.5863208471
 20
47.7737848354
 11
35.5863208471
 21
54.6960004863
 72
1
 10
35.5863208471
 20
54.6960004863
 11
37.9356791535
 21
54.6960004863
 72
1
 10
37.9356791535
 20
54.6960004863
 11
37.9356791535
 21
47.7737848354
 72
1
 10
37.9356791535
 20
47.7737848354
 11
37.9256296104
 21
47.620454821
 72
1
 10
37.9256296104
 20
47.620454821
 11
37.8956529319
 21
47.4697498068
 72
1
 10
37.8956529319
 20
47.4697498068
 11
37.8462620271
 21
47.3242497932
 72
1
 10
37.8462620271
 20
47.3242497932
 11
37.7783019882
 21
47.1864447802
 72
1
 10
37.7783019882
 20
47.1864447802
 11
37.6929356302
 21
47.0586747682
 72
1
 10
37.6929356302
 20
47.0586747682
 11
37.5916235952
 21
46.9431597573
 72
1
 10
37.5916235952
 20
46.9431597573
 11
37.4760993602
 21
46.8418497478
 72
1
 10
37.4760993602
 20
46.8418497478
 11
37.3483395768
 21
46.7564847398
 72
1
 10
37.3483395768
 20
46.7564847398
 11
37.2105302505
 21
46.6885197334
 72
1
 10
37.2105302505
 20
46.6885197334
 11
37.065029337
 21
46.6391247287
 72
1
 10
37.065029337
 20
46.6391247287
 11
36.9143263972
 21
46.6091547259
 72
1
 10
36.9143263972
 20
46.6091547259
 11
36.7610000003
 21
46.5991003208
 72
1
 10
36.7610000003
 20
46.5991003208
 11
36.6076736033
 21
46.6091547259
 72
1
 10
36.6076736033
 20
46.6091547259
 11
36.4569706635
 21
46.6391247287
 72
1
 10
36.4569706635
 20
46.6391247287
 11
36.31146975
 21
46.6885197334
 72
1
 10
36.31146975
 20
46.6885197334
 11
36.1736604237
 21
46.7564847398
 72
1
 10
36.1736604237
 20
46.7564847398
 11
36.0459006404
 21
46.8418497478
 72
1
 10
36.0459006404
 20
46.8418497478
 11
35.9303764053
 21
46.9431597573
 72
1
 10
35.9303764053
 20
46.9431597573
 11
35.8290643703
 21
47.0586747682
 72
1
 10
35.8290643703
 20
47.0586747682
 11
35.7436980123
 21
47.1864447802
 72
1
 10
35.7436980123
 20
47.1864447802
 11
35.6757379734
 21
47.3242497932
 72
1
 10
35.6757379734
 20
47.3242497932
 11
35.6263470686
 21
47.4697498068
 72
1
 10
35.6263470686
 20
47.4697498068
 11
35.5963703901
 21
47.620454821
 72
1
 10
35.5963703901
 20
47.620454821
 11
35.5863208471
 21
47.7737848354
 97
1
330
27B
 75
0
 76
1
 98
1
 10
0.0
 20
0.0
  0
LWPOLYLINE
  5
27D
100
AcDbEntity
  8
0
100
AcDbPolyline
 62
2
  6
CONTINUOUS
 90
8
 70
0
 10
32.9923313344
 20
46.7639697405
 10
33.1563796967
 20
46.280699695
 10
33.3821041117
 20
45.822974652
 10
28.7480950465
 20
45.2872112029
 10
29.3301683772
 20
45.8802475154
 10
29.8169521117
 20
46.5537035466
 10
32.8927659379
 20
47.2645197875
 10
32.9923313344
 20
46.7639697405
  0
HATCH
  5
27E
100
AcDbEntity
  8
0
100
AcDbHatch
 62
2
  6
CONTINUOUS
 10
0.0
 20
0.0
 30
0.0
210
0.0
220
0.0
230
1.0
  2
SOLID
 70
1
 71
1
 91
1
 92
1
 93
7
 72
1
 10
32.9923313344
 20
46.7639697405
 11
33.1563796967
 21
46.280699695
 72
1
 10
33.1563796967
 20
46.280699695
 11
33.3821041117
 21
45.822974652
 72
1
 10
33.3821041117
 20
45.822974652
 11
28.7480950465
 21
45.2872112029
 72
1
 10
28.7480950465
 20
45.2872112029
 11
29.3301683772
 21
45.8802475154
 72
1
 10
29.3301683772
 20
45.8802475154
 11
29.8169521117
 21
46.5537035466
 72
1
 10
29.8169521117
 20
46.5537035466
 11
32.8927659379
 21
47.2645197875
 72
1
 10
32.8927659379
 20
47.2645197875
 11
32.9923313344
 21
46.7639697405
 97
1
330
27D
 75
0
 76
1
 98
1
 10
0.0
 20
0.0
  0
LWPOLYLINE
  5
27F
100
AcDbEntity
  8
0
100
AcDbPolyline
 62
2
  6
CONTINUOUS
 90
8
 70
0
 10
33.6656423722
 20
45.3986246121
 10
34.00214306
 20
45.014924576
 10
34.3858485548
 20
44.6784145444
 10
27.3523542712
 20
44.3936979293
 10
28.0838381739
 20
44.7879475077
 10
28.7480950465
 20
45.2872112029
 10
33.3821041117
 20
45.822974652
 10
33.6656423722
 20
45.3986246121
  0
HATCH
  5
280
100
AcDbEntity
  8
0
100
AcDbHatch
 62
2
  6
CONTINUOUS
 10
0.0
 20
0.0
 30
0.0
210
0.0
220
0.0
230
1.0
  2
SOLID
 70
1
 71
1
 91
1
 92
1
 93
7
 72
1
 10
33.6656423722
 20
45.3986246121
 11
34.00214306
 21
45.014924576
 72
1
 10
34.00214306
 20
45.014924576
 11
34.3858485548
 21
44.6784145444
 72
1
 10
34.3858485548
 20
44.6784145444
 11
27.3523542712
 21
44.3936979293
 72
1
 10
27.3523542712
 20
44.3936979293
 11
28.0838381739
 21
44.7879475077
 72
1
 10
28.0838381739
 20
44.7879475077
 11
28.7480950465
 21
45.2872112029
 72
1
 10
28.7480950465
 20
45.2872112029
 11
33.3821041117
 21
45.822974652
 72
1
 10
33.3821041117
 20
45.822974652
 11
33.6656423722
 21
45.3986246121
 97
1
330
27F
 75
0
 76
1
 98
1
 10
0.0
 20
0.0
  0
LWPOLYLINE
  5
281
100
AcDbEntity
  8
0
100
AcDbPolyline
 62
2
  6
CONTINUOUS
 90
24
 70
0
 10
34.8101935494
 20
44.3948845177
 10
35.2679173833
 20
44.1691644965
 10
35.7511882747
 20
44.0051094811
 10
36.2517373247
 20
43.9055394717
 10
16.3610861409
 20
43.4004594242
 10
20.0261379092
 20
51.674950975
 10
19.750600337
 20
50.890999142
 10
19.5954682224
 20
50.0746441597
 10
19.5642345443
 20
49.2442672046
 10
19.6576025652
 20
48.4185651744
 10
19.8734699961
 20
47.6161297051
 10
20.2069763321
 20
46.8550285594
 10
20.6506122924
 20
46.1523988099
 10
21.1943889001
 20
45.524060978
 10
21.8260623961
 20
44.9841628167
 10
22.5314099211
 20
44.5448607575
 10
23.2945497596
 20
44.2160461944
 10
24.0982989358
 20
44.0051094811
 10
24.9245601072
 20
43.916839662
 10
25.754729048
 20
43.9531846737
 10
26.5701135443
 20
44.1133394528
 10
27.3523542712
 20
44.3936979293
 10
34.3858485548
 20
44.6784145444
 10
34.8101935494
 20
44.3948845177
  0
HATCH
  5
282
100
AcDbEntity
  8
0
100
AcDbHatch
 62
2
  6
CONTINUOUS
 10
0.0
 20
0.0
 30
0.0
210
0.0
220
0.0
230
1.0
  2
SOLID
 70
1
 71
1
 91
1
 92
1
 93
23
 72
1
 10
34.8101935494
 20
44.3948845177
 11
35.2679173833
 21
44.1691644965
 72
1
 10
35.2679173833
 20
44.1691644965
 11
35.7511882747
 21
44.0051094811
 72
1
 10
35.7511882747
 20
44.0051094811
 11
36.2517373247
 21
43.9055394717
 72
1
 10
36.2517373247
 20
43.9055394717
 11
16.3610861409
 21
43.4004594242
 72
1
 10
16.3610861409
 20
43.4004594242
 11
20.0261379092
 21
51.674950975
 72
1
 10
20.0261379092
 20
51.674950975
 11
19.750600337
 21
50.890999142
 72
1
 10
19.750600337
 20
50.890999142
 11
19.5954682224
 21
50.0746441597
 72
1
 10
19.5954682224
 20
50.0746441597
 11
19.5642345443
 21
49.2442672046
 72
1
 10
19.5642345443
 20
49.2442672046
 11
19.6576025652
 21
48.4185651744
 72
1
 10
19.6576025652
 20
48.4185651744
 11
19.8734699961
 21
47.6161297051
 72
1
 10
19.8734699961
 20
47.6161297051
 11
20.2069763321
 21
46.8550285594
 72
1
 10
20.2069763321
 20
46.8550285594
 11
20.6506122924
 21
46.1523988099
 72
1
 10
20.6506122924
 20
46.1523988099
 11
21.1943889001
 21
45.524060978
 72
1
 10
21.1943889001
 20
45.524060978
 11
21.8260623961
 21
44.9841628167
 72
1
 10
21.8260623961
 20
44.9841628167
 11
22.5314099211
 21
44.5448607575
 72
1
 10
22.5314099211
 20
44.5448607575
 11
23.2945497596
 21
44.2160461944
 72
1
 10
23.2945497596
 20
44.2160461944
 11
24.0982989358
 21
44.0051094811
 72
1
 10
24.0982989358
 20
44.0051094811
 11
24.9245601072
 21
43.916839662
 72
1
 10
24.9245601072
 20
43.916839662
 11
25.754729048
 21
43.9531846737
 72
1
 10
25.754729048
 20
43.9531846737
 11
26.5701135443
 21
44.1133394528
 72
1
 10
26.5701135443
 20
44.1133394528
 11
27.3523542712
 21
44.3936979293
 72
1
 10
27.3523542712
 20
44.3936979293
 11
34.3858485548
 21
44.6784145444
 72
1
 10
34.3858485548
 20
44.6784145444
 11
34.8101935494
 21
44.3948845177
 97
1
330
281
 75
0
 76
1
 98
1
 10
0.0
 20
0.0
  0
LWPOLYLINE
  5
283
100
AcDbEntity
  8
0
100
AcDbPolyline
 62
2
  6
CONTINUOUS
 90
43
 70
0
 10
36.7610000003
 20
43.8721665723
 10
37.2702626758
 20
43.9055394717
 10
37.7708117258
 20
44.0051094811
 10
38.2540826172
 20
44.1691644965
 10
38.7118064511
 20
44.3948845177
 10
39.1361514457
 20
44.6784145444
 10
39.5198569406
 20
45.014924576
 10
39.8563576283
 20
45.3986246121
 10
40.1398958888
 20
45.822974652
 10
45.3528889231
 20
43.4004594242
 10
45.345943091
 20
43.2679344118
 10
45.3251816945
 20
43.1368493994
 10
45.2908322
 20
43.0086443874
 10
45.2432709475
 20
42.8847443757
 10
45.1830190283
 20
42.7664993646
 10
45.1107365748
 20
42.6551993542
 10
45.0272155289
 20
42.5520593445
 10
44.9333709645
 20
42.4582043356
 10
44.8302310623
 20
42.3746843278
 10
44.7189258447
 20
42.302399321
 10
44.600674795
 20
42.2421593153
 10
44.4767734964
 20
42.1945943109
 10
44.3485794374
 20
42.1602443076
 10
44.217497139
 20
42.1394843057
 10
44.0849627663
 20
42.132539305
 10
17.6290122978
 20
42.132539305
 10
17.4964779251
 20
42.1394843057
 10
17.3653956267
 20
42.1602443076
 10
17.2372015677
 20
42.1945943109
 10
17.113300269
 20
42.2421593153
 10
16.9950492193
 20
42.302399321
 10
16.8837440018
 20
42.3746843278
 10
16.7806040996
 20
42.4582043356
 10
16.6867595352
 20
42.5520593445
 10
16.6032384892
 20
42.6551993542
 10
16.5309560358
 20
42.7664993646
 10
16.4707041165
 20
42.8847443757
 10
16.4231428641
 20
43.0086443874
 10
16.3887933695
 20
43.1368493994
 10
16.368031973
 20
43.2679344118
 10
16.3610861409
 20
43.4004594242
 10
36.2517373247
 20
43.9055394717
 10
36.7610000003
 20
43.8721665723
  0
HATCH
  5
284
100
AcDbEntity
  8
0
100
AcDbHatch
 62
2
  6
CONTINUOUS
 10
0.0
 20
0.0
 30
0.0
210
0.0
220
0.0
230
1.0
  2
SOLID
 70
1
 71
1
 91
1
 92
1
 93
42
 72
1
 10
36.7610000003
 20
43.8721665723
 11
37.2702626758
 21
43.9055394717
 72
1
 10
37.2702626758
 20
43.9055394717
 11
37.7708117258
 21
44.0051094811
 72
1
 10
37.7708117258
 20
44.0051094811
 11
38.2540826172
 21
44.1691644965
 72
1
 10
38.2540826172
 20
44.1691644965
 11
38.7118064511
 21
44.3948845177
 72
1
 10
38.7118064511
 20
44.3948845177
 11
39.1361514457
 21
44.6784145444
 72
1
 10
39.1361514457
 20
44.6784145444
 11
39.5198569406
 21
45.014924576
 72
1
 10
39.5198569406
 20
45.014924576
 11
39.8563576283
 21
45.3986246121
 72
1
 10
39.8563576283
 20
45.3986246121
 11
40.1398958888
 21
45.822974652
 72
1
 10
40.1398958888
 20
45.822974652
 11
45.3528889231
 21
43.4004594242
 72
1
 10
45.3528889231
 20
43.4004594242
 11
45.345943091
 21
43.2679344118
 72
1
 10
45.345943091
 20
43.2679344118
 11
45.3251816945
 21
43.1368493994
 72
1
 10
45.3251816945
 20
43.1368493994
 11
45.2908322
 21
43.0086443874
 72
1
 10
45.2908322
 20
43.0086443874
 11
45.2432709475
 21
42.8847443757
 72
1
 10
45.2432709475
 20
42.8847443757
 11
45.1830190283
 21
42.7664993646
 72
1
 10
45.1830190283
 20
42.7664993646
 11
45.1107365748
 21
42.6551993542
 72
1
 10
45.1107365748
 20
42.6551993542
 11
45.0272155289
 21
42.5520593445
 72
1
 10
45.0272155289
 20
42.5520593445
 11
44.9333709645
 21
42.4582043356
 72
1
 10
44.9333709645
 20
42.4582043356
 11
44.8302310623
 21
42.3746843278
 72
1
 10
44.8302310623
 20
42.3746843278
 11
44.7189258447
 21
42.302399321
 72
1
 10
44.7189258447
 20
42.302399321
 11
44.600674795
 21
42.2421593153
 72
1
 10
44.600674795
 20
42.2421593153
 11
44.4767734964
 21
42.1945943109
 72
1
 10
44.4767734964
 20
42.1945943109
 11
44.3485794374
 21
42.1602443076
 72
1
 10
44.3485794374
 20
42.1602443076
 11
44.217497139
 21
42.1394843057
 72
1
 10
44.217497139
 20
42.1394843057
 11
44.0849627663
 21
42.132539305
 72
1
 10
44.0849627663
 20
42.132539305
 11
17.6290122978
 21
42.132539305
 72
1
 10
17.6290122978
 20
42.132539305
 11
17.4964779251
 21
42.1394843057
 72
1
 10
17.4964779251
 20
42.1394843057
 11
17.3653956267
 21
42.1602443076
 72
1
 10
17.3653956267
 20
42.1602443076
 11
17.2372015677
 21
42.1945943109
 72
1
 10
17.2372015677
 20
42.1945943109
 11
17.113300269
 21
42.2421593153
 72
1
 10
17.113300269
 20
42.2421593153
 11
16.9950492193
 21
42.302399321
 72
1
 10
16.9950492193
 20
42.302399321
 11
16.8837440018
 21
42.3746843278
 72
1
 10
16.8837440018
 20
42.3746843278
 11
16.7806040996
 21
42.4582043356
 72
1
 10
16.7806040996
 20
42.4582043356
 11
16.6867595352
 21
42.5520593445
 72
1
 10
16.6867595352
 20
42.5520593445
 11
16.6032384892
 21
42.6551993542
 72
1
 10
16.6032384892
 20
42.6551993542
 11
16.5309560358
 21
42.7664993646
 72
1
 10
16.5309560358
 20
42.7664993646
 11
16.4707041165
 21
42.8847443757
 72
1
 10
16.4707041165
 20
42.8847443757
 11
16.4231428641
 21
43.0086443874
 72
1
 10
16.4231428641
 20
43.0086443874
 11
16.3887933695
 21
43.1368493994
 72
1
 10
16.3887933695
 20
43.1368493994
 11
16.368031973
 21
43.2679344118
 72
1
 10
16.368031973
 20
43.2679344118
 11
16.3610861409
 21
43.4004594242
 72
1
 10
16.3610861409
 20
43.4004594242
 11
36.2517373247
 21
43.9055394717
 72
1
 10
36.2517373247
 20
43.9055394717
 11
36.7610000003
 21
43.8721665723
 97
1
330
283
 75
0
 76
1
 98
1
 10
0.0
 20
0.0
  0
SOLID
  5
285
100
AcDbEntity
  8
0
100
AcDbTrace
 62
2
  6
CONTINUOUS
 10
25.3408515753
 20
54.984343182
 11
24.5102931399
 21
54.9583794481
 12
26.1659444963
 22
54.8857373913
 13
45.3528889232
 23
55.8646055962
  0
ENDBLK
  5
286
100
AcDbEntity
  8
0
  6
BYBLOCK
 62
0
100
AcDbBlockEnd
  0
BLOCK
  5
287
100
AcDbEntity
  8
HATCHING_BL0
100
AcDbBlockBegin
  2
HATCHING_BL0
 70
64
 10
21.8607562416
 20
245.5320611154
  3
HATCHING_BL0
  1

  0
TEXT
  5
288
100
AcDbEntity
  8
HATCHING_BL0
100
AcDbText
 62
7
  6
CONTINUOUS
 10
3.9992197049
 20
246.9865851726
  7
STANDARD
 40
5.0
  1
A
 72
5
 11
8.6460598536
 21
246.9865851726
100
AcDbText
  0
LEADER
  5
289
100
AcDbEntity
  8
HATCHING_BL0
100
AcDbLeader
 62
7
  6
CONTINUOUS
  3
STANDARD
 71
1
 72
0
 73
3
 75
0
 76
2
 10
9.6126026045
 20
236.5775370582
 30
0.0
 10
9.6126026045
 20
254.4865851726
 30
0.0
1001
ACAD
1000
DSTYLE
1002
{
1070
77
1070
0
1002
}
  0
TEXT
  5
28A
100
AcDbEntity
  8
HATCHING_BL0
100
AcDbText
 62
7
  6
CONTINUOUS
 10
35.0754526296
 20
246.9865851726
  7
STANDARD
 40
5.0
  1
A
 72
5
 11
39.7222927783
 21
246.9865851726
100
AcDbText
  0
LEADER
  5
28B
100
AcDbEntity
  8
HATCHING_BL0
100
AcDbLeader
 62
7
  6
CONTINUOUS
  3
STANDARD
 71
1
 72
0
 73
3
 75
0
 76
2
 10
34.1089098787
 20
236.5775370582
 30
0.0
 10
34.1089098787
 20
254.4865851726
 30
0.0
1001
ACAD
1000
DSTYLE
1002
{
1070
77
1070
0
1002
}
  0
LINE
  5
28C
100
AcDbEntity
  8
HATCHING_BL0
100
AcDbLine
 62
7
  6
CENTER
 10
9.6126026045
 20
236.5775370582
 11
34.1089098787
 21
236.5775370582
  0
ENDBLK
  5
28D
100
AcDbEntity
  8
0
  6
BYBLOCK
 62
0
100
AcDbBlockEnd
  0
BLOCK
  5
28E
100
AcDbEntity
  8
93773502000_O_BL1
100
AcDbBlockBegin
  2
93773502000_O_BL1
 70
64
 10
55.0237746781
 20
119.0406139681
  3
93773502000_O_BL1
  1

  0
LINE
  5
28F
100
AcDbEntity
  8
93773502000_O_BL1
100
AcDbLine
 62
7
  6
CONTINUOUS
 10
76.4828962372
 20
131.0775370582
 11
96.4828962372
 21
131.0775370582
  0
LINE
  5
290
100
AcDbEntity
  8
93773502000_O_BL1
100
AcDbLine
 62
9
  6
CONTINUOUS
 10
78.9828962372
 20
135.5775370582
 11
93.9828962372
 21
135.5775370582
  0
LINE
  5
291
100
AcDbEntity
  8
93773502000_O_BL1
100
AcDbLine
 62
9
  6
CONTINUOUS
 10
96.4828962372
 20
138.6775370582
 11
76.4828962372
 21
138.6775370582
  0
LINE
  5
292
100
AcDbEntity
  8
93773502000_O_BL1
100
AcDbLine
 62
7
  6
CENTER
 10
86.4828962372
 20
151.0775370582
 11
77.4828962372
 21
151.0775370582
  0
LINE
  5
293
100
AcDbEntity
  8
93773502000_O_BL1
100
AcDbLine
 62
7
  6
CENTER
 10
86.4828962372
 20
151.0775370582
 11
95.4828962372
 21
151.0775370582
  0
LINE
  5
294
100
AcDbEntity
  8
93773502000_O_BL1
100
AcDbLine
 62
7
  6
CONTINUOUS
 10
76.4828962372
 20
131.0775370582
 11
76.4828962372
 21
138.6775370582
  0
LINE
  5
295
100
AcDbEntity
  8
93773502000_O_BL1
100
AcDbLine
 62
9
  6
CONTINUOUS
 10
78.9828962372
 20
135.5775370582
 11
78.9828962372
 21
139.0775370582
  0
LINE
  5
296
100
AcDbEntity
  8
93773502000_O_BL1
100
AcDbLine
 62
7
  6
CENTER
 10
86.4828962372
 20
151.0775370582
 11
86.4828962372
 21
142.0775370582
  0
LINE
  5
297
100
AcDbEntity
  8
93773502000_O_BL1
100
AcDbLine
 62
7
  6
CENTER
 10
86.4828962372
 20
151.0775370582
 11
86.4828962372
 21
160.0775370582
  0
LINE
  5
298
100
AcDbEntity
  8
93773502000_O_BL1
100
AcDbLine
 62
9
  6
CONTINUOUS
 10
93.9828962372
 20
135.5775370582
 11
93.9828962372
 21
139.0775370582
  0
LINE
  5
299
100
AcDbEntity
  8
93773502000_O_BL1
100
AcDbLine
 62
7
  6
CONTINUOUS
 10
96.4828962372
 20
138.6775370582
 11
96.4828962372
 21
131.0775370582
  0
LINE
  5
29A
100
AcDbEntity
  8
93773502000_O_BL1
100
AcDbLine
 62
7
  6
CONTINUOUS
 10
23.0895667047
 20
131.0775370582
 11
21.5895667047
 21
131.0775370582
  0
LINE
  5
29B
100
AcDbEntity
  8
93773502000_O_BL1
100
AcDbLine
 62
9
  6
CONTINUOUS
 10
23.0895667047
 20
138.6775370582
 11
17.0895667047
 21
138.6775370582
  0
LINE
  5
29C
100
AcDbEntity
  8
93773502000_O_BL1
100
AcDbLine
 62
7
  6
CENTER
 10
26.0895667047
 20
151.0775370582
 11
13.5646531189
 21
151.0775370582
  0
LINE
  5
29D
100
AcDbEntity
  8
93773502000_O_BL1
100
AcDbLine
 62
7
  6
CONTINUOUS
 10
17.0895667047
 20
138.6775370582
 11
17.0895667047
 21
135.5775370582
  0
LINE
  5
29E
100
AcDbEntity
  8
93773502000_O_BL1
100
AcDbLine
 62
9
  6
CONTINUOUS
 10
19.5895667047
 20
131.546408184
 11
19.5895667047
 21
139.0775370582
  0
LINE
  5
29F
100
AcDbEntity
  8
93773502000_O_BL1
100
AcDbLine
 62
7
  6
CONTINUOUS
 10
23.0895667047
 20
139.0775370582
 11
23.0895667047
 21
131.0775370582
  0
LINE
  5
2A0
100
AcDbEntity
  8
93773502000_O_BL1
100
AcDbLine
 62
7
  6
CONTINUOUS
 10
20.0895667047
 20
78.003690878
 11
19.5895667047
 21
78.003690878
  0
LINE
  5
2A1
100
AcDbEntity
  8
93773502000_O_BL1
100
AcDbLine
 62
7
  6
CONTINUOUS
 10
20.8895653167
 20
96.00368949
 11
19.8895667047
 21
95.003690878
  0
LINE
  5
2A2
100
AcDbEntity
  8
93773502000_O_BL1
100
AcDbLine
 62
9
  6
CONTINUOUS
 10
17.0895667047
 20
80.503690878
 11
17.1316409771
 21
80.503690878
  0
LINE
  5
2A3
100
AcDbEntity
  8
93773502000_O_BL1
100
AcDbLine
 62
9
  6
CONTINUOUS
 10
19.5895667047
 20
98.003690878
 11
19.5895667047
 21
97.9569141461
  0
LINE
  5
2A4
100
AcDbEntity
  8
93773502000_O_BL1
100
AcDbLine
 62
9
  6
CONTINUOUS
 10
19.5895667047
 20
78.003690878
 11
19.5895667047
 21
78.0504676099
  0
LINE
  5
2A5
100
AcDbEntity
  8
93773502000_O_BL1
100
AcDbLine
 62
7
  6
CONTINUOUS
 10
23.0895667047
 20
95.003690878
 11
23.0895667047
 21
96.0031620288
  0
LINE
  5
2A6
100
AcDbEntity
  8
93773502000_O_BL1
100
AcDbLine
 62
9
  6
CONTINUOUS
 10
17.0895667047
 20
95.503690878
 11
17.1363434366
 21
95.503690878
  0
LINE
  5
2A7
100
AcDbEntity
  8
93773502000_O_BL1
100
AcDbLine
 62
9
  6
CONTINUOUS
 10
20.801698739
 20
95.9158229123
 11
23.0895667047
 21
95.9158229123
  0
LINE
  5
2A8
100
AcDbEntity
  8
93773502000_O_BL1
100
AcDbLine
 62
7
  6
CONTINUOUS
 10
19.5895667047
 20
98.003690878
 11
20.0895667047
 21
98.003690878
  0
ARC
  5
2A9
100
AcDbEntity
  8
93773502000_O_BL1
100
AcDbCircle
 62
7
  6
CONTINUOUS
 10
76.8828962372
 20
138.6775370582
 40
0.4
100
AcDbArc
 50
89.9999999999
 51
180.0
  0
ARC
  5
2AA
100
AcDbEntity
  8
93773502000_O_BL1
100
AcDbCircle
 62
7
  6
CONTINUOUS
 10
96.0828962372
 20
138.6775370582
 40
0.4
100
AcDbArc
 50
0.0
 51
90.0000000002
  0
ARC
  5
2AB
100
AcDbEntity
  8
93773502000_O_BL1
100
AcDbCircle
 62
7
  6
CONTINUOUS
 10
21.5895667047
 20
135.5775370582
 40
4.5
100
AcDbArc
 50
180.0
 51
270.0
  0
ARC
  5
2AC
100
AcDbEntity
  8
93773502000_O_BL1
100
AcDbCircle
 62
7
  6
CONTINUOUS
 10
17.4895667047
 20
138.6775370582
 40
0.4
100
AcDbArc
 50
90.0
 51
180.0
  0
ARC
  5
2AD
100
AcDbEntity
  8
93773502000_O_BL1
100
AcDbCircle
 62
7
  6
CONTINUOUS
 10
19.5895667047
 20
95.503690878
 40
2.5
100
AcDbArc
 50
90.0
 51
180.0
  0
ARC
  5
2AE
100
AcDbEntity
  8
93773502000_O_BL1
100
AcDbCircle
 62
7
  6
CONTINUOUS
 10
19.5895667047
 20
80.503690878
 40
2.5
100
AcDbArc
 50
180.0
 51
270.0
  0
SPLINE
  5
2AF
100
AcDbEntity
  8
93773502000_O_BL1
100
AcDbSpline
 62
7
  6
CONTINUOUS
 70
0
 71
3
 72
16
 73
12
 74
0
 42
0.0000001
 43
0.0000001
 44
0.0000000001
 40
0.0
 40
0.0
 40
0.0
 40
0.0
 40
0.0357516082
 40
0.0774407379
 40
0.1248224885
 40
0.1772790392
 40
0.2945177028
 40
0.4240219802
 40
0.5618615517
 40
0.7051742519
 40
1.0
 40
1.0
 40
1.0
 40
1.0
 10
76.4828962372
 20
131.546408184
 30
0.0
 10
76.4828962372
 20
131.6033680632
 30
0.0
 10
76.4995805856
 20
131.7266838542
 30
0.0
 10
76.5567134805
 20
131.9175360541
 30
0.0
 10
76.6428081112
 20
132.1262478829
 30
0.0
 10
76.7962469102
 20
132.4363756436
 30
0.0
 10
77.0378878504
 20
132.8478309438
 30
0.0
 10
77.373305146
 20
133.3606706773
 30
0.0
 10
77.7472773248
 20
133.8976058356
 30
0.0
 10
78.2848295736
 20
134.6413550722
 30
0.0
 10
78.7021849531
 20
135.2009233502
 30
0.0
 10
78.9828962372
 20
135.5775370582
 30
0.0
  0
SPLINE
  5
2B0
100
AcDbEntity
  8
93773502000_O_BL1
100
AcDbSpline
 62
7
  6
CONTINUOUS
 70
0
 71
3
 72
16
 73
12
 74
0
 42
0.0000001
 43
0.0000001
 44
0.0000000001
 40
0.0
 40
0.0
 40
0.0
 40
0.0
 40
0.2948320019
 40
0.4381439457
 40
0.5759815735
 40
0.7054828747
 40
0.8227196074
 40
0.8751760274
 40
0.9225583481
 40
0.9642481323
 40
1.0
 40
1.0
 40
1.0
 40
1.0
 10
93.9828962372
 20
135.5775370582
 30
0.0
 10
94.2636134765
 20
135.2009153604
 30
0.0
 10
94.6809742872
 20
134.6413401991
 30
0.0
 10
95.2185295373
 20
133.8975861462
 30
0.0
 10
95.5924962116
 20
133.3606581577
 30
0.0
 10
95.9279066484
 20
132.8478270103
 30
0.0
 10
96.1695439887
 20
132.4363788872
 30
0.0
 10
96.3229815926
 20
132.1262532286
 30
0.0
 10
96.4090780445
 20
131.9175402332
 30
0.0
 10
96.4662112352
 20
131.7266856557
 30
0.0
 10
96.4828962372
 20
131.6033684768
 30
0.0
 10
96.4828962372
 20
131.546408184
 30
0.0
  0
ENDBLK
  5
2B1
100
AcDbEntity
  8
0
  6
BYBLOCK
 62
0
100
AcDbBlockEnd
  0
BLOCK
  5
2B2
100
AcDbEntity
  8
94822901000_BL2
100
AcDbBlockBegin
  2
94822901000_BL2
 70
64
 10
56.7862314709
 20
168.5406139681
  3
94822901000_BL2
  1

  0
LINE
  5
2B3
100
AcDbEntity
  8
94822901000_BL2
100
AcDbLine
 62
7
  6
CONTINUOUS
 10
96.4828962372
 20
139.0775370582
 11
76.4828962372
 21
139.0775370582
  0
LINE
  5
2B4
100
AcDbEntity
  8
94822901000_BL2
100
AcDbLine
 62
7
  6
CONTINUOUS
 10
76.4828962372
 20
259.0775370582
 11
76.4828962372
 21
139.0775370582
  0
LINE
  5
2B5
100
AcDbEntity
  8
94822901000_BL2
100
AcDbLine
 62
9
  6
CONTINUOUS
 10
79.4828962372
 20
259.0775370582
 11
79.4828962372
 21
232.4184925924
  0
LINE
  5
2B6
100
AcDbEntity
  8
94822901000_BL2
100
AcDbLine
 62
9
  6
CONTINUOUS
 10
79.4828962372
 20
165.7365815239
 11
79.4828962372
 21
139.0775370582
  0
LINE
  5
2B7
100
AcDbEntity
  8
94822901000_BL2
100
AcDbLine
 62
9
  6
CONTINUOUS
 10
93.4828962372
 20
259.0775370582
 11
93.4828962372
 21
235.5975774345
  0
LINE
  5
2B8
100
AcDbEntity
  8
94822901000_BL2
100
AcDbLine
 62
9
  6
CONTINUOUS
 10
93.4828962372
 20
162.5574966818
 11
93.4828962372
 21
139.0775370582
  0
LINE
  5
2B9
100
AcDbEntity
  8
94822901000_BL2
100
AcDbLine
 62
7
  6
CONTINUOUS
 10
96.4828962372
 20
259.0775370582
 11
96.4828962372
 21
139.0775370582
  0
LINE
  5
2BA
100
AcDbEntity
  8
94822901000_BL2
100
AcDbLine
 62
7
  6
CONTINUOUS
 10
96.4828962372
 20
259.0775370582
 11
76.4828962372
 21
259.0775370582
  0
LINE
  5
2BB
100
AcDbEntity
  8
94822901000_BL2
100
AcDbLine
 62
7
  6
CONTINUOUS
 10
23.0895667047
 20
139.0775370582
 11
17.0895667047
 21
139.0775370582
  0
LINE
  5
2BC
100
AcDbEntity
  8
94822901000_BL2
100
AcDbLine
 62
9
  6
CONTINUOUS
 10
17.0895667047
 20
181.0775370582
 11
17.2611395799
 21
181.0775370582
  0
LINE
  5
2BD
100
AcDbEntity
  8
94822901000_BL2
100
AcDbLine
 62
7
  6
CONTINUOUS
 10
17.0895667047
 20
259.0775370582
 11
17.0895667047
 21
235.5816102778
  0
LINE
  5
2BE
100
AcDbEntity
  8
94822901000_BL2
100
AcDbLine
 62
7
  6
CONTINUOUS
 10
17.0895667047
 20
162.5734638385
 11
17.0895667047
 21
139.0775370582
  0
LINE
  5
2BF
100
AcDbEntity
  8
94822901000_BL2
100
AcDbLine
 62
7
  6
CONTINUOUS
 10
17.2611395799
 20
217.0775370582
 11
17.2611395799
 21
181.0775370582
  0
LINE
  5
2C0
100
AcDbEntity
  8
94822901000_BL2
100
AcDbLine
 62
9
  6
CONTINUOUS
 10
20.0895667047
 20
259.0775370582
 11
20.0895667047
 21
139.0775370582
  0
LINE
  5
2C1
100
AcDbEntity
  8
94822901000_BL2
100
AcDbLine
 62
7
  6
CONTINUOUS
 10
23.0895667047
 20
259.0775370582
 11
23.0895667047
 21
139.0775370582
  0
LINE
  5
2C2
100
AcDbEntity
  8
94822901000_BL2
100
AcDbLine
 62
9
  6
CONTINUOUS
 10
17.0895667047
 20
217.0775370582
 11
17.2611395799
 21
217.0775370582
  0
LINE
  5
2C3
100
AcDbEntity
  8
94822901000_BL2
100
AcDbLine
 62
7
  6
CONTINUOUS
 10
23.0895667047
 20
259.0775370582
 11
17.0895667047
 21
259.0775370582
  0
LINE
  5
2C4
100
AcDbEntity
  8
94822901000_BL2
100
AcDbLine
 62
7
  6
CONTINUOUS
 10
20.0895667047
 20
78.003690878
 11
23.0895667047
 21
78.003690878
  0
LINE
  5
2C5
100
AcDbEntity
  8
94822901000_BL2
100
AcDbLine
 62
7
  6
CONTINUOUS
 10
17.0895667047
 20
95.003690878
 11
17.0895667047
 21
81.003690878
  0
LINE
  5
2C6
100
AcDbEntity
  8
94822901000_BL2
100
AcDbLine
 62
7
  6
CONTINUOUS
 10
23.0895667047
 20
80.003690878
 11
19.5895667047
 21
80.003690878
  0
LINE
  5
2C7
100
AcDbEntity
  8
94822901000_BL2
100
AcDbLine
 62
7
  6
CONTINUOUS
 10
19.0895667047
 20
80.503690878
 11
19.0895667047
 21
95.503690878
  0
LINE
  5
2C8
100
AcDbEntity
  8
94822901000_BL2
100
AcDbLine
 62
7
  6
CONTINUOUS
 10
23.0895667047
 20
78.003690878
 11
23.0895667047
 21
80.003690878
  0
LINE
  5
2C9
100
AcDbEntity
  8
94822901000_BL2
100
AcDbLine
 62
7
  6
CONTINUOUS
 10
23.0895667047
 20
96.003690878
 11
23.0895667047
 21
98.003690878
  0
LINE
  5
2CA
100
AcDbEntity
  8
94822901000_BL2
100
AcDbLine
 62
7
  6
CONTINUOUS
 10
19.5895667047
 20
96.003690878
 11
23.0895667047
 21
96.003690878
  0
LINE
  5
2CB
100
AcDbEntity
  8
94822901000_BL2
100
AcDbLine
 62
7
  6
CONTINUOUS
 10
23.0895667047
 20
98.003690878
 11
20.0895667047
 21
98.003690878
  0
CIRCLE
  5
2CC
100
AcDbEntity
  8
94822901000_BL2
100
AcDbCircle
 62
7
  6
CONTINUOUS
 10
86.4828962372
 20
151.0775370582
 40
4.15
  0
CIRCLE
  5
2CD
100
AcDbEntity
  8
94822901000_BL2
100
AcDbCircle
 62
7
  6
CONTINUOUS
 10
86.4828962372
 20
151.0775370582
 40
2.6
  0
CIRCLE
  5
2CE
100
AcDbEntity
  8
94822901000_BL2
100
AcDbCircle
 62
7
  6
CONTINUOUS
 10
86.4828962372
 20
247.0775370582
 40
4.15
  0
CIRCLE
  5
2CF
100
AcDbEntity
  8
94822901000_BL2
100
AcDbCircle
 62
7
  6
CONTINUOUS
 10
86.4828962372
 20
247.0775370582
 40
2.6
  0
ARC
  5
2D0
100
AcDbEntity
  8
94822901000_BL2
100
AcDbCircle
 62
7
  6
CONTINUOUS
 10
20.0895667047
 20
81.003690878
 40
3.0
100
AcDbArc
 50
180.0
 51
270.0
  0
ARC
  5
2D1
100
AcDbEntity
  8
94822901000_BL2
100
AcDbCircle
 62
7
  6
CONTINUOUS
 10
20.0895667047
 20
95.003690878
 40
3.0
100
AcDbArc
 50
90.0
 51
180.0
  0
ARC
  5
2D2
100
AcDbEntity
  8
94822901000_BL2
100
AcDbCircle
 62
7
  6
CONTINUOUS
 10
19.5895667047
 20
95.503690878
 40
0.5
100
AcDbArc
 50
90.0
 51
180.0
  0
ARC
  5
2D3
100
AcDbEntity
  8
94822901000_BL2
100
AcDbCircle
 62
7
  6
CONTINUOUS
 10
19.5895667047
 20
80.503690878
 40
0.5
100
AcDbArc
 50
180.0
 51
270.0
  0
SPLINE
  5
2D4
100
AcDbEntity
  8
94822901000_BL2
100
AcDbSpline
 62
7
  6
CONTINUOUS
 70
0
 71
3
 72
12
 73
8
 74
0
 42
0.0000001
 43
0.0000001
 44
0.0000000001
 40
0.0
 40
0.0
 40
0.0
 40
0.0
 40
0.2983600533
 40
0.576587469
 40
0.8162823325
 40
0.9161381338
 40
1.0
 40
1.0
 40
1.0
 40
1.0
 10
17.2611395799
 20
181.0775370582
 30
0.0
 10
17.2611395799
 20
180.9042809823
 30
0.0
 10
17.2453250319
 20
180.5692838506
 30
0.0
 10
17.1861749416
 20
180.0987537792
 30
0.0
 10
17.1281747391
 20
179.7446880581
 30
0.0
 10
17.0968229763
 20
179.5008183433
 30
0.0
 10
17.0895667047
 20
179.3941843845
 30
0.0
 10
17.0895667047
 20
179.3454862506
 30
0.0
  0
SPLINE
  5
2D5
100
AcDbEntity
  8
94822901000_BL2
100
AcDbSpline
 62
7
  6
CONTINUOUS
 70
0
 71
3
 72
12
 73
8
 74
0
 42
0.0000001
 43
0.0000001
 44
0.0000000001
 40
0.0
 40
0.0
 40
0.0
 40
0.0
 40
0.0838604495
 40
0.1837165004
 40
0.4234150238
 40
0.7016475653
 40
1.0
 40
1.0
 40
1.0
 40
1.0
 10
17.0895667047
 20
218.8095878657
 30
0.0
 10
17.0895667047
 20
218.7608905531
 30
0.0
 10
17.0968228535
 20
218.6542572684
 30
0.0
 10
17.1281746308
 20
218.4103860854
 30
0.0
 10
17.1861753696
 20
218.0563151451
 30
0.0
 10
17.2453266675
 20
217.5857844753
 30
0.0
 10
17.2611395799
 20
217.2507887145
 30
0.0
 10
17.2611395799
 20
217.0775370582
 30
0.0
  0
ENDBLK
  5
2D6
100
AcDbEntity
  8
0
  6
BYBLOCK
 62
0
100
AcDbBlockEnd
  0
BLOCK
  5
2D7
100
AcDbEntity
  8
94528901000_M_BL3
100
AcDbBlockBegin
  2
94528901000_M_BL3
 70
64
 10
58.0376286455
 20
168.9775370582
  3
94528901000_M_BL3
  1

  0
LINE
  5
2D8
100
AcDbEntity
  8
94528901000_M_BL3
100
AcDbLine
 62
7
  6
CONTINUOUS
 10
86.6078962372
 20
165.9619926015
 11
88.3578962372
 21
165.9619926015
  0
LINE
  5
2D9
100
AcDbEntity
  8
94528901000_M_BL3
100
AcDbLine
 62
7
  6
CONTINUOUS
 10
88.3578962372
 20
168.9930815148
 11
86.6078962372
 21
168.9930815148
  0
LINE
  5
2DA
100
AcDbEntity
  8
94528901000_M_BL3
100
AcDbLine
 62
7
  6
CONTINUOUS
 10
85.7328962372
 20
167.4775370582
 11
86.6078962372
 21
165.9619926015
  0
LINE
  5
2DB
100
AcDbEntity
  8
94528901000_M_BL3
100
AcDbLine
 62
7
  6
CONTINUOUS
 10
89.2328962372
 20
167.4775370582
 11
88.3578962372
 21
168.9930815148
  0
LINE
  5
2DC
100
AcDbEntity
  8
94528901000_M_BL3
100
AcDbLine
 62
7
  6
CONTINUOUS
 10
86.6078962372
 20
168.9930815148
 11
85.7328962372
 21
167.4775370582
  0
LINE
  5
2DD
100
AcDbEntity
  8
94528901000_M_BL3
100
AcDbLine
 62
7
  6
CONTINUOUS
 10
88.3578962372
 20
165.9619926015
 11
89.2328962372
 21
167.4775370582
  0
CIRCLE
  5
2DE
100
AcDbEntity
  8
94528901000_M_BL3
100
AcDbCircle
 62
7
  6
CONTINUOUS
 10
87.4828962372
 20
168.9775370582
 40
5.5
  0
CIRCLE
  5
2DF
100
AcDbEntity
  8
94528901000_M_BL3
100
AcDbCircle
 62
7
  6
CONTINUOUS
 10
87.4828962372
 20
167.4775370582
 40
1.75
  0
CIRCLE
  5
2E0
100
AcDbEntity
  8
94528901000_M_BL3
100
AcDbCircle
 62
7
  6
CONTINUOUS
 10
87.4828962372
 20
167.4775370582
 40
1.515
  0
CIRCLE
  5
2E1
100
AcDbEntity
  8
94528901000_M_BL3
100
AcDbCircle
 62
7
  6
CONTINUOUS
 10
87.4828962372
 20
171.4775370582
 40
0.75
  0
ARC
  5
2E2
100
AcDbEntity
  8
94528901000_M_BL3
100
AcDbCircle
 62
7
  6
CONTINUOUS
 10
19.7438153936
 20
167.4775370582
 40
4.0
100
AcDbArc
 50
326.8389561101
 51
33.1610438899
  0
ENDBLK
  5
2E3
100
AcDbEntity
  8
0
  6
BYBLOCK
 62
0
100
AcDbBlockEnd
  0
BLOCK
  5
2E4
100
AcDbEntity
  8
95103801000_BL4
100
AcDbBlockBegin
  2
95103801000_BL4
 70
64
 10
55.5362314709
 20
159.7973503008
  3
95103801000_BL4
  1

  0
LINE
  5
2E5
100
AcDbEntity
  8
95103801000_BL4
100
AcDbLine
 62
7
  6
CONTINUOUS
 10
95.9828962372
 20
176.8275370582
 11
95.1828962372
 21
176.8275370582
  0
LINE
  5
2E6
100
AcDbEntity
  8
95103801000_BL4
100
AcDbLine
 62
7
  6
CONTINUOUS
 10
79.7828962372
 20
176.8275370582
 11
78.9828962372
 21
176.8275370582
  0
LINE
  5
2E7
100
AcDbEntity
  8
95103801000_BL4
100
AcDbLine
 62
7
  6
CONTINUOUS
 10
83.7828962372
 20
180.0775370582
 11
91.1828962372
 21
180.0775370582
  0
LINE
  5
2E8
100
AcDbEntity
  8
95103801000_BL4
100
AcDbLine
 62
7
  6
CONTINUOUS
 10
78.9828962372
 20
229.5775370582
 11
78.9828962372
 21
221.3275370582
  0
LINE
  5
2E9
100
AcDbEntity
  8
95103801000_BL4
100
AcDbLine
 62
7
  6
CONTINUOUS
 10
78.9828962372
 20
176.8275370582
 11
78.9828962372
 21
168.5775370582
  0
LINE
  5
2EA
100
AcDbEntity
  8
95103801000_BL4
100
AcDbLine
 62
7
  6
CONTINUOUS
 10
78.9828962372
 20
176.8275370582
 11
78.9828962372
 21
221.3275370582
  0
LINE
  5
2EB
100
AcDbEntity
  8
95103801000_BL4
100
AcDbLine
 62
7
  6
CONTINUOUS
 10
79.7828962372
 20
176.8275370582
 11
79.7828962372
 21
198.9275370582
  0
LINE
  5
2EC
100
AcDbEntity
  8
95103801000_BL4
100
AcDbLine
 62
7
  6
CONTINUOUS
 10
79.7828962372
 20
199.2275370582
 11
79.7828962372
 21
221.3275370582
  0
LINE
  5
2ED
100
AcDbEntity
  8
95103801000_BL4
100
AcDbLine
 62
7
  6
CONTINUOUS
 10
80.5830774509
 20
204.4869348865
 11
80.5830774509
 21
199.2275370582
  0
LINE
  5
2EE
100
AcDbEntity
  8
95103801000_BL4
100
AcDbLine
 62
7
  6
CONTINUOUS
 10
80.5830774509
 20
198.9275370582
 11
80.5830774509
 21
193.6681392298
  0
LINE
  5
2EF
100
AcDbEntity
  8
95103801000_BL4
100
AcDbLine
 62
7
  6
CONTINUOUS
 10
81.7828962372
 20
216.0775370582
 11
81.7828962372
 21
182.0775370582
  0
LINE
  5
2F0
100
AcDbEntity
  8
95103801000_BL4
100
AcDbLine
 62
7
  6
CONTINUOUS
 10
79.7828962372
 20
199.2275370582
 11
79.6328962372
 21
199.0775370582
  0
LINE
  5
2F1
100
AcDbEntity
  8
95103801000_BL4
100
AcDbLine
 62
7
  6
CONTINUOUS
 10
80.7330774509
 20
199.0775370582
 11
80.5830774509
 21
198.9275370582
  0
LINE
  5
2F2
100
AcDbEntity
  8
95103801000_BL4
100
AcDbLine
 62
9
  6
CONTINUOUS
 10
81.7828962372
 20
193.6681392298
 11
80.5830774509
 21
193.6681392298
  0
LINE
  5
2F3
100
AcDbEntity
  8
95103801000_BL4
100
AcDbLine
 62
9
  6
CONTINUOUS
 10
93.1828962372
 20
193.6681392298
 11
94.3827150235
 21
193.6681392298
  0
LINE
  5
2F4
100
AcDbEntity
  8
95103801000_BL4
100
AcDbLine
 62
7
  6
CONTINUOUS
 10
79.7828962372
 20
198.9275370582
 11
79.6328962372
 21
199.0775370582
  0
LINE
  5
2F5
100
AcDbEntity
  8
95103801000_BL4
100
AcDbLine
 62
7
  6
CONTINUOUS
 10
80.5830774509
 20
199.2275370582
 11
80.7330774509
 21
199.0775370582
  0
LINE
  5
2F6
100
AcDbEntity
  8
95103801000_BL4
100
AcDbLine
 62
7
  6
CONTINUOUS
 10
95.1828962372
 20
198.9275370582
 11
94.3827150235
 21
198.9275370582
  0
LINE
  5
2F7
100
AcDbEntity
  8
95103801000_BL4
100
AcDbLine
 62
7
  6
CONTINUOUS
 10
80.5830774509
 20
198.9275370582
 11
79.7828962372
 21
198.9275370582
  0
LINE
  5
2F8
100
AcDbEntity
  8
95103801000_BL4
100
AcDbLine
 62
7
  6
CONTINUOUS
 10
95.3328962372
 20
199.0775370582
 11
94.2327150235
 21
199.0775370582
  0
LINE
  5
2F9
100
AcDbEntity
  8
95103801000_BL4
100
AcDbLine
 62
7
  6
CONTINUOUS
 10
80.7330774509
 20
199.0775370582
 11
79.6328962372
 21
199.0775370582
  0
LINE
  5
2FA
100
AcDbEntity
  8
95103801000_BL4
100
AcDbLine
 62
7
  6
CONTINUOUS
 10
95.1828962372
 20
199.2275370582
 11
94.3827150235
 21
199.2275370582
  0
LINE
  5
2FB
100
AcDbEntity
  8
95103801000_BL4
100
AcDbLine
 62
7
  6
CONTINUOUS
 10
80.5830774509
 20
199.2275370582
 11
79.7828962372
 21
199.2275370582
  0
LINE
  5
2FC
100
AcDbEntity
  8
95103801000_BL4
100
AcDbLine
 62
7
  6
CENTER
 10
87.4828962372
 20
157.0640643927
 11
87.4828962372
 21
241.0910097236
  0
LINE
  5
2FD
100
AcDbEntity
  8
95103801000_BL4
100
AcDbLine
 62
7
  6
CONTINUOUS
 10
93.1828962372
 20
182.0775370582
 11
93.1828962372
 21
216.0775370582
  0
LINE
  5
2FE
100
AcDbEntity
  8
95103801000_BL4
100
AcDbLine
 62
7
  6
CONTINUOUS
 10
94.3827150235
 20
193.6681392298
 11
94.3827150235
 21
198.9275370582
  0
LINE
  5
2FF
100
AcDbEntity
  8
95103801000_BL4
100
AcDbLine
 62
7
  6
CONTINUOUS
 10
94.3827150235
 20
199.2275370582
 11
94.3827150235
 21
204.4869348865
  0
LINE
  5
300
100
AcDbEntity
  8
95103801000_BL4
100
AcDbLine
 62
7
  6
CONTINUOUS
 10
95.1828962372
 20
176.8275370582
 11
95.1828962372
 21
198.9275370582
  0
LINE
  5
301
100
AcDbEntity
  8
95103801000_BL4
100
AcDbLine
 62
7
  6
CONTINUOUS
 10
95.1828962372
 20
199.2275370582
 11
95.1828962372
 21
221.3275370582
  0
LINE
  5
302
100
AcDbEntity
  8
95103801000_BL4
100
AcDbLine
 62
7
  6
CONTINUOUS
 10
95.9828962372
 20
168.5775370582
 11
95.9828962372
 21
176.8275370582
  0
LINE
  5
303
100
AcDbEntity
  8
95103801000_BL4
100
AcDbLine
 62
7
  6
CONTINUOUS
 10
95.9828962372
 20
176.8275370582
 11
95.9828962372
 21
221.3275370582
  0
LINE
  5
304
100
AcDbEntity
  8
95103801000_BL4
100
AcDbLine
 62
7
  6
CONTINUOUS
 10
95.9828962372
 20
221.3275370582
 11
95.9828962372
 21
229.5775370582
  0
LINE
  5
305
100
AcDbEntity
  8
95103801000_BL4
100
AcDbLine
 62
7
  6
CONTINUOUS
 10
94.3827150235
 20
199.2275370582
 11
94.2327150235
 21
199.0775370582
  0
LINE
  5
306
100
AcDbEntity
  8
95103801000_BL4
100
AcDbLine
 62
7
  6
CONTINUOUS
 10
95.1828962372
 20
198.9275370582
 11
95.3328962372
 21
199.0775370582
  0
LINE
  5
307
100
AcDbEntity
  8
95103801000_BL4
100
AcDbLine
 62
9
  6
CONTINUOUS
 10
81.7828962372
 20
204.4869348865
 11
80.5830774509
 21
204.4869348865
  0
LINE
  5
308
100
AcDbEntity
  8
95103801000_BL4
100
AcDbLine
 62
9
  6
CONTINUOUS
 10
93.1828962372
 20
204.4869348865
 11
94.3827150235
 21
204.4869348865
  0
LINE
  5
309
100
AcDbEntity
  8
95103801000_BL4
100
AcDbLine
 62
7
  6
CONTINUOUS
 10
94.2327150235
 20
199.0775370582
 11
94.3827150235
 21
198.9275370582
  0
LINE
  5
30A
100
AcDbEntity
  8
95103801000_BL4
100
AcDbLine
 62
7
  6
CONTINUOUS
 10
95.1828962372
 20
199.2275370582
 11
95.3328962372
 21
199.0775370582
  0
LINE
  5
30B
100
AcDbEntity
  8
95103801000_BL4
100
AcDbLine
 62
7
  6
CONTINUOUS
 10
91.1828962372
 20
218.0775370582
 11
83.7828962372
 21
218.0775370582
  0
LINE
  5
30C
100
AcDbEntity
  8
95103801000_BL4
100
AcDbLine
 62
7
  6
CONTINUOUS
 10
95.9828962372
 20
221.3275370582
 11
95.1828962372
 21
221.3275370582
  0
LINE
  5
30D
100
AcDbEntity
  8
95103801000_BL4
100
AcDbLine
 62
7
  6
CONTINUOUS
 10
79.7828962372
 20
221.3275370582
 11
78.9828962372
 21
221.3275370582
  0
LINE
  5
30E
100
AcDbEntity
  8
95103801000_BL4
100
AcDbLine
 62
7
  6
CONTINUOUS
 10
17.0895667047
 20
160.0775370582
 11
15.0895667047
 21
160.0775370582
  0
LINE
  5
30F
100
AcDbEntity
  8
95103801000_BL4
100
AcDbLine
 62
9
  6
CONTINUOUS
 10
15.0895667047
 20
168.5775370582
 11
17.0895667047
 21
168.5775370582
  0
LINE
  5
310
100
AcDbEntity
  8
95103801000_BL4
100
AcDbLine
 62
7
  6
CONTINUOUS
 10
15.0895667047
 20
176.8275370582
 11
15.8895667047
 21
176.8275370582
  0
LINE
  5
311
100
AcDbEntity
  8
95103801000_BL4
100
AcDbLine
 62
7
  6
CONTINUOUS
 10
15.0895667047
 20
160.0775370582
 11
15.0895667047
 21
198.9275370582
  0
LINE
  5
312
100
AcDbEntity
  8
95103801000_BL4
100
AcDbLine
 62
7
  6
CONTINUOUS
 10
15.0895667047
 20
199.2275370582
 11
15.0895667047
 21
238.0775370582
  0
LINE
  5
313
100
AcDbEntity
  8
95103801000_BL4
100
AcDbLine
 62
7
  6
CONTINUOUS
 10
15.8895667047
 20
176.8275370582
 11
15.8895667047
 21
221.3275370582
  0
LINE
  5
314
100
AcDbEntity
  8
95103801000_BL4
100
AcDbLine
 62
7
  6
CONTINUOUS
 10
17.0895667047
 20
235.5816102778
 11
17.0895667047
 21
162.5734638385
  0
LINE
  5
315
100
AcDbEntity
  8
95103801000_BL4
100
AcDbLine
 62
7
  6
CONTINUOUS
 10
15.0895667047
 20
198.9275370582
 11
15.2395667047
 21
199.0775370582
  0
LINE
  5
316
100
AcDbEntity
  8
95103801000_BL4
100
AcDbLine
 62
7
  6
CONTINUOUS
 10
15.0895667047
 20
199.2275370582
 11
15.2395667047
 21
199.0775370582
  0
LINE
  5
317
100
AcDbEntity
  8
95103801000_BL4
100
AcDbLine
 62
7
  6
CONTINUOUS
 10
15.0895667047
 20
221.3275370582
 11
15.8895667047
 21
221.3275370582
  0
LINE
  5
318
100
AcDbEntity
  8
95103801000_BL4
100
AcDbLine
 62
9
  6
CONTINUOUS
 10
15.0895667047
 20
229.5775370582
 11
17.0895667047
 21
229.5775370582
  0
LINE
  5
319
100
AcDbEntity
  8
95103801000_BL4
100
AcDbLine
 62
7
  6
CONTINUOUS
 10
17.0895667047
 20
238.0775370582
 11
15.0895667047
 21
238.0775370582
  0
LINE
  5
31A
100
AcDbEntity
  8
95103801000_BL4
100
AcDbLine
 62
7
  6
CONTINUOUS
 10
15.0895667047
 20
78.503690878
 11
15.0895667047
 21
95.503690878
  0
LINE
  5
31B
100
AcDbEntity
  8
95103801000_BL4
100
AcDbLine
 62
7
  6
CONTINUOUS
 10
17.0895667047
 20
78.503690878
 11
15.0895667047
 21
78.503690878
  0
LINE
  5
31C
100
AcDbEntity
  8
95103801000_BL4
100
AcDbLine
 62
7
  6
CONTINUOUS
 10
15.0895667047
 20
78.503690878
 11
17.0895667047
 21
78.503690878
  0
LINE
  5
31D
100
AcDbEntity
  8
95103801000_BL4
100
AcDbLine
 62
7
  6
CONTINUOUS
 10
17.0895667047
 20
91.8255162585
 11
17.0895667047
 21
82.1818654975
  0
LINE
  5
31E
100
AcDbEntity
  8
95103801000_BL4
100
AcDbLine
 62
7
  6
CONTINUOUS
 10
17.0895667047
 20
78.503690878
 11
17.0895667047
 21
80.926010778
  0
LINE
  5
31F
100
AcDbEntity
  8
95103801000_BL4
100
AcDbLine
 62
7
  6
CONTINUOUS
 10
17.0895667047
 20
95.147563982
 11
17.0895667047
 21
95.503690878
  0
LINE
  5
320
100
AcDbEntity
  8
95103801000_BL4
100
AcDbLine
 62
7
  6
CONTINUOUS
 10
17.0895667047
 20
82.1818654975
 11
15.0895667047
 21
82.1818654975
  0
LINE
  5
321
100
AcDbEntity
  8
95103801000_BL4
100
AcDbLine
 62
7
  6
CONTINUOUS
 10
17.0895667047
 20
91.8255162585
 11
15.0895667047
 21
91.8255162585
  0
LINE
  5
322
100
AcDbEntity
  8
95103801000_BL4
100
AcDbLine
 62
7
  6
CONTINUOUS
 10
15.0895667047
 20
95.503690878
 11
17.0895667047
 21
95.503690878
  0
ARC
  5
323
100
AcDbEntity
  8
95103801000_BL4
100
AcDbCircle
 62
7
  6
CONTINUOUS
 10
83.7828962372
 20
182.0775370582
 40
2.0
100
AcDbArc
 50
180.0
 51
270.0
  0
ARC
  5
324
100
AcDbEntity
  8
95103801000_BL4
100
AcDbCircle
 62
7
  6
CONTINUOUS
 10
83.7828962372
 20
216.0775370582
 40
2.0
100
AcDbArc
 50
90.0
 51
180.0
  0
ARC
  5
325
100
AcDbEntity
  8
95103801000_BL4
100
AcDbCircle
 62
7
  6
CONTINUOUS
 10
87.4828962372
 20
168.5775370582
 40
8.5
100
AcDbArc
 50
180.0
 51
360.0
  0
CIRCLE
  5
326
100
AcDbEntity
  8
95103801000_BL4
100
AcDbCircle
 62
7
  6
CONTINUOUS
 10
87.4828962372
 20
168.9775370582
 40
5.65
  0
ARC
  5
327
100
AcDbEntity
  8
95103801000_BL4
100
AcDbCircle
 62
7
  6
CONTINUOUS
 10
91.1828962372
 20
182.0775370582
 40
2.0
100
AcDbArc
 50
270.0
 51
360.0
  0
ARC
  5
328
100
AcDbEntity
  8
95103801000_BL4
100
AcDbCircle
 62
7
  6
CONTINUOUS
 10
87.4828962372
 20
229.5775370582
 40
8.5
100
AcDbArc
 50
0.0
 51
180.0
  0
CIRCLE
  5
329
100
AcDbEntity
  8
95103801000_BL4
100
AcDbCircle
 62
7
  6
CONTINUOUS
 10
87.4828962372
 20
229.1775370582
 40
5.65
  0
ARC
  5
32A
100
AcDbEntity
  8
95103801000_BL4
100
AcDbCircle
 62
7
  6
CONTINUOUS
 10
91.1828962372
 20
216.0775370582
 40
2.0
100
AcDbArc
 50
0.0
 51
90.0
  0
ELLIPSE
  5
32B
100
AcDbEntity
  8
95103801000_BL4
100
AcDbEllipse
 62
7
  6
CONTINUOUS
 10
84.825718138
 20
204.4869348865
 30
0.0
 11
-4.2426406871
 21
0.0
 31
0.0
 40
0.7071067812
 41
-0.771020342
 42
0.0
  0
ELLIPSE
  5
32C
100
AcDbEntity
  8
95103801000_BL4
100
AcDbEllipse
 62
7
  6
CONTINUOUS
 10
90.1400743364
 20
204.4869348865
 30
0.0
 11
4.2426406871
 21
0.0
 31
0.0
 40
0.7071067812
 41
0.0
 42
0.771020342
  0
ELLIPSE
  5
32D
100
AcDbEntity
  8
95103801000_BL4
100
AcDbEllipse
 62
7
  6
CONTINUOUS
 10
84.825718138
 20
193.6681392298
 30
0.0
 11
-4.2426406871
 21
0.0
 31
0.0
 40
0.7071067812
 41
-0.0
 42
0.771020342
  0
ELLIPSE
  5
32E
100
AcDbEntity
  8
95103801000_BL4
100
AcDbEllipse
 62
7
  6
CONTINUOUS
 10
90.1400743364
 20
193.6681392298
 30
0.0
 11
4.2426406871
 21
0.0
 31
0.0
 40
0.7071067812
 41
-0.771020342
 42
0.0
  0
ENDBLK
  5
32F
100
AcDbEntity
  8
0
  6
BYBLOCK
 62
0
100
AcDbBlockEnd
  0
BLOCK
  5
330
100
AcDbEntity
  8
94663701000_BL5
100
AcDbBlockBegin
  2
94663701000_BL5
 70
64
 10
53.8287966377
 20
149.0418708687
  3
94663701000_BL5
  1

  0
LINE
  5
331
100
AcDbEntity
  8
94663701000_BL5
100
AcDbLine
 62
9
  6
CONTINUOUS
 10
91.8357459869
 20
180.7356435177
 11
83.1300464875
 21
180.7356435177
  0
LINE
  5
332
100
AcDbEntity
  8
94663701000_BL5
100
AcDbLine
 62
9
  6
CONTINUOUS
 10
81.7828962372
 20
182.7246873084
 11
93.1828962372
 21
182.7246873084
  0
LINE
  5
333
100
AcDbEntity
  8
94663701000_BL5
100
AcDbLine
 62
9
  6
CONTINUOUS
 10
91.8357459869
 20
217.4194305986
 11
92.208658393
 21
217.7923430047
  0
LINE
  5
334
100
AcDbEntity
  8
94663701000_BL5
100
AcDbLine
 62
9
  6
CONTINUOUS
 10
92.208658393
 20
180.3627311116
 11
91.8357459869
 21
180.7356435177
  0
LINE
  5
335
100
AcDbEntity
  8
94663701000_BL5
100
AcDbLine
 62
9
  6
CONTINUOUS
 10
83.1300464875
 20
180.7356435177
 11
83.1300464875
 21
217.4194305986
  0
LINE
  5
336
100
AcDbEntity
  8
94663701000_BL5
100
AcDbLine
 62
7
  6
CONTINUOUS
 10
87.4828962372
 20
200.2322375965
 11
85.4828962372
 21
199.0775370582
  0
LINE
  5
337
100
AcDbEntity
  8
94663701000_BL5
100
AcDbLine
 62
7
  6
CONTINUOUS
 10
87.4828962372
 20
198.6775370582
 11
88.9828962372
 21
198.6775370582
  0
LINE
  5
338
100
AcDbEntity
  8
94663701000_BL5
100
AcDbLine
 62
7
  6
CONTINUOUS
 10
88.9828962372
 20
199.4775370582
 11
87.4828962372
 21
199.4775370582
  0
LINE
  5
339
100
AcDbEntity
  8
94663701000_BL5
100
AcDbLine
 62
7
  6
CONTINUOUS
 10
85.4828962372
 20
199.0775370582
 11
87.4828962372
 21
197.9228365198
  0
LINE
  5
33A
100
AcDbEntity
  8
94663701000_BL5
100
AcDbLine
 62
7
  6
CONTINUOUS
 10
87.4828962372
 20
197.9228365198
 11
87.4828962372
 21
198.6775370582
  0
LINE
  5
33B
100
AcDbEntity
  8
94663701000_BL5
100
AcDbLine
 62
7
  6
CONTINUOUS
 10
87.4828962372
 20
199.4775370582
 11
87.4828962372
 21
200.2322375965
  0
LINE
  5
33C
100
AcDbEntity
  8
94663701000_BL5
100
AcDbLine
 62
7
  6
CONTINUOUS
 10
88.9828962372
 20
198.6775370582
 11
88.9828962372
 21
199.4775370582
  0
LINE
  5
33D
100
AcDbEntity
  8
94663701000_BL5
100
AcDbLine
 62
9
  6
CONTINUOUS
 10
91.8357459869
 20
180.7356435177
 11
91.8357459869
 21
217.4194305986
  0
LINE
  5
33E
100
AcDbEntity
  8
94663701000_BL5
100
AcDbLine
 62
9
  6
CONTINUOUS
 10
83.1300464875
 20
180.7356435177
 11
82.7571340813
 21
180.3627311116
  0
LINE
  5
33F
100
AcDbEntity
  8
94663701000_BL5
100
AcDbLine
 62
9
  6
CONTINUOUS
 10
82.7571340813
 20
217.7923430047
 11
83.1300464875
 21
217.4194305986
  0
LINE
  5
340
100
AcDbEntity
  8
94663701000_BL5
100
AcDbLine
 62
9
  6
CONTINUOUS
 10
81.7828962372
 20
215.4303868079
 11
93.1828962372
 21
215.4303868079
  0
LINE
  5
341
100
AcDbEntity
  8
94663701000_BL5
100
AcDbLine
 62
9
  6
CONTINUOUS
 10
83.1300464875
 20
217.4194305986
 11
91.8357459869
 21
217.4194305986
  0
LINE
  5
342
100
AcDbEntity
  8
94663701000_BL5
100
AcDbLine
 62
7
  6
CONTINUOUS
 10
25.0895667047
 20
179.0775370582
 11
31.4031520945
 21
179.7411216223
  0
LINE
  5
343
100
AcDbEntity
  8
94663701000_BL5
100
AcDbLine
 62
7
  6
CONTINUOUS
 10
25.0895667047
 20
179.0775370582
 11
23.1895667047
 21
179.0775370582
  0
LINE
  5
344
100
AcDbEntity
  8
94663701000_BL5
100
AcDbLine
 62
9
  6
CONTINUOUS
 10
25.0899926614
 20
182.0611475141
 11
31.4031520945
 21
182.7246873084
  0
LINE
  5
345
100
AcDbEntity
  8
94663701000_BL5
100
AcDbLine
 62
9
  6
CONTINUOUS
 10
25.0895667047
 20
182.0775370582
 11
23.1895667047
 21
182.0775370582
  0
LINE
  5
346
100
AcDbEntity
  8
94663701000_BL5
100
AcDbLine
 62
9
  6
CONTINUOUS
 10
34.0895667047
 20
182.7246873084
 11
31.4031520945
 21
182.7246873119
  0
LINE
  5
347
100
AcDbEntity
  8
94663701000_BL5
100
AcDbLine
 62
9
  6
CONTINUOUS
 10
23.1895667047
 20
179.0775370582
 11
23.1895667047
 21
182.0775370582
  0
LINE
  5
348
100
AcDbEntity
  8
94663701000_BL5
100
AcDbLine
 62
9
  6
CONTINUOUS
 10
23.1895667047
 20
216.0775370582
 11
23.1895667047
 21
219.0775370582
  0
LINE
  5
349
100
AcDbEntity
  8
94663701000_BL5
100
AcDbLine
 62
7
  6
CONTINUOUS
 10
25.0895667047
 20
182.0775370582
 11
25.0895667047
 21
216.0775370582
  0
LINE
  5
34A
100
AcDbEntity
  8
94663701000_BL5
100
AcDbLine
 62
7
  6
CONTINUOUS
 10
34.0895667047
 20
197.9228365198
 11
34.2895667047
 21
197.9228365198
  0
LINE
  5
34B
100
AcDbEntity
  8
94663701000_BL5
100
AcDbLine
 62
7
  6
CONTINUOUS
 10
34.0895667047
 20
198.6775370582
 11
34.2895667047
 21
198.6775370582
  0
LINE
  5
34C
100
AcDbEntity
  8
94663701000_BL5
100
AcDbLine
 62
7
  6
CONTINUOUS
 10
34.0895667047
 20
199.4775370582
 11
34.2895667047
 21
199.4775370582
  0
LINE
  5
34D
100
AcDbEntity
  8
94663701000_BL5
100
AcDbLine
 62
7
  6
CONTINUOUS
 10
34.0895667047
 20
200.2322375965
 11
34.2895667047
 21
200.2322375965
  0
LINE
  5
34E
100
AcDbEntity
  8
94663701000_BL5
100
AcDbLine
 62
9
  6
CONTINUOUS
 10
31.4031520945
 20
215.4303868079
 11
31.4031520945
 21
182.7246873084
  0
LINE
  5
34F
100
AcDbEntity
  8
94663701000_BL5
100
AcDbLine
 62
7
  6
CONTINUOUS
 10
34.0895667047
 20
215.4303868079
 11
34.0895667047
 21
182.7246873084
  0
LINE
  5
350
100
AcDbEntity
  8
94663701000_BL5
100
AcDbLine
 62
7
  6
CONTINUOUS
 10
34.2895667047
 20
200.2322375965
 11
34.2895667047
 21
197.9228365198
  0
LINE
  5
351
100
AcDbEntity
  8
94663701000_BL5
100
AcDbLine
 62
9
  6
CONTINUOUS
 10
34.0895667047
 20
215.4303868079
 11
31.4031520945
 21
215.4303868079
  0
LINE
  5
352
100
AcDbEntity
  8
94663701000_BL5
100
AcDbLine
 62
9
  6
CONTINUOUS
 10
23.1895667047
 20
216.0775370582
 11
25.0895667047
 21
216.0775370582
  0
LINE
  5
353
100
AcDbEntity
  8
94663701000_BL5
100
AcDbLine
 62
9
  6
CONTINUOUS
 10
31.4031520945
 20
215.4303868079
 11
25.0899926614
 21
216.0939266022
  0
LINE
  5
354
100
AcDbEntity
  8
94663701000_BL5
100
AcDbLine
 62
7
  6
CONTINUOUS
 10
23.1895667047
 20
219.0775370582
 11
25.0895667047
 21
219.0775370582
  0
LINE
  5
355
100
AcDbEntity
  8
94663701000_BL5
100
AcDbLine
 62
7
  6
CONTINUOUS
 10
31.4031520945
 20
218.413952494
 11
25.0899926614
 21
219.0774922883
  0
LINE
  5
356
100
AcDbEntity
  8
94663701000_BL5
100
AcDbLine
 62
7
  6
CONTINUOUS
 10
31.4031520945
 20
79.6672754422
 11
25.0899926614
 21
79.0037356479
  0
LINE
  5
357
100
AcDbEntity
  8
94663701000_BL5
100
AcDbLine
 62
7
  6
CONTINUOUS
 10
23.0895667047
 20
79.003690878
 11
25.0895667047
 21
79.003690878
  0
LINE
  5
358
100
AcDbEntity
  8
94663701000_BL5
100
AcDbLine
 62
9
  6
CONTINUOUS
 10
31.4031520945
 20
82.6508411283
 11
25.0899926614
 21
81.987301334
  0
LINE
  5
359
100
AcDbEntity
  8
94663701000_BL5
100
AcDbLine
 62
9
  6
CONTINUOUS
 10
21.1895667047
 20
82.003690878
 11
25.0895667047
 21
82.003690878
  0
LINE
  5
35A
100
AcDbEntity
  8
94663701000_BL5
100
AcDbLine
 62
9
  6
CONTINUOUS
 10
34.0895667047
 20
82.6508411283
 11
31.4031520945
 21
82.6508411336
  0
LINE
  5
35B
100
AcDbEntity
  8
94663701000_BL5
100
AcDbLine
 62
7
  6
CONTINUOUS
 10
21.1895667047
 20
80.003690878
 11
21.1895667047
 21
95.003690878
  0
LINE
  5
35C
100
AcDbEntity
  8
94663701000_BL5
100
AcDbLine
 62
7
  6
CONTINUOUS
 10
34.0895667047
 20
85.503690878
 11
34.2895667047
 21
85.503690878
  0
LINE
  5
35D
100
AcDbEntity
  8
94663701000_BL5
100
AcDbLine
 62
9
  6
CONTINUOUS
 10
23.1895667047
 20
79.003690878
 11
23.1895667047
 21
84.9871876276
  0
LINE
  5
35E
100
AcDbEntity
  8
94663701000_BL5
100
AcDbLine
 62
9
  6
CONTINUOUS
 10
23.1895667047
 20
89.0201941283
 11
23.1895667047
 21
95.003690878
  0
LINE
  5
35F
100
AcDbEntity
  8
94663701000_BL5
100
AcDbLine
 62
7
  6
CENTER
 10
35.1665712645
 20
87.003690878
 11
14.4746970382
 21
87.003690878
  0
LINE
  5
360
100
AcDbEntity
  8
94663701000_BL5
100
AcDbLine
 62
7
  6
CONTINUOUS
 10
34.0895667047
 20
87.003690878
 11
34.2895667047
 21
87.003690878
  0
LINE
  5
361
100
AcDbEntity
  8
94663701000_BL5
100
AcDbLine
 62
7
  6
CONTINUOUS
 10
25.0895667047
 20
92.003690878
 11
25.0895667047
 21
82.003690878
  0
LINE
  5
362
100
AcDbEntity
  8
94663701000_BL5
100
AcDbLine
 62
7
  6
CONTINUOUS
 10
34.0895667047
 20
89.003690878
 11
34.2895667047
 21
89.003690878
  0
LINE
  5
363
100
AcDbEntity
  8
94663701000_BL5
100
AcDbLine
 62
9
  6
CONTINUOUS
 10
34.0895667047
 20
91.3565406277
 11
31.4031520945
 21
91.3565406277
  0
LINE
  5
364
100
AcDbEntity
  8
94663701000_BL5
100
AcDbLine
 62
9
  6
CONTINUOUS
 10
25.0895667047
 20
92.003690878
 11
21.1895667047
 21
92.003690878
  0
LINE
  5
365
100
AcDbEntity
  8
94663701000_BL5
100
AcDbLine
 62
9
  6
CONTINUOUS
 10
25.0899926614
 20
92.020080422
 11
31.4031520945
 21
91.3565406277
  0
LINE
  5
366
100
AcDbEntity
  8
94663701000_BL5
100
AcDbLine
 62
9
  6
CONTINUOUS
 10
31.4031520945
 20
91.3565406277
 11
31.4031520945
 21
82.6508411283
  0
LINE
  5
367
100
AcDbEntity
  8
94663701000_BL5
100
AcDbLine
 62
7
  6
CONTINUOUS
 10
25.0895667047
 20
95.003690878
 11
21.1895667047
 21
95.003690878
  0
LINE
  5
368
100
AcDbEntity
  8
94663701000_BL5
100
AcDbLine
 62
7
  6
CONTINUOUS
 10
19.0895667047
 20
95.003690878
 11
21.1895667047
 21
95.003690878
  0
LINE
  5
369
100
AcDbEntity
  8
94663701000_BL5
100
AcDbLine
 62
7
  6
CONTINUOUS
 10
25.0899926614
 20
95.0036461081
 11
31.4031520945
 21
94.3401063138
  0
LINE
  5
36A
100
AcDbEntity
  8
94663701000_BL5
100
AcDbLine
 62
7
  6
CONTINUOUS
 10
34.0895667047
 20
91.3565406277
 11
34.0895667047
 21
82.6508411283
  0
LINE
  5
36B
100
AcDbEntity
  8
94663701000_BL5
100
AcDbLine
 62
7
  6
CONTINUOUS
 10
34.2895667047
 20
89.003690878
 11
34.2895667047
 21
85.503690878
  0
ARC
  5
36C
100
AcDbEntity
  8
94663701000_BL5
100
AcDbCircle
 62
9
  6
CONTINUOUS
 10
83.1534872198
 20
182.7419207883
 40
2.0064142031
100
AcDbArc
 50
236.8826784548
 51
269.330604027
  0
ARC
  5
36D
100
AcDbEntity
  8
94663701000_BL5
100
AcDbCircle
 62
9
  6
CONTINUOUS
 10
83.1534872198
 20
215.413153328
 40
2.0064142031
100
AcDbArc
 50
90.669395973
 51
123.1173215452
  0
ARC
  5
36E
100
AcDbEntity
  8
94663701000_BL5
100
AcDbCircle
 62
9
  6
CONTINUOUS
 10
91.8123052545
 20
182.7419207883
 40
2.0064142031
100
AcDbArc
 50
270.669395973
 51
303.1173215452
  0
ARC
  5
36F
100
AcDbEntity
  8
94663701000_BL5
100
AcDbCircle
 62
9
  6
CONTINUOUS
 10
91.8123052545
 20
215.413153328
 40
2.0064142031
100
AcDbArc
 50
56.8826784548
 51
89.330604027
  0
ARC
  5
370
100
AcDbEntity
  8
94663701000_BL5
100
AcDbCircle
 62
7
  6
CONTINUOUS
 10
31.0895667047
 20
182.7246873084
 40
3.0
100
AcDbArc
 50
276.0
 51
360.0
  0
ARC
  5
371
100
AcDbEntity
  8
94663701000_BL5
100
AcDbCircle
 62
7
  6
CONTINUOUS
 10
31.0895667047
 20
215.4303868079
 40
3.0
100
AcDbArc
 50
0.0
 51
84.0
  0
ARC
  5
372
100
AcDbEntity
  8
94663701000_BL5
100
AcDbCircle
 62
7
  6
CONTINUOUS
 10
23.1895667047
 20
177.0775370582
 40
2.0
100
AcDbArc
 50
90.0
 51
92.8729865908
  0
ARC
  5
373
100
AcDbEntity
  8
94663701000_BL5
100
AcDbCircle
 62
7
  6
CONTINUOUS
 10
23.1895667047
 20
221.0775370582
 40
2.0
100
AcDbArc
 50
267.1270134092
 51
270.0
  0
ARC
  5
374
100
AcDbEntity
  8
94663701000_BL5
100
AcDbCircle
 62
7
  6
CONTINUOUS
 10
31.0895667047
 20
82.6508411283
 40
3.0
100
AcDbArc
 50
276.0
 51
360.0
  0
ARC
  5
375
100
AcDbEntity
  8
94663701000_BL5
100
AcDbCircle
 62
7
  6
CONTINUOUS
 10
31.0895667047
 20
91.3565406277
 40
3.0
100
AcDbArc
 50
0.0
 51
83.9999999996
  0
SPLINE
  5
376
100
AcDbEntity
  8
94663701000_BL5
100
AcDbSpline
 62
7
  6
CONTINUOUS
 70
0
 71
3
 72
16
 73
12
 74
0
 42
0.0000001
 43
0.0000001
 44
0.0000000001
 40
0.0
 40
0.0
 40
0.0
 40
0.0
 40
0.0087660648
 40
0.0235276806
 40
0.0754871407
 40
0.1585867099
 40
0.2722138939
 40
0.4151070097
 40
0.5855433476
 40
0.7813195328
 40
1.0
 40
1.0
 40
1.0
 40
1.0
 10
25.0899926614
 20
179.077581828
 30
0.0
 10
25.0934243936
 20
179.0779425176
 30
0.0
 10
25.1011098562
 20
179.0849542537
 30
0.0
 10
25.1124729018
 20
179.1120986654
 30
0.0
 10
25.1242140365
 20
179.1706425725
 30
0.0
 10
25.1350154321
 20
179.267654966
 30
0.0
 10
25.1437833641
 20
179.401222343
 30
0.0
 10
25.150043834
 20
179.5691316789
 30
0.0
 10
25.1536525569
 20
179.7695288968
 30
0.0
 10
25.1545026014
 20
179.9997616232
 30
0.0
 10
25.1532524114
 20
180.1629066318
 30
0.0
 10
25.1522124498
 20
180.2489807653
 30
0.0
  0
SPLINE
  5
377
100
AcDbEntity
  8
94663701000_BL5
100
AcDbSpline
 62
7
  6
CONTINUOUS
 70
0
 71
3
 72
9
 73
5
 74
0
 42
0.0000001
 43
0.0000001
 44
0.0000000001
 40
0.0
 40
0.0
 40
0.0
 40
0.0
 40
0.4718321934
 40
1.0
 40
1.0
 40
1.0
 40
1.0
 10
25.1522124498
 20
180.2489807653
 30
0.0
 10
25.1487669425
 20
180.5341538614
 30
0.0
 10
25.1330226999
 20
181.1384456026
 30
0.0
 10
25.1065644954
 20
181.742332554
 30
0.0
 10
25.0899926614
 20
182.0611475141
 30
0.0
  0
SPLINE
  5
378
100
AcDbEntity
  8
94663701000_BL5
100
AcDbSpline
 62
9
  6
CONTINUOUS
 70
0
 71
3
 72
20
 73
16
 74
0
 42
0.0000001
 43
0.0000001
 44
0.0000000001
 40
0.0
 40
0.0
 40
0.0
 40
0.0
 40
0.1924116689
 40
0.3772500086
 40
0.5475152904
 40
0.696935901
 40
0.7620721402
 40
0.820010437
 40
0.8702647161
 40
0.9124183336
 40
0.9462023874
 40
0.9715514367
 40
0.9811605406
 40
0.9888895548
 40
1.0
 40
1.0
 40
1.0
 40
1.0
 10
31.4031520945
 20
182.7246873084
 30
0.0
 10
31.423162421
 20
182.5321985989
 30
0.0
 10
31.4586333913
 20
182.1543952321
 30
0.0
 10
31.4987470063
 20
181.6051274238
 30
0.0
 10
31.5238196443
 20
181.0982537062
 30
0.0
 10
31.5320359834
 20
180.7112046316
 30
0.0
 10
31.5294711325
 20
180.4371230682
 30
0.0
 10
31.5235396631
 20
180.2628672113
 30
0.0
 10
31.5136252912
 20
180.1119488843
 30
0.0
 10
31.4999512705
 20
179.9856967173
 30
0.0
 10
31.482530924
 20
179.8852578709
 30
0.0
 10
31.464346541
 20
179.8183255191
 30
0.0
 10
31.4463932755
 20
179.7790348193
 30
0.0
 10
31.4311734615
 20
179.755137361
 30
0.0
 10
31.4142656685
 20
179.7422897059
 30
0.0
 10
31.4031520945
 20
179.7411216223
 30
0.0
  0
LINE
  5
379
100
AcDbEntity
  8
94663701000_BL5
100
AcDbLine
 62
7
  6
CONTINUOUS
 10
23.1895667047
 20
182.0775370582
 11
23.0898549403
 21
181.9553523983
  0
LINE
  5
37A
100
AcDbEntity
  8
94663701000_BL5
100
AcDbLine
 62
7
  6
CONTINUOUS
 10
23.0898537187
 20
216.1997232156
 11
23.1895667047
 21
216.0775370582
  0
SPLINE
  5
37B
100
AcDbEntity
  8
94663701000_BL5
100
AcDbSpline
 62
7
  6
CONTINUOUS
 70
0
 71
3
 72
16
 73
12
 74
0
 42
0.0000001
 43
0.0000001
 44
0.0000000001
 40
0.0
 40
0.0
 40
0.0
 40
0.0
 40
0.0087660648
 40
0.0235276806
 40
0.0754871407
 40
0.1585867099
 40
0.2722138939
 40
0.4151070097
 40
0.5855433476
 40
0.7813195328
 40
1.0
 40
1.0
 40
1.0
 40
1.0
 10
25.0899926614
 20
219.0774922883
 30
0.0
 10
25.0934243936
 20
219.0771315987
 30
0.0
 10
25.1011098562
 20
219.0701198626
 30
0.0
 10
25.1124729018
 20
219.0429754509
 30
0.0
 10
25.1242140365
 20
218.9844315438
 30
0.0
 10
25.1350154321
 20
218.8874191503
 30
0.0
 10
25.1437833641
 20
218.7538517733
 30
0.0
 10
25.150043834
 20
218.5859424374
 30
0.0
 10
25.1536525569
 20
218.3855452195
 30
0.0
 10
25.1545026014
 20
218.1553124932
 30
0.0
 10
25.1532524114
 20
217.9921674845
 30
0.0
 10
25.1522124498
 20
217.906093351
 30
0.0
  0
SPLINE
  5
37C
100
AcDbEntity
  8
94663701000_BL5
100
AcDbSpline
 62
7
  6
CONTINUOUS
 70
0
 71
3
 72
9
 73
5
 74
0
 42
0.0000001
 43
0.0000001
 44
0.0000000001
 40
0.0
 40
0.0
 40
0.0
 40
0.0
 40
0.4718321934
 40
1.0
 40
1.0
 40
1.0
 40
1.0
 10
25.1522124498
 20
217.906093351
 30
0.0
 10
25.1487669425
 20
217.6209202549
 30
0.0
 10
25.1330226999
 20
217.0166285137
 30
0.0
 10
25.1065644954
 20
216.4127415623
 30
0.0
 10
25.0899926614
 20
216.0939266022
 30
0.0
  0
SPLINE
  5
37D
100
AcDbEntity
  8
94663701000_BL5
100
AcDbSpline
 62
9
  6
CONTINUOUS
 70
0
 71
3
 72
20
 73
16
 74
0
 42
0.0000001
 43
0.0000001
 44
0.0000000001
 40
0.0
 40
0.0
 40
0.0
 40
0.0
 40
0.0111104452
 40
0.0188394594
 40
0.0284485633
 40
0.0537976126
 40
0.0875816664
 40
0.1297352839
 40
0.179989563
 40
0.2379278598
 40
0.303064099
 40
0.4524847096
 40
0.6227499914
 40
0.8075883311
 40
1.0
 40
1.0
 40
1.0
 40
1.0
 10
31.4031520945
 20
218.413952494
 30
0.0
 10
31.4142656685
 20
218.4127844104
 30
0.0
 10
31.4311734615
 20
218.3999367553
 30
0.0
 10
31.4463932755
 20
218.376039297
 30
0.0
 10
31.464346541
 20
218.3367485972
 30
0.0
 10
31.482530924
 20
218.2698162454
 30
0.0
 10
31.4999512705
 20
218.169377399
 30
0.0
 10
31.5136252912
 20
218.043125232
 30
0.0
 10
31.5235396631
 20
217.892206905
 30
0.0
 10
31.5294711325
 20
217.7179510481
 30
0.0
 10
31.5320359834
 20
217.4438694847
 30
0.0
 10
31.5238196443
 20
217.0568204101
 30
0.0
 10
31.4987470063
 20
216.5499466925
 30
0.0
 10
31.4586333913
 20
216.0006788842
 30
0.0
 10
31.423162421
 20
215.6228755174
 30
0.0
 10
31.4031520945
 20
215.4303868079
 30
0.0
  0
SPLINE
  5
37E
100
AcDbEntity
  8
94663701000_BL5
100
AcDbSpline
 62
9
  6
CONTINUOUS
 70
0
 71
3
 72
20
 73
16
 74
0
 42
0.0000001
 43
0.0000001
 44
0.0000000001
 40
0.0
 40
0.0
 40
0.0
 40
0.0
 40
0.0111097637
 40
0.0188383341
 40
0.0284471004
 40
0.0537959103
 40
0.087580008
 40
0.1297337055
 40
0.1799880693
 40
0.237926543
 40
0.303063043
 40
0.4524840369
 40
0.6227495251
 40
0.8075880838
 40
1.0
 40
1.0
 40
1.0
 40
1.0
 10
31.4031520945
 20
94.3401063138
 30
0.0
 10
31.4142649736
 20
94.3389383032
 30
0.0
 10
31.4311716591
 20
94.3260907696
 30
0.0
 10
31.446388761
 20
94.3021933564
 30
0.0
 10
31.4643391908
 20
94.2629026082
 30
0.0
 10
31.482522081
 20
94.1959706729
 30
0.0
 10
31.4999430519
 20
94.0955321622
 30
0.0
 10
31.5136174714
 20
93.9692799728
 30
0.0
 10
31.5235320842
 20
93.8183615051
 30
0.0
 10
31.5294658847
 20
93.6441054392
 30
0.0
 10
31.5320387149
 20
93.3700234585
 30
0.0
 10
31.5238285235
 20
92.9829737478
 30
0.0
 10
31.4987551467
 20
92.4760998515
 30
0.0
 10
31.4586418706
 20
91.9268319331
 30
0.0
 10
31.423162423
 20
91.5490293558
 30
0.0
 10
31.4031520945
 20
91.3565406277
 30
0.0
  0
SPLINE
  5
37F
100
AcDbEntity
  8
94663701000_BL5
100
AcDbSpline
 62
7
  6
CONTINUOUS
 70
0
 71
3
 72
9
 73
5
 74
0
 42
0.0000001
 43
0.0000001
 44
0.0000000001
 40
0.0
 40
0.0
 40
0.0
 40
0.0
 40
0.5281678066
 40
1.0
 40
1.0
 40
1.0
 40
1.0
 10
25.0899926614
 20
81.987301334
 30
0.0
 10
25.1065644954
 20
81.6684863738
 30
0.0
 10
25.1330226999
 20
81.0645994225
 30
0.0
 10
25.1487669425
 20
80.4603076812
 30
0.0
 10
25.1522124498
 20
80.1751345852
 30
0.0
  0
SPLINE
  5
380
100
AcDbEntity
  8
94663701000_BL5
100
AcDbSpline
 62
7
  6
CONTINUOUS
 70
0
 71
3
 72
16
 73
12
 74
0
 42
0.0000001
 43
0.0000001
 44
0.0000000001
 40
0.0
 40
0.0
 40
0.0
 40
0.0
 40
0.2186804672
 40
0.4144566524
 40
0.5848929903
 40
0.7277861061
 40
0.8414132901
 40
0.9245128593
 40
0.9764723194
 40
0.9912339352
 40
1.0
 40
1.0
 40
1.0
 40
1.0
 10
25.1522124498
 20
80.1751345852
 30
0.0
 10
25.1532524114
 20
80.0890604516
 30
0.0
 10
25.1545026014
 20
79.925915443
 30
0.0
 10
25.1536525569
 20
79.6956827167
 30
0.0
 10
25.150043834
 20
79.4952854987
 30
0.0
 10
25.1437833641
 20
79.3273761628
 30
0.0
 10
25.1350154321
 20
79.1938087858
 30
0.0
 10
25.1242140365
 20
79.0967963924
 30
0.0
 10
25.1124729018
 20
79.0382524852
 30
0.0
 10
25.1011098562
 20
79.0111080736
 30
0.0
 10
25.0934243936
 20
79.0040963374
 30
0.0
 10
25.0899926614
 20
79.0037356479
 30
0.0
  0
SPLINE
  5
381
100
AcDbEntity
  8
94663701000_BL5
100
AcDbSpline
 62
9
  6
CONTINUOUS
 70
0
 71
3
 72
20
 73
16
 74
0
 42
0.0000001
 43
0.0000001
 44
0.0000000001
 40
0.0
 40
0.0
 40
0.0
 40
0.0
 40
0.1924119162
 40
0.3772504749
 40
0.5475159631
 40
0.696936957
 40
0.762073457
 40
0.8200119307
 40
0.8702662945
 40
0.912419992
 40
0.9462040897
 40
0.9715528996
 40
0.9811616659
 40
0.9888902363
 40
1.0
 40
1.0
 40
1.0
 40
1.0
 10
31.4031520945
 20
82.6508411283
 30
0.0
 10
31.423162423
 20
82.4583524002
 30
0.0
 10
31.4586418706
 20
82.0805498228
 30
0.0
 10
31.4987551467
 20
81.5312819045
 30
0.0
 10
31.5238285235
 20
81.0244080082
 30
0.0
 10
31.5320387149
 20
80.6373582975
 30
0.0
 10
31.5294658847
 20
80.3632763168
 30
0.0
 10
31.5235320842
 20
80.1890202509
 30
0.0
 10
31.5136174714
 20
80.0381017832
 30
0.0
 10
31.4999430519
 20
79.9118495937
 30
0.0
 10
31.482522081
 20
79.811411083
 30
0.0
 10
31.4643391908
 20
79.7444791477
 30
0.0
 10
31.446388761
 20
79.7051883995
 30
0.0
 10
31.4311716591
 20
79.6812909863
 30
0.0
 10
31.4142649736
 20
79.6684434528
 30
0.0
 10
31.4031520945
 20
79.6672754422
 30
0.0
  0
SPLINE
  5
382
100
AcDbEntity
  8
94663701000_BL5
100
AcDbSpline
 62
7
  6
CONTINUOUS
 70
0
 71
3
 72
9
 73
5
 74
0
 42
0.0000001
 43
0.0000001
 44
0.0000000001
 40
0.0
 40
0.0
 40
0.0
 40
0.0
 40
0.5281678066
 40
1.0
 40
1.0
 40
1.0
 40
1.0
 10
25.0899926614
 20
92.020080422
 30
0.0
 10
25.1065644954
 20
92.3388953821
 30
0.0
 10
25.1330226999
 20
92.9427823335
 30
0.0
 10
25.1487669425
 20
93.5470740748
 30
0.0
 10
25.1522124498
 20
93.8322471708
 30
0.0
  0
SPLINE
  5
383
100
AcDbEntity
  8
94663701000_BL5
100
AcDbSpline
 62
7
  6
CONTINUOUS
 70
0
 71
3
 72
16
 73
12
 74
0
 42
0.0000001
 43
0.0000001
 44
0.0000000001
 40
0.0
 40
0.0
 40
0.0
 40
0.0
 40
0.2186804672
 40
0.4144566524
 40
0.5848929903
 40
0.7277861061
 40
0.8414132901
 40
0.9245128593
 40
0.9764723194
 40
0.9912339352
 40
1.0
 40
1.0
 40
1.0
 40
1.0
 10
25.1522124498
 20
93.8322471708
 30
0.0
 10
25.1532524114
 20
93.9183213043
 30
0.0
 10
25.1545026014
 20
94.081466313
 30
0.0
 10
25.1536525569
 20
94.3116990393
 30
0.0
 10
25.150043834
 20
94.5120962572
 30
0.0
 10
25.1437833641
 20
94.6800055932
 30
0.0
 10
25.1350154321
 20
94.8135729702
 30
0.0
 10
25.1242140365
 20
94.9105853636
 30
0.0
 10
25.1124729018
 20
94.9691292708
 30
0.0
 10
25.1011098562
 20
94.9962736824
 30
0.0
 10
25.0934243936
 20
95.0032854185
 30
0.0
 10
25.0899926614
 20
95.0036461081
 30
0.0
  0
ELLIPSE
  5
384
100
AcDbEntity
  8
94663701000_BL5
100
AcDbEllipse
 62
7
  6
CONTINUOUS
 10
53.6326600673
 20
182.0775370582
 30
0.0
 11
28.5430933627
 21
0.0
 31
0.0
 40
0.1051042353
 41
-3.1415926536
 42
-3.1361294451
  0
ELLIPSE
  5
385
100
AcDbEntity
  8
94663701000_BL5
100
AcDbEllipse
 62
7
  6
CONTINUOUS
 10
53.6326600673
 20
216.0775370582
 30
0.0
 11
28.5430933627
 21
0.0
 31
0.0
 40
0.1051042353
 41
3.1361294451
 42
3.1415926536
  0
ELLIPSE
  5
386
100
AcDbEntity
  8
94663701000_BL5
100
AcDbEllipse
 62
7
  6
CONTINUOUS
 10
53.6326600673
 20
82.003690878
 30
0.0
 11
28.5430933627
 21
0.0
 31
0.0
 40
0.1051042353
 41
-3.1415926536
 42
-3.1361294451
  0
ELLIPSE
  5
387
100
AcDbEntity
  8
94663701000_BL5
100
AcDbEllipse
 62
7
  6
CONTINUOUS
 10
53.6326600673
 20
92.003690878
 30
0.0
 11
28.5430933627
 21
0.0
 31
0.0
 40
0.1051042353
 41
3.1361294451
 42
3.1415926536
  0
ENDBLK
  5
388
100
AcDbEntity
  8
0
  6
BYBLOCK
 62
0
100
AcDbBlockEnd
  0
BLOCK
  5
389
100
AcDbEntity
  8
94528901000_M_BL6
100
AcDbBlockBegin
  2
94528901000_M_BL6
 70
64
 10
57.6862314709
 20
159.3406139681
  3
94528901000_M_BL6
  1

  0
LINE
  5
38A
100
AcDbEntity
  8
94528901000_M_BL6
100
AcDbLine
 62
7
  6
CONTINUOUS
 10
86.6078962372
 20
232.1930815148
 11
85.7328962372
 21
230.6775370582
  0
LINE
  5
38B
100
AcDbEntity
  8
94528901000_M_BL6
100
AcDbLine
 62
7
  6
CONTINUOUS
 10
88.3578962372
 20
229.1619926015
 11
89.2328962372
 21
230.6775370582
  0
LINE
  5
38C
100
AcDbEntity
  8
94528901000_M_BL6
100
AcDbLine
 62
7
  6
CONTINUOUS
 10
85.7328962372
 20
230.6775370582
 11
86.6078962372
 21
229.1619926015
  0
LINE
  5
38D
100
AcDbEntity
  8
94528901000_M_BL6
100
AcDbLine
 62
7
  6
CONTINUOUS
 10
89.2328962372
 20
230.6775370582
 11
88.3578962372
 21
232.1930815148
  0
LINE
  5
38E
100
AcDbEntity
  8
94528901000_M_BL6
100
AcDbLine
 62
7
  6
CONTINUOUS
 10
86.6078962372
 20
229.1619926015
 11
88.3578962372
 21
229.1619926015
  0
LINE
  5
38F
100
AcDbEntity
  8
94528901000_M_BL6
100
AcDbLine
 62
7
  6
CONTINUOUS
 10
88.3578962372
 20
232.1930815148
 11
86.6078962372
 21
232.1930815148
  0
CIRCLE
  5
390
100
AcDbEntity
  8
94528901000_M_BL6
100
AcDbCircle
 62
7
  6
CONTINUOUS
 10
87.4828962372
 20
229.1775370582
 40
5.5
  0
CIRCLE
  5
391
100
AcDbEntity
  8
94528901000_M_BL6
100
AcDbCircle
 62
7
  6
CONTINUOUS
 10
87.4828962372
 20
230.6775370582
 40
1.75
  0
CIRCLE
  5
392
100
AcDbEntity
  8
94528901000_M_BL6
100
AcDbCircle
 62
7
  6
CONTINUOUS
 10
87.4828962372
 20
230.6775370582
 40
1.515
  0
CIRCLE
  5
393
100
AcDbEntity
  8
94528901000_M_BL6
100
AcDbCircle
 62
7
  6
CONTINUOUS
 10
87.4828962372
 20
226.6775370582
 40
0.75
  0
ARC
  5
394
100
AcDbEntity
  8
94528901000_M_BL6
100
AcDbCircle
 62
7
  6
CONTINUOUS
 10
19.7438153936
 20
230.6775370582
 40
4.0
100
AcDbArc
 50
326.8389561101
 51
33.1610438899
  0
ARC
  5
395
100
AcDbEntity
  8
94528901000_M_BL6
100
AcDbCircle
 62
7
  6
CONTINUOUS
 10
19.7438153936
 20
87.003690878
 40
4.0
100
AcDbArc
 50
311.4096221093
 51
48.5903778907
  0
ENDBLK
  5
396
100
AcDbEntity
  8
0
  6
BYBLOCK
 62
0
100
AcDbBlockEnd
  0
BLOCK
  5
397
100
AcDbEntity
  8
93773502000_O_BL7
100
AcDbBlockBegin
  2
93773502000_O_BL7
 70
64
 10
55.6942490089
 20
252.5775370582
  3
93773502000_O_BL7
  1

  0
LINE
  5
398
100
AcDbEntity
  8
93773502000_O_BL7
100
AcDbLine
 62
7
  6
CONTINUOUS
 10
76.4828962372
 20
259.4775370582
 11
76.4828962372
 21
267.0775370582
  0
LINE
  5
399
100
AcDbEntity
  8
93773502000_O_BL7
100
AcDbLine
 62
9
  6
CONTINUOUS
 10
78.9828962372
 20
259.0775370582
 11
78.9828962372
 21
262.5775370582
  0
LINE
  5
39A
100
AcDbEntity
  8
93773502000_O_BL7
100
AcDbLine
 62
7
  6
CENTER
 10
86.4828962372
 20
247.0775370582
 11
86.4828962372
 21
238.0775370582
  0
LINE
  5
39B
100
AcDbEntity
  8
93773502000_O_BL7
100
AcDbLine
 62
7
  6
CENTER
 10
86.4828962372
 20
247.0775370582
 11
86.4828962372
 21
256.0775370582
  0
LINE
  5
39C
100
AcDbEntity
  8
93773502000_O_BL7
100
AcDbLine
 62
9
  6
CONTINUOUS
 10
93.9828962372
 20
259.0775370582
 11
93.9828962372
 21
262.5775370582
  0
LINE
  5
39D
100
AcDbEntity
  8
93773502000_O_BL7
100
AcDbLine
 62
7
  6
CONTINUOUS
 10
96.4828962372
 20
259.4775370582
 11
96.4828962372
 21
267.0775370582
  0
LINE
  5
39E
100
AcDbEntity
  8
93773502000_O_BL7
100
AcDbLine
 62
7
  6
CENTER
 10
86.4828962372
 20
247.0775370582
 11
77.4828962372
 21
247.0775370582
  0
LINE
  5
39F
100
AcDbEntity
  8
93773502000_O_BL7
100
AcDbLine
 62
7
  6
CENTER
 10
86.4828962372
 20
247.0775370582
 11
95.4828962372
 21
247.0775370582
  0
LINE
  5
3A0
100
AcDbEntity
  8
93773502000_O_BL7
100
AcDbLine
 62
9
  6
CONTINUOUS
 10
76.4828962372
 20
259.4775370582
 11
96.4828962372
 21
259.4775370582
  0
LINE
  5
3A1
100
AcDbEntity
  8
93773502000_O_BL7
100
AcDbLine
 62
9
  6
CONTINUOUS
 10
93.9828962372
 20
262.5775370582
 11
78.9828962372
 21
262.5775370582
  0
LINE
  5
3A2
100
AcDbEntity
  8
93773502000_O_BL7
100
AcDbLine
 62
7
  6
CONTINUOUS
 10
96.4828962372
 20
267.0775370582
 11
76.4828962372
 21
267.0775370582
  0
LINE
  5
3A3
100
AcDbEntity
  8
93773502000_O_BL7
100
AcDbLine
 62
7
  6
CONTINUOUS
 10
17.0895667047
 20
259.4775370582
 11
17.0895667047
 21
262.5775370582
  0
LINE
  5
3A4
100
AcDbEntity
  8
93773502000_O_BL7
100
AcDbLine
 62
7
  6
CONTINUOUS
 10
17.0895667047
 20
259.4775370582
 11
17.0895667047
 21
262.5775370582
  0
LINE
  5
3A5
100
AcDbEntity
  8
93773502000_O_BL7
100
AcDbLine
 62
9
  6
CONTINUOUS
 10
19.5895667047
 20
259.0775370582
 11
19.5895667047
 21
266.6086659323
  0
LINE
  5
3A6
100
AcDbEntity
  8
93773502000_O_BL7
100
AcDbLine
 62
7
  6
CONTINUOUS
 10
23.0895667047
 20
259.0775370582
 11
23.0895667047
 21
267.0775370582
  0
LINE
  5
3A7
100
AcDbEntity
  8
93773502000_O_BL7
100
AcDbLine
 62
7
  6
CENTER
 10
26.0895667047
 20
247.0775370582
 11
14.9056017806
 21
247.0775370582
  0
LINE
  5
3A8
100
AcDbEntity
  8
93773502000_O_BL7
100
AcDbLine
 62
9
  6
CONTINUOUS
 10
17.0895667047
 20
259.4775370582
 11
23.0895667047
 21
259.4775370582
  0
LINE
  5
3A9
100
AcDbEntity
  8
93773502000_O_BL7
100
AcDbLine
 62
7
  6
CONTINUOUS
 10
21.5895667047
 20
267.0775370582
 11
23.0895667047
 21
267.0775370582
  0
ARC
  5
3AA
100
AcDbEntity
  8
93773502000_O_BL7
100
AcDbCircle
 62
7
  6
CONTINUOUS
 10
76.8828962372
 20
259.4775370582
 40
0.4
100
AcDbArc
 50
180.0
 51
270.0000000002
  0
ARC
  5
3AB
100
AcDbEntity
  8
93773502000_O_BL7
100
AcDbCircle
 62
7
  6
CONTINUOUS
 10
96.0828962372
 20
259.4775370582
 40
0.4
100
AcDbArc
 50
269.9999999999
 51
360.0
  0
ARC
  5
3AC
100
AcDbEntity
  8
93773502000_O_BL7
100
AcDbCircle
 62
7
  6
CONTINUOUS
 10
21.5895667047
 20
262.5775370582
 40
4.5
100
AcDbArc
 50
90.0
 51
180.0
  0
ARC
  5
3AD
100
AcDbEntity
  8
93773502000_O_BL7
100
AcDbCircle
 62
7
  6
CONTINUOUS
 10
17.4895667047
 20
259.4775370582
 40
0.4
100
AcDbArc
 50
180.0
 51
270.0000000002
  0
SPLINE
  5
3AE
100
AcDbEntity
  8
93773502000_O_BL7
100
AcDbSpline
 62
7
  6
CONTINUOUS
 70
0
 71
3
 72
16
 73
12
 74
0
 42
0.0000001
 43
0.0000001
 44
0.0000000001
 40
0.0
 40
0.0
 40
0.0
 40
0.0
 40
0.0357516082
 40
0.0774407379
 40
0.1248224885
 40
0.1772790392
 40
0.2945177028
 40
0.4240219802
 40
0.5618615517
 40
0.7051742519
 40
1.0
 40
1.0
 40
1.0
 40
1.0
 10
96.4828962372
 20
266.6086659323
 30
0.0
 10
96.4828962372
 20
266.5517060531
 30
0.0
 10
96.4662118888
 20
266.4283902621
 30
0.0
 10
96.4090789938
 20
266.2375380622
 30
0.0
 10
96.3229843631
 20
266.0288262334
 30
0.0
 10
96.1695455641
 20
265.7186984727
 30
0.0
 10
95.927904624
 20
265.3072431725
 30
0.0
 10
95.5924873284
 20
264.794403439
 30
0.0
 10
95.2185151495
 20
264.2574682807
 30
0.0
 10
94.6809629008
 20
263.5137190441
 30
0.0
 10
94.2636075212
 20
262.9541507661
 30
0.0
 10
93.9828962372
 20
262.5775370582
 30
0.0
  0
SPLINE
  5
3AF
100
AcDbEntity
  8
93773502000_O_BL7
100
AcDbSpline
 62
7
  6
CONTINUOUS
 70
0
 71
3
 72
16
 73
12
 74
0
 42
0.0000001
 43
0.0000001
 44
0.0000000001
 40
0.0
 40
0.0
 40
0.0
 40
0.0
 40
0.2948320019
 40
0.4381439457
 40
0.5759815735
 40
0.7054828747
 40
0.8227196074
 40
0.8751760274
 40
0.9225583481
 40
0.9642481323
 40
1.0
 40
1.0
 40
1.0
 40
1.0
 10
78.9828962372
 20
262.5775370582
 30
0.0
 10
78.7021789978
 20
262.9541587559
 30
0.0
 10
78.2848181871
 20
263.5137339172
 30
0.0
 10
77.7472629371
 20
264.2574879701
 30
0.0
 10
77.3732962628
 20
264.7944159586
 30
0.0
 10
77.037885826
 20
265.307247106
 30
0.0
 10
76.7962484857
 20
265.7186952292
 30
0.0
 10
76.6428108817
 20
266.0288208877
 30
0.0
 10
76.5567144298
 20
266.2375338831
 30
0.0
 10
76.4995812391
 20
266.4283884606
 30
0.0
 10
76.4828962372
 20
266.5517056395
 30
0.0
 10
76.4828962372
 20
266.6086659323
 30
0.0
  0
ENDBLK
  5
3B0
100
AcDbEntity
  8
0
  6
BYBLOCK
 62
0
100
AcDbBlockEnd
  0
BLOCK
  5
3B1
100
AcDbEntity
  8
91511100000_BL8
100
AcDbBlockBegin
  2
91511100000_BL8
 70
64
 10
21.7895667047
 20
87.003690878
  3
91511100000_BL8
  1

  0
LINE
  5
3B2
100
AcDbEntity
  8
91511100000_BL8
100
AcDbLine
 62
7
  6
CONTINUOUS
 10
22.3895667047
 20
83.003690878
 11
21.1895667047
 21
83.003690878
  0
LINE
  5
3B3
100
AcDbEntity
  8
91511100000_BL8
100
AcDbLine
 62
7
  6
CONTINUOUS
 10
22.3895667047
 20
83.003690878
 11
22.3895667047
 21
91.003690878
  0
LINE
  5
3B4
100
AcDbEntity
  8
91511100000_BL8
100
AcDbLine
 62
7
  6
CONTINUOUS
 10
22.3895667047
 20
91.003690878
 11
21.1895667047
 21
91.003690878
  0
ENDBLK
  5
3B5
100
AcDbEntity
  8
0
  6
BYBLOCK
 62
0
100
AcDbBlockEnd
  0
BLOCK
  5
3B6
100
AcDbEntity
  8
0
100
AcDbBlockBegin
  2
_FILLED
 70
64
 10
0.0
 20
0.0
  3
_FILLED
  1

  0
SOLID
  5
3B7
100
AcDbEntity
  8
0
  6
BYBLOCK
 62
0
100
AcDbTrace
 10
0.0
 20
0.0
 11
-1.0
 21
0.1428571429
 12
-1.0
 22
-0.1428571429
 13
-1.0
 23
-0.1428571429
  0
ENDBLK
  5
3B8
100
AcDbEntity
  8
0
  6
BYBLOCK
 62
0
100
AcDbBlockEnd
  0
BLOCK
  5
3B9
100
AcDbEntity
  8
0
100
AcDbBlockBegin
 62
2
  6
CONTINUOUS
  2
*D0
 70
65
 10
0.0
 20
0.0
  3
*D0
  1

  0
TEXT
  5
3BA
100
AcDbEntity
  8
0
100
AcDbText
 62
5
  6
CONTINUOUS
 10
19.1183771136
 20
277.7025370582
  7
STANDARD
 40
2.5
  1
6
 72
5
 11
21.0607562958
 21
277.7025370582
100
AcDbText
  0
LINE
  5
3BB
100
AcDbEntity
  8
0
100
AcDbLine
 62
2
  6
CONTINUOUS
 10
17.0895667047
 20
259.0775370582
 11
17.0895667047
 21
278.0775370582
  0
LINE
  5
3BC
100
AcDbEntity
  8
0
100
AcDbLine
 62
2
  6
CONTINUOUS
 10
23.0895667047
 20
259.0775370582
 11
23.0895667047
 21
278.0775370582
  0
LINE
  5
3BD
100
AcDbEntity
  8
0
100
AcDbLine
 62
2
  6
CONTINUOUS
 10
17.0895667047
 20
277.0775370582
 11
10.0895667047
 21
277.0775370582
  0
LINE
  5
3BE
100
AcDbEntity
  8
0
100
AcDbLine
 62
2
  6
CONTINUOUS
 10
10.0895667047
 20
277.0775370582
 11
20.0895667047
 21
277.0775370582
  0
LINE
  5
3BF
100
AcDbEntity
  8
0
100
AcDbLine
 62
2
  6
CONTINUOUS
 10
23.0895667047
 20
277.0775370582
 11
30.0895667047
 21
277.0775370582
  0
LINE
  5
3C0
100
AcDbEntity
  8
0
100
AcDbLine
 62
2
  6
CONTINUOUS
 10
30.0895667047
 20
277.0775370582
 11
20.0895667047
 21
277.0775370582
  0
INSERT
  5
3C1
100
AcDbEntity
  8
0
100
AcDbBlockReference
 62
2
  6
CONTINUOUS
  2
_FILLED
 10
17.0895667047
 20
277.0775370582
 41
3.5
 42
3.5
 43
3.5
  0
INSERT
  5
3C2
100
AcDbEntity
  8
0
100
AcDbBlockReference
 62
2
  6
CONTINUOUS
  2
_FILLED
 10
23.0895667047
 20
277.0775370582
 41
3.5
 42
3.5
 43
3.5
 50
180.0
  0
ENDBLK
  5
3C3
100
AcDbEntity
  8
0
  6
BYBLOCK
 62
0
100
AcDbBlockEnd
  0
BLOCK
  5
3C4
100
AcDbEntity
  8
0
100
AcDbBlockBegin
 62
2
  6
CONTINUOUS
  2
*D1
 70
65
 10
0.0
 20
0.0
  3
*D1
  1

  0
TEXT
  5
3C5
100
AcDbEntity
  8
0
100
AcDbText
 62
5
  6
CONTINUOUS
 10
84.540517055
 20
277.7025370582
  7
STANDARD
 40
2.5
  1
20
 72
5
 11
88.4252754193
 21
277.7025370582
100
AcDbText
  0
LINE
  5
3C6
100
AcDbEntity
  8
0
100
AcDbLine
 62
2
  6
CONTINUOUS
 10
76.4828962372
 20
259.0775370582
 11
76.4828962372
 21
278.0775370582
  0
LINE
  5
3C7
100
AcDbEntity
  8
0
100
AcDbLine
 62
2
  6
CONTINUOUS
 10
96.4828962372
 20
259.0775370582
 11
96.4828962372
 21
278.0775370582
  0
LINE
  5
3C8
100
AcDbEntity
  8
0
100
AcDbLine
 62
2
  6
CONTINUOUS
 10
76.4828962372
 20
277.0775370582
 11
86.4828962372
 21
277.0775370582
  0
LINE
  5
3C9
100
AcDbEntity
  8
0
100
AcDbLine
 62
2
  6
CONTINUOUS
 10
96.4828962372
 20
277.0775370582
 11
86.4828962372
 21
277.0775370582
  0
INSERT
  5
3CA
100
AcDbEntity
  8
0
100
AcDbBlockReference
 62
2
  6
CONTINUOUS
  2
_FILLED
 10
76.4828962372
 20
277.0775370582
 41
3.5
 42
3.5
 43
3.5
 50
180.0
  0
INSERT
  5
3CB
100
AcDbEntity
  8
0
100
AcDbBlockReference
 62
2
  6
CONTINUOUS
  2
_FILLED
 10
96.4828962372
 20
277.0775370582
 41
3.5
 42
3.5
 43
3.5
  0
ENDBLK
  5
3CC
100
AcDbEntity
  8
0
  6
BYBLOCK
 62
0
100
AcDbBlockEnd
  0
BLOCK
  5
3CD
100
AcDbEntity
  8
0
100
AcDbBlockBegin
 62
2
  6
CONTINUOUS
  2
*D2
 70
65
 10
0.0
 20
0.0
  3
*D2
  1

  0
TEXT
  5
3CE
100
AcDbEntity
  8
0
100
AcDbText
 62
5
  6
CONTINUOUS
 10
65.8578962372
 20
196.1639682849
  7
STANDARD
 40
2.5
  1
120
 50
90.0
 72
5
 11
65.8578962372
 21
201.9911058314
100
AcDbText
  0
LINE
  5
3CF
100
AcDbEntity
  8
0
100
AcDbLine
 62
2
  6
CONTINUOUS
 10
79.4828962372
 20
259.0775370582
 11
65.4828962372
 21
259.0775370582
  0
LINE
  5
3D0
100
AcDbEntity
  8
0
100
AcDbLine
 62
2
  6
CONTINUOUS
 10
79.4828962372
 20
139.0775370582
 11
65.4828962372
 21
139.0775370582
  0
LINE
  5
3D1
100
AcDbEntity
  8
0
100
AcDbLine
 62
2
  6
CONTINUOUS
 10
66.4828962372
 20
259.0775370582
 11
66.4828962372
 21
199.0775370582
  0
LINE
  5
3D2
100
AcDbEntity
  8
0
100
AcDbLine
 62
2
  6
CONTINUOUS
 10
66.4828962372
 20
139.0775370582
 11
66.4828962372
 21
199.0775370582
  0
INSERT
  5
3D3
100
AcDbEntity
  8
0
100
AcDbBlockReference
 62
2
  6
CONTINUOUS
  2
_FILLED
 10
66.4828962372
 20
259.0775370582
 41
3.5
 42
3.5
 43
3.5
 50
90.0
  0
INSERT
  5
3D4
100
AcDbEntity
  8
0
100
AcDbBlockReference
 62
2
  6
CONTINUOUS
  2
_FILLED
 10
66.4828962372
 20
139.0775370582
 41
3.5
 42
3.5
 43
3.5
 50
270.0
  0
ENDBLK
  5
3D5
100
AcDbEntity
  8
0
  6
BYBLOCK
 62
0
100
AcDbBlockEnd
  0
BLOCK
  5
3D6
100
AcDbEntity
  8
0
100
AcDbBlockBegin
 62
2
  6
CONTINUOUS
  2
*D3
 70
65
 10
0.0
 20
0.0
  3
*D3
  1

  0
TEXT
  5
3D7
100
AcDbEntity
  8
0
100
AcDbText
 62
5
  6
CONTINUOUS
 10
58.8578962372
 20
196.1639682849
  7
STANDARD
 40
2.5
  1
136
 50
90.0
 72
5
 11
58.8578962372
 21
201.9911058314
100
AcDbText
  0
LINE
  5
3D8
100
AcDbEntity
  8
0
100
AcDbLine
 62
2
  6
CONTINUOUS
 10
76.4828962372
 20
131.0775370582
 11
58.4828962372
 21
131.0775370582
  0
LINE
  5
3D9
100
AcDbEntity
  8
0
100
AcDbLine
 62
2
  6
CONTINUOUS
 10
76.4828962372
 20
267.0775370582
 11
58.4828962372
 21
267.0775370582
  0
LINE
  5
3DA
100
AcDbEntity
  8
0
100
AcDbLine
 62
2
  6
CONTINUOUS
 10
59.4828962372
 20
131.0775370582
 11
59.4828962372
 21
199.0775370582
  0
LINE
  5
3DB
100
AcDbEntity
  8
0
100
AcDbLine
 62
2
  6
CONTINUOUS
 10
59.4828962372
 20
267.0775370582
 11
59.4828962372
 21
199.0775370582
  0
INSERT
  5
3DC
100
AcDbEntity
  8
0
100
AcDbBlockReference
 62
2
  6
CONTINUOUS
  2
_FILLED
 10
59.4828962372
 20
131.0775370582
 41
3.5
 42
3.5
 43
3.5
 50
270.0
  0
INSERT
  5
3DD
100
AcDbEntity
  8
0
100
AcDbBlockReference
 62
2
  6
CONTINUOUS
  2
_FILLED
 10
59.4828962372
 20
267.0775370582
 41
3.5
 42
3.5
 43
3.5
 50
90.0
  0
ENDBLK
  5
3DE
100
AcDbEntity
  8
0
  6
BYBLOCK
 62
0
100
AcDbBlockEnd
  0
BLOCK
  5
3DF
100
AcDbEntity
  8
0
100
AcDbBlockBegin
 62
2
  6
CONTINUOUS
  2
*D4
 70
65
 10
0.0
 20
0.0
  3
*D4
  1

  0
TEXT
  5
3E0
100
AcDbEntity
  8
0
100
AcDbText
 62
5
  6
CONTINUOUS
 10
23.6471875225
 20
121.7025370582
  7
STANDARD
 40
2.5
  1
17
 72
5
 11
27.5319458868
 21
121.7025370582
100
AcDbText
  0
LINE
  5
3E1
100
AcDbEntity
  8
0
100
AcDbLine
 62
2
  6
CONTINUOUS
 10
34.0895667047
 20
182.7246873084
 11
34.0895667047
 21
120.0775370582
  0
LINE
  5
3E2
100
AcDbEntity
  8
0
100
AcDbLine
 62
2
  6
CONTINUOUS
 10
17.0895667047
 20
139.0775370582
 11
17.0895667047
 21
120.0775370582
  0
LINE
  5
3E3
100
AcDbEntity
  8
0
100
AcDbLine
 62
2
  6
CONTINUOUS
 10
34.0895667047
 20
121.0775370582
 11
25.5895667047
 21
121.0775370582
  0
LINE
  5
3E4
100
AcDbEntity
  8
0
100
AcDbLine
 62
2
  6
CONTINUOUS
 10
17.0895667047
 20
121.0775370582
 11
25.5895667047
 21
121.0775370582
  0
INSERT
  5
3E5
100
AcDbEntity
  8
0
100
AcDbBlockReference
 62
2
  6
CONTINUOUS
  2
_FILLED
 10
34.0895667047
 20
121.0775370582
 41
3.5
 42
3.5
 43
3.5
  0
INSERT
  5
3E6
100
AcDbEntity
  8
0
100
AcDbBlockReference
 62
2
  6
CONTINUOUS
  2
_FILLED
 10
17.0895667047
 20
121.0775370582
 41
3.5
 42
3.5
 43
3.5
 50
180.0
  0
ENDBLK
  5
3E7
100
AcDbEntity
  8
0
  6
BYBLOCK
 62
0
100
AcDbBlockEnd
  0
BLOCK
  5
3E8
100
AcDbEntity
  8
0
100
AcDbBlockBegin
 62
2
  6
CONTINUOUS
  2
*D5
 70
65
 10
0.0
 20
0.0
  3
*D5
  1

  0
TEXT
  5
3E9
100
AcDbEntity
  8
0
100
AcDbText
 62
5
  6
CONTINUOUS
 10
21.916985321
 20
108.628690878
  7
STANDARD
 40
2.5
  1
2
 72
5
 11
23.8593645032
 21
108.628690878
100
AcDbText
  0
LINE
  5
3EA
100
AcDbEntity
  8
0
100
AcDbLine
 62
2
  6
CONTINUOUS
 10
15.0895667047
 20
95.503690878
 11
15.0895667047
 21
109.003690878
  0
LINE
  5
3EB
100
AcDbEntity
  8
0
100
AcDbLine
 62
2
  6
CONTINUOUS
 10
17.0895667047
 20
95.503690878
 11
17.0895667047
 21
109.003690878
  0
LINE
  5
3EC
100
AcDbEntity
  8
0
100
AcDbLine
 62
2
  6
CONTINUOUS
 10
15.0895667047
 20
108.003690878
 11
8.0895667047
 21
108.003690878
  0
LINE
  5
3ED
100
AcDbEntity
  8
0
100
AcDbLine
 62
2
  6
CONTINUOUS
 10
8.0895667047
 20
108.003690878
 11
16.0895667047
 21
108.003690878
  0
LINE
  5
3EE
100
AcDbEntity
  8
0
100
AcDbLine
 62
2
  6
CONTINUOUS
 10
17.0895667047
 20
108.003690878
 11
23.8593645032
 21
108.003690878
  0
LINE
  5
3EF
100
AcDbEntity
  8
0
100
AcDbLine
 62
2
  6
CONTINUOUS
 10
23.8593645032
 20
108.003690878
 11
16.0895667047
 21
108.003690878
  0
INSERT
  5
3F0
100
AcDbEntity
  8
0
100
AcDbBlockReference
 62
2
  6
CONTINUOUS
  2
_FILLED
 10
15.0895667047
 20
108.003690878
 41
3.5
 42
3.5
 43
3.5
  0
INSERT
  5
3F1
100
AcDbEntity
  8
0
100
AcDbBlockReference
 62
2
  6
CONTINUOUS
  2
_FILLED
 10
17.0895667047
 20
108.003690878
 41
3.5
 42
3.5
 43
3.5
 50
180.0
  0
ENDBLK
  5
3F2
100
AcDbEntity
  8
0
  6
BYBLOCK
 62
0
100
AcDbBlockEnd
  0
BLOCK
  5
3F3
100
AcDbEntity
  8
0
100
AcDbBlockBegin
 62
2
  6
CONTINUOUS
  2
*D6
 70
65
 10
0.0
 20
0.0
  3
*D6
  1

  0
TEXT
  5
3F4
100
AcDbEntity
  8
0
100
AcDbText
 62
5
  6
CONTINUOUS
 10
43.6645667047
 20
102.024898743
  7
STANDARD
 40
2.5
  1
2
 50
90.0
 72
5
 11
43.6645667047
 21
103.9672779252
100
AcDbText
  0
LINE
  5
3F5
100
AcDbEntity
  8
0
100
AcDbLine
 62
2
  6
CONTINUOUS
 10
23.0895667047
 20
96.003690878
 11
45.2895667047
 21
96.003690878
  0
LINE
  5
3F6
100
AcDbEntity
  8
0
100
AcDbLine
 62
2
  6
CONTINUOUS
 10
23.0895667047
 20
98.003690878
 11
45.2895667047
 21
98.003690878
  0
LINE
  5
3F7
100
AcDbEntity
  8
0
100
AcDbLine
 62
2
  6
CONTINUOUS
 10
44.2895667047
 20
96.003690878
 11
44.2895667047
 21
89.003690878
  0
LINE
  5
3F8
100
AcDbEntity
  8
0
100
AcDbLine
 62
2
  6
CONTINUOUS
 10
44.2895667047
 20
89.003690878
 11
44.2895667047
 21
97.003690878
  0
LINE
  5
3F9
100
AcDbEntity
  8
0
100
AcDbLine
 62
2
  6
CONTINUOUS
 10
44.2895667047
 20
98.003690878
 11
44.2895667047
 21
103.9672779252
  0
LINE
  5
3FA
100
AcDbEntity
  8
0
100
AcDbLine
 62
2
  6
CONTINUOUS
 10
44.2895667047
 20
103.9672779252
 11
44.2895667047
 21
97.003690878
  0
INSERT
  5
3FB
100
AcDbEntity
  8
0
100
AcDbBlockReference
 62
2
  6
CONTINUOUS
  2
_FILLED
 10
44.2895667047
 20
96.003690878
 41
3.5
 42
3.5
 43
3.5
 50
90.0
  0
INSERT
  5
3FC
100
AcDbEntity
  8
0
100
AcDbBlockReference
 62
2
  6
CONTINUOUS
  2
_FILLED
 10
44.2895667047
 20
98.003690878
 41
3.5
 42
3.5
 43
3.5
 50
270.0
  0
ENDBLK
  5
3FD
100
AcDbEntity
  8
0
  6
BYBLOCK
 62
0
100
AcDbBlockEnd
  0
BLOCK
  5
3FE
100
AcDbEntity
  8
0
100
AcDbBlockBegin
 62
2
  6
CONTINUOUS
  2
*D7
 70
65
 10
0.0
 20
0.0
  3
*D7
  1

  0
TEXT
  5
3FF
100
AcDbEntity
  8
0
100
AcDbText
 62
5
  6
CONTINUOUS
 10
50.6645667047
 20
85.0613116958
  7
STANDARD
 40
2.5
  1
16
 50
90.0
 72
5
 11
50.6645667047
 21
88.9460700601
100
AcDbText
  0
LINE
  5
400
100
AcDbEntity
  8
0
100
AcDbLine
 62
2
  6
CONTINUOUS
 10
21.1895667047
 20
95.003690878
 11
43.1875529339
 21
95.003690878
  0
LINE
  5
401
100
AcDbEntity
  8
0
100
AcDbLine
 62
2
  6
CONTINUOUS
 10
45.3917477807
 20
95.003690878
 11
52.2895667047
 21
95.003690878
  0
LINE
  5
402
100
AcDbEntity
  8
0
100
AcDbLine
 62
2
  6
CONTINUOUS
 10
21.1895667047
 20
79.003690878
 11
52.2895667047
 21
79.003690878
  0
LINE
  5
403
100
AcDbEntity
  8
0
100
AcDbLine
 62
2
  6
CONTINUOUS
 10
51.2895667047
 20
95.003690878
 11
51.2895667047
 21
87.003690878
  0
LINE
  5
404
100
AcDbEntity
  8
0
100
AcDbLine
 62
2
  6
CONTINUOUS
 10
51.2895667047
 20
79.003690878
 11
51.2895667047
 21
87.003690878
  0
INSERT
  5
405
100
AcDbEntity
  8
0
100
AcDbBlockReference
 62
2
  6
CONTINUOUS
  2
_FILLED
 10
51.2895667047
 20
95.003690878
 41
3.5
 42
3.5
 43
3.5
 50
90.0
  0
INSERT
  5
406
100
AcDbEntity
  8
0
100
AcDbBlockReference
 62
2
  6
CONTINUOUS
  2
_FILLED
 10
51.2895667047
 20
79.003690878
 41
3.5
 42
3.5
 43
3.5
 50
270.0
  0
ENDBLK
  5
407
100
AcDbEntity
  8
0
  6
BYBLOCK
 62
0
100
AcDbBlockEnd
  0
BLOCK
  5
408
100
AcDbEntity
  8
0
100
AcDbBlockBegin
 62
2
  6
CONTINUOUS
  2
*D8
 70
65
 10
0.0
 20
0.0
  3
*D8
  1

  0
TEXT
  5
409
100
AcDbEntity
  8
0
100
AcDbText
 62
5
  6
CONTINUOUS
 10
105.8578962372
 20
197.135157876
  7
STANDARD
 40
2.5
  1
96
 50
90.0
 72
5
 11
105.8578962372
 21
201.0199162403
100
AcDbText
  0
LINE
  5
40A
100
AcDbEntity
  8
0
100
AcDbLine
 62
2
  6
CONTINUOUS
 10
95.4828962372
 20
151.0775370582
 11
107.4828962372
 21
151.0775370582
  0
LINE
  5
40B
100
AcDbEntity
  8
0
100
AcDbLine
 62
2
  6
CONTINUOUS
 10
95.4828962372
 20
247.0775370582
 11
107.4828962372
 21
247.0775370582
  0
LINE
  5
40C
100
AcDbEntity
  8
0
100
AcDbLine
 62
2
  6
CONTINUOUS
 10
106.4828962372
 20
151.0775370582
 11
106.4828962372
 21
199.0775370582
  0
LINE
  5
40D
100
AcDbEntity
  8
0
100
AcDbLine
 62
2
  6
CONTINUOUS
 10
106.4828962372
 20
247.0775370582
 11
106.4828962372
 21
199.0775370582
  0
INSERT
  5
40E
100
AcDbEntity
  8
0
100
AcDbBlockReference
 62
2
  6
CONTINUOUS
  2
_FILLED
 10
106.4828962372
 20
151.0775370582
 41
3.5
 42
3.5
 43
3.5
 50
270.0
  0
INSERT
  5
40F
100
AcDbEntity
  8
0
100
AcDbBlockReference
 62
2
  6
CONTINUOUS
  2
_FILLED
 10
106.4828962372
 20
247.0775370582
 41
3.5
 42
3.5
 43
3.5
 50
90.0
  0
ENDBLK
  5
410
100
AcDbEntity
  8
0
  6
BYBLOCK
 62
0
100
AcDbBlockEnd
  0
BLOCK
  5
411
100
AcDbEntity
  8
0
100
AcDbBlockBegin
 62
2
  6
CONTINUOUS
  2
*D9
 70
65
 10
0.0
 20
0.0
  3
*D9
  1

  0
TEXT
  5
412
100
AcDbEntity
  8
0
100
AcDbText
 62
5
  6
CONTINUOUS
 10
91.0117066461
 20
121.7025370582
  7
STANDARD
 40
2.5
  1
9
 72
5
 11
92.9540858283
 21
121.7025370582
100
AcDbText
  0
LINE
  5
413
100
AcDbEntity
  8
0
100
AcDbLine
 62
2
  6
CONTINUOUS
 10
87.4828962372
 20
157.0640643927
 11
87.4828962372
 21
120.0775370582
  0
LINE
  5
414
100
AcDbEntity
  8
0
100
AcDbLine
 62
2
  6
CONTINUOUS
 10
96.4828962372
 20
139.0775370582
 11
96.4828962372
 21
120.0775370582
  0
LINE
  5
415
100
AcDbEntity
  8
0
100
AcDbLine
 62
2
  6
CONTINUOUS
 10
87.4828962372
 20
121.0775370582
 11
80.4828962372
 21
121.0775370582
  0
LINE
  5
416
100
AcDbEntity
  8
0
100
AcDbLine
 62
2
  6
CONTINUOUS
 10
80.4828962372
 20
121.0775370582
 11
91.9828962372
 21
121.0775370582
  0
LINE
  5
417
100
AcDbEntity
  8
0
100
AcDbLine
 62
2
  6
CONTINUOUS
 10
96.4828962372
 20
121.0775370582
 11
103.4828962372
 21
121.0775370582
  0
LINE
  5
418
100
AcDbEntity
  8
0
100
AcDbLine
 62
2
  6
CONTINUOUS
 10
103.4828962372
 20
121.0775370582
 11
91.9828962372
 21
121.0775370582
  0
INSERT
  5
419
100
AcDbEntity
  8
0
100
AcDbBlockReference
 62
2
  6
CONTINUOUS
  2
_FILLED
 10
87.4828962372
 20
121.0775370582
 41
3.5
 42
3.5
 43
3.5
  0
INSERT
  5
41A
100
AcDbEntity
  8
0
100
AcDbBlockReference
 62
2
  6
CONTINUOUS
  2
_FILLED
 10
96.4828962372
 20
121.0775370582
 41
3.5
 42
3.5
 43
3.5
 50
180.0
  0
ENDBLK
  5
41B
100
AcDbEntity
  8
0
  6
BYBLOCK
 62
0
100
AcDbBlockEnd
  0
ENDSEC
  0
SECTION
  2
ENTITIES
  0
DIMENSION
  5
41C
100
AcDbEntity
  8
0
100
AcDbDimension
 62
2
  6
CONTINUOUS
  2
*D0
 10
23.0895667047
 20
277.0775370582
 11
20.0895667047
 21
277.0775370582
 70
160
 71
2
 42
6.0
  3
DIMSTYLE_1
100
AcDbAlignedDimension
 13
17.0895667047
 23
259.0775370582
 14
23.0895667047
 24
259.0775370582
100
AcDbRotatedDimension
  0
DIMENSION
  5
41D
100
AcDbEntity
  8
0
100
AcDbDimension
 62
2
  6
CONTINUOUS
  2
*D1
 10
96.4828962372
 20
277.0775370582
 11
86.4828962372
 21
277.0775370582
 70
160
 71
2
 42
20.0
  3
DIMSTYLE_2
100
AcDbAlignedDimension
 13
76.4828962372
 23
259.0775370582
 14
96.4828962372
 24
259.0775370582
100
AcDbRotatedDimension
  0
DIMENSION
  5
41E
100
AcDbEntity
  8
0
100
AcDbDimension
 62
2
  6
CONTINUOUS
  2
*D2
 10
66.4828962372
 20
139.0775370582
 11
66.4828962372
 21
199.0775370582
 70
160
 71
2
 42
120.0
  3
DIMSTYLE_3
100
AcDbAlignedDimension
 13
79.4828962372
 23
259.0775370582
 14
79.4828962372
 24
139.0775370582
 50
270.0
100
AcDbRotatedDimension
  0
DIMENSION
  5
41F
100
AcDbEntity
  8
0
100
AcDbDimension
 62
2
  6
CONTINUOUS
  2
*D3
 10
59.4828962372
 20
267.0775370582
 11
59.4828962372
 21
199.0775370582
 70
160
 71
2
 42
136.0
  3
DIMSTYLE_4
100
AcDbAlignedDimension
 13
76.4828962372
 23
131.0775370582
 14
76.4828962372
 24
267.0775370582
 50
90.0
100
AcDbRotatedDimension
  0
DIMENSION
  5
420
100
AcDbEntity
  8
0
100
AcDbDimension
 62
2
  6
CONTINUOUS
  2
*D4
 10
17.0895667047
 20
121.0775370582
 11
25.5895667047
 21
121.0775370582
 70
160
 71
2
 42
17.0
  3
DIMSTYLE_2
100
AcDbAlignedDimension
 13
34.0895667047
 23
182.7246873084
 14
17.0895667047
 24
139.0775370582
 50
180.0
100
AcDbRotatedDimension
  0
DIMENSION
  5
421
100
AcDbEntity
  8
0
100
AcDbDimension
 62
2
  6
CONTINUOUS
  2
*D5
 10
17.0895667047
 20
108.003690878
 11
22.8881749121
 21
108.003690878
 70
160
 71
1
 42
2.0
  3
DIMSTYLE_1
100
AcDbAlignedDimension
 13
15.0895667047
 23
95.503690878
 14
17.0895667047
 24
95.503690878
100
AcDbRotatedDimension
  0
DIMENSION
  5
422
100
AcDbEntity
  8
0
100
AcDbDimension
 62
2
  6
CONTINUOUS
  2
*D6
 10
44.2895667047
 20
98.003690878
 11
44.2895667047
 21
102.9960883341
 70
160
 71
1
 42
2.0
  3
DIMSTYLE_1
100
AcDbAlignedDimension
 13
23.0895667047
 23
96.003690878
 14
23.0895667047
 24
98.003690878
 50
90.0
100
AcDbRotatedDimension
  0
DIMENSION
  5
423
100
AcDbEntity
  8
0
100
AcDbDimension
 62
2
  6
CONTINUOUS
  2
*D7
 10
51.2895667047
 20
79.003690878
 11
51.2895667047
 21
87.003690878
 70
160
 71
2
 42
16.0
  3
DIMSTYLE_2
100
AcDbAlignedDimension
 13
21.1895667047
 23
95.003690878
 14
21.1895667047
 24
79.003690878
 50
270.0
100
AcDbRotatedDimension
  0
DIMENSION
  5
424
100
AcDbEntity
  8
0
100
AcDbDimension
 62
2
  6
CONTINUOUS
  2
*D8
 10
106.4828962372
 20
247.0775370582
 11
106.4828962372
 21
199.0775370582
 70
160
 71
2
 42
96.0
  3
DIMSTYLE_3
100
AcDbAlignedDimension
 13
95.4828962372
 23
151.0775370582
 14
95.4828962372
 24
247.0775370582
 50
90.0
100
AcDbRotatedDimension
  0
DIMENSION
  5
425
100
AcDbEntity
  8
0
100
AcDbDimension
 62
2
  6
CONTINUOUS
  2
*D9
 10
96.4828962372
 20
121.0775370582
 11
91.9828962372
 21
121.0775370582
 70
160
 71
2
 42
9.0
  3
DIMSTYLE_2
100
AcDbAlignedDimension
 13
87.4828962372
 23
157.0640643927
 14
96.4828962372
 24
139.0775370582
100
AcDbRotatedDimension
  0
TEXT
  5
426
100
AcDbEntity
  8
0
100
AcDbText
 62
5
  6
CONTINUOUS
 10
19.9940991722
 20
68.5461488534
  7
STANDARD
 40
5.0
  1
A-A
 72
5
 11
31.6111995439
 21
68.5461488534
100
AcDbText
  0
INSERT
  5
427
100
AcDbEntity
  8
0
100
AcDbBlockReference
 62
2
  6
CONTINUOUS
  2
SYMBOL_0_BL9
 10
31.0000000239
 20
34.7337833308
  0
LINE
  5
428
100
AcDbEntity
  8
S-AXIS
100
AcDbLine
 62
7
  6
CENTER
 10
100.4828962372
 20
199.0775370582
 11
73.4828962372
 21
199.0775370582
  0
LINE
  5
429
100
AcDbEntity
  8
S-AXIS
100
AcDbLine
 62
7
  6
CENTER
 10
37.2895667047
 20
199.0775370582
 11
11.4896573115
 21
199.0775370582
  0
INSERT
  5
42A
100
AcDbEntity
  8
HATCHING_BL0
100
AcDbBlockReference
  2
HATCHING_BL0
 10
21.8607562416
 20
245.5320611154
  0
INSERT
  5
42B
100
AcDbEntity
  8
93773502000_O_BL1
100
AcDbBlockReference
  2
93773502000_O_BL1
 10
55.0237746781
 20
119.0406139681
  0
INSERT
  5
42C
100
AcDbEntity
  8
94822901000_BL2
100
AcDbBlockReference
  2
94822901000_BL2
 10
56.7862314709
 20
168.5406139681
  0
INSERT
  5
42D
100
AcDbEntity
  8
94528901000_M_BL3
100
AcDbBlockReference
  2
94528901000_M_BL3
 10
58.0376286455
 20
168.9775370582
  0
INSERT
  5
42E
100
AcDbEntity
  8
95103801000_BL4
100
AcDbBlockReference
  2
95103801000_BL4
 10
55.5362314709
 20
159.7973503008
  0
INSERT
  5
42F
100
AcDbEntity
  8
94663701000_BL5
100
AcDbBlockReference
  2
94663701000_BL5
 10
53.8287966377
 20
149.0418708687
  0
INSERT
  5
430
100
AcDbEntity
  8
94528901000_M_BL6
100
AcDbBlockReference
  2
94528901000_M_BL6
 10
57.6862314709
 20
159.3406139681
  0
INSERT
  5
431
100
AcDbEntity
  8
93773502000_O_BL7
100
AcDbBlockReference
  2
93773502000_O_BL7
 10
55.6942490089
 20
252.5775370582
  0
INSERT
  5
432
100
AcDbEntity
  8
91511100000_BL8
100
AcDbBlockReference
  2
91511100000_BL8
 10
21.7895667047
 20
87.003690878
  0
ENDSEC
  0
SECTION
  2
OBJECTS
  0
DICTIONARY
  5
C
100
AcDbDictionary
280
0
281
1
  3
ACAD_GROUP
350
D
  3
ACAD_MLINESTYLE
350
17
  3
ACAD_LAYOUT
350
1A
  3
ACAD_PLOTSETTINGS
350
19
  3
ACAD_PLOTSTYLENAME
350
E
  0
DICTIONARY
  5
D
102
{ACAD_REACTORS
330
C
102
}
100
AcDbDictionary
280
0
281
1
  0
ACDBDICTIONARYWDFLT
  5
E
102
{ACAD_REACTORS
330
C
102
}
100
AcDbDictionary
281
1
  3
Normal
350
F
100
AcDbDictionaryWithDefault
340
F
  0
DICTIONARY
  5
17
102
{ACAD_REACTORS
330
C
102
}
100
AcDbDictionary
280
0
281
1
  3
Standard
350
18
  0
DICTIONARY
  5
19
102
{ACAD_REACTORS
330
C
102
}
100
AcDbDictionary
281
1
  0
DICTIONARY
  5
1A
102
{ACAD_REACTORS
330
C
102
}
100
AcDbDictionary
281
1
  3
Model
350
433
  3
Layout1
350
434
  0
ACDBPLACEHOLDER
  5
F
102
{ACAD_REACTORS
330
E
102
}
  0
MLINESTYLE
  5
18
102
{ACAD_REACTORS
330
17
102
}
100
AcDbMlineStyle
  2
STANDARD
 70
0
  3

 62
256
 51
90.0
 52
90.0
 71
2
 49
0.5
 62
256
  6
BYLAYER
 49
-0.5
 62
256
  6
BYLAYER
  0
LAYOUT
  5
433
102
{ACAD_REACTORS
330
1A
102
}
100
AcDbPlotSettings
  1

  2
none_device
  4

  6

 40
0.0
 41
0.0
 42
0.0
 43
0.0
 44
120.0
 45
285.0
 46
0.0
 47
0.0
 48
0.0
 49
0.0
140
0.0
141
0.0
142
1.0
143
1.0
 70
1024
 72
1
 73
0
 74
0
  7

 75
0
147
1.0
148
0.0
149
0.0
100
AcDbLayout
  1
Model
 70
0
 71
0
 10
0.0
 20
0.0
 11
120.0
 21
285.0
 12
0.0
 22
0.0
 32
0.0
 14
0.0
 24
0.0
 34
0.0
 15
0.0
 25
0.0
 35
0.0
146
0.0
 13
0.0
 23
0.0
 33
0.0
 16
1.0
 26
0.0
 36
0.0
 17
0.0
 27
1.0
 37
0.0
 76
0
330
214
345
0
346
0
  0
LAYOUT
  5
434
102
{ACAD_REACTORS
330
1A
102
}
100
AcDbPlotSettings
  1

  2
none_device
  4

  6

 40
0.0
 41
0.0
 42
0.0
 43
0.0
 44
120.0
 45
285.0
 46
0.0
 47
0.0
 48
0.0
 49
0.0
140
0.0
141
0.0
142
1.0
143
1.0
 70
0
 72
1
 73
0
 74
0
  7

 75
0
147
1.0
148
0.0
149
0.0
100
AcDbLayout
  1
Layout1
 70
0
 71
1
 10
0.0
 20
0.0
 11
120.0
 21
285.0
 12
0.0
 22
0.0
 32
0.0
 14
0.0
 24
0.0
 34
0.0
 15
0.0
 25
0.0
 35
0.0
146
0.0
 13
0.0
 23
0.0
 33
0.0
 16
1.0
 26
0.0
 36
0.0
 17
0.0
 27
1.0
 37
0.0
 76
0
330
215
345
0
346
0
  0
ENDSEC
  0
EOF
