  0
SECTION
  2
HEADER
  9
$ACADVER
  1
AC1021
  9
$DWGCODEPAGE
  3
ANSI_1252
  9
$EXTMAX
 10
215.0
 20
1935.0
 30
0.0
  9
$EXTMIN
 10
0.0
 20
0.0
 30
0.0
  9
$LIMMIN
 10
0.0
 20
0.0
  9
$LIMMAX
 10
215.0
 20
1935.0
  9
$VIEWCTR
 10
107.5
 20
967.5
  9
$VIEWSIZE
 40
1935.0
  9
$CLAYER
  8
0
  9
$LTSCALE
 40
126.1333333333
  9
$CELTYPE
  6
BYLAYER
  9
$DIMSCALE
 40
1.0
  9
$DIMASZ
 40
3.5
  9
$DIMEXO
 40
0.0
  9
$DIMDLI
 40
87.1466666667
  9
$DIMEXE
 40
1.0
  9
$DIMCEN
 40
20.64
  9
$DIMLFAC
 40
1.0
  9
$DIMBLK
  1
_FILLED
  9
$DIMTXT
 40
2.5
  9
$DIMTOL
 70
1
  9
$DIMLIM
 70
0
  9
$DIMTFAC
 40
1.0
  9
$DIMTP
 40
0.001
  9
$DIMTM
 40
0.001
  9
$DIMGAP
 40
0.625
  9
$DIMDSEP
 70
46
  9
$PDMODE
 70
3
  9
$PDSIZE
 40
2.0
  9
$HANDSEED
  5
841
  9
$TILEMODE
 70
1
  9
$MEASUREMENT
 70
1
  9
$INSUNITS
 70
4
  0
ENDSEC
  0
SECTION
  2
CLASSES
  0
CLASS
  1
ACDBDICTIONARYWDFLT
  2
AcDbDictionaryWithDefault
  3
AutoCAD 2000
 90
0
 91
1
280
0
281
0
  0
CLASS
  1
ACDBPLACEHOLDER
  2
AcDbPlaceHolder
  3
AutoCAD 2000
 90
0
 91
1
280
0
281
0
  0
CLASS
  1
LAYOUT
  2
AcDbLayout
  3
AutoCAD 2000
 90
0
 91
0
280
0
281
0
  0
ENDSEC
  0
SECTION
  2
TABLES
  0
TABLE
  2
VPORT
  5
8
100
AcDbSymbolTable
 70
2
  0
VPORT
  5
1F4
100
AcDbSymbolTableRecord
100
AcDbViewportTableRecord
  2
*ACTIVE
 70
0
 10
0.0
 20
0.0
 11
1.0
 21
1.0
 12
107.5
 22
967.5
 13
0.0
 23
0.0
 14
1.0
 24
1.0
 15
0.0
 25
0.0
 16
0.0
 26
0.0
 36
1.0
 17
0.0
 27
0.0
 37
0.0
 40
1935.0
 41
0.1111111111
 42
50.0
 43
0.0
 44
0.0
 50
0.0
 51
0.0
 71
0
 72
100
 73
1
 74
1
 75
0
 76
0
 77
0
 78
0
  0
ENDTAB
  0
TABLE
  2
LTYPE
  5
5
100
AcDbSymbolTable
 70
6
  0
LTYPE
  5
14
100
AcDbSymbolTableRecord
100
AcDbLinetypeTableRecord
  2
BYBLOCK
 70
0
  3

 72
65
 73
0
 40
0.0
  0
LTYPE
  5
15
100
AcDbSymbolTableRecord
100
AcDbLinetypeTableRecord
  2
BYLAYER
 70
0
  3

 72
65
 73
0
 40
0.0
  0
LTYPE
  5
16
100
AcDbSymbolTableRecord
100
AcDbLinetypeTableRecord
  2
CONTINUOUS
 70
64
  3
Solid line
 72
65
 73
0
 40
0.0
  0
LTYPE
  5
1F5
100
AcDbSymbolTableRecord
100
AcDbLinetypeTableRecord
  2
CENTER
 70
64
  3
____ _ ____ _ ____ _ ____ _ ____ _ ____ _ ____
 72
65
 73
4
 40
0.6
 49
0.375
 74
0
 49
-0.075
 74
0
 49
0.075
 74
0
 49
-0.075
 74
0
  0
LTYPE
  5
1F6
100
AcDbSymbolTableRecord
100
AcDbLinetypeTableRecord
  2
HIDDEN
 70
64
  3
- - - - - - - - - - - - - - - - - - - -
 72
65
 73
2
 40
0.2
 49
0.1
 74
0
 49
-0.1
 74
0
  0
LTYPE
  5
1F7
100
AcDbSymbolTableRecord
100
AcDbLinetypeTableRecord
  2
PHANTOM
 70
64
  3
_____ _ _ _____ _ _ _____ _ _ _____
 72
65
 73
6
 40
0.8
 49
0.45
 74
0
 49
-0.05
 74
0
 49
0.1
 74
0
 49
-0.05
 74
0
 49
0.1
 74
0
 49
-0.05
 74
0
  0
LTYPE
  5
1F8
100
AcDbSymbolTableRecord
100
AcDbLinetypeTableRecord
  2
DOT
 70
64
  3
. . . . . . . . . . . . . . . . . . . .
 72
65
 73
2
 40
0.2
 49
0.1
 74
0
 49
-0.1
 74
0
  0
LTYPE
  5
1F9
100
AcDbSymbolTableRecord
100
AcDbLinetypeTableRecord
  2
DASHED
 70
64
  3
- - - - - - - - - - - - - - - - - - - -
 72
65
 73
2
 40
0.2
 49
0.1
 74
0
 49
-0.1
 74
0
  0
ENDTAB
  0
TABLE
  2
LAYER
  5
2
100
AcDbSymbolTable
 70
36
  0
LAYER
  5
10
100
AcDbSymbolTableRecord
100
AcDbLayerTableRecord
  2
0
 70
0
 62
7
  6
CONTINUOUS
370
-3
390
F
  0
LAYER
  5
1FA
100
AcDbSymbolTableRecord
100
AcDbLayerTableRecord
  2
DEFAULT_1
 70
0
 62
7
  6
CENTER
370
-3
390
F
  0
LAYER
  5
1FB
100
AcDbSymbolTableRecord
100
AcDbLayerTableRecord
  2
DEFAULT_2
 70
0
 62
8
  6
HIDDEN
370
-3
390
F
  0
LAYER
  5
1FC
100
AcDbSymbolTableRecord
100
AcDbLayerTableRecord
  2
DEFAULT_3
 70
0
 62
7
  6
PHANTOM
370
-3
390
F
  0
LAYER
  5
1FD
100
AcDbSymbolTableRecord
100
AcDbLayerTableRecord
  2
AXIS
 70
0
 62
7
  6
CONTINUOUS
370
-3
390
F
  0
LAYER
  5
1FE
100
AcDbSymbolTableRecord
100
AcDbLayerTableRecord
  2
COORDSYS
 70
0
 62
7
  6
CONTINUOUS
370
-3
390
F
  0
LAYER
  5
1FF
100
AcDbSymbolTableRecord
100
AcDbLayerTableRecord
  2
CURVES
 70
0
 62
7
  6
CONTINUOUS
370
-3
390
F
  0
LAYER
  5
200
100
AcDbSymbolTableRecord
100
AcDbLayerTableRecord
  2
EINBAUREFERENZ
 70
0
 62
7
  6
CONTINUOUS
370
-3
390
F
  0
LAYER
  5
201
100
AcDbSymbolTableRecord
100
AcDbLayerTableRecord
  2
PLANES
 70
0
 62
7
  6
CONTINUOUS
370
-3
390
F
  0
LAYER
  5
202
100
AcDbSymbolTableRecord
100
AcDbLayerTableRecord
  2
POINTS
 70
0
 62
7
  6
CONTINUOUS
370
-3
390
F
  0
LAYER
  5
203
100
AcDbSymbolTableRecord
100
AcDbLayerTableRecord
  2
PROFIL-EINBAULAGE
 70
0
 62
7
  6
CONTINUOUS
370
-3
390
F
  0
LAYER
  5
204
100
AcDbSymbolTableRecord
100
AcDbLayerTableRecord
  2
S-AXIS
 70
0
 62
7
  6
CONTINUOUS
370
-3
390
F
  0
LAYER
  5
205
100
AcDbSymbolTableRecord
100
AcDbLayerTableRecord
  2
S-COORDSYS
 70
0
 62
7
  6
CONTINUOUS
370
-3
390
F
  0
LAYER
  5
206
100
AcDbSymbolTableRecord
100
AcDbLayerTableRecord
  2
S-PLANES
 70
0
 62
7
  6
CONTINUOUS
370
-3
390
F
  0
LAYER
  5
207
100
AcDbSymbolTableRecord
100
AcDbLayerTableRecord
  2
THREADS
 70
0
 62
7
  6
CONTINUOUS
370
-3
390
F
  0
LAYER
  5
208
100
AcDbSymbolTableRecord
100
AcDbLayerTableRecord
  2
XSEC_DATUMS
 70
0
 62
7
  6
CONTINUOUS
370
-3
390
F
  0
LAYER
  5
209
100
AcDbSymbolTableRecord
100
AcDbLayerTableRecord
  2
HATCHING_BL0
 70
0
 62
7
  6
CONTINUOUS
370
-3
390
F
  0
LAYER
  5
20A
100
AcDbSymbolTableRecord
100
AcDbLayerTableRecord
  2
95060701L00_BL1
 70
0
 62
7
  6
CONTINUOUS
370
-3
390
F
  0
LAYER
  5
20B
100
AcDbSymbolTableRecord
100
AcDbLayerTableRecord
  2
94528902000_M_BL2
 70
0
 62
7
  6
CONTINUOUS
370
-3
390
F
  0
LAYER
  5
20C
100
AcDbSymbolTableRecord
100
AcDbLayerTableRecord
  2
95056301000_BL3
 70
0
 62
7
  6
CONTINUOUS
370
-3
390
F
  0
LAYER
  5
20D
100
AcDbSymbolTableRecord
100
AcDbLayerTableRecord
  2
94528902000_M_BL4
 70
0
 62
7
  6
CONTINUOUS
370
-3
390
F
  0
LAYER
  5
20E
100
AcDbSymbolTableRecord
100
AcDbLayerTableRecord
  2
95056301000_BL5
 70
0
 62
7
  6
CONTINUOUS
370
-3
390
F
  0
LAYER
  5
20F
100
AcDbSymbolTableRecord
100
AcDbLayerTableRecord
  2
94528902000_M_BL6
 70
0
 62
7
  6
CONTINUOUS
370
-3
390
F
  0
LAYER
  5
210
100
AcDbSymbolTableRecord
100
AcDbLayerTableRecord
  2
94528902000_M_BL7
 70
0
 62
7
  6
CONTINUOUS
370
-3
390
F
  0
LAYER
  5
211
100
AcDbSymbolTableRecord
100
AcDbLayerTableRecord
  2
93894203000_BL8
 70
0
 62
7
  6
CONTINUOUS
370
-3
390
F
  0
LAYER
  5
212
100
AcDbSymbolTableRecord
100
AcDbLayerTableRecord
  2
93780800R00_BL9
 70
0
 62
7
  6
CONTINUOUS
370
-3
390
F
  0
LAYER
  5
213
100
AcDbSymbolTableRecord
100
AcDbLayerTableRecord
  2
93894134000_BL10
 70
0
 62
7
  6
CONTINUOUS
370
-3
390
F
  0
LAYER
  5
214
100
AcDbSymbolTableRecord
100
AcDbLayerTableRecord
  2
93780800R00_BL11
 70
0
 62
7
  6
CONTINUOUS
370
-3
390
F
  0
LAYER
  5
215
100
AcDbSymbolTableRecord
100
AcDbLayerTableRecord
  2
62890209000_BL12
 70
0
 62
7
  6
CONTINUOUS
370
-3
390
F
  0
LAYER
  5
216
100
AcDbSymbolTableRecord
100
AcDbLayerTableRecord
  2
93866300000_M_BL13
 70
0
 62
7
  6
CONTINUOUS
370
-3
390
F
  0
LAYER
  5
217
100
AcDbSymbolTableRecord
100
AcDbLayerTableRecord
  2
93866300000_M_BL14
 70
0
 62
7
  6
CONTINUOUS
370
-3
390
F
  0
LAYER
  5
218
100
AcDbSymbolTableRecord
100
AcDbLayerTableRecord
  2
93866300000_M_BL15
 70
0
 62
7
  6
CONTINUOUS
370
-3
390
F
  0
LAYER
  5
219
100
AcDbSymbolTableRecord
100
AcDbLayerTableRecord
  2
93866300000_M_BL16
 70
0
 62
7
  6
CONTINUOUS
370
-3
390
F
  0
LAYER
  5
21A
100
AcDbSymbolTableRecord
100
AcDbLayerTableRecord
  2
93866300000_M_BL17
 70
0
 62
7
  6
CONTINUOUS
370
-3
390
F
  0
LAYER
  5
21B
100
AcDbSymbolTableRecord
100
AcDbLayerTableRecord
  2
93866300000_M_BL18
 70
0
 62
7
  6
CONTINUOUS
370
-3
390
F
  0
LAYER
  5
21C
100
AcDbSymbolTableRecord
100
AcDbLayerTableRecord
  2
93866300000_M_BL19
 70
0
 62
7
  6
CONTINUOUS
370
-3
390
F
  0
LAYER
  5
21D
100
AcDbSymbolTableRecord
100
AcDbLayerTableRecord
  2
91511100000_BL20
 70
0
 62
7
  6
CONTINUOUS
370
-3
390
F
  0
LAYER
  5
21E
100
AcDbSymbolTableRecord
100
AcDbLayerTableRecord
  2
91324208R00_BL21
 70
0
 62
7
  6
CONTINUOUS
370
-3
390
F
  0
LAYER
  5
21F
100
AcDbSymbolTableRecord
100
AcDbLayerTableRecord
  2
91324208R00_BL22
 70
0
 62
7
  6
CONTINUOUS
370
-3
390
F
  0
ENDTAB
  0
TABLE
  2
STYLE
  5
3
100
AcDbSymbolTable
 70
1
  0
STYLE
  5
11
100
AcDbSymbolTableRecord
100
AcDbTextStyleTableRecord
  2
STANDARD
 70
0
 40
0.0
 41
1.0
 50
0.0
 71
0
 42
0.2
  3
arial.ttf
  4

  0
STYLE
  5
220
100
AcDbSymbolTableRecord
100
AcDbTextStyleTableRecord
  2
TEXTSTYLE_1
 70
0
 40
0.0
 41
0.8
 50
0.0
 71
0
 42
0.2
  3
gdt
  4

  0
STYLE
  5
221
100
AcDbSymbolTableRecord
100
AcDbTextStyleTableRecord
  2
TEXTSTYLE_2
 70
0
 40
0.0
 41
1.0
 50
0.0
 71
0
 42
0.2
  3
arialbd.ttf
  4

  0
ENDTAB
  0
TABLE
  2
VIEW
  5
6
100
AcDbSymbolTable
 70
0
  0
ENDTAB
  0
TABLE
  2
UCS
  5
7
100
AcDbSymbolTable
 70
0
  0
ENDTAB
  0
TABLE
  2
APPID
  5
9
100
AcDbSymbolTable
 70
1
  0
APPID
  5
222
100
AcDbSymbolTableRecord
100
AcDbRegAppTableRecord
  2
ACAD
 70
0
  0
ENDTAB
  0
TABLE
  2
BLOCK_RECORD
  5
1
100
AcDbSymbolTable
 70
0
  0
BLOCK_RECORD
  5
223
100
AcDbSymbolTableRecord
100
AcDbBlockTableRecord
  2
*Model_Space
  0
BLOCK_RECORD
  5
224
100
AcDbSymbolTableRecord
100
AcDbBlockTableRecord
  2
*Paper_Space
  0
BLOCK_RECORD
  5
225
100
AcDbSymbolTableRecord
100
AcDbBlockTableRecord
  2
_FILLED
  0
BLOCK_RECORD
  5
226
100
AcDbSymbolTableRecord
100
AcDbBlockTableRecord
  2
*D0
  0
BLOCK_RECORD
  5
227
100
AcDbSymbolTableRecord
100
AcDbBlockTableRecord
  2
*D1
  0
BLOCK_RECORD
  5
228
100
AcDbSymbolTableRecord
100
AcDbBlockTableRecord
  2
*D2
  0
BLOCK_RECORD
  5
229
100
AcDbSymbolTableRecord
100
AcDbBlockTableRecord
  2
*D3
  0
BLOCK_RECORD
  5
22A
100
AcDbSymbolTableRecord
100
AcDbBlockTableRecord
  2
*D4
  0
BLOCK_RECORD
  5
22B
100
AcDbSymbolTableRecord
100
AcDbBlockTableRecord
  2
*D5
  0
BLOCK_RECORD
  5
22C
100
AcDbSymbolTableRecord
100
AcDbBlockTableRecord
  2
*D6
  0
BLOCK_RECORD
  5
22D
100
AcDbSymbolTableRecord
100
AcDbBlockTableRecord
  2
*D7
  0
BLOCK_RECORD
  5
22E
100
AcDbSymbolTableRecord
100
AcDbBlockTableRecord
  2
*D8
  0
BLOCK_RECORD
  5
22F
100
AcDbSymbolTableRecord
100
AcDbBlockTableRecord
  2
*D9
  0
BLOCK_RECORD
  5
230
100
AcDbSymbolTableRecord
100
AcDbBlockTableRecord
  2
*D10
  0
BLOCK_RECORD
  5
231
100
AcDbSymbolTableRecord
100
AcDbBlockTableRecord
  2
*D11
  0
BLOCK_RECORD
  5
232
100
AcDbSymbolTableRecord
100
AcDbBlockTableRecord
  2
*D12
  0
BLOCK_RECORD
  5
233
100
AcDbSymbolTableRecord
100
AcDbBlockTableRecord
  2
*D13
  0
BLOCK_RECORD
  5
234
100
AcDbSymbolTableRecord
100
AcDbBlockTableRecord
  2
*D14
  0
BLOCK_RECORD
  5
235
100
AcDbSymbolTableRecord
100
AcDbBlockTableRecord
  2
*D15
  0
BLOCK_RECORD
  5
236
100
AcDbSymbolTableRecord
100
AcDbBlockTableRecord
  2
*D16
  0
BLOCK_RECORD
  5
237
100
AcDbSymbolTableRecord
100
AcDbBlockTableRecord
  2
*D17
  0
BLOCK_RECORD
  5
238
100
AcDbSymbolTableRecord
100
AcDbBlockTableRecord
  2
*D18
  0
BLOCK_RECORD
  5
239
100
AcDbSymbolTableRecord
100
AcDbBlockTableRecord
  2
*D19
  0
BLOCK_RECORD
  5
23A
100
AcDbSymbolTableRecord
100
AcDbBlockTableRecord
  2
*D20
  0
BLOCK_RECORD
  5
23B
100
AcDbSymbolTableRecord
100
AcDbBlockTableRecord
  2
*D21
  0
BLOCK_RECORD
  5
23C
100
AcDbSymbolTableRecord
100
AcDbBlockTableRecord
  2
*D22
  0
BLOCK_RECORD
  5
23D
100
AcDbSymbolTableRecord
100
AcDbBlockTableRecord
  2
*D23
  0
BLOCK_RECORD
  5
23E
100
AcDbSymbolTableRecord
100
AcDbBlockTableRecord
  2
*D24
  0
BLOCK_RECORD
  5
23F
100
AcDbSymbolTableRecord
100
AcDbBlockTableRecord
  2
*D25
  0
BLOCK_RECORD
  5
240
100
AcDbSymbolTableRecord
100
AcDbBlockTableRecord
  2
*D26
  0
BLOCK_RECORD
  5
241
100
AcDbSymbolTableRecord
100
AcDbBlockTableRecord
  2
*D27
  0
BLOCK_RECORD
  5
242
100
AcDbSymbolTableRecord
100
AcDbBlockTableRecord
  2
*D28
  0
BLOCK_RECORD
  5
243
100
AcDbSymbolTableRecord
100
AcDbBlockTableRecord
  2
*D29
  0
BLOCK_RECORD
  5
244
100
AcDbSymbolTableRecord
100
AcDbBlockTableRecord
  2
*D30
  0
BLOCK_RECORD
  5
245
100
AcDbSymbolTableRecord
100
AcDbBlockTableRecord
  2
*D31
  0
BLOCK_RECORD
  5
246
100
AcDbSymbolTableRecord
100
AcDbBlockTableRecord
  2
*D32
  0
BLOCK_RECORD
  5
247
100
AcDbSymbolTableRecord
100
AcDbBlockTableRecord
  2
*D33
  0
BLOCK_RECORD
  5
248
100
AcDbSymbolTableRecord
100
AcDbBlockTableRecord
  2
SYMBOL_0_BL23
  0
BLOCK_RECORD
  5
249
100
AcDbSymbolTableRecord
100
AcDbBlockTableRecord
  2
HATCHING_BL0
  0
BLOCK_RECORD
  5
24A
100
AcDbSymbolTableRecord
100
AcDbBlockTableRecord
  2
95060701L00_BL1
  0
BLOCK_RECORD
  5
24B
100
AcDbSymbolTableRecord
100
AcDbBlockTableRecord
  2
94528902000_M_BL2
  0
BLOCK_RECORD
  5
24C
100
AcDbSymbolTableRecord
100
AcDbBlockTableRecord
  2
95056301000_BL3
  0
BLOCK_RECORD
  5
24D
100
AcDbSymbolTableRecord
100
AcDbBlockTableRecord
  2
94528902000_M_BL4
  0
BLOCK_RECORD
  5
24E
100
AcDbSymbolTableRecord
100
AcDbBlockTableRecord
  2
95056301000_BL5
  0
BLOCK_RECORD
  5
24F
100
AcDbSymbolTableRecord
100
AcDbBlockTableRecord
  2
94528902000_M_BL6
  0
BLOCK_RECORD
  5
250
100
AcDbSymbolTableRecord
100
AcDbBlockTableRecord
  2
94528902000_M_BL7
  0
BLOCK_RECORD
  5
251
100
AcDbSymbolTableRecord
100
AcDbBlockTableRecord
  2
93894203000_BL8
  0
BLOCK_RECORD
  5
252
100
AcDbSymbolTableRecord
100
AcDbBlockTableRecord
  2
93780800R00_BL9
  0
BLOCK_RECORD
  5
253
100
AcDbSymbolTableRecord
100
AcDbBlockTableRecord
  2
93894134000_BL10
  0
BLOCK_RECORD
  5
254
100
AcDbSymbolTableRecord
100
AcDbBlockTableRecord
  2
93780800R00_BL11
  0
BLOCK_RECORD
  5
255
100
AcDbSymbolTableRecord
100
AcDbBlockTableRecord
  2
62890209000_BL12
  0
BLOCK_RECORD
  5
256
100
AcDbSymbolTableRecord
100
AcDbBlockTableRecord
  2
93866300000_M_BL13
  0
BLOCK_RECORD
  5
257
100
AcDbSymbolTableRecord
100
AcDbBlockTableRecord
  2
93866300000_M_BL14
  0
BLOCK_RECORD
  5
258
100
AcDbSymbolTableRecord
100
AcDbBlockTableRecord
  2
93866300000_M_BL15
  0
BLOCK_RECORD
  5
259
100
AcDbSymbolTableRecord
100
AcDbBlockTableRecord
  2
93866300000_M_BL16
  0
BLOCK_RECORD
  5
25A
100
AcDbSymbolTableRecord
100
AcDbBlockTableRecord
  2
93866300000_M_BL17
  0
BLOCK_RECORD
  5
25B
100
AcDbSymbolTableRecord
100
AcDbBlockTableRecord
  2
93866300000_M_BL18
  0
BLOCK_RECORD
  5
25C
100
AcDbSymbolTableRecord
100
AcDbBlockTableRecord
  2
93866300000_M_BL19
  0
BLOCK_RECORD
  5
25D
100
AcDbSymbolTableRecord
100
AcDbBlockTableRecord
  2
91511100000_BL20
  0
BLOCK_RECORD
  5
25E
100
AcDbSymbolTableRecord
100
AcDbBlockTableRecord
  2
91324208R00_BL21
  0
BLOCK_RECORD
  5
25F
100
AcDbSymbolTableRecord
100
AcDbBlockTableRecord
  2
91324208R00_BL22
  0
ENDTAB
  0
TABLE
  2
DIMSTYLE
  5
A
100
AcDbSymbolTable
 70
1
100
AcDbDimStyleTable
 71
0
  0
DIMSTYLE
105
260
100
AcDbSymbolTableRecord
100
AcDbDimStyleTableRecord
  2
STANDARD
 70
0
  3

  4

 40
1.0
 41
3.5
 42
0.0
 43
0.38
 44
1.0
 45
0.0
 46
0.0
 47
0.001
 48
0.001
140
2.5
141
0.09
142
0.0
143
25.4
144
1.0
145
0.0
146
1.0
147
0.625
 71
1.0
 72
0.0
 73
0
 74
0
 75
0
 76
0
 77
1
 78
8
170
0
171
2
172
0
173
0
174
0
175
0
176
0
177
0
178
5
270
2
271
3
272
3
273
2
274
2
275
0
280
0
281
0
282
0
283
1
284
8
285
0
286
0
287
3
288
0
340
11
278
46
341
225
342
225
343
225
344
225
  0
DIMSTYLE
105
261
100
AcDbSymbolTableRecord
100
AcDbDimStyleTableRecord
  2
DIMSTYLE_1
 70
0
  3

  4

 40
1.0
 41
3.5
 42
0.0
 43
0.38
 44
1.0
 45
0.0
 46
0.0
 47
0.2
 48
0.2
140
2.5
141
0.09
142
0.0
143
25.4
144
1.0
145
0.0
146
1.0
147
0.625
 71
0.0
 72
0.0
 73
0
 74
0
 75
0
 76
0
 77
1
 78
8
170
0
171
2
172
0
173
0
174
0
175
0
176
0
177
0
178
5
270
2
271
3
272
3
273
2
274
2
275
0
280
0
281
0
282
0
283
1
284
8
285
0
286
0
287
3
288
0
340
11
278
46
341
225
342
225
343
225
344
225
  0
DIMSTYLE
105
262
100
AcDbSymbolTableRecord
100
AcDbDimStyleTableRecord
  2
DIMSTYLE_2
 70
0
  3

  4

 40
1.0
 41
3.5
 42
0.0
 43
0.38
 44
1.0
 45
0.0
 46
0.0
 47
1.2
 48
1.2
140
2.5
141
0.09
142
0.0
143
25.4
144
1.0
145
0.0
146
1.0
147
0.625
 71
0.0
 72
0.0
 73
0
 74
0
 75
0
 76
0
 77
1
 78
8
170
0
171
2
172
0
173
0
174
0
175
0
176
0
177
0
178
5
270
2
271
3
272
3
273
2
274
2
275
0
280
0
281
0
282
0
283
1
284
8
285
0
286
0
287
3
288
0
340
11
278
46
341
225
342
225
343
225
344
225
  0
DIMSTYLE
105
263
100
AcDbSymbolTableRecord
100
AcDbDimStyleTableRecord
  2
DIMSTYLE_3
 70
0
  3

  4

 40
1.0
 41
3.5
 42
0.0
 43
0.38
 44
1.0
 45
0.0
 46
0.0
 47
0.3
 48
0.3
140
2.5
141
0.09
142
0.0
143
25.4
144
1.0
145
0.0
146
1.0
147
0.625
 71
0.0
 72
0.0
 73
0
 74
0
 75
0
 76
0
 77
1
 78
8
170
0
171
2
172
0
173
0
174
0
175
0
176
0
177
0
178
5
270
2
271
3
272
3
273
2
274
2
275
0
280
0
281
0
282
0
283
1
284
8
285
0
286
0
287
3
288
0
340
11
278
46
341
225
342
225
343
225
344
225
  0
DIMSTYLE
105
264
100
AcDbSymbolTableRecord
100
AcDbDimStyleTableRecord
  2
DIMSTYLE_4
 70
0
  3

  4

 40
1.0
 41
3.5
 42
0.0
 43
0.38
 44
1.0
 45
0.0
 46
0.0
 47
0.2
 48
0.2
140
2.5
141
0.09
142
0.0
143
25.4
144
1.0
145
0.0
146
1.0
147
0.625
 71
0.0
 72
0.0
 73
0
 74
0
 75
0
 76
0
 77
1
 78
8
170
0
171
2
172
0
173
0
174
0
175
0
176
0
177
0
178
5
270
2
271
3
272
3
273
2
274
2
275
0
280
0
281
0
282
0
283
1
284
8
285
0
286
0
287
3
288
0
340
11
278
46
341
225
342
225
343
225
344
225
  0
DIMSTYLE
105
265
100
AcDbSymbolTableRecord
100
AcDbDimStyleTableRecord
  2
DIMSTYLE_5
 70
0
  3

  4

 40
1.0
 41
3.5
 42
0.0
 43
0.38
 44
1.0
 45
0.0
 46
0.0
 47
0.8
 48
0.8
140
2.5
141
0.09
142
0.0
143
25.4
144
1.0
145
0.0
146
1.0
147
0.625
 71
0.0
 72
0.0
 73
0
 74
0
 75
0
 76
0
 77
1
 78
8
170
0
171
2
172
0
173
0
174
0
175
0
176
0
177
0
178
5
270
2
271
3
272
3
273
2
274
2
275
0
280
0
281
0
282
0
283
1
284
8
285
0
286
0
287
3
288
0
340
11
278
46
341
225
342
225
343
225
344
225
  0
DIMSTYLE
105
266
100
AcDbSymbolTableRecord
100
AcDbDimStyleTableRecord
  2
DIMSTYLE_6
 70
0
  3

  4

 40
1.0
 41
3.5
 42
0.0
 43
0.38
 44
1.0
 45
0.0
 46
0.0
 47
0.2
 48
0.2
140
2.5
141
0.09
142
0.0
143
25.4
144
1.0
145
0.0
146
1.0
147
0.625
 71
0.0
 72
0.0
 73
0
 74
0
 75
0
 76
0
 77
1
 78
8
170
0
171
2
172
0
173
0
174
0
175
0
176
0
177
0
178
5
270
2
271
1
272
1
273
2
274
2
275
0
280
0
281
0
282
0
283
1
284
8
285
0
286
0
287
3
288
0
340
11
278
46
341
225
342
225
343
225
344
225
  0
DIMSTYLE
105
267
100
AcDbSymbolTableRecord
100
AcDbDimStyleTableRecord
  2
DIMSTYLE_7
 70
0
  3

  4

 40
1.0
 41
3.5
 42
0.0
 43
0.38
 44
1.0
 45
0.0
 46
0.0
 47
0.5
 48
0.5
140
2.5
141
0.09
142
0.0
143
25.4
144
1.0
145
0.0
146
1.0
147
0.625
 71
0.0
 72
0.0
 73
0
 74
0
 75
0
 76
0
 77
1
 78
8
170
0
171
2
172
0
173
0
174
0
175
0
176
0
177
0
178
5
270
2
271
3
272
3
273
2
274
2
275
0
280
0
281
0
282
0
283
1
284
8
285
0
286
0
287
3
288
0
340
11
278
46
341
225
342
225
343
225
344
225
  0
DIMSTYLE
105
268
100
AcDbSymbolTableRecord
100
AcDbDimStyleTableRecord
  2
DIMSTYLE_8
 70
0
  3

  4

 40
1.0
 41
3.5
 42
0.0
 43
0.38
 44
1.0
 45
0.0
 46
0.0
 47
0.2
 48
0.2
140
2.5
141
0.09
142
0.0
143
25.4
144
1.0
145
0.0
146
1.0
147
0.625
 71
0.0
 72
0.0
 73
0
 74
0
 75
0
 76
0
 77
1
 78
8
170
0
171
2
172
0
173
0
174
0
175
0
176
0
177
0
178
5
270
2
271
0
272
0
273
2
274
2
275
0
280
0
281
0
282
0
283
1
284
8
285
0
286
0
287
3
288
0
340
11
278
46
341
225
342
225
343
225
344
225
  0
DIMSTYLE
105
269
100
AcDbSymbolTableRecord
100
AcDbDimStyleTableRecord
  2
DIMSTYLE_9
 70
0
  3

  4

 40
1.0
 41
3.5
 42
0.0
 43
0.38
 44
1.0
 45
0.0
 46
0.0
 47
0.1
 48
0.1
140
2.5
141
0.09
142
0.0
143
25.4
144
1.0
145
0.0
146
1.0
147
0.625
 71
0.0
 72
0.0
 73
0
 74
0
 75
0
 76
0
 77
1
 78
8
170
0
171
2
172
0
173
0
174
0
175
0
176
0
177
0
178
5
270
2
271
3
272
3
273
2
274
2
275
0
280
0
281
0
282
0
283
1
284
8
285
0
286
0
287
3
288
0
340
11
278
46
341
225
342
225
343
225
344
225
  0
ENDTAB
  0
ENDSEC
  0
SECTION
  2
BLOCKS
  0
BLOCK
  5
20
100
AcDbEntity
  8
0
100
AcDbBlockBegin
  2
*Model_Space
 70
0
 10
0.0
 20
0.0
 30
0.0
  3
*Model_Space
  1

  0
ENDBLK
  5
21
100
AcDbEntity
  8
0
100
AcDbBlockEnd
  0
BLOCK
  5
1C
100
AcDbEntity
  8
0
100
AcDbBlockBegin
  2
*Paper_Space
 70
0
 10
0.0
 20
0.0
 30
0.0
  3
*Paper_Space
  1

  0
ENDBLK
  5
1D
100
AcDbEntity
  8
0
100
AcDbBlockEnd
  0
BLOCK
  5
26A
100
AcDbEntity
  8
0
100
AcDbBlockBegin
 62
2
  6
CONTINUOUS
  2
SYMBOL_0_BL23
 70
64
 10
31.0000000239
 20
34.9999999785
  3
SYMBOL_0_BL23
  1

  0
TEXT
  5
26B
100
AcDbEntity
  8
0
100
AcDbText
 62
5
  6
CONTINUOUS
 10
11.6434778505
 20
32.1908716548
  7
TEXTSTYLE_2
 40
4.0
  1
6-40040-AF-L
 72
5
 11
46.7066748765
 21
32.1908716548
100
AcDbText
  0
TEXT
  5
26C
100
AcDbEntity
  8
0
100
AcDbText
 62
5
  6
CONTINUOUS
 10
10.9089559916
 20
24.1776342906
  7
STANDARD
 40
2.5
  1
Scale
 72
5
 11
19.6357217908
 21
24.1776342906
100
AcDbText
  0
TEXT
  5
26D
100
AcDbEntity
  8
0
100
AcDbText
 62
5
  6
CONTINUOUS
 10
10.9089559916
 20
20.4276342906
  7
STANDARD
 40
2.5
  1
1:1
 72
5
 11
15.7602571068
 21
20.4276342906
100
AcDbText
  0
TEXT
  5
26E
100
AcDbEntity
  8
0
100
AcDbText
 62
5
  6
CONTINUOUS
 10
10.9089559916
 20
13.0518233866
  7
STANDARD
 40
2.5
  1
Draft
 72
5
 11
18.4647180733
 21
13.0518233866
100
AcDbText
  0
TEXT
  5
26F
100
AcDbEntity
  8
0
100
AcDbText
 62
5
  6
CONTINUOUS
 10
23.3811982505
 20
13.113338109
  7
STANDARD
 40
2.5
  1
01.03.2018
 72
5
 11
40.8533172096
 21
13.113338109
100
AcDbText
  0
TEXT
  5
270
100
AcDbEntity
  8
0
100
AcDbText
 62
5
  6
CONTINUOUS
 10
45.71759366
 20
13.1067461609
  7
STANDARD
 40
2.5
  1
Dr
 72
5
 11
49.435065779
 21
13.1067461609
100
AcDbText
  0
LINE
  5
271
100
AcDbEntity
  8
0
100
AcDbLine
 62
2
  6
CONTINUOUS
 10
10.0000000239
 20
59.9999999785
 11
52.0000000239
 21
59.9999999785
  0
LINE
  5
272
100
AcDbEntity
  8
0
100
AcDbLine
 62
2
  6
CONTINUOUS
 10
52.0000000239
 20
59.9999999785
 11
52.0000000239
 21
9.9999999785
  0
LINE
  5
273
100
AcDbEntity
  8
0
100
AcDbLine
 62
2
  6
CONTINUOUS
 10
10.0000000239
 20
9.9999999785
 11
52.0000000239
 21
9.9999999785
  0
LINE
  5
274
100
AcDbEntity
  8
0
100
AcDbLine
 62
2
  6
CONTINUOUS
 10
10.0000000239
 20
39.9999999785
 11
21.0000000239
 21
39.9999999785
  0
LINE
  5
275
100
AcDbEntity
  8
0
100
AcDbLine
 62
2
  6
CONTINUOUS
 10
10.0000000239
 20
27.9999999785
 11
21.0000000239
 21
27.9999999785
  0
LINE
  5
276
100
AcDbEntity
  8
0
100
AcDbLine
 62
2
  6
CONTINUOUS
 10
10.0000000239
 20
18.9999999785
 11
21.0000000239
 21
18.9999999785
  0
LINE
  5
277
100
AcDbEntity
  8
0
100
AcDbLine
 62
2
  6
CONTINUOUS
 10
21.0000000239
 20
39.9999999785
 11
43.0000000239
 21
39.9999999785
  0
LINE
  5
278
100
AcDbEntity
  8
0
100
AcDbLine
 62
2
  6
CONTINUOUS
 10
43.0000000239
 20
39.9999999785
 11
52.0000000239
 21
39.9999999785
  0
LINE
  5
279
100
AcDbEntity
  8
0
100
AcDbLine
 62
2
  6
CONTINUOUS
 10
21.0000000239
 20
27.9999999785
 11
43.0000000239
 21
27.9999999785
  0
LINE
  5
27A
100
AcDbEntity
  8
0
100
AcDbLine
 62
2
  6
CONTINUOUS
 10
43.0000000239
 20
27.9999999785
 11
52.0000000239
 21
27.9999999785
  0
LINE
  5
27B
100
AcDbEntity
  8
0
100
AcDbLine
 62
2
  6
CONTINUOUS
 10
21.0000000239
 20
18.9999999785
 11
21.0000000239
 21
9.9999999785
  0
LINE
  5
27C
100
AcDbEntity
  8
0
100
AcDbLine
 62
2
  6
CONTINUOUS
 10
21.0000000239
 20
18.9999999785
 11
43.0000000239
 21
18.9999999785
  0
LINE
  5
27D
100
AcDbEntity
  8
0
100
AcDbLine
 62
2
  6
CONTINUOUS
 10
43.0000000239
 20
18.9999999785
 11
43.0000000239
 21
9.9999999785
  0
LINE
  5
27E
100
AcDbEntity
  8
0
100
AcDbLine
 62
2
  6
CONTINUOUS
 10
43.0000000239
 20
18.9999999785
 11
52.0000000239
 21
18.9999999785
  0
LINE
  5
27F
100
AcDbEntity
  8
0
100
AcDbLine
 62
2
  6
CONTINUOUS
 10
10.0000000239
 20
9.9999999785
 11
10.0000000239
 21
59.9999999785
  0
ARC
  5
280
100
AcDbEntity
  8
0
100
AcDbCircle
 62
2
  6
CONTINUOUS
 10
17.6290122978
 20
56.1308274644
 40
1.2679261569
100
AcDbArc
 50
90.0
 51
180.0
  0
LINE
  5
281
100
AcDbEntity
  8
0
100
AcDbLine
 62
2
  6
CONTINUOUS
 10
17.6290122978
 20
57.3987536213
 11
44.0849627663
 21
57.3987536213
  0
ARC
  5
282
100
AcDbEntity
  8
0
100
AcDbCircle
 62
2
  6
CONTINUOUS
 10
44.0849627663
 20
56.1308274644
 40
1.2679261569
100
AcDbArc
 50
0.0
 51
90.0
  0
LINE
  5
283
100
AcDbEntity
  8
0
100
AcDbLine
 62
2
  6
CONTINUOUS
 10
45.3528889231
 20
56.1308274644
 11
45.3528889231
 21
43.6666783678
  0
ARC
  5
284
100
AcDbEntity
  8
0
100
AcDbCircle
 62
2
  6
CONTINUOUS
 10
44.0849627663
 20
43.6666783678
 40
1.2679261569
100
AcDbArc
 50
270.0
 51
360.0
  0
LINE
  5
285
100
AcDbEntity
  8
0
100
AcDbLine
 62
2
  6
CONTINUOUS
 10
44.0849627663
 20
42.3987522109
 11
17.6290122978
 21
42.3987522109
  0
ARC
  5
286
100
AcDbEntity
  8
0
100
AcDbCircle
 62
2
  6
CONTINUOUS
 10
17.6290122978
 20
43.6666783678
 40
1.2679261569
100
AcDbArc
 50
180.0
 51
270.0
  0
LINE
  5
287
100
AcDbEntity
  8
0
100
AcDbLine
 62
2
  6
CONTINUOUS
 10
16.3610861409
 20
43.6666783678
 11
16.3610861409
 21
56.1308274644
  0
ARC
  5
288
100
AcDbEntity
  8
0
100
AcDbCircle
 62
2
  6
CONTINUOUS
 10
25.0981141224
 20
49.7181091975
 40
2.8108394023
100
AcDbArc
 50
35.2282226131
 51
336.934010569
  0
LINE
  5
289
100
AcDbEntity
  8
0
100
AcDbLine
 62
2
  6
CONTINUOUS
 10
27.3941788183
 20
51.3394990511
 11
29.5865173301
 21
52.961744213
  0
ARC
  5
28A
100
AcDbEntity
  8
0
100
AcDbCircle
 62
2
  6
CONTINUOUS
 10
25.0981141224
 20
49.7181091975
 40
5.5377731507
100
AcDbArc
 50
35.8545159817
 51
11.4705154501
  0
LINE
  5
28B
100
AcDbEntity
  8
0
100
AcDbLine
 62
2
  6
CONTINUOUS
 10
30.5252822719
 20
50.8193709036
 11
25.2029961896
 21
50.8193709036
  0
ARC
  5
28C
100
AcDbEntity
  8
0
100
AcDbCircle
 62
2
  6
CONTINUOUS
 10
25.2029961896
 20
49.7181091975
 40
1.1012617061
100
AcDbArc
 50
90.0
 51
270.0
  0
LINE
  5
28D
100
AcDbEntity
  8
0
100
AcDbLine
 62
2
  6
CONTINUOUS
 10
25.2029961896
 20
48.6168474914
 11
27.6842387906
 21
48.6168474914
  0
ARC
  5
28E
100
AcDbEntity
  8
0
100
AcDbCircle
 62
2
  6
CONTINUOUS
 10
25.2029961896
 20
49.7181091975
 40
5.9153485927
100
AcDbArc
 50
349.2706340045
 51
10.7293659955
  0
LINE
  5
28F
100
AcDbEntity
  8
0
100
AcDbLine
 62
2
  6
CONTINUOUS
 10
31.014929743
 20
48.6168474914
 11
32.8593870987
 21
48.6168474914
  0
LINE
  5
290
100
AcDbEntity
  8
0
100
AcDbLine
 62
2
  6
CONTINUOUS
 10
32.8593870987
 20
48.6168474914
 11
32.8593870987
 21
48.0399961216
  0
ARC
  5
291
100
AcDbEntity
  8
0
100
AcDbCircle
 62
2
  6
CONTINUOUS
 10
36.7610000003
 20
48.0399961216
 40
3.9016129016
100
AcDbArc
 50
180.0
 51
360.0
  0
LINE
  5
292
100
AcDbEntity
  8
0
100
AcDbLine
 62
2
  6
CONTINUOUS
 10
40.6626129019
 20
48.0399961216
 11
40.6626129019
 21
54.9622125599
  0
LINE
  5
293
100
AcDbEntity
  8
0
100
AcDbLine
 62
2
  6
CONTINUOUS
 10
40.6626129019
 20
54.9622125599
 11
37.9356791535
 21
54.9622125599
  0
LINE
  5
294
100
AcDbEntity
  8
0
100
AcDbLine
 62
2
  6
CONTINUOUS
 10
37.9356791535
 20
54.9622125599
 11
37.9356791535
 21
48.0399961216
  0
ARC
  5
295
100
AcDbEntity
  8
0
100
AcDbCircle
 62
2
  6
CONTINUOUS
 10
36.7610000003
 20
48.0399961216
 40
1.1746791532
100
AcDbArc
 50
180.0
 51
360.0
  0
LINE
  5
296
100
AcDbEntity
  8
0
100
AcDbLine
 62
2
  6
CONTINUOUS
 10
35.5863208471
 20
48.0399961216
 11
35.5863208471
 21
54.9622125599
  0
LINE
  5
297
100
AcDbEntity
  8
0
100
AcDbLine
 62
2
  6
CONTINUOUS
 10
35.5863208471
 20
54.9622125599
 11
32.8593870987
 21
54.9622125599
  0
LINE
  5
298
100
AcDbEntity
  8
0
100
AcDbLine
 62
2
  6
CONTINUOUS
 10
32.8593870987
 20
54.9622125599
 11
32.8593870987
 21
50.8193709036
  0
LINE
  5
299
100
AcDbEntity
  8
0
100
AcDbLine
 62
2
  6
CONTINUOUS
 10
32.8593870987
 20
50.8193709036
 11
31.014929743
 21
50.8193709036
  0
LINE
  5
29A
100
AcDbEntity
  8
0
100
AcDbLine
 62
2
  6
CONTINUOUS
 10
45.1996126437
 20
56.7334185992
 11
45.2185459944
 21
56.6972621935
  0
LWPOLYLINE
  5
29B
100
AcDbEntity
  8
0
100
AcDbPolyline
 62
2
  6
CONTINUOUS
 90
42
 70
0
 10
17.4964779251
 20
57.3918123624
 10
17.6290122978
 20
57.398757363
 10
44.0849627663
 20
57.398757363
 10
44.217497139
 20
57.3918123624
 10
44.3485794374
 20
57.3710523604
 10
44.4767734964
 20
57.3367023572
 10
44.600674795
 20
57.2891373527
 10
44.7189258447
 20
57.2288823471
 10
44.8302310623
 20
57.1565973403
 10
44.9333709645
 20
57.0730773324
 10
45.0272155289
 20
56.9792373236
 10
45.1107365748
 20
56.8760973139
 10
45.1830190283
 20
56.7647973034
 10
45.2432709475
 20
56.6465372923
 10
45.2908322
 20
56.5226372807
 10
45.3251816945
 20
56.3944472686
 10
45.345943091
 20
56.2633622563
 10
45.3528889232
 20
56.1308222438
 10
24.5102931399
 20
55.2245960958
 10
23.6929701738
 20
55.0746474408
 10
22.9072856488
 20
54.8040901322
 10
22.1709301607
 20
54.4190160805
 10
21.5004836049
 20
53.9280956735
 10
20.9110418611
 20
53.3423825519
 10
20.4158768919
 20
52.6750647241
 10
20.0261379092
 20
51.9411676226
 10
16.3610861409
 20
43.6666760719
 10
16.3610861409
 20
56.1308222438
 10
16.368031973
 20
56.2633622563
 10
16.3887933695
 20
56.3944472686
 10
16.4231428641
 20
56.5226372807
 10
16.4707041165
 20
56.6465372923
 10
16.5309560358
 20
56.7647973034
 10
16.6032384892
 20
56.8760973139
 10
16.6867595352
 20
56.9792373236
 10
16.7806040996
 20
57.0730773324
 10
16.8837440018
 20
57.1565973403
 10
16.9950492193
 20
57.2288823471
 10
17.113300269
 20
57.2891373527
 10
17.2372015677
 20
57.3367023572
 10
17.3653956267
 20
57.3710523604
 10
17.4964779251
 20
57.3918123624
  0
HATCH
  5
29C
100
AcDbEntity
  8
0
100
AcDbHatch
 62
2
  6
CONTINUOUS
 10
0.0
 20
0.0
 30
0.0
210
0.0
220
0.0
230
1.0
  2
SOLID
 70
1
 71
1
 91
1
 92
1
 93
41
 72
1
 10
17.4964779251
 20
57.3918123624
 11
17.6290122978
 21
57.398757363
 72
1
 10
17.6290122978
 20
57.398757363
 11
44.0849627663
 21
57.398757363
 72
1
 10
44.0849627663
 20
57.398757363
 11
44.217497139
 21
57.3918123624
 72
1
 10
44.217497139
 20
57.3918123624
 11
44.3485794374
 21
57.3710523604
 72
1
 10
44.3485794374
 20
57.3710523604
 11
44.4767734964
 21
57.3367023572
 72
1
 10
44.4767734964
 20
57.3367023572
 11
44.600674795
 21
57.2891373527
 72
1
 10
44.600674795
 20
57.2891373527
 11
44.7189258447
 21
57.2288823471
 72
1
 10
44.7189258447
 20
57.2288823471
 11
44.8302310623
 21
57.1565973403
 72
1
 10
44.8302310623
 20
57.1565973403
 11
44.9333709645
 21
57.0730773324
 72
1
 10
44.9333709645
 20
57.0730773324
 11
45.0272155289
 21
56.9792373236
 72
1
 10
45.0272155289
 20
56.9792373236
 11
45.1107365748
 21
56.8760973139
 72
1
 10
45.1107365748
 20
56.8760973139
 11
45.1830190283
 21
56.7647973034
 72
1
 10
45.1830190283
 20
56.7647973034
 11
45.2432709475
 21
56.6465372923
 72
1
 10
45.2432709475
 20
56.6465372923
 11
45.2908322
 21
56.5226372807
 72
1
 10
45.2908322
 20
56.5226372807
 11
45.3251816945
 21
56.3944472686
 72
1
 10
45.3251816945
 20
56.3944472686
 11
45.345943091
 21
56.2633622563
 72
1
 10
45.345943091
 20
56.2633622563
 11
45.3528889232
 21
56.1308222438
 72
1
 10
45.3528889232
 20
56.1308222438
 11
24.5102931399
 21
55.2245960958
 72
1
 10
24.5102931399
 20
55.2245960958
 11
23.6929701738
 21
55.0746474408
 72
1
 10
23.6929701738
 20
55.0746474408
 11
22.9072856488
 21
54.8040901322
 72
1
 10
22.9072856488
 20
54.8040901322
 11
22.1709301607
 21
54.4190160805
 72
1
 10
22.1709301607
 20
54.4190160805
 11
21.5004836049
 21
53.9280956735
 72
1
 10
21.5004836049
 20
53.9280956735
 11
20.9110418611
 21
53.3423825519
 72
1
 10
20.9110418611
 20
53.3423825519
 11
20.4158768919
 21
52.6750647241
 72
1
 10
20.4158768919
 20
52.6750647241
 11
20.0261379092
 21
51.9411676226
 72
1
 10
20.0261379092
 20
51.9411676226
 11
16.3610861409
 21
43.6666760719
 72
1
 10
16.3610861409
 20
43.6666760719
 11
16.3610861409
 21
56.1308222438
 72
1
 10
16.3610861409
 20
56.1308222438
 11
16.368031973
 21
56.2633622563
 72
1
 10
16.368031973
 20
56.2633622563
 11
16.3887933695
 21
56.3944472686
 72
1
 10
16.3887933695
 20
56.3944472686
 11
16.4231428641
 21
56.5226372807
 72
1
 10
16.4231428641
 20
56.5226372807
 11
16.4707041165
 21
56.6465372923
 72
1
 10
16.4707041165
 20
56.6465372923
 11
16.5309560358
 21
56.7647973034
 72
1
 10
16.5309560358
 20
56.7647973034
 11
16.6032384892
 21
56.8760973139
 72
1
 10
16.6032384892
 20
56.8760973139
 11
16.6867595352
 21
56.9792373236
 72
1
 10
16.6867595352
 20
56.9792373236
 11
16.7806040996
 21
57.0730773324
 72
1
 10
16.7806040996
 20
57.0730773324
 11
16.8837440018
 21
57.1565973403
 72
1
 10
16.8837440018
 20
57.1565973403
 11
16.9950492193
 21
57.2288823471
 72
1
 10
16.9950492193
 20
57.2288823471
 11
17.113300269
 21
57.2891373527
 72
1
 10
17.113300269
 20
57.2891373527
 11
17.2372015677
 21
57.3367023572
 72
1
 10
17.2372015677
 20
57.3367023572
 11
17.3653956267
 21
57.3710523604
 72
1
 10
17.3653956267
 20
57.3710523604
 11
17.4964779251
 21
57.3918123624
 97
1
330
29B
 75
0
 76
1
 98
1
 10
0.0
 20
0.0
  0
LWPOLYLINE
  5
29D
100
AcDbEntity
  8
0
100
AcDbPolyline
 62
2
  6
CONTINUOUS
 90
23
 70
0
 10
26.9669939813
 20
54.9309989471
 10
26.1659444963
 20
55.151954039
 10
45.3528889232
 20
56.1308222438
 10
45.3528889231
 20
43.6666760719
 10
40.1398958888
 20
46.0891912997
 10
40.3656203039
 20
46.5469163427
 10
40.5296686661
 20
47.0301863881
 10
40.6292340626
 20
47.5307364352
 10
40.6626129019
 20
48.0400014831
 10
40.6626129019
 20
54.9622171339
 10
37.9356791535
 20
54.9622171339
 10
35.5863208471
 20
54.9622171339
 10
32.8593870987
 20
54.9622171339
 10
32.8593870987
 20
50.8193667444
 10
31.0149297429
 20
50.8193667444
 10
30.6289655903
 20
49.9949006497
 10
30.5252822719
 20
50.8193667444
 10
27.3941788183
 20
51.3394990511
 10
29.5865173301
 20
52.961744213
 10
29.0506384437
 20
53.5968310176
 10
28.425763901
 20
54.1445839144
 10
27.7259634749
 20
54.5926696135
 10
26.9669939813
 20
54.9309989471
  0
HATCH
  5
29E
100
AcDbEntity
  8
0
100
AcDbHatch
 62
2
  6
CONTINUOUS
 10
0.0
 20
0.0
 30
0.0
210
0.0
220
0.0
230
1.0
  2
SOLID
 70
1
 71
1
 91
1
 92
1
 93
22
 72
1
 10
26.9669939813
 20
54.9309989471
 11
26.1659444963
 21
55.151954039
 72
1
 10
26.1659444963
 20
55.151954039
 11
45.3528889232
 21
56.1308222438
 72
1
 10
45.3528889232
 20
56.1308222438
 11
45.3528889231
 21
43.6666760719
 72
1
 10
45.3528889231
 20
43.6666760719
 11
40.1398958888
 21
46.0891912997
 72
1
 10
40.1398958888
 20
46.0891912997
 11
40.3656203039
 21
46.5469163427
 72
1
 10
40.3656203039
 20
46.5469163427
 11
40.5296686661
 21
47.0301863881
 72
1
 10
40.5296686661
 20
47.0301863881
 11
40.6292340626
 21
47.5307364352
 72
1
 10
40.6292340626
 20
47.5307364352
 11
40.6626129019
 21
48.0400014831
 72
1
 10
40.6626129019
 20
48.0400014831
 11
40.6626129019
 21
54.9622171339
 72
1
 10
40.6626129019
 20
54.9622171339
 11
37.9356791535
 21
54.9622171339
 72
1
 10
37.9356791535
 20
54.9622171339
 11
35.5863208471
 21
54.9622171339
 72
1
 10
35.5863208471
 20
54.9622171339
 11
32.8593870987
 21
54.9622171339
 72
1
 10
32.8593870987
 20
54.9622171339
 11
32.8593870987
 21
50.8193667444
 72
1
 10
32.8593870987
 20
50.8193667444
 11
31.0149297429
 21
50.8193667444
 72
1
 10
31.0149297429
 20
50.8193667444
 11
30.6289655903
 21
49.9949006497
 72
1
 10
30.6289655903
 20
49.9949006497
 11
30.5252822719
 21
50.8193667444
 72
1
 10
30.5252822719
 20
50.8193667444
 11
27.3941788183
 21
51.3394990511
 72
1
 10
27.3941788183
 20
51.3394990511
 11
29.5865173301
 21
52.961744213
 72
1
 10
29.5865173301
 20
52.961744213
 11
29.0506384437
 21
53.5968310176
 72
1
 10
29.0506384437
 20
53.5968310176
 11
28.425763901
 21
54.1445839144
 72
1
 10
28.425763901
 20
54.1445839144
 11
27.7259634749
 21
54.5926696135
 72
1
 10
27.7259634749
 20
54.5926696135
 11
26.9669939813
 21
54.9309989471
 97
1
330
29D
 75
0
 76
1
 98
1
 10
0.0
 20
0.0
  0
LWPOLYLINE
  5
29F
100
AcDbEntity
  8
0
100
AcDbPolyline
 62
2
  6
CONTINUOUS
 90
20
 70
0
 10
24.5005684601
 20
52.4646993247
 10
24.9072650814
 20
52.5224620264
 10
25.3180376874
 20
52.5203318459
 10
25.7241133608
 20
52.4583542776
 10
26.1168194973
 20
52.3378529835
 10
26.4877690273
 20
52.1614015236
 10
26.8290395394
 20
51.9327683916
 10
27.1333424806
 20
51.6568365314
 10
27.3941788183
 20
51.3394990511
 10
30.5252822719
 20
50.8193667444
 10
25.2029961896
 20
50.8193667444
 10
25.0592526925
 20
50.8099494571
 10
22.4413895628
 20
50.6360595011
 10
22.6035508656
 20
51.0134749
 10
22.8189888395
 20
51.3632250264
 10
23.0831023513
 20
51.6778402269
 10
23.3902506985
 20
51.9506012291
 10
23.7338740791
 20
52.175682645
 10
24.1066336894
 20
52.3482773854
 10
24.5005684601
 20
52.4646993247
  0
HATCH
  5
2A0
100
AcDbEntity
  8
0
100
AcDbHatch
 62
2
  6
CONTINUOUS
 10
0.0
 20
0.0
 30
0.0
210
0.0
220
0.0
230
1.0
  2
SOLID
 70
1
 71
1
 91
1
 92
1
 93
19
 72
1
 10
24.5005684601
 20
52.4646993247
 11
24.9072650814
 21
52.5224620264
 72
1
 10
24.9072650814
 20
52.5224620264
 11
25.3180376874
 21
52.5203318459
 72
1
 10
25.3180376874
 20
52.5203318459
 11
25.7241133608
 21
52.4583542776
 72
1
 10
25.7241133608
 20
52.4583542776
 11
26.1168194973
 21
52.3378529835
 72
1
 10
26.1168194973
 20
52.3378529835
 11
26.4877690273
 21
52.1614015236
 72
1
 10
26.4877690273
 20
52.1614015236
 11
26.8290395394
 21
51.9327683916
 72
1
 10
26.8290395394
 20
51.9327683916
 11
27.1333424806
 21
51.6568365314
 72
1
 10
27.1333424806
 20
51.6568365314
 11
27.3941788183
 21
51.3394990511
 72
1
 10
27.3941788183
 20
51.3394990511
 11
30.5252822719
 21
50.8193667444
 72
1
 10
30.5252822719
 20
50.8193667444
 11
25.2029961896
 21
50.8193667444
 72
1
 10
25.2029961896
 20
50.8193667444
 11
25.0592526925
 21
50.8099494571
 72
1
 10
25.0592526925
 20
50.8099494571
 11
22.4413895628
 21
50.6360595011
 72
1
 10
22.4413895628
 20
50.6360595011
 11
22.6035508656
 21
51.0134749
 72
1
 10
22.6035508656
 20
51.0134749
 11
22.8189888395
 21
51.3632250264
 72
1
 10
22.8189888395
 20
51.3632250264
 11
23.0831023513
 21
51.6778402269
 72
1
 10
23.0831023513
 20
51.6778402269
 11
23.3902506985
 21
51.9506012291
 72
1
 10
23.3902506985
 20
51.9506012291
 11
23.7338740791
 21
52.175682645
 72
1
 10
23.7338740791
 20
52.175682645
 11
24.1066336894
 21
52.3482773854
 72
1
 10
24.1066336894
 20
52.3482773854
 11
24.5005684601
 21
52.4646993247
 97
1
330
29F
 75
0
 76
1
 98
1
 10
0.0
 20
0.0
  0
LWPOLYLINE
  5
2A1
100
AcDbEntity
  8
0
100
AcDbPolyline
 62
2
  6
CONTINUOUS
 90
8
 70
0
 10
24.6523653366
 20
50.6718298112
 10
24.5325905397
 20
50.5917988506
 10
22.3359682285
 20
50.2390393331
 10
22.4413895628
 20
50.6360595011
 10
25.0592526925
 20
50.8099494571
 10
24.9179686864
 20
50.7818463209
 10
24.78156158
 20
50.7355423477
 10
24.6523653366
 20
50.6718298112
  0
HATCH
  5
2A2
100
AcDbEntity
  8
0
100
AcDbHatch
 62
2
  6
CONTINUOUS
 10
0.0
 20
0.0
 30
0.0
210
0.0
220
0.0
230
1.0
  2
SOLID
 70
1
 71
1
 91
1
 92
1
 93
7
 72
1
 10
24.6523653366
 20
50.6718298112
 11
24.5325905397
 21
50.5917988506
 72
1
 10
24.5325905397
 20
50.5917988506
 11
22.3359682285
 21
50.2390393331
 72
1
 10
22.3359682285
 20
50.2390393331
 11
22.4413895628
 21
50.6360595011
 72
1
 10
22.4413895628
 20
50.6360595011
 11
25.0592526925
 21
50.8099494571
 72
1
 10
25.0592526925
 20
50.8099494571
 11
24.9179686864
 21
50.7818463209
 72
1
 10
24.9179686864
 20
50.7818463209
 11
24.78156158
 21
50.7355423477
 72
1
 10
24.78156158
 20
50.7355423477
 11
24.6523653366
 21
50.6718298112
 97
1
330
2A1
 75
0
 76
1
 98
1
 10
0.0
 20
0.0
  0
LWPOLYLINE
  5
2A3
100
AcDbEntity
  8
0
100
AcDbPolyline
 62
2
  6
CONTINUOUS
 90
8
 70
0
 10
24.2492755759
 20
50.2687400506
 10
24.1855630394
 20
50.1395438071
 10
22.2895383581
 20
49.830893601
 10
22.3359682285
 20
50.2390393331
 10
24.5325905397
 20
50.5917988506
 10
24.4242865694
 20
50.4968188178
 10
24.3293065366
 20
50.3885148474
 10
24.2492755759
 20
50.2687400506
  0
HATCH
  5
2A4
100
AcDbEntity
  8
0
100
AcDbHatch
 62
2
  6
CONTINUOUS
 10
0.0
 20
0.0
 30
0.0
210
0.0
220
0.0
230
1.0
  2
SOLID
 70
1
 71
1
 91
1
 92
1
 93
7
 72
1
 10
24.2492755759
 20
50.2687400506
 11
24.1855630394
 21
50.1395438071
 72
1
 10
24.1855630394
 20
50.1395438071
 11
22.2895383581
 21
49.830893601
 72
1
 10
22.2895383581
 20
49.830893601
 11
22.3359682285
 21
50.2390393331
 72
1
 10
22.3359682285
 20
50.2390393331
 11
24.5325905397
 21
50.5917988506
 72
1
 10
24.5325905397
 20
50.5917988506
 11
24.4242865694
 21
50.4968188178
 72
1
 10
24.4242865694
 20
50.4968188178
 11
24.3293065366
 21
50.3885148474
 72
1
 10
24.3293065366
 20
50.3885148474
 11
24.2492755759
 21
50.2687400506
 97
1
330
2A3
 75
0
 76
1
 98
1
 10
0.0
 20
0.0
  0
LWPOLYLINE
  5
2A5
100
AcDbEntity
  8
0
100
AcDbPolyline
 62
2
  6
CONTINUOUS
 90
7
 70
0
 10
31.0993048012
 20
50.1923388153
 10
31.1162282192
 20
49.8763366836
 10
30.6081153911
 20
49.1641981161
 10
30.6289655903
 20
49.9949006497
 10
31.0149297429
 20
50.8193667444
 10
31.0655063992
 20
50.5069837221
 10
31.0993048012
 20
50.1923388153
  0
HATCH
  5
2A6
100
AcDbEntity
  8
0
100
AcDbHatch
 62
2
  6
CONTINUOUS
 10
0.0
 20
0.0
 30
0.0
210
0.0
220
0.0
230
1.0
  2
SOLID
 70
1
 71
1
 91
1
 92
1
 93
6
 72
1
 10
31.0993048012
 20
50.1923388153
 11
31.1162282192
 21
49.8763366836
 72
1
 10
31.1162282192
 20
49.8763366836
 11
30.6081153911
 21
49.1641981161
 72
1
 10
30.6081153911
 20
49.1641981161
 11
30.6289655903
 21
49.9949006497
 72
1
 10
30.6289655903
 20
49.9949006497
 11
31.0149297429
 21
50.8193667444
 72
1
 10
31.0149297429
 20
50.8193667444
 11
31.0655063992
 21
50.5069837221
 72
1
 10
31.0655063992
 20
50.5069837221
 11
31.0993048012
 21
50.1923388153
 97
1
330
2A5
 75
0
 76
1
 98
1
 10
0.0
 20
0.0
  0
LWPOLYLINE
  5
2A7
100
AcDbEntity
  8
0
100
AcDbPolyline
 62
2
  6
CONTINUOUS
 90
7
 70
0
 10
24.1111559301
 20
49.8618526947
 10
24.1017344835
 20
49.7181091975
 10
22.3030915597
 20
49.4203391196
 10
22.2895383581
 20
49.830893601
 10
24.1855630394
 20
50.1395438071
 10
24.1392590662
 20
50.0031367007
 10
24.1111559301
 20
49.8618526947
  0
HATCH
  5
2A8
100
AcDbEntity
  8
0
100
AcDbHatch
 62
2
  6
CONTINUOUS
 10
0.0
 20
0.0
 30
0.0
210
0.0
220
0.0
230
1.0
  2
SOLID
 70
1
 71
1
 91
1
 92
1
 93
6
 72
1
 10
24.1111559301
 20
49.8618526947
 11
24.1017344835
 21
49.7181091975
 72
1
 10
24.1017344835
 20
49.7181091975
 11
22.3030915597
 21
49.4203391196
 72
1
 10
22.3030915597
 20
49.4203391196
 11
22.2895383581
 21
49.830893601
 72
1
 10
22.2895383581
 20
49.830893601
 11
24.1855630394
 21
50.1395438071
 72
1
 10
24.1855630394
 20
50.1395438071
 11
24.1392590662
 21
50.0031367007
 72
1
 10
24.1392590662
 20
50.0031367007
 11
24.1111559301
 21
49.8618526947
 97
1
330
2A7
 75
0
 76
1
 98
1
 10
0.0
 20
0.0
  0
LWPOLYLINE
  5
2A9
100
AcDbEntity
  8
0
100
AcDbPolyline
 62
2
  6
CONTINUOUS
 90
7
 70
0
 10
24.1392590662
 20
49.4330816944
 10
24.1855630394
 20
49.2966745879
 10
22.3763383759
 20
49.0161441476
 10
22.3030915597
 20
49.4203391196
 10
24.1017344835
 20
49.7181091975
 10
24.1111559301
 20
49.5743657004
 10
24.1392590662
 20
49.4330816944
  0
HATCH
  5
2AA
100
AcDbEntity
  8
0
100
AcDbHatch
 62
2
  6
CONTINUOUS
 10
0.0
 20
0.0
 30
0.0
210
0.0
220
0.0
230
1.0
  2
SOLID
 70
1
 71
1
 91
1
 92
1
 93
6
 72
1
 10
24.1392590662
 20
49.4330816944
 11
24.1855630394
 21
49.2966745879
 72
1
 10
24.1855630394
 20
49.2966745879
 11
22.3763383759
 21
49.0161441476
 72
1
 10
22.3763383759
 20
49.0161441476
 11
22.3030915597
 21
49.4203391196
 72
1
 10
22.3030915597
 20
49.4203391196
 11
24.1017344835
 21
49.7181091975
 72
1
 10
24.1017344835
 20
49.7181091975
 11
24.1111559301
 21
49.5743657004
 72
1
 10
24.1111559301
 20
49.5743657004
 11
24.1392590662
 21
49.4330816944
 97
1
330
2A9
 75
0
 76
1
 98
1
 10
0.0
 20
0.0
  0
LWPOLYLINE
  5
2AB
100
AcDbEntity
  8
0
100
AcDbPolyline
 62
2
  6
CONTINUOUS
 90
7
 70
0
 10
31.0993048012
 20
49.2438795798
 10
31.0655063992
 20
48.929234673
 10
30.4632011408
 20
48.3459675312
 10
30.6081153911
 20
49.1641981161
 10
31.1162282192
 20
49.8763366836
 10
31.1162282192
 20
49.5598817115
 10
31.0993048012
 20
49.2438795798
  0
HATCH
  5
2AC
100
AcDbEntity
  8
0
100
AcDbHatch
 62
2
  6
CONTINUOUS
 10
0.0
 20
0.0
 30
0.0
210
0.0
220
0.0
230
1.0
  2
SOLID
 70
1
 71
1
 91
1
 92
1
 93
6
 72
1
 10
31.0993048012
 20
49.2438795798
 11
31.0655063992
 21
48.929234673
 72
1
 10
31.0655063992
 20
48.929234673
 11
30.4632011408
 21
48.3459675312
 72
1
 10
30.4632011408
 20
48.3459675312
 11
30.6081153911
 21
49.1641981161
 72
1
 10
30.6081153911
 20
49.1641981161
 11
31.1162282192
 21
49.8763366836
 72
1
 10
31.1162282192
 20
49.8763366836
 11
31.1162282192
 21
49.5598817115
 72
1
 10
31.1162282192
 20
49.5598817115
 11
31.0993048012
 21
49.2438795798
 97
1
330
2AB
 75
0
 76
1
 98
1
 10
0.0
 20
0.0
  0
LWPOLYLINE
  5
2AD
100
AcDbEntity
  8
0
100
AcDbPolyline
 62
2
  6
CONTINUOUS
 90
7
 70
0
 10
24.3293065366
 20
49.0477035476
 10
24.4242865694
 20
48.9393995773
 10
22.5077144663
 20
48.6269411229
 10
22.3763383759
 20
49.0161441476
 10
24.1855630394
 20
49.2966745879
 10
24.2492755759
 20
49.1674783445
 10
24.3293065366
 20
49.0477035476
  0
HATCH
  5
2AE
100
AcDbEntity
  8
0
100
AcDbHatch
 62
2
  6
CONTINUOUS
 10
0.0
 20
0.0
 30
0.0
210
0.0
220
0.0
230
1.0
  2
SOLID
 70
1
 71
1
 91
1
 92
1
 93
6
 72
1
 10
24.3293065366
 20
49.0477035476
 11
24.4242865694
 21
48.9393995773
 72
1
 10
24.4242865694
 20
48.9393995773
 11
22.5077144663
 21
48.6269411229
 72
1
 10
22.5077144663
 20
48.6269411229
 11
22.3763383759
 21
49.0161441476
 72
1
 10
22.3763383759
 20
49.0161441476
 11
24.1855630394
 21
49.2966745879
 72
1
 10
24.1855630394
 20
49.2966745879
 11
24.2492755759
 21
49.1674783445
 72
1
 10
24.2492755759
 20
49.1674783445
 11
24.3293065366
 21
49.0477035476
 97
1
330
2AD
 75
0
 76
1
 98
1
 10
0.0
 20
0.0
  0
LWPOLYLINE
  5
2AF
100
AcDbEntity
  8
0
100
AcDbPolyline
 62
2
  6
CONTINUOUS
 90
9
 70
0
 10
24.9179686864
 20
48.6543720741
 10
25.0592526925
 20
48.626268938
 10
22.6944140166
 20
48.2610422989
 10
22.5077144663
 20
48.6269411229
 10
24.4242865694
 20
48.9393995773
 10
24.5325905397
 20
48.8444195445
 10
24.6523653366
 20
48.7643885839
 10
24.78156158
 20
48.7006760474
 10
24.9179686864
 20
48.6543720741
  0
HATCH
  5
2B0
100
AcDbEntity
  8
0
100
AcDbHatch
 62
2
  6
CONTINUOUS
 10
0.0
 20
0.0
 30
0.0
210
0.0
220
0.0
230
1.0
  2
SOLID
 70
1
 71
1
 91
1
 92
1
 93
8
 72
1
 10
24.9179686864
 20
48.6543720741
 11
25.0592526925
 21
48.626268938
 72
1
 10
25.0592526925
 20
48.626268938
 11
22.6944140166
 21
48.2610422989
 72
1
 10
22.6944140166
 20
48.2610422989
 11
22.5077144663
 21
48.6269411229
 72
1
 10
22.5077144663
 20
48.6269411229
 11
24.4242865694
 21
48.9393995773
 72
1
 10
24.4242865694
 20
48.9393995773
 11
24.5325905397
 21
48.8444195445
 72
1
 10
24.5325905397
 20
48.8444195445
 11
24.6523653366
 21
48.7643885839
 72
1
 10
24.6523653366
 20
48.7643885839
 11
24.78156158
 21
48.7006760474
 72
1
 10
24.78156158
 20
48.7006760474
 11
24.9179686864
 21
48.6543720741
 97
1
330
2AF
 75
0
 76
1
 98
1
 10
0.0
 20
0.0
  0
LWPOLYLINE
  5
2B1
100
AcDbEntity
  8
0
100
AcDbPolyline
 62
2
  6
CONTINUOUS
 90
9
 70
0
 10
32.8593870987
 20
48.6168415373
 10
32.8593870987
 20
48.0400014831
 10
32.8927659379
 20
47.5307364352
 10
29.8169521117
 20
46.8199201942
 10
30.1974857512
 20
47.5586323028
 10
30.4632011408
 20
48.3459675312
 10
31.0655063992
 20
48.929234673
 10
31.0149297429
 20
48.6168415373
 10
32.8593870987
 20
48.6168415373
  0
HATCH
  5
2B2
100
AcDbEntity
  8
0
100
AcDbHatch
 62
2
  6
CONTINUOUS
 10
0.0
 20
0.0
 30
0.0
210
0.0
220
0.0
230
1.0
  2
SOLID
 70
1
 71
1
 91
1
 92
1
 93
8
 72
1
 10
32.8593870987
 20
48.6168415373
 11
32.8593870987
 21
48.0400014831
 72
1
 10
32.8593870987
 20
48.0400014831
 11
32.8927659379
 21
47.5307364352
 72
1
 10
32.8927659379
 20
47.5307364352
 11
29.8169521117
 21
46.8199201942
 72
1
 10
29.8169521117
 20
46.8199201942
 11
30.1974857512
 21
47.5586323028
 72
1
 10
30.1974857512
 20
47.5586323028
 11
30.4632011408
 21
48.3459675312
 72
1
 10
30.4632011408
 20
48.3459675312
 11
31.0655063992
 21
48.929234673
 72
1
 10
31.0655063992
 20
48.929234673
 11
31.0149297429
 21
48.6168415373
 72
1
 10
31.0149297429
 20
48.6168415373
 11
32.8593870987
 21
48.6168415373
 97
1
330
2B1
 75
0
 76
1
 98
1
 10
0.0
 20
0.0
  0
LWPOLYLINE
  5
2B3
100
AcDbEntity
  8
0
100
AcDbPolyline
 62
2
  6
CONTINUOUS
 90
19
 70
0
 10
27.6842387906
 20
48.6168415373
 10
27.4961137435
 20
48.2516795326
 10
27.2567743458
 20
47.9178302789
 10
26.9713321963
 20
47.6224297867
 10
26.6458835153
 20
47.3717869581
 10
26.2873789475
 20
47.1712548002
 10
25.9034751155
 20
47.0251161014
 10
25.5023710973
 20
46.9364919623
 10
25.0926333168
 20
46.9072751387
 10
24.6830125906
 20
46.9380896178
 10
24.2822572349
 20
47.0282772912
 10
23.8989262276
 20
47.1759120104
 10
23.5412064125
 20
47.377840724
 10
23.2167376524
 20
47.6297508175
 10
22.9324496635
 20
47.9262622184
 10
22.6944140166
 20
48.2610422989
 10
25.0592526925
 20
48.626268938
 10
25.2029961896
 20
48.6168415373
 10
27.6842387906
 20
48.6168415373
  0
HATCH
  5
2B4
100
AcDbEntity
  8
0
100
AcDbHatch
 62
2
  6
CONTINUOUS
 10
0.0
 20
0.0
 30
0.0
210
0.0
220
0.0
230
1.0
  2
SOLID
 70
1
 71
1
 91
1
 92
1
 93
18
 72
1
 10
27.6842387906
 20
48.6168415373
 11
27.4961137435
 21
48.2516795326
 72
1
 10
27.4961137435
 20
48.2516795326
 11
27.2567743458
 21
47.9178302789
 72
1
 10
27.2567743458
 20
47.9178302789
 11
26.9713321963
 21
47.6224297867
 72
1
 10
26.9713321963
 20
47.6224297867
 11
26.6458835153
 21
47.3717869581
 72
1
 10
26.6458835153
 20
47.3717869581
 11
26.2873789475
 21
47.1712548002
 72
1
 10
26.2873789475
 20
47.1712548002
 11
25.9034751155
 21
47.0251161014
 72
1
 10
25.9034751155
 20
47.0251161014
 11
25.5023710973
 21
46.9364919623
 72
1
 10
25.5023710973
 20
46.9364919623
 11
25.0926333168
 21
46.9072751387
 72
1
 10
25.0926333168
 20
46.9072751387
 11
24.6830125906
 21
46.9380896178
 72
1
 10
24.6830125906
 20
46.9380896178
 11
24.2822572349
 21
47.0282772912
 72
1
 10
24.2822572349
 20
47.0282772912
 11
23.8989262276
 21
47.1759120104
 72
1
 10
23.8989262276
 20
47.1759120104
 11
23.5412064125
 21
47.377840724
 72
1
 10
23.5412064125
 20
47.377840724
 11
23.2167376524
 21
47.6297508175
 72
1
 10
23.2167376524
 20
47.6297508175
 11
22.9324496635
 21
47.9262622184
 72
1
 10
22.9324496635
 20
47.9262622184
 11
22.6944140166
 21
48.2610422989
 72
1
 10
22.6944140166
 20
48.2610422989
 11
25.0592526925
 21
48.626268938
 72
1
 10
25.0592526925
 20
48.626268938
 11
25.2029961896
 21
48.6168415373
 72
1
 10
25.2029961896
 20
48.6168415373
 11
27.6842387906
 21
48.6168415373
 97
1
330
2B3
 75
0
 76
1
 98
1
 10
0.0
 20
0.0
  0
LWPOLYLINE
  5
2B5
100
AcDbEntity
  8
0
100
AcDbPolyline
 62
2
  6
CONTINUOUS
 90
28
 70
0
 10
35.5863208471
 20
48.0400014831
 10
35.5863208471
 20
54.9622171339
 10
37.9356791535
 20
54.9622171339
 10
37.9356791535
 20
48.0400014831
 10
37.9256296104
 20
47.8866714687
 10
37.8956529319
 20
47.7359664545
 10
37.8462620271
 20
47.5904664408
 10
37.7783019882
 20
47.4526614279
 10
37.6929356302
 20
47.3248914159
 10
37.5916235952
 20
47.209376405
 10
37.4760993602
 20
47.1080663955
 10
37.3483395768
 20
47.0227013874
 10
37.2105302505
 20
46.9547363811
 10
37.065029337
 20
46.9053413764
 10
36.9143263972
 20
46.8753713736
 10
36.7610000003
 20
46.8653169684
 10
36.6076736033
 20
46.8753713736
 10
36.4569706635
 20
46.9053413764
 10
36.31146975
 20
46.9547363811
 10
36.1736604237
 20
47.0227013874
 10
36.0459006404
 20
47.1080663955
 10
35.9303764053
 20
47.209376405
 10
35.8290643703
 20
47.3248914159
 10
35.7436980123
 20
47.4526614279
 10
35.6757379734
 20
47.5904664408
 10
35.6263470686
 20
47.7359664545
 10
35.5963703901
 20
47.8866714687
 10
35.5863208471
 20
48.0400014831
  0
HATCH
  5
2B6
100
AcDbEntity
  8
0
100
AcDbHatch
 62
2
  6
CONTINUOUS
 10
0.0
 20
0.0
 30
0.0
210
0.0
220
0.0
230
1.0
  2
SOLID
 70
1
 71
1
 91
1
 92
1
 93
27
 72
1
 10
35.5863208471
 20
48.0400014831
 11
35.5863208471
 21
54.9622171339
 72
1
 10
35.5863208471
 20
54.9622171339
 11
37.9356791535
 21
54.9622171339
 72
1
 10
37.9356791535
 20
54.9622171339
 11
37.9356791535
 21
48.0400014831
 72
1
 10
37.9356791535
 20
48.0400014831
 11
37.9256296104
 21
47.8866714687
 72
1
 10
37.9256296104
 20
47.8866714687
 11
37.8956529319
 21
47.7359664545
 72
1
 10
37.8956529319
 20
47.7359664545
 11
37.8462620271
 21
47.5904664408
 72
1
 10
37.8462620271
 20
47.5904664408
 11
37.7783019882
 21
47.4526614279
 72
1
 10
37.7783019882
 20
47.4526614279
 11
37.6929356302
 21
47.3248914159
 72
1
 10
37.6929356302
 20
47.3248914159
 11
37.5916235952
 21
47.209376405
 72
1
 10
37.5916235952
 20
47.209376405
 11
37.4760993602
 21
47.1080663955
 72
1
 10
37.4760993602
 20
47.1080663955
 11
37.3483395768
 21
47.0227013874
 72
1
 10
37.3483395768
 20
47.0227013874
 11
37.2105302505
 21
46.9547363811
 72
1
 10
37.2105302505
 20
46.9547363811
 11
37.065029337
 21
46.9053413764
 72
1
 10
37.065029337
 20
46.9053413764
 11
36.9143263972
 21
46.8753713736
 72
1
 10
36.9143263972
 20
46.8753713736
 11
36.7610000003
 21
46.8653169684
 72
1
 10
36.7610000003
 20
46.8653169684
 11
36.6076736033
 21
46.8753713736
 72
1
 10
36.6076736033
 20
46.8753713736
 11
36.4569706635
 21
46.9053413764
 72
1
 10
36.4569706635
 20
46.9053413764
 11
36.31146975
 21
46.9547363811
 72
1
 10
36.31146975
 20
46.9547363811
 11
36.1736604237
 21
47.0227013874
 72
1
 10
36.1736604237
 20
47.0227013874
 11
36.0459006404
 21
47.1080663955
 72
1
 10
36.0459006404
 20
47.1080663955
 11
35.9303764053
 21
47.209376405
 72
1
 10
35.9303764053
 20
47.209376405
 11
35.8290643703
 21
47.3248914159
 72
1
 10
35.8290643703
 20
47.3248914159
 11
35.7436980123
 21
47.4526614279
 72
1
 10
35.7436980123
 20
47.4526614279
 11
35.6757379734
 21
47.5904664408
 72
1
 10
35.6757379734
 20
47.5904664408
 11
35.6263470686
 21
47.7359664545
 72
1
 10
35.6263470686
 20
47.7359664545
 11
35.5963703901
 21
47.8866714687
 72
1
 10
35.5963703901
 20
47.8866714687
 11
35.5863208471
 21
48.0400014831
 97
1
330
2B5
 75
0
 76
1
 98
1
 10
0.0
 20
0.0
  0
LWPOLYLINE
  5
2B7
100
AcDbEntity
  8
0
100
AcDbPolyline
 62
2
  6
CONTINUOUS
 90
8
 70
0
 10
32.9923313344
 20
47.0301863881
 10
33.1563796967
 20
46.5469163427
 10
33.3821041117
 20
46.0891912997
 10
28.7480950465
 20
45.5534278506
 10
29.3301683772
 20
46.146464163
 10
29.8169521117
 20
46.8199201942
 10
32.8927659379
 20
47.5307364352
 10
32.9923313344
 20
47.0301863881
  0
HATCH
  5
2B8
100
AcDbEntity
  8
0
100
AcDbHatch
 62
2
  6
CONTINUOUS
 10
0.0
 20
0.0
 30
0.0
210
0.0
220
0.0
230
1.0
  2
SOLID
 70
1
 71
1
 91
1
 92
1
 93
7
 72
1
 10
32.9923313344
 20
47.0301863881
 11
33.1563796967
 21
46.5469163427
 72
1
 10
33.1563796967
 20
46.5469163427
 11
33.3821041117
 21
46.0891912997
 72
1
 10
33.3821041117
 20
46.0891912997
 11
28.7480950465
 21
45.5534278506
 72
1
 10
28.7480950465
 20
45.5534278506
 11
29.3301683772
 21
46.146464163
 72
1
 10
29.3301683772
 20
46.146464163
 11
29.8169521117
 21
46.8199201942
 72
1
 10
29.8169521117
 20
46.8199201942
 11
32.8927659379
 21
47.5307364352
 72
1
 10
32.8927659379
 20
47.5307364352
 11
32.9923313344
 21
47.0301863881
 97
1
330
2B7
 75
0
 76
1
 98
1
 10
0.0
 20
0.0
  0
LWPOLYLINE
  5
2B9
100
AcDbEntity
  8
0
100
AcDbPolyline
 62
2
  6
CONTINUOUS
 90
8
 70
0
 10
33.6656423722
 20
45.6648412598
 10
34.00214306
 20
45.2811412237
 10
34.3858485548
 20
44.9446311921
 10
27.3523542712
 20
44.659914577
 10
28.0838381739
 20
45.0541641554
 10
28.7480950465
 20
45.5534278506
 10
33.3821041117
 20
46.0891912997
 10
33.6656423722
 20
45.6648412598
  0
HATCH
  5
2BA
100
AcDbEntity
  8
0
100
AcDbHatch
 62
2
  6
CONTINUOUS
 10
0.0
 20
0.0
 30
0.0
210
0.0
220
0.0
230
1.0
  2
SOLID
 70
1
 71
1
 91
1
 92
1
 93
7
 72
1
 10
33.6656423722
 20
45.6648412598
 11
34.00214306
 21
45.2811412237
 72
1
 10
34.00214306
 20
45.2811412237
 11
34.3858485548
 21
44.9446311921
 72
1
 10
34.3858485548
 20
44.9446311921
 11
27.3523542712
 21
44.659914577
 72
1
 10
27.3523542712
 20
44.659914577
 11
28.0838381739
 21
45.0541641554
 72
1
 10
28.0838381739
 20
45.0541641554
 11
28.7480950465
 21
45.5534278506
 72
1
 10
28.7480950465
 20
45.5534278506
 11
33.3821041117
 21
46.0891912997
 72
1
 10
33.3821041117
 20
46.0891912997
 11
33.6656423722
 21
45.6648412598
 97
1
330
2B9
 75
0
 76
1
 98
1
 10
0.0
 20
0.0
  0
LWPOLYLINE
  5
2BB
100
AcDbEntity
  8
0
100
AcDbPolyline
 62
2
  6
CONTINUOUS
 90
24
 70
0
 10
34.8101935494
 20
44.6611011654
 10
35.2679173833
 20
44.4353811442
 10
35.7511882747
 20
44.2713261287
 10
36.2517373247
 20
44.1717561194
 10
16.3610861409
 20
43.6666760719
 10
20.0261379092
 20
51.9411676226
 10
19.750600337
 20
51.1572157897
 10
19.5954682224
 20
50.3408608074
 10
19.5642345443
 20
49.5104838523
 10
19.6576025652
 20
48.684781822
 10
19.8734699961
 20
47.8823463527
 10
20.2069763321
 20
47.121245207
 10
20.6506122924
 20
46.4186154575
 10
21.1943889001
 20
45.7902776256
 10
21.8260623961
 20
45.2503794643
 10
22.5314099211
 20
44.8110774052
 10
23.2945497596
 20
44.4822628421
 10
24.0982989358
 20
44.2713261287
 10
24.9245601072
 20
44.1830563096
 10
25.754729048
 20
44.2194013213
 10
26.5701135443
 20
44.3795561005
 10
27.3523542712
 20
44.659914577
 10
34.3858485548
 20
44.9446311921
 10
34.8101935494
 20
44.6611011654
  0
HATCH
  5
2BC
100
AcDbEntity
  8
0
100
AcDbHatch
 62
2
  6
CONTINUOUS
 10
0.0
 20
0.0
 30
0.0
210
0.0
220
0.0
230
1.0
  2
SOLID
 70
1
 71
1
 91
1
 92
1
 93
23
 72
1
 10
34.8101935494
 20
44.6611011654
 11
35.2679173833
 21
44.4353811442
 72
1
 10
35.2679173833
 20
44.4353811442
 11
35.7511882747
 21
44.2713261287
 72
1
 10
35.7511882747
 20
44.2713261287
 11
36.2517373247
 21
44.1717561194
 72
1
 10
36.2517373247
 20
44.1717561194
 11
16.3610861409
 21
43.6666760719
 72
1
 10
16.3610861409
 20
43.6666760719
 11
20.0261379092
 21
51.9411676226
 72
1
 10
20.0261379092
 20
51.9411676226
 11
19.750600337
 21
51.1572157897
 72
1
 10
19.750600337
 20
51.1572157897
 11
19.5954682224
 21
50.3408608074
 72
1
 10
19.5954682224
 20
50.3408608074
 11
19.5642345443
 21
49.5104838523
 72
1
 10
19.5642345443
 20
49.5104838523
 11
19.6576025652
 21
48.684781822
 72
1
 10
19.6576025652
 20
48.684781822
 11
19.8734699961
 21
47.8823463527
 72
1
 10
19.8734699961
 20
47.8823463527
 11
20.2069763321
 21
47.121245207
 72
1
 10
20.2069763321
 20
47.121245207
 11
20.6506122924
 21
46.4186154575
 72
1
 10
20.6506122924
 20
46.4186154575
 11
21.1943889001
 21
45.7902776256
 72
1
 10
21.1943889001
 20
45.7902776256
 11
21.8260623961
 21
45.2503794643
 72
1
 10
21.8260623961
 20
45.2503794643
 11
22.5314099211
 21
44.8110774052
 72
1
 10
22.5314099211
 20
44.8110774052
 11
23.2945497596
 21
44.4822628421
 72
1
 10
23.2945497596
 20
44.4822628421
 11
24.0982989358
 21
44.2713261287
 72
1
 10
24.0982989358
 20
44.2713261287
 11
24.9245601072
 21
44.1830563096
 72
1
 10
24.9245601072
 20
44.1830563096
 11
25.754729048
 21
44.2194013213
 72
1
 10
25.754729048
 20
44.2194013213
 11
26.5701135443
 21
44.3795561005
 72
1
 10
26.5701135443
 20
44.3795561005
 11
27.3523542712
 21
44.659914577
 72
1
 10
27.3523542712
 20
44.659914577
 11
34.3858485548
 21
44.9446311921
 72
1
 10
34.3858485548
 20
44.9446311921
 11
34.8101935494
 21
44.6611011654
 97
1
330
2BB
 75
0
 76
1
 98
1
 10
0.0
 20
0.0
  0
LWPOLYLINE
  5
2BD
100
AcDbEntity
  8
0
100
AcDbPolyline
 62
2
  6
CONTINUOUS
 90
43
 70
0
 10
36.7610000003
 20
44.13838322
 10
37.2702626758
 20
44.1717561194
 10
37.7708117258
 20
44.2713261287
 10
38.2540826172
 20
44.4353811442
 10
38.7118064511
 20
44.6611011654
 10
39.1361514457
 20
44.9446311921
 10
39.5198569406
 20
45.2811412237
 10
39.8563576283
 20
45.6648412598
 10
40.1398958888
 20
46.0891912997
 10
45.3528889231
 20
43.6666760719
 10
45.345943091
 20
43.5341510594
 10
45.3251816945
 20
43.4030660471
 10
45.2908322
 20
43.2748610351
 10
45.2432709475
 20
43.1509610234
 10
45.1830190283
 20
43.0327160123
 10
45.1107365748
 20
42.9214160018
 10
45.0272155289
 20
42.8182759921
 10
44.9333709645
 20
42.7244209833
 10
44.8302310623
 20
42.6409009754
 10
44.7189258447
 20
42.5686159687
 10
44.600674795
 20
42.508375963
 10
44.4767734964
 20
42.4608109585
 10
44.3485794374
 20
42.4264609553
 10
44.217497139
 20
42.4057009533
 10
44.0849627663
 20
42.3987559527
 10
17.6290122978
 20
42.3987559527
 10
17.4964779251
 20
42.4057009533
 10
17.3653956267
 20
42.4264609553
 10
17.2372015677
 20
42.4608109585
 10
17.113300269
 20
42.508375963
 10
16.9950492193
 20
42.5686159687
 10
16.8837440018
 20
42.6409009754
 10
16.7806040996
 20
42.7244209833
 10
16.6867595352
 20
42.8182759921
 10
16.6032384892
 20
42.9214160018
 10
16.5309560358
 20
43.0327160123
 10
16.4707041165
 20
43.1509610234
 10
16.4231428641
 20
43.2748610351
 10
16.3887933695
 20
43.4030660471
 10
16.368031973
 20
43.5341510594
 10
16.3610861409
 20
43.6666760719
 10
36.2517373247
 20
44.1717561194
 10
36.7610000003
 20
44.13838322
  0
HATCH
  5
2BE
100
AcDbEntity
  8
0
100
AcDbHatch
 62
2
  6
CONTINUOUS
 10
0.0
 20
0.0
 30
0.0
210
0.0
220
0.0
230
1.0
  2
SOLID
 70
1
 71
1
 91
1
 92
1
 93
42
 72
1
 10
36.7610000003
 20
44.13838322
 11
37.2702626758
 21
44.1717561194
 72
1
 10
37.2702626758
 20
44.1717561194
 11
37.7708117258
 21
44.2713261287
 72
1
 10
37.7708117258
 20
44.2713261287
 11
38.2540826172
 21
44.4353811442
 72
1
 10
38.2540826172
 20
44.4353811442
 11
38.7118064511
 21
44.6611011654
 72
1
 10
38.7118064511
 20
44.6611011654
 11
39.1361514457
 21
44.9446311921
 72
1
 10
39.1361514457
 20
44.9446311921
 11
39.5198569406
 21
45.2811412237
 72
1
 10
39.5198569406
 20
45.2811412237
 11
39.8563576283
 21
45.6648412598
 72
1
 10
39.8563576283
 20
45.6648412598
 11
40.1398958888
 21
46.0891912997
 72
1
 10
40.1398958888
 20
46.0891912997
 11
45.3528889231
 21
43.6666760719
 72
1
 10
45.3528889231
 20
43.6666760719
 11
45.345943091
 21
43.5341510594
 72
1
 10
45.345943091
 20
43.5341510594
 11
45.3251816945
 21
43.4030660471
 72
1
 10
45.3251816945
 20
43.4030660471
 11
45.2908322
 21
43.2748610351
 72
1
 10
45.2908322
 20
43.2748610351
 11
45.2432709475
 21
43.1509610234
 72
1
 10
45.2432709475
 20
43.1509610234
 11
45.1830190283
 21
43.0327160123
 72
1
 10
45.1830190283
 20
43.0327160123
 11
45.1107365748
 21
42.9214160018
 72
1
 10
45.1107365748
 20
42.9214160018
 11
45.0272155289
 21
42.8182759921
 72
1
 10
45.0272155289
 20
42.8182759921
 11
44.9333709645
 21
42.7244209833
 72
1
 10
44.9333709645
 20
42.7244209833
 11
44.8302310623
 21
42.6409009754
 72
1
 10
44.8302310623
 20
42.6409009754
 11
44.7189258447
 21
42.5686159687
 72
1
 10
44.7189258447
 20
42.5686159687
 11
44.600674795
 21
42.508375963
 72
1
 10
44.600674795
 20
42.508375963
 11
44.4767734964
 21
42.4608109585
 72
1
 10
44.4767734964
 20
42.4608109585
 11
44.3485794374
 21
42.4264609553
 72
1
 10
44.3485794374
 20
42.4264609553
 11
44.217497139
 21
42.4057009533
 72
1
 10
44.217497139
 20
42.4057009533
 11
44.0849627663
 21
42.3987559527
 72
1
 10
44.0849627663
 20
42.3987559527
 11
17.6290122978
 21
42.3987559527
 72
1
 10
17.6290122978
 20
42.3987559527
 11
17.4964779251
 21
42.4057009533
 72
1
 10
17.4964779251
 20
42.4057009533
 11
17.3653956267
 21
42.4264609553
 72
1
 10
17.3653956267
 20
42.4264609553
 11
17.2372015677
 21
42.4608109585
 72
1
 10
17.2372015677
 20
42.4608109585
 11
17.113300269
 21
42.508375963
 72
1
 10
17.113300269
 20
42.508375963
 11
16.9950492193
 21
42.5686159687
 72
1
 10
16.9950492193
 20
42.5686159687
 11
16.8837440018
 21
42.6409009754
 72
1
 10
16.8837440018
 20
42.6409009754
 11
16.7806040996
 21
42.7244209833
 72
1
 10
16.7806040996
 20
42.7244209833
 11
16.6867595352
 21
42.8182759921
 72
1
 10
16.6867595352
 20
42.8182759921
 11
16.6032384892
 21
42.9214160018
 72
1
 10
16.6032384892
 20
42.9214160018
 11
16.5309560358
 21
43.0327160123
 72
1
 10
16.5309560358
 20
43.0327160123
 11
16.4707041165
 21
43.1509610234
 72
1
 10
16.4707041165
 20
43.1509610234
 11
16.4231428641
 21
43.2748610351
 72
1
 10
16.4231428641
 20
43.2748610351
 11
16.3887933695
 21
43.4030660471
 72
1
 10
16.3887933695
 20
43.4030660471
 11
16.368031973
 21
43.5341510594
 72
1
 10
16.368031973
 20
43.5341510594
 11
16.3610861409
 21
43.6666760719
 72
1
 10
16.3610861409
 20
43.6666760719
 11
36.2517373247
 21
44.1717561194
 72
1
 10
36.2517373247
 20
44.1717561194
 11
36.7610000003
 21
44.13838322
 97
1
330
2BD
 75
0
 76
1
 98
1
 10
0.0
 20
0.0
  0
SOLID
  5
2BF
100
AcDbEntity
  8
0
100
AcDbTrace
 62
2
  6
CONTINUOUS
 10
25.3408515753
 20
55.2505598297
 11
24.5102931399
 21
55.2245960958
 12
26.1659444963
 22
55.151954039
 13
45.3528889232
 23
56.1308222438
  0
ENDBLK
  5
2C0
100
AcDbEntity
  8
0
  6
BYBLOCK
 62
0
100
AcDbBlockEnd
  0
BLOCK
  5
2C1
100
AcDbEntity
  8
HATCHING_BL0
100
AcDbBlockBegin
  2
HATCHING_BL0
 70
64
 10
34.831283092
 20
1827.6438436099
  3
HATCHING_BL0
  1

  0
TEXT
  5
2C2
100
AcDbEntity
  8
HATCHING_BL0
100
AcDbText
 62
7
  6
CONTINUOUS
 10
16.9184520366
 20
1830.9572346005
  7
STANDARD
 40
5.0
  1
A
 72
5
 11
21.5652921853
 21
1830.9572346005
100
AcDbText
  0
LEADER
  5
2C3
100
AcDbEntity
  8
HATCHING_BL0
100
AcDbLeader
 62
7
  6
CONTINUOUS
  3
STANDARD
 71
1
 72
0
 73
3
 75
0
 76
2
 10
22.5318349362
 20
1816.8304526193
 30
0.0
 10
22.5318349362
 20
1838.4572346005
 30
0.0
1001
ACAD
1000
DSTYLE
1002
{
1070
77
1070
0
1002
}
  0
TEXT
  5
2C4
100
AcDbEntity
  8
HATCHING_BL0
100
AcDbText
 62
7
  6
CONTINUOUS
 10
48.0972739987
 20
1830.9572346005
  7
STANDARD
 40
5.0
  1
A
 72
5
 11
52.7441141474
 21
1830.9572346005
100
AcDbText
  0
LEADER
  5
2C5
100
AcDbEntity
  8
HATCHING_BL0
100
AcDbLeader
 62
7
  6
CONTINUOUS
  3
STANDARD
 71
1
 72
0
 73
3
 75
0
 76
2
 10
47.1307312478
 20
1816.8304526193
 30
0.0
 10
47.1307312478
 20
1838.4572346005
 30
0.0
1001
ACAD
1000
DSTYLE
1002
{
1070
77
1070
0
1002
}
  0
LINE
  5
2C6
100
AcDbEntity
  8
HATCHING_BL0
100
AcDbLine
 62
7
  6
CENTER
 10
22.5318349362
 20
1816.8304526193
 11
47.1307312478
 21
1816.8304526193
  0
ENDBLK
  5
2C7
100
AcDbEntity
  8
0
  6
BYBLOCK
 62
0
100
AcDbBlockEnd
  0
BLOCK
  5
2C8
100
AcDbEntity
  8
95060701L00_BL1
100
AcDbBlockBegin
  2
95060701L00_BL1
 70
64
 10
88.73172757
 20
998.8653899559
  3
95060701L00_BL1
  1

  0
LINE
  5
2C9
100
AcDbEntity
  8
95060701L00_BL1
100
AcDbLine
 62
7
  6
CONTINUOUS
 10
130.83546495
 20
156.8304526193
 11
150.83546495
 21
156.8304526193
  0
LINE
  5
2CA
100
AcDbEntity
  8
95060701L00_BL1
100
AcDbLine
 62
7
  6
CENTER
 10
132.83546495
 20
168.8304526193
 11
125.03546495
 21
168.8304526193
  0
LINE
  5
2CB
100
AcDbEntity
  8
95060701L00_BL1
100
AcDbLine
 62
7
  6
CENTER
 10
132.83546495
 20
168.8304526193
 11
140.63546495
 21
168.8304526193
  0
LINE
  5
2CC
100
AcDbEntity
  8
95060701L00_BL1
100
AcDbLine
 62
7
  6
CENTER
 10
132.83546495
 20
238.8304526193
 11
125.03546495
 21
238.8304526193
  0
LINE
  5
2CD
100
AcDbEntity
  8
95060701L00_BL1
100
AcDbLine
 62
7
  6
CENTER
 10
132.83546495
 20
238.8304526193
 11
140.63546495
 21
238.8304526193
  0
LINE
  5
2CE
100
AcDbEntity
  8
95060701L00_BL1
100
AcDbLine
 62
7
  6
CONTINUOUS
 10
132.83546495
 20
266.8304526193
 11
142.83546495
 21
266.8304526193
  0
LINE
  5
2CF
100
AcDbEntity
  8
95060701L00_BL1
100
AcDbLine
 62
7
  6
CONTINUOUS
 10
142.83546495
 20
306.8304526193
 11
132.83546495
 21
306.8304526193
  0
LINE
  5
2D0
100
AcDbEntity
  8
95060701L00_BL1
100
AcDbLine
 62
7
  6
CENTER
 10
132.83546495
 20
334.8304526193
 11
125.03546495
 21
334.8304526193
  0
LINE
  5
2D1
100
AcDbEntity
  8
95060701L00_BL1
100
AcDbLine
 62
7
  6
CENTER
 10
132.83546495
 20
334.8304526193
 11
140.63546495
 21
334.8304526193
  0
LINE
  5
2D2
100
AcDbEntity
  8
95060701L00_BL1
100
AcDbLine
 62
7
  6
CENTER
 10
132.83546495
 20
633.8304526193
 11
125.03546495
 21
633.8304526193
  0
LINE
  5
2D3
100
AcDbEntity
  8
95060701L00_BL1
100
AcDbLine
 62
7
  6
CENTER
 10
132.83546495
 20
633.8304526193
 11
140.63546495
 21
633.8304526193
  0
LINE
  5
2D4
100
AcDbEntity
  8
95060701L00_BL1
100
AcDbLine
 62
7
  6
CENTER
 10
132.83546495
 20
920.8304526193
 11
125.03546495
 21
920.8304526193
  0
LINE
  5
2D5
100
AcDbEntity
  8
95060701L00_BL1
100
AcDbLine
 62
7
  6
CENTER
 10
132.83546495
 20
920.8304526193
 11
140.63546495
 21
920.8304526193
  0
LINE
  5
2D6
100
AcDbEntity
  8
95060701L00_BL1
100
AcDbLine
 62
7
  6
CONTINUOUS
 10
136.285667254
 20
1118.6586663962
 11
135.3896155243
 21
1117.9956229951
  0
LINE
  5
2D7
100
AcDbEntity
  8
95060701L00_BL1
100
AcDbLine
 62
7
  6
CONTINUOUS
 10
135.3537693044
 20
1117.7202976738
 11
136.5690819791
 21
1118.6195817471
  0
LINE
  5
2D8
100
AcDbEntity
  8
95060701L00_BL1
100
AcDbLine
 62
7
  6
CONTINUOUS
 10
133.21046495
 20
949.8304526193
 11
142.46046495
 21
949.8304526193
  0
LINE
  5
2D9
100
AcDbEntity
  8
95060701L00_BL1
100
AcDbLine
 62
7
  6
CENTER
 10
137.83546495
 20
980.8304526193
 11
128.8975092198
 21
980.8304526193
  0
LINE
  5
2DA
100
AcDbEntity
  8
95060701L00_BL1
100
AcDbLine
 62
7
  6
CENTER
 10
137.83546495
 20
980.8304526193
 11
146.7734206802
 21
980.8304526193
  0
LINE
  5
2DB
100
AcDbEntity
  8
95060701L00_BL1
100
AcDbLine
 62
7
  6
CONTINUOUS
 10
122.83546495
 20
1898.8304526193
 11
122.83546495
 21
164.8304526193
  0
LINE
  5
2DC
100
AcDbEntity
  8
95060701L00_BL1
100
AcDbLine
 62
7
  6
CONTINUOUS
 10
127.83546495
 20
1093.8304526193
 11
127.83546495
 21
1049.8304526193
  0
LINE
  5
2DD
100
AcDbEntity
  8
95060701L00_BL1
100
AcDbLine
 62
7
  6
CONTINUOUS
 10
128.83546495
 20
1046.5304526193
 11
128.83546495
 21
1047.1304526193
  0
LINE
  5
2DE
100
AcDbEntity
  8
95060701L00_BL1
100
AcDbLine
 62
7
  6
CONTINUOUS
 10
130.83546495
 20
1794.8304526193
 11
130.83546495
 21
1758.8304526193
  0
LINE
  5
2DF
100
AcDbEntity
  8
95060701L00_BL1
100
AcDbLine
 62
7
  6
CONTINUOUS
 10
130.83546495
 20
304.8304526193
 11
130.83546495
 21
268.8304526193
  0
LINE
  5
2E0
100
AcDbEntity
  8
95060701L00_BL1
100
AcDbLine
 62
7
  6
CONTINUOUS
 10
131.71046495
 20
1010.3304526193
 11
131.71046495
 21
951.3304526193
  0
LINE
  5
2E1
100
AcDbEntity
  8
95060701L00_BL1
100
AcDbLine
 62
7
  6
CENTER
 10
132.83546495
 20
1894.8304526193
 11
132.83546495
 21
1887.0304526193
  0
LINE
  5
2E2
100
AcDbEntity
  8
95060701L00_BL1
100
AcDbLine
 62
7
  6
CENTER
 10
132.83546495
 20
1826.8304526193
 11
132.83546495
 21
1819.0304526193
  0
LINE
  5
2E3
100
AcDbEntity
  8
95060701L00_BL1
100
AcDbLine
 62
7
  6
CENTER
 10
132.83546495
 20
1726.8304526193
 11
132.83546495
 21
1719.0304526193
  0
LINE
  5
2E4
100
AcDbEntity
  8
95060701L00_BL1
100
AcDbLine
 62
7
  6
CENTER
 10
132.83546495
 20
1447.8304526193
 11
132.83546495
 21
1440.0304526193
  0
LINE
  5
2E5
100
AcDbEntity
  8
95060701L00_BL1
100
AcDbLine
 62
7
  6
CENTER
 10
132.83546495
 20
1130.8304526193
 11
132.83546495
 21
1123.0304526193
  0
LINE
  5
2E6
100
AcDbEntity
  8
95060701L00_BL1
100
AcDbLine
 62
7
  6
CENTER
 10
132.83546495
 20
1021.8304526193
 11
132.83546495
 21
1014.0304526193
  0
LINE
  5
2E7
100
AcDbEntity
  8
95060701L00_BL1
100
AcDbLine
 62
7
  6
CENTER
 10
132.83546495
 20
920.8304526193
 11
132.83546495
 21
913.0304526193
  0
LINE
  5
2E8
100
AcDbEntity
  8
95060701L00_BL1
100
AcDbLine
 62
7
  6
CENTER
 10
132.83546495
 20
633.8304526193
 11
132.83546495
 21
626.0304526193
  0
LINE
  5
2E9
100
AcDbEntity
  8
95060701L00_BL1
100
AcDbLine
 62
7
  6
CENTER
 10
132.83546495
 20
334.8304526193
 11
132.83546495
 21
327.0304526193
  0
LINE
  5
2EA
100
AcDbEntity
  8
95060701L00_BL1
100
AcDbLine
 62
7
  6
CENTER
 10
132.83546495
 20
238.8304526193
 11
132.83546495
 21
231.0304526193
  0
LINE
  5
2EB
100
AcDbEntity
  8
95060701L00_BL1
100
AcDbLine
 62
7
  6
CENTER
 10
132.83546495
 20
168.8304526193
 11
132.83546495
 21
161.0304526193
  0
LINE
  5
2EC
100
AcDbEntity
  8
95060701L00_BL1
100
AcDbLine
 62
7
  6
CENTER
 10
132.83546495
 20
168.8304526193
 11
132.83546495
 21
176.6304526193
  0
LINE
  5
2ED
100
AcDbEntity
  8
95060701L00_BL1
100
AcDbLine
 62
7
  6
CENTER
 10
132.83546495
 20
238.8304526193
 11
132.83546495
 21
246.6304526193
  0
LINE
  5
2EE
100
AcDbEntity
  8
95060701L00_BL1
100
AcDbLine
 62
7
  6
CENTER
 10
132.83546495
 20
334.8304526193
 11
132.83546495
 21
342.6304526193
  0
LINE
  5
2EF
100
AcDbEntity
  8
95060701L00_BL1
100
AcDbLine
 62
7
  6
CENTER
 10
132.83546495
 20
633.8304526193
 11
132.83546495
 21
641.6304526193
  0
LINE
  5
2F0
100
AcDbEntity
  8
95060701L00_BL1
100
AcDbLine
 62
7
  6
CENTER
 10
132.83546495
 20
920.8304526193
 11
132.83546495
 21
928.6304526193
  0
LINE
  5
2F1
100
AcDbEntity
  8
95060701L00_BL1
100
AcDbLine
 62
7
  6
CENTER
 10
132.83546495
 20
1021.8304526193
 11
132.83546495
 21
1029.6304526193
  0
LINE
  5
2F2
100
AcDbEntity
  8
95060701L00_BL1
100
AcDbLine
 62
7
  6
CENTER
 10
132.83546495
 20
1130.8304526193
 11
132.83546495
 21
1138.6304526193
  0
LINE
  5
2F3
100
AcDbEntity
  8
95060701L00_BL1
100
AcDbLine
 62
7
  6
CENTER
 10
132.83546495
 20
1447.8304526193
 11
132.83546495
 21
1455.6304526193
  0
LINE
  5
2F4
100
AcDbEntity
  8
95060701L00_BL1
100
AcDbLine
 62
7
  6
CENTER
 10
132.83546495
 20
1726.8304526193
 11
132.83546495
 21
1734.6304526193
  0
LINE
  5
2F5
100
AcDbEntity
  8
95060701L00_BL1
100
AcDbLine
 62
7
  6
CENTER
 10
132.83546495
 20
1826.8304526193
 11
132.83546495
 21
1834.6304526193
  0
LINE
  5
2F6
100
AcDbEntity
  8
95060701L00_BL1
100
AcDbLine
 62
7
  6
CENTER
 10
132.83546495
 20
1894.8304526193
 11
132.83546495
 21
1902.6304526193
  0
LINE
  5
2F7
100
AcDbEntity
  8
95060701L00_BL1
100
AcDbLine
 62
7
  6
CENTER
 10
137.83546495
 20
980.8304526193
 11
137.83546495
 21
947.8960577363
  0
LINE
  5
2F8
100
AcDbEntity
  8
95060701L00_BL1
100
AcDbLine
 62
7
  6
CENTER
 10
137.83546495
 20
980.8304526193
 11
137.83546495
 21
1013.1123367717
  0
LINE
  5
2F9
100
AcDbEntity
  8
95060701L00_BL1
100
AcDbLine
 62
7
  6
CONTINUOUS
 10
138.383382139
 20
1119.7285320868
 11
138.383382139
 21
1117.4319670504
  0
LINE
  5
2FA
100
AcDbEntity
  8
95060701L00_BL1
100
AcDbLine
 62
7
  6
CONTINUOUS
 10
138.383382139
 20
1116.2110084235
 11
138.383382139
 21
1115.8912335449
  0
LINE
  5
2FB
100
AcDbEntity
  8
95060701L00_BL1
100
AcDbLine
 62
7
  6
CONTINUOUS
 10
138.5833821389
 20
1115.8912335449
 11
138.5833821389
 21
1116.4110084234
  0
LINE
  5
2FC
100
AcDbEntity
  8
95060701L00_BL1
100
AcDbLine
 62
7
  6
CONTINUOUS
 10
138.5833821389
 20
1117.2319670504
 11
138.5833821389
 21
1119.5285320868
  0
LINE
  5
2FD
100
AcDbEntity
  8
95060701L00_BL1
100
AcDbLine
 62
7
  6
CONTINUOUS
 10
139.6950452009
 20
1119.5285320868
 11
139.6950452009
 21
1115.8912335449
  0
LINE
  5
2FE
100
AcDbEntity
  8
95060701L00_BL1
100
AcDbLine
 62
7
  6
CONTINUOUS
 10
139.8950452008
 20
1115.8912335449
 11
139.895045201
 21
1119.7285320868
  0
LINE
  5
2FF
100
AcDbEntity
  8
95060701L00_BL1
100
AcDbLine
 62
7
  6
CONTINUOUS
 10
141.1974010696
 20
1119.7285320868
 11
141.1974010696
 21
1115.8912335449
  0
LINE
  5
300
100
AcDbEntity
  8
95060701L00_BL1
100
AcDbLine
 62
7
  6
CONTINUOUS
 10
141.3974010697
 20
1115.8912335449
 11
141.3974010697
 21
1119.5285320868
  0
LINE
  5
301
100
AcDbEntity
  8
95060701L00_BL1
100
AcDbLine
 62
7
  6
CONTINUOUS
 10
142.5090641317
 20
1119.5285320868
 11
142.5090641315
 21
1115.8912335449
  0
LINE
  5
302
100
AcDbEntity
  8
95060701L00_BL1
100
AcDbLine
 62
7
  6
CONTINUOUS
 10
142.7090641316
 20
1115.8912335449
 11
142.7090641316
 21
1119.7285320868
  0
LINE
  5
303
100
AcDbEntity
  8
95060701L00_BL1
100
AcDbLine
 62
7
  6
CONTINUOUS
 10
143.96046495
 20
951.3304526193
 11
143.96046495
 21
1010.3304526193
  0
LINE
  5
304
100
AcDbEntity
  8
95060701L00_BL1
100
AcDbLine
 62
7
  6
CONTINUOUS
 10
144.83546495
 20
268.8304526193
 11
144.83546495
 21
304.8304526193
  0
LINE
  5
305
100
AcDbEntity
  8
95060701L00_BL1
100
AcDbLine
 62
7
  6
CONTINUOUS
 10
144.83546495
 20
1046.5304526193
 11
144.83546495
 21
1047.1304526193
  0
LINE
  5
306
100
AcDbEntity
  8
95060701L00_BL1
100
AcDbLine
 62
7
  6
CONTINUOUS
 10
144.83546495
 20
1758.8304526193
 11
144.83546495
 21
1794.8304526193
  0
LINE
  5
307
100
AcDbEntity
  8
95060701L00_BL1
100
AcDbLine
 62
9
  6
CONTINUOUS
 10
147.83546495
 20
1906.8304526193
 11
147.83546495
 21
1095.9804526193
  0
LINE
  5
308
100
AcDbEntity
  8
95060701L00_BL1
100
AcDbLine
 62
7
  6
CONTINUOUS
 10
147.83546495
 20
1095.9804526193
 11
147.83546495
 21
1095.8304526193
  0
LINE
  5
309
100
AcDbEntity
  8
95060701L00_BL1
100
AcDbLine
 62
7
  6
CONTINUOUS
 10
147.83546495
 20
1047.8304526193
 11
147.83546495
 21
1047.6804526193
  0
LINE
  5
30A
100
AcDbEntity
  8
95060701L00_BL1
100
AcDbLine
 62
9
  6
CONTINUOUS
 10
147.83546495
 20
1047.6804526193
 11
147.83546495
 21
156.8304526193
  0
LINE
  5
30B
100
AcDbEntity
  8
95060701L00_BL1
100
AcDbLine
 62
7
  6
CONTINUOUS
 10
141.83546495
 20
1095.9804526193
 11
139.68546495
 21
1093.8304526193
  0
LINE
  5
30C
100
AcDbEntity
  8
95060701L00_BL1
100
AcDbLine
 62
7
  6
CONTINUOUS
 10
142.46046495
 20
1011.8304526193
 11
133.21046495
 21
1011.8304526193
  0
LINE
  5
30D
100
AcDbEntity
  8
95060701L00_BL1
100
AcDbLine
 62
7
  6
CENTER
 10
132.83546495
 20
1021.8304526193
 11
125.03546495
 21
1021.8304526193
  0
LINE
  5
30E
100
AcDbEntity
  8
95060701L00_BL1
100
AcDbLine
 62
7
  6
CENTER
 10
132.83546495
 20
1021.8304526193
 11
140.63546495
 21
1021.8304526193
  0
LINE
  5
30F
100
AcDbEntity
  8
95060701L00_BL1
100
AcDbLine
 62
7
  6
CONTINUOUS
 10
150.83546495
 20
1906.8304526193
 11
150.83546495
 21
156.8304526193
  0
LINE
  5
310
100
AcDbEntity
  8
95060701L00_BL1
100
AcDbLine
 62
7
  6
CONTINUOUS
 10
128.83546495
 20
1046.5304526193
 11
131.5529393387
 21
1046.5304526193
  0
LINE
  5
311
100
AcDbEntity
  8
95060701L00_BL1
100
AcDbLine
 62
7
  6
CONTINUOUS
 10
139.1179905613
 20
1046.5304526193
 11
144.83546495
 21
1046.5304526193
  0
LINE
  5
312
100
AcDbEntity
  8
95060701L00_BL1
100
AcDbLine
 62
7
  6
CONTINUOUS
 10
144.83546495
 20
1046.8304526193
 11
139.0297172424
 21
1046.8304526193
  0
LINE
  5
313
100
AcDbEntity
  8
95060701L00_BL1
100
AcDbLine
 62
7
  6
CONTINUOUS
 10
131.6412126576
 20
1046.8304526193
 11
128.83546495
 21
1046.8304526193
  0
LINE
  5
314
100
AcDbEntity
  8
95060701L00_BL1
100
AcDbLine
 62
7
  6
CONTINUOUS
 10
128.83546495
 20
1047.1304526193
 11
131.7567081826
 21
1047.1304526193
  0
LINE
  5
315
100
AcDbEntity
  8
95060701L00_BL1
100
AcDbLine
 62
7
  6
CONTINUOUS
 10
138.9142217174
 20
1047.1304526193
 11
144.83546495
 21
1047.1304526193
  0
LINE
  5
316
100
AcDbEntity
  8
95060701L00_BL1
100
AcDbLine
 62
7
  6
CONTINUOUS
 10
141.83546495
 20
1047.6804526193
 11
150.83546495
 21
1047.6804526193
  0
LINE
  5
317
100
AcDbEntity
  8
95060701L00_BL1
100
AcDbLine
 62
7
  6
CONTINUOUS
 10
127.83546495
 20
1049.8304526193
 11
139.68546495
 21
1049.8304526193
  0
LINE
  5
318
100
AcDbEntity
  8
95060701L00_BL1
100
AcDbLine
 62
7
  6
CONTINUOUS
 10
139.68546495
 20
1093.8304526193
 11
127.83546495
 21
1093.8304526193
  0
LINE
  5
319
100
AcDbEntity
  8
95060701L00_BL1
100
AcDbLine
 62
7
  6
CONTINUOUS
 10
141.83546495
 20
1095.9804526193
 11
150.83546495
 21
1095.9804526193
  0
LINE
  5
31A
100
AcDbEntity
  8
95060701L00_BL1
100
AcDbLine
 62
7
  6
CONTINUOUS
 10
139.68546495
 20
1049.8304526193
 11
141.83546495
 21
1047.6804526193
  0
LINE
  5
31B
100
AcDbEntity
  8
95060701L00_BL1
100
AcDbLine
 62
7
  6
CONTINUOUS
 10
134.1390973881
 20
1116.2110084234
 11
135.5145627032
 21
1116.2110084234
  0
LINE
  5
31C
100
AcDbEntity
  8
95060701L00_BL1
100
AcDbLine
 62
7
  6
CONTINUOUS
 10
137.360915768
 20
1116.2110084235
 11
138.383382139
 21
1116.2110084235
  0
LINE
  5
31D
100
AcDbEntity
  8
95060701L00_BL1
100
AcDbLine
 62
7
  6
CONTINUOUS
 10
138.5833821389
 20
1116.4110084234
 11
137.5939438114
 21
1116.4110084234
  0
LINE
  5
31E
100
AcDbEntity
  8
95060701L00_BL1
100
AcDbLine
 62
7
  6
CONTINUOUS
 10
135.790543813
 20
1116.4110084234
 11
134.1390973881
 21
1116.4110084234
  0
LINE
  5
31F
100
AcDbEntity
  8
95060701L00_BL1
100
AcDbLine
 62
7
  6
CONTINUOUS
 10
134.1390973881
 20
1117.2319670504
 11
136.9212877606
 21
1117.2319670503
  0
LINE
  5
320
100
AcDbEntity
  8
95060701L00_BL1
100
AcDbLine
 62
7
  6
CONTINUOUS
 10
137.5939438114
 20
1117.2319670504
 11
138.5833821389
 21
1117.2319670504
  0
LINE
  5
321
100
AcDbEntity
  8
95060701L00_BL1
100
AcDbLine
 62
7
  6
CONTINUOUS
 10
138.383382139
 20
1117.4319670504
 11
137.360915768
 21
1117.4319670504
  0
LINE
  5
322
100
AcDbEntity
  8
95060701L00_BL1
100
AcDbLine
 62
7
  6
CONTINUOUS
 10
137.0894819658
 20
1117.4319670504
 11
134.1390973881
 21
1117.4319670504
  0
LINE
  5
323
100
AcDbEntity
  8
95060701L00_BL1
100
AcDbLine
 62
7
  6
CONTINUOUS
 10
138.5833821389
 20
1119.5285320868
 11
139.6950452009
 21
1119.5285320868
  0
LINE
  5
324
100
AcDbEntity
  8
95060701L00_BL1
100
AcDbLine
 62
7
  6
CONTINUOUS
 10
141.3974010697
 20
1119.5285320868
 11
142.5090641317
 21
1119.5285320868
  0
LINE
  5
325
100
AcDbEntity
  8
95060701L00_BL1
100
AcDbLine
 62
7
  6
CONTINUOUS
 10
142.7090641316
 20
1119.7285320868
 11
141.1974010696
 21
1119.7285320868
  0
LINE
  5
326
100
AcDbEntity
  8
95060701L00_BL1
100
AcDbLine
 62
7
  6
CONTINUOUS
 10
139.895045201
 20
1119.7285320868
 11
138.383382139
 21
1119.7285320868
  0
LINE
  5
327
100
AcDbEntity
  8
95060701L00_BL1
100
AcDbLine
 62
7
  6
CENTER
 10
132.83546495
 20
1130.8304526193
 11
125.03546495
 21
1130.8304526193
  0
LINE
  5
328
100
AcDbEntity
  8
95060701L00_BL1
100
AcDbLine
 62
7
  6
CENTER
 10
132.83546495
 20
1130.8304526193
 11
140.63546495
 21
1130.8304526193
  0
LINE
  5
329
100
AcDbEntity
  8
95060701L00_BL1
100
AcDbLine
 62
7
  6
CENTER
 10
132.83546495
 20
1447.8304526193
 11
125.03546495
 21
1447.8304526193
  0
LINE
  5
32A
100
AcDbEntity
  8
95060701L00_BL1
100
AcDbLine
 62
7
  6
CENTER
 10
132.83546495
 20
1447.8304526193
 11
140.63546495
 21
1447.8304526193
  0
LINE
  5
32B
100
AcDbEntity
  8
95060701L00_BL1
100
AcDbLine
 62
7
  6
CENTER
 10
132.83546495
 20
1726.8304526193
 11
125.03546495
 21
1726.8304526193
  0
LINE
  5
32C
100
AcDbEntity
  8
95060701L00_BL1
100
AcDbLine
 62
7
  6
CENTER
 10
132.83546495
 20
1726.8304526193
 11
140.63546495
 21
1726.8304526193
  0
LINE
  5
32D
100
AcDbEntity
  8
95060701L00_BL1
100
AcDbLine
 62
7
  6
CONTINUOUS
 10
132.83546495
 20
1756.8304526193
 11
142.83546495
 21
1756.8304526193
  0
LINE
  5
32E
100
AcDbEntity
  8
95060701L00_BL1
100
AcDbLine
 62
7
  6
CONTINUOUS
 10
142.83546495
 20
1796.8304526193
 11
132.83546495
 21
1796.8304526193
  0
LINE
  5
32F
100
AcDbEntity
  8
95060701L00_BL1
100
AcDbLine
 62
7
  6
CENTER
 10
132.83546495
 20
1826.8304526193
 11
125.03546495
 21
1826.8304526193
  0
LINE
  5
330
100
AcDbEntity
  8
95060701L00_BL1
100
AcDbLine
 62
7
  6
CENTER
 10
132.83546495
 20
1826.8304526193
 11
140.63546495
 21
1826.8304526193
  0
LINE
  5
331
100
AcDbEntity
  8
95060701L00_BL1
100
AcDbLine
 62
7
  6
CENTER
 10
132.83546495
 20
1894.8304526193
 11
125.03546495
 21
1894.8304526193
  0
LINE
  5
332
100
AcDbEntity
  8
95060701L00_BL1
100
AcDbLine
 62
7
  6
CENTER
 10
132.83546495
 20
1894.8304526193
 11
140.63546495
 21
1894.8304526193
  0
LINE
  5
333
100
AcDbEntity
  8
95060701L00_BL1
100
AcDbLine
 62
7
  6
CONTINUOUS
 10
130.83546495
 20
1906.8304526193
 11
150.83546495
 21
1906.8304526193
  0
LINE
  5
334
100
AcDbEntity
  8
95060701L00_BL1
100
AcDbLine
 62
7
  6
CONTINUOUS
 10
29.6279901899
 20
156.8304526193
 11
32.6279901899
 21
156.8304526193
  0
LINE
  5
335
100
AcDbEntity
  8
95060701L00_BL1
100
AcDbLine
 62
7
  6
CENTER
 10
26.6279901899
 20
633.8304526193
 11
40.4323511641
 21
633.8304526193
  0
LINE
  5
336
100
AcDbEntity
  8
95060701L00_BL1
100
AcDbLine
 62
7
  6
CENTER
 10
41.6279901899
 20
980.8304526193
 11
26.6279901899
 21
980.8304526193
  0
LINE
  5
337
100
AcDbEntity
  8
95060701L00_BL1
100
AcDbLine
 62
7
  6
CONTINUOUS
 10
29.6279901899
 20
1906.8304526193
 11
29.6279901899
 21
1095.8304526193
  0
LINE
  5
338
100
AcDbEntity
  8
95060701L00_BL1
100
AcDbLine
 62
7
  6
CONTINUOUS
 10
29.6279901899
 20
1047.8304526193
 11
29.6279901899
 21
156.8304526193
  0
LINE
  5
339
100
AcDbEntity
  8
95060701L00_BL1
100
AcDbLine
 62
9
  6
CONTINUOUS
 10
32.6279901899
 20
1906.8304526193
 11
32.6279901899
 21
1095.9804526193
  0
LINE
  5
33A
100
AcDbEntity
  8
95060701L00_BL1
100
AcDbLine
 62
9
  6
CONTINUOUS
 10
32.6279901899
 20
1047.6804526193
 11
32.6279901899
 21
156.8304526193
  0
LINE
  5
33B
100
AcDbEntity
  8
95060701L00_BL1
100
AcDbLine
 62
7
  6
CONTINUOUS
 10
33.6279901899
 20
1095.9804526193
 11
33.6279901899
 21
1047.6804526193
  0
LINE
  5
33C
100
AcDbEntity
  8
95060701L00_BL1
100
AcDbLine
 62
7
  6
CONTINUOUS
 10
38.6279901899
 20
1898.3451712451
 11
38.6279901899
 21
165.3157339935
  0
LINE
  5
33D
100
AcDbEntity
  8
95060701L00_BL1
100
AcDbLine
 62
7
  6
CONTINUOUS
 10
29.6279901899
 20
1047.6804526193
 11
33.6279901899
 21
1047.6804526193
  0
LINE
  5
33E
100
AcDbEntity
  8
95060701L00_BL1
100
AcDbLine
 62
7
  6
CENTER
 10
41.6279901899
 20
1071.8304526193
 11
26.6279901899
 21
1071.8304526193
  0
LINE
  5
33F
100
AcDbEntity
  8
95060701L00_BL1
100
AcDbLine
 62
7
  6
CONTINUOUS
 10
29.6279901899
 20
1095.9804526193
 11
33.6279901899
 21
1095.9804526193
  0
LINE
  5
340
100
AcDbEntity
  8
95060701L00_BL1
100
AcDbLine
 62
7
  6
CENTER
 10
26.6279901899
 20
1447.8304526193
 11
40.9556121554
 21
1447.8304526193
  0
LINE
  5
341
100
AcDbEntity
  8
95060701L00_BL1
100
AcDbLine
 62
7
  6
CENTER
 10
26.6279901899
 20
1894.8304526193
 11
41.8651265348
 21
1894.8304526193
  0
LINE
  5
342
100
AcDbEntity
  8
95060701L00_BL1
100
AcDbLine
 62
7
  6
CONTINUOUS
 10
29.6279901899
 20
1906.8304526193
 11
32.6279901899
 21
1906.8304526193
  0
LINE
  5
343
100
AcDbEntity
  8
95060701L00_BL1
100
AcDbLine
 62
7
  6
CONTINUOUS
 10
29.6279901899
 20
118.3856086667
 11
29.6279901899
 21
93.3856086667
  0
LINE
  5
344
100
AcDbEntity
  8
95060701L00_BL1
100
AcDbLine
 62
7
  6
CONTINUOUS
 10
32.6279901899
 20
90.3856086667
 11
38.6279901899
 21
90.3856086667
  0
LINE
  5
345
100
AcDbEntity
  8
95060701L00_BL1
100
AcDbLine
 62
7
  6
CONTINUOUS
 10
32.6279901899
 20
93.8856086667
 11
32.6279901899
 21
118.3856086667
  0
LINE
  5
346
100
AcDbEntity
  8
95060701L00_BL1
100
AcDbLine
 62
7
  6
CONTINUOUS
 10
38.6279901899
 20
93.3856086667
 11
33.1279901899
 21
93.3856086667
  0
LINE
  5
347
100
AcDbEntity
  8
95060701L00_BL1
100
AcDbLine
 62
7
  6
CONTINUOUS
 10
38.6279901899
 20
90.3856086667
 11
38.6279901899
 21
93.3856086667
  0
LINE
  5
348
100
AcDbEntity
  8
95060701L00_BL1
100
AcDbLine
 62
7
  6
CONTINUOUS
 10
32.6279901899
 20
118.3856086667
 11
29.6279901899
 21
118.3856086667
  0
ARC
  5
349
100
AcDbEntity
  8
95060701L00_BL1
100
AcDbCircle
 62
7
  6
CONTINUOUS
 10
130.83546495
 20
164.8304526193
 40
8.0
100
AcDbArc
 50
180.0
 51
270.0
  0
CIRCLE
  5
34A
100
AcDbEntity
  8
95060701L00_BL1
100
AcDbCircle
 62
7
  6
CONTINUOUS
 10
132.83546495
 20
238.8304526193
 40
4.8
  0
CIRCLE
  5
34B
100
AcDbEntity
  8
95060701L00_BL1
100
AcDbCircle
 62
7
  6
CONTINUOUS
 10
132.83546495
 20
334.8304526193
 40
4.8
  0
CIRCLE
  5
34C
100
AcDbEntity
  8
95060701L00_BL1
100
AcDbCircle
 62
7
  6
CONTINUOUS
 10
132.83546495
 20
168.8304526193
 40
4.8
  0
ARC
  5
34D
100
AcDbEntity
  8
95060701L00_BL1
100
AcDbCircle
 62
7
  6
CONTINUOUS
 10
132.83546495
 20
304.8304526193
 40
2.0
100
AcDbArc
 50
90.0
 51
180.0
  0
ARC
  5
34E
100
AcDbEntity
  8
95060701L00_BL1
100
AcDbCircle
 62
7
  6
CONTINUOUS
 10
132.83546495
 20
268.8304526193
 40
2.0
100
AcDbArc
 50
180.0
 51
270.0
  0
ARC
  5
34F
100
AcDbEntity
  8
95060701L00_BL1
100
AcDbCircle
 62
7
  6
CONTINUOUS
 10
130.6841962538
 20
172.5565593018
 40
1.5525373924
100
AcDbArc
 50
238.03273698
 51
1.96726302
  0
ARC
  5
350
100
AcDbEntity
  8
95060701L00_BL1
100
AcDbCircle
 62
7
  6
CONTINUOUS
 10
130.6841962538
 20
165.1043459368
 40
1.5525373924
100
AcDbArc
 50
358.03273698
 51
121.96726302
  0
ARC
  5
351
100
AcDbEntity
  8
95060701L00_BL1
100
AcDbCircle
 62
7
  6
CONTINUOUS
 10
128.5329275576
 20
168.8304526193
 40
1.5525373924
100
AcDbArc
 50
298.03273698
 51
61.96726302
  0
ARC
  5
352
100
AcDbEntity
  8
95060701L00_BL1
100
AcDbCircle
 62
7
  6
CONTINUOUS
 10
129.5445684156
 20
170.7304526193
 40
0.6
100
AcDbArc
 50
58.03273698
 51
241.96726302
  0
ARC
  5
353
100
AcDbEntity
  8
95060701L00_BL1
100
AcDbCircle
 62
7
  6
CONTINUOUS
 10
132.83546495
 20
172.6304526193
 40
0.6
100
AcDbArc
 50
358.03273698
 51
181.96726302
  0
ARC
  5
354
100
AcDbEntity
  8
95060701L00_BL1
100
AcDbCircle
 62
7
  6
CONTINUOUS
 10
132.83546495
 20
165.0304526193
 40
0.6
100
AcDbArc
 50
178.03273698
 51
1.96726302
  0
ARC
  5
355
100
AcDbEntity
  8
95060701L00_BL1
100
AcDbCircle
 62
7
  6
CONTINUOUS
 10
129.5445684156
 20
166.9304526193
 40
0.6
100
AcDbArc
 50
118.03273698
 51
301.96726302
  0
CIRCLE
  5
356
100
AcDbEntity
  8
95060701L00_BL1
100
AcDbCircle
 62
7
  6
CONTINUOUS
 10
132.83546495
 20
1021.8304526193
 40
4.8
  0
CIRCLE
  5
357
100
AcDbEntity
  8
95060701L00_BL1
100
AcDbCircle
 62
7
  6
CONTINUOUS
 10
132.83546495
 20
920.8304526193
 40
4.8
  0
CIRCLE
  5
358
100
AcDbEntity
  8
95060701L00_BL1
100
AcDbCircle
 62
7
  6
CONTINUOUS
 10
132.83546495
 20
633.8304526193
 40
4.8
  0
ARC
  5
359
100
AcDbEntity
  8
95060701L00_BL1
100
AcDbCircle
 62
7
  6
CONTINUOUS
 10
130.6841962538
 20
637.5565593018
 40
1.5525373924
100
AcDbArc
 50
238.03273698
 51
1.96726302
  0
ARC
  5
35A
100
AcDbEntity
  8
95060701L00_BL1
100
AcDbCircle
 62
7
  6
CONTINUOUS
 10
130.6841962538
 20
630.1043459368
 40
1.5525373924
100
AcDbArc
 50
358.03273698
 51
121.96726302
  0
ARC
  5
35B
100
AcDbEntity
  8
95060701L00_BL1
100
AcDbCircle
 62
7
  6
CONTINUOUS
 10
128.5329275576
 20
633.8304526193
 40
1.5525373924
100
AcDbArc
 50
298.03273698
 51
61.96726302
  0
ARC
  5
35C
100
AcDbEntity
  8
95060701L00_BL1
100
AcDbCircle
 62
7
  6
CONTINUOUS
 10
133.21046495
 20
1010.3304526193
 40
1.5
100
AcDbArc
 50
90.0
 51
180.0
  0
ARC
  5
35D
100
AcDbEntity
  8
95060701L00_BL1
100
AcDbCircle
 62
7
  6
CONTINUOUS
 10
133.21046495
 20
951.3304526193
 40
1.5
100
AcDbArc
 50
180.0
 51
270.0
  0
ARC
  5
35E
100
AcDbEntity
  8
95060701L00_BL1
100
AcDbCircle
 62
7
  6
CONTINUOUS
 10
129.5445684156
 20
635.7304526193
 40
0.6
100
AcDbArc
 50
58.03273698
 51
241.96726302
  0
ARC
  5
35F
100
AcDbEntity
  8
95060701L00_BL1
100
AcDbCircle
 62
7
  6
CONTINUOUS
 10
132.83546495
 20
637.6304526193
 40
0.6
100
AcDbArc
 50
358.03273698
 51
181.96726302
  0
ARC
  5
360
100
AcDbEntity
  8
95060701L00_BL1
100
AcDbCircle
 62
7
  6
CONTINUOUS
 10
132.83546495
 20
630.0304526193
 40
0.6
100
AcDbArc
 50
178.03273698
 51
1.96726302
  0
ARC
  5
361
100
AcDbEntity
  8
95060701L00_BL1
100
AcDbCircle
 62
7
  6
CONTINUOUS
 10
129.5445684156
 20
631.9304526193
 40
0.6
100
AcDbArc
 50
118.03273698
 51
301.96726302
  0
ARC
  5
362
100
AcDbEntity
  8
95060701L00_BL1
100
AcDbCircle
 62
7
  6
CONTINUOUS
 10
128.5329275576
 20
1447.8304526193
 40
1.5525373924
100
AcDbArc
 50
298.03273698
 51
61.96726302
  0
ARC
  5
363
100
AcDbEntity
  8
95060701L00_BL1
100
AcDbCircle
 62
7
  6
CONTINUOUS
 10
129.5445684156
 20
1449.7304526193
 40
0.6
100
AcDbArc
 50
58.03273698
 51
241.96726302
  0
ARC
  5
364
100
AcDbEntity
  8
95060701L00_BL1
100
AcDbCircle
 62
7
  6
CONTINUOUS
 10
129.5445684156
 20
1445.9304526193
 40
0.6
100
AcDbArc
 50
118.03273698
 51
301.96726302
  0
CIRCLE
  5
365
100
AcDbEntity
  8
95060701L00_BL1
100
AcDbCircle
 62
7
  6
CONTINUOUS
 10
132.83546495
 20
1130.8304526193
 40
4.8
  0
ARC
  5
366
100
AcDbEntity
  8
95060701L00_BL1
100
AcDbCircle
 62
7
  6
CONTINUOUS
 10
132.5208823877
 20
1047.2054526193
 40
0.6
100
AcDbArc
 50
110.3787547774
 51
187.9711829628
  0
ARC
  5
367
100
AcDbEntity
  8
95060701L00_BL1
100
AcDbCircle
 62
7
  6
CONTINUOUS
 10
132.5208823877
 20
1043.9554526193
 40
0.6
100
AcDbArc
 50
171.9884804033
 51
249.6451938548
  0
ARC
  5
368
100
AcDbEntity
  8
95060701L00_BL1
100
AcDbCircle
 62
7
  6
CONTINUOUS
 10
132.5208823877
 20
1099.7054526193
 40
0.6
100
AcDbArc
 50
110.3787547774
 51
187.9711829628
  0
ARC
  5
369
100
AcDbEntity
  8
95060701L00_BL1
100
AcDbCircle
 62
7
  6
CONTINUOUS
 10
132.5208823877
 20
1096.4554526193
 40
0.6
100
AcDbArc
 50
171.9884804032
 51
249.6451938548
  0
CIRCLE
  5
36A
100
AcDbEntity
  8
95060701L00_BL1
100
AcDbCircle
 62
7
  6
CONTINUOUS
 10
132.83546495
 20
1447.8304526193
 40
4.8
  0
ARC
  5
36B
100
AcDbEntity
  8
95060701L00_BL1
100
AcDbCircle
 62
7
  6
CONTINUOUS
 10
130.6841962538
 20
1451.5565593018
 40
1.5525373924
100
AcDbArc
 50
238.03273698
 51
1.96726302
  0
ARC
  5
36C
100
AcDbEntity
  8
95060701L00_BL1
100
AcDbCircle
 62
7
  6
CONTINUOUS
 10
130.6841962538
 20
1444.1043459368
 40
1.5525373924
100
AcDbArc
 50
358.03273698
 51
121.96726302
  0
ARC
  5
36D
100
AcDbEntity
  8
95060701L00_BL1
100
AcDbCircle
 62
7
  6
CONTINUOUS
 10
132.83546495
 20
1451.6304526193
 40
0.6
100
AcDbArc
 50
358.03273698
 51
181.96726302
  0
ARC
  5
36E
100
AcDbEntity
  8
95060701L00_BL1
100
AcDbCircle
 62
7
  6
CONTINUOUS
 10
132.83546495
 20
1444.0304526193
 40
0.6
100
AcDbArc
 50
178.03273698
 51
1.96726302
  0
ARC
  5
36F
100
AcDbEntity
  8
95060701L00_BL1
100
AcDbCircle
 62
7
  6
CONTINUOUS
 10
130.83546495
 20
1898.8304526193
 40
8.0
100
AcDbArc
 50
90.0
 51
180.0
  0
CIRCLE
  5
370
100
AcDbEntity
  8
95060701L00_BL1
100
AcDbCircle
 62
7
  6
CONTINUOUS
 10
132.83546495
 20
1726.8304526193
 40
4.8
  0
CIRCLE
  5
371
100
AcDbEntity
  8
95060701L00_BL1
100
AcDbCircle
 62
7
  6
CONTINUOUS
 10
132.83546495
 20
1826.8304526193
 40
4.8
  0
CIRCLE
  5
372
100
AcDbEntity
  8
95060701L00_BL1
100
AcDbCircle
 62
7
  6
CONTINUOUS
 10
132.83546495
 20
1894.8304526193
 40
4.8
  0
ARC
  5
373
100
AcDbEntity
  8
95060701L00_BL1
100
AcDbCircle
 62
7
  6
CONTINUOUS
 10
132.83546495
 20
1794.8304526193
 40
2.0
100
AcDbArc
 50
90.0
 51
180.0
  0
ARC
  5
374
100
AcDbEntity
  8
95060701L00_BL1
100
AcDbCircle
 62
7
  6
CONTINUOUS
 10
132.83546495
 20
1758.8304526193
 40
2.0
100
AcDbArc
 50
180.0
 51
270.0
  0
ARC
  5
375
100
AcDbEntity
  8
95060701L00_BL1
100
AcDbCircle
 62
7
  6
CONTINUOUS
 10
130.6841962538
 20
1898.5565593018
 40
1.5525373924
100
AcDbArc
 50
238.03273698
 51
1.96726302
  0
ARC
  5
376
100
AcDbEntity
  8
95060701L00_BL1
100
AcDbCircle
 62
7
  6
CONTINUOUS
 10
130.6841962538
 20
1891.1043459368
 40
1.5525373924
100
AcDbArc
 50
358.03273698
 51
121.96726302
  0
ARC
  5
377
100
AcDbEntity
  8
95060701L00_BL1
100
AcDbCircle
 62
7
  6
CONTINUOUS
 10
128.5329275576
 20
1894.8304526193
 40
1.5525373924
100
AcDbArc
 50
298.03273698
 51
61.96726302
  0
ARC
  5
378
100
AcDbEntity
  8
95060701L00_BL1
100
AcDbCircle
 62
7
  6
CONTINUOUS
 10
129.5445684156
 20
1896.7304526193
 40
0.6
100
AcDbArc
 50
58.03273698
 51
241.96726302
  0
ARC
  5
379
100
AcDbEntity
  8
95060701L00_BL1
100
AcDbCircle
 62
7
  6
CONTINUOUS
 10
132.83546495
 20
1898.6304526193
 40
0.6
100
AcDbArc
 50
358.03273698
 51
181.96726302
  0
ARC
  5
37A
100
AcDbEntity
  8
95060701L00_BL1
100
AcDbCircle
 62
7
  6
CONTINUOUS
 10
132.83546495
 20
1891.0304526193
 40
0.6
100
AcDbArc
 50
178.03273698
 51
1.96726302
  0
ARC
  5
37B
100
AcDbEntity
  8
95060701L00_BL1
100
AcDbCircle
 62
7
  6
CONTINUOUS
 10
129.5445684156
 20
1892.9304526193
 40
0.6
100
AcDbArc
 50
118.03273698
 51
301.96726302
  0
ARC
  5
37C
100
AcDbEntity
  8
95060701L00_BL1
100
AcDbCircle
 62
7
  6
CONTINUOUS
 10
134.9867336462
 20
172.5565593018
 40
1.5525373924
100
AcDbArc
 50
178.03273698
 51
301.96726302
  0
ARC
  5
37D
100
AcDbEntity
  8
95060701L00_BL1
100
AcDbCircle
 62
7
  6
CONTINUOUS
 10
137.1380023424
 20
168.8304526193
 40
1.5525373924
100
AcDbArc
 50
118.03273698
 51
241.96726302
  0
ARC
  5
37E
100
AcDbEntity
  8
95060701L00_BL1
100
AcDbCircle
 62
7
  6
CONTINUOUS
 10
134.9867336462
 20
165.1043459368
 40
1.5525373924
100
AcDbArc
 50
58.03273698
 51
181.96726302
  0
ARC
  5
37F
100
AcDbEntity
  8
95060701L00_BL1
100
AcDbCircle
 62
7
  6
CONTINUOUS
 10
136.1263614844
 20
170.7304526193
 40
0.6
100
AcDbArc
 50
298.03273698
 51
121.96726302
  0
ARC
  5
380
100
AcDbEntity
  8
95060701L00_BL1
100
AcDbCircle
 62
7
  6
CONTINUOUS
 10
136.1263614844
 20
166.9304526193
 40
0.6
100
AcDbArc
 50
238.03273698
 51
61.96726302
  0
CIRCLE
  5
381
100
AcDbEntity
  8
95060701L00_BL1
100
AcDbCircle
 62
7
  6
CONTINUOUS
 10
137.83546495
 20
256.7304526193
 40
5.65
  0
CIRCLE
  5
382
100
AcDbEntity
  8
95060701L00_BL1
100
AcDbCircle
 62
7
  6
CONTINUOUS
 10
137.83546495
 20
316.9304526193
 40
5.65
  0
ARC
  5
383
100
AcDbEntity
  8
95060701L00_BL1
100
AcDbCircle
 62
7
  6
CONTINUOUS
 10
142.83546495
 20
268.8304526193
 40
2.0
100
AcDbArc
 50
270.0
 51
360.0
  0
ARC
  5
384
100
AcDbEntity
  8
95060701L00_BL1
100
AcDbCircle
 62
7
  6
CONTINUOUS
 10
142.83546495
 20
304.8304526193
 40
2.0
100
AcDbArc
 50
0.0
 51
90.0
  0
ARC
  5
385
100
AcDbEntity
  8
95060701L00_BL1
100
AcDbCircle
 62
7
  6
CONTINUOUS
 10
134.9867336462
 20
637.5565593018
 40
1.5525373924
100
AcDbArc
 50
178.03273698
 51
301.96726302
  0
ARC
  5
386
100
AcDbEntity
  8
95060701L00_BL1
100
AcDbCircle
 62
7
  6
CONTINUOUS
 10
137.1380023424
 20
633.8304526193
 40
1.5525373924
100
AcDbArc
 50
118.03273698
 51
241.96726302
  0
ARC
  5
387
100
AcDbEntity
  8
95060701L00_BL1
100
AcDbCircle
 62
7
  6
CONTINUOUS
 10
134.9867336462
 20
630.1043459368
 40
1.5525373924
100
AcDbArc
 50
58.03273698
 51
181.96726302
  0
ARC
  5
388
100
AcDbEntity
  8
95060701L00_BL1
100
AcDbCircle
 62
7
  6
CONTINUOUS
 10
142.46046495
 20
951.3304526193
 40
1.5
100
AcDbArc
 50
270.0
 51
360.0
  0
ARC
  5
389
100
AcDbEntity
  8
95060701L00_BL1
100
AcDbCircle
 62
7
  6
CONTINUOUS
 10
142.46046495
 20
1010.3304526193
 40
1.5
100
AcDbArc
 50
0.0
 51
90.0
  0
ARC
  5
38A
100
AcDbEntity
  8
95060701L00_BL1
100
AcDbCircle
 62
7
  6
CONTINUOUS
 10
136.1263614844
 20
635.7304526193
 40
0.6
100
AcDbArc
 50
298.03273698
 51
121.96726302
  0
ARC
  5
38B
100
AcDbEntity
  8
95060701L00_BL1
100
AcDbCircle
 62
7
  6
CONTINUOUS
 10
136.1263614844
 20
631.9304526193
 40
0.6
100
AcDbArc
 50
238.03273698
 51
61.96726302
  0
ARC
  5
38C
100
AcDbEntity
  8
95060701L00_BL1
100
AcDbCircle
 62
7
  6
CONTINUOUS
 10
134.1390973882
 20
1116.8214877369
 40
3.4791460267
100
AcDbArc
 50
353.2243027717
 51
6.7756972283
  0
ARC
  5
38D
100
AcDbEntity
  8
95060701L00_BL1
100
AcDbCircle
 62
7
  6
CONTINUOUS
 10
134.1390973882
 20
1116.8214877369
 40
3.2791460267
100
AcDbArc
 50
349.270634005
 51
10.729365995
  0
ARC
  5
38E
100
AcDbEntity
  8
95060701L00_BL1
100
AcDbCircle
 62
7
  6
CONTINUOUS
 10
134.0809565011
 20
1116.8214877369
 40
3.0698388335
100
AcDbArc
 50
35.854515981
 51
11.4705154501
  0
ARC
  5
38F
100
AcDbEntity
  8
95060701L00_BL1
100
AcDbCircle
 62
7
  6
CONTINUOUS
 10
134.0809565011
 20
1116.8214877369
 40
2.8698388335
100
AcDbArc
 50
39.8043394786
 51
8.2233438267
  0
ARC
  5
390
100
AcDbEntity
  8
95060701L00_BL1
100
AcDbCircle
 62
7
  6
CONTINUOUS
 10
134.0809565012
 20
1116.8214877368
 40
1.7581757715
100
AcDbArc
 50
41.898609461
 51
346.4986148308
  0
ARC
  5
391
100
AcDbEntity
  8
95060701L00_BL1
100
AcDbCircle
 62
7
  6
CONTINUOUS
 10
134.0809565011
 20
1116.8214877369
 40
1.5581757715
100
AcDbArc
 50
35.2282226131
 51
336.934010569
  0
ARC
  5
392
100
AcDbEntity
  8
95060701L00_BL1
100
AcDbCircle
 62
7
  6
CONTINUOUS
 10
134.1390973881
 20
1116.8214877369
 40
0.6104793135
100
AcDbArc
 50
90.0
 51
270.0
  0
ARC
  5
393
100
AcDbEntity
  8
95060701L00_BL1
100
AcDbCircle
 62
7
  6
CONTINUOUS
 10
134.1390973881
 20
1116.8214877369
 40
0.4104793135
100
AcDbArc
 50
90.0
 51
270.0
  0
ARC
  5
394
100
AcDbEntity
  8
95060701L00_BL1
100
AcDbCircle
 62
7
  6
CONTINUOUS
 10
135.33546495
 20
1042.3304526193
 40
0.6
100
AcDbArc
 50
229.2248963635
 51
310.7951842604
  0
CIRCLE
  5
395
100
AcDbEntity
  8
95060701L00_BL1
100
AcDbCircle
 62
7
  6
CONTINUOUS
 10
135.33546495
 20
1045.5804526193
 40
3.9
  0
ARC
  5
396
100
AcDbEntity
  8
95060701L00_BL1
100
AcDbCircle
 62
7
  6
CONTINUOUS
 10
135.33546495
 20
1048.8304526193
 40
0.6
100
AcDbArc
 50
49.2248963634
 51
130.7951842604
  0
ARC
  5
397
100
AcDbEntity
  8
95060701L00_BL1
100
AcDbCircle
 62
7
  6
CONTINUOUS
 10
135.33546495
 20
1094.8304526193
 40
0.6
100
AcDbArc
 50
229.2248963635
 51
310.7951842604
  0
CIRCLE
  5
398
100
AcDbEntity
  8
95060701L00_BL1
100
AcDbCircle
 62
7
  6
CONTINUOUS
 10
135.33546495
 20
1098.0804526193
 40
3.9
  0
ARC
  5
399
100
AcDbEntity
  8
95060701L00_BL1
100
AcDbCircle
 62
7
  6
CONTINUOUS
 10
135.33546495
 20
1101.3304526193
 40
0.6
100
AcDbArc
 50
49.2248963634
 51
130.7951842604
  0
ARC
  5
39A
100
AcDbEntity
  8
95060701L00_BL1
100
AcDbCircle
 62
7
  6
CONTINUOUS
 10
134.9867336462
 20
1451.5565593018
 40
1.5525373924
100
AcDbArc
 50
178.03273698
 51
301.96726302
  0
ARC
  5
39B
100
AcDbEntity
  8
95060701L00_BL1
100
AcDbCircle
 62
7
  6
CONTINUOUS
 10
137.1380023424
 20
1447.8304526193
 40
1.5525373924
100
AcDbArc
 50
118.03273698
 51
241.96726302
  0
ARC
  5
39C
100
AcDbEntity
  8
95060701L00_BL1
100
AcDbCircle
 62
7
  6
CONTINUOUS
 10
134.9867336462
 20
1444.1043459368
 40
1.5525373924
100
AcDbArc
 50
58.03273698
 51
181.96726302
  0
ARC
  5
39D
100
AcDbEntity
  8
95060701L00_BL1
100
AcDbCircle
 62
7
  6
CONTINUOUS
 10
136.1263614844
 20
1449.7304526193
 40
0.6
100
AcDbArc
 50
298.03273698
 51
121.96726302
  0
ARC
  5
39E
100
AcDbEntity
  8
95060701L00_BL1
100
AcDbCircle
 62
7
  6
CONTINUOUS
 10
136.1263614844
 20
1445.9304526193
 40
0.6
100
AcDbArc
 50
238.03273698
 51
61.96726302
  0
ARC
  5
39F
100
AcDbEntity
  8
95060701L00_BL1
100
AcDbCircle
 62
7
  6
CONTINUOUS
 10
140.5462231353
 20
1115.8912335449
 40
2.1628409963
100
AcDbArc
 50
180.0
 51
360.0
  0
ARC
  5
3A0
100
AcDbEntity
  8
95060701L00_BL1
100
AcDbCircle
 62
7
  6
CONTINUOUS
 10
140.5462231352
 20
1115.8912335449
 40
1.9628409963
100
AcDbArc
 50
180.0
 51
360.0
  0
ARC
  5
3A1
100
AcDbEntity
  8
95060701L00_BL1
100
AcDbCircle
 62
7
  6
CONTINUOUS
 10
140.5462231353
 20
1115.8912335449
 40
0.8511779344
100
AcDbArc
 50
180.0
 51
360.0
  0
ARC
  5
3A2
100
AcDbEntity
  8
95060701L00_BL1
100
AcDbCircle
 62
7
  6
CONTINUOUS
 10
140.5462231352
 20
1115.8912335449
 40
0.6511779344
100
AcDbArc
 50
180.0
 51
360.0
  0
ARC
  5
3A3
100
AcDbEntity
  8
95060701L00_BL1
100
AcDbCircle
 62
7
  6
CONTINUOUS
 10
138.1500475123
 20
1047.2054526193
 40
0.6
100
AcDbArc
 50
351.9884804032
 51
69.6451938549
  0
ARC
  5
3A4
100
AcDbEntity
  8
95060701L00_BL1
100
AcDbCircle
 62
7
  6
CONTINUOUS
 10
138.1500475123
 20
1043.9554526193
 40
0.6
100
AcDbArc
 50
290.3787547774
 51
7.9711829629
  0
ARC
  5
3A5
100
AcDbEntity
  8
95060701L00_BL1
100
AcDbCircle
 62
7
  6
CONTINUOUS
 10
138.1500475123
 20
1099.7054526193
 40
0.6
100
AcDbArc
 50
351.9884804032
 51
69.6451938548
  0
ARC
  5
3A6
100
AcDbEntity
  8
95060701L00_BL1
100
AcDbCircle
 62
7
  6
CONTINUOUS
 10
138.1500475123
 20
1096.4554526193
 40
0.6
100
AcDbArc
 50
290.3787547774
 51
7.9711829629
  0
CIRCLE
  5
3A7
100
AcDbEntity
  8
95060701L00_BL1
100
AcDbCircle
 62
7
  6
CONTINUOUS
 10
137.83546495
 20
1746.7304526193
 40
5.65
  0
CIRCLE
  5
3A8
100
AcDbEntity
  8
95060701L00_BL1
100
AcDbCircle
 62
7
  6
CONTINUOUS
 10
137.83546495
 20
1806.9304526193
 40
5.65
  0
ARC
  5
3A9
100
AcDbEntity
  8
95060701L00_BL1
100
AcDbCircle
 62
7
  6
CONTINUOUS
 10
134.9867336462
 20
1898.5565593018
 40
1.5525373924
100
AcDbArc
 50
178.03273698
 51
301.96726302
  0
ARC
  5
3AA
100
AcDbEntity
  8
95060701L00_BL1
100
AcDbCircle
 62
7
  6
CONTINUOUS
 10
137.1380023424
 20
1894.8304526193
 40
1.5525373924
100
AcDbArc
 50
118.03273698
 51
241.96726302
  0
ARC
  5
3AB
100
AcDbEntity
  8
95060701L00_BL1
100
AcDbCircle
 62
7
  6
CONTINUOUS
 10
134.9867336462
 20
1891.1043459368
 40
1.5525373924
100
AcDbArc
 50
58.03273698
 51
181.96726302
  0
ARC
  5
3AC
100
AcDbEntity
  8
95060701L00_BL1
100
AcDbCircle
 62
7
  6
CONTINUOUS
 10
136.1263614844
 20
1896.7304526193
 40
0.6
100
AcDbArc
 50
298.03273698
 51
121.96726302
  0
ARC
  5
3AD
100
AcDbEntity
  8
95060701L00_BL1
100
AcDbCircle
 62
7
  6
CONTINUOUS
 10
136.1263614844
 20
1892.9304526193
 40
0.6
100
AcDbArc
 50
238.03273698
 51
61.96726302
  0
ARC
  5
3AE
100
AcDbEntity
  8
95060701L00_BL1
100
AcDbCircle
 62
7
  6
CONTINUOUS
 10
142.83546495
 20
1758.8304526193
 40
2.0
100
AcDbArc
 50
270.0
 51
360.0
  0
ARC
  5
3AF
100
AcDbEntity
  8
95060701L00_BL1
100
AcDbCircle
 62
7
  6
CONTINUOUS
 10
142.83546495
 20
1794.8304526193
 40
2.0
100
AcDbArc
 50
0.0
 51
90.0
  0
ARC
  5
3B0
100
AcDbEntity
  8
95060701L00_BL1
100
AcDbCircle
 62
7
  6
CONTINUOUS
 10
29.6279901899
 20
165.3157339935
 40
9.0
100
AcDbArc
 50
289.4712206345
 51
360.0
  0
ARC
  5
3B1
100
AcDbEntity
  8
95060701L00_BL1
100
AcDbCircle
 62
7
  6
CONTINUOUS
 10
29.6279901899
 20
1898.3451712451
 40
9.0
100
AcDbArc
 50
0.0
 51
70.5287793655
  0
ARC
  5
3B2
100
AcDbEntity
  8
95060701L00_BL1
100
AcDbCircle
 62
7
  6
CONTINUOUS
 10
32.6279901899
 20
93.3856086667
 40
3.0
100
AcDbArc
 50
180.0
 51
270.0
  0
ARC
  5
3B3
100
AcDbEntity
  8
95060701L00_BL1
100
AcDbCircle
 62
7
  6
CONTINUOUS
 10
33.1279901899
 20
93.8856086667
 40
0.5
100
AcDbArc
 50
180.0
 51
270.0
  0
ENDBLK
  5
3B4
100
AcDbEntity
  8
0
  6
BYBLOCK
 62
0
100
AcDbBlockEnd
  0
BLOCK
  5
3B5
100
AcDbEntity
  8
94528902000_M_BL2
100
AcDbBlockBegin
  2
94528902000_M_BL2
 70
64
 10
90.9831247445
 20
256.7304526193
  3
94528902000_M_BL2
  1

  0
LINE
  5
3B6
100
AcDbEntity
  8
94528902000_M_BL2
100
AcDbLine
 62
7
  6
CONTINUOUS
 10
136.96046495
 20
253.7149081627
 11
138.71046495
 21
253.7149081627
  0
LINE
  5
3B7
100
AcDbEntity
  8
94528902000_M_BL2
100
AcDbLine
 62
7
  6
CONTINUOUS
 10
138.71046495
 20
256.7459970759
 11
136.96046495
 21
256.7459970759
  0
LINE
  5
3B8
100
AcDbEntity
  8
94528902000_M_BL2
100
AcDbLine
 62
7
  6
CONTINUOUS
 10
136.08546495
 20
255.2304526193
 11
136.96046495
 21
253.7149081627
  0
LINE
  5
3B9
100
AcDbEntity
  8
94528902000_M_BL2
100
AcDbLine
 62
7
  6
CONTINUOUS
 10
139.58546495
 20
255.2304526193
 11
138.71046495
 21
256.7459970759
  0
LINE
  5
3BA
100
AcDbEntity
  8
94528902000_M_BL2
100
AcDbLine
 62
7
  6
CONTINUOUS
 10
136.96046495
 20
256.7459970759
 11
136.08546495
 21
255.2304526193
  0
LINE
  5
3BB
100
AcDbEntity
  8
94528902000_M_BL2
100
AcDbLine
 62
7
  6
CONTINUOUS
 10
138.71046495
 20
253.7149081627
 11
139.58546495
 21
255.2304526193
  0
CIRCLE
  5
3BC
100
AcDbEntity
  8
94528902000_M_BL2
100
AcDbCircle
 62
7
  6
CONTINUOUS
 10
137.83546495
 20
256.7304526193
 40
5.5
  0
CIRCLE
  5
3BD
100
AcDbEntity
  8
94528902000_M_BL2
100
AcDbCircle
 62
7
  6
CONTINUOUS
 10
137.83546495
 20
255.2304526193
 40
1.75
  0
CIRCLE
  5
3BE
100
AcDbEntity
  8
94528902000_M_BL2
100
AcDbCircle
 62
7
  6
CONTINUOUS
 10
137.83546495
 20
255.2304526193
 40
1.515
  0
CIRCLE
  5
3BF
100
AcDbEntity
  8
94528902000_M_BL2
100
AcDbCircle
 62
7
  6
CONTINUOUS
 10
137.83546495
 20
259.2304526193
 40
0.75
  0
ARC
  5
3C0
100
AcDbEntity
  8
94528902000_M_BL2
100
AcDbCircle
 62
7
  6
CONTINUOUS
 10
35.2822388789
 20
255.2304526193
 40
4.0
100
AcDbArc
 50
326.8389561101
 51
33.1610438899
  0
ENDBLK
  5
3C1
100
AcDbEntity
  8
0
  6
BYBLOCK
 62
0
100
AcDbBlockEnd
  0
BLOCK
  5
3C2
100
AcDbEntity
  8
95056301000_BL3
100
AcDbBlockBegin
  2
95056301000_BL3
 70
64
 10
90.606727569
 20
211.9944830682
  3
95056301000_BL3
  1

  0
LINE
  5
3C3
100
AcDbEntity
  8
95056301000_BL3
100
AcDbLine
 62
7
  6
CONTINUOUS
 10
134.13546495
 20
266.8804526193
 11
141.53546495
 21
266.8804526193
  0
LINE
  5
3C4
100
AcDbEntity
  8
95056301000_BL3
100
AcDbLine
 62
9
  6
CONTINUOUS
 10
135.0820531701
 20
267.6027981432
 11
140.58887673
 21
267.6027981432
  0
LINE
  5
3C5
100
AcDbEntity
  8
95056301000_BL3
100
AcDbLine
 62
9
  6
CONTINUOUS
 10
135.0820046762
 20
268.5973263281
 11
140.5889299111
 21
268.5973269343
  0
LINE
  5
3C6
100
AcDbEntity
  8
95056301000_BL3
100
AcDbLine
 62
9
  6
CONTINUOUS
 10
131.13546495
 20
268.8804526193
 11
132.13546495
 21
268.8804526193
  0
LINE
  5
3C7
100
AcDbEntity
  8
95056301000_BL3
100
AcDbLine
 62
9
  6
CONTINUOUS
 10
143.53546495
 20
268.8804526193
 11
144.53546495
 21
268.8804526193
  0
LINE
  5
3C8
100
AcDbEntity
  8
95056301000_BL3
100
AcDbLine
 62
9
  6
CONTINUOUS
 10
142.5742818537
 20
269.588200651
 11
141.5840073676
 21
269.5882006358
  0
LINE
  5
3C9
100
AcDbEntity
  8
95056301000_BL3
100
AcDbLine
 62
9
  6
CONTINUOUS
 10
133.0966480463
 20
269.5882006519
 11
134.0869231523
 21
269.5882006358
  0
LINE
  5
3CA
100
AcDbEntity
  8
95056301000_BL3
100
AcDbLine
 62
7
  6
CENTER
 10
151.58546495
 20
286.8304526193
 11
124.08546495
 21
286.8304526193
  0
LINE
  5
3CB
100
AcDbEntity
  8
95056301000_BL3
100
AcDbLine
 62
9
  6
CONTINUOUS
 10
142.5742818537
 20
304.0727045876
 11
141.5840073645
 21
304.0727046028
  0
LINE
  5
3CC
100
AcDbEntity
  8
95056301000_BL3
100
AcDbLine
 62
9
  6
CONTINUOUS
 10
133.0966480463
 20
304.0727045867
 11
134.0869231493
 21
304.0727046028
  0
LINE
  5
3CD
100
AcDbEntity
  8
95056301000_BL3
100
AcDbLine
 62
9
  6
CONTINUOUS
 10
131.13546495
 20
304.7804526193
 11
132.13546495
 21
304.7804526193
  0
LINE
  5
3CE
100
AcDbEntity
  8
95056301000_BL3
100
AcDbLine
 62
9
  6
CONTINUOUS
 10
143.53546495
 20
304.7804526193
 11
144.53546495
 21
304.7804526193
  0
LINE
  5
3CF
100
AcDbEntity
  8
95056301000_BL3
100
AcDbLine
 62
9
  6
CONTINUOUS
 10
140.5889298865
 20
305.0635783074
 11
135.0820046507
 21
305.0635789071
  0
LINE
  5
3D0
100
AcDbEntity
  8
95056301000_BL3
100
AcDbLine
 62
9
  6
CONTINUOUS
 10
140.58887673
 20
306.0581070954
 11
135.0820531701
 21
306.0581070954
  0
LINE
  5
3D1
100
AcDbEntity
  8
95056301000_BL3
100
AcDbLine
 62
7
  6
CONTINUOUS
 10
141.53546495
 20
306.7804526193
 11
134.13546495
 21
306.7804526193
  0
LINE
  5
3D2
100
AcDbEntity
  8
95056301000_BL3
100
AcDbLine
 62
9
  6
CONTINUOUS
 10
140.58887673
 20
267.6027981432
 11
141.26844477
 21
267.0945794514
  0
LINE
  5
3D3
100
AcDbEntity
  8
95056301000_BL3
100
AcDbLine
 62
9
  6
CONTINUOUS
 10
142.5742818537
 20
269.5882006358
 11
143.2489809075
 21
269.0836232421
  0
LINE
  5
3D4
100
AcDbEntity
  8
95056301000_BL3
100
AcDbLine
 62
9
  6
CONTINUOUS
 10
132.4219489925
 20
304.5772819965
 11
133.0966480463
 21
304.0727046028
  0
LINE
  5
3D5
100
AcDbEntity
  8
95056301000_BL3
100
AcDbLine
 62
9
  6
CONTINUOUS
 10
134.40248513
 20
306.5663257872
 11
135.0820531701
 21
306.0581070954
  0
LINE
  5
3D6
100
AcDbEntity
  8
95056301000_BL3
100
AcDbLine
 62
7
  6
CONTINUOUS
 10
131.13546495
 20
268.8804526193
 11
131.13546495
 21
304.7804526193
  0
LINE
  5
3D7
100
AcDbEntity
  8
95056301000_BL3
100
AcDbLine
 62
9
  6
CONTINUOUS
 10
131.8425717312
 20
304.7804526721
 11
131.8425717312
 21
268.8804525665
  0
LINE
  5
3D8
100
AcDbEntity
  8
95056301000_BL3
100
AcDbLine
 62
7
  6
CONTINUOUS
 10
132.13546495
 20
304.7804526193
 11
132.13546495
 21
268.8804526193
  0
LINE
  5
3D9
100
AcDbEntity
  8
95056301000_BL3
100
AcDbLine
 62
9
  6
CONTINUOUS
 10
133.0966480463
 20
304.0727046028
 11
133.0966480463
 21
269.5882006358
  0
LINE
  5
3DA
100
AcDbEntity
  8
95056301000_BL3
100
AcDbLine
 62
9
  6
CONTINUOUS
 10
134.0869231493
 20
304.0727584543
 11
134.0869231523
 21
269.588146761
  0
LINE
  5
3DB
100
AcDbEntity
  8
95056301000_BL3
100
AcDbLine
 62
9
  6
CONTINUOUS
 10
134.13546495
 20
306.7804526193
 11
134.13546495
 21
306.8304526193
  0
LINE
  5
3DC
100
AcDbEntity
  8
95056301000_BL3
100
AcDbLine
 62
9
  6
CONTINUOUS
 10
134.13546495
 20
266.8804526193
 11
134.13546495
 21
266.8304526193
  0
LINE
  5
3DD
100
AcDbEntity
  8
95056301000_BL3
100
AcDbLine
 62
9
  6
CONTINUOUS
 10
135.0820531835
 20
267.6027981432
 11
135.0820531701
 21
268.5973263282
  0
LINE
  5
3DE
100
AcDbEntity
  8
95056301000_BL3
100
AcDbLine
 62
9
  6
CONTINUOUS
 10
135.0820531835
 20
306.0581070954
 11
135.0820531701
 21
305.0635789071
  0
LINE
  5
3DF
100
AcDbEntity
  8
95056301000_BL3
100
AcDbLine
 62
7
  6
CENTER
 10
137.83546495
 20
326.8304526193
 11
137.83546495
 21
246.8304526193
  0
LINE
  5
3E0
100
AcDbEntity
  8
95056301000_BL3
100
AcDbLine
 62
9
  6
CONTINUOUS
 10
140.5888767158
 20
306.0581070954
 11
140.5888767299
 21
305.0635783074
  0
LINE
  5
3E1
100
AcDbEntity
  8
95056301000_BL3
100
AcDbLine
 62
9
  6
CONTINUOUS
 10
140.5888767158
 20
267.6027981432
 11
140.5888767299
 21
268.5973269343
  0
LINE
  5
3E2
100
AcDbEntity
  8
95056301000_BL3
100
AcDbLine
 62
9
  6
CONTINUOUS
 10
141.53546495
 20
266.8804526193
 11
141.5354649501
 21
266.8304526193
  0
LINE
  5
3E3
100
AcDbEntity
  8
95056301000_BL3
100
AcDbLine
 62
9
  6
CONTINUOUS
 10
141.53546495
 20
306.7804526193
 11
141.53546495
 21
306.8304526193
  0
LINE
  5
3E4
100
AcDbEntity
  8
95056301000_BL3
100
AcDbLine
 62
9
  6
CONTINUOUS
 10
141.5840073645
 20
304.0727537434
 11
141.5840073676
 21
269.588151519
  0
LINE
  5
3E5
100
AcDbEntity
  8
95056301000_BL3
100
AcDbLine
 62
9
  6
CONTINUOUS
 10
142.5742818537
 20
304.0727046028
 11
142.5742818537
 21
269.5882006358
  0
LINE
  5
3E6
100
AcDbEntity
  8
95056301000_BL3
100
AcDbLine
 62
7
  6
CONTINUOUS
 10
143.53546495
 20
268.8804526193
 11
143.53546495
 21
304.7804526193
  0
LINE
  5
3E7
100
AcDbEntity
  8
95056301000_BL3
100
AcDbLine
 62
9
  6
CONTINUOUS
 10
143.8283581688
 20
268.8804525665
 11
143.8283581688
 21
304.7804526721
  0
LINE
  5
3E8
100
AcDbEntity
  8
95056301000_BL3
100
AcDbLine
 62
7
  6
CONTINUOUS
 10
144.53546495
 20
304.7804526193
 11
144.53546495
 21
268.8804526193
  0
LINE
  5
3E9
100
AcDbEntity
  8
95056301000_BL3
100
AcDbLine
 62
9
  6
CONTINUOUS
 10
141.26844477
 20
306.5663257872
 11
140.58887673
 21
306.0581070954
  0
LINE
  5
3EA
100
AcDbEntity
  8
95056301000_BL3
100
AcDbLine
 62
9
  6
CONTINUOUS
 10
143.2489809075
 20
304.5772819965
 11
142.5742818537
 21
304.0727046028
  0
LINE
  5
3EB
100
AcDbEntity
  8
95056301000_BL3
100
AcDbLine
 62
9
  6
CONTINUOUS
 10
133.0966480463
 20
269.5882006358
 11
132.4219489925
 21
269.0836232421
  0
LINE
  5
3EC
100
AcDbEntity
  8
95056301000_BL3
100
AcDbLine
 62
9
  6
CONTINUOUS
 10
135.0820531701
 20
267.6027981432
 11
134.40248513
 21
267.0945794514
  0
LINE
  5
3ED
100
AcDbEntity
  8
95056301000_BL3
100
AcDbLine
 62
7
  6
CONTINUOUS
 10
41.6279994916
 20
265.5804535969
 11
48.8370471165
 21
266.3381550345
  0
LINE
  5
3EE
100
AcDbEntity
  8
95056301000_BL3
100
AcDbLine
 62
9
  6
CONTINUOUS
 10
41.6288718143
 20
268.5531870734
 11
48.9063363918
 21
269.3180794225
  0
LINE
  5
3EF
100
AcDbEntity
  8
95056301000_BL3
100
AcDbLine
 62
7
  6
CONTINUOUS
 10
41.6279901899
 20
265.5804526193
 11
40.2279901899
 21
265.5804526193
  0
LINE
  5
3F0
100
AcDbEntity
  8
95056301000_BL3
100
AcDbLine
 62
9
  6
CONTINUOUS
 10
41.6279901899
 20
268.5804526193
 11
40.2279901899
 21
268.5804526193
  0
LINE
  5
3F1
100
AcDbEntity
  8
95056301000_BL3
100
AcDbLine
 62
9
  6
CONTINUOUS
 10
50.6279901899
 20
269.3180794225
 11
48.9063363919
 21
269.3180794274
  0
LINE
  5
3F2
100
AcDbEntity
  8
95056301000_BL3
100
AcDbLine
 62
7
  6
CENTER
 10
29.627990188
 20
286.8304526193
 11
53.6279901899
 21
286.8304526193
  0
LINE
  5
3F3
100
AcDbEntity
  8
95056301000_BL3
100
AcDbLine
 62
9
  6
CONTINUOUS
 10
50.6279901899
 20
304.3428258161
 11
48.9063363918
 21
304.3428258161
  0
LINE
  5
3F4
100
AcDbEntity
  8
95056301000_BL3
100
AcDbLine
 62
9
  6
CONTINUOUS
 10
40.2279901899
 20
305.0804526193
 11
41.6279901899
 21
305.0804526193
  0
LINE
  5
3F5
100
AcDbEntity
  8
95056301000_BL3
100
AcDbLine
 62
7
  6
CONTINUOUS
 10
40.2279901899
 20
308.0804526193
 11
41.6279901899
 21
308.0804526193
  0
LINE
  5
3F6
100
AcDbEntity
  8
95056301000_BL3
100
AcDbLine
 62
9
  6
CONTINUOUS
 10
48.9063363918
 20
304.3428258161
 11
41.6288718143
 21
305.1077181652
  0
LINE
  5
3F7
100
AcDbEntity
  8
95056301000_BL3
100
AcDbLine
 62
7
  6
CONTINUOUS
 10
48.8370471165
 20
307.322750204
 11
41.6283255119
 21
308.0804173755
  0
LINE
  5
3F8
100
AcDbEntity
  8
95056301000_BL3
100
AcDbLine
 62
9
  6
CONTINUOUS
 10
40.2279901899
 20
265.5804526193
 11
40.2279901899
 21
268.5804526193
  0
LINE
  5
3F9
100
AcDbEntity
  8
95056301000_BL3
100
AcDbLine
 62
9
  6
CONTINUOUS
 10
40.2279901899
 20
305.0804526193
 11
40.2279901899
 21
308.0804526193
  0
LINE
  5
3FA
100
AcDbEntity
  8
95056301000_BL3
100
AcDbLine
 62
7
  6
CONTINUOUS
 10
41.6279901899
 20
305.0804526193
 11
41.6279901899
 21
268.5804526193
  0
LINE
  5
3FB
100
AcDbEntity
  8
95056301000_BL3
100
AcDbLine
 62
9
  6
CONTINUOUS
 10
48.9063363918
 20
304.3428258161
 11
48.9063363918
 21
269.3180794225
  0
LINE
  5
3FC
100
AcDbEntity
  8
95056301000_BL3
100
AcDbLine
 62
7
  6
CONTINUOUS
 10
50.6279901899
 20
305.3337064133
 11
50.6279901899
 21
268.3271988253
  0
ARC
  5
3FD
100
AcDbEntity
  8
95056301000_BL3
100
AcDbCircle
 62
9
  6
CONTINUOUS
 10
128.3288435475
 20
274.5516071203
 40
6.8302532805
100
AcDbArc
 50
303.8705046175
 51
306.8169998168
  0
ARC
  5
3FE
100
AcDbEntity
  8
95056301000_BL3
100
AcDbCircle
 62
9
  6
CONTINUOUS
 10
128.3288435476
 20
299.1092981184
 40
6.8302532804
100
AcDbArc
 50
53.1830001831
 51
56.1294953825
  0
ARC
  5
3FF
100
AcDbEntity
  8
95056301000_BL3
100
AcDbCircle
 62
7
  6
CONTINUOUS
 10
134.13546495
 20
268.8804526193
 40
3.0
100
AcDbArc
 50
180.0
 51
213.4748862639
  0
ARC
  5
400
100
AcDbEntity
  8
95056301000_BL3
100
AcDbCircle
 62
9
  6
CONTINUOUS
 10
134.13546495
 20
268.8804526193
 40
2.2928932188
100
AcDbArc
 50
180.0000013195
 51
243.6352111972
  0
ARC
  5
401
100
AcDbEntity
  8
95056301000_BL3
100
AcDbCircle
 62
7
  6
CONTINUOUS
 10
134.13546495
 20
268.8804526193
 40
2.0
100
AcDbArc
 50
179.9999995357
 51
270.0000005617
  0
ARC
  5
402
100
AcDbEntity
  8
95056301000_BL3
100
AcDbCircle
 62
9
  6
CONTINUOUS
 10
135.0964437096
 20
269.6025938256
 40
1.9998474589
100
AcDbArc
 50
180.4123695263
 51
269.5877064061
  0
ARC
  5
403
100
AcDbEntity
  8
95056301000_BL3
100
AcDbCircle
 62
7
  6
CONTINUOUS
 10
134.13546495
 20
304.7804526193
 40
3.0
100
AcDbArc
 50
146.5251137361
 51
180.0
  0
ARC
  5
404
100
AcDbEntity
  8
95056301000_BL3
100
AcDbCircle
 62
9
  6
CONTINUOUS
 10
134.13546495
 20
304.7804526193
 40
2.2928932188
100
AcDbArc
 50
116.364803013
 51
179.9999986805
  0
ARC
  5
405
100
AcDbEntity
  8
95056301000_BL3
100
AcDbCircle
 62
7
  6
CONTINUOUS
 10
134.13546495
 20
304.7804526193
 40
2.0
100
AcDbArc
 50
90.0
 51
180.0
  0
ARC
  5
406
100
AcDbEntity
  8
95056301000_BL3
100
AcDbCircle
 62
9
  6
CONTINUOUS
 10
135.0964437099
 20
304.0583114127
 40
1.9998474592
100
AcDbArc
 50
90.4122936023
 51
179.5876304653
  0
ARC
  5
407
100
AcDbEntity
  8
95056301000_BL3
100
AcDbCircle
 62
9
  6
CONTINUOUS
 10
140.5744858695
 20
269.6025941465
 40
1.9998477822
100
AcDbArc
 50
270.4123027223
 51
359.5876213453
  0
ARC
  5
408
100
AcDbEntity
  8
95056301000_BL3
100
AcDbCircle
 62
9
  6
CONTINUOUS
 10
140.5744858699
 20
304.0583110924
 40
1.9998477818
100
AcDbArc
 50
0.4123786435
 51
89.5876972888
  0
ARC
  5
409
100
AcDbEntity
  8
95056301000_BL3
100
AcDbCircle
 62
9
  6
CONTINUOUS
 10
147.3420863525
 20
299.1092981184
 40
6.8302532804
100
AcDbArc
 50
123.8705046175
 51
126.8169998169
  0
ARC
  5
40A
100
AcDbEntity
  8
95056301000_BL3
100
AcDbCircle
 62
9
  6
CONTINUOUS
 10
147.3420863525
 20
274.5516071203
 40
6.8302532806
100
AcDbArc
 50
233.1830001832
 51
236.1294953825
  0
ARC
  5
40B
100
AcDbEntity
  8
95056301000_BL3
100
AcDbCircle
 62
7
  6
CONTINUOUS
 10
141.53546495
 20
268.8804526193
 40
3.0
100
AcDbArc
 50
326.5251137361
 51
360.0
  0
ARC
  5
40C
100
AcDbEntity
  8
95056301000_BL3
100
AcDbCircle
 62
7
  6
CONTINUOUS
 10
141.53546495
 20
304.7804526193
 40
3.0
100
AcDbArc
 50
0.0
 51
33.4748862639
  0
ARC
  5
40D
100
AcDbEntity
  8
95056301000_BL3
100
AcDbCircle
 62
9
  6
CONTINUOUS
 10
141.53546495
 20
304.7804526193
 40
2.2928932188
100
AcDbArc
 50
0.0000013195
 51
63.6352111972
  0
ARC
  5
40E
100
AcDbEntity
  8
95056301000_BL3
100
AcDbCircle
 62
9
  6
CONTINUOUS
 10
141.53546495
 20
268.8804526193
 40
2.2928932188
100
AcDbArc
 50
296.364803013
 51
359.9999986805
  0
ARC
  5
40F
100
AcDbEntity
  8
95056301000_BL3
100
AcDbCircle
 62
7
  6
CONTINUOUS
 10
141.53546495
 20
268.8804526193
 40
2.0
100
AcDbArc
 50
270.0
 51
360.0
  0
ARC
  5
410
100
AcDbEntity
  8
95056301000_BL3
100
AcDbCircle
 62
7
  6
CONTINUOUS
 10
141.53546495
 20
304.7804526193
 40
2.0
100
AcDbArc
 50
359.9999995357
 51
90.0000005617
  0
ARC
  5
411
100
AcDbEntity
  8
95056301000_BL3
100
AcDbCircle
 62
7
  6
CONTINUOUS
 10
40.2279901899
 20
262.0804526193
 40
3.5
100
AcDbArc
 50
90.0
 51
117.237723661
  0
ARC
  5
412
100
AcDbEntity
  8
95056301000_BL3
100
AcDbCircle
 62
7
  6
CONTINUOUS
 10
40.2279901899
 20
311.5804526193
 40
3.5
100
AcDbArc
 50
242.762276339
 51
270.0
  0
ARC
  5
413
100
AcDbEntity
  8
95056301000_BL3
100
AcDbCircle
 62
7
  6
CONTINUOUS
 10
48.6279901899
 20
268.3272136086
 40
2.0
100
AcDbArc
 50
275.999955734
 51
359.9995764886
  0
ARC
  5
414
100
AcDbEntity
  8
95056301000_BL3
100
AcDbCircle
 62
7
  6
CONTINUOUS
 10
48.6279901899
 20
305.33369163
 40
2.0
100
AcDbArc
 50
0.0004235114
 51
84.000044266
  0
ARC
  5
415
100
AcDbEntity
  8
95056301000_BL3
100
AcDbCircle
 62
7
  6
CONTINUOUS
 10
48.6279901899
 20
107.6321575154
 40
2.0
100
AcDbArc
 50
0.0002911576
 51
82.0000405195
  0
ARC
  5
416
100
AcDbEntity
  8
95056301000_BL3
100
AcDbCircle
 62
7
  6
CONTINUOUS
 10
48.6279901899
 20
99.1390496547
 40
2.0
100
AcDbArc
 50
278.0
 51
360.0
  0
SPLINE
  5
417
100
AcDbEntity
  8
95056301000_BL3
100
AcDbSpline
 62
9
  6
CONTINUOUS
 70
0
 71
3
 72
13
 73
9
 74
0
 42
0.0000001
 43
0.0000001
 44
0.0000000001
 40
0.0
 40
0.0
 40
0.0
 40
0.0
 40
0.2168432294
 40
0.4959871106
 40
0.612589761
 40
0.7614689364
 40
0.9113542479
 40
1.0
 40
1.0
 40
1.0
 40
1.0
 10
134.13546495
 20
306.7733700958
 30
0.0
 10
134.1168136794
 20
306.7571818309
 30
0.0
 10
134.2121983477
 20
306.7111488091
 30
0.0
 10
134.2539739276
 20
306.6843534702
 30
0.0
 10
134.3007446756
 20
306.6399156383
 30
0.0
 10
134.3434408333
 20
306.6171547167
 30
0.0
 10
134.3798145383
 20
306.6006651494
 30
0.0
 10
134.4056063722
 20
306.5759272615
 30
0.0
 10
134.40248513
 20
306.5663257872
 30
0.0
  0
SPLINE
  5
418
100
AcDbEntity
  8
95056301000_BL3
100
AcDbSpline
 62
9
  6
CONTINUOUS
 70
0
 71
3
 72
13
 73
9
 74
0
 42
0.0000001
 43
0.0000001
 44
0.0000000001
 40
0.0
 40
0.0
 40
0.0
 40
0.0
 40
0.2168432294
 40
0.4959871106
 40
0.612589761
 40
0.7614689364
 40
0.9113542479
 40
1.0
 40
1.0
 40
1.0
 40
1.0
 10
141.53546495
 20
306.7733700958
 30
0.0
 10
141.5541162206
 20
306.7571818309
 30
0.0
 10
141.4587315523
 20
306.7111488091
 30
0.0
 10
141.4169559724
 20
306.6843534702
 30
0.0
 10
141.3701852244
 20
306.6399156383
 30
0.0
 10
141.3274890668
 20
306.6171547167
 30
0.0
 10
141.2911153617
 20
306.6006651494
 30
0.0
 10
141.2653235278
 20
306.5759272615
 30
0.0
 10
141.26844477
 20
306.5663257872
 30
0.0
  0
SPLINE
  5
419
100
AcDbEntity
  8
95056301000_BL3
100
AcDbSpline
 62
9
  6
CONTINUOUS
 70
0
 71
3
 72
13
 73
9
 74
0
 42
0.0000001
 43
0.0000001
 44
0.0000000001
 40
0.0
 40
0.0
 40
0.0
 40
0.0
 40
0.2168432294
 40
0.4959871106
 40
0.612589761
 40
0.7614689364
 40
0.9113542479
 40
1.0
 40
1.0
 40
1.0
 40
1.0
 10
141.53546495
 20
266.8875351428
 30
0.0
 10
141.5541162206
 20
266.9037234077
 30
0.0
 10
141.4587315523
 20
266.9497564295
 30
0.0
 10
141.4169559724
 20
266.9765517684
 30
0.0
 10
141.3701852244
 20
267.0209896003
 30
0.0
 10
141.3274890668
 20
267.0437505219
 30
0.0
 10
141.2911153617
 20
267.0602400892
 30
0.0
 10
141.2653235278
 20
267.0849779771
 30
0.0
 10
141.26844477
 20
267.0945794514
 30
0.0
  0
SPLINE
  5
41A
100
AcDbEntity
  8
95056301000_BL3
100
AcDbSpline
 62
9
  6
CONTINUOUS
 70
0
 71
3
 72
13
 73
9
 74
0
 42
0.0000001
 43
0.0000001
 44
0.0000000001
 40
0.0
 40
0.0
 40
0.0
 40
0.0
 40
0.2168432294
 40
0.4959871106
 40
0.612589761
 40
0.7614689364
 40
0.9113542479
 40
1.0
 40
1.0
 40
1.0
 40
1.0
 10
134.13546495
 20
266.8875351428
 30
0.0
 10
134.1168136794
 20
266.9037234077
 30
0.0
 10
134.2121983477
 20
266.9497564295
 30
0.0
 10
134.2539739276
 20
266.9765517684
 30
0.0
 10
134.3007446756
 20
267.0209896003
 30
0.0
 10
134.3434408333
 20
267.0437505219
 30
0.0
 10
134.3798145383
 20
267.0602400892
 30
0.0
 10
134.4056063722
 20
267.0849779771
 30
0.0
 10
134.40248513
 20
267.0945794514
 30
0.0
  0
SPLINE
  5
41B
100
AcDbEntity
  8
95056301000_BL3
100
AcDbSpline
 62
9
  6
CONTINUOUS
 70
0
 71
3
 72
9
 73
5
 74
0
 42
0.0000001
 43
0.0000001
 44
0.0000000001
 40
0.0
 40
0.0
 40
0.0
 40
0.0
 40
0.5007444138
 40
1.0
 40
1.0
 40
1.0
 40
1.0
 10
132.4219490012
 20
304.57728199
 30
0.0
 10
132.4292678632
 20
305.0825423791
 30
0.0
 10
132.8580363712
 20
306.124305021
 30
0.0
 10
133.8987279177
 20
306.558965867
 30
0.0
 10
134.4024851384
 20
306.566325781
 30
0.0
  0
SPLINE
  5
41C
100
AcDbEntity
  8
95056301000_BL3
100
AcDbSpline
 62
9
  6
CONTINUOUS
 70
0
 71
3
 72
9
 73
5
 74
0
 42
0.0000001
 43
0.0000001
 44
0.0000000001
 40
0.0
 40
0.0
 40
0.0
 40
0.0
 40
0.4992555862
 40
1.0
 40
1.0
 40
1.0
 40
1.0
 10
134.4024851384
 20
267.0945794576
 30
0.0
 10
133.8987279177
 20
267.1019393716
 30
0.0
 10
132.8580363712
 20
267.5366002175
 30
0.0
 10
132.4292678632
 20
268.5783628595
 30
0.0
 10
132.4219490012
 20
269.0836232485
 30
0.0
  0
SPLINE
  5
41D
100
AcDbEntity
  8
95056301000_BL3
100
AcDbSpline
 62
9
  6
CONTINUOUS
 70
0
 71
3
 72
9
 73
5
 74
0
 42
0.0000001
 43
0.0000001
 44
0.0000000001
 40
0.0
 40
0.0
 40
0.0
 40
0.0
 40
0.4992555862
 40
1.0
 40
1.0
 40
1.0
 40
1.0
 10
141.2684447617
 20
306.566325781
 30
0.0
 10
141.7722019823
 20
306.558965867
 30
0.0
 10
142.8128935288
 20
306.124305021
 30
0.0
 10
143.2416620368
 20
305.0825423791
 30
0.0
 10
143.2489808989
 20
304.57728199
 30
0.0
  0
SPLINE
  5
41E
100
AcDbEntity
  8
95056301000_BL3
100
AcDbSpline
 62
9
  6
CONTINUOUS
 70
0
 71
3
 72
9
 73
5
 74
0
 42
0.0000001
 43
0.0000001
 44
0.0000000001
 40
0.0
 40
0.0
 40
0.0
 40
0.0
 40
0.5007444138
 40
1.0
 40
1.0
 40
1.0
 40
1.0
 10
143.2489808989
 20
269.0836232485
 30
0.0
 10
143.2416620368
 20
268.5783628595
 30
0.0
 10
142.8128935288
 20
267.5366002175
 30
0.0
 10
141.7722019823
 20
267.1019393716
 30
0.0
 10
141.2684447617
 20
267.0945794576
 30
0.0
  0
SPLINE
  5
41F
100
AcDbEntity
  8
95056301000_BL3
100
AcDbSpline
 62
9
  6
CONTINUOUS
 70
0
 71
3
 72
9
 73
5
 74
0
 42
0.0000001
 43
0.0000001
 44
0.0000000001
 40
0.0
 40
0.0
 40
0.0
 40
0.0
 40
0.500105482
 40
1.0
 40
1.0
 40
1.0
 40
1.0
 10
135.0820046507
 20
305.0635789071
 30
0.0
 10
134.828471646
 20
305.0634854486
 30
0.0
 10
134.2989718204
 20
304.8553084507
 30
0.0
 10
134.0870139283
 20
304.3261845098
 30
0.0
 10
134.0869231493
 20
304.0727584543
 30
0.0
  0
SPLINE
  5
420
100
AcDbEntity
  8
95056301000_BL3
100
AcDbSpline
 62
9
  6
CONTINUOUS
 70
0
 71
3
 72
9
 73
5
 74
0
 42
0.0000001
 43
0.0000001
 44
0.0000000001
 40
0.0
 40
0.0
 40
0.0
 40
0.0
 40
0.4998948435
 40
1.0
 40
1.0
 40
1.0
 40
1.0
 10
141.5840073645
 20
304.0727537434
 30
0.0
 10
141.5839114153
 20
304.3261799711
 30
0.0
 10
141.3719648023
 20
304.8553018007
 30
0.0
 10
140.8424627371
 20
305.0634898765
 30
0.0
 10
140.5889298865
 20
305.0635783074
 30
0.0
  0
SPLINE
  5
421
100
AcDbEntity
  8
95056301000_BL3
100
AcDbSpline
 62
9
  6
CONTINUOUS
 70
0
 71
3
 72
9
 73
5
 74
0
 42
0.0000001
 43
0.0000001
 44
0.0000000001
 40
0.0
 40
0.0
 40
0.0
 40
0.0
 40
0.5001051562
 40
1.0
 40
1.0
 40
1.0
 40
1.0
 10
140.5889299111
 20
268.5973269343
 30
0.0
 10
140.8424627614
 20
268.5974153454
 30
0.0
 10
141.3719648287
 20
268.8056034703
 30
0.0
 10
141.5839114096
 20
269.3347252913
 30
0.0
 10
141.5840073676
 20
269.588151519
 30
0.0
  0
SPLINE
  5
422
100
AcDbEntity
  8
95056301000_BL3
100
AcDbSpline
 62
9
  6
CONTINUOUS
 70
0
 71
3
 72
9
 73
5
 74
0
 42
0.0000001
 43
0.0000001
 44
0.0000000001
 40
0.0
 40
0.0
 40
0.0
 40
0.0
 40
0.4998945177
 40
1.0
 40
1.0
 40
1.0
 40
1.0
 10
134.0869231523
 20
269.588146761
 30
0.0
 10
134.087013917
 20
269.3347207052
 30
0.0
 10
134.2989718501
 20
268.8055967587
 30
0.0
 10
134.8284716711
 20
268.5974198004
 30
0.0
 10
135.0820046762
 20
268.5973263281
 30
0.0
  0
SPLINE
  5
423
100
AcDbEntity
  8
95056301000_BL3
100
AcDbSpline
 62
7
  6
CONTINUOUS
 70
0
 71
3
 72
8
 73
4
 74
0
 42
0.0000001
 43
0.0000001
 44
0.0000000001
 40
0.0
 40
0.0
 40
0.0
 40
0.0
 40
1.0
 40
1.0
 40
1.0
 40
1.0
 10
38.627585455
 20
267.0075522155
 30
0.0
 10
39.128915695
 20
267.5626621055
 30
0.0
 10
39.6791205125
 20
268.0722980397
 30
0.0
 10
40.2279901899
 20
268.5804526193
 30
0.0
  0
SPLINE
  5
424
100
AcDbEntity
  8
95056301000_BL3
100
AcDbSpline
 62
7
  6
CONTINUOUS
 70
0
 71
3
 72
8
 73
4
 74
0
 42
0.0000001
 43
0.0000001
 44
0.0000000001
 40
0.0
 40
0.0
 40
0.0
 40
0.0
 40
1.0
 40
1.0
 40
1.0
 40
1.0
 10
40.2279901899
 20
305.0804526193
 30
0.0
 10
39.679114181
 20
305.5886130606
 30
0.0
 10
39.1289029611
 20
306.0982549479
 30
0.0
 10
38.6275680807
 20
306.6533722734
 30
0.0
  0
SPLINE
  5
425
100
AcDbEntity
  8
95056301000_BL3
100
AcDbSpline
 62
9
  6
CONTINUOUS
 70
0
 71
3
 72
14
 73
10
 74
0
 42
0.0000001
 43
0.0000001
 44
0.0000000001
 40
0.0
 40
0.0
 40
0.0
 40
0.0
 40
0.3781494693
 40
0.5488889341
 40
0.6987423175
 40
0.822150101
 40
0.9147238314
 40
0.9736457863
 40
1.0
 40
1.0
 40
1.0
 40
1.0
 10
48.9063363918
 20
269.3180794225
 30
0.0
 10
48.932218671
 20
268.9401971653
 30
0.0
 10
48.9606217378
 20
268.3907609518
 30
0.0
 10
48.9752138088
 20
267.6914879554
 30
0.0
 10
48.9727405198
 20
267.2454922699
 30
0.0
 10
48.9598211578
 20
266.8826178827
 30
0.0
 10
48.9322535557
 20
266.5999799112
 30
0.0
 10
48.90491994
 20
266.4402813845
 30
0.0
 10
48.8632971774
 20
266.3409391613
 30
0.0
 10
48.8370471165
 20
266.3381550345
 30
0.0
  0
SPLINE
  5
426
100
AcDbEntity
  8
95056301000_BL3
100
AcDbSpline
 62
7
  6
CONTINUOUS
 70
0
 71
3
 72
17
 73
13
 74
0
 42
0.0000001
 43
0.0000001
 44
0.0000000001
 40
0.0
 40
0.0
 40
0.0
 40
0.0
 40
0.1943561103
 40
0.3811969072
 40
0.5531797279
 40
0.7039707029
 40
0.8278237595
 40
0.9201640434
 40
0.9534652602
 40
0.977797116
 40
0.9931043217
 40
1.0
 40
1.0
 40
1.0
 40
1.0
 10
41.6288718143
 20
268.5531870734
 30
0.0
 10
41.6413440821
 20
268.3603293325
 30
0.0
 10
41.662624499
 20
267.9818630116
 30
0.0
 10
41.6850980109
 20
267.4322252491
 30
0.0
 10
41.6978101143
 20
266.9256679601
 30
0.0
 10
41.7009793542
 20
266.4813917713
 30
0.0
 10
41.6952025233
 20
266.1168905231
 30
0.0
 10
41.6830769074
 20
265.8681302963
 30
0.0
 10
41.668640561
 20
265.7208661842
 30
0.0
 10
41.6569855908
 20
265.6471195091
 30
0.0
 10
41.6467672907
 20
265.6059967821
 30
0.0
 10
41.6351447602
 20
265.5812045949
 30
0.0
 10
41.6283255119
 20
265.580487863
 30
0.0
  0
SPLINE
  5
427
100
AcDbEntity
  8
95056301000_BL3
100
AcDbSpline
 62
9
  6
CONTINUOUS
 70
0
 71
3
 72
14
 73
10
 74
0
 42
0.0000001
 43
0.0000001
 44
0.0000000001
 40
0.0
 40
0.0
 40
0.0
 40
0.0
 40
0.0263542148
 40
0.0852761692
 40
0.1778498994
 40
0.301257683
 40
0.4511110663
 40
0.621850531
 40
1.0
 40
1.0
 40
1.0
 40
1.0
 10
48.8370471165
 20
307.322750204
 30
0.0
 10
48.8632971791
 20
307.3199660827
 30
0.0
 10
48.9049199484
 20
307.2206238524
 30
0.0
 10
48.9322535506
 20
307.0609253279
 30
0.0
 10
48.959821158
 20
306.7782873553
 30
0.0
 10
48.9727405201
 20
306.4154129689
 30
0.0
 10
48.9752138105
 20
305.969417283
 30
0.0
 10
48.960621734
 20
305.270144287
 30
0.0
 10
48.9322186803
 20
304.7207080726
 30
0.0
 10
48.9063363918
 20
304.3428258161
 30
0.0
  0
SPLINE
  5
428
100
AcDbEntity
  8
95056301000_BL3
100
AcDbSpline
 62
7
  6
CONTINUOUS
 70
0
 71
3
 72
17
 73
13
 74
0
 42
0.0000001
 43
0.0000001
 44
0.0000000001
 40
0.0
 40
0.0
 40
0.0
 40
0.0
 40
0.0068956783
 40
0.022202884
 40
0.0465347398
 40
0.0798359566
 40
0.1721762405
 40
0.2960292971
 40
0.4468202721
 40
0.6188030928
 40
0.8056438897
 40
1.0
 40
1.0
 40
1.0
 40
1.0
 10
41.6283255119
 20
308.0804173755
 30
0.0
 10
41.6351447602
 20
308.0797006437
 30
0.0
 10
41.6467672907
 20
308.0549084565
 30
0.0
 10
41.6569855908
 20
308.0137857294
 30
0.0
 10
41.668640561
 20
307.9400390544
 30
0.0
 10
41.6830769074
 20
307.7927749423
 30
0.0
 10
41.6952025233
 20
307.5440147155
 30
0.0
 10
41.7009793542
 20
307.1795134673
 30
0.0
 10
41.6978101143
 20
306.7352372785
 30
0.0
 10
41.6850980109
 20
306.2286799895
 30
0.0
 10
41.662624499
 20
305.679042227
 30
0.0
 10
41.6413440821
 20
305.3005759061
 30
0.0
 10
41.6288718143
 20
305.1077181652
 30
0.0
  0
ELLIPSE
  5
429
100
AcDbEntity
  8
95056301000_BL3
100
AcDbEllipse
 62
7
  6
CONTINUOUS
 10
62.9740993571
 20
268.5804526193
 30
0.0
 11
21.3461091672
 21
-0.0
 31
0.0
 40
0.1405408347
 41
3.1415926536
 42
3.150681294
  0
ELLIPSE
  5
42A
100
AcDbEntity
  8
95056301000_BL3
100
AcDbEllipse
 62
7
  6
CONTINUOUS
 10
62.9740993571
 20
305.0804526193
 30
0.0
 11
21.3461091672
 21
0.0
 31
0.0
 40
0.1405408347
 41
3.1325040132
 42
3.1415926536
  0
ENDBLK
  5
42B
100
AcDbEntity
  8
0
  6
BYBLOCK
 62
0
100
AcDbBlockEnd
  0
BLOCK
  5
42C
100
AcDbEntity
  8
94528902000_M_BL4
100
AcDbBlockBegin
  2
94528902000_M_BL4
 70
64
 10
90.9831247445
 20
316.9304526193
  3
94528902000_M_BL4
  1

  0
LINE
  5
42D
100
AcDbEntity
  8
94528902000_M_BL4
100
AcDbLine
 62
7
  6
CONTINUOUS
 10
136.96046495
 20
316.9149081627
 11
138.71046495
 21
316.9149081627
  0
LINE
  5
42E
100
AcDbEntity
  8
94528902000_M_BL4
100
AcDbLine
 62
7
  6
CONTINUOUS
 10
138.71046495
 20
319.9459970759
 11
136.96046495
 21
319.9459970759
  0
LINE
  5
42F
100
AcDbEntity
  8
94528902000_M_BL4
100
AcDbLine
 62
7
  6
CONTINUOUS
 10
136.08546495
 20
318.4304526193
 11
136.96046495
 21
316.9149081627
  0
LINE
  5
430
100
AcDbEntity
  8
94528902000_M_BL4
100
AcDbLine
 62
7
  6
CONTINUOUS
 10
139.58546495
 20
318.4304526193
 11
138.71046495
 21
319.9459970759
  0
LINE
  5
431
100
AcDbEntity
  8
94528902000_M_BL4
100
AcDbLine
 62
7
  6
CONTINUOUS
 10
136.96046495
 20
319.9459970759
 11
136.08546495
 21
318.4304526193
  0
LINE
  5
432
100
AcDbEntity
  8
94528902000_M_BL4
100
AcDbLine
 62
7
  6
CONTINUOUS
 10
138.71046495
 20
316.9149081627
 11
139.58546495
 21
318.4304526193
  0
CIRCLE
  5
433
100
AcDbEntity
  8
94528902000_M_BL4
100
AcDbCircle
 62
7
  6
CONTINUOUS
 10
137.83546495
 20
316.9304526193
 40
5.5
  0
CIRCLE
  5
434
100
AcDbEntity
  8
94528902000_M_BL4
100
AcDbCircle
 62
7
  6
CONTINUOUS
 10
137.83546495
 20
318.4304526193
 40
1.75
  0
CIRCLE
  5
435
100
AcDbEntity
  8
94528902000_M_BL4
100
AcDbCircle
 62
7
  6
CONTINUOUS
 10
137.83546495
 20
318.4304526193
 40
1.515
  0
CIRCLE
  5
436
100
AcDbEntity
  8
94528902000_M_BL4
100
AcDbCircle
 62
7
  6
CONTINUOUS
 10
137.83546495
 20
314.4304526193
 40
0.75
  0
ARC
  5
437
100
AcDbEntity
  8
94528902000_M_BL4
100
AcDbCircle
 62
7
  6
CONTINUOUS
 10
35.2822388789
 20
318.4304526193
 40
4.0
100
AcDbArc
 50
326.8389561101
 51
33.1610438899
  0
ENDBLK
  5
438
100
AcDbEntity
  8
0
  6
BYBLOCK
 62
0
100
AcDbBlockEnd
  0
BLOCK
  5
439
100
AcDbEntity
  8
95056301000_BL5
100
AcDbBlockBegin
  2
95056301000_BL5
 70
64
 10
90.606727569
 20
955.483030643
  3
95056301000_BL5
  1

  0
LINE
  5
43A
100
AcDbEntity
  8
95056301000_BL5
100
AcDbLine
 62
9
  6
CONTINUOUS
 10
140.58887673
 20
1796.0581070954
 11
141.26844477
 21
1796.5663257872
  0
LINE
  5
43B
100
AcDbEntity
  8
95056301000_BL5
100
AcDbLine
 62
9
  6
CONTINUOUS
 10
142.5742818537
 20
1794.0727046028
 11
143.2489809075
 21
1794.5772819965
  0
LINE
  5
43C
100
AcDbEntity
  8
95056301000_BL5
100
AcDbLine
 62
9
  6
CONTINUOUS
 10
132.4219489925
 20
1759.0836232421
 11
133.0966480463
 21
1759.5882006358
  0
LINE
  5
43D
100
AcDbEntity
  8
95056301000_BL5
100
AcDbLine
 62
9
  6
CONTINUOUS
 10
134.40248513
 20
1757.0945794514
 11
135.0820531701
 21
1757.6027981432
  0
LINE
  5
43E
100
AcDbEntity
  8
95056301000_BL5
100
AcDbLine
 62
7
  6
CONTINUOUS
 10
131.13546495
 20
1758.8804526193
 11
131.13546495
 21
1794.7804526193
  0
LINE
  5
43F
100
AcDbEntity
  8
95056301000_BL5
100
AcDbLine
 62
9
  6
CONTINUOUS
 10
131.8425717312
 20
1794.7804526721
 11
131.8425717312
 21
1758.8804525665
  0
LINE
  5
440
100
AcDbEntity
  8
95056301000_BL5
100
AcDbLine
 62
7
  6
CONTINUOUS
 10
132.13546495
 20
1794.7804526193
 11
132.13546495
 21
1758.8804526193
  0
LINE
  5
441
100
AcDbEntity
  8
95056301000_BL5
100
AcDbLine
 62
9
  6
CONTINUOUS
 10
133.0966480463
 20
1759.5882006358
 11
133.0966480463
 21
1794.0727046028
  0
LINE
  5
442
100
AcDbEntity
  8
95056301000_BL5
100
AcDbLine
 62
9
  6
CONTINUOUS
 10
134.0869225355
 20
1759.5881514952
 11
134.0869225324
 21
1794.0727537196
  0
LINE
  5
443
100
AcDbEntity
  8
95056301000_BL5
100
AcDbLine
 62
9
  6
CONTINUOUS
 10
134.13546495
 20
1756.8804526193
 11
134.13546495
 21
1756.8304526193
  0
LINE
  5
444
100
AcDbEntity
  8
95056301000_BL5
100
AcDbLine
 62
9
  6
CONTINUOUS
 10
134.13546495
 20
1796.7804526193
 11
134.13546495
 21
1796.8304526193
  0
LINE
  5
445
100
AcDbEntity
  8
95056301000_BL5
100
AcDbLine
 62
9
  6
CONTINUOUS
 10
135.0820531842
 20
1796.0581070954
 11
135.0820531701
 21
1795.0635783042
  0
LINE
  5
446
100
AcDbEntity
  8
95056301000_BL5
100
AcDbLine
 62
9
  6
CONTINUOUS
 10
135.0820531842
 20
1757.6027981432
 11
135.0820531701
 21
1758.5973269311
  0
LINE
  5
447
100
AcDbEntity
  8
95056301000_BL5
100
AcDbLine
 62
7
  6
CENTER
 10
137.83546495
 20
1736.8304526193
 11
137.83546495
 21
1816.8304526193
  0
LINE
  5
448
100
AcDbEntity
  8
95056301000_BL5
100
AcDbLine
 62
9
  6
CONTINUOUS
 10
140.5888767165
 20
1757.6027981432
 11
140.5888767299
 21
1758.5973263315
  0
LINE
  5
449
100
AcDbEntity
  8
95056301000_BL5
100
AcDbLine
 62
9
  6
CONTINUOUS
 10
140.5888767165
 20
1796.0581070954
 11
140.5888767299
 21
1795.0635789104
  0
LINE
  5
44A
100
AcDbEntity
  8
95056301000_BL5
100
AcDbLine
 62
9
  6
CONTINUOUS
 10
141.53546495
 20
1796.7804526193
 11
141.53546495
 21
1796.8304526193
  0
LINE
  5
44B
100
AcDbEntity
  8
95056301000_BL5
100
AcDbLine
 62
9
  6
CONTINUOUS
 10
141.53546495
 20
1756.8804526193
 11
141.5354649501
 21
1756.8304526193
  0
LINE
  5
44C
100
AcDbEntity
  8
95056301000_BL5
100
AcDbLine
 62
9
  6
CONTINUOUS
 10
141.5840067508
 20
1759.5881467843
 11
141.5840067477
 21
1794.0727584776
  0
LINE
  5
44D
100
AcDbEntity
  8
95056301000_BL5
100
AcDbLine
 62
9
  6
CONTINUOUS
 10
142.5742818537
 20
1759.5882006358
 11
142.5742818537
 21
1794.0727046028
  0
LINE
  5
44E
100
AcDbEntity
  8
95056301000_BL5
100
AcDbLine
 62
7
  6
CONTINUOUS
 10
143.53546495
 20
1758.8804526193
 11
143.53546495
 21
1794.7804526193
  0
LINE
  5
44F
100
AcDbEntity
  8
95056301000_BL5
100
AcDbLine
 62
9
  6
CONTINUOUS
 10
143.8283581688
 20
1758.8804525665
 11
143.8283581688
 21
1794.7804526721
  0
LINE
  5
450
100
AcDbEntity
  8
95056301000_BL5
100
AcDbLine
 62
7
  6
CONTINUOUS
 10
144.53546495
 20
1794.7804526193
 11
144.53546495
 21
1758.8804526193
  0
LINE
  5
451
100
AcDbEntity
  8
95056301000_BL5
100
AcDbLine
 62
9
  6
CONTINUOUS
 10
141.26844477
 20
1757.0945794514
 11
140.58887673
 21
1757.6027981432
  0
LINE
  5
452
100
AcDbEntity
  8
95056301000_BL5
100
AcDbLine
 62
9
  6
CONTINUOUS
 10
143.2489809075
 20
1759.0836232421
 11
142.5742818537
 21
1759.5882006358
  0
LINE
  5
453
100
AcDbEntity
  8
95056301000_BL5
100
AcDbLine
 62
9
  6
CONTINUOUS
 10
133.0966480463
 20
1794.0727046028
 11
132.4219489925
 21
1794.5772819965
  0
LINE
  5
454
100
AcDbEntity
  8
95056301000_BL5
100
AcDbLine
 62
9
  6
CONTINUOUS
 10
135.0820531701
 20
1796.0581070954
 11
134.40248513
 21
1796.5663257872
  0
LINE
  5
455
100
AcDbEntity
  8
95056301000_BL5
100
AcDbLine
 62
7
  6
CONTINUOUS
 10
134.13546495
 20
1756.8804526193
 11
141.53546495
 21
1756.8804526193
  0
LINE
  5
456
100
AcDbEntity
  8
95056301000_BL5
100
AcDbLine
 62
9
  6
CONTINUOUS
 10
135.0820531701
 20
1757.6027981432
 11
140.58887673
 21
1757.6027981432
  0
LINE
  5
457
100
AcDbEntity
  8
95056301000_BL5
100
AcDbLine
 62
9
  6
CONTINUOUS
 10
135.0820000135
 20
1758.5973269312
 11
140.5889252494
 21
1758.5973263315
  0
LINE
  5
458
100
AcDbEntity
  8
95056301000_BL5
100
AcDbLine
 62
9
  6
CONTINUOUS
 10
131.13546495
 20
1758.8804526193
 11
132.13546495
 21
1758.8804526193
  0
LINE
  5
459
100
AcDbEntity
  8
95056301000_BL5
100
AcDbLine
 62
9
  6
CONTINUOUS
 10
143.53546495
 20
1758.8804526193
 11
144.53546495
 21
1758.8804526193
  0
LINE
  5
45A
100
AcDbEntity
  8
95056301000_BL5
100
AcDbLine
 62
9
  6
CONTINUOUS
 10
142.5742818537
 20
1759.5882006519
 11
141.5840067508
 21
1759.5882006358
  0
LINE
  5
45B
100
AcDbEntity
  8
95056301000_BL5
100
AcDbLine
 62
9
  6
CONTINUOUS
 10
133.0966480463
 20
1759.588200651
 11
134.0869225355
 21
1759.5882006358
  0
LINE
  5
45C
100
AcDbEntity
  8
95056301000_BL5
100
AcDbLine
 62
7
  6
CENTER
 10
124.08546495
 20
1776.8304526193
 11
151.58546495
 21
1776.8304526193
  0
LINE
  5
45D
100
AcDbEntity
  8
95056301000_BL5
100
AcDbLine
 62
9
  6
CONTINUOUS
 10
142.5742818537
 20
1794.0727045867
 11
141.5840067477
 21
1794.0727046028
  0
LINE
  5
45E
100
AcDbEntity
  8
95056301000_BL5
100
AcDbLine
 62
9
  6
CONTINUOUS
 10
133.0966480463
 20
1794.0727045876
 11
134.0869225324
 21
1794.0727046028
  0
LINE
  5
45F
100
AcDbEntity
  8
95056301000_BL5
100
AcDbLine
 62
9
  6
CONTINUOUS
 10
131.13546495
 20
1794.7804526193
 11
132.13546495
 21
1794.7804526193
  0
LINE
  5
460
100
AcDbEntity
  8
95056301000_BL5
100
AcDbLine
 62
9
  6
CONTINUOUS
 10
143.53546495
 20
1794.7804526193
 11
144.53546495
 21
1794.7804526193
  0
LINE
  5
461
100
AcDbEntity
  8
95056301000_BL5
100
AcDbLine
 62
9
  6
CONTINUOUS
 10
140.5889252238
 20
1795.0635789104
 11
135.0819999889
 21
1795.0635783042
  0
LINE
  5
462
100
AcDbEntity
  8
95056301000_BL5
100
AcDbLine
 62
9
  6
CONTINUOUS
 10
140.58887673
 20
1796.0581070954
 11
135.0820531701
 21
1796.0581070954
  0
LINE
  5
463
100
AcDbEntity
  8
95056301000_BL5
100
AcDbLine
 62
7
  6
CONTINUOUS
 10
141.53546495
 20
1796.7804526193
 11
134.13546495
 21
1796.7804526193
  0
LINE
  5
464
100
AcDbEntity
  8
95056301000_BL5
100
AcDbLine
 62
9
  6
CONTINUOUS
 10
40.2279901899
 20
1755.5804526193
 11
40.2279901899
 21
1758.5804526193
  0
LINE
  5
465
100
AcDbEntity
  8
95056301000_BL5
100
AcDbLine
 62
9
  6
CONTINUOUS
 10
40.2279901899
 20
1795.0804526193
 11
40.2279901899
 21
1798.0804526193
  0
LINE
  5
466
100
AcDbEntity
  8
95056301000_BL5
100
AcDbLine
 62
7
  6
CONTINUOUS
 10
41.6279901899
 20
1758.5804526193
 11
41.6279901899
 21
1795.0804526193
  0
LINE
  5
467
100
AcDbEntity
  8
95056301000_BL5
100
AcDbLine
 62
9
  6
CONTINUOUS
 10
48.9063363918
 20
1794.3428258161
 11
48.9063363918
 21
1759.3180794225
  0
LINE
  5
468
100
AcDbEntity
  8
95056301000_BL5
100
AcDbLine
 62
7
  6
CONTINUOUS
 10
50.6279901899
 20
1795.3337064133
 11
50.6279901899
 21
1758.3271988253
  0
LINE
  5
469
100
AcDbEntity
  8
95056301000_BL5
100
AcDbLine
 62
7
  6
CONTINUOUS
 10
41.6279994916
 20
1755.5804535969
 11
48.8370471165
 21
1756.3381550345
  0
LINE
  5
46A
100
AcDbEntity
  8
95056301000_BL5
100
AcDbLine
 62
9
  6
CONTINUOUS
 10
41.6288718143
 20
1758.5531870734
 11
48.9063363918
 21
1759.3180794225
  0
LINE
  5
46B
100
AcDbEntity
  8
95056301000_BL5
100
AcDbLine
 62
7
  6
CONTINUOUS
 10
41.6279901899
 20
1755.5804526193
 11
40.2279901899
 21
1755.5804526193
  0
LINE
  5
46C
100
AcDbEntity
  8
95056301000_BL5
100
AcDbLine
 62
9
  6
CONTINUOUS
 10
41.6279901899
 20
1758.5804526193
 11
40.2279901899
 21
1758.5804526193
  0
LINE
  5
46D
100
AcDbEntity
  8
95056301000_BL5
100
AcDbLine
 62
9
  6
CONTINUOUS
 10
50.6279901899
 20
1759.3180794225
 11
48.9063363919
 21
1759.3180794274
  0
LINE
  5
46E
100
AcDbEntity
  8
95056301000_BL5
100
AcDbLine
 62
7
  6
CENTER
 10
29.627990188
 20
1776.8304526193
 11
53.6279901899
 21
1776.8304526193
  0
LINE
  5
46F
100
AcDbEntity
  8
95056301000_BL5
100
AcDbLine
 62
9
  6
CONTINUOUS
 10
50.6279901899
 20
1794.3428258161
 11
48.9063363918
 21
1794.3428258161
  0
LINE
  5
470
100
AcDbEntity
  8
95056301000_BL5
100
AcDbLine
 62
9
  6
CONTINUOUS
 10
40.2279901899
 20
1795.0804526193
 11
41.6279901899
 21
1795.0804526193
  0
LINE
  5
471
100
AcDbEntity
  8
95056301000_BL5
100
AcDbLine
 62
9
  6
CONTINUOUS
 10
48.9063363918
 20
1794.3428258161
 11
41.6288718143
 21
1795.1077181652
  0
LINE
  5
472
100
AcDbEntity
  8
95056301000_BL5
100
AcDbLine
 62
7
  6
CONTINUOUS
 10
48.8370471165
 20
1797.322750204
 11
41.6283255119
 21
1798.0804173755
  0
LINE
  5
473
100
AcDbEntity
  8
95056301000_BL5
100
AcDbLine
 62
7
  6
CONTINUOUS
 10
40.2279901899
 20
1798.0804526193
 11
41.6279901899
 21
1798.0804526193
  0
LINE
  5
474
100
AcDbEntity
  8
95056301000_BL5
100
AcDbLine
 62
9
  6
CONTINUOUS
 10
33.1279901899
 20
111.8856086667
 11
33.1279901899
 21
94.8856086667
  0
LINE
  5
475
100
AcDbEntity
  8
95056301000_BL5
100
AcDbLine
 62
7
  6
CONTINUOUS
 10
33.1279901899
 20
94.8856086667
 11
35.4279901899
 21
94.8856086667
  0
LINE
  5
476
100
AcDbEntity
  8
95056301000_BL5
100
AcDbLine
 62
7
  6
CONTINUOUS
 10
35.4279901899
 20
111.8856086667
 11
35.4279901899
 21
111.6356086667
  0
LINE
  5
477
100
AcDbEntity
  8
95056301000_BL5
100
AcDbLine
 62
7
  6
CONTINUOUS
 10
35.4279901899
 20
95.1356086667
 11
35.4279901899
 21
94.8856086667
  0
LINE
  5
478
100
AcDbEntity
  8
95056301000_BL5
100
AcDbLine
 62
7
  6
CONTINUOUS
 10
48.9063363918
 20
97.1585135172
 11
41.6288718143
 21
96.1357325709
  0
LINE
  5
479
100
AcDbEntity
  8
95056301000_BL5
100
AcDbLine
 62
7
  6
CONTINUOUS
 10
36.4279901899
 20
96.1356086667
 11
41.6279901899
 21
96.1356086667
  0
LINE
  5
47A
100
AcDbEntity
  8
95056301000_BL5
100
AcDbLine
 62
7
  6
CONTINUOUS
 10
36.7279901899
 20
110.6356086667
 11
36.7279901899
 21
96.1356086667
  0
LINE
  5
47B
100
AcDbEntity
  8
95056301000_BL5
100
AcDbLine
 62
9
  6
CONTINUOUS
 10
48.8370471165
 20
100.1341867097
 11
41.6283255119
 21
99.1210669582
  0
LINE
  5
47C
100
AcDbEntity
  8
95056301000_BL5
100
AcDbLine
 62
9
  6
CONTINUOUS
 10
36.7279901899
 20
99.1356086751
 11
41.6279901899
 21
99.1356086667
  0
LINE
  5
47D
100
AcDbEntity
  8
95056301000_BL5
100
AcDbLine
 62
9
  6
CONTINUOUS
 10
40.2279901899
 20
96.1356086667
 11
40.2279901899
 21
110.6356086667
  0
LINE
  5
47E
100
AcDbEntity
  8
95056301000_BL5
100
AcDbLine
 62
9
  6
CONTINUOUS
 10
50.6279901899
 20
100.1341867097
 11
48.8370471166
 21
100.1341867156
  0
LINE
  5
47F
100
AcDbEntity
  8
95056301000_BL5
100
AcDbLine
 62
7
  6
CONTINUOUS
 10
41.6279901899
 20
99.1356086667
 11
41.6279901899
 21
107.6356086667
  0
LINE
  5
480
100
AcDbEntity
  8
95056301000_BL5
100
AcDbLine
 62
7
  6
CENTER
 10
29.627990188
 20
103.3856086667
 11
53.6279901899
 21
103.3856086667
  0
LINE
  5
481
100
AcDbEntity
  8
95056301000_BL5
100
AcDbLine
 62
9
  6
CONTINUOUS
 10
50.6279901899
 20
106.6370306237
 11
48.8370471165
 21
106.6370306237
  0
LINE
  5
482
100
AcDbEntity
  8
95056301000_BL5
100
AcDbLine
 62
9
  6
CONTINUOUS
 10
41.6279901899
 20
107.6356086667
 11
36.7279901899
 21
107.6356086667
  0
LINE
  5
483
100
AcDbEntity
  8
95056301000_BL5
100
AcDbLine
 62
9
  6
CONTINUOUS
 10
41.6283255119
 20
107.6501503752
 11
48.8370471165
 21
106.6370306237
  0
LINE
  5
484
100
AcDbEntity
  8
95056301000_BL5
100
AcDbLine
 62
9
  6
CONTINUOUS
 10
48.8370471165
 20
106.6370306237
 11
48.8370471165
 21
100.1341867097
  0
LINE
  5
485
100
AcDbEntity
  8
95056301000_BL5
100
AcDbLine
 62
7
  6
CONTINUOUS
 10
50.6279901899
 20
107.6321676787
 11
50.6279901899
 21
99.1390496547
  0
LINE
  5
486
100
AcDbEntity
  8
95056301000_BL5
100
AcDbLine
 62
7
  6
CONTINUOUS
 10
36.4279901899
 20
110.6356086667
 11
41.6279901899
 21
110.6356086667
  0
LINE
  5
487
100
AcDbEntity
  8
95056301000_BL5
100
AcDbLine
 62
7
  6
CONTINUOUS
 10
33.1279901899
 20
111.8856086667
 11
35.4279901899
 21
111.8856086667
  0
LINE
  5
488
100
AcDbEntity
  8
95056301000_BL5
100
AcDbLine
 62
7
  6
CONTINUOUS
 10
41.6288718143
 20
110.6354847625
 11
48.9063363918
 21
109.6127038162
  0
ARC
  5
489
100
AcDbEntity
  8
95056301000_BL5
100
AcDbCircle
 62
9
  6
CONTINUOUS
 10
128.3288435474
 20
1764.5516071205
 40
6.8302532807
100
AcDbArc
 50
303.8705046176
 51
306.8169998168
  0
ARC
  5
48A
100
AcDbEntity
  8
95056301000_BL5
100
AcDbCircle
 62
9
  6
CONTINUOUS
 10
128.3288435477
 20
1789.1092981185
 40
6.8302532803
100
AcDbArc
 50
53.1830001831
 51
56.1294953825
  0
ARC
  5
48B
100
AcDbEntity
  8
95056301000_BL5
100
AcDbCircle
 62
7
  6
CONTINUOUS
 10
134.13546495
 20
1758.8804526193
 40
3.0
100
AcDbArc
 50
180.0
 51
213.4748862639
  0
ARC
  5
48C
100
AcDbEntity
  8
95056301000_BL5
100
AcDbCircle
 62
9
  6
CONTINUOUS
 10
134.13546495
 20
1758.8804526193
 40
2.2928932188
100
AcDbArc
 50
180.0000013195
 51
243.6352111972
  0
ARC
  5
48D
100
AcDbEntity
  8
95056301000_BL5
100
AcDbCircle
 62
7
  6
CONTINUOUS
 10
134.13546495
 20
1758.8804526193
 40
2.0
100
AcDbArc
 50
179.9999995357
 51
270.0000005617
  0
ARC
  5
48E
100
AcDbEntity
  8
95056301000_BL5
100
AcDbCircle
 62
9
  6
CONTINUOUS
 10
135.0964440302
 20
1759.6025941461
 40
1.9998477818
100
AcDbArc
 50
180.4123786435
 51
269.5876972889
  0
ARC
  5
48F
100
AcDbEntity
  8
95056301000_BL5
100
AcDbCircle
 62
7
  6
CONTINUOUS
 10
134.13546495
 20
1794.7804526193
 40
3.0
100
AcDbArc
 50
146.5251137361
 51
180.0
  0
ARC
  5
490
100
AcDbEntity
  8
95056301000_BL5
100
AcDbCircle
 62
9
  6
CONTINUOUS
 10
134.13546495
 20
1794.7804526193
 40
2.2928932188
100
AcDbArc
 50
116.364803013
 51
179.9999986805
  0
ARC
  5
491
100
AcDbEntity
  8
95056301000_BL5
100
AcDbCircle
 62
7
  6
CONTINUOUS
 10
134.13546495
 20
1794.7804526193
 40
2.0
100
AcDbArc
 50
90.0
 51
180.0
  0
ARC
  5
492
100
AcDbEntity
  8
95056301000_BL5
100
AcDbCircle
 62
9
  6
CONTINUOUS
 10
135.0964440306
 20
1794.0583110921
 40
1.9998477822
100
AcDbArc
 50
90.4123027223
 51
179.5876213453
  0
ARC
  5
493
100
AcDbEntity
  8
95056301000_BL5
100
AcDbCircle
 62
9
  6
CONTINUOUS
 10
140.5744861901
 20
1759.6025938259
 40
1.9998474592
100
AcDbArc
 50
270.4122936023
 51
359.5876304653
  0
ARC
  5
494
100
AcDbEntity
  8
95056301000_BL5
100
AcDbCircle
 62
9
  6
CONTINUOUS
 10
140.5744861904
 20
1794.058311413
 40
1.9998474589
100
AcDbArc
 50
0.4123695263
 51
89.5877064061
  0
ARC
  5
495
100
AcDbEntity
  8
95056301000_BL5
100
AcDbCircle
 62
9
  6
CONTINUOUS
 10
147.3420863525
 20
1789.1092981183
 40
6.8302532805
100
AcDbArc
 50
123.8705046175
 51
126.8169998168
  0
ARC
  5
496
100
AcDbEntity
  8
95056301000_BL5
100
AcDbCircle
 62
9
  6
CONTINUOUS
 10
147.3420863526
 20
1764.5516071205
 40
6.8302532808
100
AcDbArc
 50
233.1830001832
 51
236.1294953825
  0
ARC
  5
497
100
AcDbEntity
  8
95056301000_BL5
100
AcDbCircle
 62
7
  6
CONTINUOUS
 10
141.53546495
 20
1794.7804526193
 40
3.0
100
AcDbArc
 50
0.0
 51
33.4748862639
  0
ARC
  5
498
100
AcDbEntity
  8
95056301000_BL5
100
AcDbCircle
 62
7
  6
CONTINUOUS
 10
141.53546495
 20
1758.8804526193
 40
3.0
100
AcDbArc
 50
326.5251137361
 51
360.0
  0
ARC
  5
499
100
AcDbEntity
  8
95056301000_BL5
100
AcDbCircle
 62
9
  6
CONTINUOUS
 10
141.53546495
 20
1758.8804526193
 40
2.2928932188
100
AcDbArc
 50
296.364803013
 51
359.9999986805
  0
ARC
  5
49A
100
AcDbEntity
  8
95056301000_BL5
100
AcDbCircle
 62
9
  6
CONTINUOUS
 10
141.53546495
 20
1794.7804526193
 40
2.2928932188
100
AcDbArc
 50
0.0000013195
 51
63.6352111972
  0
ARC
  5
49B
100
AcDbEntity
  8
95056301000_BL5
100
AcDbCircle
 62
7
  6
CONTINUOUS
 10
141.53546495
 20
1758.8804526193
 40
2.0
100
AcDbArc
 50
270.0
 51
360.0
  0
ARC
  5
49C
100
AcDbEntity
  8
95056301000_BL5
100
AcDbCircle
 62
7
  6
CONTINUOUS
 10
141.53546495
 20
1794.7804526193
 40
2.0
100
AcDbArc
 50
359.9999995357
 51
90.0000005617
  0
ARC
  5
49D
100
AcDbEntity
  8
95056301000_BL5
100
AcDbCircle
 62
7
  6
CONTINUOUS
 10
40.2279901899
 20
1801.5804526193
 40
3.5
100
AcDbArc
 50
242.762276339
 51
270.0
  0
ARC
  5
49E
100
AcDbEntity
  8
95056301000_BL5
100
AcDbCircle
 62
7
  6
CONTINUOUS
 10
40.2279901899
 20
1752.0804526193
 40
3.5
100
AcDbArc
 50
90.0
 51
117.237723661
  0
ARC
  5
49F
100
AcDbEntity
  8
95056301000_BL5
100
AcDbCircle
 62
7
  6
CONTINUOUS
 10
48.6279901899
 20
1795.33369163
 40
2.0
100
AcDbArc
 50
0.0004235114
 51
84.000044266
  0
ARC
  5
4A0
100
AcDbEntity
  8
95056301000_BL5
100
AcDbCircle
 62
7
  6
CONTINUOUS
 10
48.6279901899
 20
1758.3272136086
 40
2.0
100
AcDbArc
 50
275.999955734
 51
359.9995764886
  0
ARC
  5
4A1
100
AcDbEntity
  8
95056301000_BL5
100
AcDbCircle
 62
7
  6
CONTINUOUS
 10
48.6279901899
 20
99.139059818
 40
2.0
100
AcDbArc
 50
277.9999594805
 51
359.9997088424
  0
ARC
  5
4A2
100
AcDbEntity
  8
95056301000_BL5
100
AcDbCircle
 62
7
  6
CONTINUOUS
 10
48.6279901899
 20
107.6321676787
 40
2.0
100
AcDbArc
 50
0.0
 51
82.0
  0
ARC
  5
4A3
100
AcDbEntity
  8
95056301000_BL5
100
AcDbCircle
 62
7
  6
CONTINUOUS
 10
36.4279901899
 20
111.6356086667
 40
1.0
100
AcDbArc
 50
180.0
 51
270.0
  0
ARC
  5
4A4
100
AcDbEntity
  8
95056301000_BL5
100
AcDbCircle
 62
7
  6
CONTINUOUS
 10
36.4279901899
 20
95.1356086667
 40
1.0
100
AcDbArc
 50
90.0
 51
180.0
  0
ARC
  5
4A5
100
AcDbEntity
  8
95056301000_BL5
100
AcDbCircle
 62
7
  6
CONTINUOUS
 10
33.1279901899
 20
111.3856086667
 40
0.5
100
AcDbArc
 50
90.0
 51
180.0
  0
ARC
  5
4A6
100
AcDbEntity
  8
95056301000_BL5
100
AcDbCircle
 62
7
  6
CONTINUOUS
 10
33.1279901899
 20
95.3856086667
 40
0.5
100
AcDbArc
 50
180.0
 51
270.0
  0
SPLINE
  5
4A7
100
AcDbEntity
  8
95056301000_BL5
100
AcDbSpline
 62
9
  6
CONTINUOUS
 70
0
 71
3
 72
13
 73
9
 74
0
 42
0.0000001
 43
0.0000001
 44
0.0000000001
 40
0.0
 40
0.0
 40
0.0
 40
0.0
 40
0.2168432294
 40
0.4959871106
 40
0.612589761
 40
0.7614689364
 40
0.9113542479
 40
1.0
 40
1.0
 40
1.0
 40
1.0
 10
141.53546495
 20
1756.8875351428
 30
0.0
 10
141.5541162206
 20
1756.9037234077
 30
0.0
 10
141.4587315523
 20
1756.9497564295
 30
0.0
 10
141.4169559724
 20
1756.9765517684
 30
0.0
 10
141.3701852244
 20
1757.0209896003
 30
0.0
 10
141.3274890668
 20
1757.0437505219
 30
0.0
 10
141.2911153617
 20
1757.0602400892
 30
0.0
 10
141.2653235278
 20
1757.0849779771
 30
0.0
 10
141.26844477
 20
1757.0945794514
 30
0.0
  0
SPLINE
  5
4A8
100
AcDbEntity
  8
95056301000_BL5
100
AcDbSpline
 62
9
  6
CONTINUOUS
 70
0
 71
3
 72
13
 73
9
 74
0
 42
0.0000001
 43
0.0000001
 44
0.0000000001
 40
0.0
 40
0.0
 40
0.0
 40
0.0
 40
0.2168432294
 40
0.4959871106
 40
0.612589761
 40
0.7614689364
 40
0.9113542479
 40
1.0
 40
1.0
 40
1.0
 40
1.0
 10
134.13546495
 20
1756.8875351428
 30
0.0
 10
134.1168136794
 20
1756.9037234077
 30
0.0
 10
134.2121983477
 20
1756.9497564295
 30
0.0
 10
134.2539739276
 20
1756.9765517684
 30
0.0
 10
134.3007446756
 20
1757.0209896003
 30
0.0
 10
134.3434408333
 20
1757.0437505219
 30
0.0
 10
134.3798145383
 20
1757.0602400892
 30
0.0
 10
134.4056063722
 20
1757.0849779771
 30
0.0
 10
134.40248513
 20
1757.0945794514
 30
0.0
  0
SPLINE
  5
4A9
100
AcDbEntity
  8
95056301000_BL5
100
AcDbSpline
 62
9
  6
CONTINUOUS
 70
0
 71
3
 72
13
 73
9
 74
0
 42
0.0000001
 43
0.0000001
 44
0.0000000001
 40
0.0
 40
0.0
 40
0.0
 40
0.0
 40
0.2168432294
 40
0.4959871106
 40
0.612589761
 40
0.7614689364
 40
0.9113542479
 40
1.0
 40
1.0
 40
1.0
 40
1.0
 10
134.13546495
 20
1796.7733700958
 30
0.0
 10
134.1168136794
 20
1796.7571818309
 30
0.0
 10
134.2121983477
 20
1796.7111488091
 30
0.0
 10
134.2539739276
 20
1796.6843534702
 30
0.0
 10
134.3007446756
 20
1796.6399156383
 30
0.0
 10
134.3434408333
 20
1796.6171547167
 30
0.0
 10
134.3798145383
 20
1796.6006651494
 30
0.0
 10
134.4056063722
 20
1796.5759272615
 30
0.0
 10
134.40248513
 20
1796.5663257872
 30
0.0
  0
SPLINE
  5
4AA
100
AcDbEntity
  8
95056301000_BL5
100
AcDbSpline
 62
9
  6
CONTINUOUS
 70
0
 71
3
 72
13
 73
9
 74
0
 42
0.0000001
 43
0.0000001
 44
0.0000000001
 40
0.0
 40
0.0
 40
0.0
 40
0.0
 40
0.2168432294
 40
0.4959871106
 40
0.612589761
 40
0.7614689364
 40
0.9113542479
 40
1.0
 40
1.0
 40
1.0
 40
1.0
 10
141.53546495
 20
1796.7733700958
 30
0.0
 10
141.5541162206
 20
1796.7571818309
 30
0.0
 10
141.4587315523
 20
1796.7111488091
 30
0.0
 10
141.4169559724
 20
1796.6843534702
 30
0.0
 10
141.3701852244
 20
1796.6399156383
 30
0.0
 10
141.3274890668
 20
1796.6171547167
 30
0.0
 10
141.2911153617
 20
1796.6006651494
 30
0.0
 10
141.2653235278
 20
1796.5759272615
 30
0.0
 10
141.26844477
 20
1796.5663257872
 30
0.0
  0
SPLINE
  5
4AB
100
AcDbEntity
  8
95056301000_BL5
100
AcDbSpline
 62
9
  6
CONTINUOUS
 70
0
 71
3
 72
9
 73
5
 74
0
 42
0.0000001
 43
0.0000001
 44
0.0000000001
 40
0.0
 40
0.0
 40
0.0
 40
0.0
 40
0.5007444138
 40
1.0
 40
1.0
 40
1.0
 40
1.0
 10
143.2489808989
 20
1759.0836232485
 30
0.0
 10
143.2416620368
 20
1758.5783628595
 30
0.0
 10
142.8128935288
 20
1757.5366002175
 30
0.0
 10
141.7722019823
 20
1757.1019393716
 30
0.0
 10
141.2684447617
 20
1757.0945794576
 30
0.0
  0
SPLINE
  5
4AC
100
AcDbEntity
  8
95056301000_BL5
100
AcDbSpline
 62
9
  6
CONTINUOUS
 70
0
 71
3
 72
9
 73
5
 74
0
 42
0.0000001
 43
0.0000001
 44
0.0000000001
 40
0.0
 40
0.0
 40
0.0
 40
0.0
 40
0.4992555862
 40
1.0
 40
1.0
 40
1.0
 40
1.0
 10
141.2684447617
 20
1796.566325781
 30
0.0
 10
141.7722019823
 20
1796.558965867
 30
0.0
 10
142.8128935288
 20
1796.124305021
 30
0.0
 10
143.2416620368
 20
1795.0825423791
 30
0.0
 10
143.2489808989
 20
1794.57728199
 30
0.0
  0
SPLINE
  5
4AD
100
AcDbEntity
  8
95056301000_BL5
100
AcDbSpline
 62
9
  6
CONTINUOUS
 70
0
 71
3
 72
9
 73
5
 74
0
 42
0.0000001
 43
0.0000001
 44
0.0000000001
 40
0.0
 40
0.0
 40
0.0
 40
0.0
 40
0.4992555862
 40
1.0
 40
1.0
 40
1.0
 40
1.0
 10
134.4024851384
 20
1757.0945794576
 30
0.0
 10
133.8987279177
 20
1757.1019393716
 30
0.0
 10
132.8580363712
 20
1757.5366002175
 30
0.0
 10
132.4292678632
 20
1758.5783628595
 30
0.0
 10
132.4219490012
 20
1759.0836232485
 30
0.0
  0
SPLINE
  5
4AE
100
AcDbEntity
  8
95056301000_BL5
100
AcDbSpline
 62
9
  6
CONTINUOUS
 70
0
 71
3
 72
9
 73
5
 74
0
 42
0.0000001
 43
0.0000001
 44
0.0000000001
 40
0.0
 40
0.0
 40
0.0
 40
0.0
 40
0.5007444138
 40
1.0
 40
1.0
 40
1.0
 40
1.0
 10
132.4219490012
 20
1794.57728199
 30
0.0
 10
132.4292678632
 20
1795.0825423791
 30
0.0
 10
132.8580363712
 20
1796.124305021
 30
0.0
 10
133.8987279177
 20
1796.558965867
 30
0.0
 10
134.4024851384
 20
1796.566325781
 30
0.0
  0
SPLINE
  5
4AF
100
AcDbEntity
  8
95056301000_BL5
100
AcDbSpline
 62
9
  6
CONTINUOUS
 70
0
 71
3
 72
9
 73
5
 74
0
 42
0.0000001
 43
0.0000001
 44
0.0000000001
 40
0.0
 40
0.0
 40
0.0
 40
0.0
 40
0.500105482
 40
1.0
 40
1.0
 40
1.0
 40
1.0
 10
140.5889252494
 20
1758.5973263315
 30
0.0
 10
140.842458254
 20
1758.59741979
 30
0.0
 10
141.3719580797
 20
1758.8055967879
 30
0.0
 10
141.5839159717
 20
1759.3347207287
 30
0.0
 10
141.5840067508
 20
1759.5881467843
 30
0.0
  0
SPLINE
  5
4B0
100
AcDbEntity
  8
95056301000_BL5
100
AcDbSpline
 62
9
  6
CONTINUOUS
 70
0
 71
3
 72
9
 73
5
 74
0
 42
0.0000001
 43
0.0000001
 44
0.0000000001
 40
0.0
 40
0.0
 40
0.0
 40
0.0
 40
0.4998948435
 40
1.0
 40
1.0
 40
1.0
 40
1.0
 10
134.0869225355
 20
1759.5881514952
 30
0.0
 10
134.0870184847
 20
1759.3347252675
 30
0.0
 10
134.2989650977
 20
1758.8056034379
 30
0.0
 10
134.828467163
 20
1758.5974153621
 30
0.0
 10
135.0820000135
 20
1758.5973269312
 30
0.0
  0
SPLINE
  5
4B1
100
AcDbEntity
  8
95056301000_BL5
100
AcDbSpline
 62
9
  6
CONTINUOUS
 70
0
 71
3
 72
9
 73
5
 74
0
 42
0.0000001
 43
0.0000001
 44
0.0000000001
 40
0.0
 40
0.0
 40
0.0
 40
0.0
 40
0.5001051562
 40
1.0
 40
1.0
 40
1.0
 40
1.0
 10
135.0819999889
 20
1795.0635783042
 30
0.0
 10
134.8284671386
 20
1795.0634898932
 30
0.0
 10
134.2989650713
 20
1794.8553017683
 30
0.0
 10
134.0870184904
 20
1794.3261799473
 30
0.0
 10
134.0869225324
 20
1794.0727537196
 30
0.0
  0
SPLINE
  5
4B2
100
AcDbEntity
  8
95056301000_BL5
100
AcDbSpline
 62
9
  6
CONTINUOUS
 70
0
 71
3
 72
9
 73
5
 74
0
 42
0.0000001
 43
0.0000001
 44
0.0000000001
 40
0.0
 40
0.0
 40
0.0
 40
0.0
 40
0.4998945177
 40
1.0
 40
1.0
 40
1.0
 40
1.0
 10
141.5840067477
 20
1794.0727584776
 30
0.0
 10
141.583915983
 20
1794.3261845333
 30
0.0
 10
141.3719580499
 20
1794.8553084799
 30
0.0
 10
140.842458229
 20
1795.0634854381
 30
0.0
 10
140.5889252238
 20
1795.0635789104
 30
0.0
  0
SPLINE
  5
4B3
100
AcDbEntity
  8
95056301000_BL5
100
AcDbSpline
 62
7
  6
CONTINUOUS
 70
0
 71
3
 72
8
 73
4
 74
0
 42
0.0000001
 43
0.0000001
 44
0.0000000001
 40
0.0
 40
0.0
 40
0.0
 40
0.0
 40
1.0
 40
1.0
 40
1.0
 40
1.0
 10
40.2279901899
 20
1795.0804526193
 30
0.0
 10
39.679114181
 20
1795.5886130606
 30
0.0
 10
39.1289029611
 20
1796.0982549479
 30
0.0
 10
38.6275680807
 20
1796.6533722734
 30
0.0
  0
SPLINE
  5
4B4
100
AcDbEntity
  8
95056301000_BL5
100
AcDbSpline
 62
7
  6
CONTINUOUS
 70
0
 71
3
 72
8
 73
4
 74
0
 42
0.0000001
 43
0.0000001
 44
0.0000000001
 40
0.0
 40
0.0
 40
0.0
 40
0.0
 40
1.0
 40
1.0
 40
1.0
 40
1.0
 10
38.627585455
 20
1757.0075522155
 30
0.0
 10
39.128915695
 20
1757.5626621055
 30
0.0
 10
39.6791205125
 20
1758.0722980397
 30
0.0
 10
40.2279901899
 20
1758.5804526193
 30
0.0
  0
SPLINE
  5
4B5
100
AcDbEntity
  8
95056301000_BL5
100
AcDbSpline
 62
7
  6
CONTINUOUS
 70
0
 71
3
 72
17
 73
13
 74
0
 42
0.0000001
 43
0.0000001
 44
0.0000000001
 40
0.0
 40
0.0
 40
0.0
 40
0.0
 40
0.0068956783
 40
0.022202884
 40
0.0465347398
 40
0.0798359566
 40
0.1721762405
 40
0.2960292971
 40
0.4468202721
 40
0.6188030928
 40
0.8056438897
 40
1.0
 40
1.0
 40
1.0
 40
1.0
 10
41.6283255119
 20
1798.0804173755
 30
0.0
 10
41.6351447602
 20
1798.0797006437
 30
0.0
 10
41.6467672907
 20
1798.0549084565
 30
0.0
 10
41.6569855908
 20
1798.0137857294
 30
0.0
 10
41.668640561
 20
1797.9400390544
 30
0.0
 10
41.6830769074
 20
1797.7927749423
 30
0.0
 10
41.6952025233
 20
1797.5440147155
 30
0.0
 10
41.7009793542
 20
1797.1795134673
 30
0.0
 10
41.6978101143
 20
1796.7352372785
 30
0.0
 10
41.6850980109
 20
1796.2286799895
 30
0.0
 10
41.662624499
 20
1795.679042227
 30
0.0
 10
41.6413440821
 20
1795.3005759061
 30
0.0
 10
41.6288718143
 20
1795.1077181652
 30
0.0
  0
SPLINE
  5
4B6
100
AcDbEntity
  8
95056301000_BL5
100
AcDbSpline
 62
9
  6
CONTINUOUS
 70
0
 71
3
 72
14
 73
10
 74
0
 42
0.0000001
 43
0.0000001
 44
0.0000000001
 40
0.0
 40
0.0
 40
0.0
 40
0.0
 40
0.0263542148
 40
0.0852761692
 40
0.1778498994
 40
0.301257683
 40
0.4511110663
 40
0.621850531
 40
1.0
 40
1.0
 40
1.0
 40
1.0
 10
48.8370471165
 20
1797.322750204
 30
0.0
 10
48.8632971791
 20
1797.3199660827
 30
0.0
 10
48.9049199484
 20
1797.2206238524
 30
0.0
 10
48.9322535506
 20
1797.0609253279
 30
0.0
 10
48.959821158
 20
1796.7782873553
 30
0.0
 10
48.9727405201
 20
1796.4154129689
 30
0.0
 10
48.9752138105
 20
1795.969417283
 30
0.0
 10
48.960621734
 20
1795.270144287
 30
0.0
 10
48.9322186803
 20
1794.7207080726
 30
0.0
 10
48.9063363918
 20
1794.3428258161
 30
0.0
  0
SPLINE
  5
4B7
100
AcDbEntity
  8
95056301000_BL5
100
AcDbSpline
 62
7
  6
CONTINUOUS
 70
0
 71
3
 72
17
 73
13
 74
0
 42
0.0000001
 43
0.0000001
 44
0.0000000001
 40
0.0
 40
0.0
 40
0.0
 40
0.0
 40
0.1943561103
 40
0.3811969072
 40
0.5531797279
 40
0.7039707029
 40
0.8278237595
 40
0.9201640434
 40
0.9534652602
 40
0.977797116
 40
0.9931043217
 40
1.0
 40
1.0
 40
1.0
 40
1.0
 10
41.6288718143
 20
1758.5531870734
 30
0.0
 10
41.6413440821
 20
1758.3603293325
 30
0.0
 10
41.662624499
 20
1757.9818630116
 30
0.0
 10
41.6850980109
 20
1757.4322252491
 30
0.0
 10
41.6978101143
 20
1756.9256679601
 30
0.0
 10
41.7009793542
 20
1756.4813917713
 30
0.0
 10
41.6952025233
 20
1756.1168905231
 30
0.0
 10
41.6830769074
 20
1755.8681302963
 30
0.0
 10
41.668640561
 20
1755.7208661842
 30
0.0
 10
41.6569855908
 20
1755.6471195091
 30
0.0
 10
41.6467672907
 20
1755.6059967821
 30
0.0
 10
41.6351447602
 20
1755.5812045949
 30
0.0
 10
41.6283255119
 20
1755.580487863
 30
0.0
  0
SPLINE
  5
4B8
100
AcDbEntity
  8
95056301000_BL5
100
AcDbSpline
 62
9
  6
CONTINUOUS
 70
0
 71
3
 72
14
 73
10
 74
0
 42
0.0000001
 43
0.0000001
 44
0.0000000001
 40
0.0
 40
0.0
 40
0.0
 40
0.0
 40
0.3781494693
 40
0.5488889341
 40
0.6987423175
 40
0.822150101
 40
0.9147238314
 40
0.9736457863
 40
1.0
 40
1.0
 40
1.0
 40
1.0
 10
48.9063363918
 20
1759.3180794225
 30
0.0
 10
48.932218671
 20
1758.9401971653
 30
0.0
 10
48.9606217378
 20
1758.3907609518
 30
0.0
 10
48.9752138088
 20
1757.6914879554
 30
0.0
 10
48.9727405198
 20
1757.2454922699
 30
0.0
 10
48.9598211578
 20
1756.8826178827
 30
0.0
 10
48.9322535557
 20
1756.5999799112
 30
0.0
 10
48.90491994
 20
1756.4402813845
 30
0.0
 10
48.8632971774
 20
1756.3409391613
 30
0.0
 10
48.8370471165
 20
1756.3381550345
 30
0.0
  0
SPLINE
  5
4B9
100
AcDbEntity
  8
95056301000_BL5
100
AcDbSpline
 62
9
  6
CONTINUOUS
 70
0
 71
3
 72
15
 73
11
 74
0
 42
0.0000001
 43
0.0000001
 44
0.0000000001
 40
0.0
 40
0.0
 40
0.0
 40
0.0
 40
0.0084043294
 40
0.0243437072
 40
0.0824621024
 40
0.1749126662
 40
0.2985785233
 40
0.4489317559
 40
0.6203226816
 40
1.0
 40
1.0
 40
1.0
 40
1.0
 10
48.9063363918
 20
109.6127038162
 30
0.0
 10
48.9146370649
 20
109.6115241815
 30
0.0
 10
48.9313908179
 20
109.5886570809
 30
0.0
 10
48.951467514
 20
109.5115777837
 30
0.0
 10
48.9685870257
 20
109.3430815008
 30
0.0
 10
48.9754727992
 20
109.0711265392
 30
0.0
 10
48.9712891837
 20
108.7048362127
 30
0.0
 10
48.9546725598
 20
108.2610155867
 30
0.0
 10
48.9154662002
 20
107.5622566879
 30
0.0
 10
48.8717332525
 20
107.0142013342
 30
0.0
 10
48.8370471165
 20
106.6370306237
 30
0.0
  0
SPLINE
  5
4BA
100
AcDbEntity
  8
95056301000_BL5
100
AcDbSpline
 62
7
  6
CONTINUOUS
 70
0
 71
3
 72
15
 73
11
 74
0
 42
0.0000001
 43
0.0000001
 44
0.0000000001
 40
0.0
 40
0.0
 40
0.0
 40
0.0
 40
0.0081144889
 40
0.0239358142
 40
0.0820231815
 40
0.1745626912
 40
0.2983974078
 40
0.4489382455
 40
0.6204300653
 40
1.0
 40
1.0
 40
1.0
 40
1.0
 10
41.6288718143
 20
110.6354847625
 30
0.0
 10
41.6369030316
 20
110.6343560485
 30
0.0
 10
41.6527057962
 20
110.6110262226
 30
0.0
 10
41.6718176054
 20
110.5345674707
 30
0.0
 10
41.689393702
 20
110.3654543541
 30
0.0
 10
41.699020003
 20
110.0931266362
 30
0.0
 10
41.7005856986
 20
109.7255913559
 30
0.0
 10
41.6929795601
 20
109.2802864565
 30
0.0
 10
41.6714202224
 20
108.5792566672
 30
0.0
 10
41.6458029161
 20
108.029114298
 30
0.0
 10
41.6283255119
 20
107.6501503752
 30
0.0
  0
SPLINE
  5
4BB
100
AcDbEntity
  8
95056301000_BL5
100
AcDbSpline
 62
7
  6
CONTINUOUS
 70
0
 71
3
 72
15
 73
11
 74
0
 42
0.0000001
 43
0.0000001
 44
0.0000000001
 40
0.0
 40
0.0
 40
0.0
 40
0.0
 40
0.3795699347
 40
0.5510617545
 40
0.7016025922
 40
0.8254373088
 40
0.9179768185
 40
0.9760641858
 40
0.9918855111
 40
1.0
 40
1.0
 40
1.0
 40
1.0
 10
41.6283255119
 20
99.1210669582
 30
0.0
 10
41.6458029161
 20
98.7421030354
 30
0.0
 10
41.6714202224
 20
98.1919606662
 30
0.0
 10
41.6929795601
 20
97.4909308769
 30
0.0
 10
41.7005856986
 20
97.0456259775
 30
0.0
 10
41.699020003
 20
96.6780906972
 30
0.0
 10
41.689393702
 20
96.4057629793
 30
0.0
 10
41.6718176054
 20
96.2366498627
 30
0.0
 10
41.6527057962
 20
96.1601911108
 30
0.0
 10
41.6369030316
 20
96.1368612849
 30
0.0
 10
41.6288718143
 20
96.1357325709
 30
0.0
  0
SPLINE
  5
4BC
100
AcDbEntity
  8
95056301000_BL5
100
AcDbSpline
 62
9
  6
CONTINUOUS
 70
0
 71
3
 72
15
 73
11
 74
0
 42
0.0000001
 43
0.0000001
 44
0.0000000001
 40
0.0
 40
0.0
 40
0.0
 40
0.0
 40
0.3796773185
 40
0.5510682443
 40
0.7014214769
 40
0.8250873339
 40
0.9175378979
 40
0.9756562931
 40
0.9915956699
 40
1.0
 40
1.0
 40
1.0
 40
1.0
 10
48.8370471165
 20
100.1341867097
 30
0.0
 10
48.8717332516
 20
99.7570159991
 30
0.0
 10
48.9154662012
 20
99.2089606454
 30
0.0
 10
48.9546725575
 20
98.5102017467
 30
0.0
 10
48.9712891849
 20
98.0663811204
 30
0.0
 10
48.9754727988
 20
97.7000907951
 30
0.0
 10
48.9685870294
 20
97.4281358302
 30
0.0
 10
48.9514675066
 20
97.2596395539
 30
0.0
 10
48.9313908188
 20
97.1825602512
 30
0.0
 10
48.9146370653
 20
97.1596931536
 30
0.0
 10
48.9063363918
 20
97.1585135172
 30
0.0
  0
ELLIPSE
  5
4BD
100
AcDbEntity
  8
95056301000_BL5
100
AcDbEllipse
 62
7
  6
CONTINUOUS
 10
62.9740993571
 20
1758.5804526193
 30
0.0
 11
21.3461091672
 21
0.0
 31
0.0
 40
0.1405408347
 41
3.1415926536
 42
3.150681294
  0
ELLIPSE
  5
4BE
100
AcDbEntity
  8
95056301000_BL5
100
AcDbEllipse
 62
7
  6
CONTINUOUS
 10
62.9740993571
 20
1795.0804526193
 30
0.0
 11
21.3461091672
 21
-0.0
 31
0.0
 40
0.1405408347
 41
3.1325040132
 42
3.1415926536
  0
ELLIPSE
  5
4BF
100
AcDbEntity
  8
95056301000_BL5
100
AcDbEllipse
 62
7
  6
CONTINUOUS
 10
70.1710835526
 20
99.1356086667
 30
0.0
 11
28.5430933627
 21
0.0
 31
0.0
 40
0.1051042353
 41
3.1415926536
 42
3.1464399087
  0
ELLIPSE
  5
4C0
100
AcDbEntity
  8
95056301000_BL5
100
AcDbEllipse
 62
7
  6
CONTINUOUS
 10
70.1710835526
 20
107.6356086667
 30
0.0
 11
28.5430933627
 21
-0.0
 31
0.0
 40
0.1051042353
 41
3.1367453985
 42
3.1415926536
  0
ENDBLK
  5
4C1
100
AcDbEntity
  8
0
  6
BYBLOCK
 62
0
100
AcDbBlockEnd
  0
BLOCK
  5
4C2
100
AcDbEntity
  8
94528902000_M_BL6
100
AcDbBlockBegin
  2
94528902000_M_BL6
 70
64
 10
90.63172757
 20
956.408030643
  3
94528902000_M_BL6
  1

  0
LINE
  5
4C3
100
AcDbEntity
  8
94528902000_M_BL6
100
AcDbLine
 62
7
  6
CONTINUOUS
 10
136.96046495
 20
1809.9459970759
 11
136.08546495
 21
1808.4304526193
  0
LINE
  5
4C4
100
AcDbEntity
  8
94528902000_M_BL6
100
AcDbLine
 62
7
  6
CONTINUOUS
 10
138.71046495
 20
1806.9149081627
 11
139.58546495
 21
1808.4304526193
  0
LINE
  5
4C5
100
AcDbEntity
  8
94528902000_M_BL6
100
AcDbLine
 62
7
  6
CONTINUOUS
 10
136.08546495
 20
1808.4304526193
 11
136.96046495
 21
1806.9149081627
  0
LINE
  5
4C6
100
AcDbEntity
  8
94528902000_M_BL6
100
AcDbLine
 62
7
  6
CONTINUOUS
 10
139.58546495
 20
1808.4304526193
 11
138.71046495
 21
1809.9459970759
  0
LINE
  5
4C7
100
AcDbEntity
  8
94528902000_M_BL6
100
AcDbLine
 62
7
  6
CONTINUOUS
 10
136.96046495
 20
1806.9149081627
 11
138.71046495
 21
1806.9149081627
  0
LINE
  5
4C8
100
AcDbEntity
  8
94528902000_M_BL6
100
AcDbLine
 62
7
  6
CONTINUOUS
 10
138.71046495
 20
1809.9459970759
 11
136.96046495
 21
1809.9459970759
  0
CIRCLE
  5
4C9
100
AcDbEntity
  8
94528902000_M_BL6
100
AcDbCircle
 62
7
  6
CONTINUOUS
 10
137.83546495
 20
1806.9304526193
 40
5.5
  0
CIRCLE
  5
4CA
100
AcDbEntity
  8
94528902000_M_BL6
100
AcDbCircle
 62
7
  6
CONTINUOUS
 10
137.83546495
 20
1808.4304526193
 40
1.75
  0
CIRCLE
  5
4CB
100
AcDbEntity
  8
94528902000_M_BL6
100
AcDbCircle
 62
7
  6
CONTINUOUS
 10
137.83546495
 20
1808.4304526193
 40
1.515
  0
CIRCLE
  5
4CC
100
AcDbEntity
  8
94528902000_M_BL6
100
AcDbCircle
 62
7
  6
CONTINUOUS
 10
137.83546495
 20
1804.4304526193
 40
0.75
  0
ARC
  5
4CD
100
AcDbEntity
  8
94528902000_M_BL6
100
AcDbCircle
 62
7
  6
CONTINUOUS
 10
35.2822388789
 20
1808.4304526193
 40
4.0
100
AcDbArc
 50
326.8389561101
 51
33.1610438899
  0
ARC
  5
4CE
100
AcDbEntity
  8
94528902000_M_BL6
100
AcDbCircle
 62
7
  6
CONTINUOUS
 10
35.2822388789
 20
103.3856086667
 40
4.0
100
AcDbArc
 50
311.4096221093
 51
48.5903778907
  0
ENDBLK
  5
4CF
100
AcDbEntity
  8
0
  6
BYBLOCK
 62
0
100
AcDbBlockEnd
  0
BLOCK
  5
4D0
100
AcDbEntity
  8
94528902000_M_BL7
100
AcDbBlockBegin
  2
94528902000_M_BL7
 70
64
 10
90.9831247445
 20
1746.7304526193
  3
94528902000_M_BL7
  1

  0
LINE
  5
4D1
100
AcDbEntity
  8
94528902000_M_BL7
100
AcDbLine
 62
7
  6
CONTINUOUS
 10
136.96046495
 20
1746.7459970759
 11
136.08546495
 21
1745.2304526193
  0
LINE
  5
4D2
100
AcDbEntity
  8
94528902000_M_BL7
100
AcDbLine
 62
7
  6
CONTINUOUS
 10
138.71046495
 20
1743.7149081627
 11
139.58546495
 21
1745.2304526193
  0
LINE
  5
4D3
100
AcDbEntity
  8
94528902000_M_BL7
100
AcDbLine
 62
7
  6
CONTINUOUS
 10
136.08546495
 20
1745.2304526193
 11
136.96046495
 21
1743.7149081627
  0
LINE
  5
4D4
100
AcDbEntity
  8
94528902000_M_BL7
100
AcDbLine
 62
7
  6
CONTINUOUS
 10
139.58546495
 20
1745.2304526193
 11
138.71046495
 21
1746.7459970759
  0
LINE
  5
4D5
100
AcDbEntity
  8
94528902000_M_BL7
100
AcDbLine
 62
7
  6
CONTINUOUS
 10
136.96046495
 20
1743.7149081627
 11
138.71046495
 21
1743.7149081627
  0
LINE
  5
4D6
100
AcDbEntity
  8
94528902000_M_BL7
100
AcDbLine
 62
7
  6
CONTINUOUS
 10
138.71046495
 20
1746.7459970759
 11
136.96046495
 21
1746.7459970759
  0
CIRCLE
  5
4D7
100
AcDbEntity
  8
94528902000_M_BL7
100
AcDbCircle
 62
7
  6
CONTINUOUS
 10
137.83546495
 20
1746.7304526193
 40
5.5
  0
CIRCLE
  5
4D8
100
AcDbEntity
  8
94528902000_M_BL7
100
AcDbCircle
 62
7
  6
CONTINUOUS
 10
137.83546495
 20
1745.2304526193
 40
1.75
  0
CIRCLE
  5
4D9
100
AcDbEntity
  8
94528902000_M_BL7
100
AcDbCircle
 62
7
  6
CONTINUOUS
 10
137.83546495
 20
1745.2304526193
 40
1.515
  0
CIRCLE
  5
4DA
100
AcDbEntity
  8
94528902000_M_BL7
100
AcDbCircle
 62
7
  6
CONTINUOUS
 10
137.83546495
 20
1749.2304526193
 40
0.75
  0
ARC
  5
4DB
100
AcDbEntity
  8
94528902000_M_BL7
100
AcDbCircle
 62
7
  6
CONTINUOUS
 10
35.2822388789
 20
1745.2304526193
 40
4.0
100
AcDbArc
 50
326.8389561101
 51
33.1610438899
  0
ENDBLK
  5
4DC
100
AcDbEntity
  8
0
  6
BYBLOCK
 62
0
100
AcDbBlockEnd
  0
BLOCK
  5
4DD
100
AcDbEntity
  8
93894203000_BL8
100
AcDbBlockBegin
  2
93894203000_BL8
 70
64
 10
87.48172757
 20
1071.8304526193
  3
93894203000_BL8
  1

  0
LINE
  5
4DE
100
AcDbEntity
  8
93894203000_BL8
100
AcDbLine
 62
7
  6
CONTINUOUS
 10
127.83546495
 20
1092.8304526193
 11
128.33546495
 21
1093.3304526193
  0
LINE
  5
4DF
100
AcDbEntity
  8
93894203000_BL8
100
AcDbLine
 62
7
  6
CONTINUOUS
 10
128.93546495
 20
1092.9304526193
 11
129.33546495
 21
1093.3304526193
  0
LINE
  5
4E0
100
AcDbEntity
  8
93894203000_BL8
100
AcDbLine
 62
7
  6
CONTINUOUS
 10
129.93546495
 20
1092.9304526193
 11
130.33546495
 21
1093.3304526193
  0
LINE
  5
4E1
100
AcDbEntity
  8
93894203000_BL8
100
AcDbLine
 62
7
  6
CONTINUOUS
 10
128.33546495
 20
1093.3304526193
 11
128.33546495
 21
1092.9304526193
  0
LINE
  5
4E2
100
AcDbEntity
  8
93894203000_BL8
100
AcDbLine
 62
7
  6
CONTINUOUS
 10
128.33546495
 20
1050.7304526193
 11
128.33546495
 21
1050.3304526193
  0
LINE
  5
4E3
100
AcDbEntity
  8
93894203000_BL8
100
AcDbLine
 62
7
  6
CONTINUOUS
 10
128.83546495
 20
1055.418232216
 11
128.83546495
 21
1057.2426730226
  0
LINE
  5
4E4
100
AcDbEntity
  8
93894203000_BL8
100
AcDbLine
 62
7
  6
CONTINUOUS
 10
128.83546495
 20
1086.418232216
 11
128.83546495
 21
1088.2426730226
  0
LINE
  5
4E5
100
AcDbEntity
  8
93894203000_BL8
100
AcDbLine
 62
7
  6
CONTINUOUS
 10
129.33546495
 20
1093.3304526193
 11
129.33546495
 21
1092.9304526193
  0
LINE
  5
4E6
100
AcDbEntity
  8
93894203000_BL8
100
AcDbLine
 62
7
  6
CONTINUOUS
 10
129.33546495
 20
1088.8094224402
 11
129.33546495
 21
1085.8514827984
  0
LINE
  5
4E7
100
AcDbEntity
  8
93894203000_BL8
100
AcDbLine
 62
7
  6
CONTINUOUS
 10
129.33546495
 20
1057.8094224402
 11
129.33546495
 21
1054.8514827984
  0
LINE
  5
4E8
100
AcDbEntity
  8
93894203000_BL8
100
AcDbLine
 62
7
  6
CONTINUOUS
 10
129.33546495
 20
1050.7304526193
 11
129.33546495
 21
1050.3304526193
  0
LINE
  5
4E9
100
AcDbEntity
  8
93894203000_BL8
100
AcDbLine
 62
7
  6
CONTINUOUS
 10
129.83546495
 20
1054.5885248567
 11
129.83546495
 21
1058.0723803819
  0
LINE
  5
4EA
100
AcDbEntity
  8
93894203000_BL8
100
AcDbLine
 62
7
  6
CONTINUOUS
 10
129.83546495
 20
1085.5885248567
 11
129.83546495
 21
1089.0723803819
  0
LINE
  5
4EB
100
AcDbEntity
  8
93894203000_BL8
100
AcDbLine
 62
7
  6
CONTINUOUS
 10
130.33546495
 20
1093.3304526193
 11
130.33546495
 21
1092.9304526193
  0
LINE
  5
4EC
100
AcDbEntity
  8
93894203000_BL8
100
AcDbLine
 62
7
  6
CONTINUOUS
 10
130.33546495
 20
1089.1804526193
 11
130.33546495
 21
1085.4804526193
  0
LINE
  5
4ED
100
AcDbEntity
  8
93894203000_BL8
100
AcDbLine
 62
7
  6
CONTINUOUS
 10
130.33546495
 20
1058.1804526193
 11
130.33546495
 21
1054.4804526193
  0
LINE
  5
4EE
100
AcDbEntity
  8
93894203000_BL8
100
AcDbLine
 62
7
  6
CONTINUOUS
 10
130.33546495
 20
1050.7304526193
 11
130.33546495
 21
1050.3304526193
  0
LINE
  5
4EF
100
AcDbEntity
  8
93894203000_BL8
100
AcDbLine
 62
7
  6
CONTINUOUS
 10
130.83546495
 20
1054.4804526193
 11
130.83546495
 21
1054.9837364722
  0
LINE
  5
4F0
100
AcDbEntity
  8
93894203000_BL8
100
AcDbLine
 62
7
  6
CONTINUOUS
 10
130.83546495
 20
1057.6771687664
 11
130.83546495
 21
1058.1804526193
  0
LINE
  5
4F1
100
AcDbEntity
  8
93894203000_BL8
100
AcDbLine
 62
7
  6
CONTINUOUS
 10
130.83546495
 20
1085.4804526193
 11
130.83546495
 21
1085.9837364722
  0
LINE
  5
4F2
100
AcDbEntity
  8
93894203000_BL8
100
AcDbLine
 62
7
  6
CONTINUOUS
 10
130.83546495
 20
1088.6771687664
 11
130.83546495
 21
1089.1804526193
  0
LINE
  5
4F3
100
AcDbEntity
  8
93894203000_BL8
100
AcDbLine
 62
7
  6
CONTINUOUS
 10
131.33546495
 20
1093.3304526193
 11
131.33546495
 21
1092.9304526193
  0
LINE
  5
4F4
100
AcDbEntity
  8
93894203000_BL8
100
AcDbLine
 62
7
  6
CONTINUOUS
 10
131.33546495
 20
1050.7304526193
 11
131.33546495
 21
1050.3304526193
  0
LINE
  5
4F5
100
AcDbEntity
  8
93894203000_BL8
100
AcDbLine
 62
7
  6
CONTINUOUS
 10
132.33546495
 20
1093.3304526193
 11
132.33546495
 21
1092.9304526193
  0
LINE
  5
4F6
100
AcDbEntity
  8
93894203000_BL8
100
AcDbLine
 62
7
  6
CONTINUOUS
 10
132.33546495
 20
1050.7304526193
 11
132.33546495
 21
1050.3304526193
  0
LINE
  5
4F7
100
AcDbEntity
  8
93894203000_BL8
100
AcDbLine
 62
7
  6
CONTINUOUS
 10
133.33546495
 20
1093.3304526193
 11
133.33546495
 21
1092.9304526193
  0
LINE
  5
4F8
100
AcDbEntity
  8
93894203000_BL8
100
AcDbLine
 62
7
  6
CONTINUOUS
 10
133.33546495
 20
1050.7304526193
 11
133.33546495
 21
1050.3304526193
  0
LINE
  5
4F9
100
AcDbEntity
  8
93894203000_BL8
100
AcDbLine
 62
7
  6
CONTINUOUS
 10
134.33546495
 20
1093.3304526193
 11
134.33546495
 21
1092.9304526193
  0
LINE
  5
4FA
100
AcDbEntity
  8
93894203000_BL8
100
AcDbLine
 62
7
  6
CONTINUOUS
 10
134.33546495
 20
1050.7304526193
 11
134.33546495
 21
1050.3304526193
  0
LINE
  5
4FB
100
AcDbEntity
  8
93894203000_BL8
100
AcDbLine
 62
7
  6
CONTINUOUS
 10
135.33546495
 20
1093.3304526193
 11
135.33546495
 21
1092.9304526193
  0
LINE
  5
4FC
100
AcDbEntity
  8
93894203000_BL8
100
AcDbLine
 62
7
  6
CONTINUOUS
 10
135.33546495
 20
1050.7304526193
 11
135.33546495
 21
1050.3304526193
  0
LINE
  5
4FD
100
AcDbEntity
  8
93894203000_BL8
100
AcDbLine
 62
7
  6
CONTINUOUS
 10
135.83546495
 20
1050.3304526193
 11
135.83546495
 21
1050.7304526193
  0
LINE
  5
4FE
100
AcDbEntity
  8
93894203000_BL8
100
AcDbLine
 62
7
  6
CONTINUOUS
 10
135.83546495
 20
1092.9304526193
 11
135.83546495
 21
1093.3304526193
  0
LINE
  5
4FF
100
AcDbEntity
  8
93894203000_BL8
100
AcDbLine
 62
7
  6
CONTINUOUS
 10
130.93546495
 20
1092.9304526193
 11
131.33546495
 21
1093.3304526193
  0
LINE
  5
500
100
AcDbEntity
  8
93894203000_BL8
100
AcDbLine
 62
7
  6
CONTINUOUS
 10
131.93546495
 20
1092.9304526193
 11
132.33546495
 21
1093.3304526193
  0
LINE
  5
501
100
AcDbEntity
  8
93894203000_BL8
100
AcDbLine
 62
7
  6
CONTINUOUS
 10
132.93546495
 20
1092.9304526193
 11
133.33546495
 21
1093.3304526193
  0
LINE
  5
502
100
AcDbEntity
  8
93894203000_BL8
100
AcDbLine
 62
7
  6
CONTINUOUS
 10
133.93546495
 20
1092.9304526193
 11
134.33546495
 21
1093.3304526193
  0
LINE
  5
503
100
AcDbEntity
  8
93894203000_BL8
100
AcDbLine
 62
7
  6
CONTINUOUS
 10
134.93546495
 20
1092.9304526193
 11
135.33546495
 21
1093.3304526193
  0
LINE
  5
504
100
AcDbEntity
  8
93894203000_BL8
100
AcDbLine
 62
7
  6
CONTINUOUS
 10
142.33546495
 20
1095.9804526193
 11
139.68546495
 21
1093.3304526193
  0
LINE
  5
505
100
AcDbEntity
  8
93894203000_BL8
100
AcDbLine
 62
7
  6
CONTINUOUS
 10
128.33546495
 20
1050.3304526193
 11
128.73546495
 21
1050.7304526193
  0
LINE
  5
506
100
AcDbEntity
  8
93894203000_BL8
100
AcDbLine
 62
7
  6
CONTINUOUS
 10
129.33546495
 20
1050.3304526193
 11
129.73546495
 21
1050.7304526193
  0
LINE
  5
507
100
AcDbEntity
  8
93894203000_BL8
100
AcDbLine
 62
7
  6
CONTINUOUS
 10
130.33546495
 20
1050.3304526193
 11
130.73546495
 21
1050.7304526193
  0
LINE
  5
508
100
AcDbEntity
  8
93894203000_BL8
100
AcDbLine
 62
7
  6
CONTINUOUS
 10
131.33546495
 20
1050.3304526193
 11
131.73546495
 21
1050.7304526193
  0
LINE
  5
509
100
AcDbEntity
  8
93894203000_BL8
100
AcDbLine
 62
7
  6
CONTINUOUS
 10
132.33546495
 20
1050.3304526193
 11
132.73546495
 21
1050.7304526193
  0
LINE
  5
50A
100
AcDbEntity
  8
93894203000_BL8
100
AcDbLine
 62
7
  6
CONTINUOUS
 10
133.33546495
 20
1050.3304526193
 11
133.73546495
 21
1050.7304526193
  0
LINE
  5
50B
100
AcDbEntity
  8
93894203000_BL8
100
AcDbLine
 62
7
  6
CONTINUOUS
 10
134.33546495
 20
1050.3304526193
 11
134.73546495
 21
1050.7304526193
  0
LINE
  5
50C
100
AcDbEntity
  8
93894203000_BL8
100
AcDbLine
 62
7
  6
CONTINUOUS
 10
127.83546495
 20
1050.8304526193
 11
128.33546495
 21
1050.3304526193
  0
LINE
  5
50D
100
AcDbEntity
  8
93894203000_BL8
100
AcDbLine
 62
7
  6
CONTINUOUS
 10
128.93546495
 20
1050.7304526193
 11
129.33546495
 21
1050.3304526193
  0
LINE
  5
50E
100
AcDbEntity
  8
93894203000_BL8
100
AcDbLine
 62
7
  6
CONTINUOUS
 10
129.93546495
 20
1050.7304526193
 11
130.33546495
 21
1050.3304526193
  0
LINE
  5
50F
100
AcDbEntity
  8
93894203000_BL8
100
AcDbLine
 62
7
  6
CONTINUOUS
 10
130.93546495
 20
1050.7304526193
 11
131.33546495
 21
1050.3304526193
  0
LINE
  5
510
100
AcDbEntity
  8
93894203000_BL8
100
AcDbLine
 62
7
  6
CONTINUOUS
 10
131.93546495
 20
1050.7304526193
 11
132.33546495
 21
1050.3304526193
  0
LINE
  5
511
100
AcDbEntity
  8
93894203000_BL8
100
AcDbLine
 62
7
  6
CONTINUOUS
 10
139.68546495
 20
1050.3304526193
 11
127.83546495
 21
1050.3304526193
  0
LINE
  5
512
100
AcDbEntity
  8
93894203000_BL8
100
AcDbLine
 62
7
  6
CONTINUOUS
 10
127.83546495
 20
1093.3304526193
 11
139.68546495
 21
1093.3304526193
  0
LINE
  5
513
100
AcDbEntity
  8
93894203000_BL8
100
AcDbLine
 62
7
  6
CONTINUOUS
 10
132.93546495
 20
1050.7304526193
 11
133.33546495
 21
1050.3304526193
  0
LINE
  5
514
100
AcDbEntity
  8
93894203000_BL8
100
AcDbLine
 62
7
  6
CONTINUOUS
 10
133.93546495
 20
1050.7304526193
 11
134.33546495
 21
1050.3304526193
  0
LINE
  5
515
100
AcDbEntity
  8
93894203000_BL8
100
AcDbLine
 62
7
  6
CONTINUOUS
 10
134.93546495
 20
1050.7304526193
 11
135.33546495
 21
1050.3304526193
  0
LINE
  5
516
100
AcDbEntity
  8
93894203000_BL8
100
AcDbLine
 62
7
  6
CONTINUOUS
 10
139.68546495
 20
1050.3304526193
 11
142.33546495
 21
1047.6804526193
  0
LINE
  5
517
100
AcDbEntity
  8
93894203000_BL8
100
AcDbLine
 62
7
  6
CONTINUOUS
 10
128.33546495
 20
1093.3304526193
 11
128.73546495
 21
1092.9304526193
  0
LINE
  5
518
100
AcDbEntity
  8
93894203000_BL8
100
AcDbLine
 62
7
  6
CONTINUOUS
 10
129.33546495
 20
1093.3304526193
 11
129.73546495
 21
1092.9304526193
  0
LINE
  5
519
100
AcDbEntity
  8
93894203000_BL8
100
AcDbLine
 62
7
  6
CONTINUOUS
 10
130.33546495
 20
1093.3304526193
 11
130.73546495
 21
1092.9304526193
  0
LINE
  5
51A
100
AcDbEntity
  8
93894203000_BL8
100
AcDbLine
 62
7
  6
CONTINUOUS
 10
131.33546495
 20
1093.3304526193
 11
131.73546495
 21
1092.9304526193
  0
LINE
  5
51B
100
AcDbEntity
  8
93894203000_BL8
100
AcDbLine
 62
7
  6
CONTINUOUS
 10
132.33546495
 20
1093.3304526193
 11
132.73546495
 21
1092.9304526193
  0
LINE
  5
51C
100
AcDbEntity
  8
93894203000_BL8
100
AcDbLine
 62
7
  6
CONTINUOUS
 10
133.33546495
 20
1093.3304526193
 11
133.73546495
 21
1092.9304526193
  0
LINE
  5
51D
100
AcDbEntity
  8
93894203000_BL8
100
AcDbLine
 62
7
  6
CONTINUOUS
 10
134.33546495
 20
1093.3304526193
 11
134.73546495
 21
1092.9304526193
  0
LINE
  5
51E
100
AcDbEntity
  8
93894203000_BL8
100
AcDbLine
 62
7
  6
CONTINUOUS
 10
32.6279901899
 20
1095.9804526193
 11
32.6279901899
 21
1095.8304526193
  0
LINE
  5
51F
100
AcDbEntity
  8
93894203000_BL8
100
AcDbLine
 62
7
  6
CONTINUOUS
 10
32.6279901899
 20
1047.8304526193
 11
32.6279901899
 21
1047.6804526193
  0
ARC
  5
520
100
AcDbEntity
  8
93894203000_BL8
100
AcDbCircle
 62
7
  6
CONTINUOUS
 10
138.33546495
 20
1092.8304526193
 40
0.5
100
AcDbArc
 50
90.0
 51
168.4495445989
  0
ARC
  5
521
100
AcDbEntity
  8
93894203000_BL8
100
AcDbCircle
 62
7
  6
CONTINUOUS
 10
138.33546495
 20
1050.8304526193
 40
0.5
100
AcDbArc
 50
191.5504554011
 51
270.0
  0
SPLINE
  5
522
100
AcDbEntity
  8
93894203000_BL8
100
AcDbSpline
 62
7
  6
CONTINUOUS
 70
0
 71
3
 72
8
 73
4
 74
0
 42
0.0000001
 43
0.0000001
 44
0.0000000001
 40
0.0
 40
0.0
 40
0.0
 40
0.0
 40
1.0
 40
1.0
 40
1.0
 40
1.0
 10
136.0926630223
 20
1092.9304991732
 30
0.0
 10
136.0970954802
 20
1092.9611806686
 30
0.0
 10
136.1035821761
 20
1092.9916507743
 30
0.0
 10
136.1122651403
 20
1093.0214099238
 30
0.0
  0
SPLINE
  5
523
100
AcDbEntity
  8
93894203000_BL8
100
AcDbSpline
 62
7
  6
CONTINUOUS
 70
0
 71
3
 72
9
 73
5
 74
0
 42
0.0000001
 43
0.0000001
 44
0.0000000001
 40
0.0
 40
0.0
 40
0.0
 40
0.0
 40
0.548246784
 40
1.0
 40
1.0
 40
1.0
 40
1.0
 10
136.1122651403
 20
1093.0214099238
 30
0.0
 10
136.1365049182
 20
1093.1044869885
 30
0.0
 10
136.2100927513
 20
1093.2531266469
 30
0.0
 10
136.3677087944
 20
1093.3304526193
 30
0.0
 10
136.4390183406
 20
1093.3304526193
 30
0.0
  0
SPLINE
  5
524
100
AcDbEntity
  8
93894203000_BL8
100
AcDbSpline
 62
7
  6
CONTINUOUS
 70
0
 71
3
 72
9
 73
5
 74
0
 42
0.0000001
 43
0.0000001
 44
0.0000000001
 40
0.0
 40
0.0
 40
0.0
 40
0.0
 40
0.4447493273
 40
1.0
 40
1.0
 40
1.0
 40
1.0
 10
136.4390183406
 20
1050.3304526193
 30
0.0
 10
136.3554426476
 20
1050.3304526193
 30
0.0
 10
136.1708479878
 20
1050.4399807751
 30
0.0
 10
136.1072860802
 20
1050.6281223401
 30
0.0
 10
136.0925183497
 20
1050.7314126955
 30
0.0
  0
ENDBLK
  5
525
100
AcDbEntity
  8
0
  6
BYBLOCK
 62
0
100
AcDbBlockEnd
  0
BLOCK
  5
526
100
AcDbEntity
  8
93780800R00_BL9
100
AcDbBlockBegin
  2
93780800R00_BL9
 70
64
 10
133.33546495
 20
1087.3304526193
  3
93780800R00_BL9
  1

  0
LINE
  5
527
100
AcDbEntity
  8
93780800R00_BL9
100
AcDbLine
 62
7
  6
CONTINUOUS
 10
132.5442318426
 20
1087.4216067367
 11
132.7631871987
 21
1087.5610966825
  0
LINE
  5
528
100
AcDbEntity
  8
93780800R00_BL9
100
AcDbLine
 62
7
  6
CONTINUOUS
 10
133.33546495
 20
1088.0866949394
 11
133.4266190674
 21
1088.1216857267
  0
LINE
  5
529
100
AcDbEntity
  8
93780800R00_BL9
100
AcDbLine
 62
7
  6
CONTINUOUS
 10
133.33546495
 20
1086.5742102992
 11
133.2443108326
 21
1086.5392195119
  0
LINE
  5
52A
100
AcDbEntity
  8
93780800R00_BL9
100
AcDbLine
 62
7
  6
CONTINUOUS
 10
133.33546495
 20
1088.0866949394
 11
133.33546495
 21
1087.8041743561
  0
LINE
  5
52B
100
AcDbEntity
  8
93780800R00_BL9
100
AcDbLine
 62
7
  6
CONTINUOUS
 10
133.33546495
 20
1086.5742102992
 11
133.33546495
 21
1086.8567308825
  0
LINE
  5
52C
100
AcDbEntity
  8
93780800R00_BL9
100
AcDbLine
 62
7
  6
CONTINUOUS
 10
132.5442318426
 20
1087.2392985019
 11
132.5792226299
 21
1087.3304526193
  0
LINE
  5
52D
100
AcDbEntity
  8
93780800R00_BL9
100
AcDbLine
 62
7
  6
CONTINUOUS
 10
134.1266980574
 20
1087.4216067367
 11
134.0917072701
 21
1087.3304526193
  0
LINE
  5
52E
100
AcDbEntity
  8
93780800R00_BL9
100
AcDbLine
 62
7
  6
CONTINUOUS
 10
133.2443108326
 20
1088.1216857267
 11
133.1048208868
 21
1087.9027303706
  0
LINE
  5
52F
100
AcDbEntity
  8
93780800R00_BL9
100
AcDbLine
 62
7
  6
CONTINUOUS
 10
133.4266190674
 20
1086.5392195119
 11
133.5661090132
 21
1086.758174868
  0
LINE
  5
530
100
AcDbEntity
  8
93780800R00_BL9
100
AcDbLine
 62
7
  6
CONTINUOUS
 10
133.5661090132
 20
1087.9027303706
 11
133.579060731
 21
1087.9168706404
  0
LINE
  5
531
100
AcDbEntity
  8
93780800R00_BL9
100
AcDbLine
 62
7
  6
CONTINUOUS
 10
133.1048208868
 20
1086.758174868
 11
133.0918691691
 21
1086.7440345982
  0
LINE
  5
532
100
AcDbEntity
  8
93780800R00_BL9
100
AcDbLine
 62
7
  6
CONTINUOUS
 10
131.6470804393
 20
1086.3102710277
 11
132.5442318426
 21
1087.2392985019
  0
LINE
  5
533
100
AcDbEntity
  8
93780800R00_BL9
100
AcDbLine
 62
7
  6
CONTINUOUS
 10
135.0238494608
 20
1088.3506342109
 11
134.1266980574
 21
1087.4216067367
  0
LINE
  5
534
100
AcDbEntity
  8
93780800R00_BL9
100
AcDbLine
 62
7
  6
CONTINUOUS
 10
133.4266190674
 20
1088.1216857267
 11
134.3556465416
 21
1089.01883713
  0
LINE
  5
535
100
AcDbEntity
  8
93780800R00_BL9
100
AcDbLine
 62
7
  6
CONTINUOUS
 10
133.2443108326
 20
1086.5392195119
 11
132.3152833584
 21
1085.6420681086
  0
LINE
  5
536
100
AcDbEntity
  8
93780800R00_BL9
100
AcDbLine
 62
7
  6
CONTINUOUS
 10
132.7490469289
 20
1087.0868568383
 11
132.7631871987
 21
1087.0998085561
  0
LINE
  5
537
100
AcDbEntity
  8
93780800R00_BL9
100
AcDbLine
 62
7
  6
CONTINUOUS
 10
133.9218829711
 20
1087.5740484003
 11
133.9077427013
 21
1087.5610966825
  0
LINE
  5
538
100
AcDbEntity
  8
93780800R00_BL9
100
AcDbLine
 62
7
  6
CONTINUOUS
 10
134.1266980574
 20
1087.2392985019
 11
133.9077427013
 21
1087.0998085561
  0
LINE
  5
539
100
AcDbEntity
  8
93780800R00_BL9
100
AcDbLine
 62
7
  6
CONTINUOUS
 10
134.0917072701
 20
1087.3304526193
 11
133.8091866868
 21
1087.3304526193
  0
LINE
  5
53A
100
AcDbEntity
  8
93780800R00_BL9
100
AcDbLine
 62
7
  6
CONTINUOUS
 10
132.5792226299
 20
1087.3304526193
 11
132.8617432132
 21
1087.3304526193
  0
LINE
  5
53B
100
AcDbEntity
  8
93780800R00_BL9
100
AcDbLine
 62
7
  6
CONTINUOUS
 10
133.4266190674
 20
1086.5392195119
 11
133.33546495
 21
1086.5742102992
  0
LINE
  5
53C
100
AcDbEntity
  8
93780800R00_BL9
100
AcDbLine
 62
7
  6
CONTINUOUS
 10
133.2443108326
 20
1088.1216857267
 11
133.33546495
 21
1088.0866949394
  0
LINE
  5
53D
100
AcDbEntity
  8
93780800R00_BL9
100
AcDbLine
 62
7
  6
CONTINUOUS
 10
132.5442318426
 20
1087.2392985019
 11
132.7631871987
 21
1087.0998085561
  0
LINE
  5
53E
100
AcDbEntity
  8
93780800R00_BL9
100
AcDbLine
 62
7
  6
CONTINUOUS
 10
134.1266980574
 20
1087.4216067367
 11
133.9077427013
 21
1087.5610966825
  0
LINE
  5
53F
100
AcDbEntity
  8
93780800R00_BL9
100
AcDbLine
 62
7
  6
CONTINUOUS
 10
132.7631871987
 20
1087.5610966825
 11
132.7490469289
 21
1087.5740484003
  0
LINE
  5
540
100
AcDbEntity
  8
93780800R00_BL9
100
AcDbLine
 62
7
  6
CONTINUOUS
 10
133.9077427013
 20
1087.0998085561
 11
133.9218829711
 21
1087.0868568383
  0
LINE
  5
541
100
AcDbEntity
  8
93780800R00_BL9
100
AcDbLine
 62
7
  6
CONTINUOUS
 10
134.3556465416
 20
1085.6420681086
 11
133.4266190674
 21
1086.5392195119
  0
LINE
  5
542
100
AcDbEntity
  8
93780800R00_BL9
100
AcDbLine
 62
7
  6
CONTINUOUS
 10
132.3152833584
 20
1089.01883713
 11
133.2443108326
 21
1088.1216857267
  0
LINE
  5
543
100
AcDbEntity
  8
93780800R00_BL9
100
AcDbLine
 62
7
  6
CONTINUOUS
 10
132.5442318426
 20
1087.4216067367
 11
131.6470804393
 21
1088.3506342109
  0
LINE
  5
544
100
AcDbEntity
  8
93780800R00_BL9
100
AcDbLine
 62
7
  6
CONTINUOUS
 10
134.1266980574
 20
1087.2392985019
 11
135.0238494608
 21
1086.3102710277
  0
LINE
  5
545
100
AcDbEntity
  8
93780800R00_BL9
100
AcDbLine
 62
7
  6
CONTINUOUS
 10
133.579060731
 20
1086.7440345982
 11
133.5661090132
 21
1086.758174868
  0
LINE
  5
546
100
AcDbEntity
  8
93780800R00_BL9
100
AcDbLine
 62
7
  6
CONTINUOUS
 10
133.0918691691
 20
1087.9168706404
 11
133.1048208868
 21
1087.9027303706
  0
LINE
  5
547
100
AcDbEntity
  8
93780800R00_BL9
100
AcDbLine
 62
7
  6
CONTINUOUS
 10
133.2443108326
 20
1086.5392195119
 11
133.1048208868
 21
1086.758174868
  0
LINE
  5
548
100
AcDbEntity
  8
93780800R00_BL9
100
AcDbLine
 62
7
  6
CONTINUOUS
 10
133.4266190674
 20
1088.1216857267
 11
133.5661090132
 21
1087.9027303706
  0
LINE
  5
549
100
AcDbEntity
  8
93780800R00_BL9
100
AcDbLine
 62
7
  6
CONTINUOUS
 10
132.5792226299
 20
1087.3304526193
 11
132.5442318426
 21
1087.4216067367
  0
LINE
  5
54A
100
AcDbEntity
  8
93780800R00_BL9
100
AcDbLine
 62
7
  6
CONTINUOUS
 10
134.0917072701
 20
1087.3304526193
 11
134.1266980574
 21
1087.2392985019
  0
ARC
  5
54B
100
AcDbEntity
  8
93780800R00_BL9
100
AcDbCircle
 62
7
  6
CONTINUOUS
 10
-33.8968873062
 20
819.8823553685
 40
315.324768953
100
AcDbArc
 50
58.0965244491
 51
58.2591591005
  0
ARC
  5
54C
100
AcDbEntity
  8
93780800R00_BL9
100
AcDbCircle
 62
7
  6
CONTINUOUS
 10
-134.1126323008
 20
920.0981003631
 40
315.324768953
100
AcDbArc
 50
31.7408408995
 51
31.9034755509
  0
ARC
  5
54D
100
AcDbEntity
  8
93780800R00_BL9
100
AcDbCircle
 62
7
  6
CONTINUOUS
 10
-33.8968873062
 20
1354.7785498701
 40
315.324768953
100
AcDbArc
 50
301.7408408995
 51
301.9034755509
  0
ARC
  5
54E
100
AcDbEntity
  8
93780800R00_BL9
100
AcDbCircle
 62
7
  6
CONTINUOUS
 10
-134.1126323008
 20
1254.5628048755
 40
315.324768953
100
AcDbArc
 50
328.0965244491
 51
328.2591591005
  0
ARC
  5
54F
100
AcDbEntity
  8
93780800R00_BL9
100
AcDbCircle
 62
7
  6
CONTINUOUS
 10
300.5678172062
 20
819.8823553685
 40
315.324768953
100
AcDbArc
 50
121.7408408995
 51
121.9034755509
  0
ARC
  5
550
100
AcDbEntity
  8
93780800R00_BL9
100
AcDbCircle
 62
7
  6
CONTINUOUS
 10
400.7835622008
 20
920.0981003631
 40
315.324768953
100
AcDbArc
 50
148.0965244491
 51
148.2591591005
  0
CIRCLE
  5
551
100
AcDbEntity
  8
93780800R00_BL9
100
AcDbCircle
 62
7
  6
CONTINUOUS
 10
133.33546495
 20
1087.3304526193
 40
2.85
  0
ARC
  5
552
100
AcDbEntity
  8
93780800R00_BL9
100
AcDbCircle
 62
9
  6
CONTINUOUS
 10
133.33546495
 20
1087.3304526193
 40
1.9726664026
100
AcDbArc
 50
301.1528667687
 51
328.8529794039
  0
ARC
  5
553
100
AcDbEntity
  8
93780800R00_BL9
100
AcDbCircle
 62
9
  6
CONTINUOUS
 10
133.33546495
 20
1087.3304526193
 40
1.9726664026
100
AcDbArc
 50
211.14168669
 51
238.8742098283
  0
ARC
  5
554
100
AcDbEntity
  8
93780800R00_BL9
100
AcDbCircle
 62
9
  6
CONTINUOUS
 10
133.33546495
 20
1087.3304526193
 40
1.9726664026
100
AcDbArc
 50
121.1402786404
 51
148.8739772222
  0
ARC
  5
555
100
AcDbEntity
  8
93780800R00_BL9
100
AcDbCircle
 62
9
  6
CONTINUOUS
 10
133.33546495
 20
1087.3304526193
 40
1.9726664026
100
AcDbArc
 50
31.1234299516
 51
58.8466423422
  0
ARC
  5
556
100
AcDbEntity
  8
93780800R00_BL9
100
AcDbCircle
 62
9
  6
CONTINUOUS
 10
133.33546495
 20
1087.3304526193
 40
1.5251992218
100
AcDbArc
 50
297.9789520644
 51
332.0210479356
  0
ARC
  5
557
100
AcDbEntity
  8
93780800R00_BL9
100
AcDbCircle
 62
9
  6
CONTINUOUS
 10
133.33546495
 20
1087.3304526193
 40
1.5251992218
100
AcDbArc
 50
207.9789520644
 51
242.0210479356
  0
ARC
  5
558
100
AcDbEntity
  8
93780800R00_BL9
100
AcDbCircle
 62
9
  6
CONTINUOUS
 10
133.33546495
 20
1087.3304526193
 40
1.5251992218
100
AcDbArc
 50
117.9789520644
 51
152.0210479356
  0
ARC
  5
559
100
AcDbEntity
  8
93780800R00_BL9
100
AcDbCircle
 62
9
  6
CONTINUOUS
 10
133.33546495
 20
1087.3304526193
 40
1.5251992218
100
AcDbArc
 50
27.9789520644
 51
62.0210479356
  0
ARC
  5
55A
100
AcDbEntity
  8
93780800R00_BL9
100
AcDbCircle
 62
7
  6
CONTINUOUS
 10
133.33546495
 20
1087.3304526193
 40
0.635
100
AcDbArc
 50
292.5578096573
 51
337.4421903427
  0
ARC
  5
55B
100
AcDbEntity
  8
93780800R00_BL9
100
AcDbCircle
 62
7
  6
CONTINUOUS
 10
133.33546495
 20
1087.3304526193
 40
0.635
100
AcDbArc
 50
22.5578096573
 51
67.4421903427
  0
ARC
  5
55C
100
AcDbEntity
  8
93780800R00_BL9
100
AcDbCircle
 62
7
  6
CONTINUOUS
 10
133.33546495
 20
1087.3304526193
 40
0.635
100
AcDbArc
 50
202.5578096573
 51
247.4421903427
  0
ARC
  5
55D
100
AcDbEntity
  8
93780800R00_BL9
100
AcDbCircle
 62
7
  6
CONTINUOUS
 10
133.33546495
 20
1087.3304526193
 40
0.635
100
AcDbArc
 50
112.5578096573
 51
157.4421903427
  0
ARC
  5
55E
100
AcDbEntity
  8
93780800R00_BL9
100
AcDbCircle
 62
7
  6
CONTINUOUS
 10
300.5678172062
 20
1354.7785498701
 40
315.324768953
100
AcDbArc
 50
238.0965244491
 51
238.2591591005
  0
ARC
  5
55F
100
AcDbEntity
  8
93780800R00_BL9
100
AcDbCircle
 62
7
  6
CONTINUOUS
 10
400.7835622008
 20
1254.5628048755
 40
315.324768953
100
AcDbArc
 50
211.7408408995
 51
211.9034755509
  0
SPLINE
  5
560
100
AcDbEntity
  8
93780800R00_BL9
100
AcDbSpline
 62
7
  6
CONTINUOUS
 70
0
 71
3
 72
8
 73
4
 74
0
 42
0.0000001
 43
0.0000001
 44
0.0000000001
 40
0.0
 40
0.0
 40
0.0
 40
0.0
 40
1.0
 40
1.0
 40
1.0
 40
1.0
 10
133.9077427013
 20
1087.5610966825
 30
0.0
 10
133.8741711958
 20
1087.484526774
 30
0.0
 10
133.8410832531
 20
1087.407735256
 30
0.0
 10
133.8091866868
 20
1087.3304526193
 30
0.0
  0
SPLINE
  5
561
100
AcDbEntity
  8
93780800R00_BL9
100
AcDbSpline
 62
7
  6
CONTINUOUS
 70
0
 71
3
 72
8
 73
4
 74
0
 42
0.0000001
 43
0.0000001
 44
0.0000000001
 40
0.0
 40
0.0
 40
0.0
 40
0.0
 40
1.0
 40
1.0
 40
1.0
 40
1.0
 10
133.8091866868
 20
1087.3304526193
 30
0.0
 10
133.8410832531
 20
1087.2531699826
 30
0.0
 10
133.8741711958
 20
1087.1763784646
 30
0.0
 10
133.9077427013
 20
1087.0998085561
 30
0.0
  0
SPLINE
  5
562
100
AcDbEntity
  8
93780800R00_BL9
100
AcDbSpline
 62
7
  6
CONTINUOUS
 70
0
 71
3
 72
8
 73
4
 74
0
 42
0.0000001
 43
0.0000001
 44
0.0000000001
 40
0.0
 40
0.0
 40
0.0
 40
0.0
 40
1.0
 40
1.0
 40
1.0
 40
1.0
 10
132.7631871987
 20
1087.0998085561
 30
0.0
 10
132.7967587043
 20
1087.1763784646
 30
0.0
 10
132.8298466469
 20
1087.2531699826
 30
0.0
 10
132.8617432132
 20
1087.3304526193
 30
0.0
  0
SPLINE
  5
563
100
AcDbEntity
  8
93780800R00_BL9
100
AcDbSpline
 62
7
  6
CONTINUOUS
 70
0
 71
3
 72
8
 73
4
 74
0
 42
0.0000001
 43
0.0000001
 44
0.0000000001
 40
0.0
 40
0.0
 40
0.0
 40
0.0
 40
1.0
 40
1.0
 40
1.0
 40
1.0
 10
132.8617432132
 20
1087.3304526193
 30
0.0
 10
132.8298466469
 20
1087.407735256
 30
0.0
 10
132.7967587043
 20
1087.484526774
 30
0.0
 10
132.7631871987
 20
1087.5610966825
 30
0.0
  0
SPLINE
  5
564
100
AcDbEntity
  8
93780800R00_BL9
100
AcDbSpline
 62
7
  6
CONTINUOUS
 70
0
 71
3
 72
8
 73
4
 74
0
 42
0.0000001
 43
0.0000001
 44
0.0000000001
 40
0.0
 40
0.0
 40
0.0
 40
0.0
 40
1.0
 40
1.0
 40
1.0
 40
1.0
 10
133.5661090132
 20
1086.758174868
 30
0.0
 10
133.4895391047
 20
1086.7917463735
 30
0.0
 10
133.4127475867
 20
1086.8248343162
 30
0.0
 10
133.33546495
 20
1086.8567308825
 30
0.0
  0
SPLINE
  5
565
100
AcDbEntity
  8
93780800R00_BL9
100
AcDbSpline
 62
7
  6
CONTINUOUS
 70
0
 71
3
 72
8
 73
4
 74
0
 42
0.0000001
 43
0.0000001
 44
0.0000000001
 40
0.0
 40
0.0
 40
0.0
 40
0.0
 40
1.0
 40
1.0
 40
1.0
 40
1.0
 10
133.33546495
 20
1086.8567308825
 30
0.0
 10
133.2581823133
 20
1086.8248343162
 30
0.0
 10
133.1813907953
 20
1086.7917463735
 30
0.0
 10
133.1048208868
 20
1086.758174868
 30
0.0
  0
SPLINE
  5
566
100
AcDbEntity
  8
93780800R00_BL9
100
AcDbSpline
 62
7
  6
CONTINUOUS
 70
0
 71
3
 72
8
 73
4
 74
0
 42
0.0000001
 43
0.0000001
 44
0.0000000001
 40
0.0
 40
0.0
 40
0.0
 40
0.0
 40
1.0
 40
1.0
 40
1.0
 40
1.0
 10
133.1048208868
 20
1087.9027303706
 30
0.0
 10
133.1813907953
 20
1087.869158865
 30
0.0
 10
133.2581823133
 20
1087.8360709224
 30
0.0
 10
133.33546495
 20
1087.8041743561
 30
0.0
  0
SPLINE
  5
567
100
AcDbEntity
  8
93780800R00_BL9
100
AcDbSpline
 62
7
  6
CONTINUOUS
 70
0
 71
3
 72
8
 73
4
 74
0
 42
0.0000001
 43
0.0000001
 44
0.0000000001
 40
0.0
 40
0.0
 40
0.0
 40
0.0
 40
1.0
 40
1.0
 40
1.0
 40
1.0
 10
133.33546495
 20
1087.8041743561
 30
0.0
 10
133.4127475867
 20
1087.8360709224
 30
0.0
 10
133.4895391047
 20
1087.869158865
 30
0.0
 10
133.5661090132
 20
1087.9027303706
 30
0.0
  0
SPLINE
  5
568
100
AcDbEntity
  8
93780800R00_BL9
100
AcDbSpline
 62
7
  6
CONTINUOUS
 70
0
 71
3
 72
9
 73
5
 74
0
 42
0.0000001
 43
0.0000001
 44
0.0000000001
 40
0.0
 40
0.0
 40
0.0
 40
0.0
 40
0.4137975716
 40
1.0
 40
1.0
 40
1.0
 40
1.0
 10
134.6823988812
 20
1086.6149097127
 30
0.0
 10
134.7361196275
 20
1086.5816336524
 30
0.0
 10
134.8519228215
 20
1086.4804237767
 30
0.0
 10
134.9616635093
 20
1086.3746664655
 30
0.0
 10
135.0238494608
 20
1086.3102710277
 30
0.0
  0
SPLINE
  5
569
100
AcDbEntity
  8
93780800R00_BL9
100
AcDbSpline
 62
7
  6
CONTINUOUS
 70
0
 71
3
 72
9
 73
5
 74
0
 42
0.0000001
 43
0.0000001
 44
0.0000000001
 40
0.0
 40
0.0
 40
0.0
 40
0.0
 40
0.5862071362
 40
1.0
 40
1.0
 40
1.0
 40
1.0
 10
134.3556465416
 20
1085.6420681086
 30
0.0
 10
134.2912505862
 20
1085.7042545598
 30
0.0
 10
134.1854932637
 20
1085.8139952472
 30
0.0
 10
134.0842835385
 20
1085.9297985526
 30
0.0
 10
134.0510078566
 20
1085.9835186881
 30
0.0
  0
SPLINE
  5
56A
100
AcDbEntity
  8
93780800R00_BL9
100
AcDbSpline
 62
7
  6
CONTINUOUS
 70
0
 71
3
 72
9
 73
5
 74
0
 42
0.0000001
 43
0.0000001
 44
0.0000000001
 40
0.0
 40
0.0
 40
0.0
 40
0.0
 40
0.4137975716
 40
1.0
 40
1.0
 40
1.0
 40
1.0
 10
132.6199220435
 20
1085.9835186881
 30
0.0
 10
132.5866459831
 20
1085.9297979418
 30
0.0
 10
132.4854361074
 20
1085.8139947478
 30
0.0
 10
132.3796787962
 20
1085.70425406
 30
0.0
 10
132.3152833584
 20
1085.6420681086
 30
0.0
  0
SPLINE
  5
56B
100
AcDbEntity
  8
93780800R00_BL9
100
AcDbSpline
 62
7
  6
CONTINUOUS
 70
0
 71
3
 72
9
 73
5
 74
0
 42
0.0000001
 43
0.0000001
 44
0.0000000001
 40
0.0
 40
0.0
 40
0.0
 40
0.0
 40
0.5862071362
 40
1.0
 40
1.0
 40
1.0
 40
1.0
 10
131.6470804393
 20
1086.3102710277
 30
0.0
 10
131.7092668905
 20
1086.3746669831
 30
0.0
 10
131.819007578
 20
1086.4804243056
 30
0.0
 10
131.9348108834
 20
1086.5816340308
 30
0.0
 10
131.9885310188
 20
1086.6149097127
 30
0.0
  0
SPLINE
  5
56C
100
AcDbEntity
  8
93780800R00_BL9
100
AcDbSpline
 62
7
  6
CONTINUOUS
 70
0
 71
3
 72
9
 73
5
 74
0
 42
0.0000001
 43
0.0000001
 44
0.0000000001
 40
0.0
 40
0.0
 40
0.0
 40
0.0
 40
0.4137975716
 40
1.0
 40
1.0
 40
1.0
 40
1.0
 10
131.9885310188
 20
1088.0459955258
 30
0.0
 10
131.9348102725
 20
1088.0792715862
 30
0.0
 10
131.8190070786
 20
1088.1804814619
 30
0.0
 10
131.7092663907
 20
1088.2862387731
 30
0.0
 10
131.6470804393
 20
1088.3506342109
 30
0.0
  0
SPLINE
  5
56D
100
AcDbEntity
  8
93780800R00_BL9
100
AcDbSpline
 62
7
  6
CONTINUOUS
 70
0
 71
3
 72
9
 73
5
 74
0
 42
0.0000001
 43
0.0000001
 44
0.0000000001
 40
0.0
 40
0.0
 40
0.0
 40
0.0
 40
0.5862071362
 40
1.0
 40
1.0
 40
1.0
 40
1.0
 10
132.3152833584
 20
1089.01883713
 30
0.0
 10
132.3796793138
 20
1088.9566506788
 30
0.0
 10
132.4854366363
 20
1088.8469099913
 30
0.0
 10
132.5866463615
 20
1088.731106686
 30
0.0
 10
132.6199220435
 20
1088.6773865505
 30
0.0
  0
SPLINE
  5
56E
100
AcDbEntity
  8
93780800R00_BL9
100
AcDbSpline
 62
7
  6
CONTINUOUS
 70
0
 71
3
 72
9
 73
5
 74
0
 42
0.0000001
 43
0.0000001
 44
0.0000000001
 40
0.0
 40
0.0
 40
0.0
 40
0.0
 40
0.4137975716
 40
1.0
 40
1.0
 40
1.0
 40
1.0
 10
134.0510078566
 20
1088.6773865505
 30
0.0
 10
134.0842839169
 20
1088.7311072968
 30
0.0
 10
134.1854937926
 20
1088.8469104907
 30
0.0
 10
134.2912511038
 20
1088.9566511786
 30
0.0
 10
134.3556465416
 20
1089.01883713
 30
0.0
  0
SPLINE
  5
56F
100
AcDbEntity
  8
93780800R00_BL9
100
AcDbSpline
 62
7
  6
CONTINUOUS
 70
0
 71
3
 72
9
 73
5
 74
0
 42
0.0000001
 43
0.0000001
 44
0.0000000001
 40
0.0
 40
0.0
 40
0.0
 40
0.0
 40
0.5862071362
 40
1.0
 40
1.0
 40
1.0
 40
1.0
 10
135.0238494608
 20
1088.3506342109
 30
0.0
 10
134.9616630095
 20
1088.2862382555
 30
0.0
 10
134.8519223221
 20
1088.180480933
 30
0.0
 10
134.7361190167
 20
1088.0792712078
 30
0.0
 10
134.6823988812
 20
1088.0459955258
 30
0.0
  0
ENDBLK
  5
570
100
AcDbEntity
  8
0
  6
BYBLOCK
 62
0
100
AcDbBlockEnd
  0
BLOCK
  5
571
100
AcDbEntity
  8
93894134000_BL10
100
AcDbBlockBegin
  2
93894134000_BL10
 70
64
 10
88.83172757
 20
594.608030643
  3
93894134000_BL10
  1

  0
LINE
  5
572
100
AcDbEntity
  8
93894134000_BL10
100
AcDbLine
 62
7
  6
CONTINUOUS
 10
140.1351713862
 20
1056.2871541153
 11
140.13546495
 21
1056.2707376196
  0
LINE
  5
573
100
AcDbEntity
  8
93894134000_BL10
100
AcDbLine
 62
7
  6
CONTINUOUS
 10
140.1351536036
 20
1087.2865423383
 11
140.13546495
 21
1087.2688998065
  0
LINE
  5
574
100
AcDbEntity
  8
93894134000_BL10
100
AcDbLine
 62
7
  6
CONTINUOUS
 10
140.1356495112
 20
1052.3788707767
 11
140.13546495
 21
1052.390167619
  0
LINE
  5
575
100
AcDbEntity
  8
93894134000_BL10
100
AcDbLine
 62
7
  6
CONTINUOUS
 10
140.1356604721
 20
1091.3798963239
 11
140.13546495
 21
1091.3920054321
  0
LINE
  5
576
100
AcDbEntity
  8
93894134000_BL10
100
AcDbLine
 62
7
  6
CONTINUOUS
 10
128.83546495
 20
1073.4804526193
 11
128.83546495
 21
1072.493066265
  0
LINE
  5
577
100
AcDbEntity
  8
93894134000_BL10
100
AcDbLine
 62
7
  6
CONTINUOUS
 10
128.83546495
 20
1071.4804526193
 11
128.83546495
 21
1070.9804526193
  0
LINE
  5
578
100
AcDbEntity
  8
93894134000_BL10
100
AcDbLine
 62
7
  6
CONTINUOUS
 10
129.43546495
 20
1070.9804526193
 11
129.43546495
 21
1071.4804526193
  0
LINE
  5
579
100
AcDbEntity
  8
93894134000_BL10
100
AcDbLine
 62
7
  6
CONTINUOUS
 10
129.43546495
 20
1071.7107587736
 11
129.43546495
 21
1073.4804526193
  0
LINE
  5
57A
100
AcDbEntity
  8
93894134000_BL10
100
AcDbLine
 62
9
  6
CONTINUOUS
 10
130.43546495
 20
1059.1804526193
 11
130.43546495
 21
1058.1804526193
  0
LINE
  5
57B
100
AcDbEntity
  8
93894134000_BL10
100
AcDbLine
 62
9
  6
CONTINUOUS
 10
130.43546495
 20
1053.4804526193
 11
130.43546495
 21
1054.4804526193
  0
LINE
  5
57C
100
AcDbEntity
  8
93894134000_BL10
100
AcDbLine
 62
9
  6
CONTINUOUS
 10
130.43546495
 20
1084.4804526193
 11
130.43546495
 21
1085.4804526193
  0
LINE
  5
57D
100
AcDbEntity
  8
93894134000_BL10
100
AcDbLine
 62
9
  6
CONTINUOUS
 10
130.43546495
 20
1089.1804526193
 11
130.43546495
 21
1090.1804526193
  0
LINE
  5
57E
100
AcDbEntity
  8
93894134000_BL10
100
AcDbLine
 62
7
  6
CONTINUOUS
 10
130.53546495
 20
1070.1804526193
 11
130.53546495
 21
1070.9804526193
  0
LINE
  5
57F
100
AcDbEntity
  8
93894134000_BL10
100
AcDbLine
 62
7
  6
CONTINUOUS
 10
130.53546495
 20
1068.9804526193
 11
130.53546495
 21
1069.7804526193
  0
LINE
  5
580
100
AcDbEntity
  8
93894134000_BL10
100
AcDbLine
 62
7
  6
CONTINUOUS
 10
136.13546495
 20
1092.9304526193
 11
136.13546495
 21
1088.2428669988
  0
LINE
  5
581
100
AcDbEntity
  8
93894134000_BL10
100
AcDbLine
 62
7
  6
CONTINUOUS
 10
136.13546495
 20
1086.4180382397
 11
136.13546495
 21
1057.2428669988
  0
LINE
  5
582
100
AcDbEntity
  8
93894134000_BL10
100
AcDbLine
 62
7
  6
CONTINUOUS
 10
136.13546495
 20
1055.4180382397
 11
136.13546495
 21
1050.7304526193
  0
LINE
  5
583
100
AcDbEntity
  8
93894134000_BL10
100
AcDbLine
 62
7
  6
CONTINUOUS
 10
140.13546495
 20
1091.2707376196
 11
140.13546495
 21
1087.390167619
  0
LINE
  5
584
100
AcDbEntity
  8
93894134000_BL10
100
AcDbLine
 62
7
  6
CONTINUOUS
 10
140.13546495
 20
1050.1304526193
 11
140.13546495
 21
1052.2688998065
  0
LINE
  5
585
100
AcDbEntity
  8
93894134000_BL10
100
AcDbLine
 62
7
  6
CONTINUOUS
 10
140.13546495
 20
1052.390167619
 11
140.13546495
 21
1056.2707376196
  0
LINE
  5
586
100
AcDbEntity
  8
93894134000_BL10
100
AcDbLine
 62
7
  6
CONTINUOUS
 10
140.13546495
 20
1056.3920054321
 11
140.13546495
 21
1087.2688998065
  0
LINE
  5
587
100
AcDbEntity
  8
93894134000_BL10
100
AcDbLine
 62
7
  6
CONTINUOUS
 10
140.13546495
 20
1091.3920054321
 11
140.13546495
 21
1093.5304526193
  0
LINE
  5
588
100
AcDbEntity
  8
93894134000_BL10
100
AcDbLine
 62
9
  6
CONTINUOUS
 10
140.33546495
 20
1049.9304526193
 11
140.33546495
 21
1052.2688998065
  0
LINE
  5
589
100
AcDbEntity
  8
93894134000_BL10
100
AcDbLine
 62
9
  6
CONTINUOUS
 10
140.33546495
 20
1052.2688998065
 11
140.33546495
 21
1091.3920054321
  0
LINE
  5
58A
100
AcDbEntity
  8
93894134000_BL10
100
AcDbLine
 62
9
  6
CONTINUOUS
 10
140.33546495
 20
1091.3920054321
 11
140.33546495
 21
1093.7304526193
  0
LINE
  5
58B
100
AcDbEntity
  8
93894134000_BL10
100
AcDbLine
 62
7
  6
CONTINUOUS
 10
141.33546495
 20
1048.9304526193
 11
141.33546495
 21
1094.7304526193
  0
LINE
  5
58C
100
AcDbEntity
  8
93894134000_BL10
100
AcDbLine
 62
9
  6
CONTINUOUS
 10
142.33546495
 20
1047.9304526193
 11
142.33546495
 21
1095.7304526193
  0
LINE
  5
58D
100
AcDbEntity
  8
93894134000_BL10
100
AcDbLine
 62
9
  6
CONTINUOUS
 10
146.0818514785
 20
1047.8304526193
 11
146.0818514785
 21
1095.8304526193
  0
LINE
  5
58E
100
AcDbEntity
  8
93894134000_BL10
100
AcDbLine
 62
9
  6
CONTINUOUS
 10
146.474869048
 20
1047.8304526193
 11
146.474869048
 21
1095.8304526193
  0
LINE
  5
58F
100
AcDbEntity
  8
93894134000_BL10
100
AcDbLine
 62
7
  6
CONTINUOUS
 10
140.1356604721
 20
1052.2810089147
 11
140.13546495
 21
1052.2688998065
  0
LINE
  5
590
100
AcDbEntity
  8
93894134000_BL10
100
AcDbLine
 62
7
  6
CONTINUOUS
 10
140.1356495112
 20
1091.2820344619
 11
140.13546495
 21
1091.2707376196
  0
LINE
  5
591
100
AcDbEntity
  8
93894134000_BL10
100
AcDbLine
 62
7
  6
CONTINUOUS
 10
140.1351536036
 20
1056.3743628996
 11
140.13546495
 21
1056.3920054321
  0
LINE
  5
592
100
AcDbEntity
  8
93894134000_BL10
100
AcDbLine
 62
7
  6
CONTINUOUS
 10
140.1351713862
 20
1087.3737511233
 11
140.13546495
 21
1087.390167619
  0
LINE
  5
593
100
AcDbEntity
  8
93894134000_BL10
100
AcDbLine
 62
7
  6
CONTINUOUS
 10
140.13546495
 20
1093.5304526193
 11
139.8283581688
 21
1093.2233458381
  0
LINE
  5
594
100
AcDbEntity
  8
93894134000_BL10
100
AcDbLine
 62
7
  6
CONTINUOUS
 10
140.13546495
 20
1093.5304526193
 11
141.33546495
 21
1094.7304526193
  0
LINE
  5
595
100
AcDbEntity
  8
93894134000_BL10
100
AcDbLine
 62
7
  6
CONTINUOUS
 10
141.33546495
 20
1094.7304526193
 11
142.43546495
 21
1095.8304526193
  0
LINE
  5
596
100
AcDbEntity
  8
93894134000_BL10
100
AcDbLine
 62
7
  6
CONTINUOUS
 10
148.43546495
 20
1095.8304526193
 11
148.43546495
 21
1047.8304526193
  0
LINE
  5
597
100
AcDbEntity
  8
93894134000_BL10
100
AcDbLine
 62
7
  6
CONTINUOUS
 10
148.43546495
 20
1047.8304526193
 11
146.0818514785
 21
1047.8304526193
  0
LINE
  5
598
100
AcDbEntity
  8
93894134000_BL10
100
AcDbLine
 62
7
  6
CONTINUOUS
 10
146.0818514785
 20
1047.8304526193
 11
142.43546495
 21
1047.8304526193
  0
LINE
  5
599
100
AcDbEntity
  8
93894134000_BL10
100
AcDbLine
 62
7
  6
CONTINUOUS
 10
128.33546495
 20
1050.7304526193
 11
139.1212513876
 21
1050.7304526193
  0
LINE
  5
59A
100
AcDbEntity
  8
93894134000_BL10
100
AcDbLine
 62
9
  6
CONTINUOUS
 10
140.33546495
 20
1052.2688998065
 11
140.13546495
 21
1052.2688998065
  0
LINE
  5
59B
100
AcDbEntity
  8
93894134000_BL10
100
AcDbLine
 62
9
  6
CONTINUOUS
 10
140.33546495
 20
1052.390167619
 11
140.13546495
 21
1052.390167619
  0
LINE
  5
59C
100
AcDbEntity
  8
93894134000_BL10
100
AcDbLine
 62
7
  6
CONTINUOUS
 10
130.43546495
 20
1053.4804526193
 11
133.43546495
 21
1053.4804526193
  0
LINE
  5
59D
100
AcDbEntity
  8
93894134000_BL10
100
AcDbLine
 62
7
  6
CONTINUOUS
 10
130.43546495
 20
1054.4804526193
 11
131.1978481048
 21
1054.4804526193
  0
LINE
  5
59E
100
AcDbEntity
  8
93894134000_BL10
100
AcDbLine
 62
9
  6
CONTINUOUS
 10
140.33546495
 20
1056.2707376196
 11
140.13546495
 21
1056.2707376196
  0
LINE
  5
59F
100
AcDbEntity
  8
93894134000_BL10
100
AcDbLine
 62
9
  6
CONTINUOUS
 10
140.33546495
 20
1056.3920054321
 11
140.13546495
 21
1056.3920054321
  0
LINE
  5
5A0
100
AcDbEntity
  8
93894134000_BL10
100
AcDbLine
 62
7
  6
CONTINUOUS
 10
131.1978481048
 20
1058.1804526193
 11
130.43546495
 21
1058.1804526193
  0
LINE
  5
5A1
100
AcDbEntity
  8
93894134000_BL10
100
AcDbLine
 62
7
  6
CONTINUOUS
 10
133.43546495
 20
1059.1804526193
 11
130.43546495
 21
1059.1804526193
  0
LINE
  5
5A2
100
AcDbEntity
  8
93894134000_BL10
100
AcDbLine
 62
7
  6
CONTINUOUS
 10
128.63546495
 20
1068.9804526193
 11
130.53546495
 21
1068.9804526193
  0
LINE
  5
5A3
100
AcDbEntity
  8
93894134000_BL10
100
AcDbLine
 62
7
  6
CONTINUOUS
 10
130.53546495
 20
1069.7804526193
 11
128.63546495
 21
1069.7804526193
  0
LINE
  5
5A4
100
AcDbEntity
  8
93894134000_BL10
100
AcDbLine
 62
7
  6
CONTINUOUS
 10
128.63546495
 20
1070.1804526193
 11
130.53546495
 21
1070.1804526193
  0
LINE
  5
5A5
100
AcDbEntity
  8
93894134000_BL10
100
AcDbLine
 62
7
  6
CONTINUOUS
 10
130.53546495
 20
1070.9804526193
 11
129.43546495
 21
1070.9804526193
  0
LINE
  5
5A6
100
AcDbEntity
  8
93894134000_BL10
100
AcDbLine
 62
7
  6
CONTINUOUS
 10
128.83546495
 20
1070.9804526193
 11
128.63546495
 21
1070.9804526193
  0
LINE
  5
5A7
100
AcDbEntity
  8
93894134000_BL10
100
AcDbLine
 62
7
  6
CONTINUOUS
 10
128.83546495
 20
1071.4804526193
 11
129.43546495
 21
1071.4804526193
  0
LINE
  5
5A8
100
AcDbEntity
  8
93894134000_BL10
100
AcDbLine
 62
2
  6
CENTER
 10
148.43546495
 20
1071.8304526193
 11
146.4748690726
 21
1071.8304526193
  0
LINE
  5
5A9
100
AcDbEntity
  8
93894134000_BL10
100
AcDbLine
 62
7
  6
CONTINUOUS
 10
129.43546495
 20
1073.4804526193
 11
128.83546495
 21
1073.4804526193
  0
LINE
  5
5AA
100
AcDbEntity
  8
93894134000_BL10
100
AcDbLine
 62
7
  6
CONTINUOUS
 10
133.43546495
 20
1084.4804526193
 11
130.43546495
 21
1084.4804526193
  0
LINE
  5
5AB
100
AcDbEntity
  8
93894134000_BL10
100
AcDbLine
 62
7
  6
CONTINUOUS
 10
130.43546495
 20
1085.4804526193
 11
131.1978481048
 21
1085.4804526193
  0
LINE
  5
5AC
100
AcDbEntity
  8
93894134000_BL10
100
AcDbLine
 62
9
  6
CONTINUOUS
 10
140.13546495
 20
1087.2688998065
 11
140.33546495
 21
1087.2688998065
  0
LINE
  5
5AD
100
AcDbEntity
  8
93894134000_BL10
100
AcDbLine
 62
9
  6
CONTINUOUS
 10
140.13546495
 20
1087.390167619
 11
140.33546495
 21
1087.390167619
  0
LINE
  5
5AE
100
AcDbEntity
  8
93894134000_BL10
100
AcDbLine
 62
7
  6
CONTINUOUS
 10
131.1978481048
 20
1089.1804526193
 11
130.43546495
 21
1089.1804526193
  0
LINE
  5
5AF
100
AcDbEntity
  8
93894134000_BL10
100
AcDbLine
 62
7
  6
CONTINUOUS
 10
130.43546495
 20
1090.1804526193
 11
133.43546495
 21
1090.1804526193
  0
LINE
  5
5B0
100
AcDbEntity
  8
93894134000_BL10
100
AcDbLine
 62
9
  6
CONTINUOUS
 10
140.13546495
 20
1091.2707376196
 11
140.33546495
 21
1091.2707376196
  0
LINE
  5
5B1
100
AcDbEntity
  8
93894134000_BL10
100
AcDbLine
 62
9
  6
CONTINUOUS
 10
140.13546495
 20
1091.3920054321
 11
140.33546495
 21
1091.3920054321
  0
LINE
  5
5B2
100
AcDbEntity
  8
93894134000_BL10
100
AcDbLine
 62
7
  6
CONTINUOUS
 10
128.33546495
 20
1092.9304526193
 11
139.1212513876
 21
1092.9304526193
  0
LINE
  5
5B3
100
AcDbEntity
  8
93894134000_BL10
100
AcDbLine
 62
7
  6
CONTINUOUS
 10
146.0818514785
 20
1095.8304526193
 11
142.43546495
 21
1095.8304526193
  0
LINE
  5
5B4
100
AcDbEntity
  8
93894134000_BL10
100
AcDbLine
 62
7
  6
CONTINUOUS
 10
146.0818514785
 20
1095.8304526193
 11
148.43546495
 21
1095.8304526193
  0
LINE
  5
5B5
100
AcDbEntity
  8
93894134000_BL10
100
AcDbLine
 62
7
  6
CONTINUOUS
 10
140.13546495
 20
1050.1304526193
 11
139.8283581688
 21
1050.4375594005
  0
LINE
  5
5B6
100
AcDbEntity
  8
93894134000_BL10
100
AcDbLine
 62
7
  6
CONTINUOUS
 10
140.13546495
 20
1050.1304526193
 11
141.33546495
 21
1048.9304526193
  0
LINE
  5
5B7
100
AcDbEntity
  8
93894134000_BL10
100
AcDbLine
 62
7
  6
CONTINUOUS
 10
141.33546495
 20
1048.9304526193
 11
142.43546495
 21
1047.8304526193
  0
LINE
  5
5B8
100
AcDbEntity
  8
93894134000_BL10
100
AcDbLine
 62
7
  6
CONTINUOUS
 10
129.6657950359
 20
1072.6501225334
 11
130.1961251218
 21
1072.1197924475
  0
LINE
  5
5B9
100
AcDbEntity
  8
93894134000_BL10
100
AcDbLine
 62
7
  6
CONTINUOUS
 10
29.6279901899
 20
1047.8304526193
 11
29.6279901899
 21
1095.8304526193
  0
LINE
  5
5BA
100
AcDbEntity
  8
93894134000_BL10
100
AcDbLine
 62
9
  6
CONTINUOUS
 10
29.8188992808
 20
1047.8304526193
 11
29.8188992808
 21
1095.8304526193
  0
LINE
  5
5BB
100
AcDbEntity
  8
93894134000_BL10
100
AcDbLine
 62
7
  6
CONTINUOUS
 10
33.5738882237
 20
1095.8304526193
 11
33.5738882237
 21
1047.8304526193
  0
LINE
  5
5BC
100
AcDbEntity
  8
93894134000_BL10
100
AcDbLine
 62
7
  6
CONTINUOUS
 10
33.6279901899
 20
1047.8304526193
 11
33.5738882237
 21
1047.8304526193
  0
LINE
  5
5BD
100
AcDbEntity
  8
93894134000_BL10
100
AcDbLine
 62
7
  6
CONTINUOUS
 10
33.5738882237
 20
1047.8304526193
 11
29.6279901899
 21
1047.8304526193
  0
LINE
  5
5BE
100
AcDbEntity
  8
93894134000_BL10
100
AcDbLine
 62
2
  6
CENTER
 10
33.6279901899
 20
1071.8304526193
 11
29.8188993122
 21
1071.8304526193
  0
LINE
  5
5BF
100
AcDbEntity
  8
93894134000_BL10
100
AcDbLine
 62
7
  6
CONTINUOUS
 10
33.6279901899
 20
1095.8304526193
 11
33.5738882237
 21
1095.8304526193
  0
LINE
  5
5C0
100
AcDbEntity
  8
93894134000_BL10
100
AcDbLine
 62
7
  6
CONTINUOUS
 10
29.6279901899
 20
1095.8304526193
 11
33.5738882237
 21
1095.8304526193
  0
LINE
  5
5C1
100
AcDbEntity
  8
93894134000_BL10
100
AcDbLine
 62
7
  6
CONTINUOUS
 10
34.1279901899
 20
93.3856086667
 11
34.1279901899
 21
94.8856086667
  0
LINE
  5
5C2
100
AcDbEntity
  8
93894134000_BL10
100
AcDbLine
 62
7
  6
CENTER
 10
36.6279901899
 20
110.7856086667
 11
29.2279901899
 21
110.7856086667
  0
ARC
  5
5C3
100
AcDbEntity
  8
93894134000_BL10
100
AcDbCircle
 62
7
  6
CONTINUOUS
 10
130.43546495
 20
1087.3304526193
 40
2.85
100
AcDbArc
 50
204.114967861
 51
270.0
  0
ARC
  5
5C4
100
AcDbEntity
  8
93894134000_BL10
100
AcDbCircle
 62
7
  6
CONTINUOUS
 10
130.43546495
 20
1087.3304526193
 40
2.85
100
AcDbArc
 50
90.0
 51
155.885032139
  0
ARC
  5
5C5
100
AcDbEntity
  8
93894134000_BL10
100
AcDbCircle
 62
7
  6
CONTINUOUS
 10
130.43546495
 20
1056.3304526193
 40
2.85
100
AcDbArc
 50
90.0
 51
155.885032139
  0
ARC
  5
5C6
100
AcDbEntity
  8
93894134000_BL10
100
AcDbCircle
 62
7
  6
CONTINUOUS
 10
130.43546495
 20
1056.3304526193
 40
2.85
100
AcDbArc
 50
204.114967861
 51
270.0
  0
ARC
  5
5C7
100
AcDbEntity
  8
93894134000_BL10
100
AcDbCircle
 62
7
  6
CONTINUOUS
 10
130.43546495
 20
1087.3304526193
 40
1.85
100
AcDbArc
 50
90.0
 51
270.0
  0
ARC
  5
5C8
100
AcDbEntity
  8
93894134000_BL10
100
AcDbCircle
 62
7
  6
CONTINUOUS
 10
130.43546495
 20
1056.3304526193
 40
1.85
100
AcDbArc
 50
90.0
 51
270.0
  0
ARC
  5
5C9
100
AcDbEntity
  8
93894134000_BL10
100
AcDbCircle
 62
7
  6
CONTINUOUS
 10
129.13546495
 20
1073.1804526193
 40
1.5
100
AcDbArc
 50
315.0
 51
150.3144683982
  0
ARC
  5
5CA
100
AcDbEntity
  8
93894134000_BL10
100
AcDbCircle
 62
7
  6
CONTINUOUS
 10
129.13546495
 20
1073.1804526193
 40
1.5
100
AcDbArc
 50
209.8475433825
 51
281.5369590328
  0
ARC
  5
5CB
100
AcDbEntity
  8
93894134000_BL10
100
AcDbCircle
 62
7
  6
CONTINUOUS
 10
128.33546495
 20
1091.9304526193
 40
1.0
100
AcDbArc
 50
90.0
 51
120.1531584305
  0
ARC
  5
5CC
100
AcDbEntity
  8
93894134000_BL10
100
AcDbCircle
 62
7
  6
CONTINUOUS
 10
128.33546495
 20
1051.7304526193
 40
1.0
100
AcDbArc
 50
239.8468415695
 51
270.0
  0
ARC
  5
5CD
100
AcDbEntity
  8
93894134000_BL10
100
AcDbCircle
 62
7
  6
CONTINUOUS
 10
128.63546495
 20
1069.9804526193
 40
1.0
100
AcDbArc
 50
90.0
 51
143.3998541875
  0
ARC
  5
5CE
100
AcDbEntity
  8
93894134000_BL10
100
AcDbCircle
 62
7
  6
CONTINUOUS
 10
128.63546495
 20
1069.9804526193
 40
1.0
100
AcDbArc
 50
216.6001458125
 51
270.0
  0
ARC
  5
5CF
100
AcDbEntity
  8
93894134000_BL10
100
AcDbCircle
 62
7
  6
CONTINUOUS
 10
129.13546495
 20
1073.1804526193
 40
0.75
100
AcDbArc
 50
315.0
 51
246.4218215218
  0
ARC
  5
5D0
100
AcDbEntity
  8
93894134000_BL10
100
AcDbCircle
 62
7
  6
CONTINUOUS
 10
128.63546495
 20
1069.9804526193
 40
0.2
100
AcDbArc
 50
90.0
 51
270.0
  0
ARC
  5
5D1
100
AcDbEntity
  8
93894134000_BL10
100
AcDbCircle
 62
7
  6
CONTINUOUS
 10
133.43546495
 20
1056.3304526193
 40
2.85
100
AcDbArc
 50
270.0
 51
90.0
  0
ARC
  5
5D2
100
AcDbEntity
  8
93894134000_BL10
100
AcDbCircle
 62
7
  6
CONTINUOUS
 10
133.43546495
 20
1087.3304526193
 40
2.85
100
AcDbArc
 50
270.0
 51
90.0
  0
ARC
  5
5D3
100
AcDbEntity
  8
93894134000_BL10
100
AcDbCircle
 62
7
  6
CONTINUOUS
 10
138.6266697587
 20
1052.3297706182
 40
1.5097783675
100
AcDbArc
 50
358.1490832492
 51
1.8636695627
  0
ARC
  5
5D4
100
AcDbEntity
  8
93894134000_BL10
100
AcDbCircle
 62
7
  6
CONTINUOUS
 10
138.6266697625
 20
1091.3311346204
 40
1.5097783638
100
AcDbArc
 50
358.1363304325
 51
1.8509167552
  0
ARC
  5
5D5
100
AcDbEntity
  8
93894134000_BL10
100
AcDbCircle
 62
7
  6
CONTINUOUS
 10
141.365643621
 20
1056.3310095444
 40
1.2312535155
100
AcDbArc
 50
177.9820806673
 51
182.041222687
  0
ARC
  5
5D6
100
AcDbEntity
  8
93894134000_BL10
100
AcDbCircle
 62
7
  6
CONTINUOUS
 10
141.3656435349
 20
1087.3298956942
 40
1.2312534295
100
AcDbArc
 50
177.9587771708
 51
182.0179194742
  0
ARC
  5
5D7
100
AcDbEntity
  8
93894134000_BL10
100
AcDbCircle
 62
7
  6
CONTINUOUS
 10
139.1212513876
 20
1093.9304526193
 40
1.0
100
AcDbArc
 50
270.0
 51
315.0
  0
ARC
  5
5D8
100
AcDbEntity
  8
93894134000_BL10
100
AcDbCircle
 62
7
  6
CONTINUOUS
 10
139.1212513876
 20
1049.7304526193
 40
1.0
100
AcDbArc
 50
45.0
 51
90.0
  0
SPLINE
  5
5D9
100
AcDbEntity
  8
93894134000_BL10
100
AcDbSpline
 62
9
  6
CONTINUOUS
 70
0
 71
3
 72
8
 73
4
 74
0
 42
0.0000001
 43
0.0000001
 44
0.0000000001
 40
0.0
 40
0.0
 40
0.0
 40
0.0
 40
1.0
 40
1.0
 40
1.0
 40
1.0
 10
140.1356497716
 20
1052.3788645432
 30
0.0
 10
138.8022434179
 20
1052.3636995801
 30
0.0
 10
137.4688533481
 20
1052.3471217493
 30
0.0
 10
136.13546495
 20
1052.3304526193
 30
0.0
  0
SPLINE
  5
5DA
100
AcDbEntity
  8
93894134000_BL10
100
AcDbSpline
 62
9
  6
CONTINUOUS
 70
0
 71
3
 72
8
 73
4
 74
0
 42
0.0000001
 43
0.0000001
 44
0.0000000001
 40
0.0
 40
0.0
 40
0.0
 40
0.0
 40
1.0
 40
1.0
 40
1.0
 40
1.0
 10
140.1356604721
 20
1052.2810089147
 30
0.0
 10
138.8022578
 20
1052.2971496894
 30
0.0
 10
137.4688611232
 20
1052.3137836081
 30
0.0
 10
136.13546495
 20
1052.3304526193
 30
0.0
  0
SPLINE
  5
5DB
100
AcDbEntity
  8
93894134000_BL10
100
AcDbSpline
 62
9
  6
CONTINUOUS
 70
0
 71
3
 72
14
 73
10
 74
0
 42
0.0000001
 43
0.0000001
 44
0.0000000001
 40
0.0
 40
0.0
 40
0.0
 40
0.0
 40
0.0226345724
 40
0.0801801674
 40
0.172558182
 40
0.2965033704
 40
0.4472817941
 40
0.619272726
 40
1.0
 40
1.0
 40
1.0
 40
1.0
 10
141.33546495
 20
1052.3304526193
 30
0.0
 10
141.3352588293
 20
1052.3228656929
 30
0.0
 10
141.2996316681
 20
1052.3142807362
 30
0.0
 10
141.2512742319
 20
1052.30415456
 30
0.0
 10
141.155258861
 20
1052.2944733522
 30
0.0
 10
141.03441153
 20
1052.2856432843
 30
0.0
 10
140.884088303
 20
1052.2783852641
 30
0.0
 10
140.6486005193
 20
1052.2709229682
 30
0.0
 10
140.4631287535
 20
1052.268899955
 30
0.0
 10
140.33546495
 20
1052.2688998065
 30
0.0
  0
SPLINE
  5
5DC
100
AcDbEntity
  8
93894134000_BL10
100
AcDbSpline
 62
9
  6
CONTINUOUS
 70
0
 71
3
 72
14
 73
10
 74
0
 42
0.0000001
 43
0.0000001
 44
0.0000000001
 40
0.0
 40
0.0
 40
0.0
 40
0.0
 40
0.0223606001
 40
0.079110154
 40
0.1705493025
 40
0.2937448791
 40
0.4442796256
 40
0.6167322707
 40
1.0
 40
1.0
 40
1.0
 40
1.0
 10
141.33546497
 20
1052.3304529832
 30
0.0
 10
141.3352656665
 20
1052.3379476355
 30
0.0
 10
141.3002759342
 20
1052.3466959043
 30
0.0
 10
141.2523031895
 20
1052.3563095373
 30
0.0
 10
141.1572419922
 20
1052.3659933755
 30
0.0
 10
141.0369855376
 20
1052.374421118
 30
0.0
 10
140.8868452073
 20
1052.381313979
 30
0.0
 10
140.6504332792
 20
1052.3883043204
 30
0.0
 10
140.463971065
 20
1052.3901808505
 30
0.0
 10
140.3354649488
 20
1052.3901840103
 30
0.0
  0
SPLINE
  5
5DD
100
AcDbEntity
  8
93894134000_BL10
100
AcDbSpline
 62
9
  6
CONTINUOUS
 70
0
 71
3
 72
8
 73
4
 74
0
 42
0.0000001
 43
0.0000001
 44
0.0000000001
 40
0.0
 40
0.0
 40
0.0
 40
0.0
 40
1.0
 40
1.0
 40
1.0
 40
1.0
 10
136.2854625257
 20
1087.3304526587
 30
0.0
 10
137.5687015384
 20
1087.3446335647
 30
0.0
 10
138.8519226618
 20
1087.3604544888
 30
0.0
 10
140.1351711878
 20
1087.3737466788
 30
0.0
  0
SPLINE
  5
5DE
100
AcDbEntity
  8
93894134000_BL10
100
AcDbSpline
 62
9
  6
CONTINUOUS
 70
0
 71
3
 72
8
 73
4
 74
0
 42
0.0000001
 43
0.0000001
 44
0.0000000001
 40
0.0
 40
0.0
 40
0.0
 40
0.0
 40
1.0
 40
1.0
 40
1.0
 40
1.0
 10
136.2854644681
 20
1087.3287951799
 30
0.0
 10
137.5686931298
 20
1087.3146155436
 30
0.0
 10
138.8519217814
 20
1087.3004330082
 30
0.0
 10
140.1351536036
 20
1087.2865423383
 30
0.0
  0
SPLINE
  5
5DF
100
AcDbEntity
  8
93894134000_BL10
100
AcDbSpline
 62
9
  6
CONTINUOUS
 70
0
 71
3
 72
14
 73
10
 74
0
 42
0.0000001
 43
0.0000001
 44
0.0000000001
 40
0.0
 40
0.0
 40
0.0
 40
0.0
 40
0.3811311374
 40
0.5531032346
 40
0.7038328405
 40
0.8275785466
 40
0.9197983075
 40
0.9773646329
 40
1.0
 40
1.0
 40
1.0
 40
1.0
 10
140.33546495
 20
1087.2688998065
 30
0.0
 10
140.4632857755
 20
1087.2688997702
 30
0.0
 10
140.6489196582
 20
1087.2708364898
 30
0.0
 10
140.8845612432
 20
1087.27809551
 30
0.0
 10
141.0348377175
 20
1087.2852362293
 30
0.0
 10
141.1555462235
 20
1087.2939564026
 30
0.0
 10
141.2515269902
 20
1087.3038124879
 30
0.0
 10
141.2996925278
 20
1087.313815201
 30
0.0
 10
141.3354480891
 20
1087.3228613629
 30
0.0
 10
141.33546495
 20
1087.3304526193
 30
0.0
  0
SPLINE
  5
5E0
100
AcDbEntity
  8
93894134000_BL10
100
AcDbSpline
 62
9
  6
CONTINUOUS
 70
0
 71
3
 72
14
 73
10
 74
0
 42
0.0000001
 43
0.0000001
 44
0.0000000001
 40
0.0
 40
0.0
 40
0.0
 40
0.0
 40
0.3786066686
 40
0.5500971657
 40
0.7010230414
 40
0.8255020121
 40
0.9186856547
 40
0.9770478048
 40
1.0
 40
1.0
 40
1.0
 40
1.0
 10
140.3354649506
 20
1087.3901523003
 30
0.0
 10
140.4624237782
 20
1087.3901511172
 30
0.0
 10
140.6470244708
 20
1087.3884484047
 30
0.0
 10
140.8817134633
 20
1087.3818002408
 30
0.0
 10
141.0321452842
 20
1087.3751234297
 30
0.0
 10
141.1534822875
 20
1087.366770669
 30
0.0
 10
141.2503892405
 20
1087.357143766
 30
0.0
 10
141.2990929537
 20
1087.3471684945
 30
0.0
 10
141.3354480595
 20
1087.3381492
 30
0.0
 10
141.33546495
 20
1087.3304526193
 30
0.0
  0
SPLINE
  5
5E1
100
AcDbEntity
  8
93894134000_BL10
100
AcDbSpline
 62
9
  6
CONTINUOUS
 70
0
 71
3
 72
8
 73
4
 74
0
 42
0.0000001
 43
0.0000001
 44
0.0000000001
 40
0.0
 40
0.0
 40
0.0
 40
0.0
 40
1.0
 40
1.0
 40
1.0
 40
1.0
 10
140.1351536036
 20
1056.3743628996
 30
0.0
 10
138.8519217814
 20
1056.3604722297
 30
0.0
 10
137.5686931298
 20
1056.346289695
 30
0.0
 10
136.2854644681
 20
1056.3321100587
 30
0.0
  0
SPLINE
  5
5E2
100
AcDbEntity
  8
93894134000_BL10
100
AcDbSpline
 62
9
  6
CONTINUOUS
 70
0
 71
3
 72
8
 73
4
 74
0
 42
0.0000001
 43
0.0000001
 44
0.0000000001
 40
0.0
 40
0.0
 40
0.0
 40
0.0
 40
1.0
 40
1.0
 40
1.0
 40
1.0
 10
140.1351711877
 20
1056.2871585614
 30
0.0
 10
138.8519226618
 20
1056.3004507514
 30
0.0
 10
137.5687015383
 20
1056.3162716739
 30
0.0
 10
136.2854625257
 20
1056.3304525799
 30
0.0
  0
SPLINE
  5
5E3
100
AcDbEntity
  8
93894134000_BL10
100
AcDbSpline
 62
9
  6
CONTINUOUS
 70
0
 71
3
 72
14
 73
10
 74
0
 42
0.0000001
 43
0.0000001
 44
0.0000000001
 40
0.0
 40
0.0
 40
0.0
 40
0.0
 40
0.022952272
 40
0.0813146056
 40
0.1744985203
 40
0.2989777206
 40
0.4499037801
 40
0.6213942874
 40
1.0
 40
1.0
 40
1.0
 40
1.0
 10
141.33546495
 20
1056.3304526193
 30
0.0
 10
141.3354478618
 20
1056.3227560132
 30
0.0
 10
141.2990931023
 20
1056.3137366392
 30
0.0
 10
141.2503888068
 20
1056.3037615246
 30
0.0
 10
141.1534818432
 20
1056.2941344967
 30
0.0
 10
141.0321445165
 20
1056.2857817469
 30
0.0
 10
140.8817125811
 20
1056.279105031
 30
0.0
 10
140.6470238321
 20
1056.2724567137
 30
0.0
 10
140.4624234588
 20
1056.2707540557
 30
0.0
 10
140.3354649503
 20
1056.2707528908
 30
0.0
  0
SPLINE
  5
5E4
100
AcDbEntity
  8
93894134000_BL10
100
AcDbSpline
 62
9
  6
CONTINUOUS
 70
0
 71
3
 72
14
 73
10
 74
0
 42
0.0000001
 43
0.0000001
 44
0.0000000001
 40
0.0
 40
0.0
 40
0.0
 40
0.0
 40
0.0226354135
 40
0.0802019455
 40
0.172421971
 40
0.2961679496
 40
0.4468977096
 40
0.6188698296
 40
1.0
 40
1.0
 40
1.0
 40
1.0
 10
141.33546495
 20
1056.3304526193
 30
0.0
 10
141.3354478952
 20
1056.3380438907
 30
0.0
 10
141.2996926256
 20
1056.3470900409
 30
0.0
 10
141.2515265959
 20
1056.3570928154
 30
0.0
 10
141.1555457507
 20
1056.3669488652
 30
0.0
 10
141.03483694
 20
1056.3756690637
 30
0.0
 10
140.8845603415
 20
1056.3828097448
 30
0.0
 10
140.6489190107
 20
1056.3900687757
 30
0.0
 10
140.4632854506
 20
1056.3920054502
 30
0.0
 10
140.33546495
 20
1056.3920054321
 30
0.0
  0
SPLINE
  5
5E5
100
AcDbEntity
  8
93894134000_BL10
100
AcDbSpline
 62
9
  6
CONTINUOUS
 70
0
 71
3
 72
8
 73
4
 74
0
 42
0.0000001
 43
0.0000001
 44
0.0000000001
 40
0.0
 40
0.0
 40
0.0
 40
0.0
 40
1.0
 40
1.0
 40
1.0
 40
1.0
 10
136.13546495
 20
1091.3304526193
 30
0.0
 10
137.4688611232
 20
1091.3471216305
 30
0.0
 10
138.8022578
 20
1091.3637555492
 30
0.0
 10
140.1356604721
 20
1091.3798963239
 30
0.0
  0
SPLINE
  5
5E6
100
AcDbEntity
  8
93894134000_BL10
100
AcDbSpline
 62
9
  6
CONTINUOUS
 70
0
 71
3
 72
8
 73
4
 74
0
 42
0.0000001
 43
0.0000001
 44
0.0000000001
 40
0.0
 40
0.0
 40
0.0
 40
0.0
 40
1.0
 40
1.0
 40
1.0
 40
1.0
 10
136.13546495
 20
1091.3304526193
 30
0.0
 10
137.4688533481
 20
1091.3137834893
 30
0.0
 10
138.8022434179
 20
1091.2972056585
 30
0.0
 10
140.1356497716
 20
1091.2820406953
 30
0.0
  0
SPLINE
  5
5E7
100
AcDbEntity
  8
93894134000_BL10
100
AcDbSpline
 62
9
  6
CONTINUOUS
 70
0
 71
3
 72
14
 73
10
 74
0
 42
0.0000001
 43
0.0000001
 44
0.0000000001
 40
0.0
 40
0.0
 40
0.0
 40
0.0
 40
0.3832679332
 40
0.5557205739
 40
0.7062554517
 40
0.8294511485
 40
0.9208903692
 40
0.97764033
 40
1.0
 40
1.0
 40
1.0
 40
1.0
 10
140.3354649486
 20
1091.2707212687
 30
0.0
 10
140.463971052
 20
1091.2707245567
 30
0.0
 10
140.6504332545
 20
1091.2726006673
 30
0.0
 10
140.886845054
 20
1091.2795913316
 30
0.0
 10
141.0369855698
 20
1091.2864840538
 30
0.0
 10
141.1572415113
 20
1091.2949120926
 30
0.0
 10
141.2523041692
 20
1091.3045950689
 30
0.0
 10
141.3002742679
 20
1091.3142105334
 30
0.0
 10
141.3352663534
 20
1091.3229568246
 30
0.0
 10
141.3354649694
 20
1091.3304511785
 30
0.0
  0
SPLINE
  5
5E8
100
AcDbEntity
  8
93894134000_BL10
100
AcDbSpline
 62
9
  6
CONTINUOUS
 70
0
 71
3
 72
14
 73
10
 74
0
 42
0.0000001
 43
0.0000001
 44
0.0000000001
 40
0.0
 40
0.0
 40
0.0
 40
0.0
 40
0.3807270775
 40
0.5527179213
 40
0.7034962912
 40
0.8274413641
 40
0.9198192698
 40
0.9773651838
 40
1.0
 40
1.0
 40
1.0
 40
1.0
 10
140.33546495
 20
1091.3920054321
 30
0.0
 10
140.4631287574
 20
1091.392005255
 30
0.0
 10
140.6486005379
 20
1091.3899822802
 30
0.0
 10
140.8840883168
 20
1091.3825199966
 30
0.0
 10
141.0344115861
 20
1091.3752618651
 30
0.0
 10
141.1552587616
 20
1091.3664320981
 30
0.0
 10
141.2512745335
 20
1091.3567502133
 30
0.0
 10
141.2996315002
 20
1091.346625208
 30
0.0
 10
141.3352596061
 20
1091.3380385663
 30
0.0
 10
141.33546495
 20
1091.3304515329
 30
0.0
  0
ENDBLK
  5
5E9
100
AcDbEntity
  8
0
  6
BYBLOCK
 62
0
100
AcDbBlockEnd
  0
BLOCK
  5
5EA
100
AcDbEntity
  8
93780800R00_BL11
100
AcDbBlockBegin
  2
93780800R00_BL11
 70
64
 10
133.916108705
 20
1056.3304526193
  3
93780800R00_BL11
  1

  0
LINE
  5
5EB
100
AcDbEntity
  8
93780800R00_BL11
100
AcDbLine
 62
7
  6
CONTINUOUS
 10
133.33546495
 20
1057.0866949394
 11
133.33546495
 21
1056.8041743561
  0
LINE
  5
5EC
100
AcDbEntity
  8
93780800R00_BL11
100
AcDbLine
 62
7
  6
CONTINUOUS
 10
133.33546495
 20
1055.5742102992
 11
133.33546495
 21
1055.8567308825
  0
LINE
  5
5ED
100
AcDbEntity
  8
93780800R00_BL11
100
AcDbLine
 62
7
  6
CONTINUOUS
 10
132.5442318426
 20
1056.2392985019
 11
132.5792226299
 21
1056.3304526193
  0
LINE
  5
5EE
100
AcDbEntity
  8
93780800R00_BL11
100
AcDbLine
 62
7
  6
CONTINUOUS
 10
134.1266980574
 20
1056.4216067367
 11
134.0917072701
 21
1056.3304526193
  0
LINE
  5
5EF
100
AcDbEntity
  8
93780800R00_BL11
100
AcDbLine
 62
7
  6
CONTINUOUS
 10
133.2443108326
 20
1057.1216857267
 11
133.1048208868
 21
1056.9027303706
  0
LINE
  5
5F0
100
AcDbEntity
  8
93780800R00_BL11
100
AcDbLine
 62
7
  6
CONTINUOUS
 10
133.4266190674
 20
1055.5392195119
 11
133.5661090132
 21
1055.758174868
  0
LINE
  5
5F1
100
AcDbEntity
  8
93780800R00_BL11
100
AcDbLine
 62
7
  6
CONTINUOUS
 10
133.5661090132
 20
1056.9027303706
 11
133.579060731
 21
1056.9168706404
  0
LINE
  5
5F2
100
AcDbEntity
  8
93780800R00_BL11
100
AcDbLine
 62
7
  6
CONTINUOUS
 10
133.1048208868
 20
1055.758174868
 11
133.0918691691
 21
1055.7440345982
  0
LINE
  5
5F3
100
AcDbEntity
  8
93780800R00_BL11
100
AcDbLine
 62
7
  6
CONTINUOUS
 10
131.6470804393
 20
1055.3102710277
 11
132.5442318426
 21
1056.2392985019
  0
LINE
  5
5F4
100
AcDbEntity
  8
93780800R00_BL11
100
AcDbLine
 62
7
  6
CONTINUOUS
 10
135.0238494608
 20
1057.3506342109
 11
134.1266980574
 21
1056.4216067367
  0
LINE
  5
5F5
100
AcDbEntity
  8
93780800R00_BL11
100
AcDbLine
 62
7
  6
CONTINUOUS
 10
133.4266190674
 20
1057.1216857267
 11
134.3556465416
 21
1058.01883713
  0
LINE
  5
5F6
100
AcDbEntity
  8
93780800R00_BL11
100
AcDbLine
 62
7
  6
CONTINUOUS
 10
133.2443108326
 20
1055.5392195119
 11
132.3152833584
 21
1054.6420681086
  0
LINE
  5
5F7
100
AcDbEntity
  8
93780800R00_BL11
100
AcDbLine
 62
7
  6
CONTINUOUS
 10
132.7490469289
 20
1056.0868568383
 11
132.7631871987
 21
1056.0998085561
  0
LINE
  5
5F8
100
AcDbEntity
  8
93780800R00_BL11
100
AcDbLine
 62
7
  6
CONTINUOUS
 10
133.9218829711
 20
1056.5740484003
 11
133.9077427013
 21
1056.5610966825
  0
LINE
  5
5F9
100
AcDbEntity
  8
93780800R00_BL11
100
AcDbLine
 62
7
  6
CONTINUOUS
 10
132.5442318426
 20
1056.4216067367
 11
132.7631871987
 21
1056.5610966825
  0
LINE
  5
5FA
100
AcDbEntity
  8
93780800R00_BL11
100
AcDbLine
 62
7
  6
CONTINUOUS
 10
134.1266980574
 20
1056.2392985019
 11
133.9077427013
 21
1056.0998085561
  0
LINE
  5
5FB
100
AcDbEntity
  8
93780800R00_BL11
100
AcDbLine
 62
7
  6
CONTINUOUS
 10
133.33546495
 20
1057.0866949394
 11
133.4266190674
 21
1057.1216857267
  0
LINE
  5
5FC
100
AcDbEntity
  8
93780800R00_BL11
100
AcDbLine
 62
7
  6
CONTINUOUS
 10
133.33546495
 20
1055.5742102992
 11
133.2443108326
 21
1055.5392195119
  0
LINE
  5
5FD
100
AcDbEntity
  8
93780800R00_BL11
100
AcDbLine
 62
7
  6
CONTINUOUS
 10
133.2443108326
 20
1055.5392195119
 11
133.1048208868
 21
1055.758174868
  0
LINE
  5
5FE
100
AcDbEntity
  8
93780800R00_BL11
100
AcDbLine
 62
7
  6
CONTINUOUS
 10
133.4266190674
 20
1057.1216857267
 11
133.5661090132
 21
1056.9027303706
  0
LINE
  5
5FF
100
AcDbEntity
  8
93780800R00_BL11
100
AcDbLine
 62
7
  6
CONTINUOUS
 10
132.5792226299
 20
1056.3304526193
 11
132.5442318426
 21
1056.4216067367
  0
LINE
  5
600
100
AcDbEntity
  8
93780800R00_BL11
100
AcDbLine
 62
7
  6
CONTINUOUS
 10
134.0917072701
 20
1056.3304526193
 11
134.1266980574
 21
1056.2392985019
  0
LINE
  5
601
100
AcDbEntity
  8
93780800R00_BL11
100
AcDbLine
 62
7
  6
CONTINUOUS
 10
134.0917072701
 20
1056.3304526193
 11
133.8091866868
 21
1056.3304526193
  0
LINE
  5
602
100
AcDbEntity
  8
93780800R00_BL11
100
AcDbLine
 62
7
  6
CONTINUOUS
 10
132.5792226299
 20
1056.3304526193
 11
132.8617432132
 21
1056.3304526193
  0
LINE
  5
603
100
AcDbEntity
  8
93780800R00_BL11
100
AcDbLine
 62
7
  6
CONTINUOUS
 10
133.4266190674
 20
1055.5392195119
 11
133.33546495
 21
1055.5742102992
  0
LINE
  5
604
100
AcDbEntity
  8
93780800R00_BL11
100
AcDbLine
 62
7
  6
CONTINUOUS
 10
133.2443108326
 20
1057.1216857267
 11
133.33546495
 21
1057.0866949394
  0
LINE
  5
605
100
AcDbEntity
  8
93780800R00_BL11
100
AcDbLine
 62
7
  6
CONTINUOUS
 10
132.5442318426
 20
1056.2392985019
 11
132.7631871987
 21
1056.0998085561
  0
LINE
  5
606
100
AcDbEntity
  8
93780800R00_BL11
100
AcDbLine
 62
7
  6
CONTINUOUS
 10
134.1266980574
 20
1056.4216067367
 11
133.9077427013
 21
1056.5610966825
  0
LINE
  5
607
100
AcDbEntity
  8
93780800R00_BL11
100
AcDbLine
 62
7
  6
CONTINUOUS
 10
132.7631871987
 20
1056.5610966825
 11
132.7490469289
 21
1056.5740484003
  0
LINE
  5
608
100
AcDbEntity
  8
93780800R00_BL11
100
AcDbLine
 62
7
  6
CONTINUOUS
 10
133.9077427013
 20
1056.0998085561
 11
133.9218829711
 21
1056.0868568383
  0
LINE
  5
609
100
AcDbEntity
  8
93780800R00_BL11
100
AcDbLine
 62
7
  6
CONTINUOUS
 10
134.3556465416
 20
1054.6420681086
 11
133.4266190674
 21
1055.5392195119
  0
LINE
  5
60A
100
AcDbEntity
  8
93780800R00_BL11
100
AcDbLine
 62
7
  6
CONTINUOUS
 10
132.3152833584
 20
1058.01883713
 11
133.2443108326
 21
1057.1216857267
  0
LINE
  5
60B
100
AcDbEntity
  8
93780800R00_BL11
100
AcDbLine
 62
7
  6
CONTINUOUS
 10
132.5442318426
 20
1056.4216067367
 11
131.6470804393
 21
1057.3506342109
  0
LINE
  5
60C
100
AcDbEntity
  8
93780800R00_BL11
100
AcDbLine
 62
7
  6
CONTINUOUS
 10
134.1266980574
 20
1056.2392985019
 11
135.0238494608
 21
1055.3102710277
  0
LINE
  5
60D
100
AcDbEntity
  8
93780800R00_BL11
100
AcDbLine
 62
7
  6
CONTINUOUS
 10
133.579060731
 20
1055.7440345982
 11
133.5661090132
 21
1055.758174868
  0
LINE
  5
60E
100
AcDbEntity
  8
93780800R00_BL11
100
AcDbLine
 62
7
  6
CONTINUOUS
 10
133.0918691691
 20
1056.9168706404
 11
133.1048208868
 21
1056.9027303706
  0
ARC
  5
60F
100
AcDbEntity
  8
93780800R00_BL11
100
AcDbCircle
 62
7
  6
CONTINUOUS
 10
-33.8968873062
 20
788.8823553685
 40
315.324768953
100
AcDbArc
 50
58.0965244491
 51
58.2591591005
  0
ARC
  5
610
100
AcDbEntity
  8
93780800R00_BL11
100
AcDbCircle
 62
7
  6
CONTINUOUS
 10
-134.1126323008
 20
889.0981003631
 40
315.324768953
100
AcDbArc
 50
31.7408408995
 51
31.9034755509
  0
ARC
  5
611
100
AcDbEntity
  8
93780800R00_BL11
100
AcDbCircle
 62
7
  6
CONTINUOUS
 10
-33.8968873062
 20
1323.7785498701
 40
315.324768953
100
AcDbArc
 50
301.7408408995
 51
301.9034755509
  0
ARC
  5
612
100
AcDbEntity
  8
93780800R00_BL11
100
AcDbCircle
 62
7
  6
CONTINUOUS
 10
-134.1126323007
 20
1223.5628048755
 40
315.324768953
100
AcDbArc
 50
328.0965244491
 51
328.2591591005
  0
ARC
  5
613
100
AcDbEntity
  8
93780800R00_BL11
100
AcDbCircle
 62
7
  6
CONTINUOUS
 10
300.5678172062
 20
788.8823553685
 40
315.324768953
100
AcDbArc
 50
121.7408408995
 51
121.9034755509
  0
ARC
  5
614
100
AcDbEntity
  8
93780800R00_BL11
100
AcDbCircle
 62
7
  6
CONTINUOUS
 10
400.7835622008
 20
889.0981003631
 40
315.324768953
100
AcDbArc
 50
148.0965244491
 51
148.2591591005
  0
ARC
  5
615
100
AcDbEntity
  8
93780800R00_BL11
100
AcDbCircle
 62
7
  6
CONTINUOUS
 10
133.33546495
 20
1056.3304526193
 40
2.85
100
AcDbArc
 50
272.0806853325
 51
87.9193146675
  0
ARC
  5
616
100
AcDbEntity
  8
93780800R00_BL11
100
AcDbCircle
 62
7
  6
CONTINUOUS
 10
133.33546495
 20
1056.3304526193
 40
2.85
100
AcDbArc
 50
90.0
 51
270.0
  0
ARC
  5
617
100
AcDbEntity
  8
93780800R00_BL11
100
AcDbCircle
 62
9
  6
CONTINUOUS
 10
133.33546495
 20
1056.3304526193
 40
1.9726664026
100
AcDbArc
 50
121.1528667687
 51
148.8529794039
  0
ARC
  5
618
100
AcDbEntity
  8
93780800R00_BL11
100
AcDbCircle
 62
9
  6
CONTINUOUS
 10
133.33546495
 20
1056.3304526193
 40
1.9726664026
100
AcDbArc
 50
31.14168669
 51
58.8742098283
  0
ARC
  5
619
100
AcDbEntity
  8
93780800R00_BL11
100
AcDbCircle
 62
9
  6
CONTINUOUS
 10
133.33546495
 20
1056.3304526193
 40
1.9726664026
100
AcDbArc
 50
301.1402786404
 51
328.8739772223
  0
ARC
  5
61A
100
AcDbEntity
  8
93780800R00_BL11
100
AcDbCircle
 62
9
  6
CONTINUOUS
 10
133.33546495
 20
1056.3304526193
 40
1.9726664026
100
AcDbArc
 50
211.1234299516
 51
238.8466423422
  0
ARC
  5
61B
100
AcDbEntity
  8
93780800R00_BL11
100
AcDbCircle
 62
9
  6
CONTINUOUS
 10
133.33546495
 20
1056.3304526193
 40
1.5251992218
100
AcDbArc
 50
117.9789520644
 51
152.0210479356
  0
ARC
  5
61C
100
AcDbEntity
  8
93780800R00_BL11
100
AcDbCircle
 62
9
  6
CONTINUOUS
 10
133.33546495
 20
1056.3304526193
 40
1.5251992218
100
AcDbArc
 50
27.9789520644
 51
62.0210479356
  0
ARC
  5
61D
100
AcDbEntity
  8
93780800R00_BL11
100
AcDbCircle
 62
9
  6
CONTINUOUS
 10
133.33546495
 20
1056.3304526193
 40
1.5251992218
100
AcDbArc
 50
297.9789520644
 51
332.0210479356
  0
ARC
  5
61E
100
AcDbEntity
  8
93780800R00_BL11
100
AcDbCircle
 62
9
  6
CONTINUOUS
 10
133.33546495
 20
1056.3304526193
 40
1.5251992218
100
AcDbArc
 50
207.9789520644
 51
242.0210479356
  0
ARC
  5
61F
100
AcDbEntity
  8
93780800R00_BL11
100
AcDbCircle
 62
7
  6
CONTINUOUS
 10
133.33546495
 20
1056.3304526193
 40
0.635
100
AcDbArc
 50
112.5578096573
 51
157.4421903427
  0
ARC
  5
620
100
AcDbEntity
  8
93780800R00_BL11
100
AcDbCircle
 62
7
  6
CONTINUOUS
 10
133.33546495
 20
1056.3304526193
 40
0.635
100
AcDbArc
 50
202.5578096573
 51
247.4421903427
  0
ARC
  5
621
100
AcDbEntity
  8
93780800R00_BL11
100
AcDbCircle
 62
7
  6
CONTINUOUS
 10
133.33546495
 20
1056.3304526193
 40
0.635
100
AcDbArc
 50
22.5578096573
 51
67.4421903427
  0
ARC
  5
622
100
AcDbEntity
  8
93780800R00_BL11
100
AcDbCircle
 62
7
  6
CONTINUOUS
 10
133.33546495
 20
1056.3304526193
 40
0.635
100
AcDbArc
 50
292.5578096573
 51
337.4421903427
  0
ARC
  5
623
100
AcDbEntity
  8
93780800R00_BL11
100
AcDbCircle
 62
7
  6
CONTINUOUS
 10
300.5678172062
 20
1323.7785498701
 40
315.324768953
100
AcDbArc
 50
238.0965244491
 51
238.2591591005
  0
ARC
  5
624
100
AcDbEntity
  8
93780800R00_BL11
100
AcDbCircle
 62
7
  6
CONTINUOUS
 10
400.7835622008
 20
1223.5628048755
 40
315.324768953
100
AcDbArc
 50
211.7408408995
 51
211.9034755509
  0
SPLINE
  5
625
100
AcDbEntity
  8
93780800R00_BL11
100
AcDbSpline
 62
7
  6
CONTINUOUS
 70
0
 71
3
 72
8
 73
4
 74
0
 42
0.0000001
 43
0.0000001
 44
0.0000000001
 40
0.0
 40
0.0
 40
0.0
 40
0.0
 40
1.0
 40
1.0
 40
1.0
 40
1.0
 10
132.7631871987
 20
1056.0998085561
 30
0.0
 10
132.7967587043
 20
1056.1763784646
 30
0.0
 10
132.8298466469
 20
1056.2531699826
 30
0.0
 10
132.8617432132
 20
1056.3304526193
 30
0.0
  0
SPLINE
  5
626
100
AcDbEntity
  8
93780800R00_BL11
100
AcDbSpline
 62
7
  6
CONTINUOUS
 70
0
 71
3
 72
8
 73
4
 74
0
 42
0.0000001
 43
0.0000001
 44
0.0000000001
 40
0.0
 40
0.0
 40
0.0
 40
0.0
 40
1.0
 40
1.0
 40
1.0
 40
1.0
 10
132.8617432132
 20
1056.3304526193
 30
0.0
 10
132.8298466469
 20
1056.407735256
 30
0.0
 10
132.7967587043
 20
1056.484526774
 30
0.0
 10
132.7631871987
 20
1056.5610966825
 30
0.0
  0
SPLINE
  5
627
100
AcDbEntity
  8
93780800R00_BL11
100
AcDbSpline
 62
7
  6
CONTINUOUS
 70
0
 71
3
 72
8
 73
4
 74
0
 42
0.0000001
 43
0.0000001
 44
0.0000000001
 40
0.0
 40
0.0
 40
0.0
 40
0.0
 40
1.0
 40
1.0
 40
1.0
 40
1.0
 10
133.9077427013
 20
1056.5610966825
 30
0.0
 10
133.8741711958
 20
1056.484526774
 30
0.0
 10
133.8410832531
 20
1056.407735256
 30
0.0
 10
133.8091866868
 20
1056.3304526193
 30
0.0
  0
SPLINE
  5
628
100
AcDbEntity
  8
93780800R00_BL11
100
AcDbSpline
 62
7
  6
CONTINUOUS
 70
0
 71
3
 72
8
 73
4
 74
0
 42
0.0000001
 43
0.0000001
 44
0.0000000001
 40
0.0
 40
0.0
 40
0.0
 40
0.0
 40
1.0
 40
1.0
 40
1.0
 40
1.0
 10
133.8091866868
 20
1056.3304526193
 30
0.0
 10
133.8410832531
 20
1056.2531699826
 30
0.0
 10
133.8741711958
 20
1056.1763784646
 30
0.0
 10
133.9077427013
 20
1056.0998085561
 30
0.0
  0
SPLINE
  5
629
100
AcDbEntity
  8
93780800R00_BL11
100
AcDbSpline
 62
7
  6
CONTINUOUS
 70
0
 71
3
 72
8
 73
4
 74
0
 42
0.0000001
 43
0.0000001
 44
0.0000000001
 40
0.0
 40
0.0
 40
0.0
 40
0.0
 40
1.0
 40
1.0
 40
1.0
 40
1.0
 10
133.1048208868
 20
1056.9027303706
 30
0.0
 10
133.1813907953
 20
1056.869158865
 30
0.0
 10
133.2581823133
 20
1056.8360709224
 30
0.0
 10
133.33546495
 20
1056.8041743561
 30
0.0
  0
SPLINE
  5
62A
100
AcDbEntity
  8
93780800R00_BL11
100
AcDbSpline
 62
7
  6
CONTINUOUS
 70
0
 71
3
 72
8
 73
4
 74
0
 42
0.0000001
 43
0.0000001
 44
0.0000000001
 40
0.0
 40
0.0
 40
0.0
 40
0.0
 40
1.0
 40
1.0
 40
1.0
 40
1.0
 10
133.33546495
 20
1056.8041743561
 30
0.0
 10
133.4127475867
 20
1056.8360709224
 30
0.0
 10
133.4895391047
 20
1056.869158865
 30
0.0
 10
133.5661090132
 20
1056.9027303706
 30
0.0
  0
SPLINE
  5
62B
100
AcDbEntity
  8
93780800R00_BL11
100
AcDbSpline
 62
7
  6
CONTINUOUS
 70
0
 71
3
 72
8
 73
4
 74
0
 42
0.0000001
 43
0.0000001
 44
0.0000000001
 40
0.0
 40
0.0
 40
0.0
 40
0.0
 40
1.0
 40
1.0
 40
1.0
 40
1.0
 10
133.5661090132
 20
1055.758174868
 30
0.0
 10
133.4895391047
 20
1055.7917463735
 30
0.0
 10
133.4127475867
 20
1055.8248343162
 30
0.0
 10
133.33546495
 20
1055.8567308825
 30
0.0
  0
SPLINE
  5
62C
100
AcDbEntity
  8
93780800R00_BL11
100
AcDbSpline
 62
7
  6
CONTINUOUS
 70
0
 71
3
 72
8
 73
4
 74
0
 42
0.0000001
 43
0.0000001
 44
0.0000000001
 40
0.0
 40
0.0
 40
0.0
 40
0.0
 40
1.0
 40
1.0
 40
1.0
 40
1.0
 10
133.33546495
 20
1055.8567308825
 30
0.0
 10
133.2581823133
 20
1055.8248343162
 30
0.0
 10
133.1813907953
 20
1055.7917463735
 30
0.0
 10
133.1048208868
 20
1055.758174868
 30
0.0
  0
SPLINE
  5
62D
100
AcDbEntity
  8
93780800R00_BL11
100
AcDbSpline
 62
7
  6
CONTINUOUS
 70
0
 71
3
 72
9
 73
5
 74
0
 42
0.0000001
 43
0.0000001
 44
0.0000000001
 40
0.0
 40
0.0
 40
0.0
 40
0.0
 40
0.4137975716
 40
1.0
 40
1.0
 40
1.0
 40
1.0
 10
131.9885310188
 20
1057.0459955258
 30
0.0
 10
131.9348102725
 20
1057.0792715862
 30
0.0
 10
131.8190070786
 20
1057.1804814619
 30
0.0
 10
131.7092663907
 20
1057.2862387731
 30
0.0
 10
131.6470804393
 20
1057.3506342109
 30
0.0
  0
SPLINE
  5
62E
100
AcDbEntity
  8
93780800R00_BL11
100
AcDbSpline
 62
7
  6
CONTINUOUS
 70
0
 71
3
 72
9
 73
5
 74
0
 42
0.0000001
 43
0.0000001
 44
0.0000000001
 40
0.0
 40
0.0
 40
0.0
 40
0.0
 40
0.5862071362
 40
1.0
 40
1.0
 40
1.0
 40
1.0
 10
132.3152833584
 20
1058.01883713
 30
0.0
 10
132.3796793138
 20
1057.9566506788
 30
0.0
 10
132.4854366363
 20
1057.8469099913
 30
0.0
 10
132.5866463615
 20
1057.731106686
 30
0.0
 10
132.6199220435
 20
1057.6773865505
 30
0.0
  0
SPLINE
  5
62F
100
AcDbEntity
  8
93780800R00_BL11
100
AcDbSpline
 62
7
  6
CONTINUOUS
 70
0
 71
3
 72
9
 73
5
 74
0
 42
0.0000001
 43
0.0000001
 44
0.0000000001
 40
0.0
 40
0.0
 40
0.0
 40
0.0
 40
0.4137975716
 40
1.0
 40
1.0
 40
1.0
 40
1.0
 10
134.0510078566
 20
1057.6773865505
 30
0.0
 10
134.0842839169
 20
1057.7311072968
 30
0.0
 10
134.1854937926
 20
1057.8469104907
 30
0.0
 10
134.2912511038
 20
1057.9566511786
 30
0.0
 10
134.3556465416
 20
1058.01883713
 30
0.0
  0
SPLINE
  5
630
100
AcDbEntity
  8
93780800R00_BL11
100
AcDbSpline
 62
7
  6
CONTINUOUS
 70
0
 71
3
 72
9
 73
5
 74
0
 42
0.0000001
 43
0.0000001
 44
0.0000000001
 40
0.0
 40
0.0
 40
0.0
 40
0.0
 40
0.5862071362
 40
1.0
 40
1.0
 40
1.0
 40
1.0
 10
135.0238494608
 20
1057.3506342109
 30
0.0
 10
134.9616630095
 20
1057.2862382555
 30
0.0
 10
134.8519223221
 20
1057.180480933
 30
0.0
 10
134.7361190167
 20
1057.0792712078
 30
0.0
 10
134.6823988812
 20
1057.0459955258
 30
0.0
  0
SPLINE
  5
631
100
AcDbEntity
  8
93780800R00_BL11
100
AcDbSpline
 62
7
  6
CONTINUOUS
 70
0
 71
3
 72
9
 73
5
 74
0
 42
0.0000001
 43
0.0000001
 44
0.0000000001
 40
0.0
 40
0.0
 40
0.0
 40
0.0
 40
0.4137975716
 40
1.0
 40
1.0
 40
1.0
 40
1.0
 10
134.6823988812
 20
1055.6149097127
 30
0.0
 10
134.7361196275
 20
1055.5816336524
 30
0.0
 10
134.8519228215
 20
1055.4804237767
 30
0.0
 10
134.9616635093
 20
1055.3746664655
 30
0.0
 10
135.0238494608
 20
1055.3102710277
 30
0.0
  0
SPLINE
  5
632
100
AcDbEntity
  8
93780800R00_BL11
100
AcDbSpline
 62
7
  6
CONTINUOUS
 70
0
 71
3
 72
9
 73
5
 74
0
 42
0.0000001
 43
0.0000001
 44
0.0000000001
 40
0.0
 40
0.0
 40
0.0
 40
0.0
 40
0.5862071362
 40
1.0
 40
1.0
 40
1.0
 40
1.0
 10
134.3556465416
 20
1054.6420681086
 30
0.0
 10
134.2912505862
 20
1054.7042545598
 30
0.0
 10
134.1854932637
 20
1054.8139952472
 30
0.0
 10
134.0842835385
 20
1054.9297985526
 30
0.0
 10
134.0510078566
 20
1054.9835186881
 30
0.0
  0
SPLINE
  5
633
100
AcDbEntity
  8
93780800R00_BL11
100
AcDbSpline
 62
7
  6
CONTINUOUS
 70
0
 71
3
 72
9
 73
5
 74
0
 42
0.0000001
 43
0.0000001
 44
0.0000000001
 40
0.0
 40
0.0
 40
0.0
 40
0.0
 40
0.4137975716
 40
1.0
 40
1.0
 40
1.0
 40
1.0
 10
132.6199220435
 20
1054.9835186881
 30
0.0
 10
132.5866459831
 20
1054.9297979418
 30
0.0
 10
132.4854361074
 20
1054.8139947478
 30
0.0
 10
132.3796787962
 20
1054.70425406
 30
0.0
 10
132.3152833584
 20
1054.6420681086
 30
0.0
  0
SPLINE
  5
634
100
AcDbEntity
  8
93780800R00_BL11
100
AcDbSpline
 62
7
  6
CONTINUOUS
 70
0
 71
3
 72
9
 73
5
 74
0
 42
0.0000001
 43
0.0000001
 44
0.0000000001
 40
0.0
 40
0.0
 40
0.0
 40
0.0
 40
0.5862071362
 40
1.0
 40
1.0
 40
1.0
 40
1.0
 10
131.6470804393
 20
1055.3102710277
 30
0.0
 10
131.7092668905
 20
1055.3746669831
 30
0.0
 10
131.819007578
 20
1055.4804243056
 30
0.0
 10
131.9348108834
 20
1055.5816340308
 30
0.0
 10
131.9885310188
 20
1055.6149097127
 30
0.0
  0
ENDBLK
  5
635
100
AcDbEntity
  8
0
  6
BYBLOCK
 62
0
100
AcDbBlockEnd
  0
BLOCK
  5
636
100
AcDbEntity
  8
62890209000_BL12
100
AcDbBlockBegin
  2
62890209000_BL12
 70
64
 10
137.88546495
 20
1071.8304526193
  3
62890209000_BL12
  1

  0
LINE
  5
637
100
AcDbEntity
  8
62890209000_BL12
100
AcDbLine
 62
7
  6
CENTER
 10
124.33546495
 20
1071.8304526193
 11
151.43546495
 21
1071.8304526193
  0
ENDBLK
  5
638
100
AcDbEntity
  8
0
  6
BYBLOCK
 62
0
100
AcDbBlockEnd
  0
BLOCK
  5
639
100
AcDbEntity
  8
93866300000_M_BL13
100
AcDbBlockBegin
  2
93866300000_M_BL13
 70
64
 10
82.3979934473
 20
238.8304526193
  3
93866300000_M_BL13
  1

  0
LINE
  5
63A
100
AcDbEntity
  8
93866300000_M_BL13
100
AcDbLine
 62
7
  6
CONTINUOUS
 10
39.6279901899
 20
230.8804526193
 11
38.6279901899
 21
230.8804526193
  0
LINE
  5
63B
100
AcDbEntity
  8
93866300000_M_BL13
100
AcDbLine
 62
7
  6
CENTER
 10
43.6279901899
 20
238.8304526193
 11
27.3279901899
 21
238.8304526193
  0
LINE
  5
63C
100
AcDbEntity
  8
93866300000_M_BL13
100
AcDbLine
 62
7
  6
CONTINUOUS
 10
39.6279901899
 20
246.7804526193
 11
38.6279901899
 21
246.7804526193
  0
LINE
  5
63D
100
AcDbEntity
  8
93866300000_M_BL13
100
AcDbLine
 62
7
  6
CONTINUOUS
 10
40.6279901899
 20
245.7804526193
 11
39.6279901899
 21
246.7804526193
  0
LINE
  5
63E
100
AcDbEntity
  8
93866300000_M_BL13
100
AcDbLine
 62
7
  6
CONTINUOUS
 10
39.6279901899
 20
230.8804526193
 11
39.6279901899
 21
246.7804526193
  0
LINE
  5
63F
100
AcDbEntity
  8
93866300000_M_BL13
100
AcDbLine
 62
7
  6
CONTINUOUS
 10
40.6279901899
 20
231.8804526193
 11
40.6279901899
 21
245.7804526193
  0
LINE
  5
640
100
AcDbEntity
  8
93866300000_M_BL13
100
AcDbLine
 62
7
  6
CONTINUOUS
 10
40.6279901899
 20
231.8804526193
 11
39.6279901899
 21
230.8804526193
  0
CIRCLE
  5
641
100
AcDbEntity
  8
93866300000_M_BL13
100
AcDbCircle
 62
7
  6
CONTINUOUS
 10
132.83546495
 20
238.8304526193
 40
4.6325317547
  0
CIRCLE
  5
642
100
AcDbEntity
  8
93866300000_M_BL13
100
AcDbCircle
 62
7
  6
CONTINUOUS
 10
132.83546495
 20
238.8304526193
 40
2.9711052532
  0
CIRCLE
  5
643
100
AcDbEntity
  8
93866300000_M_BL13
100
AcDbCircle
 62
7
  6
CONTINUOUS
 10
132.83546495
 20
238.8304526193
 40
2.8
  0
CIRCLE
  5
644
100
AcDbEntity
  8
93866300000_M_BL13
100
AcDbCircle
 62
7
  6
CONTINUOUS
 10
132.83546495
 20
238.8304526193
 40
2.65
  0
ENDBLK
  5
645
100
AcDbEntity
  8
0
  6
BYBLOCK
 62
0
100
AcDbBlockEnd
  0
BLOCK
  5
646
100
AcDbEntity
  8
93866300000_M_BL14
100
AcDbBlockBegin
  2
93866300000_M_BL14
 70
64
 10
82.3979934473
 20
334.8304526193
  3
93866300000_M_BL14
  1

  0
LINE
  5
647
100
AcDbEntity
  8
93866300000_M_BL14
100
AcDbLine
 62
7
  6
CONTINUOUS
 10
39.6279901899
 20
326.8804526193
 11
38.6279901899
 21
326.8804526193
  0
LINE
  5
648
100
AcDbEntity
  8
93866300000_M_BL14
100
AcDbLine
 62
7
  6
CENTER
 10
43.6279901899
 20
334.8304526193
 11
27.3279901899
 21
334.8304526193
  0
LINE
  5
649
100
AcDbEntity
  8
93866300000_M_BL14
100
AcDbLine
 62
7
  6
CONTINUOUS
 10
39.6279901899
 20
342.7804526193
 11
38.6279901899
 21
342.7804526193
  0
LINE
  5
64A
100
AcDbEntity
  8
93866300000_M_BL14
100
AcDbLine
 62
7
  6
CONTINUOUS
 10
40.6279901899
 20
341.7804526193
 11
39.6279901899
 21
342.7804526193
  0
LINE
  5
64B
100
AcDbEntity
  8
93866300000_M_BL14
100
AcDbLine
 62
7
  6
CONTINUOUS
 10
39.6279901899
 20
326.8804526193
 11
39.6279901899
 21
342.7804526193
  0
LINE
  5
64C
100
AcDbEntity
  8
93866300000_M_BL14
100
AcDbLine
 62
7
  6
CONTINUOUS
 10
40.6279901899
 20
327.8804526193
 11
40.6279901899
 21
341.7804526193
  0
LINE
  5
64D
100
AcDbEntity
  8
93866300000_M_BL14
100
AcDbLine
 62
7
  6
CONTINUOUS
 10
40.6279901899
 20
327.8804526193
 11
39.6279901899
 21
326.8804526193
  0
CIRCLE
  5
64E
100
AcDbEntity
  8
93866300000_M_BL14
100
AcDbCircle
 62
7
  6
CONTINUOUS
 10
132.83546495
 20
334.8304526193
 40
4.6325317547
  0
CIRCLE
  5
64F
100
AcDbEntity
  8
93866300000_M_BL14
100
AcDbCircle
 62
7
  6
CONTINUOUS
 10
132.83546495
 20
334.8304526193
 40
2.9711052532
  0
CIRCLE
  5
650
100
AcDbEntity
  8
93866300000_M_BL14
100
AcDbCircle
 62
7
  6
CONTINUOUS
 10
132.83546495
 20
334.8304526193
 40
2.8
  0
CIRCLE
  5
651
100
AcDbEntity
  8
93866300000_M_BL14
100
AcDbCircle
 62
7
  6
CONTINUOUS
 10
132.83546495
 20
334.8304526193
 40
2.65
  0
ENDBLK
  5
652
100
AcDbEntity
  8
0
  6
BYBLOCK
 62
0
100
AcDbBlockEnd
  0
BLOCK
  5
653
100
AcDbEntity
  8
93866300000_M_BL15
100
AcDbBlockBegin
  2
93866300000_M_BL15
 70
64
 10
82.3979934473
 20
1826.8304526193
  3
93866300000_M_BL15
  1

  0
LINE
  5
654
100
AcDbEntity
  8
93866300000_M_BL15
100
AcDbLine
 62
7
  6
CONTINUOUS
 10
40.6279901899
 20
1819.8804526193
 11
39.6279901899
 21
1818.8804526193
  0
LINE
  5
655
100
AcDbEntity
  8
93866300000_M_BL15
100
AcDbLine
 62
7
  6
CONTINUOUS
 10
39.6279901899
 20
1818.8804526193
 11
39.6279901899
 21
1834.7804526193
  0
LINE
  5
656
100
AcDbEntity
  8
93866300000_M_BL15
100
AcDbLine
 62
7
  6
CONTINUOUS
 10
40.6279901899
 20
1819.8804526193
 11
40.6279901899
 21
1833.7804526193
  0
LINE
  5
657
100
AcDbEntity
  8
93866300000_M_BL15
100
AcDbLine
 62
7
  6
CONTINUOUS
 10
40.6279901899
 20
1833.7804526193
 11
39.6279901899
 21
1834.7804526193
  0
LINE
  5
658
100
AcDbEntity
  8
93866300000_M_BL15
100
AcDbLine
 62
7
  6
CONTINUOUS
 10
39.6279901899
 20
1818.8804526193
 11
38.6279901899
 21
1818.8804526193
  0
LINE
  5
659
100
AcDbEntity
  8
93866300000_M_BL15
100
AcDbLine
 62
7
  6
CENTER
 10
43.6279901899
 20
1826.8304526193
 11
27.3279901899
 21
1826.8304526193
  0
LINE
  5
65A
100
AcDbEntity
  8
93866300000_M_BL15
100
AcDbLine
 62
7
  6
CONTINUOUS
 10
39.6279901899
 20
1834.7804526193
 11
38.6279901899
 21
1834.7804526193
  0
CIRCLE
  5
65B
100
AcDbEntity
  8
93866300000_M_BL15
100
AcDbCircle
 62
7
  6
CONTINUOUS
 10
132.83546495
 20
1826.8304526193
 40
4.6325317547
  0
CIRCLE
  5
65C
100
AcDbEntity
  8
93866300000_M_BL15
100
AcDbCircle
 62
7
  6
CONTINUOUS
 10
132.83546495
 20
1826.8304526193
 40
2.9711052532
  0
CIRCLE
  5
65D
100
AcDbEntity
  8
93866300000_M_BL15
100
AcDbCircle
 62
7
  6
CONTINUOUS
 10
132.83546495
 20
1826.8304526193
 40
2.8
  0
CIRCLE
  5
65E
100
AcDbEntity
  8
93866300000_M_BL15
100
AcDbCircle
 62
7
  6
CONTINUOUS
 10
132.83546495
 20
1826.8304526193
 40
2.65
  0
ENDBLK
  5
65F
100
AcDbEntity
  8
0
  6
BYBLOCK
 62
0
100
AcDbBlockEnd
  0
BLOCK
  5
660
100
AcDbEntity
  8
93866300000_M_BL16
100
AcDbBlockBegin
  2
93866300000_M_BL16
 70
64
 10
82.3979934473
 20
922.708030643
  3
93866300000_M_BL16
  1

  0
LINE
  5
661
100
AcDbEntity
  8
93866300000_M_BL16
100
AcDbLine
 62
7
  6
CONTINUOUS
 10
40.6279901899
 20
1719.8804526193
 11
39.6279901899
 21
1718.8804526193
  0
LINE
  5
662
100
AcDbEntity
  8
93866300000_M_BL16
100
AcDbLine
 62
7
  6
CONTINUOUS
 10
39.6279901899
 20
1718.8804526193
 11
39.6279901899
 21
1734.7804526193
  0
LINE
  5
663
100
AcDbEntity
  8
93866300000_M_BL16
100
AcDbLine
 62
7
  6
CONTINUOUS
 10
40.6279901899
 20
1719.8804526193
 11
40.6279901899
 21
1733.7804526193
  0
LINE
  5
664
100
AcDbEntity
  8
93866300000_M_BL16
100
AcDbLine
 62
7
  6
CONTINUOUS
 10
40.6279901899
 20
1733.7804526193
 11
39.6279901899
 21
1734.7804526193
  0
LINE
  5
665
100
AcDbEntity
  8
93866300000_M_BL16
100
AcDbLine
 62
7
  6
CONTINUOUS
 10
39.6279901899
 20
1718.8804526193
 11
38.6279901899
 21
1718.8804526193
  0
LINE
  5
666
100
AcDbEntity
  8
93866300000_M_BL16
100
AcDbLine
 62
7
  6
CENTER
 10
43.6279901899
 20
1726.8304526193
 11
27.3279901899
 21
1726.8304526193
  0
LINE
  5
667
100
AcDbEntity
  8
93866300000_M_BL16
100
AcDbLine
 62
7
  6
CONTINUOUS
 10
39.6279901899
 20
1734.7804526193
 11
38.6279901899
 21
1734.7804526193
  0
LINE
  5
668
100
AcDbEntity
  8
93866300000_M_BL16
100
AcDbLine
 62
7
  6
CONTINUOUS
 10
39.6279901899
 20
116.3356086667
 11
39.6279901899
 21
110.6356086667
  0
LINE
  5
669
100
AcDbEntity
  8
93866300000_M_BL16
100
AcDbLine
 62
7
  6
CONTINUOUS
 10
40.6279901899
 20
115.3356086667
 11
40.6279901899
 21
110.6356086667
  0
LINE
  5
66A
100
AcDbEntity
  8
93866300000_M_BL16
100
AcDbLine
 62
7
  6
CONTINUOUS
 10
40.6279901899
 20
115.3356086667
 11
39.6279901899
 21
116.3356086667
  0
LINE
  5
66B
100
AcDbEntity
  8
93866300000_M_BL16
100
AcDbLine
 62
7
  6
CONTINUOUS
 10
39.6279901899
 20
116.3356086667
 11
32.6279901899
 21
116.3356086667
  0
CIRCLE
  5
66C
100
AcDbEntity
  8
93866300000_M_BL16
100
AcDbCircle
 62
7
  6
CONTINUOUS
 10
132.83546495
 20
1726.8304526193
 40
4.6325317547
  0
CIRCLE
  5
66D
100
AcDbEntity
  8
93866300000_M_BL16
100
AcDbCircle
 62
7
  6
CONTINUOUS
 10
132.83546495
 20
1726.8304526193
 40
2.9711052532
  0
CIRCLE
  5
66E
100
AcDbEntity
  8
93866300000_M_BL16
100
AcDbCircle
 62
7
  6
CONTINUOUS
 10
132.83546495
 20
1726.8304526193
 40
2.8
  0
CIRCLE
  5
66F
100
AcDbEntity
  8
93866300000_M_BL16
100
AcDbCircle
 62
7
  6
CONTINUOUS
 10
132.83546495
 20
1726.8304526193
 40
2.65
  0
ENDBLK
  5
670
100
AcDbEntity
  8
0
  6
BYBLOCK
 62
0
100
AcDbBlockEnd
  0
BLOCK
  5
671
100
AcDbEntity
  8
93866300000_M_BL17
100
AcDbBlockBegin
  2
93866300000_M_BL17
 70
64
 10
82.3979934473
 20
920.8304526193
  3
93866300000_M_BL17
  1

  0
LINE
  5
672
100
AcDbEntity
  8
93866300000_M_BL17
100
AcDbLine
 62
7
  6
CONTINUOUS
 10
39.6279901899
 20
912.8804526193
 11
38.6279901899
 21
912.8804526193
  0
LINE
  5
673
100
AcDbEntity
  8
93866300000_M_BL17
100
AcDbLine
 62
7
  6
CENTER
 10
43.6279901899
 20
920.8304526193
 11
27.3279901899
 21
920.8304526193
  0
LINE
  5
674
100
AcDbEntity
  8
93866300000_M_BL17
100
AcDbLine
 62
7
  6
CONTINUOUS
 10
39.6279901899
 20
928.7804526193
 11
38.6279901899
 21
928.7804526193
  0
LINE
  5
675
100
AcDbEntity
  8
93866300000_M_BL17
100
AcDbLine
 62
7
  6
CONTINUOUS
 10
40.6279901899
 20
927.7804526193
 11
39.6279901899
 21
928.7804526193
  0
LINE
  5
676
100
AcDbEntity
  8
93866300000_M_BL17
100
AcDbLine
 62
7
  6
CONTINUOUS
 10
39.6279901899
 20
912.8804526193
 11
39.6279901899
 21
928.7804526193
  0
LINE
  5
677
100
AcDbEntity
  8
93866300000_M_BL17
100
AcDbLine
 62
7
  6
CONTINUOUS
 10
40.6279901899
 20
913.8804526193
 11
40.6279901899
 21
927.7804526193
  0
LINE
  5
678
100
AcDbEntity
  8
93866300000_M_BL17
100
AcDbLine
 62
7
  6
CONTINUOUS
 10
40.6279901899
 20
913.8804526193
 11
39.6279901899
 21
912.8804526193
  0
CIRCLE
  5
679
100
AcDbEntity
  8
93866300000_M_BL17
100
AcDbCircle
 62
7
  6
CONTINUOUS
 10
132.83546495
 20
920.8304526193
 40
4.6325317547
  0
CIRCLE
  5
67A
100
AcDbEntity
  8
93866300000_M_BL17
100
AcDbCircle
 62
7
  6
CONTINUOUS
 10
132.83546495
 20
920.8304526193
 40
2.9711052532
  0
CIRCLE
  5
67B
100
AcDbEntity
  8
93866300000_M_BL17
100
AcDbCircle
 62
7
  6
CONTINUOUS
 10
132.83546495
 20
920.8304526193
 40
2.8
  0
CIRCLE
  5
67C
100
AcDbEntity
  8
93866300000_M_BL17
100
AcDbCircle
 62
7
  6
CONTINUOUS
 10
132.83546495
 20
920.8304526193
 40
2.65
  0
ENDBLK
  5
67D
100
AcDbEntity
  8
0
  6
BYBLOCK
 62
0
100
AcDbBlockEnd
  0
BLOCK
  5
67E
100
AcDbEntity
  8
93866300000_M_BL18
100
AcDbBlockBegin
  2
93866300000_M_BL18
 70
64
 10
82.3979934473
 20
1130.8304526193
  3
93866300000_M_BL18
  1

  0
LINE
  5
67F
100
AcDbEntity
  8
93866300000_M_BL18
100
AcDbLine
 62
7
  6
CONTINUOUS
 10
40.6279901899
 20
1123.8804526193
 11
39.6279901899
 21
1122.8804526193
  0
LINE
  5
680
100
AcDbEntity
  8
93866300000_M_BL18
100
AcDbLine
 62
7
  6
CONTINUOUS
 10
39.6279901899
 20
1122.8804526193
 11
39.6279901899
 21
1138.7804526193
  0
LINE
  5
681
100
AcDbEntity
  8
93866300000_M_BL18
100
AcDbLine
 62
7
  6
CONTINUOUS
 10
40.6279901899
 20
1123.8804526193
 11
40.6279901899
 21
1137.7804526193
  0
LINE
  5
682
100
AcDbEntity
  8
93866300000_M_BL18
100
AcDbLine
 62
7
  6
CONTINUOUS
 10
39.6279901899
 20
1122.8804526193
 11
38.6279901899
 21
1122.8804526193
  0
LINE
  5
683
100
AcDbEntity
  8
93866300000_M_BL18
100
AcDbLine
 62
7
  6
CENTER
 10
43.6279901899
 20
1130.8304526193
 11
27.3279901899
 21
1130.8304526193
  0
LINE
  5
684
100
AcDbEntity
  8
93866300000_M_BL18
100
AcDbLine
 62
7
  6
CONTINUOUS
 10
39.6279901899
 20
1138.7804526193
 11
38.6279901899
 21
1138.7804526193
  0
LINE
  5
685
100
AcDbEntity
  8
93866300000_M_BL18
100
AcDbLine
 62
7
  6
CONTINUOUS
 10
40.6279901899
 20
1137.7804526193
 11
39.6279901899
 21
1138.7804526193
  0
CIRCLE
  5
686
100
AcDbEntity
  8
93866300000_M_BL18
100
AcDbCircle
 62
7
  6
CONTINUOUS
 10
132.83546495
 20
1130.8304526193
 40
4.6325317547
  0
CIRCLE
  5
687
100
AcDbEntity
  8
93866300000_M_BL18
100
AcDbCircle
 62
7
  6
CONTINUOUS
 10
132.83546495
 20
1130.8304526193
 40
2.9711052532
  0
CIRCLE
  5
688
100
AcDbEntity
  8
93866300000_M_BL18
100
AcDbCircle
 62
7
  6
CONTINUOUS
 10
132.83546495
 20
1130.8304526193
 40
2.8
  0
CIRCLE
  5
689
100
AcDbEntity
  8
93866300000_M_BL18
100
AcDbCircle
 62
7
  6
CONTINUOUS
 10
132.83546495
 20
1130.8304526193
 40
2.65
  0
ENDBLK
  5
68A
100
AcDbEntity
  8
0
  6
BYBLOCK
 62
0
100
AcDbBlockEnd
  0
BLOCK
  5
68B
100
AcDbEntity
  8
93866300000_M_BL19
100
AcDbBlockBegin
  2
93866300000_M_BL19
 70
64
 10
82.3979934473
 20
1021.8304526193
  3
93866300000_M_BL19
  1

  0
LINE
  5
68C
100
AcDbEntity
  8
93866300000_M_BL19
100
AcDbLine
 62
7
  6
CONTINUOUS
 10
39.6279901899
 20
1013.8804526193
 11
39.6279901899
 21
1029.7804526193
  0
LINE
  5
68D
100
AcDbEntity
  8
93866300000_M_BL19
100
AcDbLine
 62
7
  6
CONTINUOUS
 10
40.6279901899
 20
1014.8804526193
 11
40.6279901899
 21
1028.7804526193
  0
LINE
  5
68E
100
AcDbEntity
  8
93866300000_M_BL19
100
AcDbLine
 62
7
  6
CONTINUOUS
 10
39.6279901899
 20
1013.8804526193
 11
38.6279901899
 21
1013.8804526193
  0
LINE
  5
68F
100
AcDbEntity
  8
93866300000_M_BL19
100
AcDbLine
 62
7
  6
CENTER
 10
43.6279901899
 20
1021.8304526193
 11
27.3279901899
 21
1021.8304526193
  0
LINE
  5
690
100
AcDbEntity
  8
93866300000_M_BL19
100
AcDbLine
 62
7
  6
CONTINUOUS
 10
39.6279901899
 20
1029.7804526193
 11
38.6279901899
 21
1029.7804526193
  0
LINE
  5
691
100
AcDbEntity
  8
93866300000_M_BL19
100
AcDbLine
 62
7
  6
CONTINUOUS
 10
40.6279901899
 20
1028.7804526193
 11
39.6279901899
 21
1029.7804526193
  0
LINE
  5
692
100
AcDbEntity
  8
93866300000_M_BL19
100
AcDbLine
 62
7
  6
CONTINUOUS
 10
40.6279901899
 20
1014.8804526193
 11
39.6279901899
 21
1013.8804526193
  0
CIRCLE
  5
693
100
AcDbEntity
  8
93866300000_M_BL19
100
AcDbCircle
 62
7
  6
CONTINUOUS
 10
132.83546495
 20
1021.8304526193
 40
4.6325317547
  0
CIRCLE
  5
694
100
AcDbEntity
  8
93866300000_M_BL19
100
AcDbCircle
 62
7
  6
CONTINUOUS
 10
132.83546495
 20
1021.8304526193
 40
2.9711052532
  0
CIRCLE
  5
695
100
AcDbEntity
  8
93866300000_M_BL19
100
AcDbCircle
 62
7
  6
CONTINUOUS
 10
132.83546495
 20
1021.8304526193
 40
2.8
  0
CIRCLE
  5
696
100
AcDbEntity
  8
93866300000_M_BL19
100
AcDbCircle
 62
7
  6
CONTINUOUS
 10
132.83546495
 20
1021.8304526193
 40
2.65
  0
ENDBLK
  5
697
100
AcDbEntity
  8
0
  6
BYBLOCK
 62
0
100
AcDbBlockEnd
  0
BLOCK
  5
698
100
AcDbEntity
  8
91511100000_BL20
100
AcDbBlockBegin
  2
91511100000_BL20
 70
64
 10
37.3279901899
 20
103.3856086667
  3
91511100000_BL20
  1

  0
LINE
  5
699
100
AcDbEntity
  8
91511100000_BL20
100
AcDbLine
 62
7
  6
CONTINUOUS
 10
37.9279901899
 20
99.3856086667
 11
37.9279901899
 21
107.3856086667
  0
LINE
  5
69A
100
AcDbEntity
  8
91511100000_BL20
100
AcDbLine
 62
7
  6
CONTINUOUS
 10
37.9279901899
 20
99.3856086667
 11
36.7279901899
 21
99.3856086667
  0
LINE
  5
69B
100
AcDbEntity
  8
91511100000_BL20
100
AcDbLine
 62
7
  6
CONTINUOUS
 10
37.9279901899
 20
107.3856086667
 11
36.7279901899
 21
107.3856086667
  0
ENDBLK
  5
69C
100
AcDbEntity
  8
0
  6
BYBLOCK
 62
0
100
AcDbBlockEnd
  0
BLOCK
  5
69D
100
AcDbEntity
  8
91324208R00_BL21
100
AcDbBlockBegin
  2
91324208R00_BL21
 70
64
 10
135.33546495
 20
1045.5804526193
  3
91324208R00_BL21
  1

  0
ARC
  5
69E
100
AcDbEntity
  8
91324208R00_BL21
100
AcDbCircle
 62
7
  6
CONTINUOUS
 10
134.4291625674
 20
1044.0368477504
 40
0.59
100
AcDbArc
 50
12.9620900983
 51
105.8657622928
  0
ARC
  5
69F
100
AcDbEntity
  8
91324208R00_BL21
100
AcDbCircle
 62
7
  6
CONTINUOUS
 10
134.4291625674
 20
1047.1240574882
 40
0.59
100
AcDbArc
 50
254.1342377072
 51
347.0379099017
  0
ARC
  5
6A0
100
AcDbEntity
  8
91324208R00_BL21
100
AcDbCircle
 62
7
  6
CONTINUOUS
 10
133.66046495
 20
1045.5804526193
 40
0.475
100
AcDbArc
 50
308.5850691499
 51
51.4149308501
  0
ARC
  5
6A1
100
AcDbEntity
  8
91324208R00_BL21
100
AcDbCircle
 62
7
  6
CONTINUOUS
 10
134.1730394845
 20
1044.9380183017
 40
0.3468603931
100
AcDbArc
 50
128.5850691499
 51
200.9627847461
  0
ARC
  5
6A2
100
AcDbEntity
  8
91324208R00_BL21
100
AcDbCircle
 62
7
  6
CONTINUOUS
 10
134.1730394845
 20
1044.9380183017
 40
0.3468603931
100
AcDbArc
 50
224.2742065745
 51
285.8657622929
  0
ARC
  5
6A3
100
AcDbEntity
  8
91324208R00_BL21
100
AcDbCircle
 62
7
  6
CONTINUOUS
 10
134.1730394845
 20
1046.2228869369
 40
0.3468603931
100
AcDbArc
 50
74.1342377071
 51
135.704543566
  0
ARC
  5
6A4
100
AcDbEntity
  8
91324208R00_BL21
100
AcDbCircle
 62
7
  6
CONTINUOUS
 10
134.1730394845
 20
1046.2228869369
 40
0.3468603931
100
AcDbArc
 50
159.3384694045
 51
231.4149308501
  0
ARC
  5
6A5
100
AcDbEntity
  8
91324208R00_BL21
100
AcDbCircle
 62
7
  6
CONTINUOUS
 10
135.33546495
 20
1044.2454526193
 40
0.34
100
AcDbArc
 50
192.9620900983
 51
256.3608518627
  0
ARC
  5
6A6
100
AcDbEntity
  8
91324208R00_BL21
100
AcDbCircle
 62
7
  6
CONTINUOUS
 10
135.33546495
 20
1044.2454526193
 40
0.34
100
AcDbArc
 50
283.5024466017
 51
347.0379099017
  0
CIRCLE
  5
6A7
100
AcDbEntity
  8
91324208R00_BL21
100
AcDbCircle
 62
7
  6
CONTINUOUS
 10
135.33546495
 20
1045.5804526193
 40
3.75
  0
CIRCLE
  5
6A8
100
AcDbEntity
  8
91324208R00_BL21
100
AcDbCircle
 62
7
  6
CONTINUOUS
 10
135.33546495
 20
1045.5804526193
 40
1.675
  0
ARC
  5
6A9
100
AcDbEntity
  8
91324208R00_BL21
100
AcDbCircle
 62
7
  6
CONTINUOUS
 10
135.33546495
 20
1046.9154526193
 40
0.34
100
AcDbArc
 50
12.9620900983
 51
76.3608518627
  0
ARC
  5
6AA
100
AcDbEntity
  8
91324208R00_BL21
100
AcDbCircle
 62
7
  6
CONTINUOUS
 10
135.33546495
 20
1046.9154526193
 40
0.34
100
AcDbArc
 50
103.5024466017
 51
167.0379099017
  0
ARC
  5
6AB
100
AcDbEntity
  8
91324208R00_BL21
100
AcDbCircle
 62
7
  6
CONTINUOUS
 10
136.2417673326
 20
1044.0368477504
 40
0.59
100
AcDbArc
 50
74.1342377071
 51
167.0379099017
  0
ARC
  5
6AC
100
AcDbEntity
  8
91324208R00_BL21
100
AcDbCircle
 62
7
  6
CONTINUOUS
 10
136.4978904156
 20
1044.9380183017
 40
0.3468603931
100
AcDbArc
 50
254.1342377072
 51
315.704543566
  0
ARC
  5
6AD
100
AcDbEntity
  8
91324208R00_BL21
100
AcDbCircle
 62
7
  6
CONTINUOUS
 10
136.4978904156
 20
1044.9380183017
 40
0.3468603931
100
AcDbArc
 50
339.3384694044
 51
51.4149308501
  0
ARC
  5
6AE
100
AcDbEntity
  8
91324208R00_BL21
100
AcDbCircle
 62
7
  6
CONTINUOUS
 10
136.2417673326
 20
1047.1240574882
 40
0.59
100
AcDbArc
 50
192.9620900983
 51
285.8657622929
  0
ARC
  5
6AF
100
AcDbEntity
  8
91324208R00_BL21
100
AcDbCircle
 62
7
  6
CONTINUOUS
 10
137.01046495
 20
1045.5804526193
 40
0.475
100
AcDbArc
 50
128.5850691499
 51
231.4149308501
  0
ARC
  5
6B0
100
AcDbEntity
  8
91324208R00_BL21
100
AcDbCircle
 62
7
  6
CONTINUOUS
 10
136.4978904156
 20
1046.2228869369
 40
0.3468603931
100
AcDbArc
 50
308.5850691499
 51
20.9627847461
  0
ARC
  5
6B1
100
AcDbEntity
  8
91324208R00_BL21
100
AcDbCircle
 62
7
  6
CONTINUOUS
 10
136.4978904156
 20
1046.2228869369
 40
0.3468603931
100
AcDbArc
 50
44.2742065745
 51
105.8657622928
  0
ENDBLK
  5
6B2
100
AcDbEntity
  8
0
  6
BYBLOCK
 62
0
100
AcDbBlockEnd
  0
BLOCK
  5
6B3
100
AcDbEntity
  8
91324208R00_BL22
100
AcDbBlockBegin
  2
91324208R00_BL22
 70
64
 10
135.33546495
 20
1098.0804526193
  3
91324208R00_BL22
  1

  0
ARC
  5
6B4
100
AcDbEntity
  8
91324208R00_BL22
100
AcDbCircle
 62
7
  6
CONTINUOUS
 10
133.66046495
 20
1098.0804526193
 40
0.475
100
AcDbArc
 50
308.5850691499
 51
51.4149308501
  0
ARC
  5
6B5
100
AcDbEntity
  8
91324208R00_BL22
100
AcDbCircle
 62
7
  6
CONTINUOUS
 10
134.4291625674
 20
1096.5368477504
 40
0.59
100
AcDbArc
 50
12.9620900983
 51
105.8657622928
  0
ARC
  5
6B6
100
AcDbEntity
  8
91324208R00_BL22
100
AcDbCircle
 62
7
  6
CONTINUOUS
 10
134.4291625674
 20
1099.6240574882
 40
0.59
100
AcDbArc
 50
254.1342377072
 51
347.0379099017
  0
ARC
  5
6B7
100
AcDbEntity
  8
91324208R00_BL22
100
AcDbCircle
 62
7
  6
CONTINUOUS
 10
134.1730394845
 20
1097.4380183017
 40
0.3468603931
100
AcDbArc
 50
128.5850691499
 51
200.9627847461
  0
ARC
  5
6B8
100
AcDbEntity
  8
91324208R00_BL22
100
AcDbCircle
 62
7
  6
CONTINUOUS
 10
134.1730394845
 20
1097.4380183017
 40
0.3468603931
100
AcDbArc
 50
224.2742065745
 51
285.8657622929
  0
ARC
  5
6B9
100
AcDbEntity
  8
91324208R00_BL22
100
AcDbCircle
 62
7
  6
CONTINUOUS
 10
134.1730394845
 20
1098.7228869369
 40
0.3468603931
100
AcDbArc
 50
74.1342377071
 51
135.704543566
  0
ARC
  5
6BA
100
AcDbEntity
  8
91324208R00_BL22
100
AcDbCircle
 62
7
  6
CONTINUOUS
 10
134.1730394845
 20
1098.7228869369
 40
0.3468603931
100
AcDbArc
 50
159.3384694045
 51
231.4149308501
  0
ARC
  5
6BB
100
AcDbEntity
  8
91324208R00_BL22
100
AcDbCircle
 62
7
  6
CONTINUOUS
 10
135.33546495
 20
1096.7454526193
 40
0.34
100
AcDbArc
 50
192.9620900983
 51
256.3608518627
  0
ARC
  5
6BC
100
AcDbEntity
  8
91324208R00_BL22
100
AcDbCircle
 62
7
  6
CONTINUOUS
 10
135.33546495
 20
1096.7454526193
 40
0.34
100
AcDbArc
 50
283.5024466017
 51
347.0379099017
  0
CIRCLE
  5
6BD
100
AcDbEntity
  8
91324208R00_BL22
100
AcDbCircle
 62
7
  6
CONTINUOUS
 10
135.33546495
 20
1098.0804526193
 40
3.75
  0
CIRCLE
  5
6BE
100
AcDbEntity
  8
91324208R00_BL22
100
AcDbCircle
 62
7
  6
CONTINUOUS
 10
135.33546495
 20
1098.0804526193
 40
1.675
  0
ARC
  5
6BF
100
AcDbEntity
  8
91324208R00_BL22
100
AcDbCircle
 62
7
  6
CONTINUOUS
 10
135.33546495
 20
1099.4154526193
 40
0.34
100
AcDbArc
 50
12.9620900983
 51
76.3608518627
  0
ARC
  5
6C0
100
AcDbEntity
  8
91324208R00_BL22
100
AcDbCircle
 62
7
  6
CONTINUOUS
 10
135.33546495
 20
1099.4154526193
 40
0.34
100
AcDbArc
 50
103.5024466017
 51
167.0379099017
  0
ARC
  5
6C1
100
AcDbEntity
  8
91324208R00_BL22
100
AcDbCircle
 62
7
  6
CONTINUOUS
 10
136.2417673326
 20
1096.5368477504
 40
0.59
100
AcDbArc
 50
74.1342377071
 51
167.0379099017
  0
ARC
  5
6C2
100
AcDbEntity
  8
91324208R00_BL22
100
AcDbCircle
 62
7
  6
CONTINUOUS
 10
136.4978904156
 20
1097.4380183017
 40
0.3468603931
100
AcDbArc
 50
254.1342377072
 51
315.704543566
  0
ARC
  5
6C3
100
AcDbEntity
  8
91324208R00_BL22
100
AcDbCircle
 62
7
  6
CONTINUOUS
 10
136.4978904156
 20
1097.4380183017
 40
0.3468603931
100
AcDbArc
 50
339.3384694044
 51
51.4149308501
  0
ARC
  5
6C4
100
AcDbEntity
  8
91324208R00_BL22
100
AcDbCircle
 62
7
  6
CONTINUOUS
 10
136.2417673326
 20
1099.6240574882
 40
0.59
100
AcDbArc
 50
192.9620900983
 51
285.8657622929
  0
ARC
  5
6C5
100
AcDbEntity
  8
91324208R00_BL22
100
AcDbCircle
 62
7
  6
CONTINUOUS
 10
137.01046495
 20
1098.0804526193
 40
0.475
100
AcDbArc
 50
128.5850691499
 51
231.4149308501
  0
ARC
  5
6C6
100
AcDbEntity
  8
91324208R00_BL22
100
AcDbCircle
 62
7
  6
CONTINUOUS
 10
136.4978904156
 20
1098.7228869369
 40
0.3468603931
100
AcDbArc
 50
308.5850691499
 51
20.9627847461
  0
ARC
  5
6C7
100
AcDbEntity
  8
91324208R00_BL22
100
AcDbCircle
 62
7
  6
CONTINUOUS
 10
136.4978904156
 20
1098.7228869369
 40
0.3468603931
100
AcDbArc
 50
44.2742065745
 51
105.8657622928
  0
ENDBLK
  5
6C8
100
AcDbEntity
  8
0
  6
BYBLOCK
 62
0
100
AcDbBlockEnd
  0
BLOCK
  5
6C9
100
AcDbEntity
  8
0
100
AcDbBlockBegin
  2
_FILLED
 70
64
 10
0.0
 20
0.0
  3
_FILLED
  1

  0
SOLID
  5
6CA
100
AcDbEntity
  8
0
  6
BYBLOCK
 62
0
100
AcDbTrace
 10
0.0
 20
0.0
 11
-1.0
 21
0.1428571429
 12
-1.0
 22
-0.1428571429
 13
-1.0
 23
-0.1428571429
  0
ENDBLK
  5
6CB
100
AcDbEntity
  8
0
  6
BYBLOCK
 62
0
100
AcDbBlockEnd
  0
BLOCK
  5
6CC
100
AcDbEntity
  8
0
100
AcDbBlockBegin
 62
2
  6
CONTINUOUS
  2
*D0
 70
65
 10
0.0
 20
0.0
  3
*D0
  1

  0
TEXT
  5
6CD
100
AcDbEntity
  8
0
100
AcDbText
 62
5
  6
CONTINUOUS
 10
33.1568005989
 20
1917.4554526193
  7
STANDARD
 40
2.5
  1
9
 72
5
 11
35.099179781
 21
1917.4554526193
100
AcDbText
  0
LINE
  5
6CE
100
AcDbEntity
  8
0
100
AcDbLine
 62
2
  6
CONTINUOUS
 10
29.6279901899
 20
1906.8304526193
 11
29.6279901899
 21
1917.8304526193
  0
LINE
  5
6CF
100
AcDbEntity
  8
0
100
AcDbLine
 62
2
  6
CONTINUOUS
 10
38.6279901899
 20
1898.3451712451
 11
38.6279901899
 21
1917.8304526193
  0
LINE
  5
6D0
100
AcDbEntity
  8
0
100
AcDbLine
 62
2
  6
CONTINUOUS
 10
29.6279901899
 20
1916.8304526193
 11
34.1279901899
 21
1916.8304526193
  0
LINE
  5
6D1
100
AcDbEntity
  8
0
100
AcDbLine
 62
2
  6
CONTINUOUS
 10
38.6279901899
 20
1916.8304526193
 11
34.1279901899
 21
1916.8304526193
  0
INSERT
  5
6D2
100
AcDbEntity
  8
0
100
AcDbBlockReference
 62
2
  6
CONTINUOUS
  2
_FILLED
 10
29.6279901899
 20
1916.8304526193
 41
3.5
 42
3.5
 43
3.5
 50
180.0
  0
INSERT
  5
6D3
100
AcDbEntity
  8
0
100
AcDbBlockReference
 62
2
  6
CONTINUOUS
  2
_FILLED
 10
38.6279901899
 20
1916.8304526193
 41
3.5
 42
3.5
 43
3.5
  0
ENDBLK
  5
6D4
100
AcDbEntity
  8
0
  6
BYBLOCK
 62
0
100
AcDbBlockEnd
  0
BLOCK
  5
6D5
100
AcDbEntity
  8
0
100
AcDbBlockBegin
 62
2
  6
CONTINUOUS
  2
*D1
 70
65
 10
0.0
 20
0.0
  3
*D1
  1

  0
TEXT
  5
6D6
100
AcDbEntity
  8
0
100
AcDbText
 62
5
  6
CONTINUOUS
 10
134.8930857679
 20
1924.4554526193
  7
STANDARD
 40
2.5
  1
28
 72
5
 11
138.7778441322
 21
1924.4554526193
100
AcDbText
  0
LINE
  5
6D7
100
AcDbEntity
  8
0
100
AcDbLine
 62
2
  6
CONTINUOUS
 10
122.83546495
 20
1898.8304526193
 11
122.83546495
 21
1924.8304526193
  0
LINE
  5
6D8
100
AcDbEntity
  8
0
100
AcDbLine
 62
2
  6
CONTINUOUS
 10
150.83546495
 20
1906.8304526193
 11
150.83546495
 21
1924.8304526193
  0
LINE
  5
6D9
100
AcDbEntity
  8
0
100
AcDbLine
 62
2
  6
CONTINUOUS
 10
122.83546495
 20
1923.8304526193
 11
136.83546495
 21
1923.8304526193
  0
LINE
  5
6DA
100
AcDbEntity
  8
0
100
AcDbLine
 62
2
  6
CONTINUOUS
 10
150.83546495
 20
1923.8304526193
 11
136.83546495
 21
1923.8304526193
  0
INSERT
  5
6DB
100
AcDbEntity
  8
0
100
AcDbBlockReference
 62
2
  6
CONTINUOUS
  2
_FILLED
 10
122.83546495
 20
1923.8304526193
 41
3.5
 42
3.5
 43
3.5
 50
180.0
  0
INSERT
  5
6DC
100
AcDbEntity
  8
0
100
AcDbBlockReference
 62
2
  6
CONTINUOUS
  2
_FILLED
 10
150.83546495
 20
1923.8304526193
 41
3.5
 42
3.5
 43
3.5
  0
ENDBLK
  5
6DD
100
AcDbEntity
  8
0
  6
BYBLOCK
 62
0
100
AcDbBlockEnd
  0
BLOCK
  5
6DE
100
AcDbEntity
  8
0
100
AcDbBlockBegin
 62
2
  6
CONTINUOUS
  2
*D2
 70
65
 10
0.0
 20
0.0
  3
*D2
  1

  0
TEXT
  5
6DF
100
AcDbEntity
  8
0
100
AcDbText
 62
5
  6
CONTINUOUS
 10
84.21046495
 20
1027.945694255
  7
STANDARD
 40
2.5
  1
1750
 50
90.0
 72
5
 11
84.21046495
 21
1035.7152109836
100
AcDbText
  0
LINE
  5
6E0
100
AcDbEntity
  8
0
100
AcDbLine
 62
2
  6
CONTINUOUS
 10
130.83546495
 20
1906.8304526193
 11
83.83546495
 21
1906.8304526193
  0
LINE
  5
6E1
100
AcDbEntity
  8
0
100
AcDbLine
 62
2
  6
CONTINUOUS
 10
130.83546495
 20
156.8304526193
 11
121.6402352099
 21
156.8304526193
  0
LINE
  5
6E2
100
AcDbEntity
  8
0
100
AcDbLine
 62
2
  6
CONTINUOUS
 10
114.5355705818
 20
156.8304526193
 11
83.83546495
 21
156.8304526193
  0
LINE
  5
6E3
100
AcDbEntity
  8
0
100
AcDbLine
 62
2
  6
CONTINUOUS
 10
84.83546495
 20
1906.8304526193
 11
84.83546495
 21
1031.8304526193
  0
LINE
  5
6E4
100
AcDbEntity
  8
0
100
AcDbLine
 62
2
  6
CONTINUOUS
 10
84.83546495
 20
156.8304526193
 11
84.83546495
 21
1031.8304526193
  0
INSERT
  5
6E5
100
AcDbEntity
  8
0
100
AcDbBlockReference
 62
2
  6
CONTINUOUS
  2
_FILLED
 10
84.83546495
 20
1906.8304526193
 41
3.5
 42
3.5
 43
3.5
 50
90.0
  0
INSERT
  5
6E6
100
AcDbEntity
  8
0
100
AcDbBlockReference
 62
2
  6
CONTINUOUS
  2
_FILLED
 10
84.83546495
 20
156.8304526193
 41
3.5
 42
3.5
 43
3.5
 50
270.0
  0
ENDBLK
  5
6E7
100
AcDbEntity
  8
0
  6
BYBLOCK
 62
0
100
AcDbBlockEnd
  0
BLOCK
  5
6E8
100
AcDbEntity
  8
0
100
AcDbBlockBegin
 62
2
  6
CONTINUOUS
  2
*D3
 70
65
 10
0.0
 20
0.0
  3
*D3
  1

  0
TEXT
  5
6E9
100
AcDbEntity
  8
0
100
AcDbText
 62
5
  6
CONTINUOUS
 10
60.0029901899
 20
284.8880734371
  7
STANDARD
 40
2.5
  1
74
 50
90.0
 72
5
 11
60.0029901899
 21
288.7728318014
100
AcDbText
  0
LINE
  5
6EA
100
AcDbEntity
  8
0
100
AcDbLine
 62
2
  6
CONTINUOUS
 10
38.9133185198
 20
249.8304526193
 11
61.6279901899
 21
249.8304526193
  0
LINE
  5
6EB
100
AcDbEntity
  8
0
100
AcDbLine
 62
2
  6
CONTINUOUS
 10
38.7118043612
 20
323.8304526193
 11
61.6279901899
 21
323.8304526193
  0
LINE
  5
6EC
100
AcDbEntity
  8
0
100
AcDbLine
 62
2
  6
CONTINUOUS
 10
60.6279901899
 20
249.8304526193
 11
60.6279901899
 21
286.8304526193
  0
LINE
  5
6ED
100
AcDbEntity
  8
0
100
AcDbLine
 62
2
  6
CONTINUOUS
 10
60.6279901899
 20
323.8304526193
 11
60.6279901899
 21
286.8304526193
  0
INSERT
  5
6EE
100
AcDbEntity
  8
0
100
AcDbBlockReference
 62
2
  6
CONTINUOUS
  2
_FILLED
 10
60.6279901899
 20
249.8304526193
 41
3.5
 42
3.5
 43
3.5
 50
270.0
  0
INSERT
  5
6EF
100
AcDbEntity
  8
0
100
AcDbBlockReference
 62
2
  6
CONTINUOUS
  2
_FILLED
 10
60.6279901899
 20
323.8304526193
 41
3.5
 42
3.5
 43
3.5
 50
90.0
  0
ENDBLK
  5
6F0
100
AcDbEntity
  8
0
  6
BYBLOCK
 62
0
100
AcDbBlockEnd
  0
BLOCK
  5
6F1
100
AcDbEntity
  8
0
100
AcDbBlockBegin
 62
2
  6
CONTINUOUS
  2
*D4
 70
65
 10
0.0
 20
0.0
  3
*D4
  1

  0
TEXT
  5
6F2
100
AcDbEntity
  8
0
100
AcDbText
 62
5
  6
CONTINUOUS
 10
60.0029901899
 20
1774.8880734371
  7
STANDARD
 40
2.5
  1
74
 50
90.0
 72
5
 11
60.0029901899
 21
1778.7728318014
100
AcDbText
  0
LINE
  5
6F3
100
AcDbEntity
  8
0
100
AcDbLine
 62
2
  6
CONTINUOUS
 10
38.6008354638
 20
1739.8304526193
 11
61.6279901899
 21
1739.8304526193
  0
LINE
  5
6F4
100
AcDbEntity
  8
0
100
AcDbLine
 62
2
  6
CONTINUOUS
 10
38.8023496224
 20
1813.8304526193
 11
61.6279901899
 21
1813.8304526193
  0
LINE
  5
6F5
100
AcDbEntity
  8
0
100
AcDbLine
 62
2
  6
CONTINUOUS
 10
60.6279901899
 20
1739.8304526193
 11
60.6279901899
 21
1776.8304526193
  0
LINE
  5
6F6
100
AcDbEntity
  8
0
100
AcDbLine
 62
2
  6
CONTINUOUS
 10
60.6279901899
 20
1813.8304526193
 11
60.6279901899
 21
1776.8304526193
  0
INSERT
  5
6F7
100
AcDbEntity
  8
0
100
AcDbBlockReference
 62
2
  6
CONTINUOUS
  2
_FILLED
 10
60.6279901899
 20
1739.8304526193
 41
3.5
 42
3.5
 43
3.5
 50
270.0
  0
INSERT
  5
6F8
100
AcDbEntity
  8
0
100
AcDbBlockReference
 62
2
  6
CONTINUOUS
  2
_FILLED
 10
60.6279901899
 20
1813.8304526193
 41
3.5
 42
3.5
 43
3.5
 50
90.0
  0
ENDBLK
  5
6F9
100
AcDbEntity
  8
0
  6
BYBLOCK
 62
0
100
AcDbBlockEnd
  0
BLOCK
  5
6FA
100
AcDbEntity
  8
0
100
AcDbBlockBegin
 62
2
  6
CONTINUOUS
  2
*D5
 70
65
 10
0.0
 20
0.0
  3
*D5
  1

  0
TEXT
  5
6FB
100
AcDbEntity
  8
0
100
AcDbText
 62
5
  6
CONTINUOUS
 10
60.0029901899
 20
1858.3880734371
  7
STANDARD
 40
2.5
  1
93
 50
90.0
 72
5
 11
60.0029901899
 21
1862.2728318014
100
AcDbText
  0
LINE
  5
6FC
100
AcDbEntity
  8
0
100
AcDbLine
 62
2
  6
CONTINUOUS
 10
38.7015925431
 20
1813.8304526193
 11
61.6279901899
 21
1813.8304526193
  0
LINE
  5
6FD
100
AcDbEntity
  8
0
100
AcDbLine
 62
2
  6
CONTINUOUS
 10
32.6279901899
 20
1906.8304526193
 11
61.6279901899
 21
1906.8304526193
  0
LINE
  5
6FE
100
AcDbEntity
  8
0
100
AcDbLine
 62
2
  6
CONTINUOUS
 10
60.6279901899
 20
1813.8304526193
 11
60.6279901899
 21
1860.3304526193
  0
LINE
  5
6FF
100
AcDbEntity
  8
0
100
AcDbLine
 62
2
  6
CONTINUOUS
 10
60.6279901899
 20
1906.8304526193
 11
60.6279901899
 21
1860.3304526193
  0
INSERT
  5
700
100
AcDbEntity
  8
0
100
AcDbBlockReference
 62
2
  6
CONTINUOUS
  2
_FILLED
 10
60.6279901899
 20
1813.8304526193
 41
3.5
 42
3.5
 43
3.5
 50
270.0
  0
INSERT
  5
701
100
AcDbEntity
  8
0
100
AcDbBlockReference
 62
2
  6
CONTINUOUS
  2
_FILLED
 10
60.6279901899
 20
1906.8304526193
 41
3.5
 42
3.5
 43
3.5
 50
90.0
  0
ENDBLK
  5
702
100
AcDbEntity
  8
0
  6
BYBLOCK
 62
0
100
AcDbBlockEnd
  0
BLOCK
  5
703
100
AcDbEntity
  8
0
100
AcDbBlockBegin
 62
2
  6
CONTINUOUS
  2
*D6
 70
65
 10
0.0
 20
0.0
  3
*D6
  1

  0
TEXT
  5
704
100
AcDbEntity
  8
0
100
AcDbText
 62
5
  6
CONTINUOUS
 10
60.0029901899
 20
201.3880734371
  7
STANDARD
 40
2.5
  1
93
 50
90.0
 72
5
 11
60.0029901899
 21
205.2728318014
100
AcDbText
  0
LINE
  5
705
100
AcDbEntity
  8
0
100
AcDbLine
 62
2
  6
CONTINUOUS
 10
38.5102902026
 20
249.8304526193
 11
61.6279901899
 21
249.8304526193
  0
LINE
  5
706
100
AcDbEntity
  8
0
100
AcDbLine
 62
2
  6
CONTINUOUS
 10
32.6279901899
 20
156.8304526193
 11
36.9847876074
 21
156.8304526193
  0
LINE
  5
707
100
AcDbEntity
  8
0
100
AcDbLine
 62
2
  6
CONTINUOUS
 10
43.936653358
 20
156.8304526193
 11
61.6279901899
 21
156.8304526193
  0
LINE
  5
708
100
AcDbEntity
  8
0
100
AcDbLine
 62
2
  6
CONTINUOUS
 10
60.6279901899
 20
249.8304526193
 11
60.6279901899
 21
203.3304526193
  0
LINE
  5
709
100
AcDbEntity
  8
0
100
AcDbLine
 62
2
  6
CONTINUOUS
 10
60.6279901899
 20
156.8304526193
 11
60.6279901899
 21
203.3304526193
  0
INSERT
  5
70A
100
AcDbEntity
  8
0
100
AcDbBlockReference
 62
2
  6
CONTINUOUS
  2
_FILLED
 10
60.6279901899
 20
249.8304526193
 41
3.5
 42
3.5
 43
3.5
 50
90.0
  0
INSERT
  5
70B
100
AcDbEntity
  8
0
100
AcDbBlockReference
 62
2
  6
CONTINUOUS
  2
_FILLED
 10
60.6279901899
 20
156.8304526193
 41
3.5
 42
3.5
 43
3.5
 50
270.0
  0
ENDBLK
  5
70C
100
AcDbEntity
  8
0
  6
BYBLOCK
 62
0
100
AcDbBlockEnd
  0
BLOCK
  5
70D
100
AcDbEntity
  8
0
100
AcDbBlockBegin
 62
2
  6
CONTINUOUS
  2
*D7
 70
65
 10
0.0
 20
0.0
  3
*D7
  1

  0
TEXT
  5
70E
100
AcDbEntity
  8
0
100
AcDbText
 62
5
  6
CONTINUOUS
 10
39.7830374055
 20
156.3906128916
  7
STANDARD
 40
2.5
  1
R
 50
-43.9614194953
 72
5
 11
41.5959352005
 21
154.6422754305
100
AcDbText
  0
TEXT
  5
70F
100
AcDbEntity
  8
0
100
AcDbText
 62
5
  6
CONTINUOUS
 10
41.5959352005
 20
154.6422754305
  7
STANDARD
 40
2.5
  1
9
 50
-43.9614194953
 72
5
 11
42.9940740903
 21
153.2939266136
100
AcDbText
  0
LINE
  5
710
100
AcDbEntity
  8
0
100
AcDbLine
 62
2
  6
CONTINUOUS
 10
36.1062567016
 20
159.0681694277
 11
42.5602154399
 21
152.8440469947
  0
INSERT
  5
711
100
AcDbEntity
  8
0
100
AcDbBlockReference
 62
2
  6
CONTINUOUS
  2
_FILLED
 10
36.1062567016
 20
159.0681694277
 41
3.5
 42
3.5
 43
3.5
 50
136.0385805047
  0
ENDBLK
  5
712
100
AcDbEntity
  8
0
  6
BYBLOCK
 62
0
100
AcDbBlockEnd
  0
BLOCK
  5
713
100
AcDbEntity
  8
0
100
AcDbBlockBegin
 62
2
  6
CONTINUOUS
  2
*D8
 70
65
 10
0.0
 20
0.0
  3
*D8
  1

  0
TEXT
  5
714
100
AcDbEntity
  8
0
100
AcDbText
 62
5
  6
CONTINUOUS
 10
116.531673856
 20
154.8470766638
  7
STANDARD
 40
2.5
  1
R
 50
36.9666128157
 72
5
 11
118.5439900526
 21
156.3616280223
100
AcDbText
  0
TEXT
  5
715
100
AcDbEntity
  8
0
100
AcDbText
 62
5
  6
CONTINUOUS
 10
118.5439900526
 20
156.3616280223
  7
STANDARD
 40
2.5
  1
8
 50
36.9666128157
 72
5
 11
120.095923946
 21
157.529676856
100
AcDbText
  0
LINE
  5
716
100
AcDbEntity
  8
0
100
AcDbLine
 62
2
  6
CONTINUOUS
 10
124.4435764552
 20
160.0196562747
 11
116.9075173204
 21
154.3477103751
  0
INSERT
  5
717
100
AcDbEntity
  8
0
100
AcDbBlockReference
 62
2
  6
CONTINUOUS
  2
_FILLED
 10
124.4435764552
 20
160.0196562747
 41
3.5
 42
3.5
 43
3.5
 50
36.9666128157
  0
ENDBLK
  5
718
100
AcDbEntity
  8
0
  6
BYBLOCK
 62
0
100
AcDbBlockEnd
  0
BLOCK
  5
719
100
AcDbEntity
  8
0
100
AcDbBlockBegin
 62
2
  6
CONTINUOUS
  2
*D9
 70
65
 10
0.0
 20
0.0
  3
*D9
  1

  0
TEXT
  5
71A
100
AcDbEntity
  8
0
100
AcDbText
 62
5
  6
CONTINUOUS
 10
91.21046495
 20
598.9168838461
  7
STANDARD
 40
2.5
  1
890
 50
90.0
 72
5
 11
91.21046495
 21
604.7440213925
100
AcDbText
  0
LINE
  5
71B
100
AcDbEntity
  8
0
100
AcDbLine
 62
2
  6
CONTINUOUS
 10
112.2680431936
 20
156.8304526193
 11
90.83546495
 21
156.8304526193
  0
LINE
  5
71C
100
AcDbEntity
  8
0
100
AcDbLine
 62
2
  6
CONTINUOUS
 10
119.83546495
 20
1046.8304526193
 11
90.83546495
 21
1046.8304526193
  0
LINE
  5
71D
100
AcDbEntity
  8
0
100
AcDbLine
 62
2
  6
CONTINUOUS
 10
91.83546495
 20
156.8304526193
 11
91.83546495
 21
601.8304526193
  0
LINE
  5
71E
100
AcDbEntity
  8
0
100
AcDbLine
 62
2
  6
CONTINUOUS
 10
91.83546495
 20
1046.8304526193
 11
91.83546495
 21
601.8304526193
  0
INSERT
  5
71F
100
AcDbEntity
  8
0
100
AcDbBlockReference
 62
2
  6
CONTINUOUS
  2
_FILLED
 10
91.83546495
 20
156.8304526193
 41
3.5
 42
3.5
 43
3.5
 50
270.0
  0
INSERT
  5
720
100
AcDbEntity
  8
0
100
AcDbBlockReference
 62
2
  6
CONTINUOUS
  2
_FILLED
 10
91.83546495
 20
1046.8304526193
 41
3.5
 42
3.5
 43
3.5
 50
90.0
  0
ENDBLK
  5
721
100
AcDbEntity
  8
0
  6
BYBLOCK
 62
0
100
AcDbBlockEnd
  0
BLOCK
  5
722
100
AcDbEntity
  8
0
100
AcDbBlockBegin
 62
2
  6
CONTINUOUS
  2
*D10
 70
65
 10
0.0
 20
0.0
  3
*D10
  1

  0
TEXT
  5
723
100
AcDbEntity
  8
0
100
AcDbText
 62
5
  6
CONTINUOUS
 10
112.21046495
 20
978.8880734371
  7
STANDARD
 40
2.5
  1
62
 50
90.0
 72
5
 11
112.21046495
 21
982.7728318014
100
AcDbText
  0
LINE
  5
724
100
AcDbEntity
  8
0
100
AcDbLine
 62
2
  6
CONTINUOUS
 10
133.21046495
 20
949.8304526193
 11
111.83546495
 21
949.8304526193
  0
LINE
  5
725
100
AcDbEntity
  8
0
100
AcDbLine
 62
2
  6
CONTINUOUS
 10
133.21046495
 20
1011.8304526193
 11
111.83546495
 21
1011.8304526193
  0
LINE
  5
726
100
AcDbEntity
  8
0
100
AcDbLine
 62
2
  6
CONTINUOUS
 10
112.83546495
 20
949.8304526193
 11
112.83546495
 21
980.8304526193
  0
LINE
  5
727
100
AcDbEntity
  8
0
100
AcDbLine
 62
2
  6
CONTINUOUS
 10
112.83546495
 20
1011.8304526193
 11
112.83546495
 21
980.8304526193
  0
INSERT
  5
728
100
AcDbEntity
  8
0
100
AcDbBlockReference
 62
2
  6
CONTINUOUS
  2
_FILLED
 10
112.83546495
 20
949.8304526193
 41
3.5
 42
3.5
 43
3.5
 50
270.0
  0
INSERT
  5
729
100
AcDbEntity
  8
0
100
AcDbBlockReference
 62
2
  6
CONTINUOUS
  2
_FILLED
 10
112.83546495
 20
1011.8304526193
 41
3.5
 42
3.5
 43
3.5
 50
90.0
  0
ENDBLK
  5
72A
100
AcDbEntity
  8
0
  6
BYBLOCK
 62
0
100
AcDbBlockEnd
  0
BLOCK
  5
72B
100
AcDbEntity
  8
0
100
AcDbBlockBegin
 62
2
  6
CONTINUOUS
  2
*D11
 70
65
 10
0.0
 20
0.0
  3
*D11
  1

  0
TEXT
  5
72C
100
AcDbEntity
  8
0
100
AcDbText
 62
5
  6
CONTINUOUS
 10
142.3930857679
 20
940.4554526193
  7
STANDARD
 40
2.5
  1
13
 72
5
 11
146.2778441322
 21
940.4554526193
100
AcDbText
  0
LINE
  5
72D
100
AcDbEntity
  8
0
100
AcDbLine
 62
2
  6
CONTINUOUS
 10
137.83546495
 20
947.8960577363
 11
137.83546495
 21
938.8304526193
  0
LINE
  5
72E
100
AcDbEntity
  8
0
100
AcDbLine
 62
2
  6
CONTINUOUS
 10
137.83546495
 20
939.8304526193
 11
144.33546495
 21
939.8304526193
  0
LINE
  5
72F
100
AcDbEntity
  8
0
100
AcDbLine
 62
2
  6
CONTINUOUS
 10
150.83546495
 20
939.8304526193
 11
144.33546495
 21
939.8304526193
  0
INSERT
  5
730
100
AcDbEntity
  8
0
100
AcDbBlockReference
 62
2
  6
CONTINUOUS
  2
_FILLED
 10
137.83546495
 20
939.8304526193
 41
3.5
 42
3.5
 43
3.5
 50
180.0
  0
INSERT
  5
731
100
AcDbEntity
  8
0
100
AcDbBlockReference
 62
2
  6
CONTINUOUS
  2
_FILLED
 10
150.83546495
 20
939.8304526193
 41
3.5
 42
3.5
 43
3.5
  0
ENDBLK
  5
732
100
AcDbEntity
  8
0
  6
BYBLOCK
 62
0
100
AcDbBlockEnd
  0
BLOCK
  5
733
100
AcDbEntity
  8
0
100
AcDbBlockBegin
 62
2
  6
CONTINUOUS
  2
*D12
 70
65
 10
0.0
 20
0.0
  3
*D12
  1

  0
TEXT
  5
734
100
AcDbEntity
  8
0
100
AcDbText
 62
5
  6
CONTINUOUS
 10
134.4386248013
 20
933.4554526193
  7
STANDARD
 40
2.5
  1
12.3
 72
5
 11
141.2323050987
 21
933.4554526193
100
AcDbText
  0
LINE
  5
735
100
AcDbEntity
  8
0
100
AcDbLine
 62
2
  6
CONTINUOUS
 10
143.96046495
 20
951.3304526193
 11
143.96046495
 21
943.691614165
  0
LINE
  5
736
100
AcDbEntity
  8
0
100
AcDbLine
 62
2
  6
CONTINUOUS
 10
143.96046495
 20
939.0640804283
 11
143.96046495
 21
931.8304526193
  0
LINE
  5
737
100
AcDbEntity
  8
0
100
AcDbLine
 62
2
  6
CONTINUOUS
 10
131.71046495
 20
951.3304526193
 11
131.71046495
 21
931.8304526193
  0
LINE
  5
738
100
AcDbEntity
  8
0
100
AcDbLine
 62
2
  6
CONTINUOUS
 10
143.96046495
 20
932.8304526193
 11
150.96046495
 21
932.8304526193
  0
LINE
  5
739
100
AcDbEntity
  8
0
100
AcDbLine
 62
2
  6
CONTINUOUS
 10
150.96046495
 20
932.8304526193
 11
137.83546495
 21
932.8304526193
  0
LINE
  5
73A
100
AcDbEntity
  8
0
100
AcDbLine
 62
2
  6
CONTINUOUS
 10
131.71046495
 20
932.8304526193
 11
124.71046495
 21
932.8304526193
  0
LINE
  5
73B
100
AcDbEntity
  8
0
100
AcDbLine
 62
2
  6
CONTINUOUS
 10
124.71046495
 20
932.8304526193
 11
137.83546495
 21
932.8304526193
  0
INSERT
  5
73C
100
AcDbEntity
  8
0
100
AcDbBlockReference
 62
2
  6
CONTINUOUS
  2
_FILLED
 10
143.96046495
 20
932.8304526193
 41
3.5
 42
3.5
 43
3.5
 50
180.0
  0
INSERT
  5
73D
100
AcDbEntity
  8
0
100
AcDbBlockReference
 62
2
  6
CONTINUOUS
  2
_FILLED
 10
131.71046495
 20
932.8304526193
 41
3.5
 42
3.5
 43
3.5
  0
ENDBLK
  5
73E
100
AcDbEntity
  8
0
  6
BYBLOCK
 62
0
100
AcDbBlockEnd
  0
BLOCK
  5
73F
100
AcDbEntity
  8
0
100
AcDbBlockBegin
 62
2
  6
CONTINUOUS
  2
*D13
 70
65
 10
0.0
 20
0.0
  3
*D13
  1

  0
TEXT
  5
740
100
AcDbEntity
  8
0
100
AcDbText
 62
5
  6
CONTINUOUS
 10
112.21046495
 20
1057.3880734371
  7
STANDARD
 40
2.5
  1
25
 50
90.0
 72
5
 11
112.21046495
 21
1061.2728318014
100
AcDbText
  0
LINE
  5
741
100
AcDbEntity
  8
0
100
AcDbLine
 62
2
  6
CONTINUOUS
 10
124.33546495
 20
1071.8304526193
 11
111.83546495
 21
1071.8304526193
  0
LINE
  5
742
100
AcDbEntity
  8
0
100
AcDbLine
 62
2
  6
CONTINUOUS
 10
119.83546495
 20
1046.8304526193
 11
111.83546495
 21
1046.8304526193
  0
LINE
  5
743
100
AcDbEntity
  8
0
100
AcDbLine
 62
2
  6
CONTINUOUS
 10
112.83546495
 20
1071.8304526193
 11
112.83546495
 21
1059.3304526193
  0
LINE
  5
744
100
AcDbEntity
  8
0
100
AcDbLine
 62
2
  6
CONTINUOUS
 10
112.83546495
 20
1046.8304526193
 11
112.83546495
 21
1059.3304526193
  0
INSERT
  5
745
100
AcDbEntity
  8
0
100
AcDbBlockReference
 62
2
  6
CONTINUOUS
  2
_FILLED
 10
112.83546495
 20
1071.8304526193
 41
3.5
 42
3.5
 43
3.5
 50
90.0
  0
INSERT
  5
746
100
AcDbEntity
  8
0
100
AcDbBlockReference
 62
2
  6
CONTINUOUS
  2
_FILLED
 10
112.83546495
 20
1046.8304526193
 41
3.5
 42
3.5
 43
3.5
 50
270.0
  0
ENDBLK
  5
747
100
AcDbEntity
  8
0
  6
BYBLOCK
 62
0
100
AcDbBlockEnd
  0
BLOCK
  5
748
100
AcDbEntity
  8
0
100
AcDbBlockBegin
 62
2
  6
CONTINUOUS
  2
*D14
 70
65
 10
0.0
 20
0.0
  3
*D14
  1

  0
TEXT
  5
749
100
AcDbEntity
  8
0
100
AcDbText
 62
5
  6
CONTINUOUS
 10
139.8930857679
 20
1917.4554526193
  7
STANDARD
 40
2.5
  1
18
 72
5
 11
143.7778441322
 21
1917.4554526193
100
AcDbText
  0
LINE
  5
74A
100
AcDbEntity
  8
0
100
AcDbLine
 62
2
  6
CONTINUOUS
 10
150.83546495
 20
1906.8304526193
 11
150.83546495
 21
1917.8304526193
  0
LINE
  5
74B
100
AcDbEntity
  8
0
100
AcDbLine
 62
2
  6
CONTINUOUS
 10
132.83546495
 20
1902.6304526193
 11
132.83546495
 21
1917.8304526193
  0
LINE
  5
74C
100
AcDbEntity
  8
0
100
AcDbLine
 62
2
  6
CONTINUOUS
 10
150.83546495
 20
1916.8304526193
 11
141.83546495
 21
1916.8304526193
  0
LINE
  5
74D
100
AcDbEntity
  8
0
100
AcDbLine
 62
2
  6
CONTINUOUS
 10
132.83546495
 20
1916.8304526193
 11
141.83546495
 21
1916.8304526193
  0
INSERT
  5
74E
100
AcDbEntity
  8
0
100
AcDbBlockReference
 62
2
  6
CONTINUOUS
  2
_FILLED
 10
150.83546495
 20
1916.8304526193
 41
3.5
 42
3.5
 43
3.5
  0
INSERT
  5
74F
100
AcDbEntity
  8
0
100
AcDbBlockReference
 62
2
  6
CONTINUOUS
  2
_FILLED
 10
132.83546495
 20
1916.8304526193
 41
3.5
 42
3.5
 43
3.5
 50
180.0
  0
ENDBLK
  5
750
100
AcDbEntity
  8
0
  6
BYBLOCK
 62
0
100
AcDbBlockEnd
  0
BLOCK
  5
751
100
AcDbEntity
  8
0
100
AcDbBlockBegin
 62
2
  6
CONTINUOUS
  2
*D15
 70
65
 10
0.0
 20
0.0
  3
*D15
  1

  0
TEXT
  5
752
100
AcDbEntity
  8
0
100
AcDbText
 62
5
  6
CONTINUOUS
 10
105.21046495
 20
1408.9168838461
  7
STANDARD
 40
2.5
  1
730
 50
90.0
 72
5
 11
105.21046495
 21
1414.7440213925
100
AcDbText
  0
LINE
  5
753
100
AcDbEntity
  8
0
100
AcDbLine
 62
2
  6
CONTINUOUS
 10
119.83546495
 20
1046.8304526193
 11
104.83546495
 21
1046.8304526193
  0
LINE
  5
754
100
AcDbEntity
  8
0
100
AcDbLine
 62
2
  6
CONTINUOUS
 10
124.08546495
 20
1776.8304526193
 11
104.83546495
 21
1776.8304526193
  0
LINE
  5
755
100
AcDbEntity
  8
0
100
AcDbLine
 62
2
  6
CONTINUOUS
 10
105.83546495
 20
1046.8304526193
 11
105.83546495
 21
1411.8304526193
  0
LINE
  5
756
100
AcDbEntity
  8
0
100
AcDbLine
 62
2
  6
CONTINUOUS
 10
105.83546495
 20
1776.8304526193
 11
105.83546495
 21
1411.8304526193
  0
INSERT
  5
757
100
AcDbEntity
  8
0
100
AcDbBlockReference
 62
2
  6
CONTINUOUS
  2
_FILLED
 10
105.83546495
 20
1046.8304526193
 41
3.5
 42
3.5
 43
3.5
 50
270.0
  0
INSERT
  5
758
100
AcDbEntity
  8
0
100
AcDbBlockReference
 62
2
  6
CONTINUOUS
  2
_FILLED
 10
105.83546495
 20
1776.8304526193
 41
3.5
 42
3.5
 43
3.5
 50
90.0
  0
ENDBLK
  5
759
100
AcDbEntity
  8
0
  6
BYBLOCK
 62
0
100
AcDbBlockEnd
  0
BLOCK
  5
75A
100
AcDbEntity
  8
0
100
AcDbBlockBegin
 62
2
  6
CONTINUOUS
  2
*D16
 70
65
 10
0.0
 20
0.0
  3
*D16
  1

  0
TEXT
  5
75B
100
AcDbEntity
  8
0
100
AcDbText
 62
5
  6
CONTINUOUS
 10
98.21046495
 20
663.9168838461
  7
STANDARD
 40
2.5
  1
760
 50
90.0
 72
5
 11
98.21046495
 21
669.7440213925
100
AcDbText
  0
LINE
  5
75C
100
AcDbEntity
  8
0
100
AcDbLine
 62
2
  6
CONTINUOUS
 10
119.83546495
 20
1046.8304526193
 11
97.83546495
 21
1046.8304526193
  0
LINE
  5
75D
100
AcDbEntity
  8
0
100
AcDbLine
 62
2
  6
CONTINUOUS
 10
124.08546495
 20
286.8304526193
 11
97.83546495
 21
286.8304526193
  0
LINE
  5
75E
100
AcDbEntity
  8
0
100
AcDbLine
 62
2
  6
CONTINUOUS
 10
98.83546495
 20
1046.8304526193
 11
98.83546495
 21
666.8304526193
  0
LINE
  5
75F
100
AcDbEntity
  8
0
100
AcDbLine
 62
2
  6
CONTINUOUS
 10
98.83546495
 20
286.8304526193
 11
98.83546495
 21
666.8304526193
  0
INSERT
  5
760
100
AcDbEntity
  8
0
100
AcDbBlockReference
 62
2
  6
CONTINUOUS
  2
_FILLED
 10
98.83546495
 20
1046.8304526193
 41
3.5
 42
3.5
 43
3.5
 50
90.0
  0
INSERT
  5
761
100
AcDbEntity
  8
0
100
AcDbBlockReference
 62
2
  6
CONTINUOUS
  2
_FILLED
 10
98.83546495
 20
286.8304526193
 41
3.5
 42
3.5
 43
3.5
 50
270.0
  0
ENDBLK
  5
762
100
AcDbEntity
  8
0
  6
BYBLOCK
 62
0
100
AcDbBlockEnd
  0
BLOCK
  5
763
100
AcDbEntity
  8
0
100
AcDbBlockBegin
 62
2
  6
CONTINUOUS
  2
*D17
 70
65
 10
0.0
 20
0.0
  3
*D17
  1

  0
TEXT
  5
764
100
AcDbEntity
  8
0
100
AcDbText
 62
5
  6
CONTINUOUS
 10
160.21046495
 20
1032.3880734371
  7
STANDARD
 40
2.5
  1
25
 50
90.0
 72
5
 11
160.21046495
 21
1036.2728318014
100
AcDbText
  0
LINE
  5
765
100
AcDbEntity
  8
0
100
AcDbLine
 62
2
  6
CONTINUOUS
 10
154.6178315725
 20
1046.8304526193
 11
161.83546495
 21
1046.8304526193
  0
LINE
  5
766
100
AcDbEntity
  8
0
100
AcDbLine
 62
2
  6
CONTINUOUS
 10
140.63546495
 20
1021.8304526193
 11
161.83546495
 21
1021.8304526193
  0
LINE
  5
767
100
AcDbEntity
  8
0
100
AcDbLine
 62
2
  6
CONTINUOUS
 10
160.83546495
 20
1046.8304526193
 11
160.83546495
 21
1034.3304526193
  0
LINE
  5
768
100
AcDbEntity
  8
0
100
AcDbLine
 62
2
  6
CONTINUOUS
 10
160.83546495
 20
1021.8304526193
 11
160.83546495
 21
1034.3304526193
  0
INSERT
  5
769
100
AcDbEntity
  8
0
100
AcDbBlockReference
 62
2
  6
CONTINUOUS
  2
_FILLED
 10
160.83546495
 20
1046.8304526193
 41
3.5
 42
3.5
 43
3.5
 50
90.0
  0
INSERT
  5
76A
100
AcDbEntity
  8
0
100
AcDbBlockReference
 62
2
  6
CONTINUOUS
  2
_FILLED
 10
160.83546495
 20
1021.8304526193
 41
3.5
 42
3.5
 43
3.5
 50
270.0
  0
ENDBLK
  5
76B
100
AcDbEntity
  8
0
  6
BYBLOCK
 62
0
100
AcDbBlockEnd
  0
BLOCK
  5
76C
100
AcDbEntity
  8
0
100
AcDbBlockBegin
 62
2
  6
CONTINUOUS
  2
*D18
 70
65
 10
0.0
 20
0.0
  3
*D18
  1

  0
TEXT
  5
76D
100
AcDbEntity
  8
0
100
AcDbText
 62
5
  6
CONTINUOUS
 10
167.21046495
 20
980.9168838461
  7
STANDARD
 40
2.5
  1
126
 50
90.0
 72
5
 11
167.21046495
 21
986.7440213925
100
AcDbText
  0
LINE
  5
76E
100
AcDbEntity
  8
0
100
AcDbLine
 62
2
  6
CONTINUOUS
 10
154.6178315725
 20
1046.8304526193
 11
168.83546495
 21
1046.8304526193
  0
LINE
  5
76F
100
AcDbEntity
  8
0
100
AcDbLine
 62
2
  6
CONTINUOUS
 10
140.63546495
 20
920.8304526193
 11
168.83546495
 21
920.8304526193
  0
LINE
  5
770
100
AcDbEntity
  8
0
100
AcDbLine
 62
2
  6
CONTINUOUS
 10
167.83546495
 20
1046.8304526193
 11
167.83546495
 21
983.8304526193
  0
LINE
  5
771
100
AcDbEntity
  8
0
100
AcDbLine
 62
2
  6
CONTINUOUS
 10
167.83546495
 20
920.8304526193
 11
167.83546495
 21
983.8304526193
  0
INSERT
  5
772
100
AcDbEntity
  8
0
100
AcDbBlockReference
 62
2
  6
CONTINUOUS
  2
_FILLED
 10
167.83546495
 20
1046.8304526193
 41
3.5
 42
3.5
 43
3.5
 50
90.0
  0
INSERT
  5
773
100
AcDbEntity
  8
0
100
AcDbBlockReference
 62
2
  6
CONTINUOUS
  2
_FILLED
 10
167.83546495
 20
920.8304526193
 41
3.5
 42
3.5
 43
3.5
 50
270.0
  0
ENDBLK
  5
774
100
AcDbEntity
  8
0
  6
BYBLOCK
 62
0
100
AcDbBlockEnd
  0
BLOCK
  5
775
100
AcDbEntity
  8
0
100
AcDbBlockBegin
 62
2
  6
CONTINUOUS
  2
*D19
 70
65
 10
0.0
 20
0.0
  3
*D19
  1

  0
TEXT
  5
776
100
AcDbEntity
  8
0
100
AcDbText
 62
5
  6
CONTINUOUS
 10
174.21046495
 20
837.4168838461
  7
STANDARD
 40
2.5
  1
413
 50
90.0
 72
5
 11
174.21046495
 21
843.2440213925
100
AcDbText
  0
LINE
  5
777
100
AcDbEntity
  8
0
100
AcDbLine
 62
2
  6
CONTINUOUS
 10
154.6178315725
 20
1046.8304526193
 11
175.83546495
 21
1046.8304526193
  0
LINE
  5
778
100
AcDbEntity
  8
0
100
AcDbLine
 62
2
  6
CONTINUOUS
 10
140.63546495
 20
633.8304526193
 11
175.83546495
 21
633.8304526193
  0
LINE
  5
779
100
AcDbEntity
  8
0
100
AcDbLine
 62
2
  6
CONTINUOUS
 10
174.83546495
 20
1046.8304526193
 11
174.83546495
 21
840.3304526193
  0
LINE
  5
77A
100
AcDbEntity
  8
0
100
AcDbLine
 62
2
  6
CONTINUOUS
 10
174.83546495
 20
633.8304526193
 11
174.83546495
 21
840.3304526193
  0
INSERT
  5
77B
100
AcDbEntity
  8
0
100
AcDbBlockReference
 62
2
  6
CONTINUOUS
  2
_FILLED
 10
174.83546495
 20
1046.8304526193
 41
3.5
 42
3.5
 43
3.5
 50
90.0
  0
INSERT
  5
77C
100
AcDbEntity
  8
0
100
AcDbBlockReference
 62
2
  6
CONTINUOUS
  2
_FILLED
 10
174.83546495
 20
633.8304526193
 41
3.5
 42
3.5
 43
3.5
 50
270.0
  0
ENDBLK
  5
77D
100
AcDbEntity
  8
0
  6
BYBLOCK
 62
0
100
AcDbBlockEnd
  0
BLOCK
  5
77E
100
AcDbEntity
  8
0
100
AcDbBlockBegin
 62
2
  6
CONTINUOUS
  2
*D20
 70
65
 10
0.0
 20
0.0
  3
*D20
  1

  0
TEXT
  5
77F
100
AcDbEntity
  8
0
100
AcDbText
 62
5
  6
CONTINUOUS
 10
181.21046495
 20
687.9168838461
  7
STANDARD
 40
2.5
  1
712
 50
90.0
 72
5
 11
181.21046495
 21
693.7440213925
100
AcDbText
  0
LINE
  5
780
100
AcDbEntity
  8
0
100
AcDbLine
 62
2
  6
CONTINUOUS
 10
154.6178315725
 20
1046.8304526193
 11
182.83546495
 21
1046.8304526193
  0
LINE
  5
781
100
AcDbEntity
  8
0
100
AcDbLine
 62
2
  6
CONTINUOUS
 10
140.63546495
 20
334.8304526193
 11
182.83546495
 21
334.8304526193
  0
LINE
  5
782
100
AcDbEntity
  8
0
100
AcDbLine
 62
2
  6
CONTINUOUS
 10
181.83546495
 20
1046.8304526193
 11
181.83546495
 21
690.8304526193
  0
LINE
  5
783
100
AcDbEntity
  8
0
100
AcDbLine
 62
2
  6
CONTINUOUS
 10
181.83546495
 20
334.8304526193
 11
181.83546495
 21
690.8304526193
  0
INSERT
  5
784
100
AcDbEntity
  8
0
100
AcDbBlockReference
 62
2
  6
CONTINUOUS
  2
_FILLED
 10
181.83546495
 20
1046.8304526193
 41
3.5
 42
3.5
 43
3.5
 50
90.0
  0
INSERT
  5
785
100
AcDbEntity
  8
0
100
AcDbBlockReference
 62
2
  6
CONTINUOUS
  2
_FILLED
 10
181.83546495
 20
334.8304526193
 41
3.5
 42
3.5
 43
3.5
 50
270.0
  0
ENDBLK
  5
786
100
AcDbEntity
  8
0
  6
BYBLOCK
 62
0
100
AcDbBlockEnd
  0
BLOCK
  5
787
100
AcDbEntity
  8
0
100
AcDbBlockBegin
 62
2
  6
CONTINUOUS
  2
*D21
 70
65
 10
0.0
 20
0.0
  3
*D21
  1

  0
TEXT
  5
788
100
AcDbEntity
  8
0
100
AcDbText
 62
5
  6
CONTINUOUS
 10
188.21046495
 20
639.9168838461
  7
STANDARD
 40
2.5
  1
808
 50
90.0
 72
5
 11
188.21046495
 21
645.7440213925
100
AcDbText
  0
LINE
  5
789
100
AcDbEntity
  8
0
100
AcDbLine
 62
2
  6
CONTINUOUS
 10
154.6178315725
 20
1046.8304526193
 11
189.83546495
 21
1046.8304526193
  0
LINE
  5
78A
100
AcDbEntity
  8
0
100
AcDbLine
 62
2
  6
CONTINUOUS
 10
140.63546495
 20
238.8304526193
 11
189.83546495
 21
238.8304526193
  0
LINE
  5
78B
100
AcDbEntity
  8
0
100
AcDbLine
 62
2
  6
CONTINUOUS
 10
188.83546495
 20
1046.8304526193
 11
188.83546495
 21
642.8304526193
  0
LINE
  5
78C
100
AcDbEntity
  8
0
100
AcDbLine
 62
2
  6
CONTINUOUS
 10
188.83546495
 20
238.8304526193
 11
188.83546495
 21
642.8304526193
  0
INSERT
  5
78D
100
AcDbEntity
  8
0
100
AcDbBlockReference
 62
2
  6
CONTINUOUS
  2
_FILLED
 10
188.83546495
 20
1046.8304526193
 41
3.5
 42
3.5
 43
3.5
 50
90.0
  0
INSERT
  5
78E
100
AcDbEntity
  8
0
100
AcDbBlockReference
 62
2
  6
CONTINUOUS
  2
_FILLED
 10
188.83546495
 20
238.8304526193
 41
3.5
 42
3.5
 43
3.5
 50
270.0
  0
ENDBLK
  5
78F
100
AcDbEntity
  8
0
  6
BYBLOCK
 62
0
100
AcDbBlockEnd
  0
BLOCK
  5
790
100
AcDbEntity
  8
0
100
AcDbBlockBegin
 62
2
  6
CONTINUOUS
  2
*D22
 70
65
 10
0.0
 20
0.0
  3
*D22
  1

  0
TEXT
  5
791
100
AcDbEntity
  8
0
100
AcDbText
 62
5
  6
CONTINUOUS
 10
195.21046495
 20
604.9168838461
  7
STANDARD
 40
2.5
  1
878
 50
90.0
 72
5
 11
195.21046495
 21
610.7440213925
100
AcDbText
  0
LINE
  5
792
100
AcDbEntity
  8
0
100
AcDbLine
 62
2
  6
CONTINUOUS
 10
154.6178315725
 20
1046.8304526193
 11
196.83546495
 21
1046.8304526193
  0
LINE
  5
793
100
AcDbEntity
  8
0
100
AcDbLine
 62
2
  6
CONTINUOUS
 10
140.63546495
 20
168.8304526193
 11
196.83546495
 21
168.8304526193
  0
LINE
  5
794
100
AcDbEntity
  8
0
100
AcDbLine
 62
2
  6
CONTINUOUS
 10
195.83546495
 20
1046.8304526193
 11
195.83546495
 21
607.8304526193
  0
LINE
  5
795
100
AcDbEntity
  8
0
100
AcDbLine
 62
2
  6
CONTINUOUS
 10
195.83546495
 20
168.8304526193
 11
195.83546495
 21
607.8304526193
  0
INSERT
  5
796
100
AcDbEntity
  8
0
100
AcDbBlockReference
 62
2
  6
CONTINUOUS
  2
_FILLED
 10
195.83546495
 20
1046.8304526193
 41
3.5
 42
3.5
 43
3.5
 50
90.0
  0
INSERT
  5
797
100
AcDbEntity
  8
0
100
AcDbBlockReference
 62
2
  6
CONTINUOUS
  2
_FILLED
 10
195.83546495
 20
168.8304526193
 41
3.5
 42
3.5
 43
3.5
 50
270.0
  0
ENDBLK
  5
798
100
AcDbEntity
  8
0
  6
BYBLOCK
 62
0
100
AcDbBlockEnd
  0
BLOCK
  5
799
100
AcDbEntity
  8
0
100
AcDbBlockBegin
 62
2
  6
CONTINUOUS
  2
*D23
 70
65
 10
0.0
 20
0.0
  3
*D23
  1

  0
TEXT
  5
79A
100
AcDbEntity
  8
0
100
AcDbText
 62
5
  6
CONTINUOUS
 10
160.21046495
 20
1086.8880734371
  7
STANDARD
 40
2.5
  1
84
 50
90.0
 72
5
 11
160.21046495
 21
1090.7728318014
100
AcDbText
  0
LINE
  5
79B
100
AcDbEntity
  8
0
100
AcDbLine
 62
2
  6
CONTINUOUS
 10
154.6178315725
 20
1046.8304526193
 11
161.83546495
 21
1046.8304526193
  0
LINE
  5
79C
100
AcDbEntity
  8
0
100
AcDbLine
 62
2
  6
CONTINUOUS
 10
140.63546495
 20
1130.8304526193
 11
161.83546495
 21
1130.8304526193
  0
LINE
  5
79D
100
AcDbEntity
  8
0
100
AcDbLine
 62
2
  6
CONTINUOUS
 10
160.83546495
 20
1046.8304526193
 11
160.83546495
 21
1088.8304526193
  0
LINE
  5
79E
100
AcDbEntity
  8
0
100
AcDbLine
 62
2
  6
CONTINUOUS
 10
160.83546495
 20
1130.8304526193
 11
160.83546495
 21
1088.8304526193
  0
INSERT
  5
79F
100
AcDbEntity
  8
0
100
AcDbBlockReference
 62
2
  6
CONTINUOUS
  2
_FILLED
 10
160.83546495
 20
1046.8304526193
 41
3.5
 42
3.5
 43
3.5
 50
270.0
  0
INSERT
  5
7A0
100
AcDbEntity
  8
0
100
AcDbBlockReference
 62
2
  6
CONTINUOUS
  2
_FILLED
 10
160.83546495
 20
1130.8304526193
 41
3.5
 42
3.5
 43
3.5
 50
90.0
  0
ENDBLK
  5
7A1
100
AcDbEntity
  8
0
  6
BYBLOCK
 62
0
100
AcDbBlockEnd
  0
BLOCK
  5
7A2
100
AcDbEntity
  8
0
100
AcDbBlockBegin
 62
2
  6
CONTINUOUS
  2
*D24
 70
65
 10
0.0
 20
0.0
  3
*D24
  1

  0
TEXT
  5
7A3
100
AcDbEntity
  8
0
100
AcDbText
 62
5
  6
CONTINUOUS
 10
167.21046495
 20
1244.4168838461
  7
STANDARD
 40
2.5
  1
401
 50
90.0
 72
5
 11
167.21046495
 21
1250.2440213925
100
AcDbText
  0
LINE
  5
7A4
100
AcDbEntity
  8
0
100
AcDbLine
 62
2
  6
CONTINUOUS
 10
154.6178315725
 20
1046.8304526193
 11
168.83546495
 21
1046.8304526193
  0
LINE
  5
7A5
100
AcDbEntity
  8
0
100
AcDbLine
 62
2
  6
CONTINUOUS
 10
140.63546495
 20
1447.8304526193
 11
168.83546495
 21
1447.8304526193
  0
LINE
  5
7A6
100
AcDbEntity
  8
0
100
AcDbLine
 62
2
  6
CONTINUOUS
 10
167.83546495
 20
1046.8304526193
 11
167.83546495
 21
1247.3304526193
  0
LINE
  5
7A7
100
AcDbEntity
  8
0
100
AcDbLine
 62
2
  6
CONTINUOUS
 10
167.83546495
 20
1447.8304526193
 11
167.83546495
 21
1247.3304526193
  0
INSERT
  5
7A8
100
AcDbEntity
  8
0
100
AcDbBlockReference
 62
2
  6
CONTINUOUS
  2
_FILLED
 10
167.83546495
 20
1046.8304526193
 41
3.5
 42
3.5
 43
3.5
 50
270.0
  0
INSERT
  5
7A9
100
AcDbEntity
  8
0
100
AcDbBlockReference
 62
2
  6
CONTINUOUS
  2
_FILLED
 10
167.83546495
 20
1447.8304526193
 41
3.5
 42
3.5
 43
3.5
 50
90.0
  0
ENDBLK
  5
7AA
100
AcDbEntity
  8
0
  6
BYBLOCK
 62
0
100
AcDbBlockEnd
  0
BLOCK
  5
7AB
100
AcDbEntity
  8
0
100
AcDbBlockBegin
 62
2
  6
CONTINUOUS
  2
*D25
 70
65
 10
0.0
 20
0.0
  3
*D25
  1

  0
TEXT
  5
7AC
100
AcDbEntity
  8
0
100
AcDbText
 62
5
  6
CONTINUOUS
 10
174.21046495
 20
1383.9168838461
  7
STANDARD
 40
2.5
  1
680
 50
90.0
 72
5
 11
174.21046495
 21
1389.7440213925
100
AcDbText
  0
LINE
  5
7AD
100
AcDbEntity
  8
0
100
AcDbLine
 62
2
  6
CONTINUOUS
 10
154.6178315725
 20
1046.8304526193
 11
175.83546495
 21
1046.8304526193
  0
LINE
  5
7AE
100
AcDbEntity
  8
0
100
AcDbLine
 62
2
  6
CONTINUOUS
 10
140.63546495
 20
1726.8304526193
 11
175.83546495
 21
1726.8304526193
  0
LINE
  5
7AF
100
AcDbEntity
  8
0
100
AcDbLine
 62
2
  6
CONTINUOUS
 10
174.83546495
 20
1046.8304526193
 11
174.83546495
 21
1386.8304526193
  0
LINE
  5
7B0
100
AcDbEntity
  8
0
100
AcDbLine
 62
2
  6
CONTINUOUS
 10
174.83546495
 20
1726.8304526193
 11
174.83546495
 21
1386.8304526193
  0
INSERT
  5
7B1
100
AcDbEntity
  8
0
100
AcDbBlockReference
 62
2
  6
CONTINUOUS
  2
_FILLED
 10
174.83546495
 20
1046.8304526193
 41
3.5
 42
3.5
 43
3.5
 50
270.0
  0
INSERT
  5
7B2
100
AcDbEntity
  8
0
100
AcDbBlockReference
 62
2
  6
CONTINUOUS
  2
_FILLED
 10
174.83546495
 20
1726.8304526193
 41
3.5
 42
3.5
 43
3.5
 50
90.0
  0
ENDBLK
  5
7B3
100
AcDbEntity
  8
0
  6
BYBLOCK
 62
0
100
AcDbBlockEnd
  0
BLOCK
  5
7B4
100
AcDbEntity
  8
0
100
AcDbBlockBegin
 62
2
  6
CONTINUOUS
  2
*D26
 70
65
 10
0.0
 20
0.0
  3
*D26
  1

  0
TEXT
  5
7B5
100
AcDbEntity
  8
0
100
AcDbText
 62
5
  6
CONTINUOUS
 10
181.21046495
 20
1433.9168838461
  7
STANDARD
 40
2.5
  1
780
 50
90.0
 72
5
 11
181.21046495
 21
1439.7440213925
100
AcDbText
  0
LINE
  5
7B6
100
AcDbEntity
  8
0
100
AcDbLine
 62
2
  6
CONTINUOUS
 10
154.6178315725
 20
1046.8304526193
 11
182.83546495
 21
1046.8304526193
  0
LINE
  5
7B7
100
AcDbEntity
  8
0
100
AcDbLine
 62
2
  6
CONTINUOUS
 10
140.63546495
 20
1826.8304526193
 11
182.83546495
 21
1826.8304526193
  0
LINE
  5
7B8
100
AcDbEntity
  8
0
100
AcDbLine
 62
2
  6
CONTINUOUS
 10
181.83546495
 20
1046.8304526193
 11
181.83546495
 21
1436.8304526193
  0
LINE
  5
7B9
100
AcDbEntity
  8
0
100
AcDbLine
 62
2
  6
CONTINUOUS
 10
181.83546495
 20
1826.8304526193
 11
181.83546495
 21
1436.8304526193
  0
INSERT
  5
7BA
100
AcDbEntity
  8
0
100
AcDbBlockReference
 62
2
  6
CONTINUOUS
  2
_FILLED
 10
181.83546495
 20
1046.8304526193
 41
3.5
 42
3.5
 43
3.5
 50
270.0
  0
INSERT
  5
7BB
100
AcDbEntity
  8
0
100
AcDbBlockReference
 62
2
  6
CONTINUOUS
  2
_FILLED
 10
181.83546495
 20
1826.8304526193
 41
3.5
 42
3.5
 43
3.5
 50
90.0
  0
ENDBLK
  5
7BC
100
AcDbEntity
  8
0
  6
BYBLOCK
 62
0
100
AcDbBlockEnd
  0
BLOCK
  5
7BD
100
AcDbEntity
  8
0
100
AcDbBlockBegin
 62
2
  6
CONTINUOUS
  2
*D27
 70
65
 10
0.0
 20
0.0
  3
*D27
  1

  0
TEXT
  5
7BE
100
AcDbEntity
  8
0
100
AcDbText
 62
5
  6
CONTINUOUS
 10
188.21046495
 20
1467.9168838461
  7
STANDARD
 40
2.5
  1
848
 50
90.0
 72
5
 11
188.21046495
 21
1473.7440213925
100
AcDbText
  0
LINE
  5
7BF
100
AcDbEntity
  8
0
100
AcDbLine
 62
2
  6
CONTINUOUS
 10
154.6178315725
 20
1046.8304526193
 11
189.83546495
 21
1046.8304526193
  0
LINE
  5
7C0
100
AcDbEntity
  8
0
100
AcDbLine
 62
2
  6
CONTINUOUS
 10
140.63546495
 20
1894.8304526193
 11
189.83546495
 21
1894.8304526193
  0
LINE
  5
7C1
100
AcDbEntity
  8
0
100
AcDbLine
 62
2
  6
CONTINUOUS
 10
188.83546495
 20
1046.8304526193
 11
188.83546495
 21
1470.8304526193
  0
LINE
  5
7C2
100
AcDbEntity
  8
0
100
AcDbLine
 62
2
  6
CONTINUOUS
 10
188.83546495
 20
1894.8304526193
 11
188.83546495
 21
1470.8304526193
  0
INSERT
  5
7C3
100
AcDbEntity
  8
0
100
AcDbBlockReference
 62
2
  6
CONTINUOUS
  2
_FILLED
 10
188.83546495
 20
1046.8304526193
 41
3.5
 42
3.5
 43
3.5
 50
270.0
  0
INSERT
  5
7C4
100
AcDbEntity
  8
0
100
AcDbBlockReference
 62
2
  6
CONTINUOUS
  2
_FILLED
 10
188.83546495
 20
1894.8304526193
 41
3.5
 42
3.5
 43
3.5
 50
90.0
  0
ENDBLK
  5
7C5
100
AcDbEntity
  8
0
  6
BYBLOCK
 62
0
100
AcDbBlockEnd
  0
BLOCK
  5
7C6
100
AcDbEntity
  8
0
100
AcDbBlockBegin
 62
2
  6
CONTINUOUS
  2
*D28
 70
65
 10
0.0
 20
0.0
  3
*D28
  1

  0
TEXT
  5
7C7
100
AcDbEntity
  8
0
100
AcDbText
 62
5
  6
CONTINUOUS
 10
41.3453530144
 20
224.057501381
  7
STANDARD
 40
2.5
  1
21
 72
5
 11
45.2301113787
 21
224.057501381
100
AcDbText
  0
LINE
  5
7C8
100
AcDbEntity
  8
0
100
AcDbLine
 62
2
  6
CONTINUOUS
 10
50.6279901899
 20
269.3180794225
 11
50.6279901899
 21
222.432501381
  0
LINE
  5
7C9
100
AcDbEntity
  8
0
100
AcDbLine
 62
2
  6
CONTINUOUS
 10
50.6279901899
 20
223.432501381
 11
40.1279901899
 21
223.432501381
  0
LINE
  5
7CA
100
AcDbEntity
  8
0
100
AcDbLine
 62
2
  6
CONTINUOUS
 10
29.6279901899
 20
223.432501381
 11
40.1279901899
 21
223.432501381
  0
INSERT
  5
7CB
100
AcDbEntity
  8
0
100
AcDbBlockReference
 62
2
  6
CONTINUOUS
  2
_FILLED
 10
50.6279901899
 20
223.432501381
 41
3.5
 42
3.5
 43
3.5
  0
INSERT
  5
7CC
100
AcDbEntity
  8
0
100
AcDbBlockReference
 62
2
  6
CONTINUOUS
  2
_FILLED
 10
29.6279901899
 20
223.432501381
 41
3.5
 42
3.5
 43
3.5
 50
180.0
  0
ENDBLK
  5
7CD
100
AcDbEntity
  8
0
  6
BYBLOCK
 62
0
100
AcDbBlockEnd
  0
BLOCK
  5
7CE
100
AcDbEntity
  8
0
100
AcDbBlockBegin
 62
2
  6
CONTINUOUS
  2
*D29
 70
65
 10
0.0
 20
0.0
  3
*D29
  1

  0
TEXT
  5
7CF
100
AcDbEntity
  8
0
100
AcDbText
 62
5
  6
CONTINUOUS
 10
60.0029901899
 20
1127.2214067705
  7
TEXTSTYLE_1
 40
2.5
  1
n
 50
90.0
 72
5
 11
60.0029901899
 21
1130.5547401038
100
AcDbText
  0
TEXT
  5
7D0
100
AcDbEntity
  8
0
100
AcDbText
 62
5
  6
CONTINUOUS
 10
60.0029901899
 20
1130.5547401038
  7
STANDARD
 40
2.5
  1
16
 50
90.0
 72
5
 11
60.0029901899
 21
1134.4394984681
100
AcDbText
  0
LINE
  5
7D1
100
AcDbEntity
  8
0
100
AcDbLine
 62
2
  6
CONTINUOUS
 10
39.6279901899
 20
1122.8804526193
 11
61.6279901899
 21
1122.8804526193
  0
LINE
  5
7D2
100
AcDbEntity
  8
0
100
AcDbLine
 62
2
  6
CONTINUOUS
 10
39.6279901899
 20
1138.7804526193
 11
61.6279901899
 21
1138.7804526193
  0
LINE
  5
7D3
100
AcDbEntity
  8
0
100
AcDbLine
 62
2
  6
CONTINUOUS
 10
60.6279901899
 20
1122.8804526193
 11
60.6279901899
 21
1115.8804526193
  0
LINE
  5
7D4
100
AcDbEntity
  8
0
100
AcDbLine
 62
2
  6
CONTINUOUS
 10
60.6279901899
 20
1115.8804526193
 11
60.6279901899
 21
1130.8304526193
  0
LINE
  5
7D5
100
AcDbEntity
  8
0
100
AcDbLine
 62
2
  6
CONTINUOUS
 10
60.6279901899
 20
1138.7804526193
 11
60.6279901899
 21
1145.7804526193
  0
LINE
  5
7D6
100
AcDbEntity
  8
0
100
AcDbLine
 62
2
  6
CONTINUOUS
 10
60.6279901899
 20
1145.7804526193
 11
60.6279901899
 21
1130.8304526193
  0
INSERT
  5
7D7
100
AcDbEntity
  8
0
100
AcDbBlockReference
 62
2
  6
CONTINUOUS
  2
_FILLED
 10
60.6279901899
 20
1122.8804526193
 41
3.5
 42
3.5
 43
3.5
 50
90.0
  0
INSERT
  5
7D8
100
AcDbEntity
  8
0
100
AcDbBlockReference
 62
2
  6
CONTINUOUS
  2
_FILLED
 10
60.6279901899
 20
1138.7804526193
 41
3.5
 42
3.5
 43
3.5
 50
270.0
  0
ENDBLK
  5
7D9
100
AcDbEntity
  8
0
  6
BYBLOCK
 62
0
100
AcDbBlockEnd
  0
BLOCK
  5
7DA
100
AcDbEntity
  8
0
100
AcDbBlockBegin
 62
2
  6
CONTINUOUS
  2
*D30
 70
65
 10
0.0
 20
0.0
  3
*D30
  1

  0
TEXT
  5
7DB
100
AcDbEntity
  8
0
100
AcDbText
 62
5
  6
CONTINUOUS
 10
105.21046495
 20
1011.8880734371
  7
STANDARD
 40
2.5
  1
66
 50
90.0
 72
5
 11
105.21046495
 21
1015.7728318014
100
AcDbText
  0
LINE
  5
7DC
100
AcDbEntity
  8
0
100
AcDbLine
 62
2
  6
CONTINUOUS
 10
128.8975092198
 20
980.8304526193
 11
113.7293863981
 21
980.8304526193
  0
LINE
  5
7DD
100
AcDbEntity
  8
0
100
AcDbLine
 62
2
  6
CONTINUOUS
 10
109.3448510083
 20
980.8304526193
 11
104.83546495
 21
980.8304526193
  0
LINE
  5
7DE
100
AcDbEntity
  8
0
100
AcDbLine
 62
2
  6
CONTINUOUS
 10
119.83546495
 20
1046.8304526193
 11
104.83546495
 21
1046.8304526193
  0
LINE
  5
7DF
100
AcDbEntity
  8
0
100
AcDbLine
 62
2
  6
CONTINUOUS
 10
105.83546495
 20
980.8304526193
 11
105.83546495
 21
1013.8304526193
  0
LINE
  5
7E0
100
AcDbEntity
  8
0
100
AcDbLine
 62
2
  6
CONTINUOUS
 10
105.83546495
 20
1046.8304526193
 11
105.83546495
 21
1013.8304526193
  0
INSERT
  5
7E1
100
AcDbEntity
  8
0
100
AcDbBlockReference
 62
2
  6
CONTINUOUS
  2
_FILLED
 10
105.83546495
 20
980.8304526193
 41
3.5
 42
3.5
 43
3.5
 50
270.0
  0
INSERT
  5
7E2
100
AcDbEntity
  8
0
100
AcDbBlockReference
 62
2
  6
CONTINUOUS
  2
_FILLED
 10
105.83546495
 20
1046.8304526193
 41
3.5
 42
3.5
 43
3.5
 50
90.0
  0
ENDBLK
  5
7E3
100
AcDbEntity
  8
0
  6
BYBLOCK
 62
0
100
AcDbBlockEnd
  0
BLOCK
  5
7E4
100
AcDbEntity
  8
0
100
AcDbBlockBegin
 62
2
  6
CONTINUOUS
  2
*D31
 70
65
 10
0.0
 20
0.0
  3
*D31
  1

  0
TEXT
  5
7E5
100
AcDbEntity
  8
0
100
AcDbText
 62
5
  6
CONTINUOUS
 10
60.0029901899
 20
101.4432294845
  7
STANDARD
 40
2.5
  1
17
 50
90.0
 72
5
 11
60.0029901899
 21
105.3279878489
100
AcDbText
  0
LINE
  5
7E6
100
AcDbEntity
  8
0
100
AcDbLine
 62
2
  6
CONTINUOUS
 10
35.4279901899
 20
94.8856086667
 11
61.6279901899
 21
94.8856086667
  0
LINE
  5
7E7
100
AcDbEntity
  8
0
100
AcDbLine
 62
2
  6
CONTINUOUS
 10
35.4279901899
 20
111.8856086667
 11
61.6279901899
 21
111.8856086667
  0
LINE
  5
7E8
100
AcDbEntity
  8
0
100
AcDbLine
 62
2
  6
CONTINUOUS
 10
60.6279901899
 20
94.8856086667
 11
60.6279901899
 21
103.3856086667
  0
LINE
  5
7E9
100
AcDbEntity
  8
0
100
AcDbLine
 62
2
  6
CONTINUOUS
 10
60.6279901899
 20
111.8856086667
 11
60.6279901899
 21
103.3856086667
  0
INSERT
  5
7EA
100
AcDbEntity
  8
0
100
AcDbBlockReference
 62
2
  6
CONTINUOUS
  2
_FILLED
 10
60.6279901899
 20
94.8856086667
 41
3.5
 42
3.5
 43
3.5
 50
270.0
  0
INSERT
  5
7EB
100
AcDbEntity
  8
0
100
AcDbBlockReference
 62
2
  6
CONTINUOUS
  2
_FILLED
 10
60.6279901899
 20
111.8856086667
 41
3.5
 42
3.5
 43
3.5
 50
90.0
  0
ENDBLK
  5
7EC
100
AcDbEntity
  8
0
  6
BYBLOCK
 62
0
100
AcDbBlockEnd
  0
BLOCK
  5
7ED
100
AcDbEntity
  8
0
100
AcDbBlockBegin
 62
2
  6
CONTINUOUS
  2
*D32
 70
65
 10
0.0
 20
0.0
  3
*D32
  1

  0
TEXT
  5
7EE
100
AcDbEntity
  8
0
100
AcDbText
 62
5
  6
CONTINUOUS
 10
33.1856110078
 20
136.0106086667
  7
STANDARD
 40
2.5
  1
11
 72
5
 11
37.0703693721
 21
136.0106086667
100
AcDbText
  0
LINE
  5
7EF
100
AcDbEntity
  8
0
100
AcDbLine
 62
2
  6
CONTINUOUS
 10
29.6279901899
 20
118.3856086667
 11
29.6279901899
 21
136.3856086667
  0
LINE
  5
7F0
100
AcDbEntity
  8
0
100
AcDbLine
 62
2
  6
CONTINUOUS
 10
40.6279901899
 20
115.3356086667
 11
40.6279901899
 21
136.3856086667
  0
LINE
  5
7F1
100
AcDbEntity
  8
0
100
AcDbLine
 62
2
  6
CONTINUOUS
 10
29.6279901899
 20
135.3856086667
 11
35.1279901899
 21
135.3856086667
  0
LINE
  5
7F2
100
AcDbEntity
  8
0
100
AcDbLine
 62
2
  6
CONTINUOUS
 10
40.6279901899
 20
135.3856086667
 11
35.1279901899
 21
135.3856086667
  0
INSERT
  5
7F3
100
AcDbEntity
  8
0
100
AcDbBlockReference
 62
2
  6
CONTINUOUS
  2
_FILLED
 10
29.6279901899
 20
135.3856086667
 41
3.5
 42
3.5
 43
3.5
 50
180.0
  0
INSERT
  5
7F4
100
AcDbEntity
  8
0
100
AcDbBlockReference
 62
2
  6
CONTINUOUS
  2
_FILLED
 10
40.6279901899
 20
135.3856086667
 41
3.5
 42
3.5
 43
3.5
  0
ENDBLK
  5
7F5
100
AcDbEntity
  8
0
  6
BYBLOCK
 62
0
100
AcDbBlockEnd
  0
BLOCK
  5
7F6
100
AcDbEntity
  8
0
100
AcDbBlockBegin
 62
2
  6
CONTINUOUS
  2
*D33
 70
65
 10
0.0
 20
0.0
  3
*D33
  1

  0
TEXT
  5
7F7
100
AcDbEntity
  8
0
100
AcDbText
 62
5
  6
CONTINUOUS
 10
30.1568005989
 20
129.0106086667
  7
STANDARD
 40
2.5
  1
3
 72
5
 11
32.099179781
 21
129.0106086667
100
AcDbText
  0
LINE
  5
7F8
100
AcDbEntity
  8
0
100
AcDbLine
 62
2
  6
CONTINUOUS
 10
29.6279901899
 20
118.3856086667
 11
29.6279901899
 21
129.3856086667
  0
LINE
  5
7F9
100
AcDbEntity
  8
0
100
AcDbLine
 62
2
  6
CONTINUOUS
 10
32.6279901899
 20
118.3856086667
 11
32.6279901899
 21
129.3856086667
  0
LINE
  5
7FA
100
AcDbEntity
  8
0
100
AcDbLine
 62
2
  6
CONTINUOUS
 10
29.6279901899
 20
128.3856086667
 11
22.6279901899
 21
128.3856086667
  0
LINE
  5
7FB
100
AcDbEntity
  8
0
100
AcDbLine
 62
2
  6
CONTINUOUS
 10
22.6279901899
 20
128.3856086667
 11
31.1279901899
 21
128.3856086667
  0
LINE
  5
7FC
100
AcDbEntity
  8
0
100
AcDbLine
 62
2
  6
CONTINUOUS
 10
32.6279901899
 20
128.3856086667
 11
39.6279901899
 21
128.3856086667
  0
LINE
  5
7FD
100
AcDbEntity
  8
0
100
AcDbLine
 62
2
  6
CONTINUOUS
 10
39.6279901899
 20
128.3856086667
 11
31.1279901899
 21
128.3856086667
  0
INSERT
  5
7FE
100
AcDbEntity
  8
0
100
AcDbBlockReference
 62
2
  6
CONTINUOUS
  2
_FILLED
 10
29.6279901899
 20
128.3856086667
 41
3.5
 42
3.5
 43
3.5
  0
INSERT
  5
7FF
100
AcDbEntity
  8
0
100
AcDbBlockReference
 62
2
  6
CONTINUOUS
  2
_FILLED
 10
32.6279901899
 20
128.3856086667
 41
3.5
 42
3.5
 43
3.5
 50
180.0
  0
ENDBLK
  5
800
100
AcDbEntity
  8
0
  6
BYBLOCK
 62
0
100
AcDbBlockEnd
  0
ENDSEC
  0
SECTION
  2
ENTITIES
  0
DIMENSION
  5
801
100
AcDbEntity
  8
0
100
AcDbDimension
 62
2
  6
CONTINUOUS
  2
*D0
 10
38.6279901899
 20
1916.8304526193
 11
34.1279901899
 21
1916.8304526193
 70
160
 71
2
 42
9.0
  3
DIMSTYLE_1
100
AcDbAlignedDimension
 13
29.6279901899
 23
1906.8304526193
 14
38.6279901899
 24
1898.3451712451
100
AcDbRotatedDimension
  0
DIMENSION
  5
802
100
AcDbEntity
  8
0
100
AcDbDimension
 62
2
  6
CONTINUOUS
  2
*D1
 10
150.83546495
 20
1923.8304526193
 11
136.83546495
 21
1923.8304526193
 70
160
 71
2
 42
28.0
  3
DIMSTYLE_1
100
AcDbAlignedDimension
 13
122.83546495
 23
1898.8304526193
 14
150.83546495
 24
1906.8304526193
100
AcDbRotatedDimension
  0
DIMENSION
  5
803
100
AcDbEntity
  8
0
100
AcDbDimension
 62
2
  6
CONTINUOUS
  2
*D2
 10
84.83546495
 20
156.8304526193
 11
84.83546495
 21
1031.8304526193
 70
160
 71
2
 42
1750.0
  3
DIMSTYLE_2
100
AcDbAlignedDimension
 13
130.83546495
 23
1906.8304526193
 14
130.83546495
 24
156.8304526193
 50
270.0
100
AcDbRotatedDimension
  0
DIMENSION
  5
804
100
AcDbEntity
  8
0
100
AcDbDimension
 62
2
  6
CONTINUOUS
  2
*D3
 10
60.6279901899
 20
323.8304526193
 11
60.6279901899
 21
286.8304526193
 70
160
 71
2
 42
74.0
  3
DIMSTYLE_3
100
AcDbAlignedDimension
 13
38.9133185198
 23
249.8304526193
 14
38.7118043612
 24
323.8304526193
 50
90.0
100
AcDbRotatedDimension
  0
DIMENSION
  5
805
100
AcDbEntity
  8
0
100
AcDbDimension
 62
2
  6
CONTINUOUS
  2
*D4
 10
60.6279901899
 20
1813.8304526193
 11
60.6279901899
 21
1776.8304526193
 70
160
 71
2
 42
74.0
  3
DIMSTYLE_3
100
AcDbAlignedDimension
 13
38.6008354638
 23
1739.8304526193
 14
38.8023496224
 24
1813.8304526193
 50
90.0
100
AcDbRotatedDimension
  0
DIMENSION
  5
806
100
AcDbEntity
  8
0
100
AcDbDimension
 62
2
  6
CONTINUOUS
  2
*D5
 10
60.6279901899
 20
1906.8304526193
 11
60.6279901899
 21
1860.3304526193
 70
160
 71
2
 42
93.0
  3
DIMSTYLE_3
100
AcDbAlignedDimension
 13
38.7015925431
 23
1813.8304526193
 14
32.6279901899
 24
1906.8304526193
 50
90.0
100
AcDbRotatedDimension
  0
DIMENSION
  5
807
100
AcDbEntity
  8
0
100
AcDbDimension
 62
2
  6
CONTINUOUS
  2
*D6
 10
60.6279901899
 20
156.8304526193
 11
60.6279901899
 21
203.3304526193
 70
160
 71
2
 42
93.0
  3
DIMSTYLE_3
100
AcDbAlignedDimension
 13
38.5102902026
 23
249.8304526193
 14
32.6279901899
 24
156.8304526193
 50
270.0
100
AcDbRotatedDimension
  0
DIMENSION
  5
808
100
AcDbEntity
  8
0
100
AcDbDimension
 62
2
  6
CONTINUOUS
  2
*D7
 10
29.6279901899
 20
165.3157339935
 11
42.2562730487
 21
155.7420289903
 70
164
 71
1
 42
9.0
  1
<>
  3
DIMSTYLE_4
100
AcDbRadialDimension
 15
36.1062567016
 25
159.0681694277
  0
DIMENSION
  5
809
100
AcDbEntity
  8
0
100
AcDbDimension
 62
2
  6
CONTINUOUS
  2
*D8
 10
130.83546495
 20
164.8304526193
 11
117.5621119721
 21
157.1871093372
 70
164
 71
3
 42
8.0
  1
<>
  3
DIMSTYLE_4
100
AcDbRadialDimension
 15
124.4435764552
 25
160.0196562747
  0
DIMENSION
  5
80A
100
AcDbEntity
  8
0
100
AcDbDimension
 62
2
  6
CONTINUOUS
  2
*D9
 10
91.83546495
 20
1046.8304526193
 11
91.83546495
 21
601.8304526193
 70
160
 71
2
 42
890.0
  3
DIMSTYLE_5
100
AcDbAlignedDimension
 13
112.2680431936
 23
156.8304526193
 14
119.83546495
 24
1046.8304526193
 50
90.0
100
AcDbRotatedDimension
  0
DIMENSION
  5
80B
100
AcDbEntity
  8
0
100
AcDbDimension
 62
2
  6
CONTINUOUS
  2
*D10
 10
112.83546495
 20
1011.8304526193
 11
112.83546495
 21
980.8304526193
 70
160
 71
2
 42
62.0
  3
DIMSTYLE_3
100
AcDbAlignedDimension
 13
133.21046495
 23
949.8304526193
 14
133.21046495
 24
1011.8304526193
 50
90.0
100
AcDbRotatedDimension
  0
DIMENSION
  5
80C
100
AcDbEntity
  8
0
100
AcDbDimension
 62
2
  6
CONTINUOUS
  2
*D11
 10
150.83546495
 20
939.8304526193
 11
144.33546495
 21
939.8304526193
 70
160
 71
2
 42
13.0
  3
DIMSTYLE_1
100
AcDbAlignedDimension
 13
137.83546495
 23
947.8960577363
 14
150.83546495
 24
1047.6804526193
100
AcDbRotatedDimension
  0
DIMENSION
  5
80D
100
AcDbEntity
  8
0
100
AcDbDimension
 62
2
  6
CONTINUOUS
  2
*D12
 10
131.71046495
 20
932.8304526193
 11
137.83546495
 21
932.8304526193
 70
160
 71
2
 42
12.25
  3
DIMSTYLE_6
100
AcDbAlignedDimension
 13
143.96046495
 23
951.3304526193
 14
131.71046495
 24
951.3304526193
 50
180.0
100
AcDbRotatedDimension
  0
DIMENSION
  5
80E
100
AcDbEntity
  8
0
100
AcDbDimension
 62
2
  6
CONTINUOUS
  2
*D13
 10
112.83546495
 20
1046.8304526193
 11
112.83546495
 21
1059.3304526193
 70
160
 71
2
 42
25.0
  3
DIMSTYLE_1
100
AcDbAlignedDimension
 13
124.33546495
 23
1071.8304526193
 14
119.83546495
 24
1046.8304526193
 50
270.0
100
AcDbRotatedDimension
  0
DIMENSION
  5
80F
100
AcDbEntity
  8
0
100
AcDbDimension
 62
2
  6
CONTINUOUS
  2
*D14
 10
132.83546495
 20
1916.8304526193
 11
141.83546495
 21
1916.8304526193
 70
160
 71
2
 42
18.0
  3
DIMSTYLE_1
100
AcDbAlignedDimension
 13
150.83546495
 23
1906.8304526193
 14
132.83546495
 24
1902.6304526193
 50
180.0
100
AcDbRotatedDimension
  0
DIMENSION
  5
810
100
AcDbEntity
  8
0
100
AcDbDimension
 62
2
  6
CONTINUOUS
  2
*D15
 10
105.83546495
 20
1776.8304526193
 11
105.83546495
 21
1411.8304526193
 70
160
 71
2
 42
730.0
  3
DIMSTYLE_5
100
AcDbAlignedDimension
 13
119.83546495
 23
1046.8304526193
 14
124.08546495
 24
1776.8304526193
 50
90.0
100
AcDbRotatedDimension
  0
DIMENSION
  5
811
100
AcDbEntity
  8
0
100
AcDbDimension
 62
2
  6
CONTINUOUS
  2
*D16
 10
98.83546495
 20
286.8304526193
 11
98.83546495
 21
666.8304526193
 70
160
 71
2
 42
760.0
  3
DIMSTYLE_5
100
AcDbAlignedDimension
 13
119.83546495
 23
1046.8304526193
 14
124.08546495
 24
286.8304526193
 50
270.0
100
AcDbRotatedDimension
  0
DIMENSION
  5
812
100
AcDbEntity
  8
0
100
AcDbDimension
 62
2
  6
CONTINUOUS
  2
*D17
 10
160.83546495
 20
1021.8304526193
 11
160.83546495
 21
1034.3304526193
 70
160
 71
2
 42
25.0
  3
DIMSTYLE_1
100
AcDbAlignedDimension
 13
154.6178315725
 23
1046.8304526193
 14
140.63546495
 24
1021.8304526193
 50
270.0
100
AcDbRotatedDimension
  0
DIMENSION
  5
813
100
AcDbEntity
  8
0
100
AcDbDimension
 62
2
  6
CONTINUOUS
  2
*D18
 10
167.83546495
 20
920.8304526193
 11
167.83546495
 21
983.8304526193
 70
160
 71
2
 42
126.0
  3
DIMSTYLE_7
100
AcDbAlignedDimension
 13
154.6178315725
 23
1046.8304526193
 14
140.63546495
 24
920.8304526193
 50
270.0
100
AcDbRotatedDimension
  0
DIMENSION
  5
814
100
AcDbEntity
  8
0
100
AcDbDimension
 62
2
  6
CONTINUOUS
  2
*D19
 10
174.83546495
 20
633.8304526193
 11
174.83546495
 21
840.3304526193
 70
160
 71
2
 42
413.0
  3
DIMSTYLE_5
100
AcDbAlignedDimension
 13
154.6178315725
 23
1046.8304526193
 14
140.63546495
 24
633.8304526193
 50
270.0
100
AcDbRotatedDimension
  0
DIMENSION
  5
815
100
AcDbEntity
  8
0
100
AcDbDimension
 62
2
  6
CONTINUOUS
  2
*D20
 10
181.83546495
 20
334.8304526193
 11
181.83546495
 21
690.8304526193
 70
160
 71
2
 42
712.0
  3
DIMSTYLE_5
100
AcDbAlignedDimension
 13
154.6178315725
 23
1046.8304526193
 14
140.63546495
 24
334.8304526193
 50
270.0
100
AcDbRotatedDimension
  0
DIMENSION
  5
816
100
AcDbEntity
  8
0
100
AcDbDimension
 62
2
  6
CONTINUOUS
  2
*D21
 10
188.83546495
 20
238.8304526193
 11
188.83546495
 21
642.8304526193
 70
160
 71
2
 42
808.0
  3
DIMSTYLE_5
100
AcDbAlignedDimension
 13
154.6178315725
 23
1046.8304526193
 14
140.63546495
 24
238.8304526193
 50
270.0
100
AcDbRotatedDimension
  0
DIMENSION
  5
817
100
AcDbEntity
  8
0
100
AcDbDimension
 62
2
  6
CONTINUOUS
  2
*D22
 10
195.83546495
 20
168.8304526193
 11
195.83546495
 21
607.8304526193
 70
160
 71
2
 42
878.0
  3
DIMSTYLE_5
100
AcDbAlignedDimension
 13
154.6178315725
 23
1046.8304526193
 14
140.63546495
 24
168.8304526193
 50
270.0
100
AcDbRotatedDimension
  0
DIMENSION
  5
818
100
AcDbEntity
  8
0
100
AcDbDimension
 62
2
  6
CONTINUOUS
  2
*D23
 10
160.83546495
 20
1130.8304526193
 11
160.83546495
 21
1088.8304526193
 70
160
 71
2
 42
84.0
  3
DIMSTYLE_3
100
AcDbAlignedDimension
 13
154.6178315725
 23
1046.8304526193
 14
140.63546495
 24
1130.8304526193
 50
90.0
100
AcDbRotatedDimension
  0
DIMENSION
  5
819
100
AcDbEntity
  8
0
100
AcDbDimension
 62
2
  6
CONTINUOUS
  2
*D24
 10
167.83546495
 20
1447.8304526193
 11
167.83546495
 21
1247.3304526193
 70
160
 71
2
 42
401.0
  3
DIMSTYLE_5
100
AcDbAlignedDimension
 13
154.6178315725
 23
1046.8304526193
 14
140.63546495
 24
1447.8304526193
 50
90.0
100
AcDbRotatedDimension
  0
DIMENSION
  5
81A
100
AcDbEntity
  8
0
100
AcDbDimension
 62
2
  6
CONTINUOUS
  2
*D25
 10
174.83546495
 20
1726.8304526193
 11
174.83546495
 21
1386.8304526193
 70
160
 71
2
 42
680.0
  3
DIMSTYLE_5
100
AcDbAlignedDimension
 13
154.6178315725
 23
1046.8304526193
 14
140.63546495
 24
1726.8304526193
 50
90.0
100
AcDbRotatedDimension
  0
DIMENSION
  5
81B
100
AcDbEntity
  8
0
100
AcDbDimension
 62
2
  6
CONTINUOUS
  2
*D26
 10
181.83546495
 20
1826.8304526193
 11
181.83546495
 21
1436.8304526193
 70
160
 71
2
 42
780.0
  3
DIMSTYLE_5
100
AcDbAlignedDimension
 13
154.6178315725
 23
1046.8304526193
 14
140.63546495
 24
1826.8304526193
 50
90.0
100
AcDbRotatedDimension
  0
DIMENSION
  5
81C
100
AcDbEntity
  8
0
100
AcDbDimension
 62
2
  6
CONTINUOUS
  2
*D27
 10
188.83546495
 20
1894.8304526193
 11
188.83546495
 21
1470.8304526193
 70
160
 71
2
 42
848.0
  3
DIMSTYLE_5
100
AcDbAlignedDimension
 13
154.6178315725
 23
1046.8304526193
 14
140.63546495
 24
1894.8304526193
 50
90.0
100
AcDbRotatedDimension
  0
DIMENSION
  5
81D
100
AcDbEntity
  8
0
100
AcDbDimension
 62
2
  6
CONTINUOUS
  2
*D28
 10
29.6279901899
 20
223.432501381
 11
43.2877321965
 21
223.432501381
 70
160
 71
2
 42
21.0
  3
DIMSTYLE_1
100
AcDbAlignedDimension
 13
50.6279901899
 23
269.3180794225
 14
29.6279901899
 24
156.8304526193
 50
180.0
100
AcDbRotatedDimension
  0
DIMENSION
  5
81E
100
AcDbEntity
  8
0
100
AcDbDimension
 62
2
  6
CONTINUOUS
  2
*D29
 10
60.6279901899
 20
1138.7804526193
 11
60.6279901899
 21
1130.8304526193
 70
160
 71
2
 42
15.9
  1
%%c<>
  3
DIMSTYLE_8
100
AcDbAlignedDimension
 13
39.6279901899
 23
1122.8804526193
 14
39.6279901899
 24
1138.7804526193
 50
90.0
100
AcDbRotatedDimension
  0
DIMENSION
  5
81F
100
AcDbEntity
  8
0
100
AcDbDimension
 62
2
  6
CONTINUOUS
  2
*D30
 10
105.83546495
 20
1046.8304526193
 11
105.83546495
 21
1013.8304526193
 70
160
 71
2
 42
66.0
  3
DIMSTYLE_3
100
AcDbAlignedDimension
 13
128.8975092198
 23
980.8304526193
 14
119.83546495
 24
1046.8304526193
 50
90.0
100
AcDbRotatedDimension
  0
DIMENSION
  5
820
100
AcDbEntity
  8
0
100
AcDbDimension
 62
2
  6
CONTINUOUS
  2
*D31
 10
60.6279901899
 20
111.8856086667
 11
60.6279901899
 21
103.3856086667
 70
160
 71
2
 42
17.0
  3
DIMSTYLE_1
100
AcDbAlignedDimension
 13
35.4279901899
 23
94.8856086667
 14
35.4279901899
 24
111.8856086667
 50
90.0
100
AcDbRotatedDimension
  0
DIMENSION
  5
821
100
AcDbEntity
  8
0
100
AcDbDimension
 62
2
  6
CONTINUOUS
  2
*D32
 10
40.6279901899
 20
135.3856086667
 11
35.1279901899
 21
135.3856086667
 70
160
 71
2
 42
11.0
  3
DIMSTYLE_1
100
AcDbAlignedDimension
 13
29.6279901899
 23
118.3856086667
 14
40.6279901899
 24
115.3356086667
100
AcDbRotatedDimension
  0
DIMENSION
  5
822
100
AcDbEntity
  8
0
100
AcDbDimension
 62
2
  6
CONTINUOUS
  2
*D33
 10
32.6279901899
 20
128.3856086667
 11
31.1279901899
 21
128.3856086667
 70
160
 71
2
 42
3.0
  3
DIMSTYLE_9
100
AcDbAlignedDimension
 13
29.6279901899
 23
118.3856086667
 14
32.6279901899
 24
118.3856086667
100
AcDbRotatedDimension
  0
TEXT
  5
823
100
AcDbEntity
  8
0
100
AcDbText
 62
5
  6
CONTINUOUS
 10
32.0373875934
 20
76.3071935062
  7
STANDARD
 40
5.0
  1
A-A
 72
5
 11
43.6544879652
 21
76.3071935062
100
AcDbText
  0
INSERT
  5
824
100
AcDbEntity
  8
0
100
AcDbBlockReference
 62
2
  6
CONTINUOUS
  2
SYMBOL_0_BL23
 10
31.0000000239
 20
34.9999999785
  0
LINE
  5
825
100
AcDbEntity
  8
S-AXIS
100
AcDbLine
 62
7
  6
CENTER
 10
154.6178315725
 20
1046.8304526193
 11
119.83546495
 21
1046.8304526193
  0
LINE
  5
826
100
AcDbEntity
  8
S-AXIS
100
AcDbLine
 62
7
  6
CENTER
 10
43.892171344
 20
1046.8304526193
 11
24.3704872311
 21
1046.8304526193
  0
LINE
  5
827
100
AcDbEntity
  8
S-AXIS
100
AcDbLine
 62
7
  6
CENTER
 10
53.6279901899
 20
104.3856086667
 11
26.6279901899
 21
104.3856086667
  0
INSERT
  5
828
100
AcDbEntity
  8
HATCHING_BL0
100
AcDbBlockReference
  2
HATCHING_BL0
 10
34.831283092
 20
1827.6438436099
  0
INSERT
  5
829
100
AcDbEntity
  8
95060701L00_BL1
100
AcDbBlockReference
  2
95060701L00_BL1
 10
88.73172757
 20
998.8653899559
  0
INSERT
  5
82A
100
AcDbEntity
  8
94528902000_M_BL2
100
AcDbBlockReference
  2
94528902000_M_BL2
 10
90.9831247445
 20
256.7304526193
  0
INSERT
  5
82B
100
AcDbEntity
  8
95056301000_BL3
100
AcDbBlockReference
  2
95056301000_BL3
 10
90.606727569
 20
211.9944830682
  0
INSERT
  5
82C
100
AcDbEntity
  8
94528902000_M_BL4
100
AcDbBlockReference
  2
94528902000_M_BL4
 10
90.9831247445
 20
316.9304526193
  0
INSERT
  5
82D
100
AcDbEntity
  8
95056301000_BL5
100
AcDbBlockReference
  2
95056301000_BL5
 10
90.606727569
 20
955.483030643
  0
INSERT
  5
82E
100
AcDbEntity
  8
94528902000_M_BL6
100
AcDbBlockReference
  2
94528902000_M_BL6
 10
90.63172757
 20
956.408030643
  0
INSERT
  5
82F
100
AcDbEntity
  8
94528902000_M_BL7
100
AcDbBlockReference
  2
94528902000_M_BL7
 10
90.9831247445
 20
1746.7304526193
  0
INSERT
  5
830
100
AcDbEntity
  8
93894203000_BL8
100
AcDbBlockReference
  2
93894203000_BL8
 10
87.48172757
 20
1071.8304526193
  0
INSERT
  5
831
100
AcDbEntity
  8
93780800R00_BL9
100
AcDbBlockReference
  2
93780800R00_BL9
 10
133.33546495
 20
1087.3304526193
  0
INSERT
  5
832
100
AcDbEntity
  8
93894134000_BL10
100
AcDbBlockReference
  2
93894134000_BL10
 10
88.83172757
 20
594.608030643
  0
INSERT
  5
833
100
AcDbEntity
  8
93780800R00_BL11
100
AcDbBlockReference
  2
93780800R00_BL11
 10
133.916108705
 20
1056.3304526193
  0
INSERT
  5
834
100
AcDbEntity
  8
62890209000_BL12
100
AcDbBlockReference
  2
62890209000_BL12
 10
137.88546495
 20
1071.8304526193
  0
INSERT
  5
835
100
AcDbEntity
  8
93866300000_M_BL13
100
AcDbBlockReference
  2
93866300000_M_BL13
 10
82.3979934473
 20
238.8304526193
  0
INSERT
  5
836
100
AcDbEntity
  8
93866300000_M_BL14
100
AcDbBlockReference
  2
93866300000_M_BL14
 10
82.3979934473
 20
334.8304526193
  0
INSERT
  5
837
100
AcDbEntity
  8
93866300000_M_BL15
100
AcDbBlockReference
  2
93866300000_M_BL15
 10
82.3979934473
 20
1826.8304526193
  0
INSERT
  5
838
100
AcDbEntity
  8
93866300000_M_BL16
100
AcDbBlockReference
  2
93866300000_M_BL16
 10
82.3979934473
 20
922.708030643
  0
INSERT
  5
839
100
AcDbEntity
  8
93866300000_M_BL17
100
AcDbBlockReference
  2
93866300000_M_BL17
 10
82.3979934473
 20
920.8304526193
  0
INSERT
  5
83A
100
AcDbEntity
  8
93866300000_M_BL18
100
AcDbBlockReference
  2
93866300000_M_BL18
 10
82.3979934473
 20
1130.8304526193
  0
INSERT
  5
83B
100
AcDbEntity
  8
93866300000_M_BL19
100
AcDbBlockReference
  2
93866300000_M_BL19
 10
82.3979934473
 20
1021.8304526193
  0
INSERT
  5
83C
100
AcDbEntity
  8
91511100000_BL20
100
AcDbBlockReference
  2
91511100000_BL20
 10
37.3279901899
 20
103.3856086667
  0
INSERT
  5
83D
100
AcDbEntity
  8
91324208R00_BL21
100
AcDbBlockReference
  2
91324208R00_BL21
 10
135.33546495
 20
1045.5804526193
  0
INSERT
  5
83E
100
AcDbEntity
  8
91324208R00_BL22
100
AcDbBlockReference
  2
91324208R00_BL22
 10
135.33546495
 20
1098.0804526193
  0
ENDSEC
  0
SECTION
  2
OBJECTS
  0
DICTIONARY
  5
C
100
AcDbDictionary
280
0
281
1
  3
ACAD_GROUP
350
D
  3
ACAD_MLINESTYLE
350
17
  3
ACAD_LAYOUT
350
1A
  3
ACAD_PLOTSETTINGS
350
19
  3
ACAD_PLOTSTYLENAME
350
E
  0
DICTIONARY
  5
D
102
{ACAD_REACTORS
330
C
102
}
100
AcDbDictionary
280
0
281
1
  0
ACDBDICTIONARYWDFLT
  5
E
102
{ACAD_REACTORS
330
C
102
}
100
AcDbDictionary
281
1
  3
Normal
350
F
100
AcDbDictionaryWithDefault
340
F
  0
DICTIONARY
  5
17
102
{ACAD_REACTORS
330
C
102
}
100
AcDbDictionary
280
0
281
1
  3
Standard
350
18
  0
DICTIONARY
  5
19
102
{ACAD_REACTORS
330
C
102
}
100
AcDbDictionary
281
1
  0
DICTIONARY
  5
1A
102
{ACAD_REACTORS
330
C
102
}
100
AcDbDictionary
281
1
  3
Model
350
83F
  3
Layout1
350
840
  0
ACDBPLACEHOLDER
  5
F
102
{ACAD_REACTORS
330
E
102
}
  0
MLINESTYLE
  5
18
102
{ACAD_REACTORS
330
17
102
}
100
AcDbMlineStyle
  2
STANDARD
 70
0
  3

 62
256
 51
90.0
 52
90.0
 71
2
 49
0.5
 62
256
  6
BYLAYER
 49
-0.5
 62
256
  6
BYLAYER
  0
LAYOUT
  5
83F
102
{ACAD_REACTORS
330
1A
102
}
100
AcDbPlotSettings
  1

  2
none_device
  4

  6

 40
0.0
 41
0.0
 42
0.0
 43
0.0
 44
215.0
 45
1935.0
 46
0.0
 47
0.0
 48
0.0
 49
0.0
140
0.0
141
0.0
142
1.0
143
1.0
 70
1024
 72
1
 73
0
 74
0
  7

 75
0
147
1.0
148
0.0
149
0.0
100
AcDbLayout
  1
Model
 70
0
 71
0
 10
0.0
 20
0.0
 11
215.0
 21
1935.0
 12
0.0
 22
0.0
 32
0.0
 14
0.0
 24
0.0
 34
0.0
 15
0.0
 25
0.0
 35
0.0
146
0.0
 13
0.0
 23
0.0
 33
0.0
 16
1.0
 26
0.0
 36
0.0
 17
0.0
 27
1.0
 37
0.0
 76
0
330
223
345
0
346
0
  0
LAYOUT
  5
840
102
{ACAD_REACTORS
330
1A
102
}
100
AcDbPlotSettings
  1

  2
none_device
  4

  6

 40
0.0
 41
0.0
 42
0.0
 43
0.0
 44
215.0
 45
1935.0
 46
0.0
 47
0.0
 48
0.0
 49
0.0
140
0.0
141
0.0
142
1.0
143
1.0
 70
0
 72
1
 73
0
 74
0
  7

 75
0
147
1.0
148
0.0
149
0.0
100
AcDbLayout
  1
Layout1
 70
0
 71
1
 10
0.0
 20
0.0
 11
215.0
 21
1935.0
 12
0.0
 22
0.0
 32
0.0
 14
0.0
 24
0.0
 34
0.0
 15
0.0
 25
0.0
 35
0.0
146
0.0
 13
0.0
 23
0.0
 33
0.0
 16
1.0
 26
0.0
 36
0.0
 17
0.0
 27
1.0
 37
0.0
 76
0
330
224
345
0
346
0
  0
ENDSEC
  0
EOF
