  0
SECTION
  2
HEADER
  9
$ACADVER
  1
AC1009
  9
$INSBASE
 10
0
 20
0
  9
$EXTMIN
 10
-0.8574077363619781
 20
1.581570849017695
  9
$EXTMAX
 10
187.078457377207
 20
399.4544463766297
  9
$LIMMIN
 10
-0.8574077363619781
 20
1.581570849017695
  9
$LIMMAX
 10
187.078457377207
 20
399.4544463766297
  9
$VIEWCTR
 10
10
 20
10
  9
$VIEWSIZE
 40
10
  9
$SNAPMODE
 70
0
  9
$SNAPUNIT
 10
1
 20
1
  9
$SNAPBASE
 10
0
 20
0
  9
$SNAPANG
 50
0
  9
$SNAPSTYLE
 70
0
  9
$SNAPISOPAIR
 70
0
  9
$GRIDMODE
 70
0
  9
$GRIDUNIT
 10
0
 20
0
  9
$ORTHOMODE
 70
0
  9
$REGENMODE
 70
1
  9
$FILLMODE
 70
1
  9
$QTEXTMODE
 70
0
  9
$DRAGMODE
 70
2
  9
$LTSCALE
 40
1
  9
$OSMODE
 70
0
  9
$ATTMODE
 70
1
  9
$TEXTSIZE
 40
3.5
  9
$TRACEWID
 40
0.5
  9
$TEXTSTYLE
  7
STANDARD
  9
$CLAYER
  8
0
  9
$CELTYPE
  6
BYLAYER
  9
$CECOLOR
 62
256
  9
$DIMSCALE
 40
1
  9
$DIMASZ
 40
0.18
  9
$DIMEXO
 40
0.0625
  9
$DIMDLI
 40
0.38
  9
$DIMRND
 40
0
  9
$DIMDLE
 40
0
  9
$DIMEXE
 40
0.18
  9
$DIMTP
 40
0
  9
$DIMTM
 40
0
  9
$DIMTXT
 40
0.18
  9
$DIMCEN
 40
0.09
  9
$DIMTSZ
 40
0
  9
$DIMTOL
 70
0
  9
$DIMLIM
 70
0
  9
$DIMTIH
 70
1
  9
$DIMTOH
 70
1
  9
$DIMSE1
 70
0
  9
$DIMSE2
 70
0
  9
$DIMTAD
 70
0
  9
$DIMZIN
 70
0
  9
$DIMBLK
  1

  9
$DIMASO
 70
1
  9
$DIMSHO
 70
1
  9
$DIMPOST
  1

  9
$DIMAPOST
  1

  9
$DIMALT
 70
0
  9
$DIMALTD
 70
2
  9
$DIMALTF
 40
25.4
  9
$DIMLFAC
 40
1
  9
$DIMTOFL
 70
0
  9
$DIMTVP
 40
0
  9
$DIMTIX
 70
0
  9
$DIMSOXD
 70
0
  9
$DIMSAH
 70
0
  9
$DIMBLK1
  1

  9
$DIMBLK2
  1

  9
$DIMSTYLE
  2
*UNNAMED
  9
$DIMCLRD
 70
0
  9
$DIMCLRE
 70
0
  9
$DIMCLRT
 70
0
  9
$DIMTFAC
 40
1
  9
$DIMGAP
 40
0.09
  9
$LUNITS
 70
2
  9
$LUPREC
 70
4
  9
$AXISMODE
 70
0
  9
$AXISUNIT
 10
0
 20
0
  9
$SKETCHINC
 40
0.1
  9
$FILLETRAD
 40
2
  9
$AUNITS
 70
0
  9
$AUPREC
 70
0
  9
$MENU
  1
ACAD
  9
$ELEVATION
 40
0
  9
$THICKNESS
 40
0
  9
$VIEWDIR
 10
0
 20
0
 30
1
  9
$LIMCHECK
 70
0
  9
$BLIPMODE
 70
1
  9
$CHAMFERA
 40
0
  9
$CHAMFERB
 40
0
  9
$FASTZOOM
 70
1
  9
$SKPOLY
 70
0
  9
$ANGBASE
 50
0
  9
$ANGDIR
 70
0
  9
$PDMODE
 70
0
  9
$PDSIZE
 40
0
  9
$PLINEWID
 40
0
  9
$COORDS
 70
2
  0
ENDSEC
  0
SECTION
  2
TABLES
  0
TABLE
  2
DIMSTYLE
 70
1
  0
DIMSTYLE
  2
DMST_1
 70
0
  3

  4

  5

  6

  7

 40
1
 41
5
 42
0
 43
7
 44
2
 45
0
 46
0
 47
0
 48
0
140
5
141
0
142
0
143
25.4
144
1
145
0
146
1
147
0.09
 71
0
 72
0
 73
0
 74
0
 75
0
 76
0
 77
1
 78
9
170
0
171
2
172
0
173
0
174
0
175
0
176
1
177
1
178
3
  0
ENDTAB
  0
TABLE
  2
LTYPE
 70
9
  0
LTYPE
  2
CONTINUOUS
 70
64
  3
Solid line
 72
65
 73
0
 40
0
  0
LTYPE
  2
BORDER
 70
64
  3
__ __ . __ __ .
 72
65
 73
6
 40
18.3230929519295
 49
5.235169414837
 49
-2.6175847074185
 49
5.235169414837
 49
-2.6175847074185
 49
0
 49
-2.6175847074185
  0
LTYPE
  2
CENTER
 70
64
  3
____ _ ____ _
 72
65
 73
4
 40
20.940677659348
 49
13.0879235370925
 49
-2.6175847074185
 49
2.6175847074185
 49
-2.6175847074185
  0
LTYPE
  2
DASHDOT
 70
64
  3
__ . __ . __ .
 72
65
 73
4
 40
10.470338829674
 49
5.235169414837
 49
-2.6175847074185
 49
0
 49
-2.6175847074185
  0
LTYPE
  2
DASHED
 70
64
  3
__ __ __ __ __
 72
65
 73
2
 40
7.852754122255501
 49
5.235169414837
 49
-2.6175847074185
  0
LTYPE
  2
DIVIDE
 70
64
  3
__ . . __ . . 
 72
65
 73
6
 40
13.0879235370925
 49
5.235169414837
 49
-2.6175847074185
 49
0
 49
-2.6175847074185
 49
0
 49
-2.6175847074185
  0
LTYPE
  2
DOT
 70
64
  3
..............
 72
65
 73
4
 40
5.235169414837
 49
0
 49
-2.6175847074185
 49
0
 49
-2.6175847074185
  0
LTYPE
  2
HIDDEN
 70
64
  3
_ _ _ _ _ _ _
 72
65
 73
2
 40
3.92637706112775
 49
2.6175847074185
 49
-1.30879235370925
  0
LTYPE
  2
PHANTOM
 70
64
  3
_____ _ _ _____ _ _ 
 72
65
 73
6
 40
26.175847074185
 49
13.0879235370925
 49
-2.6175847074185
 49
2.6175847074185
 49
-2.6175847074185
 49
2.6175847074185
 49
-2.6175847074185
  0
ENDTAB
  0
TABLE
  2
LAYER
 70
3
  0
LAYER
  2
1
 70
0
 62
7
  6
CONTINUOUS
  0
LAYER
  2
0
 70
0
 62
7
  6
CONTINUOUS
  0
ENDTAB
  0
TABLE
  2
STYLE
 70
4
  0
STYLE
  2
STANDARD
 70
0
 40
0
 41
1
 50
0
 71
0
 42
3.5
  3
txt
  4

  0
STYLE
  2
SIMPLEX
 70
0
 40
0
 41
1
 50
0
 71
0
 42
3.5
  3
simplex
  4

  0
STYLE
  2
COMPLEX
 70
0
 40
0
 41
1
 50
0
 71
0
 42
3.5
  3
complex
  4

  0
STYLE
  2
ITALIC
 70
0
 40
0
 41
1
 50
0
 71
0
 42
3.5
  3
italic
  4

  0
ENDTAB
  0
TABLE
  2
VIEW
 70
0
  0
ENDTAB
  0
ENDSEC
  0
SECTION
  2
BLOCKS
  0
BLOCK
  8
1
  2
*D0
 70
1
 10
0
 20
0
 30
0
  0
LINE
  8
1
 62
1
 10
185.078457377207
 20
365.4544463766297
 30
0
 11
185.078457377207
 21
389.4544463766297
 31
0
  0
LINE
  8
1
 62
1
 10
164.7166362321109
 20
389.4544463766297
 30
0
 11
187.078457377207
 21
389.4544463766297
 31
0
  0
LINE
  8
1
 62
1
 10
151.436636232111
 20
365.4544463766297
 30
0
 11
187.078457377207
 21
365.4544463766297
 31
0
  0
SOLID
  8
1
 62
1
 10
185.078457377207
 20
365.4544463766297
 30
0
 11
184.428457377207
 21
370.4544463766297
 31
0
 12
185.728457377207
 22
370.4544463766297
 32
0
 13
185.728457377207
 23
370.4544463766297
 33
0
  0
SOLID
  8
1
 62
1
 10
185.078457377207
 20
389.4544463766297
 30
0
 11
185.728457377207
 21
384.4544463766297
 31
0
 12
184.428457377207
 22
384.4544463766297
 32
0
 13
184.428457377207
 23
384.4544463766297
 33
0
  0
TEXT
  8
1
 62
3
 10
183.078457377207
 20
373.7044463766297
 30
0
 40
5
  1
24
 50
90
 41
0.9
  0
ENDBLK
  8
0
  0
BLOCK
  8
1
  2
*D1
 70
1
 10
0
 20
0
 30
0
  0
LINE
  8
1
 62
1
 10
185.078457377207
 20
228.4544463766297
 30
0
 11
185.078457377207
 21
365.4544463766297
 31
0
  0
LINE
  8
1
 62
1
 10
151.436636232111
 20
365.4544463766297
 30
0
 11
187.078457377207
 21
365.4544463766297
 31
0
  0
LINE
  8
1
 62
1
 10
151.436636232111
 20
228.4544463766297
 30
0
 11
187.078457377207
 21
228.4544463766297
 31
0
  0
SOLID
  8
1
 62
1
 10
185.078457377207
 20
228.4544463766297
 30
0
 11
184.428457377207
 21
233.4544463766297
 31
0
 12
185.728457377207
 22
233.4544463766297
 32
0
 13
185.728457377207
 23
233.4544463766297
 33
0
  0
SOLID
  8
1
 62
1
 10
185.078457377207
 20
365.4544463766297
 30
0
 11
185.728457377207
 21
360.4544463766297
 31
0
 12
184.428457377207
 22
360.4544463766297
 32
0
 13
184.428457377207
 23
360.4544463766297
 33
0
  0
TEXT
  8
1
 62
3
 10
183.078457377207
 20
291.7044463766297
 30
0
 40
5
  1
137
 50
90
 41
0.9
  0
ENDBLK
  8
0
  0
BLOCK
  8
1
  2
*D2
 70
1
 10
0
 20
0
 30
0
  0
LINE
  8
1
 62
1
 10
185.078457377207
 20
113.4544463766297
 30
0
 11
185.078457377207
 21
228.4544463766297
 31
0
  0
LINE
  8
1
 62
1
 10
151.436636232111
 20
228.4544463766297
 30
0
 11
187.078457377207
 21
228.4544463766297
 31
0
  0
LINE
  8
1
 62
1
 10
151.436636232111
 20
113.4544463766297
 30
0
 11
187.078457377207
 21
113.4544463766297
 31
0
  0
SOLID
  8
1
 62
1
 10
185.078457377207
 20
113.4544463766297
 30
0
 11
184.428457377207
 21
118.4544463766297
 31
0
 12
185.728457377207
 22
118.4544463766297
 32
0
 13
185.728457377207
 23
118.4544463766297
 33
0
  0
SOLID
  8
1
 62
1
 10
185.078457377207
 20
228.4544463766297
 30
0
 11
185.728457377207
 21
223.4544463766297
 31
0
 12
184.428457377207
 22
223.4544463766297
 32
0
 13
184.428457377207
 23
223.4544463766297
 33
0
  0
TEXT
  8
1
 62
3
 10
183.078457377207
 20
166.4544463766297
 30
0
 40
5
  1
115
 50
90
 41
0.9
  0
ENDBLK
  8
0
  0
BLOCK
  8
1
  2
*D3
 70
1
 10
0
 20
0
 30
0
  0
LINE
  8
1
 62
1
 10
185.078457377207
 20
89.4544463766297
 30
0
 11
185.078457377207
 21
113.4544463766297
 31
0
  0
LINE
  8
1
 62
1
 10
151.436636232111
 20
113.4544463766297
 30
0
 11
187.078457377207
 21
113.4544463766297
 31
0
  0
LINE
  8
1
 62
1
 10
164.7166362321108
 20
89.4544463766297
 30
0
 11
187.078457377207
 21
89.4544463766297
 31
0
  0
SOLID
  8
1
 62
1
 10
185.078457377207
 20
89.4544463766297
 30
0
 11
184.428457377207
 21
94.4544463766297
 31
0
 12
185.728457377207
 22
94.4544463766297
 32
0
 13
185.728457377207
 23
94.4544463766297
 33
0
  0
SOLID
  8
1
 62
1
 10
185.078457377207
 20
113.4544463766297
 30
0
 11
185.728457377207
 21
108.4544463766297
 31
0
 12
184.428457377207
 22
108.4544463766297
 32
0
 13
184.428457377207
 23
108.4544463766297
 33
0
  0
TEXT
  8
1
 62
3
 10
183.078457377207
 20
97.7044463766297
 30
0
 40
5
  1
24
 50
90
 41
0.9
  0
ENDBLK
  8
0
  0
BLOCK
  8
1
  2
*D4
 70
1
 10
0
 20
0
 30
0
  0
LINE
  8
1
 62
1
 10
161.7166362321108
 20
45.0421014797321
 30
0
 11
150.1925686329414
 21
45.0421014797321
 31
0
  0
LINE
  8
1
 62
1
 10
161.7166362321108
 20
45.0421014797321
 30
0
 11
164.7166362321108
 21
45.0421014797321
 31
0
  0
LINE
  8
1
 62
1
 10
174.7166362321108
 20
45.0421014797321
 30
0
 11
164.7166362321108
 21
45.0421014797321
 31
0
  0
LINE
  8
1
 62
1
 10
164.7166362321108
 20
32.4544463766297
 30
0
 11
164.7166362321108
 21
47.0421014797321
 31
0
  0
LINE
  8
1
 62
1
 10
161.7166362321108
 20
32.4544463766297
 30
0
 11
161.7166362321108
 21
47.0421014797321
 31
0
  0
SOLID
  8
1
 62
1
 10
164.7166362321108
 20
45.0421014797321
 30
0
 11
169.7166362321108
 21
45.6921014797321
 31
0
 12
169.7166362321108
 22
44.3921014797321
 32
0
 13
169.7166362321108
 23
44.3921014797321
 33
0
  0
SOLID
  8
1
 62
1
 10
161.7166362321108
 20
45.0421014797321
 30
0
 11
156.7166362321108
 21
44.3921014797321
 31
0
 12
156.7166362321108
 22
45.6921014797321
 32
0
 13
156.7166362321108
 23
45.6921014797321
 33
0
  0
TEXT
  8
1
 62
3
 10
150.1925686329414
 20
47.5952914470522
 30
0
 40
5
  1
3
 41
0.9
  0
ENDBLK
  8
0
  0
BLOCK
  8
1
  2
*D5
 70
1
 10
0
 20
0
 30
0
  0
LINE
  8
1
 62
1
 10
36.17252804132792
 20
196.173199445811
 30
0
 11
23.65721583227304
 21
196.173199445811
 31
0
  0
LINE
  8
1
 62
1
 10
36.17252804132792
 20
196.173199445811
 30
0
 11
40.17252804132792
 21
196.173199445811
 31
0
  0
LINE
  8
1
 62
1
 10
40.17252804132792
 20
224.4544463766297
 30
0
 11
40.17252804132792
 21
194.173199445811
 31
0
  0
LINE
  8
1
 62
1
 10
36.17252804132792
 20
89.4544463766297
 30
0
 11
36.17252804132792
 21
198.173199445811
 31
0
  0
LINE
  8
1
 62
1
 10
41.94029499429429
 20
197.9409663987774
 30
0
 11
38.40476108836155
 21
194.4054324928447
 31
0
  0
SOLID
  8
1
 62
1
 10
36.17252804132792
 20
196.173199445811
 30
0
 11
31.17252804132792
 21
195.523199445811
 31
0
 12
31.17252804132792
 22
196.823199445811
 32
0
 13
31.17252804132792
 23
196.823199445811
 33
0
  0
TEXT
  8
1
 62
3
 10
23.65721583227304
 20
198.173199445811
 30
0
 40
5
  1
4
 41
0.9
  0
ENDBLK
  8
0
  0
BLOCK
  8
1
  2
*D6
 70
1
 10
0
 20
0
 30
0
  0
LINE
  8
1
 62
1
 10
52.17252804132794
 20
196.173199445811
 30
0
 11
62.17252804132794
 21
196.173199445811
 31
0
  0
LINE
  8
1
 62
1
 10
40.17252804132792
 20
196.173199445811
 30
0
 11
52.17252804132794
 21
196.173199445811
 31
0
  0
LINE
  8
1
 62
1
 10
52.17252804132794
 20
176.4544463766297
 30
0
 11
52.17252804132794
 21
198.173199445811
 31
0
  0
LINE
  8
1
 62
1
 10
40.17252804132792
 20
176.4544463766297
 30
0
 11
40.17252804132792
 21
198.173199445811
 31
0
  0
SOLID
  8
1
 62
1
 10
52.17252804132794
 20
196.173199445811
 30
0
 11
57.17252804132794
 21
196.823199445811
 31
0
 12
57.17252804132794
 22
195.523199445811
 32
0
 13
57.17252804132794
 23
195.523199445811
 33
0
  0
LINE
  8
1
 62
1
 10
38.40476108836155
 20
194.4054324928447
 30
0
 11
41.94029499429429
 21
197.9409663987774
 31
0
  0
TEXT
  8
1
 62
3
 10
43.17252804132792
 20
198.173199445811
 30
0
 40
5
  1
12
 41
0.9
  0
ENDBLK
  8
0
  0
BLOCK
  8
1
  2
*D7
 70
1
 10
0
 20
0
 30
0
  0
LINE
  8
1
 62
1
 10
74.07770322430804
 20
389.4544463766297
 30
0
 11
74.07770322430804
 21
399.4544463766297
 31
0
  0
LINE
  8
1
 62
1
 10
74.07770322430804
 20
379.4544463766297
 30
0
 11
74.07770322430804
 21
369.4544463766297
 31
0
  0
LINE
  8
1
 62
1
 10
74.07770322430804
 20
379.4544463766297
 30
0
 11
74.07770322430804
 21
389.4544463766297
 31
0
  0
LINE
  8
1
 62
1
 10
59.17252804132794
 20
389.4544463766297
 30
0
 11
76.07770322430804
 21
389.4544463766297
 31
0
  0
LINE
  8
1
 62
1
 10
55.89252804132803
 20
379.4544463766297
 30
0
 11
76.07770322430804
 21
379.4544463766297
 31
0
  0
SOLID
  8
1
 62
1
 10
74.07770322430804
 20
389.4544463766297
 30
0
 11
73.42770322430803
 21
394.4544463766297
 31
0
 12
74.72770322430803
 22
394.4544463766297
 32
0
 13
74.72770322430803
 23
394.4544463766297
 33
0
  0
SOLID
  8
1
 62
1
 10
74.07770322430804
 20
379.4544463766297
 30
0
 11
74.72770322430804
 21
374.4544463766297
 31
0
 12
73.42770322430803
 22
374.4544463766297
 32
0
 13
73.42770322430803
 23
374.4544463766297
 33
0
  0
TEXT
  8
1
 62
3
 10
72.07770322430804
 20
381.4544463766297
 30
0
 40
5
  1
10
 50
90
 41
0.9
  0
ENDBLK
  8
0
  0
BLOCK
  8
1
  2
*D8
 70
1
 10
0
 20
0
 30
0
  0
LINE
  8
1
 62
1
 10
74.16973504580703
 20
322.4544463766297
 30
0
 11
74.16973504580703
 21
379.4544463766297
 31
0
  0
LINE
  8
1
 62
1
 10
55.89252804132803
 20
379.4544463766297
 30
0
 11
76.16973504580703
 21
379.4544463766297
 31
0
  0
LINE
  8
1
 62
1
 10
55.89252804132803
 20
322.4544463766297
 30
0
 11
76.16973504580703
 21
322.4544463766297
 31
0
  0
SOLID
  8
1
 62
1
 10
74.16973504580703
 20
379.4544463766297
 30
0
 11
74.81973504580704
 21
374.4544463766297
 31
0
 12
73.51973504580702
 22
374.4544463766297
 32
0
 13
73.51973504580702
 23
374.4544463766297
 33
0
  0
SOLID
  8
1
 62
1
 10
74.16973504580703
 20
322.4544463766297
 30
0
 11
73.51973504580702
 21
327.4544463766297
 31
0
 12
74.81973504580702
 22
327.4544463766297
 32
0
 13
74.81973504580702
 23
327.4544463766297
 33
0
  0
TEXT
  8
1
 62
3
 10
72.16973504580703
 20
347.2044463766297
 30
0
 40
5
  1
57
 50
90
 41
0.9
  0
ENDBLK
  8
0
  0
BLOCK
  8
1
  2
*D9
 70
1
 10
0
 20
0
 30
0
  0
LINE
  8
1
 62
1
 10
74.13806420303904
 20
244.4544463766297
 30
0
 11
74.13806420303904
 21
322.4544463766297
 31
0
  0
LINE
  8
1
 62
1
 10
55.89252804132803
 20
322.4544463766297
 30
0
 11
76.13806420303904
 21
322.4544463766297
 31
0
  0
LINE
  8
1
 62
1
 10
55.89252804132803
 20
244.4544463766297
 30
0
 11
76.13806420303904
 21
244.4544463766297
 31
0
  0
SOLID
  8
1
 62
1
 10
74.13806420303904
 20
322.4544463766297
 30
0
 11
74.78806420303904
 21
317.4544463766297
 31
0
 12
73.48806420303903
 22
317.4544463766297
 32
0
 13
73.48806420303903
 23
317.4544463766297
 33
0
  0
SOLID
  8
1
 62
1
 10
74.13806420303904
 20
244.4544463766297
 30
0
 11
73.48806420303903
 21
249.4544463766297
 31
0
 12
74.78806420303903
 22
249.4544463766297
 32
0
 13
74.78806420303903
 23
249.4544463766297
 33
0
  0
TEXT
  8
1
 62
3
 10
72.13806420303904
 20
279.7044463766297
 30
0
 40
5
  1
78
 50
90
 41
0.9
  0
ENDBLK
  8
0
  0
BLOCK
  8
1
  2
*D10
 70
1
 10
0
 20
0
 30
0
  0
LINE
  8
1
 62
1
 10
74.13806420303904
 20
156.4544463766297
 30
0
 11
74.13806420303904
 21
244.4544463766297
 31
0
  0
LINE
  8
1
 62
1
 10
55.89252804132803
 20
244.4544463766297
 30
0
 11
76.13806420303904
 21
244.4544463766297
 31
0
  0
LINE
  8
1
 62
1
 10
55.89252804132803
 20
156.4544463766297
 30
0
 11
76.13806420303904
 21
156.4544463766297
 31
0
  0
SOLID
  8
1
 62
1
 10
74.13806420303904
 20
244.4544463766297
 30
0
 11
74.78806420303904
 21
239.4544463766297
 31
0
 12
73.48806420303903
 22
239.4544463766297
 32
0
 13
73.48806420303903
 23
239.4544463766297
 33
0
  0
SOLID
  8
1
 62
1
 10
74.13806420303904
 20
156.4544463766297
 30
0
 11
73.48806420303903
 21
161.4544463766297
 31
0
 12
74.78806420303903
 22
161.4544463766297
 32
0
 13
74.78806420303903
 23
161.4544463766297
 33
0
  0
TEXT
  8
1
 62
3
 10
72.13806420303904
 20
196.7044463766297
 30
0
 40
5
  1
88
 50
90
 41
0.9
  0
ENDBLK
  8
0
  0
BLOCK
  8
1
  2
*D11
 70
1
 10
0
 20
0
 30
0
  0
LINE
  8
1
 62
1
 10
74.30700892240303
 20
99.4544463766297
 30
0
 11
74.30700892240303
 21
156.4544463766297
 31
0
  0
LINE
  8
1
 62
1
 10
55.89252804132803
 20
156.4544463766297
 30
0
 11
76.30700892240303
 21
156.4544463766297
 31
0
  0
LINE
  8
1
 62
1
 10
55.89252804132803
 20
99.4544463766297
 30
0
 11
76.30700892240303
 21
99.4544463766297
 31
0
  0
SOLID
  8
1
 62
1
 10
74.30700892240303
 20
156.4544463766297
 30
0
 11
74.95700892240303
 21
151.4544463766297
 31
0
 12
73.65700892240302
 22
151.4544463766297
 32
0
 13
73.65700892240302
 23
151.4544463766297
 33
0
  0
SOLID
  8
1
 62
1
 10
74.30700892240303
 20
99.4544463766297
 30
0
 11
73.65700892240302
 21
104.4544463766297
 31
0
 12
74.95700892240302
 22
104.4544463766297
 32
0
 13
74.95700892240302
 23
104.4544463766297
 33
0
  0
TEXT
  8
1
 62
3
 10
72.30700892240303
 20
124.2044463766297
 30
0
 40
5
  1
57
 50
90
 41
0.9
  0
ENDBLK
  8
0
  0
BLOCK
  8
1
  2
*D12
 70
1
 10
0
 20
0
 30
0
  0
LINE
  8
1
 62
1
 10
74.33779892870304
 20
99.4544463766297
 30
0
 11
74.33779892870304
 21
109.4544463766297
 31
0
  0
LINE
  8
1
 62
1
 10
74.33779892870304
 20
89.4544463766297
 30
0
 11
74.33779892870304
 21
79.4544463766297
 31
0
  0
LINE
  8
1
 62
1
 10
74.33779892870304
 20
89.4544463766297
 30
0
 11
74.33779892870304
 21
99.4544463766297
 31
0
  0
LINE
  8
1
 62
1
 10
55.89252804132803
 20
99.4544463766297
 30
0
 11
76.33779892870304
 21
99.4544463766297
 31
0
  0
LINE
  8
1
 62
1
 10
59.17252804132794
 20
89.4544463766297
 30
0
 11
76.33779892870304
 21
89.4544463766297
 31
0
  0
SOLID
  8
1
 62
1
 10
74.33779892870304
 20
99.4544463766297
 30
0
 11
73.68779892870303
 21
104.4544463766297
 31
0
 12
74.98779892870303
 22
104.4544463766297
 32
0
 13
74.98779892870303
 23
104.4544463766297
 33
0
  0
SOLID
  8
1
 62
1
 10
74.33779892870304
 20
89.4544463766297
 30
0
 11
74.98779892870304
 21
84.4544463766297
 31
0
 12
73.68779892870303
 22
84.4544463766297
 32
0
 13
73.68779892870303
 23
84.4544463766297
 33
0
  0
TEXT
  8
1
 62
3
 10
72.33779892870304
 20
91.4544463766297
 30
0
 40
5
  1
10
 50
90
 41
0.9
  0
ENDBLK
  8
0
  0
BLOCK
  8
1
  2
*D13
 70
1
 10
0
 20
0
 30
0
  0
LINE
  8
1
 62
1
 10
89.43113165605203
 20
89.45444637662968
 30
0
 11
89.43113165605203
 21
389.4544463766297
 31
0
  0
LINE
  8
1
 62
1
 10
59.17252804132794
 20
389.4544463766297
 30
0
 11
91.43113165605203
 21
389.4544463766297
 31
0
  0
LINE
  8
1
 62
1
 10
59.17252804132794
 20
89.45444637662968
 30
0
 11
91.43113165605203
 21
89.45444637662968
 31
0
  0
SOLID
  8
1
 62
1
 10
89.43113165605203
 20
89.45444637662968
 30
0
 11
88.78113165605203
 21
94.45444637662968
 31
0
 12
90.08113165605202
 22
94.45444637662968
 32
0
 13
90.08113165605202
 23
94.45444637662968
 33
0
  0
SOLID
  8
1
 62
1
 10
89.43113165605203
 20
389.4544463766297
 30
0
 11
90.08113165605204
 21
384.4544463766297
 31
0
 12
88.78113165605203
 22
384.4544463766297
 32
0
 13
88.78113165605203
 23
384.4544463766297
 33
0
  0
TEXT
  8
1
 62
3
 10
87.43113165605203
 20
233.4544463766298
 30
0
 40
5
  1
300
 50
90
 41
0.9
  0
ENDBLK
  8
0
  0
BLOCK
  8
1
  2
*D14
 70
1
 10
0
 20
0
 30
0
  0
LINE
  8
1
 62
1
 10
6.186532937008025
 20
302.4544463766297
 30
0
 11
6.186532937008025
 21
389.4544463766297
 31
0
  0
LINE
  8
1
 62
1
 10
36.17252804132792
 20
389.4544463766297
 30
0
 11
4.186532937008025
 21
389.4544463766297
 31
0
  0
LINE
  8
1
 62
1
 10
41.17252804132792
 20
302.4544463766297
 30
0
 11
4.186532937008025
 21
302.4544463766297
 31
0
  0
SOLID
  8
1
 62
1
 10
6.186532937008025
 20
389.4544463766297
 30
0
 11
6.836532937008023
 21
384.4544463766297
 31
0
 12
5.536532937008024
 22
384.4544463766297
 32
0
 13
5.536532937008024
 23
384.4544463766297
 33
0
  0
SOLID
  8
1
 62
1
 10
6.186532937008025
 20
302.4544463766297
 30
0
 11
5.536532937008023
 21
307.4544463766297
 31
0
 12
6.836532937008022
 22
307.4544463766297
 32
0
 13
6.836532937008022
 23
307.4544463766297
 33
0
  0
TEXT
  8
1
 62
3
 10
4.186532937008025
 20
342.2044463766297
 30
0
 40
5
  1
87
 50
90
 41
0.9
  0
ENDBLK
  8
0
  0
BLOCK
  8
1
  2
*D15
 70
1
 10
0
 20
0
 30
0
  0
LINE
  8
1
 62
1
 10
6.142592263638022
 20
260.4544463766297
 30
0
 11
6.142592263638022
 21
302.4544463766297
 31
0
  0
LINE
  8
1
 62
1
 10
41.17252804132792
 20
302.4544463766297
 30
0
 11
4.142592263638022
 21
302.4544463766297
 31
0
  0
LINE
  8
1
 62
1
 10
41.17252804132792
 20
260.4544463766297
 30
0
 11
4.142592263638022
 21
260.4544463766297
 31
0
  0
SOLID
  8
1
 62
1
 10
6.142592263638022
 20
302.4544463766297
 30
0
 11
6.792592263638021
 21
297.4544463766297
 31
0
 12
5.492592263638022
 22
297.4544463766297
 32
0
 13
5.492592263638022
 23
297.4544463766297
 33
0
  0
SOLID
  8
1
 62
1
 10
6.142592263638022
 20
260.4544463766297
 30
0
 11
5.492592263638021
 21
265.4544463766297
 31
0
 12
6.79259226363802
 22
265.4544463766297
 32
0
 13
6.79259226363802
 23
265.4544463766297
 33
0
  0
TEXT
  8
1
 62
3
 10
4.142592263638022
 20
277.7044463766297
 30
0
 40
5
  1
42
 50
90
 41
0.9
  0
ENDBLK
  8
0
  0
BLOCK
  8
1
  2
*D16
 70
1
 10
0
 20
0
 30
0
  0
LINE
  8
1
 62
1
 10
6.142592263638022
 20
225.4544463766297
 30
0
 11
6.142592263638022
 21
260.4544463766297
 31
0
  0
LINE
  8
1
 62
1
 10
41.17252804132792
 20
260.4544463766297
 30
0
 11
4.142592263638022
 21
260.4544463766297
 31
0
  0
LINE
  8
1
 62
1
 10
41.17252804132792
 20
225.4544463766297
 30
0
 11
4.142592263638022
 21
225.4544463766297
 31
0
  0
SOLID
  8
1
 62
1
 10
6.142592263638022
 20
260.4544463766297
 30
0
 11
6.792592263638021
 21
255.4544463766297
 31
0
 12
5.492592263638022
 22
255.4544463766297
 32
0
 13
5.492592263638022
 23
255.4544463766297
 33
0
  0
SOLID
  8
1
 62
1
 10
6.142592263638022
 20
225.4544463766297
 30
0
 11
5.492592263638021
 21
230.4544463766297
 31
0
 12
6.79259226363802
 22
230.4544463766297
 32
0
 13
6.79259226363802
 23
230.4544463766297
 33
0
  0
TEXT
  8
1
 62
3
 10
4.142592263638022
 20
239.2044463766297
 30
0
 40
5
  1
35
 50
90
 41
0.9
  0
ENDBLK
  8
0
  0
BLOCK
  8
1
  2
*D17
 70
1
 10
0
 20
0
 30
0
  0
LINE
  8
1
 62
1
 10
6.142592263638022
 20
175.4544463766297
 30
0
 11
6.142592263638022
 21
225.4544463766297
 31
0
  0
LINE
  8
1
 62
1
 10
41.17252804132792
 20
225.4544463766297
 30
0
 11
4.142592263638022
 21
225.4544463766297
 31
0
  0
LINE
  8
1
 62
1
 10
41.17252804132792
 20
175.4544463766297
 30
0
 11
4.142592263638022
 21
175.4544463766297
 31
0
  0
SOLID
  8
1
 62
1
 10
6.142592263638022
 20
225.4544463766297
 30
0
 11
6.792592263638021
 21
220.4544463766297
 31
0
 12
5.492592263638022
 22
220.4544463766297
 32
0
 13
5.492592263638022
 23
220.4544463766297
 33
0
  0
SOLID
  8
1
 62
1
 10
6.142592263638022
 20
175.4544463766297
 30
0
 11
5.492592263638021
 21
180.4544463766297
 31
0
 12
6.79259226363802
 22
180.4544463766297
 32
0
 13
6.79259226363802
 23
180.4544463766297
 33
0
  0
TEXT
  8
1
 62
3
 10
4.142592263638022
 20
196.7044463766297
 30
0
 40
5
  1
50
 50
90
 41
0.9
  0
ENDBLK
  8
0
  0
BLOCK
  8
1
  2
*D18
 70
1
 10
0
 20
0
 30
0
  0
LINE
  8
1
 62
1
 10
6.214840012640025
 20
89.4544463766297
 30
0
 11
6.214840012640025
 21
175.4544463766297
 31
0
  0
LINE
  8
1
 62
1
 10
41.17252804132792
 20
175.4544463766297
 30
0
 11
4.214840012640025
 21
175.4544463766297
 31
0
  0
LINE
  8
1
 62
1
 10
36.17252804132792
 20
89.4544463766297
 30
0
 11
4.214840012640025
 21
89.4544463766297
 31
0
  0
SOLID
  8
1
 62
1
 10
6.214840012640025
 20
175.4544463766297
 30
0
 11
6.864840012640023
 21
170.4544463766297
 31
0
 12
5.564840012640024
 22
170.4544463766297
 32
0
 13
5.564840012640024
 23
170.4544463766297
 33
0
  0
SOLID
  8
1
 62
1
 10
6.214840012640025
 20
89.4544463766297
 30
0
 11
5.564840012640023
 21
94.4544463766297
 31
0
 12
6.864840012640022
 22
94.4544463766297
 32
0
 13
6.864840012640022
 23
94.4544463766297
 33
0
  0
TEXT
  8
1
 62
3
 10
4.214840012640025
 20
128.7044463766297
 30
0
 40
5
  1
86
 50
90
 41
0.9
  0
ENDBLK
  8
0
  0
BLOCK
  8
1
  2
*D19
 70
1
 10
0
 20
0
 30
0
  0
LINE
  8
1
 62
1
 10
49.17252804132793
 20
74.6069159294405
 30
0
 11
59.17252804132794
 21
74.6069159294405
 31
0
  0
LINE
  8
1
 62
1
 10
36.17252804132793
 20
74.6069159294405
 30
0
 11
26.17252804132793
 21
74.6069159294405
 31
0
  0
LINE
  8
1
 62
1
 10
36.17252804132793
 20
74.6069159294405
 30
0
 11
49.17252804132793
 21
74.6069159294405
 31
0
  0
LINE
  8
1
 62
1
 10
49.17252804132793
 20
92.73444637662971
 30
0
 11
49.17252804132793
 21
72.6069159294405
 31
0
  0
LINE
  8
1
 62
1
 10
36.17252804132793
 20
89.4544463766297
 30
0
 11
36.17252804132793
 21
72.6069159294405
 31
0
  0
SOLID
  8
1
 62
1
 10
49.17252804132793
 20
74.6069159294405
 30
0
 11
54.17252804132793
 21
75.25691592944051
 31
0
 12
54.17252804132793
 22
73.9569159294405
 32
0
 13
54.17252804132793
 23
73.9569159294405
 33
0
  0
SOLID
  8
1
 62
1
 10
36.17252804132793
 20
74.6069159294405
 30
0
 11
31.17252804132793
 21
73.9569159294405
 31
0
 12
31.17252804132793
 22
75.25691592944051
 32
0
 13
31.17252804132793
 23
75.25691592944051
 33
0
  0
TEXT
  8
1
 62
3
 10
40.15922369686243
 20
76.6069159294405
 30
0
 40
5
  1
13
 41
0.9
  0
ENDBLK
  8
0
  0
BLOCK
  8
1
  2
*D20
 70
1
 10
0
 20
0
 30
0
  0
LINE
  8
1
 62
1
 10
36.17252804132792
 20
59.53396429654759
 30
0
 11
59.17252804132794
 21
59.53396429654759
 31
0
  0
LINE
  8
1
 62
1
 10
59.17252804132794
 20
89.4544463766297
 30
0
 11
59.17252804132794
 21
57.53396429654759
 31
0
  0
LINE
  8
1
 62
1
 10
36.17252804132792
 20
89.4544463766297
 30
0
 11
36.17252804132792
 21
57.53396429654759
 31
0
  0
SOLID
  8
1
 62
1
 10
59.17252804132794
 20
59.53396429654759
 30
0
 11
54.17252804132794
 21
58.8839642965476
 31
0
 12
54.17252804132794
 22
60.18396429654759
 32
0
 13
54.17252804132794
 23
60.18396429654759
 33
0
  0
SOLID
  8
1
 62
1
 10
36.17252804132792
 20
59.53396429654759
 30
0
 11
41.17252804132792
 21
60.18396429654759
 31
0
 12
41.17252804132792
 22
58.8839642965476
 32
0
 13
41.17252804132792
 23
58.8839642965476
 33
0
  0
TEXT
  8
1
 62
3
 10
43.92252804132792
 20
61.53396429654759
 30
0
 40
5
  1
23
 41
0.9
  0
ENDBLK
  8
0
  0
BLOCK
  8
1
  2
*D21
 70
1
 10
0
 20
0
 30
0
  0
LINE
  8
1
 62
1
 10
144.7166362321109
 20
74.476686478549
 30
0
 11
164.7166362321109
 21
74.476686478549
 31
0
  0
LINE
  8
1
 62
1
 10
164.7166362321109
 20
95.2544463766296
 30
0
 11
164.7166362321109
 21
72.476686478549
 31
0
  0
LINE
  8
1
 62
1
 10
144.7166362321109
 20
104.5815708490177
 30
0
 11
144.7166362321109
 21
72.476686478549
 31
0
  0
SOLID
  8
1
 62
1
 10
164.7166362321109
 20
74.476686478549
 30
0
 11
159.7166362321109
 21
73.82668647854899
 31
0
 12
159.7166362321109
 22
75.126686478549
 32
0
 13
159.7166362321109
 23
75.126686478549
 33
0
  0
SOLID
  8
1
 62
1
 10
144.7166362321109
 20
74.476686478549
 30
0
 11
149.7166362321109
 21
75.126686478549
 31
0
 12
149.7166362321109
 22
73.82668647854899
 32
0
 13
149.7166362321109
 23
73.82668647854899
 33
0
  0
TEXT
  8
1
 62
3
 10
150.9666362321109
 20
76.476686478549
 30
0
 40
5
  1
20
 41
0.9
  0
ENDBLK
  8
0
  0
BLOCK
  8
1
  2
*D22
 70
1
 10
0
 20
0
 30
0
  0
LINE
  8
1
 62
1
 10
131.7166362321108
 20
59.52889578598689
 30
0
 11
164.7166362321108
 21
59.52889578598689
 31
0
  0
LINE
  8
1
 62
1
 10
164.7166362321108
 20
89.4544463766297
 30
0
 11
164.7166362321108
 21
57.52889578598689
 31
0
  0
LINE
  8
1
 62
1
 10
131.7166362321108
 20
89.4544463766297
 30
0
 11
131.7166362321108
 21
57.52889578598689
 31
0
  0
SOLID
  8
1
 62
1
 10
164.7166362321108
 20
59.52889578598689
 30
0
 11
159.7166362321108
 21
58.87889578598689
 31
0
 12
159.7166362321108
 22
60.17889578598689
 32
0
 13
159.7166362321108
 23
60.17889578598689
 33
0
  0
SOLID
  8
1
 62
1
 10
131.7166362321108
 20
59.52889578598689
 30
0
 11
136.7166362321108
 21
60.17889578598689
 31
0
 12
136.7166362321108
 22
58.87889578598689
 32
0
 13
136.7166362321108
 23
58.87889578598689
 33
0
  0
TEXT
  8
1
 62
3
 10
144.4666362321108
 20
61.52889578598689
 30
0
 40
5
  1
33
 41
0.9
  0
ENDBLK
  8
0
  0
BLOCK
  8
1
  2
*D23
 70
1
 10
0
 20
0
 30
0
  0
LINE
  8
1
 62
1
 10
40.17252804132792
 20
309.07448505532
 30
0
 11
56.17252804132794
 21
309.07448505532
 31
0
  0
LINE
  8
1
 62
1
 10
56.17252804132794
 20
301.4544463766297
 30
0
 11
56.17252804132794
 21
311.07448505532
 31
0
  0
LINE
  8
1
 62
1
 10
40.17252804132792
 20
301.4544463766297
 30
0
 11
40.17252804132792
 21
311.07448505532
 31
0
  0
SOLID
  8
1
 62
1
 10
56.17252804132794
 20
309.07448505532
 30
0
 11
51.17252804132794
 21
308.42448505532
 31
0
 12
51.17252804132794
 22
309.72448505532
 32
0
 13
51.17252804132794
 23
309.72448505532
 33
0
  0
SOLID
  8
1
 62
1
 10
40.17252804132792
 20
309.07448505532
 30
0
 11
45.17252804132792
 21
309.72448505532
 31
0
 12
45.17252804132792
 22
308.42448505532
 32
0
 13
45.17252804132792
 23
308.42448505532
 33
0
  0
TEXT
  8
1
 62
3
 10
45.19494349511504
 20
311.07448505532
 30
0
 40
5
  1
16
 41
0.9
  0
ENDBLK
  8
0
  0
BLOCK
  8
1
  2
*D24
 70
1
 10
0
 20
0
 30
0
  0
LINE
  8
1
 62
1
 10
36.17252804132792
 20
309.07448505532
 30
0
 11
24.91182983783304
 21
309.07448505532
 31
0
  0
LINE
  8
1
 62
1
 10
36.17252804132792
 20
309.07448505532
 30
0
 11
40.17252804132792
 21
309.07448505532
 31
0
  0
LINE
  8
1
 62
1
 10
50.17252804132792
 20
309.07448505532
 30
0
 11
40.17252804132792
 21
309.07448505532
 31
0
  0
LINE
  8
1
 62
1
 10
40.17252804132792
 20
301.4544463766297
 30
0
 11
40.17252804132792
 21
311.07448505532
 31
0
  0
LINE
  8
1
 62
1
 10
36.17252804132792
 20
389.4544463766297
 30
0
 11
36.17252804132792
 21
307.07448505532
 31
0
  0
SOLID
  8
1
 62
1
 10
40.17252804132792
 20
309.07448505532
 30
0
 11
45.17252804132792
 21
309.72448505532
 31
0
 12
45.17252804132792
 22
308.42448505532
 32
0
 13
45.17252804132792
 23
308.42448505532
 33
0
  0
SOLID
  8
1
 62
1
 10
36.17252804132792
 20
309.07448505532
 30
0
 11
31.17252804132792
 21
308.42448505532
 31
0
 12
31.17252804132792
 22
309.72448505532
 32
0
 13
31.17252804132792
 23
309.72448505532
 33
0
  0
TEXT
  8
1
 62
3
 10
24.91182983783304
 20
311.07448505532
 30
0
 40
5
  1
4
 41
0.9
  0
ENDBLK
  8
0
  0
BLOCK
  8
1
  2
*D25
 70
1
 10
0
 20
0
 30
0
  0
LINE
  8
1
 62
1
 10
41.17252804132792
 20
281.620323059217
 30
0
 11
56.17252804132794
 21
281.620323059217
 31
0
  0
LINE
  8
1
 62
1
 10
56.17252804132794
 20
261.4544463766297
 30
0
 11
56.17252804132794
 21
283.620323059217
 31
0
  0
LINE
  8
1
 62
1
 10
41.17252804132792
 20
281.4544463766297
 30
0
 11
41.17252804132792
 21
283.620323059217
 31
0
  0
SOLID
  8
1
 62
1
 10
41.17252804132792
 20
281.620323059217
 30
0
 11
46.17252804132792
 21
282.270323059217
 31
0
 12
46.17252804132792
 22
280.970323059217
 32
0
 13
46.17252804132792
 23
280.970323059217
 33
0
  0
SOLID
  8
1
 62
1
 10
56.17252804132794
 20
281.620323059217
 30
0
 11
51.17252804132794
 21
280.970323059217
 31
0
 12
51.17252804132794
 22
282.270323059217
 32
0
 13
51.17252804132794
 23
282.270323059217
 33
0
  0
TEXT
  8
1
 62
3
 10
45.67252804132792
 20
283.620323059217
 30
0
 40
5
  1
15
 41
0.9
  0
ENDBLK
  8
0
  0
BLOCK
  8
1
  2
*D26
 70
1
 10
0
 20
0
 30
0
  0
LINE
  8
1
 62
1
 10
40.17252804132792
 20
281.642383886116
 30
0
 11
28.23585762404204
 21
281.642383886116
 31
0
  0
LINE
  8
1
 62
1
 10
40.17252804132792
 20
281.642383886116
 30
0
 11
41.17252804132792
 21
281.642383886116
 31
0
  0
LINE
  8
1
 62
1
 10
51.17252804132792
 20
281.642383886116
 30
0
 11
41.17252804132792
 21
281.642383886116
 31
0
  0
LINE
  8
1
 62
1
 10
41.17252804132792
 20
281.4544463766297
 30
0
 11
41.17252804132792
 21
283.642383886116
 31
0
  0
LINE
  8
1
 62
1
 10
40.17252804132792
 20
294.4544463766297
 30
0
 11
40.17252804132792
 21
279.642383886116
 31
0
  0
SOLID
  8
1
 62
1
 10
41.17252804132792
 20
281.642383886116
 30
0
 11
46.17252804132792
 21
282.292383886116
 31
0
 12
46.17252804132792
 22
280.992383886116
 32
0
 13
46.17252804132792
 23
280.992383886116
 33
0
  0
SOLID
  8
1
 62
1
 10
40.17252804132792
 20
281.642383886116
 30
0
 11
35.17252804132792
 21
280.992383886116
 31
0
 12
35.17252804132792
 22
282.292383886116
 32
0
 13
35.17252804132792
 23
282.292383886116
 33
0
  0
TEXT
  8
1
 62
3
 10
28.23585762404204
 20
283.642383886116
 30
0
 40
5
  1
1
 41
0.9
  0
ENDBLK
  8
0
  0
ENDSEC
  0
SECTION
  2
ENTITIES
  0
LINE
  8
1
 62
2
  6
PHANTOM
 10
155.7489066611105
 20
22.4544463766297
 30
0
 11
170.7489066611105
 21
22.4544463766297
 31
0
  0
LINE
  8
1
 62
2
  6
PHANTOM
 10
144.7166362321108
 20
19.1744463766297
 30
0
 11
144.7166362321108
 21
1.581570849017695
 31
0
  0
LINE
  8
1
 62
7
 10
131.7166362321108
 20
9.454446376629704
 30
0
 11
131.7166362321108
 21
12.4544463766297
 31
0
  0
LINE
  8
1
 62
7
 10
161.7166362321108
 20
32.4544463766297
 30
0
 11
164.7166362321108
 21
32.4544463766297
 31
0
  0
LINE
  8
1
 62
7
 10
161.7166362321108
 20
32.4544463766297
 30
0
 11
161.7166362321108
 21
13.4544463766297
 31
0
  0
LINE
  8
1
 62
7
 10
164.7166362321108
 20
32.4544463766297
 30
0
 11
164.7166362321108
 21
13.4544463766297
 31
0
  0
LINE
  8
1
 62
7
 10
131.7166362321108
 20
9.454446376629704
 30
0
 11
160.7166362321108
 21
9.454446376629704
 31
0
  0
LINE
  8
1
 62
7
 10
131.7166362321108
 20
12.4544463766297
 30
0
 11
160.7166362321108
 21
12.4544463766297
 31
0
  0
LINE
  8
1
 62
2
  6
PHANTOM
 10
32.52338704496182
 20
250.4544463766297
 30
0
 11
34.17252804132792
 21
250.4544463766297
 31
0
  0
LINE
  8
1
 62
2
  6
DASHED
 10
36.17252804132792
 20
254.6544463766297
 30
0
 11
37.87252804132802
 21
252.9544463766297
 31
0
  0
LINE
  8
1
 62
2
  6
DASHED
 10
37.87252804132802
 20
252.9544463766297
 30
0
 11
39.17252804132792
 21
252.9544463766297
 31
0
  0
LINE
  8
1
 62
2
  6
DASHED
 10
37.87252804132802
 20
250.4544463766297
 30
0
 11
37.87252804132802
 21
252.9544463766297
 31
0
  0
LINE
  8
1
 62
2
  6
DASHED
 10
37.87252804132802
 20
247.9544463766297
 30
0
 11
36.17252804132792
 21
246.2544463766296
 31
0
  0
LINE
  8
1
 62
2
  6
DASHED
 10
39.17252804132792
 20
247.9544463766296
 30
0
 11
37.87252804132802
 21
247.9544463766297
 31
0
  0
LINE
  8
1
 62
2
  6
DASHED
 10
37.87252804132802
 20
247.9544463766297
 30
0
 11
37.87252804132802
 21
250.4544463766297
 31
0
  0
LINE
  8
1
 62
2
  6
PHANTOM
 10
34.17252804132792
 20
250.4544463766297
 30
0
 11
35.87252804132802
 21
250.4544463766297
 31
0
  0
LINE
  8
1
 62
2
  6
PHANTOM
 10
35.87252804132802
 20
250.4544463766297
 30
0
 11
36.67252804132784
 21
250.4544463766297
 31
0
  0
LINE
  8
1
 62
2
  6
PHANTOM
 10
36.67252804132784
 20
250.4544463766297
 30
0
 11
43.37252804132802
 21
250.4544463766297
 31
0
  0
LINE
  8
1
 62
2
  6
PHANTOM
 10
144.7166362321108
 20
237.1744463766297
 30
0
 11
144.7166362321108
 21
219.5815708490177
 31
0
  0
LINE
  8
1
 62
2
  6
PHANTOM
 10
137.9966362321108
 20
228.4544463766297
 30
0
 11
151.436636232111
 21
228.4544463766297
 31
0
  0
LINE
  8
1
 62
7
 10
59.17252804132794
 20
389.4544463766297
 30
0
 11
39.17252804132792
 21
389.4544463766297
 31
0
  0
LINE
  8
1
 62
2
  6
DASHED
 10
161.7166362321109
 20
158.9544463766297
 30
0
 11
161.7166362321109
 21
153.9544463766297
 31
0
  0
LINE
  8
1
 62
2
  6
DASHED
 10
161.7166362321109
 20
241.9544463766297
 30
0
 11
161.7166362321109
 21
158.9544463766297
 31
0
  0
LINE
  8
1
 62
2
  6
PHANTOM
 10
160.5166362321108
 20
99.4544463766297
 30
0
 11
161.7166362321109
 21
99.4544463766297
 31
0
  0
LINE
  8
1
 62
2
  6
DASHED
 10
161.7166362321109
 20
135.815477764097
 30
0
 11
161.7166362321109
 21
101.9544463766297
 31
0
  0
LINE
  8
1
 62
2
  6
DASHED
 10
161.7166362321109
 20
99.4544463766297
 30
0
 11
161.7166362321109
 21
96.9544463766297
 31
0
  0
LINE
  8
1
 62
2
  6
DASHED
 10
161.7166362321109
 20
246.9544463766297
 30
0
 11
161.7166362321109
 21
241.9544463766297
 31
0
  0
LINE
  8
1
 62
2
  6
DASHED
 10
161.7166362321109
 20
260.4544463766297
 30
0
 11
161.7166362321109
 21
246.9544463766297
 31
0
  0
LINE
  8
1
 62
2
  6
DASHED
 10
161.7166362321109
 20
389.4544463766297
 30
0
 11
161.7166362321109
 21
260.4544463766297
 31
0
  0
LINE
  8
1
 62
2
  6
DASHED
 10
39.17252804132792
 20
115.9544463766297
 30
0
 11
39.17252804132792
 21
110.9544463766297
 31
0
  0
LINE
  8
1
 62
2
  6
DASHED
 10
39.17252804132792
 20
389.4544463766297
 30
0
 11
39.17252804132792
 21
115.9544463766297
 31
0
  0
LINE
  8
1
 62
7
 10
36.17252804132792
 20
89.4544463766297
 30
0
 11
39.17252804132792
 21
89.4544463766297
 31
0
  0
LINE
  8
1
 62
2
  6
PHANTOM
 10
34.52338704496182
 20
113.4544463766297
 30
0
 11
36.17252804132792
 21
113.4544463766297
 31
0
  0
LINE
  8
1
 62
2
  6
DASHED
 10
36.17252804132792
 20
117.6544463766297
 30
0
 11
37.87252804132802
 21
115.9544463766297
 31
0
  0
LINE
  8
1
 62
2
  6
DASHED
 10
37.87252804132802
 20
115.9544463766297
 30
0
 11
39.17252804132792
 21
115.9544463766297
 31
0
  0
LINE
  8
1
 62
2
  6
DASHED
 10
37.87252804132802
 20
113.4544463766297
 30
0
 11
37.87252804132802
 21
115.9544463766297
 31
0
  0
LINE
  8
1
 62
2
  6
DASHED
 10
37.87252804132802
 20
110.9544463766297
 30
0
 11
36.17252804132792
 21
109.2544463766296
 31
0
  0
LINE
  8
1
 62
2
  6
DASHED
 10
39.17252804132792
 20
110.9544463766297
 30
0
 11
37.87252804132802
 21
110.9544463766297
 31
0
  0
LINE
  8
1
 62
2
  6
DASHED
 10
37.87252804132802
 20
110.9544463766297
 30
0
 11
37.87252804132802
 21
113.4544463766297
 31
0
  0
LINE
  8
1
 62
2
  6
PHANTOM
 10
36.17252804132792
 20
113.4544463766297
 30
0
 11
37.87252804132802
 21
113.4544463766297
 31
0
  0
LINE
  8
1
 62
2
  6
PHANTOM
 10
37.87252804132802
 20
113.4544463766297
 30
0
 11
38.67252804132784
 21
113.4544463766297
 31
0
  0
LINE
  8
1
 62
2
  6
PHANTOM
 10
38.67252804132784
 20
113.4544463766297
 30
0
 11
45.37252804132802
 21
113.4544463766297
 31
0
  0
LINE
  8
1
 62
2
  6
PHANTOM
 10
32.52338704496182
 20
365.4544463766297
 30
0
 11
34.17252804132792
 21
365.4544463766297
 31
0
  0
LINE
  8
1
 62
2
  6
DASHED
 10
36.17252804132792
 20
369.6544463766297
 30
0
 11
37.87252804132802
 21
367.9544463766297
 31
0
  0
LINE
  8
1
 62
2
  6
DASHED
 10
37.87252804132802
 20
367.9544463766297
 30
0
 11
39.17252804132792
 21
367.9544463766297
 31
0
  0
LINE
  8
1
 62
2
  6
DASHED
 10
37.87252804132802
 20
365.4544463766297
 30
0
 11
37.87252804132802
 21
367.9544463766297
 31
0
  0
LINE
  8
1
 62
2
  6
DASHED
 10
37.87252804132802
 20
362.9544463766297
 30
0
 11
36.17252804132792
 21
361.2544463766296
 31
0
  0
LINE
  8
1
 62
2
  6
DASHED
 10
39.17252804132792
 20
362.9544463766296
 30
0
 11
37.87252804132802
 21
362.9544463766297
 31
0
  0
LINE
  8
1
 62
2
  6
DASHED
 10
37.87252804132802
 20
362.9544463766297
 30
0
 11
37.87252804132802
 21
365.4544463766297
 31
0
  0
LINE
  8
1
 62
2
  6
PHANTOM
 10
34.17252804132792
 20
365.4544463766297
 30
0
 11
35.87252804132802
 21
365.4544463766297
 31
0
  0
LINE
  8
1
 62
2
  6
PHANTOM
 10
35.87252804132802
 20
365.4544463766297
 30
0
 11
36.67252804132784
 21
365.4544463766297
 31
0
  0
LINE
  8
1
 62
2
  6
PHANTOM
 10
36.67252804132784
 20
365.4544463766297
 30
0
 11
43.37252804132802
 21
365.4544463766297
 31
0
  0
LINE
  8
1
 62
7
 10
40.17252804132792
 20
224.4544463766297
 30
0
 11
40.17252804132792
 21
176.4544463766297
 31
0
  0
LINE
  8
1
 62
7
 10
52.17252804132794
 20
176.4544463766297
 30
0
 11
52.17252804132794
 21
224.4544463766297
 31
0
  0
LINE
  8
1
 62
7
 10
51.17252804132794
 20
225.4544463766297
 30
0
 11
41.17252804132792
 21
225.4544463766297
 31
0
  0
LINE
  8
1
 62
7
 10
41.17252804132792
 20
175.4544463766297
 30
0
 11
51.17252804132794
 21
175.4544463766297
 31
0
  0
LINE
  8
1
 62
7
 10
56.17252804132794
 20
261.4544463766297
 30
0
 11
56.17252804132794
 21
301.4544463766297
 31
0
  0
LINE
  8
1
 62
7
 10
55.17252804132794
 20
302.4544463766297
 30
0
 11
41.17252804132792
 21
302.4544463766297
 31
0
  0
LINE
  8
1
 62
7
 10
40.17252804132792
 20
268.4544463766297
 30
0
 11
40.17252804132792
 21
261.4544463766297
 31
0
  0
LINE
  8
1
 62
7
 10
41.17252804132792
 20
260.4544463766297
 30
0
 11
55.17252804132794
 21
260.4544463766297
 31
0
  0
LINE
  8
1
 62
2
  6
PHANTOM
 10
49.17252804132792
 20
327.488306344264
 30
0
 11
49.17252804132792
 21
317.452107381747
 31
0
  0
LINE
  8
1
 62
2
  6
PHANTOM
 10
42.45252804132792
 20
322.4544463766297
 30
0
 11
55.89252804132803
 21
322.4544463766297
 31
0
  0
LINE
  8
1
 62
2
  6
PHANTOM
 10
49.17252804132792
 20
251.1744463766297
 30
0
 11
49.17252804132792
 21
237.7344463766297
 31
0
  0
LINE
  8
1
 62
2
  6
PHANTOM
 10
42.93799478419004
 20
244.4544463766297
 30
0
 11
55.89252804132803
 21
244.4544463766297
 31
0
  0
LINE
  8
1
 62
2
  6
PHANTOM
 10
49.17252804132792
 20
163.1744463766297
 30
0
 11
49.17252804132792
 21
149.902262893946
 31
0
  0
LINE
  8
1
 62
2
  6
PHANTOM
 10
42.45252804132792
 20
156.4544463766297
 30
0
 11
55.89252804132803
 21
156.4544463766297
 31
0
  0
LINE
  8
1
 62
2
  6
PHANTOM
 10
49.17252804132792
 20
386.1744463766297
 30
0
 11
49.17252804132792
 21
372.7344463766297
 31
0
  0
LINE
  8
1
 62
2
  6
PHANTOM
 10
43.26612300797703
 20
379.4544463766297
 30
0
 11
55.89252804132803
 21
379.4544463766297
 31
0
  0
LINE
  8
1
 62
2
  6
PHANTOM
 10
49.17252804132792
 20
106.1744463766297
 30
0
 11
49.17252804132792
 21
92.73444637662971
 31
0
  0
LINE
  8
1
 62
2
  6
PHANTOM
 10
42.93799478419004
 20
99.4544463766297
 30
0
 11
55.89252804132803
 21
99.4544463766297
 31
0
  0
LINE
  8
1
 62
7
 10
59.17252804132794
 20
89.4544463766297
 30
0
 11
59.17252804132794
 21
389.4544463766297
 31
0
  0
LINE
  8
1
 62
7
 10
39.17252804132792
 20
389.4544463766297
 30
0
 11
36.17252804132792
 21
389.4544463766297
 31
0
  0
LINE
  8
1
 62
7
 10
39.17252804132792
 20
89.4544463766297
 30
0
 11
59.17252804132794
 21
89.4544463766297
 31
0
  0
LINE
  8
1
 62
2
  6
DASHED
 10
161.7166362321109
 20
96.9544463766297
 30
0
 11
161.7166362321109
 21
89.4544463766297
 31
0
  0
LINE
  8
1
 62
7
 10
164.7166362321109
 20
135.847564667987
 30
0
 11
164.7166362321109
 21
389.4544463766297
 31
0
  0
LINE
  8
1
 62
2
  6
PHANTOM
 10
164.7166362321109
 20
99.4544463766297
 30
0
 11
166.3657772284769
 21
99.4544463766297
 31
0
  0
LINE
  8
1
 62
2
  6
DASHED
 10
163.0166362321108
 20
101.9544463766297
 30
0
 11
164.7166362321109
 21
103.6544463766297
 31
0
  0
LINE
  8
1
 62
2
  6
DASHED
 10
161.7166362321109
 20
101.9544463766297
 30
0
 11
163.0166362321108
 21
101.9544463766297
 31
0
  0
LINE
  8
1
 62
2
  6
DASHED
 10
163.0166362321108
 20
101.9544463766297
 30
0
 11
163.0166362321108
 21
99.4544463766297
 31
0
  0
LINE
  8
1
 62
2
  6
DASHED
 10
164.7166362321109
 20
95.2544463766296
 30
0
 11
163.0166362321108
 21
96.9544463766297
 31
0
  0
LINE
  8
1
 62
2
  6
DASHED
 10
163.0166362321108
 20
96.9544463766297
 30
0
 11
161.7166362321109
 21
96.9544463766297
 31
0
  0
LINE
  8
1
 62
2
  6
DASHED
 10
163.0166362321108
 20
99.4544463766297
 30
0
 11
163.0166362321108
 21
96.9544463766297
 31
0
  0
LINE
  8
1
 62
2
  6
PHANTOM
 10
160.5166362321108
 20
156.4544463766297
 30
0
 11
166.3657772284769
 21
156.4544463766297
 31
0
  0
LINE
  8
1
 62
2
  6
DASHED
 10
163.0166362321108
 20
158.9544463766297
 30
0
 11
164.7166362321109
 21
160.6544463766297
 31
0
  0
LINE
  8
1
 62
2
  6
DASHED
 10
161.7166362321109
 20
158.9544463766297
 30
0
 11
163.0166362321108
 21
158.9544463766297
 31
0
  0
LINE
  8
1
 62
2
  6
DASHED
 10
163.0166362321108
 20
158.9544463766297
 30
0
 11
163.0166362321108
 21
156.4544463766297
 31
0
  0
LINE
  8
1
 62
2
  6
DASHED
 10
164.7166362321109
 20
152.2544463766296
 30
0
 11
163.0166362321108
 21
153.9544463766297
 31
0
  0
LINE
  8
1
 62
2
  6
DASHED
 10
163.0166362321108
 20
153.9544463766297
 30
0
 11
161.7166362321109
 21
153.9544463766297
 31
0
  0
LINE
  8
1
 62
2
  6
DASHED
 10
163.0166362321108
 20
156.4544463766297
 30
0
 11
163.0166362321108
 21
153.9544463766297
 31
0
  0
LINE
  8
1
 62
2
  6
PHANTOM
 10
160.5166362321108
 20
244.4544463766297
 30
0
 11
166.3657772284769
 21
244.4544463766297
 31
0
  0
LINE
  8
1
 62
2
  6
DASHED
 10
163.0166362321108
 20
246.9544463766297
 30
0
 11
164.7166362321109
 21
248.6544463766297
 31
0
  0
LINE
  8
1
 62
2
  6
DASHED
 10
161.7166362321109
 20
246.9544463766297
 30
0
 11
163.0166362321108
 21
246.9544463766297
 31
0
  0
LINE
  8
1
 62
2
  6
DASHED
 10
163.0166362321108
 20
246.9544463766297
 30
0
 11
163.0166362321108
 21
244.4544463766297
 31
0
  0
LINE
  8
1
 62
2
  6
DASHED
 10
164.7166362321109
 20
240.2544463766296
 30
0
 11
163.0166362321108
 21
241.9544463766297
 31
0
  0
LINE
  8
1
 62
2
  6
DASHED
 10
163.0166362321108
 20
241.9544463766297
 30
0
 11
161.7166362321109
 21
241.9544463766297
 31
0
  0
LINE
  8
1
 62
2
  6
DASHED
 10
163.0166362321108
 20
244.4544463766297
 30
0
 11
163.0166362321108
 21
241.9544463766297
 31
0
  0
LINE
  8
1
 62
2
  6
PHANTOM
 10
160.5166362321108
 20
322.4544463766297
 30
0
 11
166.3657772284769
 21
322.4544463766297
 31
0
  0
LINE
  8
1
 62
2
  6
DASHED
 10
163.0166362321108
 20
324.9544463766297
 30
0
 11
164.7166362321109
 21
326.6544463766297
 31
0
  0
LINE
  8
1
 62
2
  6
DASHED
 10
161.7166362321109
 20
324.9544463766297
 30
0
 11
163.0166362321108
 21
324.9544463766297
 31
0
  0
LINE
  8
1
 62
2
  6
DASHED
 10
163.0166362321108
 20
324.9544463766297
 30
0
 11
163.0166362321108
 21
322.4544463766297
 31
0
  0
LINE
  8
1
 62
2
  6
DASHED
 10
164.7166362321109
 20
318.2544463766296
 30
0
 11
163.0166362321108
 21
319.9544463766297
 31
0
  0
LINE
  8
1
 62
2
  6
DASHED
 10
163.0166362321108
 20
319.9544463766297
 30
0
 11
161.7166362321109
 21
319.9544463766297
 31
0
  0
LINE
  8
1
 62
2
  6
DASHED
 10
163.0166362321108
 20
322.4544463766297
 30
0
 11
163.0166362321108
 21
319.9544463766297
 31
0
  0
LINE
  8
1
 62
2
  6
PHANTOM
 10
160.5166362321108
 20
379.4544463766297
 30
0
 11
166.3657772284769
 21
379.4544463766297
 31
0
  0
LINE
  8
1
 62
2
  6
DASHED
 10
163.0166362321108
 20
381.9544463766297
 30
0
 11
164.7166362321109
 21
383.6544463766297
 31
0
  0
LINE
  8
1
 62
2
  6
DASHED
 10
161.7166362321109
 20
381.9544463766297
 30
0
 11
163.0166362321108
 21
381.9544463766297
 31
0
  0
LINE
  8
1
 62
2
  6
DASHED
 10
163.0166362321108
 20
381.9544463766297
 30
0
 11
163.0166362321108
 21
379.4544463766297
 31
0
  0
LINE
  8
1
 62
2
  6
DASHED
 10
164.7166362321109
 20
375.2544463766296
 30
0
 11
163.0166362321108
 21
376.9544463766297
 31
0
  0
LINE
  8
1
 62
2
  6
DASHED
 10
163.0166362321108
 20
376.9544463766297
 30
0
 11
161.7166362321109
 21
376.9544463766297
 31
0
  0
LINE
  8
1
 62
2
  6
DASHED
 10
163.0166362321108
 20
379.4544463766297
 30
0
 11
163.0166362321108
 21
376.9544463766297
 31
0
  0
LINE
  8
1
 62
7
 10
164.7166362321109
 20
99.65444637662966
 30
0
 11
164.7166362321109
 21
135.847564667987
 31
0
  0
LINE
  8
1
 62
2
  6
DASHED
 10
161.7166362321109
 20
153.9544463766297
 30
0
 11
161.7166362321109
 21
135.815477764097
 31
0
  0
LINE
  8
1
 62
7
 10
164.7166362321108
 20
89.4544463766297
 30
0
 11
164.7166362321109
 21
95.2544463766296
 31
0
  0
LINE
  8
1
 62
7
 10
164.7166362321109
 20
99.4544463766297
 30
0
 11
164.7166362321109
 21
103.6544463766297
 31
0
  0
LINE
  8
1
 62
2
  6
PHANTOM
 10
163.0166362321108
 20
99.4544463766297
 30
0
 11
164.7166362321109
 21
99.4544463766297
 31
0
  0
LINE
  8
1
 62
7
 10
164.7166362321109
 20
95.2544463766296
 30
0
 11
164.7166362321109
 21
99.4544463766297
 31
0
  0
LINE
  8
1
 62
2
  6
PHANTOM
 10
161.7166362321109
 20
99.4544463766297
 30
0
 11
163.0166362321108
 21
99.4544463766297
 31
0
  0
LINE
  8
1
 62
2
  6
DASHED
 10
161.7166362321109
 20
101.9544463766297
 30
0
 11
161.7166362321109
 21
99.4544463766297
 31
0
  0
LINE
  8
1
 62
2
  6
DASHED
 10
161.7166362321109
 20
302.4544463766297
 30
0
 11
164.7166362321109
 21
302.4544463766297
 31
0
  0
LINE
  8
1
 62
2
  6
DASHED
 10
161.7166362321109
 20
260.4544463766297
 30
0
 11
164.7166362321109
 21
260.4544463766297
 31
0
  0
LINE
  8
1
 62
2
  6
DASHED
 10
162.2166362321109
 20
225.4544463766297
 30
0
 11
164.7166362321109
 21
225.4544463766297
 31
0
  0
LINE
  8
1
 62
2
  6
DASHED
 10
162.2166362321109
 20
175.4544463766297
 30
0
 11
164.7166362321109
 21
175.4544463766297
 31
0
  0
LINE
  8
1
 62
7
 10
36.17252804132792
 20
389.4544463766297
 30
0
 11
36.17252804132792
 21
89.4544463766297
 31
0
  0
LINE
  8
1
 62
7
 10
131.7166362321108
 20
89.4544463766297
 30
0
 11
164.7166362321108
 21
89.4544463766297
 31
0
  0
LINE
  8
1
 62
7
 10
131.7166362321108
 20
389.4544463766297
 30
0
 11
131.7166362321108
 21
89.4544463766297
 31
0
  0
LINE
  8
1
 62
7
 10
164.7166362321109
 20
389.4544463766297
 30
0
 11
131.7166362321108
 21
389.4544463766297
 31
0
  0
LINE
  8
1
 62
2
  6
PHANTOM
 10
144.7166362321108
 20
122.1744463766297
 30
0
 11
144.7166362321108
 21
104.5815708490177
 31
0
  0
LINE
  8
1
 62
2
  6
PHANTOM
 10
137.9966362321108
 20
113.4544463766297
 30
0
 11
151.436636232111
 21
113.4544463766297
 31
0
  0
LINE
  8
1
 62
2
  6
PHANTOM
 10
144.7166362321108
 20
373.146552310226
 30
0
 11
144.7166362321108
 21
358.7344463766296
 31
0
  0
LINE
  8
1
 62
2
  6
PHANTOM
 10
137.9966362321108
 20
365.4544463766297
 30
0
 11
151.436636232111
 21
365.4544463766297
 31
0
  0
LINE
  8
1
 62
7
 10
164.7166362321109
 20
99.2544463766296
 30
0
 11
164.7166362321109
 21
95.2544463766296
 31
0
  0
LINE
  8
1
 62
2
  6
DASHED
 10
39.17252804132792
 20
110.9544463766297
 30
0
 11
39.17252804132792
 21
89.4544463766297
 31
0
  0
LINE
  8
1
 62
7
 10
40.17252804132792
 20
301.4544463766297
 30
0
 11
40.17252804132792
 21
294.4544463766297
 31
0
  0
ARC
  8
1
 62
7
 10
144.7166362321108
 20
365.4544463766297
 30
0
 40
4.199999999999989
 50
270
 51
90
  0
ARC
  8
1
 62
7
 10
144.7166362321108
 20
365.4544463766297
 30
0
 40
4.19999999999979
 50
180
 51
270
  0
ARC
  8
1
 62
7
 10
144.7166362321108
 20
365.4544463766297
 30
0
 40
4.199999999999932
 50
90
 51
180
  0
ARC
  8
1
 62
7
 10
144.7166362321108
 20
365.4544463766297
 30
0
 40
2.5
 50
90
 51
180
  0
ARC
  8
1
 62
7
 10
144.7166362321108
 20
365.4544463766297
 30
0
 40
2.5
 50
180
 51
270
  0
ARC
  8
1
 62
7
 10
144.7166362321108
 20
365.4544463766297
 30
0
 40
2.5
 50
270
 51
90
  0
ARC
  8
1
 62
7
 10
-43.82747195867216
 20
281.4544463766297
 30
0
 40
85.00000000000009
 50
351.202589290009
 51
0
  0
ARC
  8
1
 62
7
 10
-43.82747195867216
 20
281.4544463766297
 30
0
 40
85.00000000000009
 50
0
 51
8.797410709991055
  0
CIRCLE
  8
1
 62
7
 10
144.7166362321108
 20
228.4544463766297
 30
0
 40
2.5
  0
CIRCLE
  8
1
 62
7
 10
144.7166362321108
 20
228.4544463766297
 30
0
 40
4.19999999999979
  0
CIRCLE
  8
1
 62
7
 10
49.17252804132792
 20
322.4544463766297
 30
0
 40
2.5
  0
CIRCLE
  8
1
 62
7
 10
49.17252804132792
 20
322.4544463766297
 30
0
 40
4.199999999999996
  0
CIRCLE
  8
1
 62
7
 10
49.17252804132792
 20
244.4544463766297
 30
0
 40
2.5
  0
CIRCLE
  8
1
 62
7
 10
49.17252804132792
 20
244.4544463766297
 30
0
 40
4.199999999999996
  0
CIRCLE
  8
1
 62
7
 10
49.17252804132792
 20
156.4544463766297
 30
0
 40
2.5
  0
CIRCLE
  8
1
 62
7
 10
49.17252804132792
 20
156.4544463766297
 30
0
 40
4.199999999999996
  0
CIRCLE
  8
1
 62
7
 10
49.17252804132792
 20
379.4544463766297
 30
0
 40
2.5
  0
CIRCLE
  8
1
 62
7
 10
49.17252804132792
 20
379.4544463766297
 30
0
 40
4.199999999999996
  0
CIRCLE
  8
1
 62
7
 10
49.17252804132792
 20
99.4544463766297
 30
0
 40
2.5
  0
CIRCLE
  8
1
 62
7
 10
49.17252804132792
 20
99.4544463766297
 30
0
 40
4.199999999999996
  0
CIRCLE
  8
1
 62
7
 10
144.7166362321108
 20
113.4544463766297
 30
0
 40
2.5
  0
CIRCLE
  8
1
 62
7
 10
144.7166362321108
 20
113.4544463766297
 30
0
 40
4.19999999999979
  0
ARC
  8
1
 62
7
 10
55.17252804132794
 20
301.4544463766297
 30
0
 40
1
 50
0
 51
90
  0
ARC
  8
1
 62
7
 10
55.17252804132794
 20
261.4544463766297
 30
0
 40
1
 50
270
 51
0
  0
ARC
  8
1
 62
7
 10
41.17252804132792
 20
261.4544463766297
 30
0
 40
1
 50
180
 51
270
  0
ARC
  8
1
 62
7
 10
41.17252804132792
 20
301.4544463766297
 30
0
 40
1
 50
90
 51
180
  0
ARC
  8
1
 62
7
 10
51.17252804132794
 20
176.4544463766297
 30
0
 40
1
 50
270
 51
0
  0
ARC
  8
1
 62
7
 10
41.17252804132792
 20
176.4544463766297
 30
0
 40
1
 50
180
 51
270
  0
ARC
  8
1
 62
7
 10
41.17252804132792
 20
224.4544463766297
 30
0
 40
1
 50
90
 51
180
  0
ARC
  8
1
 62
7
 10
51.17252804132794
 20
224.4544463766297
 30
0
 40
1
 50
0
 51
90
  0
ARC
  8
1
 62
7
 10
160.7166362321108
 20
13.4544463766297
 30
0
 40
3.999999999999996
 50
270
 51
0
  0
ARC
  8
1
 62
7
 10
160.7166362321108
 20
13.4544463766297
 30
0
 40
1
 50
270
 51
0
  0
TEXT
  8
1
 62
7
 10
60.84308601107301
 20
30.10605655721023
 30
0
 40
7
  1
0-B-1296
 41
0.9
 72
2
 11
111.243086011073
 21
30.10605655721023
 31
0
  0
DIMENSION
  8
1
  6
CONTINUOUS
 62
1
  2
*D0
  3
DMST_1
 10
185.078457377207
 20
389.4544463766297
 30
0
 11
180.578457377207
 21
377.4544463766297
 31
0
 12
0
 22
0
 32
0
 70
128
 13
151.436636232111
 23
365.4544463766297
 33
0
 14
164.7166362321109
 24
389.4544463766297
 34
0
 50
90
 53
0
  0
DIMENSION
  8
1
  6
CONTINUOUS
 62
1
  2
*D1
  3
DMST_1
 10
185.078457377207
 20
228.4544463766297
 30
0
 11
180.578457377207
 21
296.9544463766297
 31
0
 12
0
 22
0
 32
0
 70
128
 13
151.436636232111
 23
365.4544463766297
 33
0
 14
151.436636232111
 24
228.4544463766297
 34
0
 50
90
 53
0
  0
DIMENSION
  8
1
  6
CONTINUOUS
 62
1
  2
*D2
  3
DMST_1
 10
185.078457377207
 20
228.4544463766297
 30
0
 11
180.578457377207
 21
170.9544463766297
 31
0
 12
0
 22
0
 32
0
 70
128
 13
151.436636232111
 23
113.4544463766297
 33
0
 14
151.436636232111
 24
228.4544463766297
 34
0
 50
90
 53
0
  0
DIMENSION
  8
1
  6
CONTINUOUS
 62
1
  2
*D3
  3
DMST_1
 10
185.078457377207
 20
113.4544463766297
 30
0
 11
180.578457377207
 21
101.4544463766297
 31
0
 12
0
 22
0
 32
0
 70
128
 13
164.7166362321108
 23
89.4544463766297
 33
0
 14
151.436636232111
 24
113.4544463766297
 34
0
 50
90
 53
0
  0
DIMENSION
  8
1
  6
CONTINUOUS
 62
1
  2
*D4
  3
DMST_1
 10
161.7166362321108
 20
45.0421014797321
 30
0
 11
151.6925686329414
 21
50.0952914470522
 31
0
 12
0
 22
0
 32
0
 70
128
 13
164.7166362321108
 23
32.4544463766297
 33
0
 14
161.7166362321108
 24
32.4544463766297
 34
0
 53
0
  0
DIMENSION
  8
1
  6
CONTINUOUS
 62
1
  2
*D7
  3
DMST_1
 10
74.07770322430804
 20
389.4544463766297
 30
0
 11
69.57770322430804
 21
384.4544463766297
 31
0
 12
0
 22
0
 32
0
 70
128
 13
55.89252804132803
 23
379.4544463766297
 33
0
 14
59.17252804132794
 24
389.4544463766297
 34
0
 50
90
 53
0
  0
DIMENSION
  8
1
  6
CONTINUOUS
 62
1
  2
*D8
  3
DMST_1
 10
74.16973504580703
 20
379.4544463766297
 30
0
 11
69.66973504580703
 21
350.9544463766297
 31
0
 12
0
 22
0
 32
0
 70
128
 13
55.89252804132803
 23
322.4544463766297
 33
0
 14
55.89252804132803
 24
379.4544463766297
 34
0
 50
90
 53
0
  0
DIMENSION
  8
1
  6
CONTINUOUS
 62
1
  2
*D9
  3
DMST_1
 10
74.13806420303904
 20
244.4544463766297
 30
0
 11
69.63806420303904
 21
283.4544463766297
 31
0
 12
0
 22
0
 32
0
 70
128
 13
55.89252804132803
 23
322.4544463766297
 33
0
 14
55.89252804132803
 24
244.4544463766297
 34
0
 50
90
 53
0
  0
DIMENSION
  8
1
  6
CONTINUOUS
 62
1
  2
*D10
  3
DMST_1
 10
74.13806420303904
 20
244.4544463766297
 30
0
 11
69.63806420303904
 21
200.4544463766297
 31
0
 12
0
 22
0
 32
0
 70
128
 13
55.89252804132803
 23
156.4544463766297
 33
0
 14
55.89252804132803
 24
244.4544463766297
 34
0
 50
90
 53
0
  0
DIMENSION
  8
1
  6
CONTINUOUS
 62
1
  2
*D11
  3
DMST_1
 10
74.30700892240303
 20
156.4544463766297
 30
0
 11
69.80700892240303
 21
127.9544463766297
 31
0
 12
0
 22
0
 32
0
 70
128
 13
55.89252804132803
 23
99.4544463766297
 33
0
 14
55.89252804132803
 24
156.4544463766297
 34
0
 50
90
 53
0
  0
DIMENSION
  8
1
  6
CONTINUOUS
 62
1
  2
*D12
  3
DMST_1
 10
74.33779892870304
 20
99.4544463766297
 30
0
 11
69.83779892870304
 21
94.4544463766297
 31
0
 12
0
 22
0
 32
0
 70
128
 13
59.17252804132794
 23
89.4544463766297
 33
0
 14
55.89252804132803
 24
99.4544463766297
 34
0
 50
90
 53
0
  0
DIMENSION
  8
1
  6
CONTINUOUS
 62
1
  2
*D13
  3
DMST_1
 10
89.43113165605203
 20
389.4544463766297
 30
0
 11
84.93113165605203
 21
239.4544463766298
 31
0
 12
0
 22
0
 32
0
 70
128
 13
59.17252804132794
 23
89.4544463766297
 33
0
 14
59.17252804132794
 24
389.4544463766297
 34
0
 50
90
 53
0
  0
DIMENSION
  8
1
  6
CONTINUOUS
 62
1
  2
*D14
  3
DMST_1
 10
6.186532937008025
 20
389.4544463766297
 30
0
 11
1.686532937008025
 21
345.9544463766297
 31
0
 12
0
 22
0
 32
0
 70
128
 13
41.17252804132792
 23
302.4544463766297
 33
0
 14
36.17252804132792
 24
389.4544463766297
 34
0
 50
90
 53
0
  0
DIMENSION
  8
1
  6
CONTINUOUS
 62
1
  2
*D15
  3
DMST_1
 10
6.142592263638022
 20
302.4544463766297
 30
0
 11
1.642592263638022
 21
281.4544463766297
 31
0
 12
0
 22
0
 32
0
 70
128
 13
41.17252804132792
 23
260.4544463766297
 33
0
 14
41.17252804132792
 24
302.4544463766297
 34
0
 50
90
 53
0
  0
DIMENSION
  8
1
  6
CONTINUOUS
 62
1
  2
*D16
  3
DMST_1
 10
6.142592263638022
 20
260.4544463766297
 30
0
 11
1.642592263638022
 21
242.9544463766297
 31
0
 12
0
 22
0
 32
0
 70
128
 13
41.17252804132792
 23
225.4544463766297
 33
0
 14
41.17252804132792
 24
260.4544463766297
 34
0
 50
90
 53
0
  0
DIMENSION
  8
1
  6
CONTINUOUS
 62
1
  2
*D17
  3
DMST_1
 10
6.142592263638022
 20
225.4544463766297
 30
0
 11
1.642592263638022
 21
200.4544463766297
 31
0
 12
0
 22
0
 32
0
 70
128
 13
41.17252804132792
 23
175.4544463766297
 33
0
 14
41.17252804132792
 24
225.4544463766297
 34
0
 50
90
 53
0
  0
DIMENSION
  8
1
  6
CONTINUOUS
 62
1
  2
*D18
  3
DMST_1
 10
6.214840012640025
 20
175.4544463766297
 30
0
 11
1.714840012640025
 21
132.4544463766297
 31
0
 12
0
 22
0
 32
0
 70
128
 13
36.17252804132792
 23
89.4544463766297
 33
0
 14
41.17252804132792
 24
175.4544463766297
 34
0
 50
90
 53
0
  0
DIMENSION
  8
1
  6
CONTINUOUS
 62
1
  2
*D19
  3
DMST_1
 10
49.17252804132793
 20
74.6069159294405
 30
0
 11
43.15922369686243
 21
79.1069159294405
 31
0
 12
0
 22
0
 32
0
 70
128
 13
36.17252804132792
 23
89.4544463766297
 33
0
 14
49.17252804132792
 24
92.73444637662971
 34
0
 53
0
  0
DIMENSION
  8
1
  6
CONTINUOUS
 62
1
  2
*D20
  3
DMST_1
 10
36.17252804132792
 20
59.53396429654759
 30
0
 11
47.67252804132792
 21
64.03396429654759
 31
0
 12
0
 22
0
 32
0
 70
128
 13
59.17252804132794
 23
89.4544463766297
 33
0
 14
36.17252804132792
 24
89.4544463766297
 34
0
 53
0
  0
DIMENSION
  8
1
  6
CONTINUOUS
 62
1
  2
*D21
  3
DMST_1
 10
164.7166362321109
 20
74.476686478549
 30
0
 11
154.7166362321109
 21
78.976686478549
 31
0
 12
0
 22
0
 32
0
 70
128
 13
144.7166362321108
 23
104.5815708490177
 33
0
 14
164.7166362321109
 24
95.2544463766296
 34
0
 53
0
  0
DIMENSION
  8
1
  6
CONTINUOUS
 62
1
  2
*D22
  3
DMST_1
 10
164.7166362321108
 20
59.52889578598689
 30
0
 11
148.2166362321108
 21
64.02889578598689
 31
0
 12
0
 22
0
 32
0
 70
128
 13
131.7166362321108
 23
89.4544463766297
 33
0
 14
164.7166362321108
 24
89.4544463766297
 34
0
 53
0
  0
DIMENSION
  8
1
  6
CONTINUOUS
 62
1
  2
*D23
  3
DMST_1
 10
56.17252804132794
 20
309.07448505532
 30
0
 11
48.19494349511504
 21
313.57448505532
 31
0
 12
0
 22
0
 32
0
 70
128
 13
40.17252804132792
 23
301.4544463766297
 33
0
 14
56.17252804132794
 24
301.4544463766297
 34
0
 53
0
  0
DIMENSION
  8
1
  6
CONTINUOUS
 62
1
  2
*D24
  3
DMST_1
 10
36.17252804132792
 20
309.07448505532
 30
0
 11
26.41182983783304
 21
313.57448505532
 31
0
 12
0
 22
0
 32
0
 70
128
 13
40.17252804132792
 23
301.4544463766297
 33
0
 14
36.17252804132792
 24
389.4544463766297
 34
0
 53
0
  0
DIMENSION
  8
1
  6
CONTINUOUS
 62
1
  2
*D25
  3
DMST_1
 10
41.17252804132792
 20
281.620323059217
 30
0
 11
48.67252804132792
 21
286.120323059217
 31
0
 12
0
 22
0
 32
0
 70
128
 13
56.17252804132794
 23
261.4544463766297
 33
0
 14
41.17252804132792
 24
281.4544463766297
 34
0
 53
0
  0
DIMENSION
  8
1
  6
CONTINUOUS
 62
1
  2
*D26
  3
DMST_1
 10
40.17252804132792
 20
281.642383886116
 30
0
 11
28.98585762404204
 21
286.142383886116
 31
0
 12
0
 22
0
 32
0
 70
128
 13
41.17252804132792
 23
281.4544463766297
 33
0
 14
40.17252804132792
 24
294.4544463766297
 34
0
 53
0
  0
INSERT
  8
1
  2
*D5
 10
0
 20
0
 30
0
  0
INSERT
  8
1
  2
*D6
 10
0
 20
0
 30
0
  0
ENDSEC
  0
EOF
