  0
SECTION
  2
HEADER
  9
$ACADVER
  1
AC1009
  9
$INSBASE
 10
0
 20
0
  9
$EXTMIN
 10
-2
 20
-44
  9
$EXTMAX
 10
114.925
 20
94.990131578947
  9
$LIMMIN
 10
-2
 20
-44
  9
$LIMMAX
 10
114.925
 20
94.990131578947
  9
$VIEWCTR
 10
10
 20
10
  9
$VIEWSIZE
 40
10
  9
$SNAPMODE
 70
0
  9
$SNAPUNIT
 10
1
 20
1
  9
$SNAPBASE
 10
0
 20
0
  9
$SNAPANG
 50
0
  9
$SNAPSTYLE
 70
0
  9
$SNAPISOPAIR
 70
0
  9
$GRIDMODE
 70
0
  9
$GRIDUNIT
 10
0
 20
0
  9
$ORTHOMODE
 70
0
  9
$REGENMODE
 70
1
  9
$FILLMODE
 70
1
  9
$QTEXTMODE
 70
0
  9
$DRAGMODE
 70
2
  9
$LTSCALE
 40
1
  9
$OSMODE
 70
0
  9
$ATTMODE
 70
1
  9
$TEXTSIZE
 40
3.5
  9
$TRACEWID
 40
0.5
  9
$TEXTSTYLE
  7
STANDARD
  9
$CLAYER
  8
0
  9
$CELTYPE
  6
BYLAYER
  9
$CECOLOR
 62
256
  9
$DIMSCALE
 40
1
  9
$DIMASZ
 40
0.18
  9
$DIMEXO
 40
0.0625
  9
$DIMDLI
 40
0.38
  9
$DIMRND
 40
0
  9
$DIMDLE
 40
0
  9
$DIMEXE
 40
0.18
  9
$DIMTP
 40
0
  9
$DIMTM
 40
0
  9
$DIMTXT
 40
0.18
  9
$DIMCEN
 40
0.09
  9
$DIMTSZ
 40
0
  9
$DIMTOL
 70
0
  9
$DIMLIM
 70
0
  9
$DIMTIH
 70
1
  9
$DIMTOH
 70
1
  9
$DIMSE1
 70
0
  9
$DIMSE2
 70
0
  9
$DIMTAD
 70
0
  9
$DIMZIN
 70
0
  9
$DIMBLK
  1

  9
$DIMASO
 70
1
  9
$DIMSHO
 70
1
  9
$DIMPOST
  1

  9
$DIMAPOST
  1

  9
$DIMALT
 70
0
  9
$DIMALTD
 70
2
  9
$DIMALTF
 40
25.4
  9
$DIMLFAC
 40
1
  9
$DIMTOFL
 70
0
  9
$DIMTVP
 40
0
  9
$DIMTIX
 70
0
  9
$DIMSOXD
 70
0
  9
$DIMSAH
 70
0
  9
$DIMBLK1
  1

  9
$DIMBLK2
  1

  9
$DIMSTYLE
  2
*UNNAMED
  9
$DIMCLRD
 70
0
  9
$DIMCLRE
 70
0
  9
$DIMCLRT
 70
0
  9
$DIMTFAC
 40
1
  9
$DIMGAP
 40
0.09
  9
$LUNITS
 70
2
  9
$LUPREC
 70
4
  9
$AXISMODE
 70
0
  9
$AXISUNIT
 10
0
 20
0
  9
$SKETCHINC
 40
0.1
  9
$FILLETRAD
 40
2
  9
$AUNITS
 70
0
  9
$AUPREC
 70
0
  9
$MENU
  1
ACAD
  9
$ELEVATION
 40
0
  9
$THICKNESS
 40
0
  9
$VIEWDIR
 10
0
 20
0
 30
1
  9
$LIMCHECK
 70
0
  9
$BLIPMODE
 70
1
  9
$CHAMFERA
 40
0
  9
$CHAMFERB
 40
0
  9
$FASTZOOM
 70
1
  9
$SKPOLY
 70
0
  9
$ANGBASE
 50
0
  9
$ANGDIR
 70
0
  9
$PDMODE
 70
0
  9
$PDSIZE
 40
0
  9
$PLINEWID
 40
0
  9
$COORDS
 70
2
  0
ENDSEC
  0
SECTION
  2
TABLES
  0
TABLE
  2
DIMSTYLE
 70
2
  0
DIMSTYLE
  2
DMST_1
 70
0
  3

  4

  5

  6

  7

 40
1
 41
2.45
 42
0
 43
7
 44
2
 45
0
 46
0
 47
0
 48
0
140
3.5
141
0
142
0
143
25.4
144
1
145
0
146
1
147
0.09
 71
0
 72
0
 73
0
 74
0
 75
0
 76
0
 77
1
 78
9
170
0
171
2
172
0
173
0
174
0
175
0
176
1
177
1
178
3
  0
DIMSTYLE
  2
DMST_2
 70
0
  3

  4

  5

  6

  7

 40
1
 41
2.45
 42
0
 43
7
 44
2
 45
0
 46
0
 47
0
 48
0
140
3.5
141
0
142
0
143
25.4
144
1
145
0
146
1
147
0.09
 71
0
 72
0
 73
0
 74
0
 75
0
 76
0
 77
1
 78
9
170
0
171
2
172
1
173
0
174
0
175
0
176
1
177
1
178
3
  0
ENDTAB
  0
TABLE
  2
LTYPE
 70
9
  0
LTYPE
  2
CONTINUOUS
 70
64
  3
Solid line
 72
65
 73
0
 40
0
  0
LTYPE
  2
BORDER
 70
64
  3
__ __ . __ __ .
 72
65
 73
6
 40
6.400861322714664
 49
1.828817520775618
 49
-0.9144087603878092
 49
1.828817520775618
 49
-0.9144087603878092
 49
0
 49
-0.9144087603878092
  0
LTYPE
  2
CENTER
 70
64
  3
____ _ ____ _
 72
65
 73
4
 40
7.315270083102473
 49
4.572043801939046
 49
-0.9144087603878092
 49
0.9144087603878092
 49
-0.9144087603878092
  0
LTYPE
  2
DASHDOT
 70
64
  3
__ . __ . __ .
 72
65
 73
4
 40
3.657635041551237
 49
1.828817520775618
 49
-0.9144087603878092
 49
0
 49
-0.9144087603878092
  0
LTYPE
  2
DASHED
 70
64
  3
__ __ __ __ __
 72
65
 73
2
 40
2.743226281163428
 49
1.828817520775618
 49
-0.9144087603878092
  0
LTYPE
  2
DIVIDE
 70
64
  3
__ . . __ . . 
 72
65
 73
6
 40
4.572043801939046
 49
1.828817520775618
 49
-0.9144087603878092
 49
0
 49
-0.9144087603878092
 49
0
 49
-0.9144087603878092
  0
LTYPE
  2
DOT
 70
64
  3
..............
 72
65
 73
4
 40
1.828817520775618
 49
0
 49
-0.9144087603878092
 49
0
 49
-0.9144087603878092
  0
LTYPE
  2
HIDDEN
 70
64
  3
_ _ _ _ _ _ _
 72
65
 73
2
 40
1.371613140581714
 49
0.9144087603878092
 49
-0.4572043801939046
  0
LTYPE
  2
PHANTOM
 70
64
  3
_____ _ _ _____ _ _ 
 72
65
 73
6
 40
9.144087603878091
 49
4.572043801939046
 49
-0.9144087603878092
 49
0.9144087603878092
 49
-0.9144087603878092
 49
0.9144087603878092
 49
-0.9144087603878092
  0
ENDTAB
  0
TABLE
  2
LAYER
 70
3
  0
LAYER
  2
1
 70
0
 62
7
  6
CONTINUOUS
  0
LAYER
  2
0
 70
0
 62
7
  6
CONTINUOUS
  0
ENDTAB
  0
TABLE
  2
STYLE
 70
4
  0
STYLE
  2
STANDARD
 70
0
 40
0
 41
1
 50
0
 71
0
 42
3.5
  3
txt
  4

  0
STYLE
  2
SIMPLEX
 70
0
 40
0
 41
1
 50
0
 71
0
 42
3.5
  3
simplex
  4

  0
STYLE
  2
COMPLEX
 70
0
 40
0
 41
1
 50
0
 71
0
 42
3.5
  3
complex
  4

  0
STYLE
  2
ITALIC
 70
0
 40
0
 41
1
 50
0
 71
0
 42
3.5
  3
italic
  4

  0
ENDTAB
  0
TABLE
  2
VIEW
 70
0
  0
ENDTAB
  0
ENDSEC
  0
SECTION
  2
BLOCKS
  0
BLOCK
  8
1
  2
*D0
 70
1
 10
0
 20
0
 30
0
  0
LINE
  8
1
 62
1
 10
66.70526315789499
 20
22.82763157894699
 30
0
 11
58.4173802175401
 21
22.82763157894699
 31
0
  0
LINE
  8
1
 62
1
 10
66.70526315789499
 20
22.82763157894699
 30
0
 11
68.20526315789499
 21
22.82763157894699
 31
0
  0
LINE
  8
1
 62
1
 10
73.105263157895
 20
22.82763157894699
 30
0
 11
68.20526315789499
 21
22.82763157894699
 31
0
  0
LINE
  8
1
 62
1
 10
68.20526315789499
 20
17.5
 30
0
 11
68.20526315789499
 21
24.82763157894699
 31
0
  0
LINE
  8
1
 62
1
 10
66.70526315789499
 20
9
 30
0
 11
66.70526315789499
 21
24.82763157894699
 31
0
  0
LINE
  8
1
 62
1
 10
68.20526315789499
 20
22.82763157894699
 30
0
 11
70.65526315789499
 21
23.14613157894699
 31
0
  0
LINE
  8
1
 62
1
 10
70.65526315789499
 20
23.14613157894699
 30
0
 11
70.65526315789499
 21
22.50913157894699
 31
0
  0
LINE
  8
1
 62
1
 10
70.65526315789499
 20
22.50913157894699
 30
0
 11
68.20526315789499
 21
22.82763157894699
 31
0
  0
LINE
  8
1
 62
1
 10
66.70526315789499
 20
22.82763157894699
 30
0
 11
64.25526315789499
 21
22.50913157894699
 31
0
  0
LINE
  8
1
 62
1
 10
64.25526315789499
 20
22.50913157894699
 30
0
 11
64.25526315789499
 21
23.14613157894699
 31
0
  0
LINE
  8
1
 62
1
 10
64.25526315789499
 20
23.14613157894699
 30
0
 11
66.70526315789499
 21
22.82763157894699
 31
0
  0
TEXT
  8
1
 62
3
 10
58.4173802175401
 20
24.17763157894699
 30
0
 40
3.5
  1
1,5
 41
0.9
  0
ENDBLK
  8
0
  0
BLOCK
  8
1
  2
*D1
 70
1
 10
0
 20
0
 30
0
  0
LINE
  8
1
 62
1
 10
102.925
 20
72.5
 30
0
 11
102.925
 21
85
 31
0
  0
LINE
  8
1
 62
1
 10
84.70526315789499
 20
85
 30
0
 11
104.925
 21
85
 31
0
  0
LINE
  8
1
 62
1
 10
76.20526315789499
 20
72.5
 30
0
 11
104.925
 21
72.5
 31
0
  0
LINE
  8
1
 62
1
 10
102.925
 20
72.5
 30
0
 11
102.6065
 21
74.95
 31
0
  0
LINE
  8
1
 62
1
 10
102.6065
 20
74.95
 30
0
 11
103.2435
 21
74.95
 31
0
  0
LINE
  8
1
 62
1
 10
103.2435
 20
74.95
 30
0
 11
102.925
 21
72.5
 31
0
  0
LINE
  8
1
 62
1
 10
102.925
 20
85
 30
0
 11
103.2435
 21
82.55
 31
0
  0
LINE
  8
1
 62
1
 10
103.2435
 20
82.55
 30
0
 11
102.6065
 21
82.55
 31
0
  0
LINE
  8
1
 62
1
 10
102.6065
 20
82.55
 30
0
 11
102.925
 21
85
 31
0
  0
TEXT
  8
1
 62
3
 10
101.575
 20
74.46250000000001
 30
0
 40
3.5
  1
12,5
 50
90
 41
0.9
  0
ENDBLK
  8
0
  0
BLOCK
  8
1
  2
*D2
 70
1
 10
0
 20
0
 30
0
  0
LINE
  8
1
 62
1
 10
47.92500000000001
 20
0
 30
0
 11
47.92500000000001
 21
-11.48486842105302
 31
0
  0
LINE
  8
1
 62
1
 10
47.92500000000001
 20
0
 30
0
 11
47.92500000000001
 21
6.499999999999998
 31
0
  0
LINE
  8
1
 62
1
 10
47.92500000000001
 20
11.40000000000001
 30
0
 11
47.92500000000001
 21
6.499999999999998
 31
0
  0
LINE
  8
1
 62
1
 10
68.20526315789499
 20
6.499999999999998
 30
0
 11
45.92500000000001
 21
6.499999999999998
 31
0
  0
LINE
  8
1
 62
1
 10
75.70526315789499
 20
0
 30
0
 11
45.92500000000001
 21
0
 31
0
  0
LINE
  8
1
 62
1
 10
47.92500000000001
 20
0
 30
0
 11
48.24350000000001
 21
-2.45
 31
0
  0
LINE
  8
1
 62
1
 10
48.24350000000001
 20
-2.45
 30
0
 11
47.60650000000001
 21
-2.45
 31
0
  0
LINE
  8
1
 62
1
 10
47.60650000000001
 20
-2.45
 30
0
 11
47.92500000000001
 21
0
 31
0
  0
LINE
  8
1
 62
1
 10
47.92500000000001
 20
6.499999999999998
 30
0
 11
47.60650000000001
 21
8.949999999999998
 31
0
  0
LINE
  8
1
 62
1
 10
47.60650000000001
 20
8.949999999999998
 30
0
 11
48.24350000000001
 21
8.949999999999998
 31
0
  0
LINE
  8
1
 62
1
 10
48.24350000000001
 20
8.949999999999998
 30
0
 11
47.92500000000001
 21
6.499999999999998
 31
0
  0
TEXT
  8
1
 62
3
 10
46.575
 20
-11.48486842105301
 30
0
 40
3.5
  1
6,5
 50
90
 41
0.9
  0
ENDBLK
  8
0
  0
BLOCK
  8
1
  2
*D3
 70
1
 10
0
 20
0
 30
0
  0
LINE
  8
1
 62
1
 10
47.92500000000001
 20
85
 30
0
 11
47.92500000000001
 21
94.990131578947
 31
0
  0
LINE
  8
1
 62
1
 10
47.92500000000001
 20
78.5
 30
0
 11
47.92500000000001
 21
85
 31
0
  0
LINE
  8
1
 62
1
 10
47.92500000000001
 20
73.59999999999999
 30
0
 11
47.92500000000001
 21
78.5
 31
0
  0
LINE
  8
1
 62
1
 10
75.7052631578949
 20
85
 30
0
 11
45.92500000000001
 21
85
 31
0
  0
LINE
  8
1
 62
1
 10
68.20526315789499
 20
78.5
 30
0
 11
45.92500000000001
 21
78.5
 31
0
  0
LINE
  8
1
 62
1
 10
47.92500000000001
 20
78.5
 30
0
 11
48.24350000000001
 21
76.05
 31
0
  0
LINE
  8
1
 62
1
 10
48.24350000000001
 20
76.05
 30
0
 11
47.60650000000001
 21
76.05
 31
0
  0
LINE
  8
1
 62
1
 10
47.60650000000001
 20
76.05
 30
0
 11
47.92500000000001
 21
78.5
 31
0
  0
LINE
  8
1
 62
1
 10
47.92500000000001
 20
85
 30
0
 11
47.60650000000001
 21
87.45
 31
0
  0
LINE
  8
1
 62
1
 10
47.60650000000001
 20
87.45
 30
0
 11
48.24350000000001
 21
87.45
 31
0
  0
LINE
  8
1
 62
1
 10
48.24350000000001
 20
87.45
 30
0
 11
47.92500000000001
 21
85
 31
0
  0
TEXT
  8
1
 62
3
 10
46.575
 20
88.51513157894699
 30
0
 40
3.5
  1
6,5
 50
90
 41
0.9
  0
ENDBLK
  8
0
  0
BLOCK
  8
1
  2
*D4
 70
1
 10
0
 20
0
 30
0
  0
LINE
  8
1
 62
1
 10
37.75
 20
0
 30
0
 11
37.75
 21
85
 31
0
  0
LINE
  8
1
 62
1
 10
75.70526315789499
 20
0
 30
0
 11
35.75
 21
0
 31
0
  0
LINE
  8
1
 62
1
 10
75.70526315789499
 20
85
 30
0
 11
35.75
 21
85
 31
0
  0
LINE
  8
1
 62
1
 10
37.75
 20
85
 30
0
 11
38.0685
 21
82.55
 31
0
  0
LINE
  8
1
 62
1
 10
38.0685
 20
82.55
 30
0
 11
37.4315
 21
82.55
 31
0
  0
LINE
  8
1
 62
1
 10
37.4315
 20
82.55
 30
0
 11
37.75
 21
85
 31
0
  0
LINE
  8
1
 62
1
 10
37.75
 20
0
 30
0
 11
37.4315
 21
2.45
 31
0
  0
LINE
  8
1
 62
1
 10
37.4315
 20
2.45
 30
0
 11
38.0685
 21
2.45
 31
0
  0
LINE
  8
1
 62
1
 10
38.0685
 20
2.45
 30
0
 11
37.75
 21
0
 31
0
  0
TEXT
  8
1
 62
3
 10
36.75
 20
39.875
 30
0
 40
3.5
  1
85
 50
90
 41
0.9
  0
ENDBLK
  8
0
  0
BLOCK
  8
1
  2
*D5
 70
1
 10
0
 20
0
 30
0
  0
LINE
  8
1
 62
1
 10
102.925
 20
0
 30
0
 11
102.925
 21
12.5
 31
0
  0
LINE
  8
1
 62
1
 10
84.70526315789499
 20
0
 30
0
 11
104.925
 21
0
 31
0
  0
LINE
  8
1
 62
1
 10
76.20526315789499
 20
12.5
 30
0
 11
104.925
 21
12.5
 31
0
  0
LINE
  8
1
 62
1
 10
102.925
 20
12.5
 30
0
 11
103.2435
 21
10.05
 31
0
  0
LINE
  8
1
 62
1
 10
103.2435
 20
10.05
 30
0
 11
102.6065
 21
10.05
 31
0
  0
LINE
  8
1
 62
1
 10
102.6065
 20
10.05
 30
0
 11
102.925
 21
12.5
 31
0
  0
LINE
  8
1
 62
1
 10
102.925
 20
0
 30
0
 11
102.6065
 21
2.45
 31
0
  0
LINE
  8
1
 62
1
 10
102.6065
 20
2.45
 30
0
 11
103.2435
 21
2.45
 31
0
  0
LINE
  8
1
 62
1
 10
103.2435
 20
2.45
 30
0
 11
102.925
 21
0
 31
0
  0
TEXT
  8
1
 62
3
 10
101.575
 20
1.962499999999999
 30
0
 40
3.5
  1
12,5
 50
90
 41
0.9
  0
ENDBLK
  8
0
  0
BLOCK
  8
1
  2
*D6
 70
1
 10
0
 20
0
 30
0
  0
LINE
  8
1
 62
1
 10
76.30526315789501
 20
22.82763157894698
 30
0
 11
81.20526315789499
 21
22.82763157894698
 31
0
  0
LINE
  8
1
 62
1
 10
81.20526315789499
 20
22.82763157894698
 30
0
 11
84.70526315789499
 21
22.82763157894698
 31
0
  0
LINE
  8
1
 62
1
 10
84.70526315789499
 20
22.82763157894698
 30
0
 11
93.23750000000001
 21
22.82763157894698
 31
0
  0
LINE
  8
1
 62
1
 10
81.20526315789499
 20
17.5
 30
0
 11
81.20526315789499
 21
24.82763157894698
 31
0
  0
LINE
  8
1
 62
1
 10
84.70526315789499
 20
0
 30
0
 11
84.70526315789499
 21
24.82763157894698
 31
0
  0
LINE
  8
1
 62
1
 10
81.20526315789499
 20
22.82763157894698
 30
0
 11
78.75526315789499
 21
22.50913157894698
 31
0
  0
LINE
  8
1
 62
1
 10
78.75526315789499
 20
22.50913157894698
 30
0
 11
78.75526315789499
 21
23.14613157894698
 31
0
  0
LINE
  8
1
 62
1
 10
78.75526315789499
 20
23.14613157894698
 30
0
 11
81.20526315789499
 21
22.82763157894698
 31
0
  0
LINE
  8
1
 62
1
 10
84.70526315789499
 20
22.82763157894698
 30
0
 11
87.15526315789499
 21
23.14613157894698
 31
0
  0
LINE
  8
1
 62
1
 10
87.15526315789499
 20
23.14613157894698
 30
0
 11
87.15526315789499
 21
22.50913157894698
 31
0
  0
LINE
  8
1
 62
1
 10
87.15526315789499
 20
22.50913157894698
 30
0
 11
84.70526315789499
 21
22.82763157894698
 31
0
  0
TEXT
  8
1
 62
3
 10
86.7625
 20
24.17763157894699
 30
0
 40
3.5
  1
3,5
 41
0.9
  0
ENDBLK
  8
0
  0
BLOCK
  8
1
  2
*D7
 70
1
 10
0
 20
0
 30
0
  0
LINE
  8
1
 62
1
 10
66.70526315789499
 20
-22.75
 30
0
 11
84.70526315789499
 21
-22.75
 31
0
  0
LINE
  8
1
 62
1
 10
66.70526315789499
 20
9
 30
0
 11
66.70526315789499
 21
-24.75
 31
0
  0
LINE
  8
1
 62
1
 10
84.70526315789499
 20
0
 30
0
 11
84.70526315789499
 21
-24.75
 31
0
  0
LINE
  8
1
 62
1
 10
66.70526315789499
 20
-22.75
 30
0
 11
69.15526315789499
 21
-22.4315
 31
0
  0
LINE
  8
1
 62
1
 10
69.15526315789499
 20
-22.4315
 30
0
 11
69.15526315789499
 21
-23.0685
 31
0
  0
LINE
  8
1
 62
1
 10
69.15526315789499
 20
-23.0685
 30
0
 11
66.70526315789499
 21
-22.75
 31
0
  0
LINE
  8
1
 62
1
 10
84.70526315789499
 20
-22.75
 30
0
 11
82.25526315789499
 21
-23.0685
 31
0
  0
LINE
  8
1
 62
1
 10
82.25526315789499
 20
-23.0685
 30
0
 11
82.25526315789499
 21
-22.4315
 31
0
  0
LINE
  8
1
 62
1
 10
82.25526315789499
 20
-22.4315
 30
0
 11
84.70526315789499
 21
-22.75
 31
0
  0
TEXT
  8
1
 62
3
 10
73.605263157895
 20
-21.75
 30
0
 40
3.5
  1
18
 41
0.9
  0
ENDBLK
  8
0
  0
BLOCK
  8
1
  2
*D8
 70
1
 10
0
 20
0
 30
0
  0
LINE
  8
1
 62
1
 10
75.70526315789499
 20
-12.75
 30
0
 11
84.70526315789499
 21
-12.75
 31
0
  0
LINE
  8
1
 62
1
 10
75.70526315789499
 20
0
 30
0
 11
75.70526315789499
 21
-14.75
 31
0
  0
LINE
  8
1
 62
1
 10
84.70526315789499
 20
0
 30
0
 11
84.70526315789499
 21
-14.75
 31
0
  0
LINE
  8
1
 62
1
 10
84.70526315789499
 20
-12.75
 30
0
 11
82.25526315789499
 21
-13.0685
 31
0
  0
LINE
  8
1
 62
1
 10
82.25526315789499
 20
-13.0685
 30
0
 11
82.25526315789499
 21
-12.4315
 31
0
  0
LINE
  8
1
 62
1
 10
82.25526315789499
 20
-12.4315
 30
0
 11
84.70526315789499
 21
-12.75
 31
0
  0
LINE
  8
1
 62
1
 10
75.70526315789499
 20
-12.75
 30
0
 11
78.15526315789499
 21
-12.4315
 31
0
  0
LINE
  8
1
 62
1
 10
78.15526315789499
 20
-12.4315
 30
0
 11
78.15526315789499
 21
-13.0685
 31
0
  0
LINE
  8
1
 62
1
 10
78.15526315789499
 20
-13.0685
 30
0
 11
75.70526315789499
 21
-12.75
 31
0
  0
TEXT
  8
1
 62
3
 10
79.15526315789499
 20
-11.75
 30
0
 40
3.500000000000001
  1
9
 41
0.9
  0
ENDBLK
  8
0
  0
BLOCK
  8
1
  2
*D9
 70
1
 10
0
 20
0
 30
0
  0
LINE
  8
1
 62
1
 10
112.925
 20
0
 30
0
 11
112.925
 21
32.5
 31
0
  0
LINE
  8
1
 62
1
 10
84.70526315789499
 20
0
 30
0
 11
114.925
 21
0
 31
0
  0
LINE
  8
1
 62
1
 10
84.70526315789499
 20
32.5
 30
0
 11
114.925
 21
32.5
 31
0
  0
LINE
  8
1
 62
1
 10
112.925
 20
0
 30
0
 11
112.6065
 21
2.450000000000001
 31
0
  0
LINE
  8
1
 62
1
 10
112.6065
 20
2.450000000000001
 30
0
 11
113.2435
 21
2.450000000000001
 31
0
  0
LINE
  8
1
 62
1
 10
113.2435
 20
2.450000000000001
 30
0
 11
112.925
 21
0
 31
0
  0
LINE
  8
1
 62
1
 10
112.925
 20
32.5
 30
0
 11
113.2435
 21
30.05
 31
0
  0
LINE
  8
1
 62
1
 10
113.2435
 20
30.05
 30
0
 11
112.6065
 21
30.05
 31
0
  0
LINE
  8
1
 62
1
 10
112.6065
 20
30.05
 30
0
 11
112.925
 21
32.5
 31
0
  0
TEXT
  8
1
 62
3
 10
111.575
 20
11.4375
 30
0
 40
3.500000000000001
  1
32,5
 50
90
 41
0.9
  0
ENDBLK
  8
0
  0
BLOCK
  8
1
  2
*D10
 70
1
 10
0
 20
0
 30
0
  0
LINE
  8
1
 62
1
 10
47.950131757682
 20
6.5
 30
0
 11
47.950131757682
 21
78.5
 31
0
  0
LINE
  8
1
 62
1
 10
68.20526315789499
 20
6.5
 30
0
 11
45.950131757682
 21
6.5
 31
0
  0
LINE
  8
1
 62
1
 10
68.20526315789499
 20
78.5
 30
0
 11
45.950131757682
 21
78.5
 31
0
  0
LINE
  8
1
 62
1
 10
47.950131757682
 20
6.5
 30
0
 11
47.631631757682
 21
8.949999999999999
 31
0
  0
LINE
  8
1
 62
1
 10
47.631631757682
 20
8.949999999999999
 30
0
 11
48.268631757682
 21
8.949999999999999
 31
0
  0
LINE
  8
1
 62
1
 10
48.268631757682
 20
8.949999999999999
 30
0
 11
47.950131757682
 21
6.5
 31
0
  0
LINE
  8
1
 62
1
 10
47.950131757682
 20
78.5
 30
0
 11
48.268631757682
 21
76.05
 31
0
  0
LINE
  8
1
 62
1
 10
48.268631757682
 20
76.05
 30
0
 11
47.631631757682
 21
76.05
 31
0
  0
LINE
  8
1
 62
1
 10
47.631631757682
 20
76.05
 30
0
 11
47.950131757682
 21
78.5
 31
0
  0
TEXT
  8
1
 62
3
 10
46.950131757682
 20
39.875
 30
0
 40
3.5
  1
72
 50
90
 41
0.9
  0
ENDBLK
  8
0
  0
BLOCK
  8
1
  2
*D11
 70
1
 10
0
 20
0
 30
0
  0
LINE
  8
1
 62
1
 10
68.20526315789499
 20
22.83432142831
 30
0
 11
81.20526315789499
 21
22.83432142831
 31
0
  0
LINE
  8
1
 62
1
 10
68.20526315789499
 20
17.5
 30
0
 11
68.20526315789499
 21
24.83432142831
 31
0
  0
LINE
  8
1
 62
1
 10
81.20526315789499
 20
17.5
 30
0
 11
81.20526315789499
 21
24.83432142831
 31
0
  0
LINE
  8
1
 62
1
 10
81.20526315789499
 20
22.83432142831
 30
0
 11
78.75526315789499
 21
22.51582142831
 31
0
  0
LINE
  8
1
 62
1
 10
78.75526315789499
 20
22.51582142831
 30
0
 11
78.75526315789499
 21
23.15282142831
 31
0
  0
LINE
  8
1
 62
1
 10
78.75526315789499
 20
23.15282142831
 30
0
 11
81.20526315789499
 21
22.83432142831
 31
0
  0
LINE
  8
1
 62
1
 10
68.20526315789499
 20
22.83432142831
 30
0
 11
70.65526315789499
 21
23.15282142831
 31
0
  0
LINE
  8
1
 62
1
 10
70.65526315789499
 20
23.15282142831
 30
0
 11
70.65526315789499
 21
22.51582142831
 31
0
  0
LINE
  8
1
 62
1
 10
70.65526315789499
 20
22.51582142831
 30
0
 11
68.20526315789499
 21
22.83432142831
 31
0
  0
TEXT
  8
1
 62
3
 10
72.605263157895
 20
23.83432142831
 30
0
 40
3.5
  1
13
 41
0.9
  0
ENDBLK
  8
0
  0
BLOCK
  8
1
  2
*D12
 70
1
 10
0
 20
0
 30
0
  0
LINE
  8
1
 62
1
 10
112.909958844869
 20
32.5
 30
0
 11
112.909958844869
 21
52.5
 31
0
  0
LINE
  8
1
 62
1
 10
84.70526315789499
 20
32.5
 30
0
 11
114.909958844869
 21
32.5
 31
0
  0
LINE
  8
1
 62
1
 10
84.70526315789499
 20
52.5
 30
0
 11
114.909958844869
 21
52.5
 31
0
  0
LINE
  8
1
 62
1
 10
112.909958844869
 20
32.5
 30
0
 11
112.591458844869
 21
34.95
 31
0
  0
LINE
  8
1
 62
1
 10
112.591458844869
 20
34.95
 30
0
 11
113.228458844869
 21
34.95
 31
0
  0
LINE
  8
1
 62
1
 10
113.228458844869
 20
34.95
 30
0
 11
112.909958844869
 21
32.5
 31
0
  0
LINE
  8
1
 62
1
 10
112.909958844869
 20
52.5
 30
0
 11
113.228458844869
 21
50.05
 31
0
  0
LINE
  8
1
 62
1
 10
113.228458844869
 20
50.05
 30
0
 11
112.591458844869
 21
50.05
 31
0
  0
LINE
  8
1
 62
1
 10
112.591458844869
 20
50.05
 30
0
 11
112.909958844869
 21
52.5
 31
0
  0
TEXT
  8
1
 62
3
 10
111.909958844869
 20
39.875
 30
0
 40
3.5
  1
20
 50
90
 41
0.9
  0
ENDBLK
  8
0
  0
BLOCK
  8
1
  2
*D13
 70
1
 10
0
 20
0
 30
0
  0
LINE
  8
1
 62
1
 10
112.925
 20
52.5
 30
0
 11
112.925
 21
85
 31
0
  0
LINE
  8
1
 62
1
 10
84.70526315789499
 20
52.5
 30
0
 11
114.925
 21
52.5
 31
0
  0
LINE
  8
1
 62
1
 10
84.70526315789499
 20
85
 30
0
 11
114.925
 21
85
 31
0
  0
LINE
  8
1
 62
1
 10
112.925
 20
85
 30
0
 11
113.2435
 21
82.55
 31
0
  0
LINE
  8
1
 62
1
 10
113.2435
 20
82.55
 30
0
 11
112.6065
 21
82.55
 31
0
  0
LINE
  8
1
 62
1
 10
112.6065
 20
82.55
 30
0
 11
112.925
 21
85
 31
0
  0
LINE
  8
1
 62
1
 10
112.925
 20
52.5
 30
0
 11
112.6065
 21
54.95
 31
0
  0
LINE
  8
1
 62
1
 10
112.6065
 20
54.95
 30
0
 11
113.2435
 21
54.95
 31
0
  0
LINE
  8
1
 62
1
 10
113.2435
 20
54.95
 30
0
 11
112.925
 21
52.5
 31
0
  0
TEXT
  8
1
 62
3
 10
111.575
 20
63.9375
 30
0
 40
3.5
  1
32,5
 50
90
 41
0.9
  0
ENDBLK
  8
0
  0
BLOCK
  8
1
  2
*D14
 70
1
 10
0
 20
0
 30
0
  0
LINE
  8
1
 62
1
 10
0
 20
-22.75
 30
0
 11
10
 21
-22.75
 31
0
  0
LINE
  8
1
 62
1
 10
0
 20
0
 30
0
 11
0
 21
-24.75
 31
0
  0
LINE
  8
1
 62
1
 10
10
 20
0
 30
0
 11
10
 21
-24.75
 31
0
  0
LINE
  8
1
 62
1
 10
0
 20
-22.75
 30
0
 11
2.45
 21
-22.4315
 31
0
  0
LINE
  8
1
 62
1
 10
2.45
 20
-22.4315
 30
0
 11
2.45
 21
-23.0685
 31
0
  0
LINE
  8
1
 62
1
 10
2.45
 20
-23.0685
 30
0
 11
0
 21
-22.75
 31
0
  0
LINE
  8
1
 62
1
 10
10
 20
-22.75
 30
0
 11
7.550000000000001
 21
-23.0685
 31
0
  0
LINE
  8
1
 62
1
 10
7.550000000000001
 20
-23.0685
 30
0
 11
7.550000000000001
 21
-22.4315
 31
0
  0
LINE
  8
1
 62
1
 10
7.550000000000001
 20
-22.4315
 30
0
 11
10
 21
-22.75
 31
0
  0
TEXT
  8
1
 62
3
 10
2.9
 20
-21.75
 30
0
 40
3.5
  1
10
 41
0.9
  0
ENDBLK
  8
0
  0
BLOCK
  8
1
  2
*D15
 70
1
 10
0
 20
0
 30
0
  0
LINE
  8
1
 62
1
 10
3.1
 20
-12.75
 30
0
 11
8
 21
-12.75
 31
0
  0
LINE
  8
1
 62
1
 10
8
 20
-12.75
 30
0
 11
10
 21
-12.75
 31
0
  0
LINE
  8
1
 62
1
 10
10
 20
-12.75
 30
0
 11
16.05
 21
-12.75
 31
0
  0
LINE
  8
1
 62
1
 10
8
 20
12.5
 30
0
 11
8
 21
-14.75
 31
0
  0
LINE
  8
1
 62
1
 10
10
 20
0
 30
0
 11
10
 21
-14.75
 31
0
  0
LINE
  8
1
 62
1
 10
10
 20
-12.75
 30
0
 11
12.45
 21
-12.4315
 31
0
  0
LINE
  8
1
 62
1
 10
12.45
 20
-12.4315
 30
0
 11
12.45
 21
-13.0685
 31
0
  0
LINE
  8
1
 62
1
 10
12.45
 20
-13.0685
 30
0
 11
10
 21
-12.75
 31
0
  0
LINE
  8
1
 62
1
 10
8
 20
-12.75
 30
0
 11
5.550000000000001
 21
-13.0685
 31
0
  0
LINE
  8
1
 62
1
 10
5.550000000000001
 20
-13.0685
 30
0
 11
5.550000000000001
 21
-12.4315
 31
0
  0
LINE
  8
1
 62
1
 10
5.550000000000001
 20
-12.4315
 30
0
 11
8
 21
-12.75
 31
0
  0
TEXT
  8
1
 62
3
 10
13.95
 20
-11.75
 30
0
 40
3.5
  1
2
 41
0.9
  0
ENDBLK
  8
0
  0
BLOCK
  8
1
  2
*D16
 70
1
 10
0
 20
0
 30
0
  0
LINE
  8
1
 62
1
 10
75.70526315789499
 20
9
 30
0
 11
57.61660449417842
 21
-9.049678428681514
 31
0
  0
LINE
  8
1
 62
1
 10
69.33444141407463
 20
2.642907086689259
 30
0
 11
67.8251326163557
 21
0.6869088241316921
 31
0
  0
LINE
  8
1
 62
1
 10
67.8251326163557
 20
0.6869088241316921
 30
0
 11
67.37519170682471
 21
1.137821429777645
 31
0
  0
LINE
  8
1
 62
1
 10
67.37519170682471
 20
1.137821429777645
 30
0
 11
69.33444141407463
 21
2.642907086689259
 31
0
  0
TEXT
  8
1
 62
3
 10
59.88331098426006
 20
-5.375165986489795
 30
0
 40
3.5
  1
9
 50
44.93819853746822
 41
0.9
  0
TEXT
  8
1
 62
3
 10
56.91026083714389
 20
-8.341809346034808
 30
0
 40
3.5
  1
R
 50
44.93819853746822
 41
0.9
  0
ENDBLK
  8
0
  0
ENDSEC
  0
SECTION
  2
ENTITIES
  0
LINE
  8
1
 62
7
 10
83.705263157895
 20
52.5
 30
0
 11
84.70526315789499
 21
52.5
 31
0
  0
LINE
  8
1
 62
7
 10
83.705263157895
 20
52.5
 30
0
 11
81.20526315789499
 21
56.83012701892218
 31
0
  0
LINE
  8
1
 62
7
 10
81.20526315789499
 20
67.5
 30
0
 11
81.20526315789499
 21
56.83012701892218
 31
0
  0
LINE
  8
1
 62
2
  6
PHANTOM
 10
83.20526315789499
 20
78.5
 30
0
 11
68.20526315789499
 21
78.5
 31
0
  0
LINE
  8
1
 62
2
  6
PHANTOM
 10
68.20526315789499
 20
6.5
 30
0
 11
83.20526315789499
 21
6.5
 31
0
  0
LINE
  8
1
 62
7
 10
84.70526315789499
 20
32.5
 30
0
 11
83.705263157895
 21
32.5
 31
0
  0
LINE
  8
1
 62
7
 10
73.20526315789499
 20
12.5
 30
0
 11
76.20526315789499
 21
12.5
 31
0
  0
LINE
  8
1
 62
7
 10
68.20526315789499
 20
17.5
 30
0
 11
68.20526315789499
 21
67.5
 31
0
  0
LINE
  8
1
 62
7
 10
81.20526315789499
 20
28.16987298107779
 30
0
 11
83.705263157895
 21
32.5
 31
0
  0
LINE
  8
1
 62
7
 10
81.20526315789499
 20
28.16987298107779
 30
0
 11
81.20526315789499
 21
17.5
 31
0
  0
LINE
  8
1
 62
7
 10
75.70526315789499
 20
0
 30
0
 11
84.70526315789499
 21
0
 31
0
  0
LINE
  8
1
 62
7
 10
75.7052631578949
 20
85
 30
0
 11
84.70526315789499
 21
85
 31
0
  0
LINE
  8
1
 62
7
 10
84.70526315789499
 20
85
 30
0
 11
84.70526315789499
 21
52.5
 31
0
  0
LINE
  8
1
 62
7
 10
66.70526315789499
 20
76
 30
0
 11
66.70526315789499
 21
9
 31
0
  0
LINE
  8
1
 62
7
 10
76.20526315789499
 20
72.5
 30
0
 11
73.20526315789499
 21
72.5
 31
0
  0
LINE
  8
1
 62
2
  6
PHANTOM
 10
75.7052631578949
 20
84.5
 30
0
 11
75.70526315789499
 21
72.5
 31
0
  0
LINE
  8
1
 62
2
  6
PHANTOM
 10
75.70526315789499
 20
12.5
 30
0
 11
75.70526315789499
 21
0.5
 31
0
  0
LINE
  8
1
 62
7
 10
84.70526315789499
 20
52.5
 30
0
 11
84.70526315789499
 21
0
 31
0
  0
LINE
  8
1
 62
7
 10
0
 20
0
 30
0
 11
0
 21
85
 31
0
  0
LINE
  8
1
 62
7
 10
0
 20
0
 30
0
 11
10
 21
0
 31
0
  0
LINE
  8
1
 62
7
 10
0
 20
85
 30
0
 11
10
 21
85
 31
0
  0
LINE
  8
1
 62
7
 10
10
 20
0
 30
0
 11
10
 21
85
 31
0
  0
LINE
  8
1
 62
3
  6
DASHED
 10
0
 20
72.5
 30
0
 11
8
 21
72.5
 31
0
  0
LINE
  8
1
 62
3
  6
DASHED
 10
8
 20
72.5
 30
0
 11
8
 21
52.5
 31
0
  0
LINE
  8
1
 62
3
  6
DASHED
 10
8
 20
12.5
 30
0
 11
0
 21
12.5
 31
0
  0
LINE
  8
1
 62
7
 10
0
 20
52.5
 30
0
 11
8
 21
52.5
 31
0
  0
LINE
  8
1
 62
7
 10
0
 20
32.5
 30
0
 11
8
 21
32.5
 31
0
  0
LINE
  8
1
 62
7
 10
8
 20
52.5
 30
0
 11
8
 21
32.5
 31
0
  0
LINE
  8
1
 62
3
  6
DASHED
 10
8
 20
32.5
 30
0
 11
8
 21
12.5
 31
0
  0
LINE
  8
1
 62
2
  6
PHANTOM
 10
-2
 20
78.5
 30
0
 11
12
 21
78.5
 31
0
  0
LINE
  8
1
 62
2
  6
PHANTOM
 10
-2
 20
6.5
 30
0
 11
12
 21
6.5
 31
0
  0
CIRCLE
  8
1
 62
7
 10
75.70526315789499
 20
6.5
 30
0
 40
4.25
  0
CIRCLE
  8
1
 62
7
 10
75.70526315789499
 20
78.5
 30
0
 40
4.25
  0
CIRCLE
  8
1
 62
7
 10
75.70526315789499
 20
78.5
 30
0
 40
2.25
  0
CIRCLE
  8
1
 62
7
 10
75.70526315789499
 20
6.5
 30
0
 40
2.25
  0
ARC
  8
1
 62
7
 10
76.20526315789499
 20
17.5
 30
0
 40
5
 50
270
 51
0
  0
ARC
  8
1
 62
7
 10
73.20526315789499
 20
17.5
 30
0
 40
5
 50
180
 51
270
  0
ARC
  8
1
 62
7
 10
75.70526315789499
 20
76
 30
0
 40
9
 50
90
 51
180
  0
ARC
  8
1
 62
7
 10
75.70526315789499
 20
9
 30
0
 40
9
 50
180
 51
270
  0
ARC
  8
1
 62
7
 10
73.20526315789499
 20
67.5
 30
0
 40
5
 50
90
 51
180
  0
ARC
  8
1
 62
7
 10
73.20526315789499
 20
67.5
 30
0
 40
5
 50
90
 51
180
  0
ARC
  8
1
 62
7
 10
76.20526315789499
 20
67.5
 30
0
 40
5
 50
0
 51
90
  0
TEXT
  8
1
 62
7
 10
46
 20
-44
 30
0
 40
7
  1
B-1290.231
 41
0.9
  0
DIMENSION
  8
1
  6
CONTINUOUS
 62
1
  2
*D0
  3
DMST_1
 10
66.70526315789499
 20
22.82763157894699
 30
0
 11
61.1298802175401
 21
25.75263157894699
 31
0
 12
0
 22
0
 32
0
 70
0
 13
68.20526315789499
 23
17.5
 33
0
 14
66.70526315789499
 24
9
 34
0
 53
0
  0
DIMENSION
  8
1
  6
CONTINUOUS
 62
1
  2
*D1
  3
DMST_1
 10
102.925
 20
85
 30
0
 11
100
 21
78.75
 31
0
 12
0
 22
0
 32
0
 70
0
 13
76.20526315789499
 23
72.5
 33
0
 14
84.70526315789499
 24
85
 34
0
 50
90
 53
0
  0
DIMENSION
  8
1
  6
CONTINUOUS
 62
1
  2
*D2
  3
DMST_1
 10
47.92500000000001
 20
0
 30
0
 11
45
 21
-8.247368421053011
 31
0
 12
0
 22
0
 32
0
 70
0
 13
68.20526315789499
 23
6.5
 33
0
 14
75.70526315789499
 24
0
 34
0
 50
90
 53
0
  0
DIMENSION
  8
1
  6
CONTINUOUS
 62
1
  2
*D3
  3
DMST_1
 10
47.92500000000001
 20
85
 30
0
 11
45
 21
91.75263157894699
 31
0
 12
0
 22
0
 32
0
 70
0
 13
68.20526315789499
 23
78.5
 33
0
 14
75.7052631578949
 24
85
 34
0
 50
90
 53
0
  0
DIMENSION
  8
1
  6
CONTINUOUS
 62
1
  2
*D4
  3
DMST_1
 10
37.75
 20
0
 30
0
 11
35
 21
42.5
 31
0
 12
0
 22
0
 32
0
 70
0
 13
75.7052631578949
 23
85
 33
0
 14
75.70526315789499
 24
0
 34
0
 50
90
 53
0
  0
DIMENSION
  8
1
  6
CONTINUOUS
 62
1
  2
*D5
  3
DMST_1
 10
102.925
 20
0
 30
0
 11
100
 21
6.25
 31
0
 12
0
 22
0
 32
0
 70
0
 13
76.20526315789499
 23
12.5
 33
0
 14
84.70526315789499
 24
0
 34
0
 50
90
 53
0
  0
DIMENSION
  8
1
  6
CONTINUOUS
 62
1
  2
*D6
  3
DMST_1
 10
84.70526315789499
 20
22.82763157894698
 30
0
 11
90
 21
25.75263157894699
 31
0
 12
0
 22
0
 32
0
 70
0
 13
81.20526315789499
 23
17.5
 33
0
 14
84.70526315789499
 24
0
 34
0
 53
0
  0
DIMENSION
  8
1
  6
CONTINUOUS
 62
1
  2
*D7
  3
DMST_1
 10
66.70526315789499
 20
-22.75
 30
0
 11
75.70526315789499
 21
-20
 31
0
 12
0
 22
0
 32
0
 70
0
 13
84.70526315789499
 23
0
 33
0
 14
66.70526315789499
 24
9
 34
0
 53
0
  0
DIMENSION
  8
1
  6
CONTINUOUS
 62
1
  2
*D8
  3
DMST_1
 10
75.70526315789499
 20
-12.75
 30
0
 11
80.20526315789499
 21
-10
 31
0
 12
0
 22
0
 32
0
 70
0
 13
84.70526315789499
 23
0
 33
0
 14
75.70526315789499
 24
0
 34
0
 53
0
  0
DIMENSION
  8
1
  6
CONTINUOUS
 62
1
  2
*D9
  3
DMST_1
 10
112.925
 20
0
 30
0
 11
110
 21
16.25
 31
0
 12
0
 22
0
 32
0
 70
0
 13
84.70526315789499
 23
32.5
 33
0
 14
84.70526315789499
 24
0
 34
0
 50
90
 53
0
  0
DIMENSION
  8
1
  6
CONTINUOUS
 62
1
  2
*D10
  3
DMST_1
 10
47.950131757682
 20
6.5
 30
0
 11
45.200131757682
 21
42.5
 31
0
 12
0
 22
0
 32
0
 70
0
 13
68.20526315789499
 23
78.5
 33
0
 14
68.20526315789499
 24
6.5
 34
0
 50
90
 53
0
  0
DIMENSION
  8
1
  6
CONTINUOUS
 62
1
  2
*D11
  3
DMST_1
 10
68.20526315789499
 20
22.83432142831
 30
0
 11
74.70526315789499
 21
25.58432142831
 31
0
 12
0
 22
0
 32
0
 70
0
 13
81.20526315789499
 23
17.5
 33
0
 14
68.20526315789499
 24
17.5
 34
0
 53
0
  0
DIMENSION
  8
1
  6
CONTINUOUS
 62
1
  2
*D12
  3
DMST_1
 10
112.909958844869
 20
32.5
 30
0
 11
110.159958844869
 21
42.5
 31
0
 12
0
 22
0
 32
0
 70
0
 13
84.70526315789499
 23
52.5
 33
0
 14
84.70526315789499
 24
32.5
 34
0
 50
90
 53
0
  0
DIMENSION
  8
1
  6
CONTINUOUS
 62
1
  2
*D13
  3
DMST_1
 10
112.925
 20
52.5
 30
0
 11
110
 21
68.75
 31
0
 12
0
 22
0
 32
0
 70
0
 13
84.70526315789499
 23
85
 33
0
 14
84.70526315789499
 24
52.5
 34
0
 50
90
 53
0
  0
DIMENSION
  8
1
  6
CONTINUOUS
 62
1
  2
*D14
  3
DMST_1
 10
0
 20
-22.75
 30
0
 11
5
 21
-20
 31
0
 12
0
 22
0
 32
0
 70
0
 13
10
 23
0
 33
0
 14
0
 24
0
 34
0
 53
0
  0
DIMENSION
  8
1
  6
CONTINUOUS
 62
1
  2
*D15
  3
DMST_1
 10
10
 20
-12.75
 30
0
 11
15
 21
-10
 31
0
 12
0
 22
0
 32
0
 70
0
 13
8
 23
12.5
 33
0
 14
10
 24
0
 34
0
 53
0
  0
DIMENSION
  8
1
  6
CONTINUOUS
 62
1
  2
*D16
  3
DMST_2
 10
75.70526315789499
 20
9
 30
0
 11
57.9039470476706
 21
-4.87805593174431
 31
0
 12
0
 22
0
 32
0
 70
4
 15
69.33444141407463
 25
2.642907086689259
 35
0
 40
0
 53
0
  0
ENDSEC
  0
EOF
