  0
SECTION
  2
HEADER
  9
$ACADVER
  1
AC1009
  9
$INSBASE
 10
0
 20
0
  9
$EXTMIN
 10
0
 20
0
  9
$EXTMAX
 10
190
 20
270
  9
$LIMMIN
 10
0
 20
0
  9
$LIMMAX
 10
190
 20
270
  9
$VIEWCTR
 10
10
 20
10
  9
$VIEWSIZE
 40
10
  9
$SNAPMODE
 70
0
  9
$SNAPUNIT
 10
1
 20
1
  9
$SNAPBASE
 10
0
 20
0
  9
$SNAPANG
 50
0
  9
$SNAPSTYLE
 70
0
  9
$SNAPISOPAIR
 70
0
  9
$GRIDMODE
 70
0
  9
$GRIDUNIT
 10
0
 20
0
  9
$ORTHOMODE
 70
0
  9
$REGENMODE
 70
1
  9
$FILLMODE
 70
1
  9
$QTEXTMODE
 70
0
  9
$DRAGMODE
 70
2
  9
$LTSCALE
 40
1
  9
$OSMODE
 70
0
  9
$ATTMODE
 70
1
  9
$TEXTSIZE
 40
3.5
  9
$TRACEWID
 40
0.5
  9
$TEXTSTYLE
  7
STANDARD
  9
$CLAYER
  8
0
  9
$CELTYPE
  6
BYLAYER
  9
$CECOLOR
 62
256
  9
$DIMSCALE
 40
1
  9
$DIMASZ
 40
0.18
  9
$DIMEXO
 40
0.0625
  9
$DIMDLI
 40
0.38
  9
$DIMRND
 40
0
  9
$DIMDLE
 40
0
  9
$DIMEXE
 40
0.18
  9
$DIMTP
 40
0
  9
$DIMTM
 40
0
  9
$DIMTXT
 40
0.18
  9
$DIMCEN
 40
0.09
  9
$DIMTSZ
 40
0
  9
$DIMTOL
 70
0
  9
$DIMLIM
 70
0
  9
$DIMTIH
 70
1
  9
$DIMTOH
 70
1
  9
$DIMSE1
 70
0
  9
$DIMSE2
 70
0
  9
$DIMTAD
 70
0
  9
$DIMZIN
 70
0
  9
$DIMBLK
  1

  9
$DIMASO
 70
1
  9
$DIMSHO
 70
1
  9
$DIMPOST
  1

  9
$DIMAPOST
  1

  9
$DIMALT
 70
0
  9
$DIMALTD
 70
2
  9
$DIMALTF
 40
25.4
  9
$DIMLFAC
 40
1
  9
$DIMTOFL
 70
0
  9
$DIMTVP
 40
0
  9
$DIMTIX
 70
0
  9
$DIMSOXD
 70
0
  9
$DIMSAH
 70
0
  9
$DIMBLK1
  1

  9
$DIMBLK2
  1

  9
$DIMSTYLE
  2
*UNNAMED
  9
$DIMCLRD
 70
0
  9
$DIMCLRE
 70
0
  9
$DIMCLRT
 70
0
  9
$DIMTFAC
 40
1
  9
$DIMGAP
 40
0.09
  9
$LUNITS
 70
2
  9
$LUPREC
 70
4
  9
$AXISMODE
 70
0
  9
$AXISUNIT
 10
0
 20
0
  9
$SKETCHINC
 40
0.1
  9
$FILLETRAD
 40
2
  9
$AUNITS
 70
0
  9
$AUPREC
 70
0
  9
$MENU
  1
ACAD
  9
$ELEVATION
 40
0
  9
$THICKNESS
 40
0
  9
$VIEWDIR
 10
0
 20
0
 30
1
  9
$LIMCHECK
 70
0
  9
$BLIPMODE
 70
1
  9
$CHAMFERA
 40
0
  9
$CHAMFERB
 40
0
  9
$FASTZOOM
 70
1
  9
$SKPOLY
 70
0
  9
$ANGBASE
 50
0
  9
$ANGDIR
 70
0
  9
$PDMODE
 70
0
  9
$PDSIZE
 40
0
  9
$PLINEWID
 40
0
  9
$COORDS
 70
2
  0
ENDSEC
  0
SECTION
  2
TABLES
  0
TABLE
  2
DIMSTYLE
 70
3
  0
DIMSTYLE
  2
DMST_1
 70
0
  3

  4

  5

  6

  7

 40
1
 41
2.45
 42
0
 43
7
 44
2
 45
0
 46
0
 47
0
 48
0
140
3.5
141
0
142
0
143
25.4
144
1
145
0
146
1
147
0.09
 71
0
 72
0
 73
0
 74
0
 75
0
 76
0
 77
1
 78
9
170
0
171
2
172
0
173
0
174
0
175
0
176
1
177
1
178
3
  0
DIMSTYLE
  2
DMST_2
 70
0
  3

  4

  5

  6

  7

 40
1
 41
2.450000000000001
 42
0
 43
7
 44
0.5
 45
0
 46
0
 47
0
 48
0
140
3.500000000000001
141
0
142
0
143
25.4
144
1
145
0
146
1
147
0.09
 71
0
 72
0
 73
0
 74
0
 75
0
 76
0
 77
1
 78
9
170
0
171
2
172
0
173
0
174
0
175
0
176
1
177
1
178
3
  0
DIMSTYLE
  2
DMST_3
 70
0
  3

  4

  5

  6

  7

 40
1
 41
2.45
 42
0
 43
7
 44
2
 45
0
 46
0
 47
0
 48
0
140
3.5
141
0
142
0
143
25.4
144
1
145
0
146
1
147
0.09
 71
0
 72
0
 73
0
 74
0
 75
0
 76
0
 77
1
 78
9
170
0
171
2
172
1
173
0
174
0
175
0
176
1
177
1
178
3
  0
ENDTAB
  0
TABLE
  2
LTYPE
 70
9
  0
LTYPE
  2
CONTINUOUS
 70
64
  3
Solid line
 72
65
 73
0
 40
0
  0
LTYPE
  2
BORDER
 70
64
  3
__ __ . __ __ .
 72
65
 73
6
 40
12.43421052631579
 49
3.552631578947369
 49
-1.776315789473684
 49
3.552631578947369
 49
-1.776315789473684
 49
0
 49
-1.776315789473684
  0
LTYPE
  2
CENTER
 70
64
  3
____ _ ____ _
 72
65
 73
4
 40
14.21052631578947
 49
8.881578947368421
 49
-1.776315789473684
 49
1.776315789473684
 49
-1.776315789473684
  0
LTYPE
  2
DASHDOT
 70
64
  3
__ . __ . __ .
 72
65
 73
4
 40
7.105263157894737
 49
3.552631578947369
 49
-1.776315789473684
 49
0
 49
-1.776315789473684
  0
LTYPE
  2
DASHED
 70
64
  3
__ __ __ __ __
 72
65
 73
2
 40
5.328947368421053
 49
3.552631578947369
 49
-1.776315789473684
  0
LTYPE
  2
DIVIDE
 70
64
  3
__ . . __ . . 
 72
65
 73
6
 40
8.881578947368421
 49
3.552631578947369
 49
-1.776315789473684
 49
0
 49
-1.776315789473684
 49
0
 49
-1.776315789473684
  0
LTYPE
  2
DOT
 70
64
  3
..............
 72
65
 73
4
 40
3.552631578947369
 49
0
 49
-1.776315789473684
 49
0
 49
-1.776315789473684
  0
LTYPE
  2
HIDDEN
 70
64
  3
_ _ _ _ _ _ _
 72
65
 73
2
 40
2.664473684210527
 49
1.776315789473684
 49
-0.8881578947368421
  0
LTYPE
  2
PHANTOM
 70
64
  3
_____ _ _ _____ _ _ 
 72
65
 73
6
 40
17.76315789473684
 49
8.881578947368421
 49
-1.776315789473684
 49
1.776315789473684
 49
-1.776315789473684
 49
1.776315789473684
 49
-1.776315789473684
  0
ENDTAB
  0
TABLE
  2
LAYER
 70
4
  0
LAYER
  2
1
 70
0
 62
7
  6
CONTINUOUS
  0
LAYER
  2
CONSTRUCTION
 70
0
 62
7
  6
CONTINUOUS
  0
LAYER
  2
0
 70
0
 62
7
  6
CONTINUOUS
  0
ENDTAB
  0
TABLE
  2
STYLE
 70
4
  0
STYLE
  2
STANDARD
 70
0
 40
0
 41
1
 50
0
 71
0
 42
3.5
  3
txt
  4

  0
STYLE
  2
SIMPLEX
 70
0
 40
0
 41
1
 50
0
 71
0
 42
3.5
  3
simplex
  4

  0
STYLE
  2
COMPLEX
 70
0
 40
0
 41
1
 50
0
 71
0
 42
3.5
  3
complex
  4

  0
STYLE
  2
ITALIC
 70
0
 40
0
 41
1
 50
0
 71
0
 42
3.5
  3
italic
  4

  0
ENDTAB
  0
TABLE
  2
VIEW
 70
0
  0
ENDTAB
  0
ENDSEC
  0
SECTION
  2
BLOCKS
  0
BLOCK
  8
0
  2
SYMBOLSCH_NIS
 70
0
 10
15
 20
3.699999999999989
 30
0
  0
LINE
  8
1
 62
3
 10
15
 20
3.699999999999989
 30
0
 11
21.3278331493926
 21
3.699999999999989
 31
0
  0
LINE
  8
1
 62
3
 10
22.64927589737272
 20
4.625284173448279
 30
0
 11
23.10992572511591
 21
5.890909173448279
 31
0
  0
LINE
  8
1
 62
3
 10
21.78848297713571
 20
7.778124999999989
 30
0
 11
18.28011610266989
 21
7.778124999999989
 31
0
  0
LINE
  8
1
 62
3
 10
18.28011610266989
 20
7.778124999999989
 30
0
 11
18.5360326736384
 21
8.481249999999989
 31
0
  0
LINE
  8
1
 62
3
 10
18.5360326736384
 20
8.481249999999989
 30
0
 11
24.05273268258533
 21
8.481249999999989
 31
0
  0
LINE
  8
1
 62
3
 10
24.05273268258533
 20
8.481249999999989
 30
0
 11
24.66693245290949
 21
10.16874999999999
 31
0
  0
LINE
  8
1
 62
3
 10
24.66693245290949
 20
10.16874999999999
 30
0
 11
18.33909930351692
 21
10.16874999999999
 31
0
  0
LINE
  8
1
 62
3
 10
17.01765655553672
 20
9.243465826551699
 30
0
 11
16.55700672779349
 21
7.977840826551699
 31
0
  0
LINE
  8
1
 62
3
 10
17.87844947577369
 20
6.090624999999989
 30
0
 11
21.38681635023951
 21
6.090624999999989
 31
0
  0
LINE
  8
1
 62
3
 10
21.38681635023951
 20
6.090624999999989
 30
0
 11
21.13089977927112
 21
5.387499999999989
 31
0
  0
LINE
  8
1
 62
3
 10
21.13089977927112
 20
5.387499999999989
 30
0
 11
15.61419977032422
 21
5.387499999999989
 31
0
  0
LINE
  8
1
 62
3
 10
15.61419977032422
 20
5.387499999999989
 30
0
 11
15
 21
3.699999999999989
 31
0
  0
LINE
  8
1
 62
3
 10
31.01719959508512
 20
6.653124999999989
 30
0
 11
30.27912589439052
 21
4.625284173448279
 31
0
  0
LINE
  8
1
 62
3
 10
28.95768314641033
 20
3.699999999999989
 30
0
 11
24.91943313149882
 21
3.699999999999989
 31
0
  0
LINE
  8
1
 62
3
 10
23.59799038351862
 20
5.587215826551699
 30
0
 11
24.9287565525544
 21
9.243465826551699
 31
0
  0
LINE
  8
1
 62
3
 10
26.2501993005346
 20
10.16874999999999
 30
0
 11
30.28844931544612
 21
10.16874999999999
 31
0
  0
LINE
  8
1
 62
3
 10
31.2219328518598
 20
7.215624999999989
 30
0
 11
31.60989206342632
 21
8.281534173448279
 31
0
  0
LINE
  8
1
 62
3
 10
31.2219328518598
 20
7.215624999999989
 30
0
 11
29.42613286080673
 21
7.215624999999989
 31
0
  0
LINE
  8
1
 62
3
 10
29.42613286080673
 20
7.215624999999989
 30
0
 11
29.94234999701771
 21
8.481249999999989
 31
0
  0
LINE
  8
1
 62
3
 10
29.94234999701771
 20
8.481249999999989
 30
0
 11
26.44713267065613
 21
8.481249999999989
 31
0
  0
LINE
  8
1
 62
3
 10
26.44713267065613
 20
8.481249999999989
 30
0
 11
25.32109975839501
 21
5.387499999999989
 31
0
  0
LINE
  8
1
 62
3
 10
25.32109975839501
 20
5.387499999999989
 30
0
 11
28.7607497762888
 21
5.387499999999989
 31
0
  0
LINE
  8
1
 62
3
 10
28.7607497762888
 20
5.387499999999989
 30
0
 11
29.22139960403193
 21
6.653124999999989
 31
0
  0
LINE
  8
1
 62
3
 10
29.22139960403193
 20
6.653124999999989
 30
0
 11
31.01719959508512
 21
6.653124999999989
 31
0
  0
LINE
  8
1
 62
3
 10
32.89538244694489
 20
10.16874999999999
 30
0
 11
30.5409499940354
 21
3.699999999999989
 31
0
  0
LINE
  8
1
 62
3
 10
30.5409499940354
 20
3.699999999999989
 30
0
 11
32.33674998508852
 21
3.699999999999989
 31
0
  0
LINE
  8
1
 62
3
 10
32.33674998508852
 20
3.699999999999989
 30
0
 11
33.20686632638112
 21
6.090624999999989
 31
0
  0
LINE
  8
1
 62
3
 10
33.20686632638112
 20
6.090624999999989
 30
0
 11
36.08401634427491
 21
6.090624999999989
 31
0
  0
LINE
  8
1
 62
3
 10
36.08401634427491
 20
6.090624999999989
 30
0
 11
35.21390000298231
 21
3.699999999999989
 31
0
  0
LINE
  8
1
 62
3
 10
35.21390000298231
 20
3.699999999999989
 30
0
 11
37.0096999940354
 21
3.699999999999989
 31
0
  0
LINE
  8
1
 62
3
 10
37.0096999940354
 20
3.699999999999989
 30
0
 11
39.36413244694489
 21
10.16874999999999
 31
0
  0
LINE
  8
1
 62
3
 10
39.36413244694489
 20
10.16874999999999
 30
0
 11
37.56833245589181
 21
10.16874999999999
 31
0
  0
LINE
  8
1
 62
3
 10
37.56833245589181
 20
10.16874999999999
 30
0
 11
36.69821611459912
 21
7.778124999999989
 31
0
  0
LINE
  8
1
 62
3
 10
36.69821611459912
 20
7.778124999999989
 30
0
 11
33.82106609670529
 21
7.778124999999989
 31
0
  0
LINE
  8
1
 62
3
 10
33.82106609670529
 20
7.778124999999989
 30
0
 11
34.6911824379979
 21
10.16874999999999
 31
0
  0
LINE
  8
1
 62
3
 10
34.6911824379979
 20
10.16874999999999
 30
0
 11
32.89538244694489
 21
10.16874999999999
 31
0
  0
LINE
  8
1
 62
3
 10
41.3556085989716
 20
6.512499999999989
 30
0
 11
43.98599138313452
 21
6.512499999999989
 31
0
  0
LINE
  8
1
 62
3
 10
43.98599138313452
 20
6.512499999999989
 30
0
 11
42.75577984656312
 21
8.481249999999989
 31
0
  0
LINE
  8
1
 62
3
 10
42.75577984656312
 20
8.481249999999989
 30
0
 11
41.3556085989716
 21
6.512499999999989
 31
0
  0
LINE
  8
1
 62
3
 10
40.3011415676246
 20
4.824999999999989
 30
0
 11
39.5981635467266
 21
3.699999999999989
 31
0
  0
LINE
  8
1
 62
3
 10
39.5981635467266
 20
3.699999999999989
 30
0
 11
37.60829999105312
 21
3.699999999999989
 31
0
  0
LINE
  8
1
 62
3
 10
37.60829999105312
 20
3.699999999999989
 30
0
 11
41.70131281521611
 21
10.16874999999999
 31
0
  0
LINE
  8
1
 62
3
 10
41.70131281521611
 20
10.16874999999999
 30
0
 11
43.69117637088959
 21
10.16874999999999
 31
0
  0
LINE
  8
1
 62
3
 10
43.69117637088959
 20
10.16874999999999
 30
0
 11
47.73329999105314
 21
3.699999999999989
 31
0
  0
LINE
  8
1
 62
3
 10
47.73329999105314
 20
3.699999999999989
 30
0
 11
45.74343643537949
 21
3.699999999999989
 31
0
  0
LINE
  8
1
 62
3
 10
45.74343643537949
 20
3.699999999999989
 30
0
 11
45.04045841448152
 21
4.824999999999989
 31
0
  0
LINE
  8
1
 62
3
 10
45.04045841448152
 20
4.824999999999989
 30
0
 11
40.3011415676246
 21
4.824999999999989
 31
0
  0
LINE
  8
1
 62
3
 10
42.95204999105312
 20
10.73124999999999
 30
0
 11
44.63954999105312
 21
10.73124999999999
 31
0
  0
LINE
  8
1
 62
3
 10
44.63954999105312
 20
10.73124999999999
 30
0
 11
44.63954999105312
 21
11.57499999999999
 31
0
  0
LINE
  8
1
 62
3
 10
44.63954999105312
 20
11.57499999999999
 30
0
 11
42.95204999105312
 21
11.57499999999999
 31
0
  0
LINE
  8
1
 62
3
 10
42.95204999105312
 20
11.57499999999999
 30
0
 11
42.95204999105312
 21
10.73124999999999
 31
0
  0
LINE
  8
1
 62
3
 10
42.38954999105312
 20
10.73124999999999
 30
0
 11
40.70204999105312
 21
10.73124999999999
 31
0
  0
LINE
  8
1
 62
3
 10
40.70204999105312
 20
10.73124999999999
 30
0
 11
40.70204999105312
 21
11.57499999999999
 31
0
  0
LINE
  8
1
 62
3
 10
40.70204999105312
 20
11.57499999999999
 30
0
 11
42.38954999105312
 21
11.57499999999999
 31
0
  0
LINE
  8
1
 62
3
 10
42.38954999105312
 20
11.57499999999999
 30
0
 11
42.38954999105312
 21
10.73124999999999
 31
0
  0
LINE
  8
1
 62
3
 10
48.29579999105314
 20
3.699999999999989
 30
0
 11
45.9413675381436
 21
10.16874999999999
 31
0
  0
LINE
  8
1
 62
3
 10
45.9413675381436
 20
10.16874999999999
 30
0
 11
48.33576752621431
 21
10.16874999999999
 31
0
  0
LINE
  8
1
 62
3
 10
48.33576752621431
 20
10.16874999999999
 30
0
 11
52.22633371612633
 21
6.512499999999989
 31
0
  0
LINE
  8
1
 62
3
 10
52.22633371612633
 20
6.512499999999989
 30
0
 11
50.89556754709051
 21
10.16874999999999
 31
0
  0
LINE
  8
1
 62
3
 10
50.89556754709051
 20
10.16874999999999
 30
0
 11
52.69136753814362
 21
10.16874999999999
 31
0
  0
LINE
  8
1
 62
3
 10
52.69136753814362
 20
10.16874999999999
 30
0
 11
55.04579999105312
 21
3.699999999999989
 31
0
  0
LINE
  8
1
 62
3
 10
55.04579999105312
 20
3.699999999999989
 30
0
 11
52.65140000298231
 21
3.699999999999989
 31
0
  0
LINE
  8
1
 62
3
 10
52.65140000298231
 20
3.699999999999989
 30
0
 11
48.76083381307043
 21
7.356249999999989
 31
0
  0
LINE
  8
1
 62
3
 10
48.76083381307043
 20
7.356249999999989
 30
0
 11
50.0915999821062
 21
3.699999999999989
 31
0
  0
LINE
  8
1
 62
3
 10
50.0915999821062
 20
3.699999999999989
 30
0
 11
48.29579999105314
 21
3.699999999999989
 31
0
  0
LINE
  8
1
 62
3
 10
55.6443999880708
 20
3.699999999999989
 30
0
 11
57.44019997912392
 21
3.699999999999989
 31
0
  0
LINE
  8
1
 62
3
 10
57.44019997912392
 20
3.699999999999989
 30
0
 11
55.08576752621431
 21
10.16874999999999
 31
0
  0
LINE
  8
1
 62
3
 10
55.08576752621431
 20
10.16874999999999
 30
0
 11
53.28996753516131
 21
10.16874999999999
 31
0
  0
LINE
  8
1
 62
3
 10
53.28996753516131
 20
10.16874999999999
 30
0
 11
55.6443999880708
 21
3.699999999999989
 31
0
  0
LINE
  8
1
 62
3
 10
63.4661674844622
 20
10.16874999999999
 30
0
 11
57.6927006577132
 21
10.16874999999999
 31
0
  0
LINE
  8
1
 62
3
 10
56.371257909733
 20
8.281534173448279
 30
0
 11
56.8319077374762
 21
7.015909173448279
 31
0
  0
LINE
  8
1
 62
3
 10
58.15335048545631
 20
6.090624999999989
 30
0
 11
63.15468360502589
 21
6.090624999999989
 31
0
  0
LINE
  8
1
 62
3
 10
63.15468360502589
 20
6.090624999999989
 30
0
 11
63.41060017599432
 21
5.387499999999989
 31
0
  0
LINE
  8
1
 62
3
 10
63.41060017599432
 20
5.387499999999989
 30
0
 11
57.4246002058174
 21
5.387499999999989
 31
0
  0
LINE
  8
1
 62
3
 10
57.4246002058174
 20
5.387499999999989
 30
0
 11
58.0387999761416
 21
3.699999999999989
 31
0
  0
LINE
  8
1
 62
3
 10
58.0387999761416
 20
3.699999999999989
 30
0
 11
63.8122668028906
 21
3.699999999999989
 31
0
  0
LINE
  8
1
 62
3
 10
65.1337095508708
 20
5.587215826551699
 30
0
 11
64.67305972312761
 21
6.852840826551699
 31
0
  0
LINE
  8
1
 62
3
 10
63.35161697514741
 20
7.778124999999989
 30
0
 11
58.35028385557791
 21
7.778124999999989
 31
0
  0
LINE
  8
1
 62
3
 10
58.35028385557791
 20
7.778124999999989
 30
0
 11
58.0943672846094
 21
8.481249999999989
 31
0
  0
LINE
  8
1
 62
3
 10
58.0943672846094
 20
8.481249999999989
 30
0
 11
64.08036725478641
 21
8.481249999999989
 31
0
  0
LINE
  8
1
 62
3
 10
64.08036725478641
 20
8.481249999999989
 30
0
 11
63.4661674844622
 21
10.16874999999999
 31
0
  0
ARC
  8
1
 62
3
 10
18.33909930351692
 20
8.762499999999989
 30
0
 40
1.406250000000002
 50
90
 51
160.0000000000007
  0
ARC
  8
1
 62
3
 10
17.87844947577369
 20
7.496874999999989
 30
0
 40
1.406250000000011
 50
160.0000000000007
 51
270
  0
ARC
  8
1
 62
3
 10
21.78848297713571
 20
6.371874999999989
 30
0
 40
1.406250000000011
 50
340.0000000000007
 51
90
  0
ARC
  8
1
 62
3
 10
21.3278331493926
 20
5.106249999999989
 30
0
 40
1.40625
 50
270
 51
339.9999999999995
  0
ARC
  8
1
 62
3
 10
30.28844931544612
 20
8.762499999999989
 30
0
 40
1.406250000000011
 50
340.0000000000007
 51
90
  0
ARC
  8
1
 62
3
 10
26.2501993005346
 20
8.762499999999989
 30
0
 40
1.406250000000002
 50
90
 51
160.0000000000007
  0
ARC
  8
1
 62
3
 10
24.91943313149882
 20
5.106249999999989
 30
0
 40
1.406250000000011
 50
160.0000000000007
 51
270
  0
ARC
  8
1
 62
3
 10
28.95768314641033
 20
5.106249999999989
 30
0
 40
1.40625
 50
270
 51
340.0000000000006
  0
ARC
  8
1
 62
3
 10
57.6927006577132
 20
8.762499999999989
 30
0
 40
1.406250000000002
 50
90
 51
199.9999999999993
  0
ARC
  8
1
 62
3
 10
58.15335048545631
 20
7.496874999999989
 30
0
 40
1.406249999999924
 50
200.0000000000006
 51
270
  0
ARC
  8
1
 62
3
 10
63.35161697514741
 20
6.371874999999989
 30
0
 40
1.406250000000011
 50
19.99999999999933
 51
90
  0
ARC
  8
1
 62
3
 10
63.8122668028906
 20
5.106249999999989
 30
0
 40
1.40625
 50
270
 51
19.99999999999923
  0
ENDBLK
  8
0
  0
BLOCK
  8
0
  2
A4
 70
0
 10
95
 20
40
 30
0
  0
LINE
  8
1
 62
7
 10
173
 20
20.5
 30
0
 11
173
 21
40
 31
0
  0
LINE
  8
1
 62
7
 10
156
 20
20.5
 30
0
 11
156
 21
40
 31
0
  0
LINE
  8
1
 62
7
 10
190
 20
40
 30
0
 11
0
 21
40
 31
0
  0
LINE
  8
1
 62
1
 10
140
 20
33.5
 30
0
 11
190
 21
33.5
 31
0
  0
LINE
  8
1
 62
1
 10
140
 20
27
 30
0
 11
190
 21
27
 31
0
  0
LINE
  8
1
 62
7
 10
140
 20
20.5
 30
0
 11
190
 21
20.5
 31
0
  0
LINE
  8
1
 62
7
 10
0
 20
14.00000000000003
 30
0
 11
190
 21
14.00000000000003
 31
0
  0
LINE
  8
1
 62
7
 10
125
 20
40
 30
0
 11
125
 21
0
 31
0
  0
LINE
  8
1
 62
7
 10
190
 20
270
 30
0
 11
190
 21
0
 31
0
  0
LINE
  8
1
 62
7
 10
0
 20
270
 30
0
 11
0
 21
0
 31
0
  0
LINE
  8
1
 62
7
 10
0
 20
270
 30
0
 11
190
 21
270
 31
0
  0
LINE
  8
1
 62
7
 10
0
 20
0
 30
0
 11
190
 21
0
 31
0
  0
LINE
  8
1
 62
1
 10
156
 20
14.00000000000003
 30
0
 11
156
 21
20.5
 31
0
  0
LINE
  8
1
 62
7
 10
140
 20
14.00000000000003
 30
0
 11
140
 21
40
 31
0
  0
LINE
  8
1
 62
1
 10
173
 20
14.00000000000003
 30
0
 11
173
 21
0
 31
0
  0
TEXT
  8
1
 62
7
 10
129.765641230955
 20
3
 30
0
 40
7
  1
B-1286
 41
0.9
  7
SIMPLEX
  0
TEXT
  8
1
 62
1
 10
141
 20
22.74999999999997
 30
0
 40
2
  1
Gesehen
 41
0.9
  0
TEXT
  8
1
 62
1
 10
141
 20
35.75
 30
0
 40
2
  1
Gezeichet
 41
0.9
  0
TEXT
  8
1
 62
1
 10
126
 20
35.75
 30
0
 40
2
  1
Massstab
 41
0.9
  0
TEXT
  8
1
 62
1
 10
141
 20
29.25
 30
0
 40
2
  1
GeprÏft
 41
0.9
  0
TEXT
  8
1
 62
1
 10
141
 20
16.25
 30
0
 40
2
  1
Verzeich.
 41
0.9
  0
TEXT
  8
1
 62
3
 10
157.0760998107852
 20
35.55439924314089
 30
0
 40
2.5
  1
28.8.96
 41
0.9
  0
TEXT
  8
1
 62
3
 10
174
 20
35.55439924314089
 30
0
 40
2.5
  1
p.schmid
 41
0.9
  0
TEXT
  8
1
 62
7
 10
179.0193132095553
 20
3.5
 30
0
 40
7
  1
.
 41
0.9
  0
TEXT
  8
1
 62
7
 10
129.402236577578
 20
27
 30
0
 40
5
  1
1:1
 41
0.9
  0
TEXT
  8
1
 62
3
 10
130.6198335501419
 20
20.5
 30
0
 40
3.5
  1
.
 41
0.9
  0
TEXT
  8
1
 62
7
 10
5
 20
28.19999999999999
 30
0
 40
6
  1
Schliessblech  S-LOCK
 41
0.9
  0
TEXT
  8
1
 62
7
 10
5
 20
18.59999999999999
 30
0
 40
5
  1
MPV mit Bolzenriegel
 41
0.9
  0
TEXT
  8
1
 62
1
 10
85.34857669653272
 20
10
 30
0
 40
2
  1
SCHLOSSFABRIK
 41
0.9
  0
TEXT
  8
1
 62
1
 10
87.318982227775
 20
6
 30
0
 40
2
  1
SCHULTE&CO.
 41
0.9
  0
TEXT
  8
1
 62
1
 10
84.28124556527851
 20
2
 30
0
 40
2
  1
CH-8718 SCHØNIS
 41
0.9
  0
INSERT
  8
0
  2
SYMBOLSCH_NIS
 10
15
 20
3.699999999999989
 30
0
  0
ENDBLK
  8
0
  0
BLOCK
  8
0
  2
4-14519
 70
0
 10
-3.665404612504119
 20
95.99824561403511
 30
0
  0
INSERT
  8
0
  2
A4
 10
95
 20
40
 30
0
  0
ENDBLK
  8
0
  0
BLOCK
  8
1
  2
*D0
 70
1
 10
0
 20
0
 30
0
  0
LINE
  8
1
 62
1
 10
102.4816337719298
 20
168.2482456140351
 30
0
 11
111.4816337719298
 21
168.2482456140351
 31
0
  0
LINE
  8
1
 62
1
 10
111.4816337719298
 20
171.9982456140351
 30
0
 11
111.4816337719298
 21
166.2482456140351
 31
0
  0
LINE
  8
1
 62
1
 10
102.4816337719298
 20
204.9982456140351
 30
0
 11
102.4816337719298
 21
166.2482456140351
 31
0
  0
LINE
  8
1
 62
1
 10
102.4816337719298
 20
168.2482456140351
 30
0
 11
104.9316337719298
 21
168.5667456140351
 31
0
  0
LINE
  8
1
 62
1
 10
104.9316337719298
 20
168.5667456140351
 30
0
 11
104.9316337719298
 21
167.9297456140351
 31
0
  0
LINE
  8
1
 62
1
 10
104.9316337719298
 20
167.9297456140351
 30
0
 11
102.4816337719298
 21
168.2482456140351
 31
0
  0
LINE
  8
1
 62
1
 10
111.4816337719298
 20
168.2482456140351
 30
0
 11
109.0316337719298
 21
167.9297456140351
 31
0
  0
LINE
  8
1
 62
1
 10
109.0316337719298
 20
167.9297456140351
 30
0
 11
109.0316337719298
 21
168.5667456140351
 31
0
  0
LINE
  8
1
 62
1
 10
109.0316337719298
 20
168.5667456140351
 30
0
 11
111.4816337719298
 21
168.2482456140351
 31
0
  0
TEXT
  8
1
 62
3
 10
105.9316337719298
 20
169.2482456140351
 30
0
 40
3.5
  1
9
 41
0.9
  0
ENDBLK
  8
0
  0
BLOCK
  8
1
  2
*D1
 70
1
 10
0
 20
0
 30
0
  0
LINE
  8
1
 62
1
 10
102.4816337719298
 20
238.2482456140351
 30
0
 11
120.4816337719298
 21
238.2482456140351
 31
0
  0
LINE
  8
1
 62
1
 10
120.4816337719298
 20
213.9982456140351
 30
0
 11
120.4816337719298
 21
240.2482456140351
 31
0
  0
LINE
  8
1
 62
1
 10
102.4816337719298
 20
204.9982456140351
 30
0
 11
102.4816337719298
 21
240.2482456140351
 31
0
  0
LINE
  8
1
 62
1
 10
102.4816337719298
 20
238.2482456140351
 30
0
 11
104.9316337719298
 21
238.5667456140351
 31
0
  0
LINE
  8
1
 62
1
 10
104.9316337719298
 20
238.5667456140351
 30
0
 11
104.9316337719298
 21
237.9297456140351
 31
0
  0
LINE
  8
1
 62
1
 10
104.9316337719298
 20
237.9297456140351
 30
0
 11
102.4816337719298
 21
238.2482456140351
 31
0
  0
LINE
  8
1
 62
1
 10
120.4816337719298
 20
238.2482456140351
 30
0
 11
118.0316337719298
 21
237.9297456140351
 31
0
  0
LINE
  8
1
 62
1
 10
118.0316337719298
 20
237.9297456140351
 30
0
 11
118.0316337719298
 21
238.5667456140351
 31
0
  0
LINE
  8
1
 62
1
 10
118.0316337719298
 20
238.5667456140351
 30
0
 11
120.4816337719298
 21
238.2482456140351
 31
0
  0
TEXT
  8
1
 62
3
 10
109.3816337719298
 20
239.2482456140351
 30
0
 40
3.5
  1
18
 41
0.9
  0
ENDBLK
  8
0
  0
BLOCK
  8
1
  2
*D2
 70
1
 10
0
 20
0
 30
0
  0
LINE
  8
1
 62
1
 10
39.29440789473679
 20
99.9982456140351
 30
0
 11
39.29440789473679
 21
109.9982456140351
 31
0
  0
LINE
  8
1
 62
1
 10
47.68163377192977
 20
109.9982456140351
 30
0
 11
38.79440789473679
 21
109.9982456140351
 31
0
  0
LINE
  8
1
 62
1
 10
47.68163377192977
 20
99.9982456140351
 30
0
 11
38.79440789473679
 21
99.9982456140351
 31
0
  0
LINE
  8
1
 62
1
 10
39.29440789473679
 20
109.9982456140351
 30
0
 11
39.61290789473679
 21
107.5482456140351
 31
0
  0
LINE
  8
1
 62
1
 10
39.61290789473679
 20
107.5482456140351
 30
0
 11
38.97590789473679
 21
107.5482456140351
 31
0
  0
LINE
  8
1
 62
1
 10
38.97590789473679
 20
107.5482456140351
 30
0
 11
39.29440789473679
 21
109.9982456140351
 31
0
  0
LINE
  8
1
 62
1
 10
39.29440789473679
 20
99.9982456140351
 30
0
 11
38.97590789473679
 21
102.4482456140351
 31
0
  0
LINE
  8
1
 62
1
 10
38.97590789473679
 20
102.4482456140351
 30
0
 11
39.61290789473679
 21
102.4482456140351
 31
0
  0
LINE
  8
1
 62
1
 10
39.61290789473679
 20
102.4482456140351
 30
0
 11
39.29440789473679
 21
99.9982456140351
 31
0
  0
TEXT
  8
1
 62
3
 10
38.29440789473679
 20
104.8232456140351
 30
0
 40
3.500000000000001
  1
10
 50
90
 41
0.9
  0
TEXT
  8
1
 62
3
 10
38.29440789473679
 20
100.9732456140351
 30
0
 40
3.500000000000001
  1
Ö
 50
90
 41
0.9
  0
ENDBLK
  8
0
  0
BLOCK
  8
1
  2
*D3
 70
1
 10
0
 20
0
 30
0
  0
LINE
  8
1
 62
1
 10
52.68163377192977
 20
228.2482456140351
 30
0
 11
57.58163377192977
 21
228.2482456140351
 31
0
  0
LINE
  8
1
 62
1
 10
47.68163377192977
 20
228.2482456140351
 30
0
 11
42.78163377192976
 21
228.2482456140351
 31
0
  0
LINE
  8
1
 62
1
 10
47.68163377192977
 20
228.2482456140351
 30
0
 11
52.68163377192977
 21
228.2482456140351
 31
0
  0
LINE
  8
1
 62
1
 10
52.68163377192977
 20
213.9982456140351
 30
0
 11
52.68163377192977
 21
228.7482456140351
 31
0
  0
LINE
  8
1
 62
1
 10
47.68163377192977
 20
213.9982456140351
 30
0
 11
47.68163377192977
 21
228.7482456140351
 31
0
  0
LINE
  8
1
 62
1
 10
52.68163377192977
 20
228.2482456140351
 30
0
 11
55.13163377192977
 21
228.5667456140351
 31
0
  0
LINE
  8
1
 62
1
 10
55.13163377192977
 20
228.5667456140351
 30
0
 11
55.13163377192977
 21
227.9297456140351
 31
0
  0
LINE
  8
1
 62
1
 10
55.13163377192977
 20
227.9297456140351
 30
0
 11
52.68163377192977
 21
228.2482456140351
 31
0
  0
LINE
  8
1
 62
1
 10
47.68163377192977
 20
228.2482456140351
 30
0
 11
45.23163377192976
 21
227.9297456140351
 31
0
  0
LINE
  8
1
 62
1
 10
45.23163377192976
 20
227.9297456140351
 30
0
 11
45.23163377192976
 21
228.5667456140351
 31
0
  0
LINE
  8
1
 62
1
 10
45.23163377192976
 20
228.5667456140351
 30
0
 11
47.68163377192977
 21
228.2482456140351
 31
0
  0
TEXT
  8
1
 62
3
 10
49.13163377192977
 20
229.2482456140351
 30
0
 40
3.500000000000001
  1
5
 41
0.9
  0
ENDBLK
  8
0
  0
BLOCK
  8
1
  2
*D4
 70
1
 10
0
 20
0
 30
0
  0
LINE
  8
1
 62
1
 10
102.4816337719298
 20
228.0732456140351
 30
0
 11
109.9816337719298
 21
228.0732456140351
 31
0
  0
LINE
  8
1
 62
1
 10
109.9816337719298
 20
212.9982456140351
 30
0
 11
109.9816337719298
 21
228.5732456140351
 31
0
  0
LINE
  8
1
 62
1
 10
102.4816337719298
 20
204.9982456140351
 30
0
 11
102.4816337719298
 21
228.5732456140351
 31
0
  0
LINE
  8
1
 62
1
 10
102.4816337719298
 20
228.0732456140351
 30
0
 11
104.9316337719298
 21
228.3917456140351
 31
0
  0
LINE
  8
1
 62
1
 10
104.9316337719298
 20
228.3917456140351
 30
0
 11
104.9316337719298
 21
227.7547456140351
 31
0
  0
LINE
  8
1
 62
1
 10
104.9316337719298
 20
227.7547456140351
 30
0
 11
102.4816337719298
 21
228.0732456140351
 31
0
  0
LINE
  8
1
 62
1
 10
109.9816337719298
 20
228.0732456140351
 30
0
 11
107.5316337719298
 21
227.7547456140351
 31
0
  0
LINE
  8
1
 62
1
 10
107.5316337719298
 20
227.7547456140351
 30
0
 11
107.5316337719298
 21
228.3917456140351
 31
0
  0
LINE
  8
1
 62
1
 10
107.5316337719298
 20
228.3917456140351
 30
0
 11
109.9816337719298
 21
228.0732456140351
 31
0
  0
TEXT
  8
1
 62
3
 10
102.9941337719298
 20
229.4232456140351
 30
0
 40
3.500000000000001
  1
7,5
 41
0.9
  0
ENDBLK
  8
0
  0
BLOCK
  8
1
  2
*D5
 70
1
 10
0
 20
0
 30
0
  0
LINE
  8
1
 62
1
 10
155.2316337719298
 20
95.99824561403511
 30
0
 11
155.2316337719298
 21
213.9982456140351
 31
0
  0
LINE
  8
1
 62
1
 10
120.4816337719298
 20
213.9982456140351
 30
0
 11
157.2316337719298
 21
213.9982456140351
 31
0
  0
LINE
  8
1
 62
1
 10
120.4816337719298
 20
95.99824561403511
 30
0
 11
157.2316337719298
 21
95.99824561403511
 31
0
  0
LINE
  8
1
 62
1
 10
155.2316337719298
 20
213.9982456140351
 30
0
 11
155.5501337719298
 21
211.5482456140351
 31
0
  0
LINE
  8
1
 62
1
 10
155.5501337719298
 20
211.5482456140351
 30
0
 11
154.9131337719298
 21
211.5482456140351
 31
0
  0
LINE
  8
1
 62
1
 10
154.9131337719298
 20
211.5482456140351
 30
0
 11
155.2316337719298
 21
213.9982456140351
 31
0
  0
LINE
  8
1
 62
1
 10
155.2316337719298
 20
95.99824561403511
 30
0
 11
154.9131337719298
 21
98.44824561403512
 31
0
  0
LINE
  8
1
 62
1
 10
154.9131337719298
 20
98.44824561403512
 30
0
 11
155.5501337719298
 21
98.44824561403512
 31
0
  0
LINE
  8
1
 62
1
 10
155.5501337719298
 20
98.44824561403512
 30
0
 11
155.2316337719298
 21
95.99824561403511
 31
0
  0
TEXT
  8
1
 62
3
 10
154.2316337719298
 20
151.8482456140351
 30
0
 40
3.500000000000001
  1
118
 50
90
 41
0.9
  0
ENDBLK
  8
0
  0
BLOCK
  8
1
  2
*D6
 70
1
 10
0
 20
0
 30
0
  0
LINE
  8
1
 62
1
 10
67.02856121281464
 20
112.7982456140351
 30
0
 11
67.02856121281464
 21
107.8982456140351
 31
0
  0
LINE
  8
1
 62
1
 10
67.02856121281464
 20
102.0982456140351
 30
0
 11
67.02856121281464
 21
107.8982456140351
 31
0
  0
LINE
  8
1
 62
1
 10
67.02856121281464
 20
102.0982456140351
 30
0
 11
67.02856121281464
 21
85.70094393592679
 31
0
  0
LINE
  8
1
 62
1
 10
52.68163377192978
 20
102.0982456140351
 30
0
 11
69.02856121281464
 21
102.0982456140351
 31
0
  0
LINE
  8
1
 62
1
 10
52.68163377192978
 20
107.8982456140351
 30
0
 11
69.02856121281464
 21
107.8982456140351
 31
0
  0
LINE
  8
1
 62
1
 10
67.02856121281464
 20
107.8982456140351
 30
0
 11
66.71006121281464
 21
110.3482456140351
 31
0
  0
LINE
  8
1
 62
1
 10
66.71006121281464
 20
110.3482456140351
 30
0
 11
67.34706121281464
 21
110.3482456140351
 31
0
  0
LINE
  8
1
 62
1
 10
67.34706121281464
 20
110.3482456140351
 30
0
 11
67.02856121281464
 21
107.8982456140351
 31
0
  0
LINE
  8
1
 62
1
 10
67.02856121281464
 20
102.0982456140351
 30
0
 11
67.34706121281464
 21
99.64824561403512
 31
0
  0
LINE
  8
1
 62
1
 10
67.34706121281464
 20
99.64824561403512
 30
0
 11
66.71006121281464
 21
99.64824561403512
 31
0
  0
LINE
  8
1
 62
1
 10
66.71006121281464
 20
99.64824561403512
 30
0
 11
67.02856121281464
 21
102.0982456140351
 31
0
  0
TEXT
  8
1
 62
3
 10
65.67856121281464
 20
89.5509439359268
 30
0
 40
3.500000000000001
  1
5,8
 50
90
 41
0.9
  0
TEXT
  8
1
 62
3
 10
65.67856121281464
 20
85.7009439359268
 30
0
 40
3.500000000000001
  1
Ö
 50
90
 41
0.9
  0
ENDBLK
  8
0
  0
BLOCK
  8
1
  2
*D7
 70
1
 10
0
 20
0
 30
0
  0
LINE
  8
1
 62
1
 10
145.2316337719298
 20
163.9982456140351
 30
0
 11
145.2316337719298
 21
213.9982456140351
 31
0
  0
LINE
  8
1
 62
1
 10
116.9816337719298
 20
163.9982456140351
 30
0
 11
145.7316337719298
 21
163.9982456140351
 31
0
  0
LINE
  8
1
 62
1
 10
120.4816337719298
 20
213.9982456140351
 30
0
 11
145.7316337719298
 21
213.9982456140351
 31
0
  0
LINE
  8
1
 62
1
 10
145.2316337719298
 20
213.9982456140351
 30
0
 11
145.5501337719298
 21
211.5482456140351
 31
0
  0
LINE
  8
1
 62
1
 10
145.5501337719298
 20
211.5482456140351
 30
0
 11
144.9131337719298
 21
211.5482456140351
 31
0
  0
LINE
  8
1
 62
1
 10
144.9131337719298
 20
211.5482456140351
 30
0
 11
145.2316337719298
 21
213.9982456140351
 31
0
  0
LINE
  8
1
 62
1
 10
145.2316337719298
 20
163.9982456140351
 30
0
 11
144.9131337719298
 21
166.4482456140351
 31
0
  0
LINE
  8
1
 62
1
 10
144.9131337719298
 20
166.4482456140351
 30
0
 11
145.5501337719298
 21
166.4482456140351
 31
0
  0
LINE
  8
1
 62
1
 10
145.5501337719298
 20
166.4482456140351
 30
0
 11
145.2316337719298
 21
163.9982456140351
 31
0
  0
TEXT
  8
1
 62
3
 10
144.2316337719298
 20
186.3732456140351
 30
0
 40
3.500000000000001
  1
50
 50
90
 41
0.9
  0
ENDBLK
  8
0
  0
BLOCK
  8
1
  2
*D8
 70
1
 10
0
 20
0
 30
0
  0
LINE
  8
1
 62
1
 10
145.2316337719298
 20
95.9982456140351
 30
0
 11
145.2316337719298
 21
145.9982456140351
 31
0
  0
LINE
  8
1
 62
1
 10
120.4816337719298
 20
95.9982456140351
 30
0
 11
145.7316337719298
 21
95.9982456140351
 31
0
  0
LINE
  8
1
 62
1
 10
116.9816337719298
 20
145.9982456140351
 30
0
 11
145.7316337719298
 21
145.9982456140351
 31
0
  0
LINE
  8
1
 62
1
 10
145.2316337719298
 20
145.9982456140351
 30
0
 11
145.5501337719298
 21
143.5482456140351
 31
0
  0
LINE
  8
1
 62
1
 10
145.5501337719298
 20
143.5482456140351
 30
0
 11
144.9131337719298
 21
143.5482456140351
 31
0
  0
LINE
  8
1
 62
1
 10
144.9131337719298
 20
143.5482456140351
 30
0
 11
145.2316337719298
 21
145.9982456140351
 31
0
  0
LINE
  8
1
 62
1
 10
145.2316337719298
 20
95.9982456140351
 30
0
 11
144.9131337719298
 21
98.4482456140351
 31
0
  0
LINE
  8
1
 62
1
 10
144.9131337719298
 20
98.4482456140351
 30
0
 11
145.5501337719298
 21
98.4482456140351
 31
0
  0
LINE
  8
1
 62
1
 10
145.5501337719298
 20
98.4482456140351
 30
0
 11
145.2316337719298
 21
95.9982456140351
 31
0
  0
TEXT
  8
1
 62
3
 10
144.2316337719298
 20
118.3732456140351
 30
0
 40
3.500000000000001
  1
50
 50
90
 41
0.9
  0
ENDBLK
  8
0
  0
BLOCK
  8
1
  2
*D9
 70
1
 10
0
 20
0
 30
0
  0
LINE
  8
1
 62
1
 10
145.2316337719298
 20
145.9982456140351
 30
0
 11
145.2316337719298
 21
163.9982456140351
 31
0
  0
LINE
  8
1
 62
1
 10
116.9816337719298
 20
145.9982456140351
 30
0
 11
145.7316337719298
 21
145.9982456140351
 31
0
  0
LINE
  8
1
 62
1
 10
116.9816337719298
 20
163.9982456140351
 30
0
 11
145.7316337719298
 21
163.9982456140351
 31
0
  0
LINE
  8
1
 62
1
 10
145.2316337719298
 20
163.9982456140351
 30
0
 11
145.5501337719298
 21
161.5482456140351
 31
0
  0
LINE
  8
1
 62
1
 10
145.5501337719298
 20
161.5482456140351
 30
0
 11
144.9131337719298
 21
161.5482456140351
 31
0
  0
LINE
  8
1
 62
1
 10
144.9131337719298
 20
161.5482456140351
 30
0
 11
145.2316337719298
 21
163.9982456140351
 31
0
  0
LINE
  8
1
 62
1
 10
145.2316337719298
 20
145.9982456140351
 30
0
 11
144.9131337719298
 21
148.4482456140351
 31
0
  0
LINE
  8
1
 62
1
 10
144.9131337719298
 20
148.4482456140351
 30
0
 11
145.5501337719298
 21
148.4482456140351
 31
0
  0
LINE
  8
1
 62
1
 10
145.5501337719298
 20
148.4482456140351
 30
0
 11
145.2316337719298
 21
145.9982456140351
 31
0
  0
TEXT
  8
1
 62
3
 10
144.2316337719298
 20
152.8982456140351
 30
0
 40
3.500000000000001
  1
18
 50
90
 41
0.9
  0
ENDBLK
  8
0
  0
BLOCK
  8
1
  2
*D10
 70
1
 10
0
 20
0
 30
0
  0
LINE
  8
1
 62
1
 10
110.3816337719298
 20
138.2482456140351
 30
0
 11
105.4816337719298
 21
138.2482456140351
 31
0
  0
LINE
  8
1
 62
1
 10
102.4816337719298
 20
138.2482456140351
 30
0
 11
105.4816337719298
 21
138.2482456140351
 31
0
  0
LINE
  8
1
 62
1
 10
102.4816337719298
 20
138.2482456140351
 30
0
 11
96.43163377192981
 21
138.2482456140351
 31
0
  0
LINE
  8
1
 62
1
 10
102.4816337719298
 20
104.9982456140351
 30
0
 11
102.4816337719298
 21
138.7482456140351
 31
0
  0
LINE
  8
1
 62
1
 10
105.4816337719298
 20
146.4982456140351
 30
0
 11
105.4816337719298
 21
137.7482456140351
 31
0
  0
LINE
  8
1
 62
1
 10
102.4816337719298
 20
138.2482456140351
 30
0
 11
100.0316337719298
 21
137.9297456140351
 31
0
  0
LINE
  8
1
 62
1
 10
100.0316337719298
 20
137.9297456140351
 30
0
 11
100.0316337719298
 21
138.5667456140351
 31
0
  0
LINE
  8
1
 62
1
 10
100.0316337719298
 20
138.5667456140351
 30
0
 11
102.4816337719298
 21
138.2482456140351
 31
0
  0
LINE
  8
1
 62
1
 10
105.4816337719298
 20
138.2482456140351
 30
0
 11
107.9316337719298
 21
138.5667456140351
 31
0
  0
LINE
  8
1
 62
1
 10
107.9316337719298
 20
138.5667456140351
 30
0
 11
107.9316337719298
 21
137.9297456140351
 31
0
  0
LINE
  8
1
 62
1
 10
107.9316337719298
 20
137.9297456140351
 30
0
 11
105.4816337719298
 21
138.2482456140351
 31
0
  0
TEXT
  8
1
 62
3
 10
96.43163377192981
 20
139.2482456140351
 30
0
 40
3.500000000000001
  1
3
 41
0.9
  0
ENDBLK
  8
0
  0
BLOCK
  8
1
  2
*D11
 70
1
 10
0
 20
0
 30
0
  0
LINE
  8
1
 62
1
 10
105.4816337719298
 20
138.2482456140351
 30
0
 11
117.4816337719298
 21
138.2482456140351
 31
0
  0
LINE
  8
1
 62
1
 10
105.4816337719298
 20
146.4982456140351
 30
0
 11
105.4816337719298
 21
137.7482456140351
 31
0
  0
LINE
  8
1
 62
1
 10
117.4816337719298
 20
146.4982456140351
 30
0
 11
117.4816337719298
 21
137.7482456140351
 31
0
  0
LINE
  8
1
 62
1
 10
105.4816337719298
 20
138.2482456140351
 30
0
 11
107.9316337719298
 21
138.5667456140351
 31
0
  0
LINE
  8
1
 62
1
 10
107.9316337719298
 20
138.5667456140351
 30
0
 11
107.9316337719298
 21
137.9297456140351
 31
0
  0
LINE
  8
1
 62
1
 10
107.9316337719298
 20
137.9297456140351
 30
0
 11
105.4816337719298
 21
138.2482456140351
 31
0
  0
LINE
  8
1
 62
1
 10
117.4816337719298
 20
138.2482456140351
 30
0
 11
115.0316337719298
 21
137.9297456140351
 31
0
  0
LINE
  8
1
 62
1
 10
115.0316337719298
 20
137.9297456140351
 30
0
 11
115.0316337719298
 21
138.5667456140351
 31
0
  0
LINE
  8
1
 62
1
 10
115.0316337719298
 20
138.5667456140351
 30
0
 11
117.4816337719298
 21
138.2482456140351
 31
0
  0
TEXT
  8
1
 62
3
 10
109.3816337719298
 20
139.2482456140351
 30
0
 40
3.500000000000001
  1
12
 41
0.9
  0
ENDBLK
  8
0
  0
BLOCK
  8
1
  2
*D12
 70
1
 10
0
 20
0
 30
0
  0
LINE
  8
1
 62
1
 10
90.23163377192981
 20
95.9982456140351
 30
0
 11
90.23163377192981
 21
104.9982456140351
 31
0
  0
LINE
  8
1
 62
1
 10
111.4816337719298
 20
95.9982456140351
 30
0
 11
89.73163377192981
 21
95.9982456140351
 31
0
  0
LINE
  8
1
 62
1
 10
101.9816337719298
 20
104.9982456140351
 30
0
 11
89.73163377192981
 21
104.9982456140351
 31
0
  0
LINE
  8
1
 62
1
 10
90.23163377192981
 20
95.9982456140351
 30
0
 11
89.91313377192981
 21
98.4482456140351
 31
0
  0
LINE
  8
1
 62
1
 10
89.91313377192981
 20
98.4482456140351
 30
0
 11
90.55013377192981
 21
98.4482456140351
 31
0
  0
LINE
  8
1
 62
1
 10
90.55013377192981
 20
98.4482456140351
 30
0
 11
90.23163377192981
 21
95.9982456140351
 31
0
  0
LINE
  8
1
 62
1
 10
90.23163377192981
 20
104.9982456140351
 30
0
 11
90.55013377192981
 21
102.5482456140351
 31
0
  0
LINE
  8
1
 62
1
 10
90.55013377192981
 20
102.5482456140351
 30
0
 11
89.91313377192981
 21
102.5482456140351
 31
0
  0
LINE
  8
1
 62
1
 10
89.91313377192981
 20
102.5482456140351
 30
0
 11
90.23163377192981
 21
104.9982456140351
 31
0
  0
TEXT
  8
1
 62
3
 10
89.23163377192981
 20
99.4482456140351
 30
0
 40
3.500000000000001
  1
9
 50
90
 41
0.9
  0
ENDBLK
  8
0
  0
BLOCK
  8
1
  2
*D13
 70
1
 10
0
 20
0
 30
0
  0
LINE
  8
1
 62
1
 10
90.23163377192981
 20
204.9982456140351
 30
0
 11
90.23163377192981
 21
213.9982456140351
 31
0
  0
LINE
  8
1
 62
1
 10
101.9816337719298
 20
204.9982456140351
 30
0
 11
89.73163377192981
 21
204.9982456140351
 31
0
  0
LINE
  8
1
 62
1
 10
111.4816337719298
 20
213.9982456140351
 30
0
 11
89.73163377192981
 21
213.9982456140351
 31
0
  0
LINE
  8
1
 62
1
 10
90.23163377192981
 20
204.9982456140351
 30
0
 11
89.91313377192981
 21
207.4482456140351
 31
0
  0
LINE
  8
1
 62
1
 10
89.91313377192981
 20
207.4482456140351
 30
0
 11
90.55013377192981
 21
207.4482456140351
 31
0
  0
LINE
  8
1
 62
1
 10
90.55013377192981
 20
207.4482456140351
 30
0
 11
90.23163377192981
 21
204.9982456140351
 31
0
  0
LINE
  8
1
 62
1
 10
90.23163377192981
 20
213.9982456140351
 30
0
 11
90.55013377192981
 21
211.5482456140351
 31
0
  0
LINE
  8
1
 62
1
 10
90.55013377192981
 20
211.5482456140351
 30
0
 11
89.91313377192981
 21
211.5482456140351
 31
0
  0
LINE
  8
1
 62
1
 10
89.91313377192981
 20
211.5482456140351
 30
0
 11
90.23163377192981
 21
213.9982456140351
 31
0
  0
TEXT
  8
1
 62
3
 10
89.23163377192981
 20
208.4482456140351
 30
0
 40
3.500000000000001
  1
9
 50
90
 41
0.9
  0
ENDBLK
  8
0
  0
BLOCK
  8
1
  2
*D14
 70
1
 10
0
 20
0
 30
0
  0
LINE
  8
1
 62
1
 10
90.23163377192981
 20
179.9982456140351
 30
0
 11
90.23163377192981
 21
204.9982456140351
 31
0
  0
LINE
  8
1
 62
1
 10
103.4816337719298
 20
179.9982456140351
 30
0
 11
89.73163377192981
 21
179.9982456140351
 31
0
  0
LINE
  8
1
 62
1
 10
101.9816337719298
 20
204.9982456140351
 30
0
 11
89.73163377192981
 21
204.9982456140351
 31
0
  0
LINE
  8
1
 62
1
 10
90.23163377192981
 20
179.9982456140351
 30
0
 11
89.91313377192981
 21
182.4482456140351
 31
0
  0
LINE
  8
1
 62
1
 10
89.91313377192981
 20
182.4482456140351
 30
0
 11
90.55013377192981
 21
182.4482456140351
 31
0
  0
LINE
  8
1
 62
1
 10
90.55013377192981
 20
182.4482456140351
 30
0
 11
90.23163377192981
 21
179.9982456140351
 31
0
  0
LINE
  8
1
 62
1
 10
90.23163377192981
 20
204.9982456140351
 30
0
 11
90.55013377192981
 21
202.5482456140351
 31
0
  0
LINE
  8
1
 62
1
 10
90.55013377192981
 20
202.5482456140351
 30
0
 11
89.91313377192981
 21
202.5482456140351
 31
0
  0
LINE
  8
1
 62
1
 10
89.91313377192981
 20
202.5482456140351
 30
0
 11
90.23163377192981
 21
204.9982456140351
 31
0
  0
TEXT
  8
1
 62
3
 10
89.23163377192981
 20
189.8732456140351
 30
0
 40
3.500000000000001
  1
25
 50
90
 41
0.9
  0
ENDBLK
  8
0
  0
BLOCK
  8
1
  2
*D15
 70
1
 10
0
 20
0
 30
0
  0
LINE
  8
1
 62
1
 10
90.23163377192981
 20
129.9982456140351
 30
0
 11
90.23163377192981
 21
179.9982456140351
 31
0
  0
LINE
  8
1
 62
1
 10
103.4816337719298
 20
129.9982456140351
 30
0
 11
89.73163377192981
 21
129.9982456140351
 31
0
  0
LINE
  8
1
 62
1
 10
103.4816337719298
 20
179.9982456140351
 30
0
 11
89.73163377192981
 21
179.9982456140351
 31
0
  0
LINE
  8
1
 62
1
 10
90.23163377192981
 20
129.9982456140351
 30
0
 11
89.91313377192981
 21
132.4482456140351
 31
0
  0
LINE
  8
1
 62
1
 10
89.91313377192981
 20
132.4482456140351
 30
0
 11
90.55013377192981
 21
132.4482456140351
 31
0
  0
LINE
  8
1
 62
1
 10
90.55013377192981
 20
132.4482456140351
 30
0
 11
90.23163377192981
 21
129.9982456140351
 31
0
  0
LINE
  8
1
 62
1
 10
90.23163377192981
 20
179.9982456140351
 30
0
 11
90.55013377192981
 21
177.5482456140351
 31
0
  0
LINE
  8
1
 62
1
 10
90.55013377192981
 20
177.5482456140351
 30
0
 11
89.91313377192981
 21
177.5482456140351
 31
0
  0
LINE
  8
1
 62
1
 10
89.91313377192981
 20
177.5482456140351
 30
0
 11
90.23163377192981
 21
179.9982456140351
 31
0
  0
TEXT
  8
1
 62
3
 10
89.23163377192981
 20
152.3732456140351
 30
0
 40
3.500000000000001
  1
50
 50
90
 41
0.9
  0
ENDBLK
  8
0
  0
BLOCK
  8
1
  2
*D16
 70
1
 10
0
 20
0
 30
0
  0
LINE
  8
1
 62
1
 10
90.23163377192981
 20
104.9982456140351
 30
0
 11
90.23163377192981
 21
129.9982456140351
 31
0
  0
LINE
  8
1
 62
1
 10
101.9816337719298
 20
104.9982456140351
 30
0
 11
89.73163377192981
 21
104.9982456140351
 31
0
  0
LINE
  8
1
 62
1
 10
103.4816337719298
 20
129.9982456140351
 30
0
 11
89.73163377192981
 21
129.9982456140351
 31
0
  0
LINE
  8
1
 62
1
 10
90.23163377192981
 20
104.9982456140351
 30
0
 11
89.91313377192981
 21
107.4482456140351
 31
0
  0
LINE
  8
1
 62
1
 10
89.91313377192981
 20
107.4482456140351
 30
0
 11
90.55013377192981
 21
107.4482456140351
 31
0
  0
LINE
  8
1
 62
1
 10
90.55013377192981
 20
107.4482456140351
 30
0
 11
90.23163377192981
 21
104.9982456140351
 31
0
  0
LINE
  8
1
 62
1
 10
90.23163377192981
 20
129.9982456140351
 30
0
 11
90.55013377192981
 21
127.5482456140351
 31
0
  0
LINE
  8
1
 62
1
 10
90.55013377192981
 20
127.5482456140351
 30
0
 11
89.91313377192981
 21
127.5482456140351
 31
0
  0
LINE
  8
1
 62
1
 10
89.91313377192981
 20
127.5482456140351
 30
0
 11
90.23163377192981
 21
129.9982456140351
 31
0
  0
TEXT
  8
1
 62
3
 10
89.23163377192981
 20
114.8732456140351
 30
0
 40
3.500000000000001
  1
25
 50
90
 41
0.9
  0
ENDBLK
  8
0
  0
BLOCK
  8
1
  2
*D17
 70
1
 10
0
 20
0
 30
0
  0
LINE
  8
1
 62
1
 10
111.4816337719298
 20
104.9982456140352
 30
0
 11
95.34611496574405
 21
87.95888519369977
 31
0
  0
LINE
  8
1
 62
1
 10
105.2933536133385
 20
98.46332490458616
 30
0
 11
103.8400298197175
 21
96.46537790806823
 31
0
  0
LINE
  8
1
 62
1
 10
103.8400298197175
 20
96.46537790806823
 30
0
 11
103.3775026539487
 21
96.90337062595964
 31
0
  0
LINE
  8
1
 62
1
 10
103.3775026539487
 20
96.90337062595964
 30
0
 11
105.2933536133385
 21
98.46332490458616
 31
0
  0
TEXT
  8
1
 62
3
 10
97.50787673870343
 20
91.69610154239723
 30
0
 40
3.5
  1
9
 50
46.56062368541058
 41
0.9
  0
TEXT
  8
1
 62
3
 10
94.62001266469416
 20
88.64647187798769
 30
0
 40
3.5
  1
R
 50
46.56062368541058
 41
0.9
  0
ENDBLK
  8
0
  0
BLOCK
  8
1
  2
*D18
 70
1
 10
0
 20
0
 30
0
  0
LINE
  8
1
 62
1
 10
47.68163377192978
 20
99.9982456140351
 30
0
 11
37.14835084321642
 21
89.46496268532174
 31
0
  0
LINE
  8
1
 62
1
 10
47.68163377192978
 20
109.9982456140351
 30
0
 11
37.14835084321642
 21
120.5315285427484
 31
0
  0
LINE
  8
1
 62
1
 10
37.14835084321642
 20
89.46496268532174
 30
0
 11
36.79479745262315
 21
89.11140929472846
 31
0
  0
LINE
  8
1
 62
1
 10
37.14835084321642
 20
120.5315285427484
 30
0
 11
36.79479745262315
 21
120.8850819333417
 31
0
  0
ARC
  8
1
 62
1
 10
52.68163377192978
 20
104.9982456140351
 30
0
 40
21.9673793859649
 50
135
 51
225
  0
LINE
  8
1
 62
1
 10
37.14835084321642
 20
120.5315285427484
 30
0
 11
35.75260500656515
 21
118.4929418240949
 31
0
  0
LINE
  8
1
 62
1
 10
35.75260500656515
 20
118.4929418240949
 30
0
 11
35.27777332442226
 21
118.9175638603028
 31
0
  0
LINE
  8
1
 62
1
 10
35.27777332442226
 20
118.9175638603028
 30
0
 11
37.14835084321642
 21
120.5315285427484
 31
0
  0
LINE
  8
1
 62
1
 10
37.14835084321642
 20
89.46496268532174
 30
0
 11
35.27777332442226
 21
91.07892736776739
 31
0
  0
LINE
  8
1
 62
1
 10
35.27777332442226
 20
91.07892736776739
 30
0
 11
35.75260500656515
 21
91.50354940397528
 31
0
  0
LINE
  8
1
 62
1
 10
35.75260500656515
 20
91.50354940397528
 30
0
 11
37.14835084321642
 21
89.46496268532174
 31
0
  0
TEXT
  8
1
 62
3
 10
29.71425438596488
 20
101.1482456140351
 30
0
 40
3.500000000000001
  1
90%%d
 50
90
 41
0.9
  0
ENDBLK
  8
0
  0
ENDSEC
  0
SECTION
  2
ENTITIES
  0
LINE
  8
CONSTRUCTION
 62
1
  6
DOT
 10
0
 20
0
 30
0
 11
190
 21
0
 31
0
  0
LINE
  8
CONSTRUCTION
 62
1
  6
DOT
 10
0
 20
0
 30
0
 11
0
 21
270
 31
0
  0
LINE
  8
1
 62
2
  6
DASHDOT
 10
58.95038377192978
 20
104.9982456140351
 30
0
 11
42.29841008771928
 21
104.9982456140351
 31
0
  0
LINE
  8
1
 62
3
  6
DASHED
 10
52.68163377192977
 20
102.0982456140351
 30
0
 11
49.78163377192979
 21
102.0982456140351
 31
0
  0
LINE
  8
1
 62
3
  6
DASHED
 10
52.68163377192977
 20
107.8982456140351
 30
0
 11
49.78163377192979
 21
107.8982456140351
 31
0
  0
LINE
  8
1
 62
3
  6
DASHED
 10
49.78163377192979
 20
102.0982456140351
 30
0
 11
49.78163377192979
 21
107.8982456140351
 31
0
  0
LINE
  8
1
 62
3
  6
DASHED
 10
49.78163377192979
 20
102.0982456140351
 30
0
 11
47.68163377192977
 21
99.9982456140351
 31
0
  0
LINE
  8
1
 62
3
  6
DASHED
 10
49.78163377192979
 20
107.8982456140351
 30
0
 11
47.68163377192977
 21
109.9982456140351
 31
0
  0
LINE
  8
1
 62
2
  6
DASHDOT
 10
58.95038377192978
 20
129.9982456140351
 30
0
 11
42.29841008771928
 21
129.9982456140351
 31
0
  0
LINE
  8
1
 62
3
  6
DASHED
 10
52.68163377192977
 20
127.0982456140351
 30
0
 11
49.78163377192979
 21
127.0982456140351
 31
0
  0
LINE
  8
1
 62
3
  6
DASHED
 10
52.68163377192977
 20
132.8982456140351
 30
0
 11
49.78163377192979
 21
132.8982456140351
 31
0
  0
LINE
  8
1
 62
3
  6
DASHED
 10
49.78163377192979
 20
127.0982456140351
 30
0
 11
49.78163377192979
 21
132.8982456140351
 31
0
  0
LINE
  8
1
 62
3
  6
DASHED
 10
49.78163377192979
 20
127.0982456140351
 30
0
 11
47.68163377192977
 21
124.9982456140351
 31
0
  0
LINE
  8
1
 62
3
  6
DASHED
 10
49.78163377192979
 20
132.8982456140351
 30
0
 11
47.68163377192977
 21
134.9982456140351
 31
0
  0
LINE
  8
1
 62
2
  6
DASHDOT
 10
58.95038377192978
 20
179.9982456140351
 30
0
 11
42.29841008771928
 21
179.9982456140351
 31
0
  0
LINE
  8
1
 62
3
  6
DASHED
 10
52.68163377192977
 20
177.0982456140351
 30
0
 11
49.78163377192979
 21
177.0982456140351
 31
0
  0
LINE
  8
1
 62
3
  6
DASHED
 10
52.68163377192977
 20
182.8982456140351
 30
0
 11
49.78163377192979
 21
182.8982456140351
 31
0
  0
LINE
  8
1
 62
3
  6
DASHED
 10
49.78163377192979
 20
177.0982456140351
 30
0
 11
49.78163377192979
 21
182.8982456140351
 31
0
  0
LINE
  8
1
 62
3
  6
DASHED
 10
49.78163377192979
 20
177.0982456140351
 30
0
 11
47.68163377192977
 21
174.9982456140351
 31
0
  0
LINE
  8
1
 62
3
  6
DASHED
 10
49.78163377192979
 20
182.8982456140351
 30
0
 11
47.68163377192977
 21
184.9982456140351
 31
0
  0
LINE
  8
1
 62
2
  6
DASHDOT
 10
58.95038377192978
 20
204.9982456140351
 30
0
 11
42.29841008771928
 21
204.9982456140351
 31
0
  0
LINE
  8
1
 62
3
  6
DASHED
 10
52.68163377192977
 20
202.0982456140351
 30
0
 11
49.78163377192979
 21
202.0982456140351
 31
0
  0
LINE
  8
1
 62
3
  6
DASHED
 10
52.68163377192977
 20
207.8982456140351
 30
0
 11
49.78163377192979
 21
207.8982456140351
 31
0
  0
LINE
  8
1
 62
3
  6
DASHED
 10
49.78163377192979
 20
202.0982456140351
 30
0
 11
49.78163377192979
 21
207.8982456140351
 31
0
  0
LINE
  8
1
 62
3
  6
DASHED
 10
49.78163377192979
 20
202.0982456140351
 30
0
 11
47.68163377192977
 21
199.9982456140351
 31
0
  0
LINE
  8
1
 62
3
  6
DASHED
 10
49.78163377192979
 20
207.8982456140351
 30
0
 11
47.68163377192977
 21
209.9982456140351
 31
0
  0
LINE
  8
1
 62
3
  6
DASHED
 10
52.68163377192977
 20
145.9982456140351
 30
0
 11
47.68163377192977
 21
145.9982456140351
 31
0
  0
LINE
  8
1
 62
3
  6
DASHED
 10
47.68163377192977
 20
163.9982456140351
 30
0
 11
52.68163377192977
 21
163.9982456140351
 31
0
  0
LINE
  8
1
 62
7
 10
52.68163377192977
 20
213.9982456140351
 30
0
 11
52.68163377192977
 21
95.9982456140351
 31
0
  0
LINE
  8
1
 62
7
 10
52.68163377192977
 20
95.9982456140351
 30
0
 11
47.68163377192977
 21
95.9982456140351
 31
0
  0
LINE
  8
1
 62
7
 10
47.68163377192977
 20
95.9982456140351
 30
0
 11
47.68163377192977
 21
213.9982456140351
 31
0
  0
LINE
  8
1
 62
7
 10
47.68163377192977
 20
213.9982456140351
 30
0
 11
52.68163377192977
 21
213.9982456140351
 31
0
  0
LINE
  8
1
 62
2
  6
DASHDOT
 10
109.9816337719298
 20
96.9982456140351
 30
0
 11
109.9816337719298
 21
112.9982456140351
 31
0
  0
LINE
  8
1
 62
2
  6
DASHDOT
 10
101.9816337719298
 20
104.9982456140351
 30
0
 11
117.9816337719298
 21
104.9982456140351
 31
0
  0
LINE
  8
1
 62
2
  6
DASHDOT
 10
111.4816337719298
 20
121.9982456140351
 30
0
 11
111.4816337719298
 21
137.9982456140351
 31
0
  0
LINE
  8
1
 62
2
  6
DASHDOT
 10
103.4816337719298
 20
129.9982456140351
 30
0
 11
119.4816337719298
 21
129.9982456140351
 31
0
  0
LINE
  8
1
 62
2
  6
DASHDOT
 10
111.4816337719298
 20
171.9982456140351
 30
0
 11
111.4816337719298
 21
187.9982456140351
 31
0
  0
LINE
  8
1
 62
2
  6
DASHDOT
 10
103.4816337719298
 20
179.9982456140351
 30
0
 11
119.4816337719298
 21
179.9982456140351
 31
0
  0
LINE
  8
1
 62
2
  6
DASHDOT
 10
109.9816337719298
 20
196.9982456140351
 30
0
 11
109.9816337719298
 21
212.9982456140351
 31
0
  0
LINE
  8
1
 62
2
  6
DASHDOT
 10
101.9816337719298
 20
204.9982456140351
 30
0
 11
117.9816337719298
 21
204.9982456140351
 31
0
  0
LINE
  8
1
 62
7
 10
105.4816337719298
 20
146.4982456140351
 30
0
 11
105.4816337719298
 21
163.4982456140351
 31
0
  0
LINE
  8
1
 62
7
 10
116.9816337719298
 20
145.9982456140351
 30
0
 11
105.9816337719298
 21
145.9982456140351
 31
0
  0
LINE
  8
1
 62
7
 10
117.4816337719298
 20
163.4982456140351
 30
0
 11
117.4816337719298
 21
146.4982456140351
 31
0
  0
LINE
  8
1
 62
7
 10
105.9816337719298
 20
163.9982456140351
 30
0
 11
116.9816337719298
 21
163.9982456140351
 31
0
  0
LINE
  8
1
 62
7
 10
102.4816337719298
 20
204.9982456140351
 30
0
 11
102.4816337719298
 21
104.9982456140351
 31
0
  0
LINE
  8
1
 62
7
 10
120.4816337719298
 20
213.9982456140351
 30
0
 11
111.4816337719298
 21
213.9982456140351
 31
0
  0
LINE
  8
1
 62
7
 10
120.4816337719298
 20
95.9982456140351
 30
0
 11
120.4816337719298
 21
213.9982456140351
 31
0
  0
LINE
  8
1
 62
7
 10
111.4816337719298
 20
95.9982456140351
 30
0
 11
120.4816337719298
 21
95.9982456140351
 31
0
  0
ARC
  8
1
 62
7
 10
109.9816337719298
 20
104.9982456140351
 30
0
 40
2.899999999999991
 50
180
 51
0
  0
ARC
  8
1
 62
7
 10
109.9816337719298
 20
104.9982456140351
 30
0
 40
2.900000000000006
 50
0
 51
180
  0
CIRCLE
  8
1
 62
7
 10
109.9816337719298
 20
104.9982456140351
 30
0
 40
5
  0
CIRCLE
  8
1
 62
7
 10
111.4816337719298
 20
129.9982456140351
 30
0
 40
2.900000000000006
  0
CIRCLE
  8
1
 62
7
 10
111.4816337719298
 20
129.9982456140351
 30
0
 40
5
  0
CIRCLE
  8
1
 62
7
 10
111.4816337719298
 20
179.9982456140351
 30
0
 40
2.900000000000006
  0
CIRCLE
  8
1
 62
7
 10
111.4816337719298
 20
179.9982456140351
 30
0
 40
5
  0
CIRCLE
  8
1
 62
7
 10
109.9816337719298
 20
204.9982456140351
 30
0
 40
2.900000000000006
  0
CIRCLE
  8
1
 62
7
 10
109.9816337719298
 20
204.9982456140351
 30
0
 40
5
  0
ARC
  8
1
 62
7
 10
105.9816337719298
 20
146.4982456140351
 30
0
 40
0.5
 50
180
 51
270
  0
ARC
  8
1
 62
7
 10
116.9816337719298
 20
146.4982456140351
 30
0
 40
0.5
 50
270
 51
0
  0
ARC
  8
1
 62
7
 10
116.9816337719298
 20
163.4982456140351
 30
0
 40
0.5
 50
0
 51
90
  0
ARC
  8
1
 62
7
 10
105.9816337719298
 20
163.4982456140351
 30
0
 40
0.5
 50
90
 51
180
  0
ARC
  8
1
 62
7
 10
111.4816337719298
 20
104.9982456140351
 30
0
 40
9
 50
180
 51
270
  0
ARC
  8
1
 62
7
 10
111.4816337719298
 20
204.9982456140351
 30
0
 40
9
 50
90
 51
180
  0
TEXT
  8
1
 62
3
 10
120
 20
75
 30
0
 40
7
  1
B-1286.231
 41
0.9
  0
DIMENSION
  8
1
  6
CONTINUOUS
 62
1
  2
*D0
  3
DMST_1
 10
111.4816337719298
 20
168.2482456140351
 30
0
 11
106.9816337719298
 21
170.9982456140351
 31
0
 12
0
 22
0
 32
0
 70
0
 13
102.4816337719298
 23
204.9982456140351
 33
0
 14
111.4816337719298
 24
171.9982456140351
 34
0
 53
0
  0
DIMENSION
  8
1
  6
CONTINUOUS
 62
1
  2
*D1
  3
DMST_1
 10
120.4816337719298
 20
238.2482456140351
 30
0
 11
111.4816337719298
 21
240.9982456140351
 31
0
 12
0
 22
0
 32
0
 70
0
 13
102.4816337719298
 23
204.9982456140351
 33
0
 14
120.4816337719298
 24
213.9982456140351
 34
0
 53
0
  0
DIMENSION
  8
1
  6
CONTINUOUS
 62
1
  2
*D2
  3
DMST_2
 10
39.29440789473679
 20
109.9982456140351
 30
0
 11
36.54440789473679
 21
104.9982456140351
 31
0
 12
0
 22
0
 32
0
 70
0
  1
Ö<>
 13
47.68163377192977
 23
99.9982456140351
 33
0
 14
47.68163377192977
 24
109.9982456140351
 34
0
 50
90
 53
0
  0
DIMENSION
  8
1
  6
CONTINUOUS
 62
1
  2
*D3
  3
DMST_2
 10
52.68163377192977
 20
228.2482456140351
 30
0
 11
50.18163377192977
 21
230.9982456140351
 31
0
 12
0
 22
0
 32
0
 70
0
 13
47.68163377192977
 23
213.9982456140351
 33
0
 14
52.68163377192977
 24
213.9982456140351
 34
0
 53
0
  0
DIMENSION
  8
1
  6
CONTINUOUS
 62
1
  2
*D4
  3
DMST_2
 10
109.9816337719298
 20
228.0732456140351
 30
0
 11
106.2316337719298
 21
230.9982456140351
 31
0
 12
0
 22
0
 32
0
 70
0
 13
102.4816337719298
 23
204.9982456140351
 33
0
 14
109.9816337719298
 24
212.9982456140351
 34
0
 53
0
  0
DIMENSION
  8
1
  6
CONTINUOUS
 62
1
  2
*D5
  3
DMST_1
 10
155.2316337719298
 20
213.9982456140351
 30
0
 11
152.4816337719298
 21
154.9982456140351
 31
0
 12
0
 22
0
 32
0
 70
0
 13
120.4816337719298
 23
95.9982456140351
 33
0
 14
120.4816337719298
 24
213.9982456140351
 34
0
 50
90
 53
0
  0
DIMENSION
  8
1
  6
CONTINUOUS
 62
1
  2
*D6
  3
DMST_1
 10
67.02856121281464
 20
102.0982456140351
 30
0
 11
64.10356121281464
 21
90.8634439359268
 31
0
 12
0
 22
0
 32
0
 70
0
  1
Ö<>
 13
52.68163377192977
 23
107.8982456140351
 33
0
 14
52.68163377192977
 24
102.0982456140351
 34
0
 50
90
 53
0
  0
DIMENSION
  8
1
  6
CONTINUOUS
 62
1
  2
*D7
  3
DMST_2
 10
145.2316337719298
 20
163.9982456140351
 30
0
 11
142.4816337719298
 21
188.9982456140351
 31
0
 12
0
 22
0
 32
0
 70
0
 13
120.4816337719298
 23
213.9982456140351
 33
0
 14
116.9816337719298
 24
163.9982456140351
 34
0
 50
90
 53
0
  0
DIMENSION
  8
1
  6
CONTINUOUS
 62
1
  2
*D8
  3
DMST_2
 10
145.2316337719298
 20
95.9982456140351
 30
0
 11
142.4816337719298
 21
120.9982456140351
 31
0
 12
0
 22
0
 32
0
 70
0
 13
116.9816337719298
 23
145.9982456140351
 33
0
 14
120.4816337719298
 24
95.9982456140351
 34
0
 50
90
 53
0
  0
DIMENSION
  8
1
  6
CONTINUOUS
 62
1
  2
*D9
  3
DMST_2
 10
145.2316337719298
 20
145.9982456140351
 30
0
 11
142.4816337719298
 21
154.9982456140351
 31
0
 12
0
 22
0
 32
0
 70
0
 13
116.9816337719298
 23
163.9982456140351
 33
0
 14
116.9816337719298
 24
145.9982456140351
 34
0
 50
90
 53
0
  0
DIMENSION
  8
1
  6
CONTINUOUS
 62
1
  2
*D10
  3
DMST_2
 10
102.4816337719298
 20
138.2482456140351
 30
0
 11
97.48163377192981
 21
140.9982456140351
 31
0
 12
0
 22
0
 32
0
 70
0
 13
105.4816337719298
 23
146.4982456140351
 33
0
 14
102.4816337719298
 24
104.9982456140351
 34
0
 53
0
  0
DIMENSION
  8
1
  6
CONTINUOUS
 62
1
  2
*D11
  3
DMST_2
 10
105.4816337719298
 20
138.2482456140351
 30
0
 11
111.4816337719298
 21
140.9982456140351
 31
0
 12
0
 22
0
 32
0
 70
0
 13
117.4816337719298
 23
146.4982456140351
 33
0
 14
105.4816337719298
 24
146.4982456140351
 34
0
 53
0
  0
DIMENSION
  8
1
  6
CONTINUOUS
 62
1
  2
*D12
  3
DMST_2
 10
90.23163377192981
 20
95.9982456140351
 30
0
 11
87.48163377192981
 21
100.4982456140351
 31
0
 12
0
 22
0
 32
0
 70
0
 13
101.9816337719298
 23
104.9982456140351
 33
0
 14
111.4816337719298
 24
95.9982456140351
 34
0
 50
90
 53
0
  0
DIMENSION
  8
1
  6
CONTINUOUS
 62
1
  2
*D13
  3
DMST_2
 10
90.23163377192981
 20
204.9982456140351
 30
0
 11
87.48163377192981
 21
209.4982456140351
 31
0
 12
0
 22
0
 32
0
 70
0
 13
111.4816337719298
 23
213.9982456140351
 33
0
 14
101.9816337719298
 24
204.9982456140351
 34
0
 50
90
 53
0
  0
DIMENSION
  8
1
  6
CONTINUOUS
 62
1
  2
*D14
  3
DMST_2
 10
90.23163377192981
 20
179.9982456140351
 30
0
 11
87.48163377192981
 21
192.4982456140351
 31
0
 12
0
 22
0
 32
0
 70
0
 13
101.9816337719298
 23
204.9982456140351
 33
0
 14
103.4816337719298
 24
179.9982456140351
 34
0
 50
90
 53
0
  0
DIMENSION
  8
1
  6
CONTINUOUS
 62
1
  2
*D15
  3
DMST_2
 10
90.23163377192981
 20
129.9982456140351
 30
0
 11
87.48163377192981
 21
154.9982456140351
 31
0
 12
0
 22
0
 32
0
 70
0
 13
103.4816337719298
 23
179.9982456140351
 33
0
 14
103.4816337719298
 24
129.9982456140351
 34
0
 50
90
 53
0
  0
DIMENSION
  8
1
  6
CONTINUOUS
 62
1
  2
*D16
  3
DMST_2
 10
90.23163377192981
 20
104.9982456140351
 30
0
 11
87.48163377192981
 21
117.4982456140351
 31
0
 12
0
 22
0
 32
0
 70
0
 13
103.4816337719298
 23
129.9982456140351
 33
0
 14
101.9816337719298
 24
104.9982456140351
 34
0
 50
90
 53
0
  0
DIMENSION
  8
1
  6
CONTINUOUS
 62
1
  2
*D17
  3
DMST_3
 10
111.4816337719298
 20
104.9982456140351
 30
0
 11
95.5152316933638
 21
92.13697082379871
 31
0
 12
0
 22
0
 32
0
 70
4
 15
105.2933536133385
 25
98.46332490458612
 35
0
 40
0
 53
0
  0
DIMENSION
  8
1
  6
CONTINUOUS
 62
1
  2
*D18
  3
DMST_2
 10
49.78163377192979
 20
107.8982456140351
 30
0
 11
27.96425438596488
 21
104.9982456140351
 31
0
 12
0
 22
0
 32
0
 70
2
 13
49.78163377192979
 23
102.0982456140351
 33
0
 14
47.68163377192977
 24
99.9982456140351
 34
0
 15
47.68163377192977
 25
109.9982456140351
 35
0
 16
30.7142543859649
 26
104.9982456140351
 36
0
 53
0
  0
INSERT
  8
0
  2
4-14519
 10
-3.665404612504119
 20
95.99824561403511
 30
0
  0
ENDSEC
  0
EOF
