  0
SECTION
  2
HEADER
  9
$ACADVER
  1
AC1009
  9
$INSBASE
 10
0
 20
0
  9
$EXTMIN
 10
-34.3204659578958
 20
-10
  9
$EXTMAX
 10
232.5623473660398
 20
310.2671261337263
  9
$LIMMIN
 10
-34.3204659578958
 20
-10
  9
$LIMMAX
 10
232.5623473660398
 20
310.2671261337263
  9
$VIEWCTR
 10
10
 20
10
  9
$VIEWSIZE
 40
10
  9
$SNAPMODE
 70
0
  9
$SNAPUNIT
 10
1
 20
1
  9
$SNAPBASE
 10
0
 20
0
  9
$SNAPANG
 50
0
  9
$SNAPSTYLE
 70
0
  9
$SNAPISOPAIR
 70
0
  9
$GRIDMODE
 70
0
  9
$GRIDUNIT
 10
0
 20
0
  9
$ORTHOMODE
 70
0
  9
$REGENMODE
 70
1
  9
$FILLMODE
 70
1
  9
$QTEXTMODE
 70
0
  9
$DRAGMODE
 70
2
  9
$LTSCALE
 40
1
  9
$OSMODE
 70
0
  9
$ATTMODE
 70
1
  9
$TEXTSIZE
 40
3.5
  9
$TRACEWID
 40
0.5
  9
$TEXTSTYLE
  7
STANDARD
  9
$CLAYER
  8
0
  9
$CELTYPE
  6
BYLAYER
  9
$CECOLOR
 62
256
  9
$DIMSCALE
 40
1
  9
$DIMASZ
 40
0.18
  9
$DIMEXO
 40
0.0625
  9
$DIMDLI
 40
0.38
  9
$DIMRND
 40
0
  9
$DIMDLE
 40
0
  9
$DIMEXE
 40
0.18
  9
$DIMTP
 40
0
  9
$DIMTM
 40
0
  9
$DIMTXT
 40
0.18
  9
$DIMCEN
 40
0.09
  9
$DIMTSZ
 40
0
  9
$DIMTOL
 70
0
  9
$DIMLIM
 70
0
  9
$DIMTIH
 70
1
  9
$DIMTOH
 70
1
  9
$DIMSE1
 70
0
  9
$DIMSE2
 70
0
  9
$DIMTAD
 70
0
  9
$DIMZIN
 70
0
  9
$DIMBLK
  1

  9
$DIMASO
 70
1
  9
$DIMSHO
 70
1
  9
$DIMPOST
  1

  9
$DIMAPOST
  1

  9
$DIMALT
 70
0
  9
$DIMALTD
 70
2
  9
$DIMALTF
 40
25.4
  9
$DIMLFAC
 40
1
  9
$DIMTOFL
 70
0
  9
$DIMTVP
 40
0
  9
$DIMTIX
 70
0
  9
$DIMSOXD
 70
0
  9
$DIMSAH
 70
0
  9
$DIMBLK1
  1

  9
$DIMBLK2
  1

  9
$DIMSTYLE
  2
*UNNAMED
  9
$DIMCLRD
 70
0
  9
$DIMCLRE
 70
0
  9
$DIMCLRT
 70
0
  9
$DIMTFAC
 40
1
  9
$DIMGAP
 40
0.09
  9
$LUNITS
 70
2
  9
$LUPREC
 70
4
  9
$AXISMODE
 70
0
  9
$AXISUNIT
 10
0
 20
0
  9
$SKETCHINC
 40
0.1
  9
$FILLETRAD
 40
2
  9
$AUNITS
 70
0
  9
$AUPREC
 70
0
  9
$MENU
  1
ACAD
  9
$ELEVATION
 40
0
  9
$THICKNESS
 40
0
  9
$VIEWDIR
 10
0
 20
0
 30
1
  9
$LIMCHECK
 70
0
  9
$BLIPMODE
 70
1
  9
$CHAMFERA
 40
0
  9
$CHAMFERB
 40
0
  9
$FASTZOOM
 70
1
  9
$SKPOLY
 70
0
  9
$ANGBASE
 50
0
  9
$ANGDIR
 70
0
  9
$PDMODE
 70
0
  9
$PDSIZE
 40
0
  9
$PLINEWID
 40
0
  9
$COORDS
 70
2
  0
ENDSEC
  0
SECTION
  2
TABLES
  0
TABLE
  2
DIMSTYLE
 70
2
  0
DIMSTYLE
  2
DMST_1
 70
0
  3

  4

  5

  6

  7

 40
1
 41
5
 42
0
 43
7
 44
1.5
 45
0
 46
0
 47
0
 48
0
140
5
141
0
142
0
143
25.4
144
1
145
0
146
1
147
0.09
 71
0
 72
0
 73
0
 74
0
 75
0
 76
0
 77
1
 78
9
170
0
171
2
172
0
173
0
174
0
175
0
176
1
177
1
178
7
  0
DIMSTYLE
  2
DMST_2
 70
0
  3

  4

  5

  6

  7

 40
1
 41
5
 42
0
 43
7
 44
1.5
 45
0
 46
0
 47
0
 48
0
140
5
141
0
142
0
143
25.4
144
1
145
0
146
1
147
0.09
 71
0
 72
0
 73
0
 74
0
 75
0
 76
0
 77
1
 78
9
170
0
171
2
172
1
173
0
174
0
175
0
176
1
177
1
178
7
  0
ENDTAB
  0
TABLE
  2
LTYPE
 70
9
  0
LTYPE
  2
CONTINUOUS
 70
64
  3
Solid line
 72
65
 73
0
 40
0
  0
LTYPE
  2
BORDER
 70
64
  3
__ __ . __ __ .
 72
65
 73
6
 40
14.74914396668477
 49
4.214041133338505
 49
-2.107020566669252
 49
4.214041133338505
 49
-2.107020566669252
 49
0
 49
-2.107020566669252
  0
LTYPE
  2
CENTER
 70
64
  3
____ _ ____ _
 72
65
 73
4
 40
16.85616453335402
 49
10.53510283334626
 49
-2.107020566669252
 49
2.107020566669252
 49
-2.107020566669252
  0
LTYPE
  2
DASHDOT
 70
64
  3
__ . __ . __ .
 72
65
 73
4
 40
8.428082266677009
 49
4.214041133338505
 49
-2.107020566669252
 49
0
 49
-2.107020566669252
  0
LTYPE
  2
DASHED
 70
64
  3
__ __ __ __ __
 72
65
 73
2
 40
6.321061700007757
 49
4.214041133338505
 49
-2.107020566669252
  0
LTYPE
  2
DIVIDE
 70
64
  3
__ . . __ . . 
 72
65
 73
6
 40
10.53510283334626
 49
4.214041133338505
 49
-2.107020566669252
 49
0
 49
-2.107020566669252
 49
0
 49
-2.107020566669252
  0
LTYPE
  2
DOT
 70
64
  3
..............
 72
65
 73
4
 40
4.214041133338505
 49
0
 49
-2.107020566669252
 49
0
 49
-2.107020566669252
  0
LTYPE
  2
HIDDEN
 70
64
  3
_ _ _ _ _ _ _
 72
65
 73
2
 40
3.160530850003878
 49
2.107020566669252
 49
-1.053510283334626
  0
LTYPE
  2
PHANTOM
 70
64
  3
_____ _ _ _____ _ _ 
 72
65
 73
6
 40
21.07020566669252
 49
10.53510283334626
 49
-2.107020566669252
 49
2.107020566669252
 49
-2.107020566669252
 49
2.107020566669252
 49
-2.107020566669252
  0
ENDTAB
  0
TABLE
  2
LAYER
 70
3
  0
LAYER
  2
1
 70
0
 62
7
  6
CONTINUOUS
  0
LAYER
  2
0
 70
0
 62
7
  6
CONTINUOUS
  0
ENDTAB
  0
TABLE
  2
STYLE
 70
4
  0
STYLE
  2
STANDARD
 70
0
 40
0
 41
1
 50
0
 71
0
 42
3.5
  3
txt
  4

  0
STYLE
  2
SIMPLEX
 70
0
 40
0
 41
1
 50
0
 71
0
 42
3.5
  3
simplex
  4

  0
STYLE
  2
COMPLEX
 70
0
 40
0
 41
1
 50
0
 71
0
 42
3.5
  3
complex
  4

  0
STYLE
  2
ITALIC
 70
0
 40
0
 41
1
 50
0
 71
0
 42
3.5
  3
italic
  4

  0
ENDTAB
  0
TABLE
  2
VIEW
 70
0
  0
ENDTAB
  0
ENDSEC
  0
SECTION
  2
BLOCKS
  0
BLOCK
  8
1
  2
*D0
 70
1
 10
0
 20
0
 30
0
  0
LINE
  8
1
 62
1
 10
-27.3204659578958
 20
265.2671261337647
 30
0
 11
-27.3204659578958
 21
300.2671261337649
 31
0
  0
LINE
  8
1
 62
1
 10
0
 20
300.2671261337649
 30
0
 11
-28.8204659578958
 21
300.2671261337649
 31
0
  0
LINE
  8
1
 62
1
 10
3
 20
265.2671261337647
 30
0
 11
-28.8204659578958
 21
265.2671261337647
 31
0
  0
SOLID
  8
1
 62
1
 10
-27.3204659578958
 20
300.2671261337649
 30
0
 11
-26.6704659578958
 21
295.2671261337649
 31
0
 12
-27.9704659578958
 22
295.2671261337649
 32
0
 13
-27.9704659578958
 23
295.2671261337649
 33
0
  0
SOLID
  8
1
 62
1
 10
-27.3204659578958
 20
265.2671261337647
 30
0
 11
-27.9704659578958
 21
270.2671261337647
 31
0
 12
-26.6704659578958
 22
270.2671261337647
 32
0
 13
-26.6704659578958
 23
270.2671261337647
 33
0
  0
TEXT
  8
1
 62
7
 10
-29.3204659578958
 20
279.0171261337648
 30
0
 40
5
  1
35
 50
90
 41
0.9
  0
ENDBLK
  8
0
  0
BLOCK
  8
1
  2
*D1
 70
1
 10
0
 20
0
 30
0
  0
LINE
  8
1
 62
1
 10
-27.2977972208186
 20
248.2671261337651
 30
0
 11
-27.2977972208186
 21
265.2671261337647
 31
0
  0
LINE
  8
1
 62
1
 10
3
 20
265.2671261337647
 30
0
 11
-28.7977972208186
 21
265.2671261337647
 31
0
  0
LINE
  8
1
 62
1
 10
-10.00000000000001
 20
248.2671261337651
 30
0
 11
-28.7977972208186
 21
248.2671261337651
 31
0
  0
SOLID
  8
1
 62
1
 10
-27.2977972208186
 20
248.2671261337651
 30
0
 11
-27.9477972208186
 21
253.2671261337651
 31
0
 12
-26.6477972208186
 22
253.2671261337651
 32
0
 13
-26.6477972208186
 23
253.2671261337651
 33
0
  0
SOLID
  8
1
 62
1
 10
-27.2977972208186
 20
265.2671261337647
 30
0
 11
-26.6477972208186
 21
260.2671261337647
 31
0
 12
-27.9477972208186
 22
260.2671261337647
 32
0
 13
-27.9477972208186
 23
260.2671261337647
 33
0
  0
TEXT
  8
1
 62
7
 10
-29.2977972208186
 20
253.7671261337649
 30
0
 40
5
  1
17
 50
90
 41
0.9
  0
ENDBLK
  8
0
  0
BLOCK
  8
1
  2
*D2
 70
1
 10
0
 20
0
 30
0
  0
LINE
  8
1
 62
1
 10
-27.2950955821789
 20
218.2671261337651
 30
0
 11
-27.2950955821789
 21
248.2671261337651
 31
0
  0
LINE
  8
1
 62
1
 10
-10.00000000000001
 20
248.2671261337651
 30
0
 11
-28.7950955821789
 21
248.2671261337651
 31
0
  0
LINE
  8
1
 62
1
 10
-10.00000000000001
 20
218.2671261337651
 30
0
 11
-28.7950955821789
 21
218.2671261337651
 31
0
  0
SOLID
  8
1
 62
1
 10
-27.2950955821789
 20
218.2671261337651
 30
0
 11
-27.9450955821789
 21
223.2671261337651
 31
0
 12
-26.6450955821789
 22
223.2671261337651
 32
0
 13
-26.6450955821789
 23
223.2671261337651
 33
0
  0
SOLID
  8
1
 62
1
 10
-27.2950955821789
 20
248.2671261337651
 30
0
 11
-26.6450955821789
 21
243.2671261337651
 31
0
 12
-27.9450955821789
 22
243.2671261337651
 32
0
 13
-27.9450955821789
 23
243.2671261337651
 33
0
  0
TEXT
  8
1
 62
7
 10
-29.2950955821789
 20
229.5171261337651
 30
0
 40
5
  1
30
 50
90
 41
0.9
  0
ENDBLK
  8
0
  0
BLOCK
  8
1
  2
*D3
 70
1
 10
0
 20
0
 30
0
  0
LINE
  8
1
 62
1
 10
-27.2950955821789
 20
174.2671261337651
 30
0
 11
-27.2950955821789
 21
218.2671261337651
 31
0
  0
LINE
  8
1
 62
1
 10
-10.00000000000001
 20
218.2671261337651
 30
0
 11
-28.7950955821789
 21
218.2671261337651
 31
0
  0
LINE
  8
1
 62
1
 10
-12.00000000000001
 20
174.2671261337651
 30
0
 11
-28.7950955821789
 21
174.2671261337651
 31
0
  0
SOLID
  8
1
 62
1
 10
-27.2950955821789
 20
218.2671261337651
 30
0
 11
-26.6450955821789
 21
213.2671261337651
 31
0
 12
-27.9450955821789
 22
213.2671261337651
 32
0
 13
-27.9450955821789
 23
213.2671261337651
 33
0
  0
SOLID
  8
1
 62
1
 10
-27.2950955821789
 20
174.2671261337651
 30
0
 11
-27.9450955821789
 21
179.2671261337651
 31
0
 12
-26.6450955821789
 22
179.2671261337651
 32
0
 13
-26.6450955821789
 23
179.2671261337651
 33
0
  0
TEXT
  8
1
 62
7
 10
-29.2950955821789
 20
192.5171261337651
 30
0
 40
5
  1
44
 50
90
 41
0.9
  0
ENDBLK
  8
0
  0
BLOCK
  8
1
  2
*D4
 70
1
 10
0
 20
0
 30
0
  0
LINE
  8
1
 62
1
 10
-27.2950955821789
 20
144.2671261337651
 30
0
 11
-27.2950955821789
 21
174.2671261337651
 31
0
  0
LINE
  8
1
 62
1
 10
-12.00000000000001
 20
174.2671261337651
 30
0
 11
-28.7950955821789
 21
174.2671261337651
 31
0
  0
LINE
  8
1
 62
1
 10
-12.00000000000001
 20
144.2671261337651
 30
0
 11
-28.7950955821789
 21
144.2671261337651
 31
0
  0
SOLID
  8
1
 62
1
 10
-27.2950955821789
 20
174.2671261337651
 30
0
 11
-26.6450955821789
 21
169.2671261337651
 31
0
 12
-27.9450955821789
 22
169.2671261337651
 32
0
 13
-27.9450955821789
 23
169.2671261337651
 33
0
  0
SOLID
  8
1
 62
1
 10
-27.2950955821789
 20
144.2671261337651
 30
0
 11
-27.9450955821789
 21
149.2671261337651
 31
0
 12
-26.6450955821789
 22
149.2671261337651
 32
0
 13
-26.6450955821789
 23
149.2671261337651
 33
0
  0
TEXT
  8
1
 62
7
 10
-29.2950955821789
 20
155.5171261337651
 30
0
 40
5
  1
30
 50
90
 41
0.9
  0
ENDBLK
  8
0
  0
BLOCK
  8
1
  2
*D5
 70
1
 10
0
 20
0
 30
0
  0
LINE
  8
1
 62
1
 10
-27.2950955821789
 20
105.2671261337651
 30
0
 11
-27.2950955821789
 21
144.2671261337651
 31
0
  0
LINE
  8
1
 62
1
 10
-12.00000000000001
 20
144.2671261337651
 30
0
 11
-28.7950955821789
 21
144.2671261337651
 31
0
  0
LINE
  8
1
 62
1
 10
3.000000000000004
 20
105.2671261337651
 30
0
 11
-28.7950955821789
 21
105.2671261337651
 31
0
  0
SOLID
  8
1
 62
1
 10
-27.2950955821789
 20
144.2671261337651
 30
0
 11
-26.6450955821789
 21
139.2671261337651
 31
0
 12
-27.9450955821789
 22
139.2671261337651
 32
0
 13
-27.9450955821789
 23
139.2671261337651
 33
0
  0
SOLID
  8
1
 62
1
 10
-27.2950955821789
 20
105.2671261337651
 30
0
 11
-27.9450955821789
 21
110.2671261337651
 31
0
 12
-26.6450955821789
 22
110.2671261337651
 32
0
 13
-26.6450955821789
 23
110.2671261337651
 33
0
  0
TEXT
  8
1
 62
7
 10
-29.2950955821789
 20
121.0171261337651
 30
0
 40
5
  1
39
 50
90
 41
0.9
  0
ENDBLK
  8
0
  0
BLOCK
  8
1
  2
*D6
 70
1
 10
0
 20
0
 30
0
  0
LINE
  8
1
 62
1
 10
-27.2929003556297
 20
70.26712613376597
 30
0
 11
-27.2929003556297
 21
105.2671261337651
 31
0
  0
LINE
  8
1
 62
1
 10
2.999999999999996
 20
105.2671261337651
 30
0
 11
-28.7929003556297
 21
105.2671261337651
 31
0
  0
LINE
  8
1
 62
1
 10
0
 20
70.26712613376597
 30
0
 11
-28.7929003556297
 21
70.26712613376597
 31
0
  0
SOLID
  8
1
 62
1
 10
-27.2929003556297
 20
105.2671261337651
 30
0
 11
-26.6429003556297
 21
100.2671261337651
 31
0
 12
-27.9429003556297
 22
100.2671261337651
 32
0
 13
-27.9429003556297
 23
100.2671261337651
 33
0
  0
SOLID
  8
1
 62
1
 10
-27.2929003556297
 20
70.26712613376597
 30
0
 11
-27.9429003556297
 21
75.26712613376597
 31
0
 12
-26.6429003556297
 22
75.26712613376597
 32
0
 13
-26.6429003556297
 23
75.26712613376597
 33
0
  0
TEXT
  8
1
 62
7
 10
-29.2929003556297
 20
84.01712613376554
 30
0
 40
5
  1
35
 50
90
 41
0.9
  0
ENDBLK
  8
0
  0
BLOCK
  8
1
  2
*D7
 70
1
 10
0
 20
0
 30
0
  0
LINE
  8
1
 62
1
 10
0
 20
90.86198575352761
 30
0
 11
60
 21
90.86198575352761
 31
0
  0
LINE
  8
1
 62
1
 10
60
 20
109.217126133765
 30
0
 11
60
 21
89.36198575352761
 31
0
  0
LINE
  8
1
 62
1
 10
0
 20
70.26712613376597
 30
0
 11
0
 21
92.36198575352761
 31
0
  0
SOLID
  8
1
 62
1
 10
0
 20
90.86198575352761
 30
0
 11
5.000000000000001
 21
91.51198575352761
 31
0
 12
5.000000000000001
 22
90.2119857535276
 32
0
 13
5.000000000000001
 23
90.2119857535276
 33
0
  0
SOLID
  8
1
 62
1
 10
60
 20
90.86198575352761
 30
0
 11
55
 21
90.2119857535276
 31
0
 12
55
 22
91.51198575352761
 32
0
 13
55
 23
91.51198575352761
 33
0
  0
TEXT
  8
1
 62
7
 10
26.25
 20
92.86198575352761
 30
0
 40
5
  1
60
 41
0.9
  0
ENDBLK
  8
0
  0
BLOCK
  8
1
  2
*D8
 70
1
 10
0
 20
0
 30
0
  0
LINE
  8
1
 62
1
 10
60
 20
90.86198575352761
 30
0
 11
90.00000000000003
 21
90.86198575352761
 31
0
  0
LINE
  8
1
 62
1
 10
90.00000000000003
 20
125.2671261337648
 30
0
 11
90.00000000000003
 21
89.36198575352761
 31
0
  0
LINE
  8
1
 62
1
 10
60
 20
109.217126133765
 30
0
 11
60
 21
89.36198575352761
 31
0
  0
SOLID
  8
1
 62
1
 10
60
 20
90.86198575352761
 30
0
 11
65
 21
91.51198575352761
 31
0
 12
65
 22
90.2119857535276
 32
0
 13
65
 23
90.2119857535276
 33
0
  0
SOLID
  8
1
 62
1
 10
90.00000000000003
 20
90.86198575352761
 30
0
 11
85.00000000000003
 21
90.2119857535276
 31
0
 12
85.00000000000003
 22
91.51198575352761
 32
0
 13
85.00000000000003
 23
91.51198575352761
 33
0
  0
TEXT
  8
1
 62
7
 10
71.25000000000001
 20
92.86198575352761
 30
0
 40
5
  1
30
 41
0.9
  0
ENDBLK
  8
0
  0
BLOCK
  8
1
  2
*D9
 70
1
 10
0
 20
0
 30
0
  0
LINE
  8
1
 62
1
 10
0
 20
279.58360358559
 30
0
 11
-11.69877969753978
 21
279.58360358559
 31
0
  0
LINE
  8
1
 62
1
 10
0
 20
279.58360358559
 30
0
 11
3
 21
279.58360358559
 31
0
  0
LINE
  8
1
 62
1
 10
13
 20
279.58360358559
 30
0
 11
3
 21
279.58360358559
 31
0
  0
LINE
  8
1
 62
1
 10
3
 20
300.2671261337649
 30
0
 11
3
 21
278.08360358559
 31
0
  0
LINE
  8
1
 62
1
 10
0
 20
300.2671261337649
 30
0
 11
0
 21
278.08360358559
 31
0
  0
SOLID
  8
1
 62
1
 10
0
 20
279.58360358559
 30
0
 11
-5
 21
278.93360358559
 31
0
 12
-5
 22
280.23360358559
 32
0
 13
-5
 23
280.23360358559
 33
0
  0
SOLID
  8
1
 62
1
 10
3
 20
279.58360358559
 30
0
 11
8
 21
280.23360358559
 31
0
 12
8
 22
278.93360358559
 32
0
 13
8
 23
278.93360358559
 33
0
  0
TEXT
  8
1
 62
7
 10
-11.69877969753978
 20
281.58360358559
 30
0
 40
5
  1
3
 41
0.9
  0
ENDBLK
  8
0
  0
BLOCK
  8
1
  2
*D10
 70
1
 10
0
 20
0
 30
0
  0
LINE
  8
1
 62
1
 10
0
 20
206.893759295367
 30
0
 11
10.00000000000001
 21
206.893759295367
 31
0
  0
LINE
  8
1
 62
1
 10
-10.00000000000001
 20
206.893759295367
 30
0
 11
-20.00000000000001
 21
206.893759295367
 31
0
  0
LINE
  8
1
 62
1
 10
-10.00000000000001
 20
206.893759295367
 30
0
 11
0
 21
206.893759295367
 31
0
  0
LINE
  8
1
 62
1
 10
0
 20
218.2671261337651
 30
0
 11
0
 21
205.393759295367
 31
0
  0
LINE
  8
1
 62
1
 10
-10.00000000000001
 20
218.2671261337651
 30
0
 11
-10.00000000000001
 21
205.393759295367
 31
0
  0
SOLID
  8
1
 62
1
 10
-10.00000000000001
 20
206.893759295367
 30
0
 11
-15.00000000000001
 21
206.243759295367
 31
0
 12
-15.00000000000001
 22
207.543759295367
 32
0
 13
-15.00000000000001
 23
207.543759295367
 33
0
  0
SOLID
  8
1
 62
1
 10
0
 20
206.893759295367
 30
0
 11
5.000000000000001
 21
207.543759295367
 31
0
 12
5.000000000000001
 22
206.243759295367
 32
0
 13
5.000000000000001
 23
206.243759295367
 33
0
  0
TEXT
  8
1
 62
7
 10
-8.000000000000005
 20
208.893759295367
 30
0
 40
5
  1
10
 41
0.9
  0
ENDBLK
  8
0
  0
BLOCK
  8
1
  2
*D11
 70
1
 10
0
 20
0
 30
0
  0
LINE
  8
1
 62
1
 10
63.90000000000001
 20
229.168353354286
 30
0
 11
73.90000000000001
 21
229.168353354286
 31
0
  0
LINE
  8
1
 62
1
 10
55.90000000000002
 20
229.168353354286
 30
0
 11
45.90000000000002
 21
229.168353354286
 31
0
  0
LINE
  8
1
 62
1
 10
55.90000000000002
 20
229.168353354286
 30
0
 11
63.90000000000001
 21
229.168353354286
 31
0
  0
LINE
  8
1
 62
1
 10
63.90000000000001
 20
217.2671261337651
 30
0
 11
63.90000000000001
 21
230.668353354286
 31
0
  0
LINE
  8
1
 62
1
 10
55.90000000000002
 20
217.2671261337651
 30
0
 11
55.90000000000002
 21
230.668353354286
 31
0
  0
SOLID
  8
1
 62
1
 10
55.90000000000002
 20
229.168353354286
 30
0
 11
50.90000000000002
 21
228.518353354286
 31
0
 12
50.90000000000002
 22
229.818353354286
 32
0
 13
50.90000000000002
 23
229.818353354286
 33
0
  0
SOLID
  8
1
 62
1
 10
63.90000000000001
 20
229.168353354286
 30
0
 11
68.90000000000002
 21
229.818353354286
 31
0
 12
68.90000000000002
 22
228.518353354286
 32
0
 13
68.90000000000002
 23
228.518353354286
 33
0
  0
TEXT
  8
1
 62
7
 10
58.40000000000002
 20
231.168353354286
 30
0
 40
5
  1
8
 41
0.9
  0
ENDBLK
  8
0
  0
BLOCK
  8
1
  2
*D12
 70
1
 10
0
 20
0
 30
0
  0
LINE
  8
1
 62
1
 10
22.60874653764022
 20
55.99999999999997
 30
0
 11
22.60874653764022
 21
65.99999999999997
 31
0
  0
LINE
  8
1
 62
1
 10
22.60874653764022
 20
54.99999999999997
 30
0
 11
22.60874653764022
 21
55.99999999999997
 31
0
  0
LINE
  8
1
 62
1
 10
22.60874653764022
 20
44.99999999999997
 30
0
 11
22.60874653764022
 21
54.99999999999997
 31
0
  0
LINE
  8
1
 62
1
 10
2.999999999999998
 20
55.99999999999997
 30
0
 11
24.10874653764022
 21
55.99999999999997
 31
0
  0
LINE
  8
1
 62
1
 10
2.999999999999998
 20
54.99999999999997
 30
0
 11
24.10874653764022
 21
54.99999999999997
 31
0
  0
SOLID
  8
1
 62
1
 10
22.60874653764022
 20
55.99999999999997
 30
0
 11
21.95874653764022
 21
60.99999999999997
 31
0
 12
23.25874653764022
 22
60.99999999999997
 32
0
 13
23.25874653764022
 23
60.99999999999997
 33
0
  0
SOLID
  8
1
 62
1
 10
22.60874653764022
 20
54.99999999999997
 30
0
 11
23.25874653764022
 21
49.99999999999997
 31
0
 12
21.95874653764022
 22
49.99999999999997
 32
0
 13
21.95874653764022
 23
49.99999999999997
 33
0
  0
TEXT
  8
1
 62
7
 10
20.60874653764022
 20
63.11183849910728
 30
0
 40
5
  1
1
 50
90
 41
0.9
  0
ENDBLK
  8
0
  0
BLOCK
  8
1
  2
*D13
 70
1
 10
0
 20
0
 30
0
  0
LINE
  8
1
 62
1
 10
105.1953816339769
 20
54.99999999999997
 30
0
 11
105.1953816339769
 21
64.99999999999997
 31
0
  0
LINE
  8
1
 62
1
 10
105.1953816339769
 20
42
 30
0
 11
105.1953816339769
 21
32
 31
0
  0
LINE
  8
1
 62
1
 10
105.1953816339769
 20
42
 30
0
 11
105.1953816339769
 21
54.99999999999997
 31
0
  0
LINE
  8
1
 62
1
 10
90.00000000000003
 20
54.99999999999997
 30
0
 11
106.6953816339769
 21
54.99999999999997
 31
0
  0
LINE
  8
1
 62
1
 10
88.00000000000003
 20
42
 30
0
 11
106.6953816339769
 21
42
 31
0
  0
SOLID
  8
1
 62
1
 10
105.1953816339769
 20
42
 30
0
 11
105.8453816339769
 21
37
 31
0
 12
104.5453816339769
 22
37
 32
0
 13
104.5453816339769
 23
37
 33
0
  0
SOLID
  8
1
 62
1
 10
105.1953816339769
 20
54.99999999999997
 30
0
 11
104.5453816339769
 21
59.99999999999997
 31
0
 12
105.8453816339769
 22
59.99999999999997
 32
0
 13
105.8453816339769
 23
59.99999999999997
 33
0
  0
TEXT
  8
1
 62
7
 10
103.1953816339769
 20
45.49999999999999
 30
0
 40
5
  1
13
 50
90
 41
0.9
  0
ENDBLK
  8
0
  0
BLOCK
  8
1
  2
*D14
 70
1
 10
0
 20
0
 30
0
  0
LINE
  8
1
 62
1
 10
105.1953816339769
 20
13.99999999999997
 30
0
 11
105.1953816339769
 21
23.99999999999997
 31
0
  0
LINE
  8
1
 62
1
 10
105.1953816339769
 20
1
 30
0
 11
105.1953816339769
 21
-8.999999999999996
 31
0
  0
LINE
  8
1
 62
1
 10
105.1953816339769
 20
1
 30
0
 11
105.1953816339769
 21
13.99999999999997
 31
0
  0
LINE
  8
1
 62
1
 10
90.00000000000003
 20
13.99999999999997
 30
0
 11
106.6953816339769
 21
13.99999999999997
 31
0
  0
LINE
  8
1
 62
1
 10
88.25000000000003
 20
1
 30
0
 11
106.6953816339769
 21
1
 31
0
  0
SOLID
  8
1
 62
1
 10
105.1953816339769
 20
13.99999999999997
 30
0
 11
104.5453816339769
 21
18.99999999999997
 31
0
 12
105.8453816339769
 22
18.99999999999997
 32
0
 13
105.8453816339769
 23
18.99999999999997
 33
0
  0
SOLID
  8
1
 62
1
 10
105.1953816339769
 20
1
 30
0
 11
105.8453816339769
 21
-4
 31
0
 12
104.5453816339769
 22
-4
 32
0
 13
104.5453816339769
 23
-4
 33
0
  0
TEXT
  8
1
 62
7
 10
103.1953816339769
 20
4.499999999999982
 30
0
 40
5
  1
13
 50
90
 41
0.9
  0
ENDBLK
  8
0
  0
BLOCK
  8
1
  2
*D15
 70
1
 10
0
 20
0
 30
0
  0
LINE
  8
1
 62
1
 10
22.24993226268282
 20
0
 30
0
 11
22.24993226268282
 21
-10
 31
0
  0
LINE
  8
1
 62
1
 10
22.24993226268282
 20
0
 30
0
 11
22.24993226268282
 21
1
 31
0
  0
LINE
  8
1
 62
1
 10
22.24993226268282
 20
11
 30
0
 11
22.24993226268282
 21
1
 31
0
  0
LINE
  8
1
 62
1
 10
2.999999999999998
 20
1
 30
0
 11
23.74993226268282
 21
1
 31
0
  0
LINE
  8
1
 62
1
 10
2.999999999999998
 20
0
 30
0
 11
23.74993226268282
 21
0
 31
0
  0
SOLID
  8
1
 62
1
 10
22.24993226268282
 20
0
 30
0
 11
22.89993226268282
 21
-5
 31
0
 12
21.59993226268282
 22
-5
 32
0
 13
21.59993226268282
 23
-5
 33
0
  0
SOLID
  8
1
 62
1
 10
22.24993226268282
 20
1
 30
0
 11
21.59993226268282
 21
6
 31
0
 12
22.89993226268282
 22
6
 32
0
 13
22.89993226268282
 23
6
 33
0
  0
TEXT
  8
1
 62
7
 10
20.24993226268282
 20
-9.333732585085228
 30
0
 40
5
  1
1
 50
90
 41
0.9
  0
ENDBLK
  8
0
  0
BLOCK
  8
1
  2
*D16
 70
1
 10
0
 20
0
 30
0
  0
LINE
  8
1
 62
1
 10
120.0336151816219
 20
213.2671261337651
 30
0
 11
120.0336151816219
 21
265.2671261337651
 31
0
  0
LINE
  8
1
 62
1
 10
69.90000000000012
 20
265.2671261337651
 30
0
 11
121.5336151816219
 21
265.2671261337651
 31
0
  0
LINE
  8
1
 62
1
 10
83.02500000000001
 20
213.2671261337651
 30
0
 11
121.5336151816219
 21
213.2671261337651
 31
0
  0
SOLID
  8
1
 62
1
 10
120.0336151816219
 20
265.2671261337651
 30
0
 11
120.6836151816219
 21
260.2671261337651
 31
0
 12
119.3836151816219
 22
260.2671261337651
 32
0
 13
119.3836151816219
 23
260.2671261337651
 33
0
  0
SOLID
  8
1
 62
1
 10
120.0336151816219
 20
213.2671261337651
 30
0
 11
119.3836151816219
 21
218.2671261337651
 31
0
 12
120.6836151816219
 22
218.2671261337651
 32
0
 13
120.6836151816219
 23
218.2671261337651
 33
0
  0
TEXT
  8
1
 62
7
 10
118.0336151816219
 20
235.5171261337651
 30
0
 40
5
  1
52
 50
90
 41
0.9
  0
ENDBLK
  8
0
  0
BLOCK
  8
1
  2
*D17
 70
1
 10
0
 20
0
 30
0
  0
LINE
  8
1
 62
1
 10
120.0336151816219
 20
135.2671261337651
 30
0
 11
120.0336151816219
 21
213.2671261337651
 31
0
  0
LINE
  8
1
 62
1
 10
83.02500000000001
 20
213.2671261337651
 30
0
 11
121.5336151816219
 21
213.2671261337651
 31
0
  0
LINE
  8
1
 62
1
 10
74.00000000000003
 20
135.2671261337651
 30
0
 11
121.5336151816219
 21
135.2671261337651
 31
0
  0
SOLID
  8
1
 62
1
 10
120.0336151816219
 20
213.2671261337651
 30
0
 11
120.6836151816219
 21
208.2671261337651
 31
0
 12
119.3836151816219
 22
208.2671261337651
 32
0
 13
119.3836151816219
 23
208.2671261337651
 33
0
  0
SOLID
  8
1
 62
1
 10
120.0336151816219
 20
135.2671261337651
 30
0
 11
119.3836151816219
 21
140.2671261337651
 31
0
 12
120.6836151816219
 22
140.2671261337651
 32
0
 13
120.6836151816219
 23
140.2671261337651
 33
0
  0
TEXT
  8
1
 62
7
 10
118.0336151816219
 20
170.5171261337651
 30
0
 40
5
  1
78
 50
90
 41
0.9
  0
ENDBLK
  8
0
  0
BLOCK
  8
1
  2
*D18
 70
1
 10
0
 20
0
 30
0
  0
LINE
  8
1
 62
1
 10
120.0336151816219
 20
105.2671261337651
 30
0
 11
120.0336151816219
 21
135.2671261337651
 31
0
  0
LINE
  8
1
 62
1
 10
74.00000000000003
 20
135.2671261337651
 30
0
 11
121.5336151816219
 21
135.2671261337651
 31
0
  0
LINE
  8
1
 62
1
 10
70.00000000000011
 20
105.2671261337651
 30
0
 11
121.5336151816219
 21
105.2671261337651
 31
0
  0
SOLID
  8
1
 62
1
 10
120.0336151816219
 20
135.2671261337651
 30
0
 11
120.6836151816219
 21
130.2671261337651
 31
0
 12
119.3836151816219
 22
130.2671261337651
 32
0
 13
119.3836151816219
 23
130.2671261337651
 33
0
  0
SOLID
  8
1
 62
1
 10
120.0336151816219
 20
105.2671261337651
 30
0
 11
119.3836151816219
 21
110.2671261337651
 31
0
 12
120.6836151816219
 22
110.2671261337651
 32
0
 13
120.6836151816219
 23
110.2671261337651
 33
0
  0
TEXT
  8
1
 62
7
 10
118.0336151816219
 20
116.5171261337651
 30
0
 40
5
  1
30
 50
90
 41
0.9
  0
ENDBLK
  8
0
  0
BLOCK
  8
1
  2
*D19
 70
1
 10
0
 20
0
 30
0
  0
LINE
  8
1
 62
1
 10
105.0240050686269
 20
191.7671261337651
 30
0
 11
105.0240050686269
 21
213.2671261337651
 31
0
  0
LINE
  8
1
 62
1
 10
83.02500000000001
 20
213.2671261337651
 30
0
 11
106.5240050686269
 21
213.2671261337651
 31
0
  0
LINE
  8
1
 62
1
 10
64.99999999999991
 20
191.7671261337651
 30
0
 11
106.5240050686269
 21
191.7671261337651
 31
0
  0
SOLID
  8
1
 62
1
 10
105.0240050686269
 20
191.7671261337651
 30
0
 11
104.3740050686269
 21
196.7671261337651
 31
0
 12
105.6740050686269
 22
196.7671261337651
 32
0
 13
105.6740050686269
 23
196.7671261337651
 33
0
  0
SOLID
  8
1
 62
1
 10
105.0240050686269
 20
213.2671261337651
 30
0
 11
105.6740050686269
 21
208.2671261337651
 31
0
 12
104.3740050686269
 22
208.2671261337651
 32
0
 13
104.3740050686269
 23
208.2671261337651
 33
0
  0
TEXT
  8
1
 62
7
 10
102.5240050686269
 20
196.3921261337651
 30
0
 40
5
  1
21,5
 50
90
 41
0.9
  0
ENDBLK
  8
0
  0
BLOCK
  8
1
  2
*D20
 70
1
 10
0
 20
0
 30
0
  0
LINE
  8
1
 62
1
 10
135.0157778380159
 20
105.2671261337651
 30
0
 11
135.0157778380159
 21
265.2671261337651
 31
0
  0
LINE
  8
1
 62
1
 10
69.90000000000012
 20
265.2671261337651
 30
0
 11
136.5157778380159
 21
265.2671261337651
 31
0
  0
LINE
  8
1
 62
1
 10
70.00000000000011
 20
105.2671261337651
 30
0
 11
136.5157778380159
 21
105.2671261337651
 31
0
  0
SOLID
  8
1
 62
1
 10
135.0157778380159
 20
105.2671261337651
 30
0
 11
134.3657778380159
 21
110.2671261337651
 31
0
 12
135.6657778380159
 22
110.2671261337651
 32
0
 13
135.6657778380159
 23
110.2671261337651
 33
0
  0
SOLID
  8
1
 62
1
 10
135.0157778380159
 20
265.2671261337651
 30
0
 11
135.6657778380159
 21
260.2671261337651
 31
0
 12
134.3657778380159
 22
260.2671261337651
 32
0
 13
134.3657778380159
 23
260.2671261337651
 33
0
  0
TEXT
  8
1
 62
7
 10
133.0157778380159
 20
180.0171261337651
 30
0
 40
5
  1
160
 50
90
 41
0.9
  0
ENDBLK
  8
0
  0
BLOCK
  8
1
  2
*D21
 70
1
 10
0
 20
0
 30
0
  0
LINE
  8
1
 62
1
 10
194.46299793035
 20
70.26712613376598
 30
0
 11
194.46299793035
 21
300.2671261337264
 31
0
  0
LINE
  8
1
 62
1
 10
171
 20
300.2671261337264
 30
0
 11
195.96299793035
 21
300.2671261337264
 31
0
  0
LINE
  8
1
 62
1
 10
171
 20
70.26712613376598
 30
0
 11
195.96299793035
 21
70.26712613376598
 31
0
  0
SOLID
  8
1
 62
1
 10
194.46299793035
 20
300.2671261337264
 30
0
 11
195.11299793035
 21
295.2671261337264
 31
0
 12
193.81299793035
 22
295.2671261337264
 32
0
 13
193.81299793035
 23
295.2671261337264
 33
0
  0
SOLID
  8
1
 62
1
 10
194.46299793035
 20
70.26712613376598
 30
0
 11
193.81299793035
 21
75.26712613376598
 31
0
 12
195.11299793035
 22
75.26712613376598
 32
0
 13
195.11299793035
 23
75.26712613376598
 33
0
  0
TEXT
  8
1
 62
7
 10
192.46299793035
 20
179.2671261337462
 30
0
 40
5
  1
230
 50
90
 41
0.9
  0
ENDBLK
  8
0
  0
BLOCK
  8
1
  2
*D22
 70
1
 10
0
 20
0
 30
0
  0
LINE
  8
1
 62
1
 10
151.2711754978819
 20
300.2671261337263
 30
0
 11
151.2711754978819
 21
310.2671261337263
 31
0
  0
LINE
  8
1
 62
1
 10
151.2711754978819
 20
291.2671261337651
 30
0
 11
151.2711754978819
 21
281.2671261337651
 31
0
  0
LINE
  8
1
 62
1
 10
151.2711754978819
 20
291.2671261337651
 30
0
 11
151.2711754978819
 21
300.2671261337263
 31
0
  0
LINE
  8
1
 62
1
 10
171
 20
300.2671261337263
 30
0
 11
149.7711754978819
 21
300.2671261337263
 31
0
  0
LINE
  8
1
 62
1
 10
165.775
 20
291.2671261337651
 30
0
 11
149.7711754978819
 21
291.2671261337651
 31
0
  0
SOLID
  8
1
 62
1
 10
151.2711754978819
 20
300.2671261337263
 30
0
 11
150.6211754978819
 21
305.2671261337263
 31
0
 12
151.9211754978819
 22
305.2671261337263
 32
0
 13
151.9211754978819
 23
305.2671261337263
 33
0
  0
SOLID
  8
1
 62
1
 10
151.2711754978819
 20
291.2671261337651
 30
0
 11
151.9211754978819
 21
286.2671261337651
 31
0
 12
150.6211754978819
 22
286.2671261337651
 32
0
 13
150.6211754978819
 23
286.2671261337651
 33
0
  0
TEXT
  8
1
 62
7
 10
149.2711754978819
 20
294.2671261337456
 30
0
 40
5
  1
9
 50
90
 41
0.9
  0
ENDBLK
  8
0
  0
BLOCK
  8
1
  2
*D23
 70
1
 10
0
 20
0
 30
0
  0
LINE
  8
1
 62
1
 10
151.2846486678499
 20
79.26712613376597
 30
0
 11
151.2846486678499
 21
89.26712613376597
 31
0
  0
LINE
  8
1
 62
1
 10
151.2846486678499
 20
70.26712613376597
 30
0
 11
151.2846486678499
 21
60.26712613376597
 31
0
  0
LINE
  8
1
 62
1
 10
151.2846486678499
 20
70.26712613376597
 30
0
 11
151.2846486678499
 21
79.26712613376597
 31
0
  0
LINE
  8
1
 62
1
 10
166.25
 20
79.26712613376597
 30
0
 11
149.7846486678499
 21
79.26712613376597
 31
0
  0
LINE
  8
1
 62
1
 10
171
 20
70.26712613376597
 30
0
 11
149.7846486678499
 21
70.26712613376597
 31
0
  0
SOLID
  8
1
 62
1
 10
151.2846486678499
 20
79.26712613376597
 30
0
 11
150.6346486678499
 21
84.26712613376597
 31
0
 12
151.9346486678499
 22
84.26712613376597
 32
0
 13
151.9346486678499
 23
84.26712613376597
 33
0
  0
SOLID
  8
1
 62
1
 10
151.2846486678499
 20
70.26712613376597
 30
0
 11
151.9346486678499
 21
65.26712613376597
 31
0
 12
150.6346486678499
 22
65.26712613376597
 32
0
 13
150.6346486678499
 23
65.26712613376597
 33
0
  0
TEXT
  8
1
 62
7
 10
149.2846486678499
 20
73.26712613376597
 30
0
 40
5
  1
9
 50
90
 41
0.9
  0
ENDBLK
  8
0
  0
BLOCK
  8
1
  2
*D24
 70
1
 10
0
 20
0
 30
0
  0
LINE
  8
1
 62
1
 10
162
 20
260.066211682902
 30
0
 11
146.6561736830199
 21
260.066211682902
 31
0
  0
LINE
  8
1
 62
1
 10
162
 20
260.066211682902
 30
0
 11
165.3999999999999
 21
260.066211682902
 31
0
  0
LINE
  8
1
 62
1
 10
175.3999999999999
 20
260.066211682902
 30
0
 11
165.3999999999999
 21
260.066211682902
 31
0
  0
LINE
  8
1
 62
1
 10
165.3999999999999
 20
248.2671261337647
 30
0
 11
165.3999999999999
 21
261.566211682902
 31
0
  0
LINE
  8
1
 62
1
 10
162
 20
291.2671261337651
 30
0
 11
162
 21
258.566211682902
 31
0
  0
SOLID
  8
1
 62
1
 10
162
 20
260.066211682902
 30
0
 11
157
 21
259.416211682902
 31
0
 12
157
 22
260.716211682902
 32
0
 13
157
 23
260.716211682902
 33
0
  0
SOLID
  8
1
 62
1
 10
165.3999999999999
 20
260.066211682902
 30
0
 11
170.3999999999999
 21
260.716211682902
 31
0
 12
170.3999999999999
 22
259.416211682902
 32
0
 13
170.3999999999999
 23
259.416211682902
 33
0
  0
TEXT
  8
1
 62
7
 10
146.6561736830199
 20
262.566211682902
 30
0
 40
5
  1
3,4
 41
0.9
  0
ENDBLK
  8
0
  0
BLOCK
  8
1
  2
*D25
 70
1
 10
0
 20
0
 30
0
  0
LINE
  8
1
 62
1
 10
165.3999999999999
 20
234.643115494918
 30
0
 11
145.1561736830199
 21
234.643115494918
 31
0
  0
LINE
  8
1
 62
1
 10
165.3999999999999
 20
234.643115494918
 30
0
 11
175.8999999999999
 21
234.643115494918
 31
0
  0
LINE
  8
1
 62
1
 10
185.8999999999999
 20
234.643115494918
 30
0
 11
175.8999999999999
 21
234.643115494918
 31
0
  0
LINE
  8
1
 62
1
 10
175.8999999999999
 20
245.7671261337647
 30
0
 11
175.8999999999999
 21
233.143115494918
 31
0
  0
LINE
  8
1
 62
1
 10
165.3999999999999
 20
248.2671261337647
 30
0
 11
165.3999999999999
 21
233.143115494918
 31
0
  0
SOLID
  8
1
 62
1
 10
165.3999999999999
 20
234.643115494918
 30
0
 11
160.3999999999999
 21
233.993115494918
 31
0
 12
160.3999999999999
 22
235.293115494918
 32
0
 13
160.3999999999999
 23
235.293115494918
 33
0
  0
SOLID
  8
1
 62
1
 10
175.8999999999999
 20
234.643115494918
 30
0
 11
180.8999999999999
 21
235.293115494918
 31
0
 12
180.8999999999999
 22
233.993115494918
 32
0
 13
180.8999999999999
 23
233.993115494918
 33
0
  0
TEXT
  8
1
 62
7
 10
145.1561736830199
 20
237.143115494918
 30
0
 40
5
  1
10,5
 41
0.9
  0
ENDBLK
  8
0
  0
BLOCK
  8
1
  2
*D26
 70
1
 10
0
 20
0
 30
0
  0
LINE
  8
1
 62
1
 10
166.7999999999999
 20
163.1157167468
 30
0
 11
146.6561736830199
 21
163.1157167468
 31
0
  0
LINE
  8
1
 62
1
 10
166.7999999999999
 20
163.1157167468
 30
0
 11
172.1999999999999
 21
163.1157167468
 31
0
  0
LINE
  8
1
 62
1
 10
182.1999999999999
 20
163.1157167468
 30
0
 11
172.1999999999999
 21
163.1157167468
 31
0
  0
LINE
  8
1
 62
1
 10
172.1999999999999
 20
174.2671261337648
 30
0
 11
172.1999999999999
 21
161.6157167468
 31
0
  0
LINE
  8
1
 62
1
 10
166.7999999999999
 20
174.2671261337648
 30
0
 11
166.7999999999999
 21
161.6157167468
 31
0
  0
SOLID
  8
1
 62
1
 10
166.7999999999999
 20
163.1157167468
 30
0
 11
161.7999999999999
 21
162.4657167468
 31
0
 12
161.7999999999999
 22
163.7657167468
 32
0
 13
161.7999999999999
 23
163.7657167468
 33
0
  0
SOLID
  8
1
 62
1
 10
172.1999999999999
 20
163.1157167468
 30
0
 11
177.1999999999999
 21
163.7657167468
 31
0
 12
177.1999999999999
 22
162.4657167468
 32
0
 13
177.1999999999999
 23
162.4657167468
 33
0
  0
TEXT
  8
1
 62
7
 10
146.6561736830199
 20
165.6157167468
 30
0
 40
5
  1
5,4
 41
0.9
  0
ENDBLK
  8
0
  0
BLOCK
  8
1
  2
*D27
 70
1
 10
0
 20
0
 30
0
  0
LINE
  8
1
 62
1
 10
162
 20
183.758878829855
 30
0
 11
146.6561736830199
 21
183.758878829855
 31
0
  0
LINE
  8
1
 62
1
 10
162
 20
183.758878829855
 30
0
 11
166.7999999999999
 21
183.758878829855
 31
0
  0
LINE
  8
1
 62
1
 10
176.7999999999999
 20
183.758878829855
 30
0
 11
166.7999999999999
 21
183.758878829855
 31
0
  0
LINE
  8
1
 62
1
 10
166.7999999999999
 20
174.2671261337648
 30
0
 11
166.7999999999999
 21
185.258878829855
 31
0
  0
LINE
  8
1
 62
1
 10
162
 20
79.26712613376601
 30
0
 11
162
 21
185.258878829855
 31
0
  0
SOLID
  8
1
 62
1
 10
166.7999999999999
 20
183.758878829855
 30
0
 11
171.7999999999999
 21
184.408878829855
 31
0
 12
171.7999999999999
 22
183.108878829855
 32
0
 13
171.7999999999999
 23
183.108878829855
 33
0
  0
SOLID
  8
1
 62
1
 10
162
 20
183.758878829855
 30
0
 11
157
 21
183.108878829855
 31
0
 12
157
 22
184.408878829855
 32
0
 13
157
 23
184.408878829855
 33
0
  0
TEXT
  8
1
 62
7
 10
146.6561736830199
 20
186.258878829855
 30
0
 40
5
  1
4,8
 41
0.9
  0
ENDBLK
  8
0
  0
BLOCK
  8
1
  2
*D28
 70
1
 10
0
 20
0
 30
0
  0
LINE
  8
1
 62
1
 10
105.0514525252269
 20
135.2671261337651
 30
0
 11
105.0514525252269
 21
145.2671261337651
 31
0
  0
LINE
  8
1
 62
1
 10
105.0514525252269
 20
127.2671261337651
 30
0
 11
105.0514525252269
 21
117.2671261337651
 31
0
  0
LINE
  8
1
 62
1
 10
105.0514525252269
 20
127.2671261337651
 30
0
 11
105.0514525252269
 21
135.2671261337651
 31
0
  0
LINE
  8
1
 62
1
 10
74.00000000000003
 20
135.2671261337651
 30
0
 11
106.5514525252269
 21
135.2671261337651
 31
0
  0
LINE
  8
1
 62
1
 10
83.12499999999881
 20
127.2671261337651
 30
0
 11
106.5514525252269
 21
127.2671261337651
 31
0
  0
SOLID
  8
1
 62
1
 10
105.0514525252269
 20
135.2671261337651
 30
0
 11
104.4014525252269
 21
140.2671261337651
 31
0
 12
105.7014525252269
 22
140.2671261337651
 32
0
 13
105.7014525252269
 23
140.2671261337651
 33
0
  0
SOLID
  8
1
 62
1
 10
105.0514525252269
 20
127.2671261337651
 30
0
 11
105.7014525252269
 21
122.2671261337651
 31
0
 12
104.4014525252269
 22
122.2671261337651
 32
0
 13
104.4014525252269
 23
122.2671261337651
 33
0
  0
TEXT
  8
1
 62
7
 10
103.0514525252269
 20
129.7671261337651
 30
0
 40
5
  1
8
 50
90
 41
0.9
  0
ENDBLK
  8
0
  0
BLOCK
  8
1
  2
*D29
 70
1
 10
0
 20
0
 30
0
  0
LINE
  8
1
 62
1
 10
162
 20
56.51047384969347
 30
0
 11
180
 21
56.51047384969347
 31
0
  0
LINE
  8
1
 62
1
 10
180
 20
79.26712613376597
 30
0
 11
180
 21
55.01047384969347
 31
0
  0
LINE
  8
1
 62
1
 10
162
 20
79.26712613376597
 30
0
 11
162
 21
55.01047384969347
 31
0
  0
SOLID
  8
1
 62
1
 10
162
 20
56.51047384969347
 30
0
 11
167
 21
57.16047384969347
 31
0
 12
167
 22
55.86047384969347
 32
0
 13
167
 23
55.86047384969347
 33
0
  0
SOLID
  8
1
 62
1
 10
180
 20
56.51047384969347
 30
0
 11
175
 21
55.86047384969347
 31
0
 12
175
 22
57.16047384969347
 32
0
 13
175
 23
57.16047384969347
 33
0
  0
TEXT
  8
1
 62
7
 10
168
 20
58.51047384969347
 30
0
 40
5
  1
18
 41
0.9
  0
ENDBLK
  8
0
  0
BLOCK
  8
1
  2
*D30
 70
1
 10
0
 20
0
 30
0
  0
LINE
  8
1
 62
1
 10
0
 20
129.030332313343
 30
0
 11
10.00000000000001
 21
129.030332313343
 31
0
  0
LINE
  8
1
 62
1
 10
-12.00000000000001
 20
129.030332313343
 30
0
 11
-22.00000000000001
 21
129.030332313343
 31
0
  0
LINE
  8
1
 62
1
 10
-12.00000000000001
 20
129.030332313343
 30
0
 11
0
 21
129.030332313343
 31
0
  0
LINE
  8
1
 62
1
 10
0
 20
144.2671261337651
 30
0
 11
0
 21
127.530332313343
 31
0
  0
LINE
  8
1
 62
1
 10
-12.00000000000001
 20
144.2671261337651
 30
0
 11
-12.00000000000001
 21
127.530332313343
 31
0
  0
SOLID
  8
1
 62
1
 10
-12.00000000000001
 20
129.030332313343
 30
0
 11
-17.00000000000001
 21
128.380332313343
 31
0
 12
-17.00000000000001
 22
129.680332313343
 32
0
 13
-17.00000000000001
 23
129.680332313343
 33
0
  0
SOLID
  8
1
 62
1
 10
0
 20
129.030332313343
 30
0
 11
5.000000000000001
 21
129.680332313343
 31
0
 12
5.000000000000001
 22
128.380332313343
 32
0
 13
5.000000000000001
 23
128.380332313343
 33
0
  0
TEXT
  8
1
 62
7
 10
-9.000000000000005
 20
131.030332313343
 30
0
 40
5
  1
12
 41
0.9
  0
ENDBLK
  8
0
  0
BLOCK
  8
1
  2
*D31
 70
1
 10
0
 20
0
 30
0
  0
LINE
  8
1
 62
1
 10
68.224399875112
 20
199.3346136110746
 30
0
 11
44.57258319756488
 21
177.8333847887927
 31
0
  0
SOLID
  8
1
 62
1
 10
57.12520004162936
 20
189.2446303079953
 30
0
 11
53.86269937360191
 21
185.4003372141846
 31
0
 12
52.9882341540017
 22
186.3622678664198
 32
0
 13
52.9882341540017
 23
186.3622678664198
 33
0
  0
SOLID
  8
1
 62
1
 10
62.67479995837068
 20
194.2896219595349
 30
0
 11
65.93730062639813
 21
198.1339150533456
 31
0
 12
66.81176584599834
 22
197.1719844011104
 32
0
 13
66.81176584599834
 23
197.1719844011104
 33
0
  0
TEXT
  8
1
 62
7
 10
42.89091931371834
 20
179.6832514277065
 30
0
 40
5
  1
7,5
 50
42.27312835822868
 41
0.9
  0
ENDBLK
  8
0
  0
ENDSEC
  0
SECTION
  2
ENTITIES
  0
LINE
  8
1
 62
3
  6
DASHED
 10
3.999999999999943
 20
191.8913557444379
 30
0
 11
3.24969184426908
 21
193.7671261337653
 31
0
  0
LINE
  8
1
 62
3
  6
DASHED
 10
3.999999999999943
 20
199.6428965230927
 30
0
 11
3.24969184426908
 21
197.7671261337653
 31
0
  0
LINE
  8
1
 62
7
 10
3.999999999999943
 20
203.9059221135156
 30
0
 11
4.745845916948781
 21
201.5075113154647
 31
0
  0
LINE
  8
1
 62
7
 10
3.999999999999943
 20
187.6283301540149
 30
0
 11
4.745845916948781
 21
190.0267409520659
 31
0
  0
LINE
  8
1
 62
3
  6
DASHED
 10
3.24969184426908
 20
197.7671261337653
 30
0
 11
3.24969184426908
 21
193.7671261337653
 31
0
  0
LINE
  8
1
 62
2
  6
PHANTOM
 10
1.67626687203898
 20
195.7671261337653
 30
0
 11
12.26092787449119
 21
195.7671261337653
 31
0
  0
LINE
  8
1
 62
2
  6
PHANTOM
 10
2.999999999999943
 20
187.7671261337653
 30
0
 11
2.999999999999943
 21
203.7671261337653
 31
0
  0
LINE
  8
1
 62
7
 10
2.999999999999943
 20
185.6171261337652
 30
0
 11
3.999999999999943
 21
185.6171261337652
 31
0
  0
LINE
  8
1
 62
7
 10
3.999999999999943
 20
190.767126133765
 30
0
 11
3.999999999999943
 21
185.6171261337652
 31
0
  0
LINE
  8
1
 62
7
 10
4.745845916948781
 20
190.0267409520659
 30
0
 11
3.999999999999943
 21
191.8913557444379
 31
0
  0
LINE
  8
1
 62
7
 10
4.745845916948781
 20
201.5075113154647
 30
0
 11
3.999999999999943
 21
199.6428965230927
 31
0
  0
LINE
  8
1
 62
7
 10
3.999999999999943
 20
205.9171261337648
 30
0
 11
3.999999999999943
 21
200.767126133765
 31
0
  0
LINE
  8
1
 62
7
 10
2.999999999999943
 20
205.9171261337653
 30
0
 11
3.999999999999943
 21
205.9171261337648
 31
0
  0
LINE
  8
1
 62
7
 10
3
 20
200.7671261337651
 30
0
 11
2.999999999999943
 21
190.7671261337651
 31
0
  0
LINE
  8
1
 62
7
 10
3.999999999999943
 20
203.2671261337652
 30
0
 11
3.999999999999943
 21
188.2671261337651
 31
0
  0
LINE
  8
1
 62
2
  6
PHANTOM
 10
25.40000000000015
 20
114.323894274119
 30
0
 11
25.40000000000015
 21
103.635007472107
 31
0
  0
LINE
  8
1
 62
3
  6
DASHED
 10
28.59101732126413
 20
106.1582980572298
 30
0
 11
32.39999999999992
 21
106.2671261337651
 31
0
  0
LINE
  8
1
 62
7
 10
22.20898267873565
 20
106.1582980572298
 30
0
 11
25.40000000000038
 21
106.067126133765
 31
0
  0
LINE
  8
1
 62
7
 10
25.40000000000038
 20
106.067126133765
 30
0
 11
28.59101732126413
 21
106.1582980572298
 31
0
  0
LINE
  8
1
 62
3
  6
DASHED
 10
18.39999999999992
 20
106.2671261337651
 30
0
 11
22.20898267873565
 21
106.1582980572298
 31
0
  0
LINE
  8
1
 62
7
 10
35.49999999999994
 20
106.2671261337651
 30
0
 11
35.49999999999983
 21
105.2671261337651
 31
0
  0
LINE
  8
1
 62
7
 10
15.39999999999992
 20
106.2671261337651
 30
0
 11
15.39999999999992
 21
105.2671261337651
 31
0
  0
LINE
  8
1
 62
7
 10
35.49999999999994
 20
106.2671261337651
 30
0
 11
32.39999999999992
 21
106.2671261337651
 31
0
  0
LINE
  8
1
 62
7
 10
15.39999999999992
 20
106.2671261337651
 30
0
 11
18.39999999999992
 21
106.2671261337651
 31
0
  0
LINE
  8
1
 62
7
 10
18.39999999999992
 20
106.2671261337651
 30
0
 11
24.22617815257297
 21
107.6742304925299
 31
0
  0
LINE
  8
1
 62
7
 10
32.39999999999992
 20
106.2671261337651
 30
0
 11
26.5738218474267
 21
107.6742304925299
 31
0
  0
LINE
  8
1
 62
7
 10
32.28095428886365
 20
105.2671261337651
 30
0
 11
26.33905747794137
 21
106.7021781838447
 31
0
  0
LINE
  8
1
 62
7
 10
18.51904571113624
 20
105.2671261337651
 30
0
 11
24.46094252205847
 21
106.7021781838447
 31
0
  0
LINE
  8
1
 62
7
 10
89.00000000000006
 20
152.7671261337652
 30
0
 11
90.00000000000006
 21
152.7671261337652
 31
0
  0
LINE
  8
1
 62
7
 10
89.00000000000006
 20
132.7671261337652
 30
0
 11
90.00000000000006
 21
132.7671261337652
 31
0
  0
LINE
  8
1
 62
7
 10
88.89999999999992
 20
135.2671261337651
 30
0
 11
85.24999999999972
 21
135.2671261337651
 31
0
  0
LINE
  8
1
 62
7
 10
89.00000000000006
 20
152.7671261337652
 30
0
 11
89.00000000000006
 21
149.7671261337652
 31
0
  0
LINE
  8
1
 62
7
 10
90.00000000000006
 20
187.7671261337652
 30
0
 11
90.00000000000006
 21
149.6480804226289
 31
0
  0
LINE
  8
1
 62
7
 10
89.00000000000006
 20
132.7671261337652
 30
0
 11
89.00000000000006
 21
135.7671261337652
 31
0
  0
LINE
  8
1
 62
7
 10
90.00000000000006
 20
132.7671261337652
 30
0
 11
90.00000000000006
 21
135.8861718449016
 31
0
  0
LINE
  8
1
 62
7
 10
89.00000000000006
 20
135.7671261337652
 30
0
 11
87.59289564123515
 21
141.5933042863382
 31
0
  0
LINE
  8
1
 62
7
 10
89.00000000000006
 20
149.7671261337652
 30
0
 11
87.59289564123515
 21
143.9409479811919
 31
0
  0
LINE
  8
1
 62
7
 10
90.00000000000006
 20
149.6480804226289
 30
0
 11
88.56494794992045
 21
143.7061836117066
 31
0
  0
LINE
  8
1
 62
7
 10
90.00000000000006
 20
135.8861718449016
 30
0
 11
88.56494794992045
 21
141.8280686558237
 31
0
  0
LINE
  8
1
 62
7
 10
90.00000000000006
 20
135.8861718449016
 30
0
 11
90.00000000000006
 21
149.6480804226289
 31
0
  0
LINE
  8
1
 62
2
  6
PHANTOM
 10
79.39999999999992
 20
142.7671261337649
 30
0
 11
91.89358448753404
 21
142.7671261337649
 31
0
  0
LINE
  8
1
 62
7
 10
89.10000000000008
 20
142.7671261337649
 30
0
 11
89.03049798951253
 21
145.6338142474202
 31
0
  0
LINE
  8
1
 62
3
  6
DASHED
 10
89.00000000000006
 20
135.7671261337652
 30
0
 11
89.03049798951253
 21
139.9004380201102
 31
0
  0
LINE
  8
1
 62
3
  6
DASHED
 10
89.03049798951253
 20
145.6338142474202
 30
0
 11
89.00000000000006
 21
149.7671261337652
 31
0
  0
LINE
  8
1
 62
7
 10
89.03049798951253
 20
139.9004380201102
 30
0
 11
89.10000000000008
 21
142.7671261337649
 31
0
  0
LINE
  8
1
 62
7
 10
89.00000000000006
 20
207.7671261337652
 30
0
 11
90.00000000000006
 21
207.7671261337652
 31
0
  0
LINE
  8
1
 62
7
 10
89.00000000000006
 20
187.7671261337652
 30
0
 11
90.00000000000006
 21
187.7671261337652
 31
0
  0
LINE
  8
1
 62
7
 10
89.00000000000006
 20
207.7671261337652
 30
0
 11
89.00000000000006
 21
204.7671261337652
 31
0
  0
LINE
  8
1
 62
7
 10
90.00000000000006
 20
207.7671261337652
 30
0
 11
90.00000000000006
 21
204.6480804226289
 31
0
  0
LINE
  8
1
 62
7
 10
89.00000000000006
 20
187.7671261337652
 30
0
 11
89.00000000000006
 21
190.7671261337652
 31
0
  0
LINE
  8
1
 62
7
 10
90.00000000000006
 20
187.7671261337652
 30
0
 11
90.00000000000006
 21
190.8861718449016
 31
0
  0
LINE
  8
1
 62
7
 10
89.00000000000006
 20
190.7671261337652
 30
0
 11
87.59289564123515
 21
196.5933042863382
 31
0
  0
LINE
  8
1
 62
7
 10
89.00000000000006
 20
204.7671261337652
 30
0
 11
87.59289564123515
 21
198.9409479811919
 31
0
  0
LINE
  8
1
 62
7
 10
90.00000000000006
 20
204.6480804226289
 30
0
 11
88.56494794992045
 21
198.7061836117066
 31
0
  0
LINE
  8
1
 62
7
 10
90.00000000000006
 20
190.8861718449016
 30
0
 11
88.56494794992045
 21
196.8280686558237
 31
0
  0
LINE
  8
1
 62
7
 10
90.00000000000006
 20
190.8861718449016
 30
0
 11
90.00000000000006
 21
204.6480804226289
 31
0
  0
LINE
  8
1
 62
7
 10
89.10000000000008
 20
197.7671261337648
 30
0
 11
89.02893215854175
 21
200.6273308546744
 31
0
  0
LINE
  8
1
 62
2
  6
PHANTOM
 10
91.89999999999992
 20
197.7671261337649
 30
0
 11
79.89999999999992
 21
197.7671261337644
 31
0
  0
LINE
  8
1
 62
7
 10
89.02893215854175
 20
194.9069214128559
 30
0
 11
89.10000000000008
 21
197.7671261337648
 31
0
  0
LINE
  8
1
 62
3
  6
DASHED
 10
89.00000000000006
 20
190.7671261337652
 30
0
 11
89.02893215854175
 21
194.9069214128559
 31
0
  0
LINE
  8
1
 62
3
  6
DASHED
 10
89.02893215854175
 20
200.6273308546744
 30
0
 11
89.00000000000006
 21
204.7671261337652
 31
0
  0
LINE
  8
1
 62
7
 10
33.30212472412546
 20
264.2907643960516
 30
0
 11
32.35077643495964
 21
264.2671261337651
 31
0
  0
LINE
  8
1
 62
3
  6
DASHED
 10
47.49787527587472
 20
264.2907643960516
 30
0
 11
43.63563470706998
 21
264.3867299395006
 31
0
  0
LINE
  8
1
 62
3
  6
DASHED
 10
37.16436529293037
 20
264.3867299395006
 30
0
 11
33.30212472412546
 21
264.2907643960516
 31
0
  0
LINE
  8
1
 62
7
 10
43.63563470706998
 20
264.3867299395006
 30
0
 11
40.40000000000055
 21
264.4671261337652
 31
0
  0
LINE
  8
1
 62
7
 10
47.49787527587472
 20
264.2907643960516
 30
0
 11
41.57382184742727
 21
262.8600217750003
 31
0
  0
LINE
  8
1
 62
7
 10
47.28095428886381
 20
265.2671261337651
 30
0
 11
41.33905747794159
 21
263.8320740836856
 31
0
  0
LINE
  8
1
 62
7
 10
33.51904571113651
 20
265.2671261337651
 30
0
 11
39.46094252205872
 21
263.8320740836855
 31
0
  0
LINE
  8
1
 62
2
  6
PHANTOM
 10
40.40000000000049
 20
267.1671261337651
 30
0
 11
40.40000000000094
 21
255.1671261337651
 31
0
  0
LINE
  8
1
 62
7
 10
33.30212472412546
 20
264.2907643960516
 30
0
 11
39.22617815257348
 21
262.8600217750003
 31
0
  0
LINE
  8
1
 62
7
 10
48.44922356504037
 20
264.2671261337651
 30
0
 11
47.49787527587472
 21
264.2907643960516
 31
0
  0
LINE
  8
1
 62
7
 10
40.40000000000055
 20
264.4671261337652
 30
0
 11
37.16436529293037
 21
264.3867299395006
 31
0
  0
LINE
  8
1
 62
7
 10
30.40000000000015
 20
264.2671261337651
 30
0
 11
30.40000000000013
 21
265.2671261337651
 31
0
  0
LINE
  8
1
 62
7
 10
50.40000000000015
 20
264.2671261337651
 30
0
 11
50.40000000000015
 21
265.2671261337651
 31
0
  0
LINE
  8
1
 62
7
 10
30.40000000000015
 20
264.2671261337651
 30
0
 11
32.35077643495964
 21
264.2671261337651
 31
0
  0
LINE
  8
1
 62
7
 10
30.40000000000013
 20
265.2671261337651
 30
0
 11
33.51904571113651
 21
265.2671261337651
 31
0
  0
LINE
  8
1
 62
7
 10
50.40000000000015
 20
264.2671261337651
 30
0
 11
48.44922356504037
 21
264.2671261337651
 31
0
  0
LINE
  8
1
 62
7
 10
50.40000000000015
 20
265.2671261337651
 30
0
 11
47.28095428886381
 21
265.2671261337651
 31
0
  0
LINE
  8
1
 62
7
 10
47.28095428886381
 20
265.2671261337651
 30
0
 11
33.51904571113651
 21
265.2671261337651
 31
0
  0
LINE
  8
1
 62
7
 10
165.3999999999999
 20
248.2671261337647
 30
0
 11
165.3999999999999
 21
218.2671261337648
 31
0
  0
LINE
  8
1
 62
7
 10
165.3999999999999
 20
218.2671261337648
 30
0
 11
167.8999999999999
 21
218.2671261337648
 31
0
  0
LINE
  8
1
 62
7
 10
167.8999999999999
 20
218.2671261337648
 30
0
 11
167.8999999999999
 21
220.7671261337648
 31
0
  0
LINE
  8
1
 62
7
 10
167.8999999999999
 20
220.7671261337648
 30
0
 11
175.8999999999999
 21
220.7671261337648
 31
0
  0
LINE
  8
1
 62
7
 10
175.8999999999999
 20
220.7671261337648
 30
0
 11
175.8999999999999
 21
245.7671261337647
 31
0
  0
LINE
  8
1
 62
7
 10
165.3999999999999
 20
248.2671261337647
 30
0
 11
167.8999999999999
 21
248.2671261337647
 31
0
  0
LINE
  8
1
 62
7
 10
167.8999999999999
 20
248.2671261337647
 30
0
 11
167.8999999999999
 21
245.7671261337647
 31
0
  0
LINE
  8
1
 62
7
 10
167.8999999999999
 20
245.7671261337647
 30
0
 11
175.8999999999999
 21
245.7671261337647
 31
0
  0
LINE
  8
1
 62
7
 10
172.1999999999999
 20
174.2671261337648
 30
0
 11
166.7999999999999
 21
174.2671261337648
 31
0
  0
LINE
  8
1
 62
7
 10
172.1999999999999
 20
144.2671261337648
 30
0
 11
172.1999999999999
 21
174.2671261337648
 31
0
  0
LINE
  8
1
 62
7
 10
166.7999999999999
 20
144.2671261337648
 30
0
 11
166.7999999999999
 21
174.2671261337648
 31
0
  0
LINE
  8
1
 62
7
 10
166.7999999999999
 20
144.2671261337648
 30
0
 11
172.1999999999999
 21
144.2671261337648
 31
0
  0
LINE
  8
1
 62
7
 10
162
 20
291.2671261337651
 30
0
 11
162
 21
79.26712613376597
 31
0
  0
LINE
  8
1
 62
7
 10
180
 20
79.26712613376597
 30
0
 11
180
 21
291.2671261337651
 31
0
  0
LINE
  8
1
 62
7
 10
3
 20
54.99999999999997
 30
0
 11
3
 21
43.75
 31
0
  0
LINE
  8
1
 62
7
 10
3
 20
40.25
 30
0
 11
3
 21
43.75
 31
0
  0
LINE
  8
1
 62
7
 10
-10.00000000000001
 20
50.00521050989954
 30
0
 11
0
 21
42.20441758203009
 31
0
  0
LINE
  8
1
 62
7
 10
3
 20
55.99999999999997
 30
0
 11
3
 21
38
 31
0
  0
LINE
  8
1
 62
7
 10
0
 20
55.99999999999997
 30
0
 11
0
 21
38
 31
0
  0
LINE
  8
1
 62
7
 10
0
 20
55.99999999999997
 30
0
 11
3
 21
55.99999999999997
 31
0
  0
LINE
  8
1
 62
7
 10
0
 20
38
 30
0
 11
3
 21
38
 31
0
  0
LINE
  8
1
 62
7
 10
84.50000000000003
 20
42
 30
0
 11
88.00000000000003
 21
42
 31
0
  0
LINE
  8
1
 62
7
 10
59.90000000000012
 20
42
 30
0
 11
63.40000000000012
 21
42
 31
0
  0
LINE
  8
1
 62
7
 10
88.25000000000003
 20
42
 30
0
 11
90.00000000000003
 21
42
 31
0
  0
LINE
  8
1
 62
7
 10
90.00000000000003
 20
54.99999999999997
 30
0
 11
90.00000000000003
 21
42
 31
0
  0
LINE
  8
1
 62
7
 10
90.00000000000003
 20
42
 30
0
 11
3
 21
42
 31
0
  0
LINE
  8
1
 62
7
 10
90.00000000000003
 20
43.75
 30
0
 11
90.00000000000003
 21
42
 31
0
  0
LINE
  8
1
 62
7
 10
3
 20
54.99999999999997
 30
0
 11
90.00000000000003
 21
54.99999999999997
 31
0
  0
LINE
  8
1
 62
7
 10
0
 20
52.60334253021797
 30
0
 11
-10.00000000000001
 21
52.60334253021797
 31
0
  0
LINE
  8
1
 62
7
 10
0
 20
50.10315594044387
 30
0
 11
-10.00000000000001
 21
50.10315594044387
 31
0
  0
LINE
  8
1
 62
7
 10
-10.00000000000001
 20
50.00521050989954
 30
0
 11
-10.00000000000001
 21
52.60334253021797
 31
0
  0
LINE
  8
1
 62
7
 10
167.8999999999999
 20
245.7671261337647
 30
0
 11
167.8999999999999
 21
220.7671261337648
 31
0
  0
LINE
  8
1
 62
7
 10
9.299999999999955
 20
258.2671261337651
 30
0
 11
9.299999999999955
 21
254.2671261337651
 31
0
  0
LINE
  8
1
 62
7
 10
8.299999999999955
 20
258.2671261337651
 30
0
 11
8.299999999999955
 21
254.2671261337651
 31
0
  0
LINE
  8
1
 62
7
 10
3
 20
300.2671261337649
 30
0
 11
0
 21
300.2671261337649
 31
0
  0
LINE
  8
1
 62
7
 10
3
 20
70.26712613376597
 30
0
 11
0
 21
70.26712613376597
 31
0
  0
LINE
  8
1
 62
7
 10
3
 20
300.2671261337649
 30
0
 11
3
 21
70.26712613376597
 31
0
  0
LINE
  8
1
 62
7
 10
0
 20
70.26712613376597
 30
0
 11
0
 21
300.2671261337649
 31
0
  0
LINE
  8
1
 62
2
  6
PHANTOM
 10
7.110747577982011
 20
79.26712613376507
 30
0
 11
-4.889252422017982
 21
79.26712613376507
 31
0
  0
LINE
  8
1
 62
2
  6
PHANTOM
 10
7.110747577982011
 20
291.2671261337637
 30
0
 11
-4.889252422017982
 21
291.2671261337637
 31
0
  0
LINE
  8
1
 62
7
 10
8.299999999999955
 20
258.2671261337651
 30
0
 11
9.299999999999955
 21
258.2671261337651
 31
0
  0
LINE
  8
1
 62
7
 10
8.299999999999955
 20
254.2671261337651
 30
0
 11
9.299999999999955
 21
254.2671261337651
 31
0
  0
LINE
  8
1
 62
7
 10
31.7000000000005
 20
174.3671261337664
 30
0
 11
26.10000000000014
 21
174.3671261337664
 31
0
  0
LINE
  8
1
 62
7
 10
31.7000000000005
 20
174.3671261337664
 30
0
 11
31.7000000000005
 21
176.1671261337664
 31
0
  0
LINE
  8
1
 62
7
 10
26.10000000000014
 20
176.1671261337664
 30
0
 11
31.7000000000005
 21
176.1671261337664
 31
0
  0
LINE
  8
1
 62
7
 10
26.10000000000014
 20
174.3671261337664
 30
0
 11
26.10000000000014
 21
176.1671261337664
 31
0
  0
LINE
  8
1
 62
7
 10
3
 20
188.2671261337651
 30
0
 11
3
 21
105.2671261337651
 31
0
  0
LINE
  8
1
 62
7
 10
52.90000000000002
 20
202.7671261337651
 30
0
 11
52.90000000000002
 21
201.7671261337651
 31
0
  0
LINE
  8
1
 62
7
 10
47.90000000000002
 20
202.7671261337651
 30
0
 11
47.90000000000002
 21
201.7671261337651
 31
0
  0
LINE
  8
1
 62
7
 10
52.90000000000002
 20
201.7671261337651
 30
0
 11
47.90000000000002
 21
201.7671261337651
 31
0
  0
LINE
  8
1
 62
3
  6
DASHED
 10
52.90000000000002
 20
202.7671261337651
 30
0
 11
47.90000000000002
 21
202.7671261337651
 31
0
  0
LINE
  8
1
 62
7
 10
52.90000000000002
 20
198.9671261337651
 30
0
 11
47.90000000000002
 21
198.9671261337651
 31
0
  0
LINE
  8
1
 62
7
 10
52.90000000000002
 20
198.9671261337651
 30
0
 11
52.90000000000002
 21
201.7671261337651
 31
0
  0
LINE
  8
1
 62
7
 10
47.90000000000002
 20
198.9671261337651
 30
0
 11
47.90000000000002
 21
201.7671261337651
 31
0
  0
LINE
  8
1
 62
7
 10
82.90000000000001
 20
237.7671261337651
 30
0
 11
82.90000000000001
 21
228.7671261337651
 31
0
  0
LINE
  8
1
 62
2
 10
76.90000000000001
 20
228.7671261337651
 30
0
 11
82.90000000000001
 21
228.7671261337651
 31
0
  0
LINE
  8
1
 62
2
 10
76.90000000000001
 20
237.7671261337651
 30
0
 11
82.90000000000001
 21
237.7671261337651
 31
0
  0
LINE
  8
1
 62
7
 10
76.90000000000001
 20
233.2671261337651
 30
0
 11
82.90000000000001
 21
233.2671261337651
 31
0
  0
LINE
  8
1
 62
7
 10
76.90000000000001
 20
237.7671261337651
 30
0
 11
76.90000000000001
 21
228.7671261337651
 31
0
  0
LINE
  8
1
 62
7
 10
3
 20
219.2671261337651
 30
0
 11
3
 21
203.2671261337652
 31
0
  0
LINE
  8
1
 62
7
 10
15.89999999999998
 20
219.2671261337651
 30
0
 11
3
 21
219.2671261337651
 31
0
  0
LINE
  8
1
 62
7
 10
16.89999999999998
 20
246.2671261337651
 30
0
 11
16.89999999999998
 21
220.2671261337651
 31
0
  0
LINE
  8
1
 62
7
 10
3
 20
247.2671261337651
 30
0
 11
15.89999999999998
 21
247.2671261337651
 31
0
  0
LINE
  8
1
 62
2
  6
CENTER
 10
63.15000000000001
 20
191.7671261337651
 30
0
 11
64.99999999999991
 21
191.7671261337651
 31
0
  0
LINE
  8
0
 62
7
 10
69.90000000000012
 20
265.2671261337651
 30
0
 11
50.40000000000015
 21
265.2671261337651
 31
0
  0
LINE
  8
1
 62
2
  6
PHANTOM
 10
60.00000000000001
 20
109.217126133765
 30
0
 11
60.00000000000001
 21
149.2671261337651
 31
0
  0
LINE
  8
1
 62
2
  6
PHANTOM
 10
46.00000000000001
 20
135.2671261337651
 30
0
 11
74.00000000000003
 21
135.2671261337651
 31
0
  0
LINE
  8
0
 62
7
 10
90.00000000000003
 20
125.2671261337648
 30
0
 11
90.00000000000006
 21
132.7671261337652
 31
0
  0
LINE
  8
1
 62
7
 10
3
 20
254.2671261337651
 30
0
 11
3
 21
247.2671261337651
 31
0
  0
LINE
  8
1
 62
2
  6
PHANTOM
 10
54.79999999999991
 20
191.7671261337651
 30
0
 11
63.15000000000001
 21
191.7671261337651
 31
0
  0
LINE
  8
1
 62
2
  6
PHANTOM
 10
59.90000000000002
 20
196.117126133765
 30
0
 11
59.90000000000002
 21
186.667126133765
 31
0
  0
LINE
  8
0
 62
7
 10
30.40000000000013
 20
265.2671261337651
 30
0
 11
3
 21
265.2671261337647
 31
0
  0
LINE
  8
0
 62
7
 10
90.00000000000006
 20
207.7671261337652
 30
0
 11
90.00000000000003
 21
245.2671261337654
 31
0
  0
LINE
  8
1
 62
7
 10
70.00000000000011
 20
105.2671261337651
 30
0
 11
90.00000000000003
 21
125.2671261337648
 31
0
  0
LINE
  8
1
 62
7
 10
69.90000000000012
 20
265.2671261337651
 30
0
 11
90.00000000000003
 21
245.2671261337654
 31
0
  0
LINE
  8
1
 62
7
 10
9.399999999999977
 20
265.2671261337651
 30
0
 11
9.399999999999977
 21
254.2671261337651
 31
0
  0
LINE
  8
1
 62
7
 10
9.399999999999977
 20
254.2671261337651
 30
0
 11
3
 21
254.2671261337651
 31
0
  0
LINE
  8
1
 62
7
 10
56.70000000000002
 20
242.3671261337651
 30
0
 11
50.60000000000001
 21
242.3671261337651
 31
0
  0
LINE
  8
1
 62
7
 10
56.70000000000002
 20
244.1671261337651
 30
0
 11
50.60000000000001
 21
244.1671261337651
 31
0
  0
LINE
  8
1
 62
7
 10
56.70000000000002
 20
244.1671261337651
 30
0
 11
56.70000000000002
 21
242.3671261337651
 31
0
  0
LINE
  8
1
 62
7
 10
50.60000000000001
 20
242.3671261337651
 30
0
 11
50.60000000000001
 21
244.1671261337651
 31
0
  0
LINE
  8
1
 62
7
 10
28.39999999999998
 20
147.2671261337651
 30
0
 11
40.50000000000001
 21
147.2671261337651
 31
0
  0
LINE
  8
1
 62
7
 10
28.39999999999998
 20
150.2671261337651
 30
0
 11
40.50000000000001
 21
150.2671261337651
 31
0
  0
LINE
  8
1
 62
7
 10
37.00000000000001
 20
147.2671261337651
 30
0
 11
37.00000000000001
 21
150.2671261337651
 31
0
  0
LINE
  8
1
 62
7
 10
31.89999999999998
 20
147.2671261337651
 30
0
 11
31.89999999999998
 21
150.2671261337651
 31
0
  0
LINE
  8
1
 62
2
 10
28.39999999999998
 20
147.2671261337651
 30
0
 11
28.39999999999998
 21
150.2671261337651
 31
0
  0
LINE
  8
1
 62
2
 10
40.50000000000001
 20
147.2671261337651
 30
0
 11
40.50000000000001
 21
150.2671261337651
 31
0
  0
LINE
  8
1
 62
2
 10
40.00000000000001
 20
118.2233051301062
 30
0
 11
43.00000000000001
 21
118.2233051301062
 31
0
  0
LINE
  8
1
 62
7
 10
40.00000000000001
 20
112.550322816504
 30
0
 11
43.00000000000001
 21
112.550322816504
 31
0
  0
LINE
  8
1
 62
2
 10
40.00000000000001
 20
110.3444764029548
 30
0
 11
43.00000000000001
 21
110.3444764029548
 31
0
  0
LINE
  8
1
 62
2
 10
40.00000000000001
 20
120.9650141559193
 30
0
 11
43.00000000000001
 21
120.9650141559193
 31
0
  0
LINE
  8
1
 62
7
 10
40.00000000000001
 20
110.3444764029548
 30
0
 11
40.00000000000001
 21
120.9650141559193
 31
0
  0
LINE
  8
1
 62
7
 10
43.00000000000001
 20
110.3444764029548
 30
0
 11
43.00000000000001
 21
120.9650141559193
 31
0
  0
LINE
  8
1
 62
2
  6
PHANTOM
 10
71.17145706371193
 20
213.2671261337651
 30
0
 11
48.76968421052591
 21
213.2671261337651
 31
0
  0
LINE
  8
1
 62
2
  6
PHANTOM
 10
59.90000000000002
 20
224.2167865569621
 30
0
 11
59.90000000000002
 21
202.3750580251061
 31
0
  0
LINE
  8
1
 62
2
  6
PHANTOM
 10
45.02500000000002
 20
213.2671261337651
 30
0
 11
36.77500000000002
 21
213.2671261337651
 31
0
  0
LINE
  8
1
 62
2
  6
PHANTOM
 10
40.90000000000002
 20
217.3921261337651
 30
0
 11
40.90000000000002
 21
209.1421261337651
 31
0
  0
LINE
  8
1
 62
2
  6
DIVIDE
 10
83.02500000000001
 20
213.2671261337651
 30
0
 11
74.77500000000001
 21
213.2671261337651
 31
0
  0
LINE
  8
1
 62
2
  6
DIVIDE
 10
78.90000000000001
 20
217.3921261337651
 30
0
 11
78.90000000000001
 21
209.142126133766
 31
0
  0
LINE
  8
1
 62
2
  6
PHANTOM
 10
45.12500000000001
 20
127.2671261337651
 30
0
 11
36.87500000000001
 21
127.2671261337651
 31
0
  0
LINE
  8
1
 62
2
  6
PHANTOM
 10
41.00000000000001
 20
131.3921261337651
 30
0
 11
41.00000000000001
 21
123.1421261337651
 31
0
  0
LINE
  8
1
 62
2
  6
PHANTOM
 10
83.12499999999881
 20
127.2671261337651
 30
0
 11
74.87500000000091
 21
127.2671261337651
 31
0
  0
LINE
  8
1
 62
2
  6
PHANTOM
 10
79.00000000000003
 20
131.392126133764
 30
0
 11
79.00000000000003
 21
123.142126133766
 31
0
  0
LINE
  8
1
 62
7
 10
9.399999999999977
 20
264.2671261337647
 30
0
 11
3
 21
264.2671261337647
 31
0
  0
LINE
  8
1
 62
7
 10
4
 20
264.2671261337651
 30
0
 11
4
 21
254.2671261337651
 31
0
  0
LINE
  8
1
 62
7
 10
70.00000000000011
 20
105.2671261337651
 30
0
 11
25.40000000000015
 21
105.267126133765
 31
0
  0
LINE
  8
1
 62
7
 10
3
 20
105.2671261337651
 30
0
 11
25.40000000000015
 21
105.267126133765
 31
0
  0
LINE
  8
1
 62
7
 10
55.90000000000002
 20
217.2671261337651
 30
0
 11
55.90000000000002
 21
209.2671261337651
 31
0
  0
LINE
  8
1
 62
7
 10
63.90000000000001
 20
217.2671261337651
 30
0
 11
63.90000000000001
 21
209.2671261337651
 31
0
  0
LINE
  8
1
 62
7
 10
63.90000000000001
 20
217.2671261337651
 30
0
 11
55.90000000000002
 21
217.2671261337651
 31
0
  0
LINE
  8
1
 62
7
 10
63.90000000000001
 20
209.2671261337651
 30
0
 11
55.90000000000002
 21
209.2671261337651
 31
0
  0
LINE
  8
1
 62
7
 10
-10.00000000000001
 20
248.2671261337651
 30
0
 11
0
 21
248.2671261337651
 31
0
  0
LINE
  8
1
 62
7
 10
-10.00000000000001
 20
218.2671261337651
 30
0
 11
0
 21
218.2671261337651
 31
0
  0
LINE
  8
1
 62
7
 10
-10.00000000000001
 20
218.2671261337651
 30
0
 11
-10.00000000000001
 21
248.2671261337651
 31
0
  0
LINE
  8
1
 62
7
 10
-10.00000000000001
 20
245.7671261337651
 30
0
 11
0
 21
245.7671261337651
 31
0
  0
LINE
  8
1
 62
7
 10
-10.00000000000001
 20
220.7671261337651
 30
0
 11
0
 21
220.7671261337651
 31
0
  0
LINE
  8
1
 62
7
 10
5
 20
220.7671261337651
 30
0
 11
5
 21
245.7671261337651
 31
0
  0
LINE
  8
1
 62
7
 10
3
 20
245.7671261337651
 30
0
 11
5
 21
245.7671261337651
 31
0
  0
LINE
  8
1
 62
7
 10
3
 20
220.7671261337651
 30
0
 11
5
 21
220.7671261337651
 31
0
  0
LINE
  8
1
 62
7
 10
-12.00000000000001
 20
174.2671261337651
 30
0
 11
0
 21
174.2671261337651
 31
0
  0
LINE
  8
1
 62
7
 10
-12.00000000000001
 20
144.2671261337651
 30
0
 11
0
 21
144.2671261337651
 31
0
  0
LINE
  8
1
 62
7
 10
-12.00000000000001
 20
144.2671261337651
 30
0
 11
-12.00000000000001
 21
174.2671261337651
 31
0
  0
LINE
  8
1
 62
7
 10
229.1623473660399
 20
218.2671261337648
 30
0
 11
229.1623473660399
 21
248.2671261337647
 31
0
  0
LINE
  8
1
 62
7
 10
226.6623473660399
 20
218.2671261337648
 30
0
 11
229.1623473660399
 21
218.2671261337648
 31
0
  0
LINE
  8
1
 62
7
 10
226.6623473660399
 20
220.7671261337648
 30
0
 11
226.6623473660399
 21
218.2671261337648
 31
0
  0
LINE
  8
1
 62
7
 10
218.6623473660399
 20
220.7671261337648
 30
0
 11
226.6623473660399
 21
220.7671261337648
 31
0
  0
LINE
  8
1
 62
7
 10
218.6623473660399
 20
245.7671261337647
 30
0
 11
218.6623473660399
 21
220.7671261337648
 31
0
  0
LINE
  8
1
 62
7
 10
226.6623473660399
 20
248.2671261337647
 30
0
 11
229.1623473660399
 21
248.2671261337647
 31
0
  0
LINE
  8
1
 62
7
 10
226.6623473660399
 20
245.7671261337647
 30
0
 11
226.6623473660399
 21
248.2671261337647
 31
0
  0
LINE
  8
1
 62
7
 10
218.6623473660399
 20
245.7671261337647
 30
0
 11
226.6623473660399
 21
245.7671261337647
 31
0
  0
LINE
  8
1
 62
7
 10
232.5623473660398
 20
79.26712613376597
 30
0
 11
232.5623473660398
 21
291.2671261337651
 31
0
  0
LINE
  8
1
 62
7
 10
214.5623473660398
 20
291.2671261337651
 30
0
 11
214.5623473660398
 21
79.26712613376597
 31
0
  0
LINE
  8
1
 62
7
 10
226.6623473660399
 20
220.7671261337648
 30
0
 11
226.6623473660399
 21
245.7671261337647
 31
0
  0
LINE
  8
1
 62
7
 10
227.7623473660399
 20
174.2671261337648
 30
0
 11
222.3623473660399
 21
174.2671261337648
 31
0
  0
LINE
  8
1
 62
7
 10
222.3623473660399
 20
174.2671261337648
 30
0
 11
222.3623473660399
 21
144.2671261337648
 31
0
  0
LINE
  8
1
 62
7
 10
227.7623473660399
 20
174.2671261337648
 30
0
 11
227.7623473660399
 21
144.2671261337648
 31
0
  0
LINE
  8
1
 62
7
 10
222.3623473660399
 20
144.2671261337648
 30
0
 11
227.7623473660399
 21
144.2671261337648
 31
0
  0
LINE
  8
1
 62
7
 10
30.40000000000013
 20
43
 30
0
 11
3
 21
43
 31
0
  0
LINE
  8
1
 62
7
 10
30.40000000000013
 20
43
 30
0
 11
30.40000000000013
 21
42
 31
0
  0
LINE
  8
1
 62
7
 10
50.40000000000012
 20
43
 30
0
 11
50.40000000000012
 21
42
 31
0
  0
LINE
  8
1
 62
7
 10
50.40000000000012
 20
43
 30
0
 11
90.00000000000003
 21
43
 31
0
  0
LINE
  8
1
 62
7
 10
70.00000000000011
 20
54.99999999999997
 30
0
 11
70.00000000000011
 21
42
 31
0
  0
LINE
  8
1
 62
7
 10
45.40000000000022
 20
45
 30
0
 11
35.40000000000022
 21
45
 31
0
  0
LINE
  8
1
 62
7
 10
45.40000000000022
 20
47
 30
0
 11
35.40000000000022
 21
47
 31
0
  0
LINE
  8
1
 62
7
 10
35.40000000000022
 20
45
 30
0
 11
35.40000000000022
 21
47
 31
0
  0
LINE
  8
1
 62
7
 10
45.40000000000022
 20
45
 30
0
 11
45.40000000000022
 21
47
 31
0
  0
LINE
  8
1
 62
7
 10
-10.400190402155
 20
51.19999999999997
 30
0
 11
-10.00000000000001
 21
51.19999999999997
 31
0
  0
LINE
  8
1
 62
7
 10
-10.400190402155
 20
45.79999999999997
 30
0
 11
-4.852817467369682
 21
45.79999999999997
 31
0
  0
LINE
  8
1
 62
7
 10
3
 20
16.99999999999997
 30
0
 11
3
 21
5.75
 31
0
  0
LINE
  8
1
 62
7
 10
3
 20
2.25
 30
0
 11
3
 21
5.75
 31
0
  0
LINE
  8
1
 62
7
 10
0
 20
13.79558241796989
 30
0
 11
-10.00000000000001
 21
5.994789490100441
 31
0
  0
LINE
  8
1
 62
7
 10
3
 20
17.99999999999997
 30
0
 11
3
 21
0
 31
0
  0
LINE
  8
1
 62
7
 10
0
 20
17.99999999999997
 30
0
 11
0
 21
0
 31
0
  0
LINE
  8
1
 62
7
 10
0
 20
17.99999999999997
 30
0
 11
3
 21
17.99999999999997
 31
0
  0
LINE
  8
1
 62
7
 10
0
 20
0
 30
0
 11
3
 21
0
 31
0
  0
LINE
  8
1
 62
7
 10
84.50000000000003
 20
1
 30
0
 11
88.00000000000003
 21
1
 31
0
  0
LINE
  8
1
 62
7
 10
59.90000000000012
 20
1
 30
0
 11
63.40000000000012
 21
1
 31
0
  0
LINE
  8
1
 62
7
 10
88.25000000000003
 20
1
 30
0
 11
90.00000000000003
 21
1
 31
0
  0
LINE
  8
1
 62
7
 10
90.00000000000003
 20
13.99999999999997
 30
0
 11
90.00000000000003
 21
1
 31
0
  0
LINE
  8
1
 62
7
 10
90.00000000000003
 20
1
 30
0
 11
3
 21
1
 31
0
  0
LINE
  8
1
 62
7
 10
90.00000000000003
 20
2.75
 30
0
 11
90.00000000000003
 21
1
 31
0
  0
LINE
  8
1
 62
7
 10
3
 20
13.99999999999997
 30
0
 11
90.00000000000003
 21
13.99999999999997
 31
0
  0
LINE
  8
1
 62
7
 10
-10.00000000000001
 20
3.39665746978201
 30
0
 11
0
 21
3.39665746978201
 31
0
  0
LINE
  8
1
 62
7
 10
-10.00000000000001
 20
5.896844059556113
 30
0
 11
0
 21
5.896844059556113
 31
0
  0
LINE
  8
1
 62
7
 10
-10.00000000000001
 20
3.39665746978201
 30
0
 11
-10.00000000000001
 21
5.994789490100441
 31
0
  0
LINE
  8
1
 62
7
 10
30.40000000000013
 20
2
 30
0
 11
3
 21
2
 31
0
  0
LINE
  8
1
 62
7
 10
30.40000000000013
 20
2
 30
0
 11
30.40000000000013
 21
1
 31
0
  0
LINE
  8
1
 62
7
 10
50.40000000000012
 20
2
 30
0
 11
50.40000000000012
 21
1
 31
0
  0
LINE
  8
1
 62
7
 10
50.40000000000012
 20
2
 30
0
 11
90.00000000000003
 21
2
 31
0
  0
LINE
  8
1
 62
7
 10
70.00000000000011
 20
13.99999999999997
 30
0
 11
70.00000000000011
 21
1
 31
0
  0
LINE
  8
1
 62
7
 10
45.40000000000022
 20
4
 30
0
 11
35.40000000000022
 21
4
 31
0
  0
LINE
  8
1
 62
7
 10
45.40000000000022
 20
6
 30
0
 11
35.40000000000022
 21
6
 31
0
  0
LINE
  8
1
 62
7
 10
35.40000000000022
 20
4
 30
0
 11
35.40000000000022
 21
6
 31
0
  0
LINE
  8
1
 62
7
 10
45.40000000000022
 20
4
 30
0
 11
45.40000000000022
 21
6
 31
0
  0
LINE
  8
1
 62
7
 10
-10.00000000000001
 20
4.800000000000011
 30
0
 11
-10.400190402155
 21
4.799999999999962
 31
0
  0
LINE
  8
1
 62
7
 10
-4.852817467369682
 20
10.20000000000001
 30
0
 11
-10.400190402155
 21
10.20000000000001
 31
0
  0
LINE
  8
1
 62
2
  6
DIVIDE
 10
176.225
 20
291.2671261337651
 30
0
 11
165.775
 21
291.2671261337651
 31
0
  0
LINE
  8
1
 62
2
  6
DIVIDE
 10
171
 20
296.4921261337651
 30
0
 11
171
 21
286.0421261337651
 31
0
  0
LINE
  8
1
 62
2
  6
DIVIDE
 10
228.7873473660398
 20
291.2671261337651
 30
0
 11
218.3373473660398
 21
291.2671261337651
 31
0
  0
LINE
  8
1
 62
2
  6
DIVIDE
 10
223.5623473660398
 20
296.4921261337651
 30
0
 11
223.5623473660398
 21
286.0421261337651
 31
0
  0
LINE
  8
1
 62
2
  6
DIVIDE
 10
176.225
 20
79.26712613376597
 30
0
 11
165.775
 21
79.26712613376597
 31
0
  0
LINE
  8
1
 62
2
  6
DIVIDE
 10
171
 20
84.49212613376598
 30
0
 11
171
 21
74.04212613376595
 31
0
  0
LINE
  8
1
 62
2
  6
DIVIDE
 10
228.7873473660398
 20
79.26712613376597
 30
0
 11
218.3373473660398
 21
79.26712613376597
 31
0
  0
LINE
  8
1
 62
2
  6
DIVIDE
 10
223.5623473660398
 20
84.49212613376598
 30
0
 11
223.5623473660398
 21
74.04212613376595
 31
0
  0
LINE
  8
1
 62
7
 10
58.25000000000001
 20
131.6615748583011
 30
0
 11
58.25000000000001
 21
131.3970376651607
 31
0
  0
LINE
  8
1
 62
7
 10
57.33715574274761
 20
130.400842967069
 30
0
 11
56.70142212862612
 21
130.345223482811
 31
0
  0
LINE
  8
1
 62
7
 10
56.24500000000002
 20
129.8471261337651
 30
0
 11
56.24500000000002
 21
118.5816541596195
 31
0
  0
LINE
  8
1
 62
7
 10
61.75000000000001
 20
131.6615748583011
 30
0
 11
61.75000000000001
 21
131.3970376651607
 31
0
  0
LINE
  8
1
 62
7
 10
62.66284425725232
 20
130.400842967069
 30
0
 11
63.29857787137382
 21
130.345223482811
 31
0
  0
LINE
  8
1
 62
7
 10
63.75500000000002
 20
129.8471261337651
 30
0
 11
63.75500000000002
 21
127.9455313820559
 31
0
  0
LINE
  8
1
 62
7
 10
63.29857787137382
 20
127.44743403301
 30
0
 11
60.14527540580181
 21
127.1715558146041
 31
0
  0
LINE
  8
1
 62
7
 10
59.41499999999992
 20
126.3746000561307
 30
0
 11
59.41499999999992
 21
122.8602665787594
 31
0
  0
LINE
  8
1
 62
7
 10
60.14527540580181
 20
122.063310820286
 30
0
 11
63.29857787137382
 21
121.7874326018802
 31
0
  0
LINE
  8
1
 62
7
 10
63.75500000000002
 20
121.2893352528343
 30
0
 11
63.75500000000002
 21
118.5816541596195
 31
0
  0
ARC
  8
1
 62
2
 10
2.999999999999943
 20
195.7671261337653
 30
0
 40
7.500000000000099
 50
279.4410121051298
 51
80.55898789487009
  0
ARC
  8
1
 62
3
  6
DASHED
 10
2.999999999999943
 20
195.7671261337653
 30
0
 40
8.200000000000076
 50
277.0047264090763
 51
82.99527359092363
  0
ARC
  8
1
 62
7
 10
2.999999999999943
 20
195.7671261337653
 30
0
 40
6.000000000000076
 50
286.9162961096528
 51
73.08370389034724
  0
ARC
  8
1
 62
3
  6
DASHED
 10
25.40000000000015
 20
105.267126133765
 30
0
 40
8.199999999999971
 50
7.004726409077076
 51
172.995273590923
  0
ARC
  8
1
 62
2
 10
25.40000000000015
 20
105.267126133765
 30
0
 40
7.49999999999997
 50
7.662255660766863
 51
172.4553555754453
  0
ARC
  8
1
 62
7
 10
25.40000000000015
 20
105.267126133765
 30
0
 40
5.99999999999998
 50
12.2648732547706
 51
167.7351267452285
  0
ARC
  8
1
 62
7
 10
89.89999999999992
 20
142.7671261337649
 30
0
 40
5.99999999999995
 50
101.2378905397364
 51
258.7621094602646
  0
ARC
  8
1
 62
2
 10
89.89999999999992
 20
142.7671261337649
 30
0
 40
7.500000000000074
 50
96.89210257934526
 51
263.1078974206546
  0
ARC
  8
1
 62
3
  6
DASHED
 10
89.89999999999992
 20
142.7671261337649
 30
0
 40
8.200000000000003
 50
96.30125585847222
 51
263.6987441415278
  0
ARC
  8
1
 62
7
 10
89.89999999999992
 20
197.7671261337649
 30
0
 40
5.99999999999995
 50
101.2378905397364
 51
258.7621094602648
  0
ARC
  8
1
 62
2
 10
89.89999999999992
 20
197.7671261337649
 30
0
 40
7.499999999999988
 50
96.89210257934533
 51
263.1078974206546
  0
ARC
  8
1
 62
3
  6
DASHED
 10
89.89999999999992
 20
197.7671261337649
 30
0
 40
8.200000000000088
 50
96.30125585847216
 51
263.6987441415279
  0
ARC
  8
1
 62
3
  6
DASHED
 10
40.40000000000055
 20
265.2671261337651
 30
0
 40
8.200000000000083
 50
187.0047264090763
 51
352.9952735909237
  0
ARC
  8
1
 62
2
 10
40.40000000000055
 20
265.2671261337651
 30
0
 40
7.499999999999948
 50
187.5446444245546
 51
352.4553555754454
  0
ARC
  8
1
 62
7
 10
40.40000000000055
 20
265.2671261337651
 30
0
 40
6.000000000000003
 50
192.2648732547714
 51
347.7351267452314
  0
ARC
  8
1
 62
7
 10
171
 20
291.2671261337651
 30
0
 40
9
 50
0
 51
90
  0
ARC
  8
1
 62
7
 10
171
 20
79.26712613376597
 30
0
 40
9
 50
270
 51
0
  0
ARC
  8
1
 62
7
 10
171
 20
291.2671261337651
 30
0
 40
8.999999999961233
 50
90
 51
180
  0
ARC
  8
1
 62
7
 10
-2.878773362509186
 20
48.98655977103218
 30
0
 40
8.168590910225003
 50
185.8780673411889
 51
202.9606643749019
  0
ARC
  8
1
 62
7
 10
-3.004414580782417
 20
48.14999999999988
 30
0
 40
7.999999999999991
 50
157.5888679537619
 51
180
  0
ARC
  8
1
 62
7
 10
171
 20
79.26712613376597
 30
0
 40
9
 50
180
 51
270
  0
ARC
  8
1
 62
7
 10
223.5623473660398
 20
291.2671261337651
 30
0
 40
8.999999999961233
 50
90
 51
180
  0
ARC
  8
1
 62
7
 10
223.5623473660398
 20
79.26712613376597
 30
0
 40
9
 50
180
 51
270
  0
ARC
  8
1
 62
7
 10
223.5623473660398
 20
291.2671261337651
 30
0
 40
9
 50
0
 51
90
  0
ARC
  8
1
 62
7
 10
223.5623473660398
 20
79.26712613376597
 30
0
 40
9
 50
270
 51
0
  0
ARC
  8
1
 62
7
 10
-2.878773362509186
 20
7.013440228967802
 30
0
 40
8.168590910226515
 50
157.0393356250981
 51
174.1219326588111
  0
ARC
  8
1
 62
7
 10
-3.004414580782417
 20
7.850000000000101
 30
0
 40
8.000000000000004
 50
180
 51
202.4111320462384
  0
ARC
  8
1
 62
7
 10
171
 20
291.2671261337651
 30
0
 40
4.75
 50
0
 51
180
  0
ARC
  8
1
 62
7
 10
171
 20
291.2671261337651
 30
0
 40
4.75
 50
180
 51
0
  0
ARC
  8
1
 62
7
 10
171
 20
291.2671261337651
 30
0
 40
2.5
 50
0
 51
180
  0
ARC
  8
1
 62
7
 10
171
 20
291.2671261337651
 30
0
 40
2.5
 50
180
 51
0
  0
ARC
  8
1
 62
7
 10
223.5623473660398
 20
291.2671261337651
 30
0
 40
4.75
 50
0
 51
180
  0
ARC
  8
1
 62
7
 10
223.5623473660398
 20
291.2671261337651
 30
0
 40
4.75
 50
180
 51
0
  0
ARC
  8
1
 62
7
 10
223.5623473660398
 20
291.2671261337651
 30
0
 40
2.5
 50
0
 51
180
  0
ARC
  8
1
 62
7
 10
223.5623473660398
 20
291.2671261337651
 30
0
 40
2.5
 50
180
 51
0
  0
ARC
  8
1
 62
7
 10
171
 20
79.26712613376597
 30
0
 40
4.75
 50
0
 51
180
  0
ARC
  8
1
 62
7
 10
171
 20
79.26712613376597
 30
0
 40
4.75
 50
180
 51
0
  0
ARC
  8
1
 62
7
 10
171
 20
79.26712613376597
 30
0
 40
2.5
 50
0
 51
180
  0
ARC
  8
1
 62
7
 10
171
 20
79.26712613376597
 30
0
 40
2.5
 50
180
 51
0
  0
ARC
  8
1
 62
7
 10
223.5623473660398
 20
79.26712613376597
 30
0
 40
4.75
 50
0
 51
180
  0
ARC
  8
1
 62
7
 10
223.5623473660398
 20
79.26712613376597
 30
0
 40
4.75
 50
180
 51
0
  0
ARC
  8
1
 62
7
 10
223.5623473660398
 20
79.26712613376597
 30
0
 40
2.5
 50
0
 51
180
  0
ARC
  8
1
 62
7
 10
223.5623473660398
 20
79.26712613376597
 30
0
 40
2.5
 50
180
 51
0
  0
ARC
  8
1
 62
7
 10
60.00000000000001
 20
135.2671261337651
 30
0
 40
17.49999999999998
 50
258.9613815046933
 51
269.9230704947186
  0
ARC
  8
1
 62
7
 10
60.00000000000001
 20
135.2671261337651
 30
0
 40
17.49999999999998
 50
258.9613815046933
 51
269.9230704947186
  0
ARC
  8
1
 62
7
 10
60.00000000000001
 20
135.2671261337651
 30
0
 40
17.49999999999993
 50
269.9230704947186
 51
281.0386184953064
  0
ARC
  8
1
 62
7
 10
60.00000000000001
 20
135.2671261337651
 30
0
 40
3.750000000000021
 50
0
 51
238.0342812492021
  0
ARC
  8
1
 62
7
 10
60.00000000000001
 20
135.2671261337651
 30
0
 40
3.749999999999934
 50
301.9657187507968
 51
0
  0
ARC
  8
1
 62
3
 10
60.00000000000001
 20
135.2671261337651
 30
0
 40
9.000000000000021
 50
0
 51
245.3406614368662
  0
ARC
  8
1
 62
3
 10
60.00000000000001
 20
135.2671261337651
 30
0
 40
8.999999999999998
 50
266.2731468575173
 51
0
  0
CIRCLE
  8
1
 62
2
 10
59.90000000000002
 20
213.2671261337651
 30
0
 40
10.0000000000005
  0
CIRCLE
  8
1
 62
7
 10
59.90000000000002
 20
213.2671261337651
 30
0
 40
8.999999999999986
  0
CIRCLE
  8
1
 62
7
 10
59.90000000000002
 20
213.2671261337651
 30
0
 40
6.999999999999986
  0
CIRCLE
  8
1
 62
7
 10
40.90000000000002
 20
213.2671261337651
 30
0
 40
3.75
  0
CIRCLE
  8
1
 62
7
 10
78.90000000000001
 20
213.2671261337651
 30
0
 40
3.75
  0
CIRCLE
  8
1
 62
7
 10
41.00000000000001
 20
127.2671261337651
 30
0
 40
3.750000000000902
  0
CIRCLE
  8
1
 62
7
 10
79.00000000000003
 20
127.2671261337651
 30
0
 40
3.75
  0
CIRCLE
  8
1
 62
7
 10
59.90000000000002
 20
191.7671261337651
 30
0
 40
3.75
  0
ARC
  8
1
 62
7
 10
25.39999999999986
 20
102.8139689491041
 30
0
 40
3.999999999999994
 50
76.42226642649896
 51
103.5777335734993
  0
ARC
  8
1
 62
7
 10
25.39999999999986
 20
102.8139689491041
 30
0
 40
5.000000000000036
 50
76.42226642649965
 51
103.5777335735009
  0
ARC
  8
1
 62
7
 10
92.45315718466105
 20
142.7671261337651
 30
0
 40
3.999999999999993
 50
166.4222664264991
 51
193.5777335734994
  0
ARC
  8
1
 62
7
 10
92.45315718466105
 20
142.7671261337651
 30
0
 40
5.000000000000126
 50
166.4222664265003
 51
193.5777335735007
  0
ARC
  8
1
 62
7
 10
92.45315718466105
 20
197.7671261337651
 30
0
 40
3.999999999999993
 50
166.4222664264991
 51
193.5777335734994
  0
ARC
  8
1
 62
7
 10
92.45315718466105
 20
197.7671261337651
 30
0
 40
5.000000000000126
 50
166.4222664265003
 51
193.5777335735007
  0
ARC
  8
1
 62
7
 10
40.40000000000022
 20
267.7202833184261
 30
0
 40
4.999999999999998
 50
256.4222664265008
 51
283.5777335735027
  0
ARC
  8
1
 62
7
 10
40.40000000000022
 20
267.7202833184261
 30
0
 40
3.999999999999991
 50
256.4222664264992
 51
283.5777335734994
  0
ARC
  8
1
 62
7
 10
15.89999999999998
 20
220.2671261337651
 30
0
 40
1
 50
270
 51
0
  0
ARC
  8
1
 62
7
 10
15.89999999999998
 20
246.2671261337651
 30
0
 40
1
 50
0
 51
90
  0
ARC
  8
1
 62
7
 10
57.25000000000001
 20
131.3970376651607
 30
0
 40
0.9999999999999492
 50
274.9999999999972
 51
0
  0
ARC
  8
1
 62
7
 10
62.75000000000003
 20
131.3970376651607
 30
0
 40
1.000000000000021
 50
180
 51
264.9999999999968
  0
ARC
  8
1
 62
7
 10
60.21499999999992
 20
126.3746000561307
 30
0
 40
0.8000000000000037
 50
94.99999999999854
 51
180
  0
ARC
  8
1
 62
7
 10
60.21499999999992
 20
122.8602665787594
 30
0
 40
0.7999999999999972
 50
180
 51
265.0000000000014
  0
ARC
  8
1
 62
7
 10
63.25500000000002
 20
129.8471261337651
 30
0
 40
0.5
 50
0
 51
85.00000000000298
  0
ARC
  8
1
 62
7
 10
63.25500000000002
 20
127.9455313820559
 30
0
 40
0.5000000000000315
 50
274.999999999997
 51
0
  0
ARC
  8
1
 62
7
 10
63.25500000000002
 20
121.2893352528343
 30
0
 40
0.5
 50
0
 51
85.00000000000283
  0
ARC
  8
1
 62
7
 10
56.74500000000002
 20
129.8471261337651
 30
0
 40
0.5000000000000395
 50
95.00000000000756
 51
180
  0
ARC
  8
1
 62
7
 10
56.74500000000002
 20
118.5816541596195
 30
0
 40
0.5
 50
180
 51
258.9613815046882
  0
ARC
  8
1
 62
7
 10
63.25500000000002
 20
118.5816541596195
 30
0
 40
0.5000000000000296
 50
281.0386184952999
 51
0
  0
ARC
  8
1
 62
7
 10
57.75000000000001
 20
131.6615748583011
 30
0
 40
0.5
 50
0
 51
58.03428124921049
  0
ARC
  8
1
 62
7
 10
62.25000000000001
 20
131.6615748583011
 30
0
 40
0.5000000000000704
 50
121.9657187507978
 51
180
  0
TEXT
  8
1
 62
7
 10
165.6571508040899
 20
42.20729938893209
 30
0
 40
7
  1
Rs
 41
0.9
 72
1
 73
2
 11
171.9571508040899
 21
45.70729938893209
 31
0
  0
TEXT
  8
1
 62
7
 10
218.6571508040899
 20
42.20729938893209
 30
0
 40
7
  1
Ls
 41
0.9
 72
1
 73
2
 11
224.9571508040899
 21
45.70729938893209
 31
0
  0
TEXT
  8
1
 62
7
 10
165.2643972015749
 20
5.601522528344173
 30
0
 40
7
  1
1010_160_18X
 41
0.9
 73
2
 11
165.2643972015749
 21
9.101522528344173
 31
0
  0
DIMENSION
  8
1
  6
CONTINUOUS
 62
1
  2
*D0
  3
DMST_1
 10
-27.3204659578958
 20
300.2671261337649
 30
0
 11
-31.8204659578958
 21
282.7671261337648
 31
0
 12
0
 22
0
 32
0
 70
0
 13
3
 23
265.2671261337647
 33
0
 14
0
 24
300.2671261337649
 34
0
 50
90
 53
0
  0
DIMENSION
  8
1
  6
CONTINUOUS
 62
1
  2
*D1
  3
DMST_1
 10
-27.2977972208186
 20
265.2671261337647
 30
0
 11
-31.7977972208186
 21
256.7671261337649
 31
0
 12
0
 22
0
 32
0
 70
0
 13
-10.00000000000001
 23
248.2671261337651
 33
0
 14
3
 24
265.2671261337647
 34
0
 50
90
 53
0
  0
DIMENSION
  8
1
  6
CONTINUOUS
 62
1
  2
*D2
  3
DMST_1
 10
-27.2950955821789
 20
248.2671261337651
 30
0
 11
-31.7950955821789
 21
233.2671261337651
 31
0
 12
0
 22
0
 32
0
 70
0
 13
-10.00000000000001
 23
218.2671261337651
 33
0
 14
-10.00000000000001
 24
248.2671261337651
 34
0
 50
90
 53
0
  0
DIMENSION
  8
1
  6
CONTINUOUS
 62
1
  2
*D3
  3
DMST_1
 10
-27.2950955821789
 20
218.2671261337651
 30
0
 11
-31.7950955821789
 21
196.2671261337651
 31
0
 12
0
 22
0
 32
0
 70
0
 13
-12.00000000000001
 23
174.2671261337651
 33
0
 14
-10.00000000000001
 24
218.2671261337651
 34
0
 50
90
 53
0
  0
DIMENSION
  8
1
  6
CONTINUOUS
 62
1
  2
*D4
  3
DMST_1
 10
-27.2950955821789
 20
174.2671261337651
 30
0
 11
-31.7950955821789
 21
159.2671261337651
 31
0
 12
0
 22
0
 32
0
 70
0
 13
-12.00000000000001
 23
144.2671261337651
 33
0
 14
-12.00000000000001
 24
174.2671261337651
 34
0
 50
90
 53
0
  0
DIMENSION
  8
1
  6
CONTINUOUS
 62
1
  2
*D5
  3
DMST_1
 10
-27.2950955821789
 20
105.2671261337651
 30
0
 11
-31.7950955821789
 21
124.7671261337651
 31
0
 12
0
 22
0
 32
0
 70
0
 13
-12.00000000000001
 23
144.2671261337651
 33
0
 14
3
 24
105.2671261337651
 34
0
 50
90
 53
0
  0
DIMENSION
  8
1
  6
CONTINUOUS
 62
1
  2
*D6
  3
DMST_1
 10
-27.2929003556297
 20
105.2671261337651
 30
0
 11
-31.7929003556297
 21
87.76712613376554
 31
0
 12
0
 22
0
 32
0
 70
0
 13
0
 23
70.26712613376597
 33
0
 14
3
 24
105.2671261337651
 34
0
 50
90
 53
0
  0
DIMENSION
  8
1
  6
CONTINUOUS
 62
1
  2
*D7
  3
DMST_1
 10
60
 20
90.86198575352761
 30
0
 11
30
 21
95.36198575352761
 31
0
 12
0
 22
0
 32
0
 70
0
 13
0
 23
70.26712613376597
 33
0
 14
60.00000000000001
 24
109.217126133765
 34
0
 53
0
  0
DIMENSION
  8
1
  6
CONTINUOUS
 62
1
  2
*D8
  3
DMST_1
 10
90.00000000000003
 20
90.86198575352761
 30
0
 11
75.00000000000001
 21
95.36198575352761
 31
0
 12
0
 22
0
 32
0
 70
0
 13
60.00000000000001
 23
109.217126133765
 33
0
 14
90.00000000000003
 24
125.2671261337648
 34
0
 53
0
  0
DIMENSION
  8
1
  6
CONTINUOUS
 62
1
  2
*D9
  3
DMST_1
 10
0
 20
279.58360358559
 30
0
 11
-10.19877969753978
 21
284.08360358559
 31
0
 12
0
 22
0
 32
0
 70
0
 13
3
 23
300.2671261337649
 33
0
 14
0
 24
300.2671261337649
 34
0
 53
0
  0
DIMENSION
  8
1
  6
CONTINUOUS
 62
1
  2
*D10
  3
DMST_1
 10
0
 20
206.893759295367
 30
0
 11
-5.000000000000005
 21
211.393759295367
 31
0
 12
0
 22
0
 32
0
 70
0
 13
-10.00000000000001
 23
218.2671261337651
 33
0
 14
0
 24
218.2671261337651
 34
0
 53
0
  0
DIMENSION
  8
1
  6
CONTINUOUS
 62
1
  2
*D11
  3
DMST_1
 10
63.90000000000001
 20
229.168353354286
 30
0
 11
59.90000000000002
 21
233.668353354286
 31
0
 12
0
 22
0
 32
0
 70
0
 13
55.90000000000002
 23
217.2671261337651
 33
0
 14
63.90000000000001
 24
217.2671261337651
 34
0
 53
0
  0
DIMENSION
  8
1
  6
CONTINUOUS
 62
1
  2
*D12
  3
DMST_1
 10
22.60874653764022
 20
55.99999999999997
 30
0
 11
18.10874653764022
 21
63.86183849910728
 31
0
 12
0
 22
0
 32
0
 70
0
 13
3
 23
54.99999999999997
 33
0
 14
3
 24
55.99999999999997
 34
0
 50
90
 53
0
  0
DIMENSION
  8
1
  6
CONTINUOUS
 62
1
  2
*D13
  3
DMST_1
 10
105.1953816339769
 20
54.99999999999997
 30
0
 11
100.6953816339769
 21
48.49999999999999
 31
0
 12
0
 22
0
 32
0
 70
0
 13
88.00000000000003
 23
42
 33
0
 14
90.00000000000003
 24
54.99999999999997
 34
0
 50
90
 53
0
  0
DIMENSION
  8
1
  6
CONTINUOUS
 62
1
  2
*D14
  3
DMST_1
 10
105.1953816339769
 20
1
 30
0
 11
100.6953816339769
 21
7.499999999999982
 31
0
 12
0
 22
0
 32
0
 70
0
 13
90.00000000000003
 23
13.99999999999997
 33
0
 14
88.25000000000003
 24
1
 34
0
 50
90
 53
0
  0
DIMENSION
  8
1
  6
CONTINUOUS
 62
1
  2
*D15
  3
DMST_1
 10
22.24993226268282
 20
0
 30
0
 11
17.74993226268282
 21
-8.583732585085228
 31
0
 12
0
 22
0
 32
0
 70
0
 13
3
 23
1
 33
0
 14
3
 24
0
 34
0
 50
90
 53
0
  0
DIMENSION
  8
1
  6
CONTINUOUS
 62
1
  2
*D16
  3
DMST_1
 10
120.0336151816219
 20
265.2671261337651
 30
0
 11
115.5336151816219
 21
239.2671261337651
 31
0
 12
0
 22
0
 32
0
 70
0
 13
83.02500000000001
 23
213.2671261337651
 33
0
 14
69.90000000000012
 24
265.2671261337651
 34
0
 50
90
 53
0
  0
DIMENSION
  8
1
  6
CONTINUOUS
 62
1
  2
*D17
  3
DMST_1
 10
120.0336151816219
 20
213.2671261337651
 30
0
 11
115.5336151816219
 21
174.2671261337651
 31
0
 12
0
 22
0
 32
0
 70
0
 13
74.00000000000003
 23
135.2671261337651
 33
0
 14
83.02500000000001
 24
213.2671261337651
 34
0
 50
90
 53
0
  0
DIMENSION
  8
1
  6
CONTINUOUS
 62
1
  2
*D18
  3
DMST_1
 10
120.0336151816219
 20
135.2671261337651
 30
0
 11
115.5336151816219
 21
120.2671261337651
 31
0
 12
0
 22
0
 32
0
 70
0
 13
70.00000000000011
 23
105.2671261337651
 33
0
 14
74.00000000000003
 24
135.2671261337651
 34
0
 50
90
 53
0
  0
DIMENSION
  8
1
  6
CONTINUOUS
 62
1
  2
*D19
  3
DMST_1
 10
105.0240050686269
 20
213.2671261337651
 30
0
 11
100.2740050686269
 21
202.5171261337651
 31
0
 12
0
 22
0
 32
0
 70
0
 13
64.99999999999991
 23
191.7671261337651
 33
0
 14
83.02500000000001
 24
213.2671261337651
 34
0
 50
90
 53
0
  0
DIMENSION
  8
1
  6
CONTINUOUS
 62
1
  2
*D20
  3
DMST_1
 10
135.0157778380159
 20
105.2671261337651
 30
0
 11
130.5157778380159
 21
185.2671261337651
 31
0
 12
0
 22
0
 32
0
 70
0
 13
69.90000000000012
 23
265.2671261337651
 33
0
 14
70.00000000000011
 24
105.2671261337651
 34
0
 50
90
 53
0
  0
DIMENSION
  8
1
  6
CONTINUOUS
 62
1
  2
*D21
  3
DMST_1
 10
194.46299793035
 20
300.2671261337264
 30
0
 11
189.96299793035
 21
185.2671261337462
 31
0
 12
0
 22
0
 32
0
 70
0
 13
171
 23
70.26712613376597
 33
0
 14
171
 24
300.2671261337263
 34
0
 50
90
 53
0
  0
DIMENSION
  8
1
  6
CONTINUOUS
 62
1
  2
*D22
  3
DMST_1
 10
151.2711754978819
 20
291.2671261337651
 30
0
 11
146.7711754978819
 21
295.7671261337456
 31
0
 12
0
 22
0
 32
0
 70
0
 13
171
 23
300.2671261337263
 33
0
 14
165.775
 24
291.2671261337651
 34
0
 50
90
 53
0
  0
DIMENSION
  8
1
  6
CONTINUOUS
 62
1
  2
*D23
  3
DMST_1
 10
151.2846486678499
 20
79.26712613376597
 30
0
 11
146.7846486678499
 21
74.76712613376597
 31
0
 12
0
 22
0
 32
0
 70
0
 13
171
 23
70.26712613376597
 33
0
 14
166.25
 24
79.26712613376597
 34
0
 50
90
 53
0
  0
DIMENSION
  8
1
  6
CONTINUOUS
 62
1
  2
*D24
  3
DMST_1
 10
162
 20
260.066211682902
 30
0
 11
151.2811736830199
 21
264.816211682902
 31
0
 12
0
 22
0
 32
0
 70
0
 13
165.3999999999999
 23
248.2671261337647
 33
0
 14
162
 24
291.2671261337651
 34
0
 53
0
  0
DIMENSION
  8
1
  6
CONTINUOUS
 62
1
  2
*D25
  3
DMST_1
 10
165.3999999999999
 20
234.643115494918
 30
0
 11
151.2811736830199
 21
239.393115494918
 31
0
 12
0
 22
0
 32
0
 70
0
 13
175.8999999999999
 23
245.7671261337647
 33
0
 14
165.3999999999999
 24
248.2671261337647
 34
0
 53
0
  0
DIMENSION
  8
1
  6
CONTINUOUS
 62
1
  2
*D26
  3
DMST_1
 10
166.7999999999999
 20
163.1157167468
 30
0
 11
151.2811736830199
 21
167.8657167468
 31
0
 12
0
 22
0
 32
0
 70
0
 13
172.1999999999999
 23
174.2671261337648
 33
0
 14
166.7999999999999
 24
174.2671261337648
 34
0
 53
0
  0
DIMENSION
  8
1
  6
CONTINUOUS
 62
1
  2
*D27
  3
DMST_1
 10
162
 20
183.758878829855
 30
0
 11
151.2811736830199
 21
188.508878829855
 31
0
 12
0
 22
0
 32
0
 70
0
 13
166.7999999999999
 23
174.2671261337648
 33
0
 14
162
 24
79.26712613376597
 34
0
 53
0
  0
DIMENSION
  8
1
  6
CONTINUOUS
 62
1
  2
*D28
  3
DMST_1
 10
105.0514525252269
 20
127.2671261337651
 30
0
 11
100.5514525252269
 21
131.2671261337651
 31
0
 12
0
 22
0
 32
0
 70
0
 13
74.00000000000003
 23
135.2671261337651
 33
0
 14
83.12499999999881
 24
127.2671261337651
 34
0
 50
90
 53
0
  0
DIMENSION
  8
1
  6
CONTINUOUS
 62
1
  2
*D29
  3
DMST_1
 10
180
 20
56.51047384969347
 30
0
 11
171
 21
61.01047384969347
 31
0
 12
0
 22
0
 32
0
 70
0
 13
162
 23
79.26712613376597
 33
0
 14
180
 24
79.26712613376597
 34
0
 53
0
  0
DIMENSION
  8
1
  6
CONTINUOUS
 62
1
  2
*D30
  3
DMST_1
 10
0
 20
129.030332313343
 30
0
 11
-6.000000000000005
 21
133.530332313343
 31
0
 12
0
 22
0
 32
0
 70
0
 13
-12.00000000000001
 23
144.2671261337651
 33
0
 14
0
 24
144.2671261337651
 34
0
 53
0
  0
DIMENSION
  8
1
  6
CONTINUOUS
 62
1
  2
*D31
  3
DMST_2
 10
62.67479995837068
 20
194.2896219595349
 30
0
 11
44.79967510024692
 21
184.459209587845
 31
0
 12
0
 22
0
 32
0
 70
3
 15
57.12520004162936
 25
189.2446303079953
 35
0
 40
0
 53
0
  0
ENDSEC
  0
EOF
