  0
SECTION
  2
HEADER
  9
$ACADVER
  1
AC1009
  9
$INSBASE
 10
0
 20
0
  9
$EXTMIN
 10
-40.1175266883452
 20
-136
  9
$EXTMAX
 10
111.998971095845
 20
96.6897345612135
  9
$LIMMIN
 10
-40.1175266883452
 20
-136
  9
$LIMMAX
 10
111.998971095845
 20
96.6897345612135
  9
$VIEWCTR
 10
10
 20
10
  9
$VIEWSIZE
 40
10
  9
$SNAPMODE
 70
0
  9
$SNAPUNIT
 10
1
 20
1
  9
$SNAPBASE
 10
0
 20
0
  9
$SNAPANG
 50
0
  9
$SNAPSTYLE
 70
0
  9
$SNAPISOPAIR
 70
0
  9
$GRIDMODE
 70
0
  9
$GRIDUNIT
 10
0
 20
0
  9
$ORTHOMODE
 70
0
  9
$REGENMODE
 70
1
  9
$FILLMODE
 70
1
  9
$QTEXTMODE
 70
0
  9
$DRAGMODE
 70
2
  9
$LTSCALE
 40
1
  9
$OSMODE
 70
0
  9
$ATTMODE
 70
1
  9
$TEXTSIZE
 40
3.5
  9
$TRACEWID
 40
0.5
  9
$TEXTSTYLE
  7
STANDARD
  9
$CLAYER
  8
0
  9
$CELTYPE
  6
BYLAYER
  9
$CECOLOR
 62
256
  9
$DIMSCALE
 40
1
  9
$DIMASZ
 40
0.18
  9
$DIMEXO
 40
0.0625
  9
$DIMDLI
 40
0.38
  9
$DIMRND
 40
0
  9
$DIMDLE
 40
0
  9
$DIMEXE
 40
0.18
  9
$DIMTP
 40
0
  9
$DIMTM
 40
0
  9
$DIMTXT
 40
0.18
  9
$DIMCEN
 40
0.09
  9
$DIMTSZ
 40
0
  9
$DIMTOL
 70
0
  9
$DIMLIM
 70
0
  9
$DIMTIH
 70
1
  9
$DIMTOH
 70
1
  9
$DIMSE1
 70
0
  9
$DIMSE2
 70
0
  9
$DIMTAD
 70
0
  9
$DIMZIN
 70
0
  9
$DIMBLK
  1

  9
$DIMASO
 70
1
  9
$DIMSHO
 70
1
  9
$DIMPOST
  1

  9
$DIMAPOST
  1

  9
$DIMALT
 70
0
  9
$DIMALTD
 70
2
  9
$DIMALTF
 40
25.4
  9
$DIMLFAC
 40
1
  9
$DIMTOFL
 70
0
  9
$DIMTVP
 40
0
  9
$DIMTIX
 70
0
  9
$DIMSOXD
 70
0
  9
$DIMSAH
 70
0
  9
$DIMBLK1
  1

  9
$DIMBLK2
  1

  9
$DIMSTYLE
  2
*UNNAMED
  9
$DIMCLRD
 70
0
  9
$DIMCLRE
 70
0
  9
$DIMCLRT
 70
0
  9
$DIMTFAC
 40
1
  9
$DIMGAP
 40
0.09
  9
$LUNITS
 70
2
  9
$LUPREC
 70
4
  9
$AXISMODE
 70
0
  9
$AXISUNIT
 10
0
 20
0
  9
$SKETCHINC
 40
0.1
  9
$FILLETRAD
 40
2
  9
$AUNITS
 70
0
  9
$AUPREC
 70
0
  9
$MENU
  1
ACAD
  9
$ELEVATION
 40
0
  9
$THICKNESS
 40
0
  9
$VIEWDIR
 10
0
 20
0
 30
1
  9
$LIMCHECK
 70
0
  9
$BLIPMODE
 70
1
  9
$CHAMFERA
 40
0
  9
$CHAMFERB
 40
0
  9
$FASTZOOM
 70
1
  9
$SKPOLY
 70
0
  9
$ANGBASE
 50
0
  9
$ANGDIR
 70
0
  9
$PDMODE
 70
0
  9
$PDSIZE
 40
0
  9
$PLINEWID
 40
0
  9
$COORDS
 70
2
  0
ENDSEC
  0
SECTION
  2
TABLES
  0
TABLE
  2
DIMSTYLE
 70
2
  0
DIMSTYLE
  2
DMST_1
 70
0
  3

  4

  5

  6

  7

 40
1
 41
5
 42
0
 43
7
 44
2
 45
0
 46
0
 47
0
 48
0
140
5
141
0
142
0
143
25.4
144
1
145
0
146
1
147
0.09
 71
0
 72
0
 73
0
 74
0
 75
0
 76
0
 77
1
 78
9
170
0
171
2
172
0
173
0
174
0
175
0
176
1
177
1
178
7
  0
DIMSTYLE
  2
DMST_2
 70
0
  3

  4

  5

  6

  7

 40
1
 41
5
 42
0
 43
7
 44
2
 45
0
 46
0
 47
0
 48
0
140
5
141
0
142
5
143
25.4
144
1
145
0
146
1
147
0.09
 71
0
 72
0
 73
0
 74
0
 75
0
 76
0
 77
1
 78
9
170
0
171
2
172
0
173
0
174
0
175
0
176
1
177
1
178
7
  0
ENDTAB
  0
TABLE
  2
LTYPE
 70
9
  0
LTYPE
  2
CONTINUOUS
 70
64
  3
Solid line
 72
65
 73
0
 40
0
  0
LTYPE
  2
BORDER
 70
64
  3
__ __ . __ __ .
 72
65
 73
6
 40
10.71597461795062
 49
3.061707033700177
 49
-1.530853516850089
 49
3.061707033700177
 49
-1.530853516850089
 49
0
 49
-1.530853516850089
  0
LTYPE
  2
CENTER
 70
64
  3
____ _ ____ _
 72
65
 73
4
 40
12.24682813480071
 49
7.654267584250444
 49
-1.530853516850089
 49
1.530853516850089
 49
-1.530853516850089
  0
LTYPE
  2
DASHDOT
 70
64
  3
__ . __ . __ .
 72
65
 73
4
 40
6.123414067400355
 49
3.061707033700177
 49
-1.530853516850089
 49
0
 49
-1.530853516850089
  0
LTYPE
  2
DASHED
 70
64
  3
__ __ __ __ __
 72
65
 73
2
 40
4.592560550550266
 49
3.061707033700177
 49
-1.530853516850089
  0
LTYPE
  2
DIVIDE
 70
64
  3
__ . . __ . . 
 72
65
 73
6
 40
7.654267584250444
 49
3.061707033700177
 49
-1.530853516850089
 49
0
 49
-1.530853516850089
 49
0
 49
-1.530853516850089
  0
LTYPE
  2
DOT
 70
64
  3
..............
 72
65
 73
4
 40
3.061707033700177
 49
0
 49
-1.530853516850089
 49
0
 49
-1.530853516850089
  0
LTYPE
  2
HIDDEN
 70
64
  3
_ _ _ _ _ _ _
 72
65
 73
2
 40
2.296280275275133
 49
1.530853516850089
 49
-0.7654267584250444
  0
LTYPE
  2
PHANTOM
 70
64
  3
_____ _ _ _____ _ _ 
 72
65
 73
6
 40
15.30853516850089
 49
7.654267584250444
 49
-1.530853516850089
 49
1.530853516850089
 49
-1.530853516850089
 49
1.530853516850089
 49
-1.530853516850089
  0
ENDTAB
  0
TABLE
  2
LAYER
 70
3
  0
LAYER
  2
1
 70
0
 62
7
  6
CONTINUOUS
  0
LAYER
  2
0
 70
0
 62
7
  6
CONTINUOUS
  0
ENDTAB
  0
TABLE
  2
STYLE
 70
4
  0
STYLE
  2
STANDARD
 70
0
 40
0
 41
1
 50
0
 71
0
 42
3.5
  3
txt
  4

  0
STYLE
  2
SIMPLEX
 70
0
 40
0
 41
1
 50
0
 71
0
 42
3.5
  3
simplex
  4

  0
STYLE
  2
COMPLEX
 70
0
 40
0
 41
1
 50
0
 71
0
 42
3.5
  3
complex
  4

  0
STYLE
  2
ITALIC
 70
0
 40
0
 41
1
 50
0
 71
0
 42
3.5
  3
italic
  4

  0
ENDTAB
  0
TABLE
  2
VIEW
 70
0
  0
ENDTAB
  0
ENDSEC
  0
SECTION
  2
BLOCKS
  0
BLOCK
  8
1
  2
*D0
 70
1
 10
0
 20
0
 30
0
  0
LINE
  8
1
 62
1
 10
48.5
 20
52.25
 30
0
 11
58.5
 21
52.25
 31
0
  0
LINE
  8
1
 62
1
 10
41.5
 20
52.25
 30
0
 11
31.5
 21
52.25
 31
0
  0
LINE
  8
1
 62
1
 10
41.5
 20
52.25
 30
0
 11
48.5
 21
52.25
 31
0
  0
LINE
  8
1
 62
1
 10
48.5
 20
41
 30
0
 11
48.5
 21
54.25
 31
0
  0
LINE
  8
1
 62
1
 10
41.5
 20
41
 30
0
 11
41.5
 21
54.25
 31
0
  0
SOLID
  8
1
 62
1
 10
41.5
 20
52.25
 30
0
 11
36.5
 21
51.6
 31
0
 12
36.5
 22
52.9
 32
0
 13
36.5
 23
52.9
 33
0
  0
SOLID
  8
1
 62
1
 10
48.5
 20
52.25
 30
0
 11
53.5
 21
52.9
 31
0
 12
53.5
 22
51.6
 32
0
 13
53.5
 23
51.6
 33
0
  0
TEXT
  8
1
 62
7
 10
43.5
 20
53.25
 30
0
 40
5
  1
7
 41
0.9
  0
ENDBLK
  8
0
  0
BLOCK
  8
1
  2
*D1
 70
1
 10
0
 20
0
 30
0
  0
LINE
  8
1
 62
1
 10
50.5
 20
17.25
 30
0
 11
60.5
 21
17.25
 31
0
  0
LINE
  8
1
 62
1
 10
39.5
 20
17.25
 30
0
 11
29.5
 21
17.25
 31
0
  0
LINE
  8
1
 62
1
 10
39.5
 20
17.25
 30
0
 11
50.5
 21
17.25
 31
0
  0
LINE
  8
1
 62
1
 10
50.5
 20
37.5
 30
0
 11
50.5
 21
15.25
 31
0
  0
LINE
  8
1
 62
1
 10
39.5
 20
37.5
 30
0
 11
39.5
 21
15.25
 31
0
  0
SOLID
  8
1
 62
1
 10
39.5
 20
17.25
 30
0
 11
34.5
 21
16.6
 31
0
 12
34.5
 22
17.9
 32
0
 13
34.5
 23
17.9
 33
0
  0
SOLID
  8
1
 62
1
 10
50.5
 20
17.25
 30
0
 11
55.5
 21
17.9
 31
0
 12
55.5
 22
16.6
 32
0
 13
55.5
 23
16.6
 33
0
  0
TEXT
  8
1
 62
7
 10
42.75
 20
18.25
 30
0
 40
5
  1
11
 41
0.9
  0
ENDBLK
  8
0
  0
BLOCK
  8
1
  2
*D2
 70
1
 10
0
 20
0
 30
0
  0
LINE
  8
1
 62
1
 10
109.874097101869
 20
-133
 30
0
 11
109.874097101869
 21
-43
 31
0
  0
LINE
  8
1
 62
1
 10
48.5
 20
-43
 30
0
 11
111.874097101869
 21
-43
 31
0
  0
LINE
  8
1
 62
1
 10
48.5
 20
-133
 30
0
 11
111.874097101869
 21
-133
 31
0
  0
SOLID
  8
1
 62
1
 10
109.874097101869
 20
-43
 30
0
 11
110.524097101869
 21
-48
 31
0
 12
109.224097101869
 22
-48
 32
0
 13
109.224097101869
 23
-48
 33
0
  0
SOLID
  8
1
 62
1
 10
109.874097101869
 20
-133
 30
0
 11
109.224097101869
 21
-128
 31
0
 12
110.524097101869
 22
-128
 32
0
 13
110.524097101869
 23
-128
 33
0
  0
TEXT
  8
1
 62
7
 10
108.874097101869
 20
-91.75
 30
0
 40
5
  1
90
 50
90
 41
0.9
  0
ENDBLK
  8
0
  0
BLOCK
  8
1
  2
*D3
 70
1
 10
0
 20
0
 30
0
  0
LINE
  8
1
 62
1
 10
-18.5
 20
7.574999999999999
 30
0
 11
0
 21
7.574999999999999
 31
0
  0
LINE
  8
1
 62
1
 10
0
 20
0
 30
0
 11
0
 21
9.574999999999999
 31
0
  0
LINE
  8
1
 62
1
 10
-18.5
 20
22.5
 30
0
 11
-18.5
 21
5.574999999999999
 31
0
  0
SOLID
  8
1
 62
1
 10
-18.5
 20
7.574999999999999
 30
0
 11
-13.5
 21
8.225
 31
0
 12
-13.5
 22
6.924999999999999
 32
0
 13
-13.5
 23
6.924999999999999
 33
0
  0
SOLID
  8
1
 62
1
 10
0
 20
7.574999999999999
 30
0
 11
-5
 21
6.925000000000001
 31
0
 12
-5
 22
8.225
 32
0
 13
-5
 23
8.225
 33
0
  0
TEXT
  8
1
 62
7
 10
-15.375
 20
9.074999999999999
 30
0
 40
5
  1
18,5
 41
0.9
  0
ENDBLK
  8
0
  0
BLOCK
  8
1
  2
*D4
 70
1
 10
0
 20
0
 30
0
  0
LINE
  8
1
 62
1
 10
0
 20
-26.75
 30
0
 11
80
 21
-26.75
 31
0
  0
LINE
  8
1
 62
1
 10
80
 20
0
 30
0
 11
80
 21
-28.75
 31
0
  0
LINE
  8
1
 62
1
 10
0
 20
0
 30
0
 11
0
 21
-28.75
 31
0
  0
SOLID
  8
1
 62
1
 10
0
 20
-26.75
 30
0
 11
5.000000000000001
 21
-26.1
 31
0
 12
5.000000000000001
 22
-27.4
 32
0
 13
5.000000000000001
 23
-27.4
 33
0
  0
SOLID
  8
1
 62
1
 10
80
 20
-26.75
 30
0
 11
75
 21
-27.4
 31
0
 12
75
 22
-26.1
 32
0
 13
75
 23
-26.1
 33
0
  0
TEXT
  8
1
 62
7
 10
36.25
 20
-25.75
 30
0
 40
5
  1
80
 41
0.9
  0
ENDBLK
  8
0
  0
BLOCK
  8
1
  2
*D5
 70
1
 10
0
 20
0
 30
0
  0
LINE
  8
1
 62
1
 10
0
 20
-14.75
 30
0
 11
45
 21
-14.75
 31
0
  0
LINE
  8
1
 62
1
 10
45
 20
15.4757274839179
 30
0
 11
45
 21
-16.75
 31
0
  0
LINE
  8
1
 62
1
 10
45
 20
31.4068790263518
 30
0
 11
45
 21
24.012140864584
 31
0
  0
LINE
  8
1
 62
1
 10
0
 20
0
 30
0
 11
0
 21
-16.75
 31
0
  0
SOLID
  8
1
 62
1
 10
0
 20
-14.75
 30
0
 11
5.000000000000001
 21
-14.1
 31
0
 12
5.000000000000001
 22
-15.4
 32
0
 13
5.000000000000001
 23
-15.4
 33
0
  0
SOLID
  8
1
 62
1
 10
45
 20
-14.75
 30
0
 11
40
 21
-15.4
 31
0
 12
40
 22
-14.1
 32
0
 13
40
 23
-14.1
 33
0
  0
TEXT
  8
1
 62
7
 10
18.75
 20
-13.75
 30
0
 40
5
  1
45
 41
0.9
  0
ENDBLK
  8
0
  0
BLOCK
  8
1
  2
*D6
 70
1
 10
0
 20
0
 30
0
  0
LINE
  8
1
 62
1
 10
109.998971095845
 20
0
 30
0
 11
109.998971095845
 21
75
 31
0
  0
LINE
  8
1
 62
1
 10
80
 20
75
 30
0
 11
111.998971095845
 21
75
 31
0
  0
LINE
  8
1
 62
1
 10
80
 20
0
 30
0
 11
111.998971095845
 21
0
 31
0
  0
SOLID
  8
1
 62
1
 10
109.998971095845
 20
0
 30
0
 11
109.348971095845
 21
5
 31
0
 12
110.648971095845
 22
5
 32
0
 13
110.648971095845
 23
5
 33
0
  0
SOLID
  8
1
 62
1
 10
109.998971095845
 20
75
 30
0
 11
110.648971095845
 21
70
 31
0
 12
109.348971095845
 22
70
 32
0
 13
109.348971095845
 23
70
 33
0
  0
TEXT
  8
1
 62
7
 10
108.998971095845
 20
33.75
 30
0
 40
5
  1
75
 50
90
 41
0.9
  0
ENDBLK
  8
0
  0
BLOCK
  8
1
  2
*D7
 70
1
 10
0
 20
0
 30
0
  0
LINE
  8
1
 62
1
 10
94.925
 20
-43
 30
0
 11
94.925
 21
-33
 31
0
  0
LINE
  8
1
 62
1
 10
94.925
 20
-56.50000000000001
 30
0
 11
94.925
 21
-66.5
 31
0
  0
LINE
  8
1
 62
1
 10
94.925
 20
-56.50000000000001
 30
0
 11
94.925
 21
-43
 31
0
  0
LINE
  8
1
 62
1
 10
48.5
 20
-43
 30
0
 11
96.925
 21
-43
 31
0
  0
LINE
  8
1
 62
1
 10
78.5
 20
-56.50000000000001
 30
0
 11
96.925
 21
-56.50000000000001
 31
0
  0
SOLID
  8
1
 62
1
 10
94.925
 20
-43
 30
0
 11
94.27499999999999
 21
-38
 31
0
 12
95.57499999999999
 22
-38
 32
0
 13
95.57499999999999
 23
-38
 33
0
  0
SOLID
  8
1
 62
1
 10
94.925
 20
-56.50000000000001
 30
0
 11
95.575
 21
-61.50000000000001
 31
0
 12
94.27499999999999
 22
-61.50000000000001
 32
0
 13
94.27499999999999
 23
-61.50000000000001
 33
0
  0
TEXT
  8
1
 62
7
 10
93.425
 20
-55.87500000000001
 30
0
 40
5
  1
13,5
 50
90
 41
0.9
  0
ENDBLK
  8
0
  0
BLOCK
  8
1
  2
*D8
 70
1
 10
0
 20
0
 30
0
  0
LINE
  8
1
 62
1
 10
94.925
 20
-133
 30
0
 11
94.925
 21
-95
 31
0
  0
LINE
  8
1
 62
1
 10
50.4
 20
-95
 30
0
 11
96.925
 21
-95
 31
0
  0
LINE
  8
1
 62
1
 10
48.5
 20
-133
 30
0
 11
96.925
 21
-133
 31
0
  0
SOLID
  8
1
 62
1
 10
94.925
 20
-95
 30
0
 11
95.575
 21
-100
 31
0
 12
94.27499999999999
 22
-100
 32
0
 13
94.27499999999999
 23
-100
 33
0
  0
SOLID
  8
1
 62
1
 10
94.925
 20
-133
 30
0
 11
94.27499999999999
 21
-128
 31
0
 12
95.57499999999999
 22
-128
 32
0
 13
95.57499999999999
 23
-128
 33
0
  0
TEXT
  8
1
 62
7
 10
93.925
 20
-117.75
 30
0
 40
5
  1
38
 50
90
 41
0.9
  0
ENDBLK
  8
0
  0
BLOCK
  8
1
  2
*D9
 70
1
 10
0
 20
0
 30
0
  0
LINE
  8
1
 62
1
 10
94.925
 20
-95
 30
0
 11
94.925
 21
-72.5
 31
0
  0
LINE
  8
1
 62
1
 10
80
 20
-72.5
 30
0
 11
96.925
 21
-72.5
 31
0
  0
LINE
  8
1
 62
1
 10
50.4
 20
-95
 30
0
 11
96.925
 21
-95
 31
0
  0
SOLID
  8
1
 62
1
 10
94.925
 20
-72.5
 30
0
 11
95.575
 21
-77.5
 31
0
 12
94.27499999999999
 22
-77.5
 32
0
 13
94.27499999999999
 23
-77.5
 33
0
  0
SOLID
  8
1
 62
1
 10
94.925
 20
-95
 30
0
 11
94.27499999999999
 21
-90
 31
0
 12
95.57499999999999
 22
-90
 32
0
 13
95.57499999999999
 23
-90
 33
0
  0
TEXT
  8
1
 62
7
 10
93.425
 20
-90.625
 30
0
 40
5
  1
22,5
 50
90
 41
0.9
  0
ENDBLK
  8
0
  0
BLOCK
  8
1
  2
*D10
 70
1
 10
0
 20
0
 30
0
  0
LINE
  8
1
 62
1
 10
94.925
 20
-72.5
 30
0
 11
94.925
 21
-56.5
 31
0
  0
LINE
  8
1
 62
1
 10
78.5
 20
-56.5
 30
0
 11
96.925
 21
-56.5
 31
0
  0
LINE
  8
1
 62
1
 10
80
 20
-72.5
 30
0
 11
96.925
 21
-72.5
 31
0
  0
SOLID
  8
1
 62
1
 10
94.925
 20
-56.5
 30
0
 11
95.575
 21
-61.5
 31
0
 12
94.27499999999999
 22
-61.5
 32
0
 13
94.27499999999999
 23
-61.5
 33
0
  0
SOLID
  8
1
 62
1
 10
94.925
 20
-72.5
 30
0
 11
94.27499999999999
 21
-67.5
 31
0
 12
95.57499999999999
 22
-67.5
 32
0
 13
95.57499999999999
 23
-67.5
 33
0
  0
TEXT
  8
1
 62
7
 10
93.925
 20
-67.5
 30
0
 40
5
  1
16
 50
90
 41
0.9
  0
ENDBLK
  8
0
  0
BLOCK
  8
1
  2
*D11
 70
1
 10
0
 20
0
 30
0
  0
LINE
  8
1
 62
1
 10
-33.6175266883452
 20
-56.50000000000001
 30
0
 11
-33.6175266883452
 21
-44.3860523073185
 31
0
  0
LINE
  8
1
 62
1
 10
-33.6175266883452
 20
-58.00000000000001
 30
0
 11
-33.6175266883452
 21
-56.50000000000001
 31
0
  0
LINE
  8
1
 62
1
 10
-33.6175266883452
 20
-58.00000000000001
 30
0
 11
-33.6175266883452
 21
-58.00000000000001
 31
0
  0
LINE
  8
1
 62
1
 10
1.5
 20
-56.50000000000001
 30
0
 11
-35.6175266883452
 21
-56.50000000000001
 31
0
  0
LINE
  8
1
 62
1
 10
-18.5
 20
-58.00000000000001
 30
0
 11
-35.6175266883452
 21
-58.00000000000001
 31
0
  0
SOLID
  8
1
 62
1
 10
-33.6175266883452
 20
-56.50000000000001
 30
0
 11
-34.2675266883452
 21
-51.50000000000001
 31
0
 12
-32.9675266883452
 22
-51.50000000000001
 32
0
 13
-32.9675266883452
 23
-51.50000000000001
 33
0
  0
TEXT
  8
1
 62
7
 10
-35.1175266883452
 20
-52.1360523073185
 30
0
 40
5
  1
1,5
 50
90
 41
0.9
  0
ENDBLK
  8
0
  0
BLOCK
  8
1
  2
*D12
 70
1
 10
0
 20
0
 30
0
  0
LINE
  8
1
 62
1
 10
-33.5274014153535
 20
-72.5
 30
0
 11
-33.5274014153535
 21
-83.7088956704514
 31
0
  0
LINE
  8
1
 62
1
 10
-33.5274014153535
 20
-72.5
 30
0
 11
-33.5274014153535
 21
-65
 31
0
  0
LINE
  8
1
 62
1
 10
-18.5
 20
-65
 30
0
 11
-35.5274014153535
 21
-65
 31
0
  0
LINE
  8
1
 62
1
 10
0
 20
-72.5
 30
0
 11
-35.5274014153535
 21
-72.5
 31
0
  0
LINE
  8
1
 62
1
 10
-35.29516836831987
 20
-63.23223304703363
 30
0
 11
-31.75963446238713
 21
-66.76776695296637
 31
0
  0
SOLID
  8
1
 62
1
 10
-33.5274014153535
 20
-72.5
 30
0
 11
-32.8774014153535
 21
-77.5
 31
0
 12
-34.1774014153535
 22
-77.5
 32
0
 13
-34.1774014153535
 23
-77.5
 33
0
  0
TEXT
  8
1
 62
7
 10
-35.0274014153535
 20
-83.7088956704514
 30
0
 40
5
  1
7,5
 50
90
 41
0.9
  0
ENDBLK
  8
0
  0
BLOCK
  8
1
  2
*D13
 70
1
 10
0
 20
0
 30
0
  0
LINE
  8
1
 62
1
 10
-33.5971508693703
 20
-65
 30
0
 11
-33.5971508693703
 21
-58.00000000000001
 31
0
  0
LINE
  8
1
 62
1
 10
-18.5
 20
-58.00000000000001
 30
0
 11
-35.5971508693703
 21
-58.00000000000001
 31
0
  0
LINE
  8
1
 62
1
 10
-18.5
 20
-65
 30
0
 11
-35.5971508693703
 21
-65
 31
0
  0
LINE
  8
1
 62
1
 10
-35.36491782233667
 20
-56.23223304703364
 30
0
 11
-31.82938391640393
 21
-59.76776695296638
 31
0
  0
LINE
  8
1
 62
1
 10
-31.82938391640393
 20
-66.76776695296637
 30
0
 11
-35.36491782233667
 21
-63.23223304703363
 31
0
  0
TEXT
  8
1
 62
7
 10
-34.5971508693703
 20
-63
 30
0
 40
5
  1
7
 50
90
 41
0.9
  0
ENDBLK
  8
0
  0
BLOCK
  8
1
  2
*D14
 70
1
 10
0
 20
0
 30
0
  0
LINE
  8
1
 62
1
 10
-33.5836785034317
 20
0
 30
0
 11
-33.5836785034317
 21
22.5
 31
0
  0
LINE
  8
1
 62
1
 10
-18.5
 20
22.5
 30
0
 11
-35.5836785034317
 21
22.5
 31
0
  0
LINE
  8
1
 62
1
 10
0
 20
0
 30
0
 11
-35.5836785034317
 21
0
 31
0
  0
SOLID
  8
1
 62
1
 10
-33.5836785034317
 20
0
 30
0
 11
-34.2336785034317
 21
5
 31
0
 12
-32.9336785034317
 22
5
 32
0
 13
-32.9336785034317
 23
5
 33
0
  0
SOLID
  8
1
 62
1
 10
-33.5836785034317
 20
22.5
 30
0
 11
-32.9336785034317
 21
17.5
 31
0
 12
-34.2336785034317
 22
17.5
 32
0
 13
-34.2336785034317
 23
17.5
 33
0
  0
TEXT
  8
1
 62
7
 10
-35.0836785034317
 20
4.375
 30
0
 40
5
  1
22,5
 50
90
 41
0.9
  0
ENDBLK
  8
0
  0
BLOCK
  8
1
  2
*D15
 70
1
 10
0
 20
0
 30
0
  0
LINE
  8
1
 62
1
 10
-33.5836785034317
 20
52.5
 30
0
 11
-33.5836785034317
 21
75
 31
0
  0
LINE
  8
1
 62
1
 10
0
 20
75
 30
0
 11
-35.5836785034317
 21
75
 31
0
  0
LINE
  8
1
 62
1
 10
-18.5
 20
52.5
 30
0
 11
-35.5836785034317
 21
52.5
 31
0
  0
SOLID
  8
1
 62
1
 10
-33.5836785034317
 20
52.5
 30
0
 11
-34.2336785034317
 21
57.5
 31
0
 12
-32.9336785034317
 22
57.5
 32
0
 13
-32.9336785034317
 23
57.5
 33
0
  0
SOLID
  8
1
 62
1
 10
-33.5836785034317
 20
75
 30
0
 11
-32.9336785034317
 21
70
 31
0
 12
-34.2336785034317
 22
70
 32
0
 13
-34.2336785034317
 23
70
 33
0
  0
TEXT
  8
1
 62
7
 10
-35.0836785034317
 20
56.875
 30
0
 40
5
  1
22,5
 50
90
 41
0.9
  0
ENDBLK
  8
0
  0
BLOCK
  8
1
  2
*D16
 70
1
 10
0
 20
0
 30
0
  0
LINE
  8
1
 62
1
 10
-33.550091138757
 20
22.5
 30
0
 11
-33.550091138757
 21
52.5
 31
0
  0
LINE
  8
1
 62
1
 10
-18.5
 20
52.5
 30
0
 11
-35.550091138757
 21
52.5
 31
0
  0
LINE
  8
1
 62
1
 10
-18.5
 20
22.5
 30
0
 11
-35.550091138757
 21
22.5
 31
0
  0
SOLID
  8
1
 62
1
 10
-33.550091138757
 20
22.5
 30
0
 11
-34.200091138757
 21
27.5
 31
0
 12
-32.900091138757
 22
27.5
 32
0
 13
-32.900091138757
 23
27.5
 33
0
  0
SOLID
  8
1
 62
1
 10
-33.550091138757
 20
52.5
 30
0
 11
-32.900091138757
 21
47.5
 31
0
 12
-34.200091138757
 22
47.5
 32
0
 13
-34.200091138757
 23
47.5
 33
0
  0
TEXT
  8
1
 62
7
 10
-34.550091138757
 20
33.75
 30
0
 40
5
  1
30
 50
90
 41
0.9
  0
ENDBLK
  8
0
  0
BLOCK
  8
1
  2
*D17
 70
1
 10
0
 20
0
 30
0
  0
LINE
  8
1
 62
1
 10
94.925
 20
0
 30
0
 11
94.925
 21
37.5
 31
0
  0
LINE
  8
1
 62
1
 10
51.0931209736482
 20
37.5
 30
0
 11
96.925
 21
37.5
 31
0
  0
LINE
  8
1
 62
1
 10
80
 20
0
 30
0
 11
96.925
 21
0
 31
0
  0
SOLID
  8
1
 62
1
 10
94.925
 20
0
 30
0
 11
94.27499999999999
 21
5
 31
0
 12
95.57499999999999
 22
5
 32
0
 13
95.57499999999999
 23
5
 33
0
  0
SOLID
  8
1
 62
1
 10
94.925
 20
37.5
 30
0
 11
95.575
 21
32.5
 31
0
 12
94.27499999999999
 22
32.5
 32
0
 13
94.27499999999999
 23
32.5
 33
0
  0
TEXT
  8
1
 62
7
 10
93.425
 20
11.875
 30
0
 40
5
  1
37,5
 50
90
 41
0.9
  0
ENDBLK
  8
0
  0
BLOCK
  8
1
  2
*D18
 70
1
 10
0
 20
0
 30
0
  0
LINE
  8
1
 62
1
 10
94.925
 20
37.5
 30
0
 11
94.925
 21
75
 31
0
  0
LINE
  8
1
 62
1
 10
80
 20
75
 30
0
 11
96.925
 21
75
 31
0
  0
LINE
  8
1
 62
1
 10
51.0931209736482
 20
37.5
 30
0
 11
96.925
 21
37.5
 31
0
  0
SOLID
  8
1
 62
1
 10
94.925
 20
37.5
 30
0
 11
94.27499999999999
 21
42.5
 31
0
 12
95.57499999999999
 22
42.5
 32
0
 13
95.57499999999999
 23
42.5
 33
0
  0
SOLID
  8
1
 62
1
 10
94.925
 20
75
 30
0
 11
95.575
 21
70
 31
0
 12
94.27499999999999
 22
70
 32
0
 13
94.27499999999999
 23
70
 33
0
  0
TEXT
  8
1
 62
7
 10
93.425
 20
49.375
 30
0
 40
5
  1
37,5
 50
90
 41
0.9
  0
ENDBLK
  8
0
  0
ENDSEC
  0
SECTION
  2
ENTITIES
  0
LINE
  8
1
 62
3
  6
PHANTOM
 10
-18.5
 20
-65
 30
0
 11
0
 21
-65
 31
0
  0
LINE
  8
1
 62
3
  6
PHANTOM
 10
-18.5
 20
-58.00000000000001
 30
0
 11
-18.5
 21
-65
 31
0
  0
LINE
  8
1
 62
3
  6
PHANTOM
 10
0
 20
-58.00000000000001
 30
0
 11
-18.5
 21
-58.00000000000001
 31
0
  0
LINE
  8
1
 62
2
 10
41.5
 20
-133
 30
0
 11
48.5
 21
-95
 31
0
  0
LINE
  8
1
 62
2
 10
41.5
 20
-95
 30
0
 11
48.5
 21
-133
 31
0
  0
LINE
  8
1
 62
2
 10
41.5
 20
-43.00000000000001
 30
0
 11
48.5
 21
-56.00000000000001
 31
0
  0
LINE
  8
1
 62
2
 10
41.5
 20
-56.00000000000001
 30
0
 11
48.5
 21
-43
 31
0
  0
LINE
  8
1
 62
7
 10
39.6
 20
-72.5
 30
0
 11
39.6
 21
-95
 31
0
  0
LINE
  8
1
 62
7
 10
50.4
 20
-72.5
 30
0
 11
39.6
 21
-72.5
 31
0
  0
LINE
  8
1
 62
7
 10
50.4
 20
-95
 30
0
 11
50.4
 21
-72.5
 31
0
  0
LINE
  8
1
 62
7
 10
39.6
 20
-95
 30
0
 11
50.4
 21
-95
 31
0
  0
LINE
  8
1
 62
7
 10
41.5
 20
-95
 30
0
 11
41.5
 21
-133
 31
0
  0
LINE
  8
1
 62
7
 10
48.5
 20
-95
 30
0
 11
41.5
 21
-95
 31
0
  0
LINE
  8
1
 62
7
 10
48.5
 20
-133
 30
0
 11
48.5
 21
-95
 31
0
  0
LINE
  8
1
 62
7
 10
41.5
 20
-133
 30
0
 11
48.5
 21
-133
 31
0
  0
LINE
  8
1
 62
7
 10
50.4
 20
-56.00000000000001
 30
0
 11
50.4
 21
-56.50000000000001
 31
0
  0
LINE
  8
1
 62
7
 10
48.5
 20
-56.00000000000001
 30
0
 11
50.4
 21
-56.00000000000001
 31
0
  0
LINE
  8
1
 62
7
 10
39.6
 20
-56.00000000000001
 30
0
 11
41.5
 21
-56.00000000000001
 31
0
  0
LINE
  8
1
 62
7
 10
39.6
 20
-56.50000000000001
 30
0
 11
39.6
 21
-56.00000000000001
 31
0
  0
LINE
  8
1
 62
7
 10
41.5
 20
-43.00000000000001
 30
0
 11
41.5
 21
-56.00000000000001
 31
0
  0
LINE
  8
1
 62
7
 10
48.5
 20
-43
 30
0
 11
41.5
 21
-43.00000000000001
 31
0
  0
LINE
  8
1
 62
7
 10
48.5
 20
-56.00000000000001
 30
0
 11
48.5
 21
-43
 31
0
  0
LINE
  8
1
 62
7
 10
41.5
 20
-56.00000000000001
 30
0
 11
48.5
 21
-56.00000000000001
 31
0
  0
LINE
  8
1
 62
7
 10
78.5
 20
-72.5
 30
0
 11
78.5
 21
-58.00000000000001
 31
0
  0
LINE
  8
1
 62
7
 10
1.5
 20
-72.5
 30
0
 11
1.5
 21
-58.00000000000001
 31
0
  0
LINE
  8
1
 62
7
 10
0
 20
-58.00000000000001
 30
0
 11
0
 21
-72.5
 31
0
  0
LINE
  8
1
 62
7
 10
78.5
 20
-56.50000000000001
 30
0
 11
1.5
 21
-56.50000000000001
 31
0
  0
LINE
  8
1
 62
7
 10
80
 20
-72.5
 30
0
 11
80
 21
-58.00000000000001
 31
0
  0
LINE
  8
1
 62
7
 10
0
 20
-72.5
 30
0
 11
80
 21
-72.5
 31
0
  0
LINE
  8
1
 62
2
  6
PHANTOM
 10
73
 20
9.4
 30
0
 11
73
 21
4.6
 31
0
  0
LINE
  8
1
 62
2
  6
PHANTOM
 10
70.59999999999999
 20
7
 30
0
 11
75.40000000000001
 21
7
 31
0
  0
LINE
  8
1
 62
2
  6
PHANTOM
 10
13
 20
9.4
 30
0
 11
13
 21
4.6
 31
0
  0
LINE
  8
1
 62
2
  6
PHANTOM
 10
10.6
 20
7
 30
0
 11
15.4
 21
7
 31
0
  0
LINE
  8
1
 62
2
  6
PHANTOM
 10
73
 20
70.40000000000001
 30
0
 11
73
 21
65.59999999999999
 31
0
  0
LINE
  8
1
 62
2
  6
PHANTOM
 10
70.59999999999999
 20
68
 30
0
 11
75.40000000000001
 21
68
 31
0
  0
LINE
  8
1
 62
2
  6
PHANTOM
 10
13
 20
70.40000000000001
 30
0
 11
13
 21
65.59999999999999
 31
0
  0
LINE
  8
1
 62
2
  6
PHANTOM
 10
10.6
 20
68
 30
0
 11
15.4
 21
68
 31
0
  0
LINE
  8
1
 62
3
  6
DASHED
 10
-18.5
 20
22.5
 30
0
 11
-18.5
 21
52.5
 31
0
  0
LINE
  8
1
 62
7
 10
67
 20
22.5
 30
0
 11
78.5
 21
22.5
 31
0
  0
LINE
  8
1
 62
7
 10
1.5
 20
22.5
 30
0
 11
23
 21
22.5
 31
0
  0
LINE
  8
1
 62
3
  6
DASHED
 10
0
 20
22.5
 30
0
 11
-18.5
 21
22.5
 31
0
  0
LINE
  8
1
 62
3
  6
DASHED
 10
0
 20
52.5
 30
0
 11
-18.5
 21
52.5
 31
0
  0
LINE
  8
1
 62
7
 10
23
 20
52.5
 30
0
 11
1.5
 21
52.5
 31
0
  0
LINE
  8
1
 62
7
 10
78.5
 20
52.5
 30
0
 11
67
 21
52.5
 31
0
  0
LINE
  8
1
 62
7
 10
67
 20
1.5
 30
0
 11
67
 21
73.5
 31
0
  0
LINE
  8
1
 62
7
 10
23
 20
73.5
 30
0
 11
23
 21
1.5
 31
0
  0
LINE
  8
1
 62
2
  6
PHANTOM
 10
45
 20
31.4068790263518
 30
0
 11
45
 21
43.5931209736482
 31
0
  0
LINE
  8
1
 62
2
  6
PHANTOM
 10
38.9068790263518
 20
37.5
 30
0
 11
51.0931209736482
 21
37.5
 31
0
  0
LINE
  8
1
 62
7
 10
41.5
 20
41
 30
0
 11
41.5
 21
34
 31
0
  0
LINE
  8
1
 62
7
 10
48.5
 20
41
 30
0
 11
41.5
 21
41
 31
0
  0
LINE
  8
1
 62
7
 10
48.5
 20
34
 30
0
 11
48.5
 21
41
 31
0
  0
LINE
  8
1
 62
7
 10
41.5
 20
34
 30
0
 11
48.5
 21
34
 31
0
  0
LINE
  8
1
 62
7
 10
78.5
 20
73.5
 30
0
 11
1.5
 21
73.5
 31
0
  0
LINE
  8
1
 62
7
 10
78.5
 20
0
 30
0
 11
78.5
 21
75
 31
0
  0
LINE
  8
1
 62
7
 10
1.5
 20
1.5
 30
0
 11
78.5
 21
1.5
 31
0
  0
LINE
  8
1
 62
7
 10
1.5
 20
75
 30
0
 11
1.5
 21
0
 31
0
  0
LINE
  8
1
 62
7
 10
0
 20
75
 30
0
 11
0
 21
0
 31
0
  0
LINE
  8
1
 62
7
 10
80
 20
75
 30
0
 11
0
 21
75
 31
0
  0
LINE
  8
1
 62
7
 10
80
 20
0
 30
0
 11
80
 21
75
 31
0
  0
LINE
  8
1
 62
7
 10
0
 20
0
 30
0
 11
80
 21
0
 31
0
  0
LINE
  8
1
 62
2
  6
PHANTOM
 10
45
 20
-136
 30
0
 11
45
 21
-40.00000000000001
 31
0
  0
ARC
  8
1
 62
7
 10
45
 20
37.5
 30
0
 40
5.5
 50
180
 51
0
  0
ARC
  8
1
 62
7
 10
45
 20
37.5
 30
0
 40
5.5
 50
0
 51
180
  0
CIRCLE
  8
1
 62
7
 10
73
 20
7
 30
0
 40
2
  0
CIRCLE
  8
1
 62
7
 10
13
 20
7
 30
0
 40
2
  0
CIRCLE
  8
1
 62
7
 10
73
 20
68
 30
0
 40
2
  0
CIRCLE
  8
1
 62
7
 10
13
 20
68
 30
0
 40
2
  0
ARC
  8
1
 62
7
 10
1.5
 20
-58.00000000000001
 30
0
 40
1.5
 50
90
 51
180
  0
ARC
  8
1
 62
7
 10
78.5
 20
-58.00000000000001
 30
0
 40
1.5
 50
0
 51
90
  0
TEXT
  8
1
 62
7
 10
16.05196370530821
 20
91.6897345612135
 30
0
 40
5
  1
2203.445.00X
 41
0.9
  0
DIMENSION
  8
1
  6
CONTINUOUS
 62
1
  2
*D0
  3
DMST_1
 10
48.5
 20
52.25
 30
0
 11
45
 21
55.75
 31
0
 12
0
 22
0
 32
0
 70
0
 13
41.5
 23
41
 33
0
 14
48.5
 24
41
 34
0
 53
0
  0
DIMENSION
  8
1
  6
CONTINUOUS
 62
1
  2
*D1
  3
DMST_1
 10
50.5
 20
17.25
 30
0
 11
45
 21
20.75
 31
0
 12
0
 22
0
 32
0
 70
0
 13
39.5
 23
37.5
 33
0
 14
50.5
 24
37.5
 34
0
 53
0
  0
DIMENSION
  8
1
  6
CONTINUOUS
 62
1
  2
*D2
  3
DMST_1
 10
109.874097101869
 20
-43
 30
0
 11
106.374097101869
 21
-88
 31
0
 12
0
 22
0
 32
0
 70
0
 13
48.5
 23
-133
 33
0
 14
48.5
 24
-43
 34
0
 50
90
 53
0
  0
DIMENSION
  8
1
  6
CONTINUOUS
 62
1
  2
*D3
  3
DMST_1
 10
0
 20
7.574999999999999
 30
0
 11
-9.25
 21
11.325
 31
0
 12
0
 22
0
 32
0
 70
0
 13
-18.5
 23
22.5
 33
0
 14
0
 24
0
 34
0
 53
0
  0
DIMENSION
  8
1
  6
CONTINUOUS
 62
1
  2
*D4
  3
DMST_1
 10
80
 20
-26.75
 30
0
 11
40
 21
-23.25
 31
0
 12
0
 22
0
 32
0
 70
0
 13
0
 23
0
 33
0
 14
80
 24
0
 34
0
 53
0
  0
DIMENSION
  8
1
  6
CONTINUOUS
 62
1
  2
*D5
  3
DMST_1
 10
45
 20
-14.75
 30
0
 11
22.5
 21
-11.25
 31
0
 12
0
 22
0
 32
0
 70
0
 13
0
 23
0
 33
0
 14
45
 24
31.4068790263518
 34
0
 53
0
  0
DIMENSION
  8
1
  6
CONTINUOUS
 62
1
  2
*D6
  3
DMST_1
 10
109.998971095845
 20
75
 30
0
 11
106.498971095845
 21
37.5
 31
0
 12
0
 22
0
 32
0
 70
0
 13
80
 23
0
 33
0
 14
80
 24
75
 34
0
 50
90
 53
0
  0
DIMENSION
  8
1
  6
CONTINUOUS
 62
1
  2
*D7
  3
DMST_1
 10
94.925
 20
-56.50000000000001
 30
0
 11
91.175
 21
-49.75000000000001
 31
0
 12
0
 22
0
 32
0
 70
0
 13
48.5
 23
-43
 33
0
 14
78.5
 24
-56.50000000000001
 34
0
 50
90
 53
0
  0
DIMENSION
  8
1
  6
CONTINUOUS
 62
1
  2
*D8
  3
DMST_1
 10
94.925
 20
-95
 30
0
 11
91.425
 21
-114
 31
0
 12
0
 22
0
 32
0
 70
0
 13
48.5
 23
-133
 33
0
 14
50.4
 24
-95
 34
0
 50
90
 53
0
  0
DIMENSION
  8
1
  6
CONTINUOUS
 62
1
  2
*D9
  3
DMST_1
 10
94.925
 20
-72.5
 30
0
 11
91.175
 21
-83.75
 31
0
 12
0
 22
0
 32
0
 70
0
 13
50.4
 23
-95
 33
0
 14
80
 24
-72.5
 34
0
 50
90
 53
0
  0
DIMENSION
  8
1
  6
CONTINUOUS
 62
1
  2
*D10
  3
DMST_1
 10
94.925
 20
-56.5
 30
0
 11
91.425
 21
-64.5
 31
0
 12
0
 22
0
 32
0
 70
0
 13
80
 23
-72.5
 33
0
 14
78.5
 24
-56.50000000000001
 34
0
 50
90
 53
0
  0
DIMENSION
  8
1
  6
CONTINUOUS
 62
1
  2
*D13
  3
DMST_2
 10
-33.5971508693703
 20
-58.00000000000001
 30
0
 11
-37.0971508693703
 21
-61.5
 31
0
 12
0
 22
0
 32
0
 70
0
 13
-18.5
 23
-65
 33
0
 14
-18.5
 24
-58.00000000000001
 34
0
 50
90
 53
0
  0
DIMENSION
  8
1
  6
CONTINUOUS
 62
1
  2
*D14
  3
DMST_1
 10
-33.5836785034317
 20
22.5
 30
0
 11
-37.3336785034317
 21
11.25
 31
0
 12
0
 22
0
 32
0
 70
0
 13
0
 23
0
 33
0
 14
-18.5
 24
22.5
 34
0
 50
90
 53
0
  0
DIMENSION
  8
1
  6
CONTINUOUS
 62
1
  2
*D15
  3
DMST_1
 10
-33.5836785034317
 20
75
 30
0
 11
-37.3336785034317
 21
63.75
 31
0
 12
0
 22
0
 32
0
 70
0
 13
-18.5
 23
52.5
 33
0
 14
0
 24
75
 34
0
 50
90
 53
0
  0
DIMENSION
  8
1
  6
CONTINUOUS
 62
1
  2
*D16
  3
DMST_1
 10
-33.550091138757
 20
52.5
 30
0
 11
-37.050091138757
 21
37.5
 31
0
 12
0
 22
0
 32
0
 70
0
 13
-18.5
 23
22.5
 33
0
 14
-18.5
 24
52.5
 34
0
 50
90
 53
0
  0
DIMENSION
  8
1
  6
CONTINUOUS
 62
1
  2
*D17
  3
DMST_1
 10
94.925
 20
37.5
 30
0
 11
91.175
 21
18.75
 31
0
 12
0
 22
0
 32
0
 70
0
 13
80
 23
0
 33
0
 14
51.0931209736482
 24
37.5
 34
0
 50
90
 53
0
  0
DIMENSION
  8
1
  6
CONTINUOUS
 62
1
  2
*D18
  3
DMST_1
 10
94.925
 20
75
 30
0
 11
91.175
 21
56.25
 31
0
 12
0
 22
0
 32
0
 70
0
 13
51.0931209736482
 23
37.5
 33
0
 14
80
 24
75
 34
0
 50
90
 53
0
  0
INSERT
  8
1
  2
*D11
 10
0
 20
0
 30
0
  0
INSERT
  8
1
  2
*D12
 10
0
 20
0
 30
0
  0
ENDSEC
  0
EOF
