  0
SECTION
  2
HEADER
  9
$ACADVER
  1
AC1015
  9
$ACADMAINTVER
 70
     6
  9
$DWGCODEPAGE
  3
ANSI_1252
  9
$INSBASE
 10
0.0
 20
0.0
 30
0.0
  9
$EXTMIN
 10
0.0
 20
0.0
 30
0.0
  9
$EXTMAX
 10
420.0
 20
297.0
 30
0.0
  9
$LIMMIN
 10
0.0
 20
0.0
  9
$LIMMAX
 10
420.0
 20
297.0
  9
$ORTHOMODE
 70
     0
  9
$REGENMODE
 70
     1
  9
$FILLMODE
 70
     1
  9
$QTEXTMODE
 70
     0
  9
$MIRRTEXT
 70
     1
  9
$LTSCALE
 40
1.0
  9
$ATTMODE
 70
     1
  9
$TEXTSIZE
 40
3.5
  9
$TRACEWID
 40
1.0
  9
$TEXTSTYLE
  7
Standard
  9
$CLAYER
  8
0
  9
$CELTYPE
  6
ByLayer
  9
$CECOLOR
 62
   256
  9
$CELTSCALE
 40
1.0
  9
$DISPSILH
 70
     0
  9
$DIMSCALE
 40
1.0
  9
$DIMASZ
 40
3.3
  9
$DIMEXO
 40
0.0
  9
$DIMDLI
 40
3.75
  9
$DIMRND
 40
0.0
  9
$DIMDLE
 40
0.0
  9
$DIMEXE
 40
1.0
  9
$DIMTP
 40
0.0
  9
$DIMTM
 40
0.0
  9
$DIMTXT
 40
3.5
  9
$DIMCEN
 40
2.5
  9
$DIMTSZ
 40
0.0
  9
$DIMTOL
 70
     0
  9
$DIMLIM
 70
     0
  9
$DIMTIH
 70
     1
  9
$DIMTOH
 70
     1
  9
$DIMSE1
 70
     0
  9
$DIMSE2
 70
     0
  9
$DIMTAD
 70
     1
  9
$DIMZIN
 70
     0
  9
$DIMBLK
  1

  9
$DIMASO
 70
     1
  9
$DIMSHO
 70
     1
  9
$DIMPOST
  1

  9
$DIMAPOST
  1

  9
$DIMALT
 70
     0
  9
$DIMALTD
 70
     3
  9
$DIMALTF
 40
0.0393700787
  9
$DIMLFAC
 40
1.0
  9
$DIMTOFL
 70
     1
  9
$DIMTVP
 40
0.0
  9
$DIMTIX
 70
     0
  9
$DIMSOXD
 70
     0
  9
$DIMSAH
 70
     0
  9
$DIMBLK1
  1

  9
$DIMBLK2
  1

  9
$DIMSTYLE
  2
ISO-25
  9
$DIMCLRD
 70
     0
  9
$DIMCLRE
 70
     0
  9
$DIMCLRT
 70
     0
  9
$DIMTFAC
 40
1.0
  9
$DIMGAP
 40
1.524
  9
$DIMJUST
 70
     0
  9
$DIMSD1
 70
     0
  9
$DIMSD2
 70
     0
  9
$DIMTOLJ
 70
     0
  9
$DIMTZIN
 70
     0
  9
$DIMALTZ
 70
     0
  9
$DIMALTTZ
 70
     0
  9
$DIMUPT
 70
     0
  9
$DIMDEC
 70
     2
  9
$DIMTDEC
 70
     2
  9
$DIMALTU
 70
     2
  9
$DIMALTTD
 70
     3
  9
$DIMTXSTY
  7
Standard
  9
$DIMAUNIT
 70
     0
  9
$DIMADEC
 70
     2
  9
$DIMALTRND
 40
0.0
  9
$DIMAZIN
 70
     0
  9
$DIMDSEP
 70
    44
  9
$DIMATFIT
 70
     3
  9
$DIMFRAC
 70
     0
  9
$DIMLDRBLK
  1

  9
$DIMLUNIT
 70
     2
  9
$DIMLWD
 70
    -2
  9
$DIMLWE
 70
    -2
  9
$DIMTMOVE
 70
     0
  9
$LUNITS
 70
     2
  9
$LUPREC
 70
     2
  9
$SKETCHINC
 40
1.0
  9
$FILLETRAD
 40
10.0
  9
$AUNITS
 70
     0
  9
$AUPREC
 70
     2
  9
$MENU
  1
.
  9
$ELEVATION
 40
0.0
  9
$PELEVATION
 40
0.0
  9
$THICKNESS
 40
0.0
  9
$LIMCHECK
 70
     0
  9
$CHAMFERA
 40
10.0
  9
$CHAMFERB
 40
10.0
  9
$CHAMFERC
 40
20.0
  9
$CHAMFERD
 40
0.0
  9
$SKPOLY
 70
     0
  9
$TDCREATE
 40
2455616.54221787
  9
$TDUCREATE
 40
2455616.500551204
  9
$TDUPDATE
 40
2455616.542217882
  9
$TDUUPDATE
 40
2455616.500551215
  9
$TDINDWG
 40
0.0000000116
  9
$TDUSRTIMER
 40
0.0000000116
  9
$USRTIMER
 70
     1
  9
$ANGBASE
 50
0.0
  9
$ANGDIR
 70
     0
  9
$PDMODE
 70
     0
  9
$PDSIZE
 40
-1.0
  9
$PLINEWID
 40
0.0
  9
$SPLFRAME
 70
     0
  9
$SPLINETYPE
 70
     6
  9
$SPLINESEGS
 70
     8
  9
$HANDSEED
  5
386
  9
$SURFTAB1
 70
     6
  9
$SURFTAB2
 70
     6
  9
$SURFTYPE
 70
     6
  9
$SURFU
 70
     6
  9
$SURFV
 70
     6
  9
$UCSBASE
  2

  9
$UCSNAME
  2

  9
$UCSORG
 10
0.0
 20
0.0
 30
0.0
  9
$UCSXDIR
 10
1.0
 20
0.0
 30
0.0
  9
$UCSYDIR
 10
0.0
 20
1.0
 30
0.0
  9
$UCSORTHOREF
  2

  9
$UCSORTHOVIEW
 70
     0
  9
$UCSORGTOP
 10
0.0
 20
0.0
 30
0.0
  9
$UCSORGBOTTOM
 10
0.0
 20
0.0
 30
0.0
  9
$UCSORGLEFT
 10
0.0
 20
0.0
 30
0.0
  9
$UCSORGRIGHT
 10
0.0
 20
0.0
 30
0.0
  9
$UCSORGFRONT
 10
0.0
 20
0.0
 30
0.0
  9
$UCSORGBACK
 10
0.0
 20
0.0
 30
0.0
  9
$PUCSBASE
  2

  9
$PUCSNAME
  2

  9
$PUCSORG
 10
0.0
 20
0.0
 30
0.0
  9
$PUCSXDIR
 10
1.0
 20
0.0
 30
0.0
  9
$PUCSYDIR
 10
0.0
 20
1.0
 30
0.0
  9
$PUCSORTHOREF
  2

  9
$PUCSORTHOVIEW
 70
     0
  9
$PUCSORGTOP
 10
0.0
 20
0.0
 30
0.0
  9
$PUCSORGBOTTOM
 10
0.0
 20
0.0
 30
0.0
  9
$PUCSORGLEFT
 10
0.0
 20
0.0
 30
0.0
  9
$PUCSORGRIGHT
 10
0.0
 20
0.0
 30
0.0
  9
$PUCSORGFRONT
 10
0.0
 20
0.0
 30
0.0
  9
$PUCSORGBACK
 10
0.0
 20
0.0
 30
0.0
  9
$USERI1
 70
     0
  9
$USERI2
 70
     0
  9
$USERI3
 70
     0
  9
$USERI4
 70
     0
  9
$USERI5
 70
     0
  9
$USERR1
 40
0.0
  9
$USERR2
 40
0.0
  9
$USERR3
 40
0.0
  9
$USERR4
 40
0.0
  9
$USERR5
 40
0.0
  9
$WORLDVIEW
 70
     1
  9
$SHADEDGE
 70
     3
  9
$SHADEDIF
 70
    70
  9
$TILEMODE
 70
     1
  9
$MAXACTVP
 70
    64
  9
$PINSBASE
 10
0.0
 20
0.0
 30
0.0
  9
$PLIMCHECK
 70
     0
  9
$PEXTMIN
 10
1.0000000000E+20
 20
1.0000000000E+20
 30
1.0000000000E+20
  9
$PEXTMAX
 10
-1.0000000000E+20
 20
-1.0000000000E+20
 30
-1.0000000000E+20
  9
$PLIMMIN
 10
0.0
 20
0.0
  9
$PLIMMAX
 10
420.0
 20
297.0
  9
$UNITMODE
 70
     0
  9
$VISRETAIN
 70
     1
  9
$PLINEGEN
 70
     0
  9
$PSLTSCALE
 70
     1
  9
$TREEDEPTH
 70
  3020
  9
$CMLSTYLE
  2
Standard
  9
$CMLJUST
 70
     0
  9
$CMLSCALE
 40
20.0
  9
$PROXYGRAPHICS
 70
     1
  9
$MEASUREMENT
 70
     1
  9
$CELWEIGHT
370
    -1
  9
$ENDCAPS
280
     0
  9
$JOINSTYLE
280
     0
  9
$LWDISPLAY
290
     1
  9
$INSUNITS
 70
     4
  9
$HYPERLINKBASE
  1

  9
$STYLESHEET
  1

  9
$XEDIT
290
     1
  9
$CEPSNTYPE
380
     0
  9
$PSTYLEMODE
290
     1
  9
$FINGERPRINTGUID
  2
{34308D7B-D438-4914-9732-01373FE07EA3}
  9
$VERSIONGUID
  2
{FAEB1C32-E019-11D5-929B-00C0DF256EC4}
  9
$EXTNAMES
290
     1
  9
$PSVPSCALE
 40
0.0
  9
$OLESTARTUP
290
     0
  0
ENDSEC
  0
SECTION
  2
CLASSES
  0
CLASS
  1
ACDBDICTIONARYWDFLT
  2
AcDbDictionaryWithDefault
  3
ObjectDBX Classes
 90
        0
280
     0
281
     0
  0
CLASS
  1
VISUALSTYLE
  2
AcDbVisualStyle
  3
ObjectDBX Classes
 90
     4095
280
     0
281
     0
  0
CLASS
  1
DICTIONARYVAR
  2
AcDbDictionaryVar
  3
ObjectDBX Classes
 90
        0
280
     0
281
     0
  0
CLASS
  1
ACDBPLACEHOLDER
  2
AcDbPlaceHolder
  3
ObjectDBX Classes
 90
        0
280
     0
281
     0
  0
CLASS
  1
LAYOUT
  2
AcDbLayout
  3
ObjectDBX Classes
 90
        0
280
     0
281
     0
  0
ENDSEC
  0
SECTION
  2
TABLES
  0
TABLE
  2
VPORT
  5
8
330
0
100
AcDbSymbolTable
 70
     1
  0
VPORT
  5
29
330
8
100
AcDbSymbolTableRecord
100
AcDbViewportTableRecord
  2
*Active
 70
     0
 10
0.0
 20
0.0
 11
1.0
 21
1.0
 12
210.0
 22
148.5
 13
0.0
 23
0.0
 14
10.0
 24
10.0
 15
10.0
 25
10.0
 16
0.0
 26
0.0
 36
1.0
 17
0.0
 27
0.0
 37
0.0
 40
297.0
 41
1.4141414141
 42
50.0
 43
0.0
 44
0.0
 50
0.0
 51
0.0
 71
     0
 72
  2000
 73
     1
 74
     3
 75
     0
 76
     0
 77
     0
 78
     0
281
     0
 65
     1
110
0.0
120
0.0
130
0.0
111
1.0
121
0.0
131
0.0
112
0.0
122
1.0
132
0.0
 79
     0
146
0.0
  0
ENDTAB
  0
TABLE
  2
LTYPE
  5
5
330
0
100
AcDbSymbolTable
 70
     6
  0
LTYPE
  5
14
330
5
100
AcDbSymbolTableRecord
100
AcDbLinetypeTableRecord
  2
ByBlock
 70
     0
  3

 72
    65
 73
     0
 40
0.0
  0
LTYPE
  5
15
330
5
100
AcDbSymbolTableRecord
100
AcDbLinetypeTableRecord
  2
ByLayer
 70
     0
  3

 72
    65
 73
     0
 40
0.0
  0
LTYPE
  5
16
330
5
100
AcDbSymbolTableRecord
100
AcDbLinetypeTableRecord
  2
Continuous
 70
     0
  3
Solid line
 72
    65
 73
     0
 40
0.0
  0
LTYPE
  5
3B
330
5
100
AcDbSymbolTableRecord
100
AcDbLinetypeTableRecord
  2
HIDDEN
 70
     0
  3
Hidden __ __ __ __ __ __ __ __ __ __ __ __ __ __
 72
    65
 73
     2
 40
1.905
 49
1.27
 74
     0
 49
-0.635
 74
     0
  0
LTYPE
  5
3C
330
5
100
AcDbSymbolTableRecord
100
AcDbLinetypeTableRecord
  2
PHANTOM
 70
     0
  3
Phantom ______  __  __  ______  __  __  ______
 72
    65
 73
     6
 40
12.7
 49
6.35
 74
     0
 49
-1.27
 74
     0
 49
1.27
 74
     0
 49
-1.27
 74
     0
 49
1.27
 74
     0
 49
-1.27
 74
     0
  0
LTYPE
  5
3D
330
5
100
AcDbSymbolTableRecord
100
AcDbLinetypeTableRecord
  2
CENTER
 70
     0
  3
Center ____ _ ____ _ ____ _ ____ _ ____ _ ____
 72
    65
 73
     4
 40
10.16
 49
6.35
 74
     0
 49
-1.27
 74
     0
 49
1.27
 74
     0
 49
-1.27
 74
     0
  0
LTYPE
  5
3E
330
5
100
AcDbSymbolTableRecord
100
AcDbLinetypeTableRecord
  2
CENTERX2
 70
     0
  3
Center (2x) ________  __  ________  __  _____
 72
    65
 73
     4
 40
20.32
 49
12.7
 74
     0
 49
-2.54
 74
     0
 49
2.54
 74
     0
 49
-2.54
 74
     0
  0
LTYPE
  5
3F
330
5
100
AcDbSymbolTableRecord
100
AcDbLinetypeTableRecord
  2
DOT2
 70
     0
  3
Dot (.5x) ........................................
 72
    65
 73
     2
 40
0.635
 49
0.0
 74
     0
 49
-0.635
 74
     0
  0
ENDTAB
  0
TABLE
  2
LAYER
  5
2
330
0
100
AcDbSymbolTable
 70
     9
  0
LAYER
  5
10
330
2
100
AcDbSymbolTableRecord
100
AcDbLayerTableRecord
  2
0
 70
     0
 62
     7
  6
Continuous
370
    -3
390
F
  0
LAYER
  5
40
330
2
100
AcDbSymbolTableRecord
100
AcDbLayerTableRecord
  2
VORLAGE_TEXT
 70
     0
 62
     7
  6
Continuous
370
    -3
390
F
  0
LAYER
  5
41
330
2
100
AcDbSymbolTableRecord
100
AcDbLayerTableRecord
  2
VORLAGE_BEMASSUNG
 70
     0
 62
    -5
  6
Continuous
370
    -3
390
F
  0
LAYER
  5
42
330
2
100
AcDbSymbolTableRecord
100
AcDbLayerTableRecord
  2
TEXT
 70
     0
 62
     7
  6
Continuous
370
    -3
390
F
  0
LAYER
  5
43
330
2
100
AcDbSymbolTableRecord
100
AcDbLayerTableRecord
  2
LINIEN-DICK
 70
     0
 62
     7
  6
Continuous
370
    30
390
F
  0
LAYER
  5
44
330
2
100
AcDbSymbolTableRecord
100
AcDbLayerTableRecord
  2
LINIEN-NORMAL
 70
     0
 62
     7
  6
Continuous
370
    15
390
F
  0
LAYER
  5
45
330
2
100
AcDbSymbolTableRecord
100
AcDbLayerTableRecord
  2
LINIEN-DÜNN
 70
     0
 62
     7
  6
Continuous
370
    -3
390
F
  0
LAYER
  5
46
330
2
100
AcDbSymbolTableRecord
100
AcDbLayerTableRecord
  2
TEXT-DEUTSCH
 70
     0
 62
     7
  6
Continuous
370
    -3
390
F
  0
LAYER
  5
47
330
2
100
AcDbSymbolTableRecord
100
AcDbLayerTableRecord
  2
TEXT-ENGLISCH
 70
     0
 62
    -7
  6
Continuous
370
    -3
390
F
  0
ENDTAB
  0
TABLE
  2
STYLE
  5
3
330
0
100
AcDbSymbolTable
 70
     4
  0
STYLE
  5
11
330
3
100
AcDbSymbolTableRecord
100
AcDbTextStyleTableRecord
  2
Standard
 70
     0
 40
0.0
 41
1.0
 50
0.0
 71
     0
 42
2.5
  3
txt
  4

  0
STYLE
  5
13D
330
3
100
AcDbSymbolTableRecord
100
AcDbTextStyleTableRecord
  2
SLDTEXTSTYLE0
 70
     0
 40
0.0
 41
0.7
 50
0.0
 71
     0
 42
0.2
  3
TXT
  4

  0
STYLE
  5
16C
330
3
100
AcDbSymbolTableRecord
100
AcDbTextStyleTableRecord
  2
SLDTEXTSTYLE1
 70
     0
 40
0.0
 41
0.605
 50
0.0
 71
     0
 42
0.2
  3
TXT
  4

  0
STYLE
  5
16E
330
3
100
AcDbSymbolTableRecord
100
AcDbTextStyleTableRecord
  2
SLDTEXTSTYLE2
 70
     0
 40
0.0
 41
0.5525
 50
0.0
 71
     0
 42
0.2
  3
TXT
  4

  0
ENDTAB
  0
TABLE
  2
VIEW
  5
6
330
0
100
AcDbSymbolTable
 70
     0
  0
ENDTAB
  0
TABLE
  2
UCS
  5
7
330
0
100
AcDbSymbolTable
 70
     0
  0
ENDTAB
  0
TABLE
  2
APPID
  5
9
330
0
100
AcDbSymbolTable
 70
     1
  0
APPID
  5
12
330
9
100
AcDbSymbolTableRecord
100
AcDbRegAppTableRecord
  2
ACAD
 70
     0
  0
ENDTAB
  0
TABLE
  2
DIMSTYLE
  5
A
330
0
100
AcDbSymbolTable
 70
     8
100
AcDbDimStyleTable
  0
DIMSTYLE
105
27
330
A
100
AcDbSymbolTableRecord
100
AcDbDimStyleTableRecord
  2
ISO-25
 70
     0
 41
2.5
 42
0.625
 43
3.75
 44
1.25
 73
     0
 74
     0
 77
     1
 78
     8
140
2.5
141
2.5
143
0.0393700787
147
0.625
171
     3
172
     1
271
     2
272
     2
274
     3
278
    44
283
     0
284
     8
340
11
  0
DIMSTYLE
105
1E6
102
{ACAD_REACTORS
330
1E5
330
21F
330
24D
330
272
102
}
330
A
100
AcDbSymbolTableRecord
100
AcDbDimStyleTableRecord
  2
SLDDIMSTYLE0
 70
     0
 41
3.3
 44
0.0
 45
0.000000001
 73
     0
 74
     0
 77
     2
 78
    12
140
3.5
147
0.875
173
     1
271
     2
272
     2
284
    12
340
16C
  0
DIMSTYLE
105
1F0
102
{ACAD_REACTORS
330
1EF
330
1FD
102
}
330
A
100
AcDbSymbolTableRecord
100
AcDbDimStyleTableRecord
  2
SLDDIMSTYLE1
 70
     0
 41
3.3
 44
0.0
 45
0.000000001
 48
0.3
 71
     1
 73
     0
 74
     0
 77
     2
 78
    12
140
3.5
147
0.875
173
     1
271
     2
272
     1
284
     8
340
16C
  0
DIMSTYLE
105
20B
102
{ACAD_REACTORS
330
20A
330
215
330
22B
102
}
330
A
100
AcDbSymbolTableRecord
100
AcDbDimStyleTableRecord
  2
SLDDIMSTYLE2
 70
     0
 41
3.3
 44
0.0
 45
0.000000001
 47
0.2
 48
0.2
 71
     1
 73
     0
 74
     0
 77
     2
 78
    12
140
3.5
147
0.875
173
     1
271
     2
272
     1
284
     8
340
16C
  0
DIMSTYLE
105
237
102
{ACAD_REACTORS
330
236
330
35E
102
}
330
A
100
AcDbSymbolTableRecord
100
AcDbDimStyleTableRecord
  2
SLDDIMSTYLE3
 70
     0
 41
3.3
 44
0.0
 45
0.000000001
 73
     0
 74
     0
 77
     2
 78
    12
140
3.5
147
0.875
173
     1
271
     2
272
     2
284
    12
340
16C
  0
DIMSTYLE
105
244
102
{ACAD_REACTORS
330
243
102
}
330
A
100
AcDbSymbolTableRecord
100
AcDbDimStyleTableRecord
  2
SLDDIMSTYLE4
 70
     0
 41
3.3
 44
0.0
 45
0.000000001
 73
     0
 74
     0
 77
     2
 78
    12
140
3.5
147
0.875
173
     1
271
     2
272
     1
284
    12
340
16C
  0
DIMSTYLE
105
258
102
{ACAD_REACTORS
330
257
330
265
102
}
330
A
100
AcDbSymbolTableRecord
100
AcDbDimStyleTableRecord
  2
SLDDIMSTYLE5
 70
     0
 41
3.3
 44
0.0
 45
0.000000001
 73
     0
 74
     0
 77
     2
 78
    12
140
3.5
147
0.875
173
     1
271
     2
272
     2
284
    12
340
16C
  0
DIMSTYLE
105
27F
330
A
100
AcDbSymbolTableRecord
100
AcDbDimStyleTableRecord
  2
SLDDIMSTYLE6
 70
     0
 41
3.3
 44
0.0
 45
0.000000001
140
0.0
146
3.3
147
0.0
173
     1
271
     0
272
     0
340
11
  0
ENDTAB
  0
TABLE
  2
BLOCK_RECORD
  5
1
330
0
100
AcDbSymbolTable
 70
    34
  0
BLOCK_RECORD
  5
1F
330
1
100
AcDbSymbolTableRecord
100
AcDbBlockTableRecord
  2
*Model_Space
340
22
  0
BLOCK_RECORD
  5
1B
330
1
100
AcDbSymbolTableRecord
100
AcDbBlockTableRecord
  2
*Paper_Space
340
1E
  0
BLOCK_RECORD
  5
23
330
1
100
AcDbSymbolTableRecord
100
AcDbBlockTableRecord
  2
*Paper_Space0
340
26
  0
BLOCK_RECORD
  5
48
330
1
100
AcDbSymbolTableRecord
100
AcDbBlockTableRecord
  2
effeff Logo-0015_2
340
0
102
{BLKREFS
331
143
102
}
  0
BLOCK_RECORD
  5
137
330
1
100
AcDbSymbolTableRecord
100
AcDbBlockTableRecord
  2
effeff Logo fuer Schriftkopf
340
0
102
{BLKREFS
331
168
102
}
  0
BLOCK_RECORD
  5
13A
330
1
100
AcDbSymbolTableRecord
100
AcDbBlockTableRecord
  2
SW_NOTE_0
340
0
102
{BLKREFS
331
142
102
}
  0
BLOCK_RECORD
  5
169
330
1
100
AcDbSymbolTableRecord
100
AcDbBlockTableRecord
  2
SW_NOTE_1
340
0
102
{BLKREFS
331
171
102
}
  0
BLOCK_RECORD
  5
174
330
1
100
AcDbSymbolTableRecord
100
AcDbBlockTableRecord
  2
SW_NOTE_2
340
0
102
{BLKREFS
331
179
102
}
  0
BLOCK_RECORD
  5
17D
330
1
100
AcDbSymbolTableRecord
100
AcDbBlockTableRecord
  2
SW_NOTE_3
340
0
102
{BLKREFS
331
182
102
}
  0
BLOCK_RECORD
  5
183
330
1
100
AcDbSymbolTableRecord
100
AcDbBlockTableRecord
  2
SW_NOTE_4
340
0
102
{BLKREFS
331
188
102
}
  0
BLOCK_RECORD
  5
189
330
1
100
AcDbSymbolTableRecord
100
AcDbBlockTableRecord
  2
SW_NOTE_5
340
0
102
{BLKREFS
331
18E
102
}
  0
BLOCK_RECORD
  5
18F
330
1
100
AcDbSymbolTableRecord
100
AcDbBlockTableRecord
  2
SW_NOTE_6
340
0
102
{BLKREFS
331
194
102
}
  0
BLOCK_RECORD
  5
195
330
1
100
AcDbSymbolTableRecord
100
AcDbBlockTableRecord
  2
SW_NOTE_7
340
0
102
{BLKREFS
331
19A
102
}
  0
BLOCK_RECORD
  5
19B
330
1
100
AcDbSymbolTableRecord
100
AcDbBlockTableRecord
  2
SW_NOTE_8
340
0
102
{BLKREFS
331
1A0
102
}
  0
BLOCK_RECORD
  5
1A1
330
1
100
AcDbSymbolTableRecord
100
AcDbBlockTableRecord
  2
SW_NOTE_9
340
0
102
{BLKREFS
331
1A6
102
}
  0
BLOCK_RECORD
  5
1B5
330
1
100
AcDbSymbolTableRecord
100
AcDbBlockTableRecord
  2
SW_NOTE_10
340
0
102
{BLKREFS
331
1BA
102
}
  0
BLOCK_RECORD
  5
1E7
330
1
100
AcDbSymbolTableRecord
100
AcDbBlockTableRecord
  2
*D14
340
0
  0
BLOCK_RECORD
  5
1F1
330
1
100
AcDbSymbolTableRecord
100
AcDbBlockTableRecord
  2
*D15
340
0
  0
BLOCK_RECORD
  5
1FE
330
1
100
AcDbSymbolTableRecord
100
AcDbBlockTableRecord
  2
*D16
340
0
  0
BLOCK_RECORD
  5
20C
330
1
100
AcDbSymbolTableRecord
100
AcDbBlockTableRecord
  2
*D17
340
0
  0
BLOCK_RECORD
  5
216
330
1
100
AcDbSymbolTableRecord
100
AcDbBlockTableRecord
  2
*D18
340
0
  0
BLOCK_RECORD
  5
220
330
1
100
AcDbSymbolTableRecord
100
AcDbBlockTableRecord
  2
*D19
340
0
  0
BLOCK_RECORD
  5
22C
330
1
100
AcDbSymbolTableRecord
100
AcDbBlockTableRecord
  2
*D20
340
0
  0
BLOCK_RECORD
  5
238
330
1
100
AcDbSymbolTableRecord
100
AcDbBlockTableRecord
  2
*D21
340
0
  0
BLOCK_RECORD
  5
245
330
1
100
AcDbSymbolTableRecord
100
AcDbBlockTableRecord
  2
*D22
340
0
  0
BLOCK_RECORD
  5
24E
330
1
100
AcDbSymbolTableRecord
100
AcDbBlockTableRecord
  2
*D23
340
0
  0
BLOCK_RECORD
  5
259
330
1
100
AcDbSymbolTableRecord
100
AcDbBlockTableRecord
  2
*D24
340
0
  0
BLOCK_RECORD
  5
266
330
1
100
AcDbSymbolTableRecord
100
AcDbBlockTableRecord
  2
*D25
340
0
  0
BLOCK_RECORD
  5
273
330
1
100
AcDbSymbolTableRecord
100
AcDbBlockTableRecord
  2
*D26
340
0
  0
BLOCK_RECORD
  5
281
330
1
100
AcDbSymbolTableRecord
100
AcDbBlockTableRecord
  2
SW_CENTERMARKSYMBOL_0
340
0
102
{BLKREFS
331
28C
102
}
  0
BLOCK_RECORD
  5
28D
330
1
100
AcDbSymbolTableRecord
100
AcDbBlockTableRecord
  2
SW_CENTERMARKSYMBOL_1
340
0
102
{BLKREFS
331
298
102
}
  0
BLOCK_RECORD
  5
299
330
1
100
AcDbSymbolTableRecord
100
AcDbBlockTableRecord
  2
SW_CENTERMARKSYMBOL_2
340
0
102
{BLKREFS
331
2A4
102
}
  0
BLOCK_RECORD
  5
2A5
330
1
100
AcDbSymbolTableRecord
100
AcDbBlockTableRecord
  2
SW_CENTERMARKSYMBOL_3
340
0
102
{BLKREFS
331
2B0
102
}
  0
BLOCK_RECORD
  5
2B1
330
1
100
AcDbSymbolTableRecord
100
AcDbBlockTableRecord
  2
SW_CENTERMARKSYMBOL_4
340
0
102
{BLKREFS
331
2BC
102
}
  0
BLOCK_RECORD
  5
2BD
330
1
100
AcDbSymbolTableRecord
100
AcDbBlockTableRecord
  2
SW_CENTERMARKSYMBOL_5
340
0
102
{BLKREFS
331
2C8
102
}
  0
BLOCK_RECORD
  5
35F
330
1
100
AcDbSymbolTableRecord
100
AcDbBlockTableRecord
  2
*D33
340
0
  0
ENDTAB
  0
ENDSEC
  0
SECTION
  2
BLOCKS
  0
BLOCK
  5
20
330
1F
100
AcDbEntity
  8
0
100
AcDbBlockBegin
  2
*Model_Space
 70
     0
 10
0.0
 20
0.0
 30
0.0
  3
*Model_Space
  1

  0
ENDBLK
  5
21
330
1F
100
AcDbEntity
  8
0
100
AcDbBlockEnd
  0
BLOCK
  5
1C
330
1B
100
AcDbEntity
 67
     1
  8
0
100
AcDbBlockBegin
  2
*Paper_Space
 70
     0
 10
0.0
 20
0.0
 30
0.0
  3
*Paper_Space
  1

  0
ENDBLK
  5
1D
330
1B
100
AcDbEntity
 67
     1
  8
0
100
AcDbBlockEnd
  0
BLOCK
  5
24
330
23
100
AcDbEntity
  8
0
100
AcDbBlockBegin
  2
*Paper_Space0
 70
     0
 10
0.0
 20
0.0
 30
0.0
  3
*Paper_Space0
  1

  0
ENDBLK
  5
25
330
23
100
AcDbEntity
  8
0
100
AcDbBlockEnd
  0
BLOCK
  5
49
330
48
100
AcDbEntity
  8
0
100
AcDbBlockBegin
  2
effeff Logo-0015_2
 70
     0
 10
0.0
 20
0.0
 30
0.0
  3
effeff Logo-0015_2
  1

  0
ARC
  5
4B
330
48
100
AcDbEntity
  8
0
  6
Continuous
 62
     7
100
AcDbCircle
 10
515.3784714
 20
1868.8337909
 30
0.0
 40
17.50844250400025
100
AcDbArc
 50
14.042087
 51
119.12115
  0
ARC
  5
4C
330
48
100
AcDbEntity
  8
0
  6
Continuous
 62
     7
100
AcDbCircle
 10
483.7045163087
 20
2006.1601609315
 30
0.0
 40
38.09999730848463
100
AcDbArc
 50
294.9922136483
 51
359.3292419917
  0
ARC
  5
4D
330
48
100
AcDbEntity
  8
0
  6
Continuous
 62
     7
100
AcDbCircle
 10
643.0589882
 20
1915.0686489
 30
0.0
 40
32.43300600000046
100
AcDbArc
 50
109.81992
 51
294.69529
  0
ARC
  5
4E
330
48
100
AcDbEntity
  8
0
  6
Continuous
 62
     7
100
AcDbCircle
 10
794.1722496
 20
2333.3101289
 30
0.0
 40
101.5999999999999
100
AcDbArc
 50
359.90917
 51
114.3759
  0
ARC
  5
4F
330
48
100
AcDbEntity
  8
0
  6
Continuous
 62
     7
100
AcDbCircle
 10
651.5630098
 20
2240.8061229
 30
0.0
 40
127.0000000000007
100
AcDbArc
 50
114.3759
 51
179.32923
  0
ARC
  5
50
330
48
100
AcDbEntity
  8
0
  6
Continuous
 62
     7
100
AcDbCircle
 10
681.4108292
 20
2215.3797069
 30
0.0
 40
77.14394782000088
100
AcDbArc
 50
114.7393
 51
175.97808
  0
ARC
  5
51
330
48
100
AcDbEntity
  8
0
  6
Continuous
 62
     7
100
AcDbCircle
 10
797.635311
 20
2133.9686429
 30
0.0
 40
19.05000000000007
100
AcDbArc
 50
295.35791
 51
0.0
  0
ARC
  5
52
330
48
100
AcDbEntity
  8
0
  6
Continuous
 62
     7
100
AcDbCircle
 10
658.6788706
 20
1939.1668989
 30
0.0
 40
142.5542742
100
AcDbArc
 50
207.77528
 51
296.18968
  0
ARC
  5
53
330
48
100
AcDbEntity
  8
0
  6
Continuous
 62
     7
100
AcDbCircle
 10
1060.486957
 20
2441.7787969
 30
0.0
 40
35.71956788000017
100
AcDbArc
 50
287.70296
 51
1.02601
  0
ARC
  5
54
330
48
100
AcDbEntity
  8
0
  6
Continuous
 62
     7
100
AcDbCircle
 10
1258.6232638
 20
2785.4504489
 30
0.0
 40
42.76302090000011
100
AcDbArc
 50
281.08067
 51
84.3963
  0
ARC
  5
55
330
48
100
AcDbEntity
  8
0
  6
Continuous
 62
     7
100
AcDbCircle
 10
1253.5129616
 20
2681.0315569
 30
0.0
 40
147.2705004799994
100
AcDbArc
 50
86.384874
 51
170.97251
  0
ARC
  5
56
330
48
100
AcDbEntity
  8
0
  6
Continuous
 62
     7
100
AcDbCircle
 10
1269.7362718
 20
2650.3145749
 30
0.0
 40
93.21482753999962
100
AcDbArc
 50
91.779404
 51
182.92195
  0
ARC
  5
57
330
48
100
AcDbEntity
  8
0
  6
Continuous
 62
     7
100
AcDbCircle
 10
1525.8716498
 20
2789.8098509
 30
0.0
 40
164.2260367999999
100
AcDbArc
 50
91.783522
 51
177.30533
  0
ARC
  5
58
330
48
100
AcDbEntity
  8
0
  6
Continuous
 62
     7
100
AcDbCircle
 10
1519.8183218
 20
2908.1235589
 30
0.0
 40
45.84234672000005
100
AcDbArc
 50
272.72508
 51
88.82243
  0
ARC
  5
59
330
48
100
AcDbEntity
  8
0
  6
Continuous
 62
     7
100
AcDbCircle
 10
1523.8810518
 20
2784.6320609
 30
0.0
 40
77.72382982000023
100
AcDbArc
 50
91.388437
 51
181.80322
  0
ARC
  5
5A
330
48
100
AcDbEntity
  8
0
  6
Continuous
 62
     7
100
AcDbCircle
 10
1615.5074878
 20
2618.8203529
 30
0.0
 40
39.90822600000038
100
AcDbArc
 50
295.29521
 51
125.42294
  0
ARC
  5
5B
330
48
100
AcDbEntity
  8
0
  6
Continuous
 62
     7
100
AcDbCircle
 10
1008.9957722
 20
1626.0628769
 30
0.0
 40
94.74884022000018
100
AcDbArc
 50
251.71354
 51
299.26417
  0
ARC
  5
5C
330
48
100
AcDbEntity
  8
0
  6
Continuous
 62
     7
100
AcDbCircle
 10
959.2877182
 20
1740.4014849
 30
0.0
 40
219.1524699999996
100
AcDbArc
 50
291.00666
 51
357.16247
  0
ARC
  5
5D
330
48
100
AcDbEntity
  8
0
  6
Continuous
 62
     7
100
AcDbCircle
 10
1228.0315546
 20
1866.1142129
 30
0.0
 40
220.0308782000004
100
AcDbArc
 50
286.42885
 51
355.30262
  0
ARC
  5
5E
330
48
100
AcDbEntity
  8
0
  6
Continuous
 62
     7
100
AcDbCircle
 10
998.211618
 20
1576.0497689
 30
0.0
 40
44.0827109200002
100
AcDbArc
 50
103.02671
 51
269.56768
  0
ARC
  5
5F
330
48
100
AcDbEntity
  8
0
  6
Continuous
 62
     7
100
AcDbCircle
 10
980.6189684
 20
1732.0931449
 30
0.0
 40
113.3538068200005
100
AcDbArc
 50
273.87284
 51
1.52447
  0
ARC
  5
60
330
48
100
AcDbEntity
  8
0
  6
Continuous
 62
     7
100
AcDbCircle
 10
1943.0120398
 20
2351.6001609
 30
0.0
 40
123.1210974200003
100
AcDbArc
 50
200.58087
 51
290.78248
  0
ARC
  5
61
330
48
100
AcDbEntity
  8
0
  6
Continuous
 62
     7
100
AcDbCircle
 10
1972.1290758
 20
2651.2973009
 30
0.0
 40
80.10880599999973
100
AcDbArc
 50
114.61159
 51
180.35762
  0
ARC
  5
62
330
48
100
AcDbEntity
  8
0
  6
Continuous
 62
     7
100
AcDbCircle
 10
2079.4783658
 20
2760.2556809
 30
0.0
 40
25.76079683999982
100
AcDbArc
 50
357.28465
 51
113.30025
  0
ARC
  5
63
330
48
100
AcDbEntity
  8
0
  6
Continuous
 62
     7
100
AcDbCircle
 10
1979.5186978
 20
2658.8764069
 30
0.0
 40
168.1565039199998
100
AcDbArc
 50
112.41504
 51
183.43965
  0
ARC
  5
64
330
48
100
AcDbEntity
  8
0
  6
Continuous
 62
     7
100
AcDbCircle
 10
2079.3511118
 20
2772.1832669
 30
0.0
 40
101.8349499999999
100
AcDbArc
 50
0.0
 51
106.97704
  0
ARC
  5
65
330
48
100
AcDbEntity
  8
0
  6
Continuous
 62
     7
100
AcDbCircle
 10
2133.6657098
 20
2533.8004569
 30
0.0
 40
48.40960600000044
100
AcDbArc
 50
295.94359
 51
0.42713
  0
ARC
  5
66
330
48
100
AcDbEntity
  8
0
  6
Continuous
 62
     7
100
AcDbCircle
 10
2270.5323398
 20
2756.3854829
 30
0.0
 40
40.07551294000061
100
AcDbArc
 50
113.66313
 51
294.00122
  0
ARC
  5
67
330
48
100
AcDbEntity
  8
0
  6
Continuous
 62
     7
100
AcDbCircle
 10
2557.3064678
 20
3078.8290849
 30
0.0
 40
184.5383660000001
100
AcDbArc
 50
96.428599
 51
180.0
  0
ARC
  5
68
330
48
100
AcDbEntity
  8
0
  6
Continuous
 62
     7
100
AcDbCircle
 10
2543.0174438
 20
3218.4876829
 30
0.0
 40
44.18166678000085
100
AcDbArc
 50
272.34792
 51
98.29338
  0
ARC
  5
69
330
48
100
AcDbEntity
  8
0
  6
Continuous
 62
     7
100
AcDbCircle
 10
2552.7387858
 20
3084.7701449
 30
0.0
 40
90.0619661799995
100
AcDbArc
 50
95.043217
 51
180.0
  0
ARC
  5
6A
330
48
100
AcDbEntity
  8
0
  6
Continuous
 62
     7
100
AcDbCircle
 10
2825.4705238
 20
3212.8046869
 30
0.0
 40
178.16516818
100
AcDbArc
 50
94.705414
 51
178.23325
  0
ARC
  5
6B
330
48
100
AcDbEntity
  8
0
  6
Continuous
 62
     7
100
AcDbCircle
 10
2811.8741578
 20
3346.5024129
 30
0.0
 40
43.87863208000023
100
AcDbArc
 50
290.29752
 51
91.33061
  0
ARC
  5
6C
330
48
100
AcDbEntity
  8
0
  6
Continuous
 62
     7
100
AcDbCircle
 10
2832.4346958
 20
3200.9238369
 30
0.0
 40
104.6670779400006
100
AcDbArc
 50
103.33264
 51
180.0
  0
ARC
  5
6D
330
48
100
AcDbEntity
  8
0
  6
Continuous
 62
     7
100
AcDbCircle
 10
2896.5221978
 20
3044.7227269
 30
0.0
 40
37.94099599999992
100
AcDbArc
 50
294.19729
 51
111.34859
  0
ARC
  5
6E
330
48
100
AcDbEntity
  8
0
  6
Continuous
 62
     7
100
AcDbCircle
 10
2237.7676098
 20
2182.2098469
 30
0.0
 40
143.5912469799999
100
AcDbArc
 50
279.16205
 51
358.88757
  0
ARC
  5
6F
330
48
100
AcDbEntity
  8
0
  6
Continuous
 62
     7
100
AcDbCircle
 10
2241.3982858
 20
2174.7833949
 30
0.0
 40
221.16562066
100
AcDbArc
 50
286.92178
 51
6.06447
  0
ARC
  5
70
330
48
100
AcDbEntity
  8
0
  6
Continuous
 62
     7
100
AcDbCircle
 10
2290.3857418
 20
2006.0196989
 30
0.0
 40
45.50614724000062
100
AcDbArc
 50
130.83302
 51
289.76215
  0
ARC
  5
71
330
48
100
AcDbEntity
  8
0
  6
Continuous
 62
     7
100
AcDbCircle
 10
2554.5663158
 20
2135.6331049
 30
0.0
 40
41.07687999999993
100
AcDbArc
 50
92.959037
 51
252.07449
  0
ARC
  5
72
330
48
100
AcDbEntity
  8
0
  6
Continuous
 62
     7
100
AcDbCircle
 10
2524.1190818
 20
2298.4867289
 30
0.0
 40
125.0812839999999
100
AcDbArc
 50
278.0904
 51
0.0
  0
ARC
  5
73
330
48
100
AcDbEntity
  8
0
  6
Continuous
 62
     7
100
AcDbCircle
 10
2489.5974338
 20
2311.4727329
 30
0.0
 40
240.0881660000007
100
AcDbArc
 50
293.25446
 51
355.30477
  0
ARC
  5
74
330
48
100
AcDbEntity
  8
0
  6
Continuous
 62
     7
100
AcDbCircle
 10
2572.3099938
 20
2162.3920049
 30
0.0
 40
72.51559283999995
100
AcDbArc
 50
227.67709
 51
279.58748
  0
ARC
  5
75
330
48
100
AcDbEntity
  8
0
  6
Continuous
 62
     7
100
AcDbCircle
 10
1811.1037438
 20
2302.0693989
 30
0.0
 40
17.77999999999994
100
AcDbArc
 50
20.580869
 51
114.22398
  0
ARC
  5
76
330
48
100
AcDbEntity
  8
0
  6
Continuous
 62
     7
100
AcDbCircle
 10
791.285311
 20
2327.7018089
 30
0.0
 40
25.40000000000041
100
AcDbArc
 50
0.0
 51
116.41669
  0
ARC
  5
77
330
48
100
AcDbEntity
  8
0
  6
Continuous
 62
     7
100
AcDbCircle
 10
1938.2444598
 20
2345.4739349
 30
0.0
 40
33.02000000000029
100
AcDbArc
 50
116.48141
 51
294.93437
  0
ARC
  5
78
330
48
100
AcDbEntity
  8
0
  6
Continuous
 62
     7
100
AcDbCircle
 10
1775.7301798
 20
2441.4435169
 30
0.0
 40
38.10000000000028
100
AcDbArc
 50
295.31863
 51
0.5988
  0
ARC
  5
79
330
48
100
AcDbEntity
  8
0
  6
Continuous
 62
     7
100
AcDbCircle
 10
985.9921352
 20
2325.6891129
 30
0.0
 40
40.64000000000044
100
AcDbArc
 50
113.79896
 51
292.78069
  0
ARC
  5
7A
330
48
100
AcDbEntity
  8
0
  6
Continuous
 62
     7
100
AcDbCircle
 10
1273.3677098
 20
1700.5333909
 30
0.0
 40
48.50378666000035
100
AcDbArc
 50
104.6236
 51
290.38355
  0
ARC
  5
7B
330
48
100
AcDbEntity
  8
0
  6
Continuous
 62
     7
100
AcDbCircle
 10
1223.5584368
 20
1884.9511069
 30
0.0
 40
142.5040761800002
100
AcDbArc
 50
285.03861
 51
359.88519
  0
ARC
  5
7C
330
48
100
AcDbEntity
  8
0
  6
Continuous
 62
     7
100
AcDbCircle
 10
2347.3978198
 20
2878.5897089
 30
0.0
 40
35.56000000000034
100
AcDbArc
 50
296.25486
 51
2.92638
  0
LINE
  5
7D
330
48
100
AcDbEntity
  8
0
  6
Continuous
 62
     7
100
AcDbLine
 10
203.7813552
 20
987.5165289
 30
0.0
 11
3194.4123818
 21
987.5165289
 31
0.0
  0
LINE
  5
7E
330
48
100
AcDbEntity
  8
0
  6
Continuous
 62
     7
100
AcDbLine
 10
0.0
 20
650.4387169
 30
0.0
 11
3309.9028798
 21
652.3208569
 31
0.0
  0
LINE
  5
7F
330
48
100
AcDbEntity
  8
0
  6
Continuous
 62
     7
100
AcDbLine
 10
203.7813552
 20
3978.0302329
 30
0.0
 11
3194.4123818
 21
3978.0302329
 31
0.0
  0
LINE
  5
80
330
48
100
AcDbEntity
  8
0
  6
Continuous
 62
     7
100
AcDbLine
 10
301.56404
 20
3876.2112849
 30
0.0
 11
3101.6236418
 21
3876.2112849
 31
0.0
  0
LINE
  5
81
330
48
100
AcDbEntity
  8
0
  6
Continuous
 62
     7
100
AcDbLine
 10
301.56404
 20
1087.6021809
 30
0.0
 11
3101.6236418
 21
1087.6021809
 31
0.0
  0
LINE
  5
82
330
48
100
AcDbEntity
  8
0
  6
Continuous
 62
     7
100
AcDbLine
 10
3194.4123818
 20
987.5165289
 30
0.0
 11
3194.4123818
 21
3978.0302329
 31
0.0
  0
LINE
  5
83
330
48
100
AcDbEntity
  8
0
  6
Continuous
 62
     7
100
AcDbLine
 10
301.56404
 20
3876.2112849
 30
0.0
 11
301.56404
 21
1087.6021809
 31
0.0
  0
LINE
  5
84
330
48
100
AcDbEntity
  8
0
  6
Continuous
 62
     7
100
AcDbLine
 10
203.7813552
 20
3978.0302329
 30
0.0
 11
203.7813552
 21
987.5165289
 31
0.0
  0
LINE
  5
85
330
48
100
AcDbEntity
  8
0
  6
Continuous
 62
     7
100
AcDbLine
 10
301.56404
 20
1879.2208669
 30
0.0
 11
499.8015658
 21
1971.6278449
 31
0.0
  0
LINE
  5
86
330
48
100
AcDbEntity
  8
0
  6
Continuous
 62
     7
100
AcDbLine
 10
301.56404
 20
1788.8408089
 30
0.0
 11
506.8578382
 21
1884.1291629
 31
0.0
  0
LINE
  5
87
330
48
100
AcDbEntity
  8
0
  6
Continuous
 62
     7
100
AcDbLine
 10
521.8019028
 20
2005.7141369
 30
0.0
 11
524.5716966
 21
2242.2930389
 31
0.0
  0
LINE
  5
88
330
48
100
AcDbEntity
  8
0
  6
Continuous
 62
     7
100
AcDbLine
 10
599.147392
 20
2356.4850889
 30
0.0
 11
752.2397706
 21
2425.8532509
 31
0.0
  0
LINE
  5
89
330
48
100
AcDbEntity
  8
0
  6
Continuous
 62
     7
100
AcDbLine
 10
895.7721226
 20
2333.1490929
 30
0.0
 11
895.375908
 21
2083.2143629
 31
0.0
  0
LINE
  5
8A
330
48
100
AcDbEntity
  8
0
  6
Continuous
 62
     7
100
AcDbLine
 10
607.3407716
 20
2022.7003869
 30
0.0
 11
805.7938926
 21
2116.7543009
 31
0.0
  0
LINE
  5
8B
330
48
100
AcDbEntity
  8
0
  6
Continuous
 62
     7
100
AcDbLine
 10
816.685311
 20
2133.9686429
 30
0.0
 11
816.685311
 21
2327.7018089
 31
0.0
  0
LINE
  5
8C
330
48
100
AcDbEntity
  8
0
  6
Continuous
 62
     7
100
AcDbLine
 10
604.456881
 20
2220.7906689
 30
0.0
 11
607.3407716
 21
2022.7003869
 31
0.0
  0
LINE
  5
8D
330
48
100
AcDbEntity
  8
0
  6
Continuous
 62
     7
100
AcDbLine
 10
649.126845
 20
2285.4435749
 30
0.0
 11
779.9849526
 21
2350.4495409
 31
0.0
  0
LINE
  5
8E
330
48
100
AcDbEntity
  8
0
  6
Continuous
 62
     7
100
AcDbLine
 10
880.6118278
 20
2060.1887549
 30
0.0
 11
626.9948598
 21
1943.2441069
 31
0.0
  0
LINE
  5
8F
330
48
100
AcDbEntity
  8
0
  6
Continuous
 62
     7
100
AcDbLine
 10
656.5043766
 20
1885.5541029
 30
0.0
 11
1096.5434254
 21
2086.9585769
 31
0.0
  0
LINE
  5
90
330
48
100
AcDbEntity
  8
0
  6
Continuous
 62
     7
100
AcDbLine
 10
719.6132674
 20
1810.2921249
 30
0.0
 11
1093.932661
 21
1990.8236409
 31
0.0
  0
LINE
  5
91
330
48
100
AcDbEntity
  8
0
  6
Continuous
 62
     7
100
AcDbLine
 10
1093.932661
 20
1990.8236409
 30
0.0
 11
1093.932661
 21
1729.2343749
 31
0.0
  0
LINE
  5
92
330
48
100
AcDbEntity
  8
0
  6
Continuous
 62
     7
100
AcDbLine
 10
1178.1714816
 20
2031.9955169
 30
0.0
 11
1178.1714816
 21
1729.5523829
 31
0.0
  0
LINE
  5
93
330
48
100
AcDbEntity
  8
0
  6
Continuous
 62
     7
100
AcDbLine
 10
1096.5434254
 20
2086.9585769
 30
0.0
 11
1095.8872164
 21
2331.9474189
 31
0.0
  0
LINE
  5
94
330
48
100
AcDbEntity
  8
0
  6
Continuous
 62
     7
100
AcDbLine
 10
1176.3572358
 20
2370.2450309
 30
0.0
 11
1177.0405466
 21
2119.3801529
 31
0.0
  0
LINE
  5
95
330
48
100
AcDbEntity
  8
0
  6
Continuous
 62
     7
100
AcDbLine
 10
1177.0405466
 20
2119.3801529
 30
0.0
 11
1366.0622158
 21
2205.0970249
 31
0.0
  0
LINE
  5
96
330
48
100
AcDbEntity
  8
0
  6
Continuous
 62
     7
100
AcDbLine
 10
1176.3572358
 20
2370.2450309
 30
0.0
 11
1360.6250918
 21
2455.3980229
 31
0.0
  0
LINE
  5
97
330
48
100
AcDbEntity
  8
0
  6
Continuous
 62
     7
100
AcDbLine
 10
969.5927268
 20
2362.8731889
 30
0.0
 11
1071.348632
 21
2407.7506709
 31
0.0
  0
LINE
  5
98
330
48
100
AcDbEntity
  8
0
  6
Continuous
 62
     7
100
AcDbLine
 10
1096.2007794
 20
2442.4183689
 30
0.0
 11
1108.0666688
 21
2704.1394609
 31
0.0
  0
LINE
  5
99
330
48
100
AcDbEntity
  8
0
  6
Continuous
 62
     7
100
AcDbLine
 10
1171.2905708
 20
2455.3228389
 30
0.0
 11
1176.6427572
 21
2645.5629969
 31
0.0
  0
LINE
  5
9A
330
48
100
AcDbEntity
  8
0
  6
Continuous
 62
     7
100
AcDbLine
 10
1171.2905708
 20
2455.3228389
 30
0.0
 11
1361.5643838
 21
2544.7288069
 31
0.0
  0
LINE
  5
9B
330
48
100
AcDbEntity
  8
0
  6
Continuous
 62
     7
100
AcDbLine
 10
1361.5643838
 20
2544.7288069
 30
0.0
 11
1361.5643838
 21
2797.5306889
 31
0.0
  0
LINE
  5
9C
330
48
100
AcDbEntity
  8
0
  6
Continuous
 62
     7
100
AcDbLine
 10
1440.1207418
 20
2583.8707149
 30
0.0
 11
1446.1959138
 21
2782.1865489
 31
0.0
  0
LINE
  5
9D
330
48
100
AcDbEntity
  8
0
  6
Continuous
 62
     7
100
AcDbLine
 10
1360.6250918
 20
2455.3980229
 30
0.0
 11
1366.0622158
 21
2205.0970249
 31
0.0
  0
LINE
  5
9E
330
48
100
AcDbEntity
  8
0
  6
Continuous
 62
     7
100
AcDbLine
 10
1178.1714816
 20
2031.9955169
 30
0.0
 11
1366.0622158
 21
2113.7154449
 31
0.0
  0
LINE
  5
9F
330
48
100
AcDbEntity
  8
0
  6
Continuous
 62
     7
100
AcDbLine
 10
1443.1270858
 20
2241.9417569
 30
0.0
 11
1792.0235178
 21
2407.0031489
 31
0.0
  0
LINE
  5
A0
330
48
100
AcDbEntity
  8
0
  6
Continuous
 62
     7
100
AcDbLine
 10
1813.8281478
 20
2441.8415349
 30
0.0
 11
1811.6650838
 21
2648.7875269
 31
0.0
  0
LINE
  5
A1
330
48
100
AcDbEntity
  8
0
  6
Continuous
 62
     7
100
AcDbLine
 10
1893.2547098
 20
2453.2458809
 30
0.0
 11
2104.8613478
 21
2553.3742049
 31
0.0
  0
LINE
  5
A2
330
48
100
AcDbEntity
  8
0
  6
Continuous
 62
     7
100
AcDbLine
 10
2104.8613478
 20
2553.3742049
 30
0.0
 11
2105.2100898
 21
2759.0354649
 31
0.0
  0
LINE
  5
A3
330
48
100
AcDbEntity
  8
0
  6
Continuous
 62
     7
100
AcDbLine
 10
1803.8086098
 20
2318.2837429
 30
0.0
 11
1446.5108738
 21
2157.5281589
 31
0.0
  0
LINE
  5
A4
330
48
100
AcDbEntity
  8
0
  6
Continuous
 62
     7
100
AcDbLine
 10
1446.5108738
 20
2157.5281589
 30
0.0
 11
1447.3302778
 21
1845.4340409
 31
0.0
  0
LINE
  5
A5
330
48
100
AcDbEntity
  8
0
  6
Continuous
 62
     7
100
AcDbLine
 10
1443.1270858
 20
2241.9417569
 30
0.0
 11
1442.4384918
 21
2492.8884229
 31
0.0
  0
LINE
  5
A6
330
48
100
AcDbEntity
  8
0
  6
Continuous
 62
     7
100
AcDbLine
 10
1442.4384918
 20
2492.8884229
 30
0.0
 11
1632.5595238
 21
2582.7386369
 31
0.0
  0
LINE
  5
A7
330
48
100
AcDbEntity
  8
0
  6
Continuous
 62
     7
100
AcDbLine
 10
1440.1207418
 20
2583.8707149
 30
0.0
 11
1605.2519838
 21
2657.3884749
 31
0.0
  0
LINE
  5
A8
330
48
100
AcDbEntity
  8
0
  6
Continuous
 62
     7
100
AcDbLine
 10
1986.6980078
 20
2236.4901549
 30
0.0
 11
2381.3317118
 21
2427.5961989
 31
0.0
  0
LINE
  5
A9
330
48
100
AcDbEntity
  8
0
  6
Continuous
 62
     7
100
AcDbLine
 10
2069.1979698
 20
2783.8764109
 30
0.0
 11
1938.7664298
 21
2724.1282449
 31
0.0
  0
LINE
  5
AA
330
48
100
AcDbEntity
  8
0
  6
Continuous
 62
     7
100
AcDbLine
 10
2049.5777398
 20
2869.6740549
 30
0.0
 11
1915.3984298
 21
2814.3282169
 31
0.0
  0
LINE
  5
AB
330
48
100
AcDbEntity
  8
0
  6
Continuous
 62
     7
100
AcDbLine
 10
2154.8442298
 20
2490.2694289
 30
0.0
 11
1923.5205878
 21
2375.0293749
 31
0.0
  0
LINE
  5
AC
330
48
100
AcDbEntity
  8
0
  6
Continuous
 62
     7
100
AcDbLine
 10
2182.0753158
 20
2533.8004569
 30
0.0
 11
2181.1852998
 21
2772.5627429
 31
0.0
  0
LINE
  5
AD
330
48
100
AcDbEntity
  8
0
  6
Continuous
 62
     7
100
AcDbLine
 10
2385.2803958
 20
2516.8929469
 30
0.0
 11
1952.1649298
 21
2315.5316529
 31
0.0
  0
LINE
  5
AE
330
48
100
AcDbEntity
  8
0
  6
Continuous
 62
     7
100
AcDbLine
 10
2385.2803958
 20
2516.8929469
 30
0.0
 11
2384.5890078
 21
2763.3011409
 31
0.0
  0
LINE
  5
AF
330
48
100
AcDbEntity
  8
0
  6
Continuous
 62
     7
100
AcDbLine
 10
2363.1282938
 20
2846.6982309
 30
0.0
 11
2251.1973518
 21
2791.4882829
 31
0.0
  0
LINE
  5
B0
330
48
100
AcDbEntity
  8
0
  6
Continuous
 62
     7
100
AcDbLine
 10
2384.5890078
 20
2763.3011409
 30
0.0
 11
2286.8332978
 21
2719.7749389
 31
0.0
  0
LINE
  5
B1
330
48
100
AcDbEntity
  8
0
  6
Continuous
 62
     7
100
AcDbLine
 10
2457.8908678
 20
2542.3404449
 30
0.0
 11
2457.2114178
 21
2800.4118109
 31
0.0
  0
LINE
  5
B2
330
48
100
AcDbEntity
  8
0
  6
Continuous
 62
     7
100
AcDbLine
 10
2457.2114178
 20
2800.4118109
 30
0.0
 11
2648.4101718
 21
2891.0445989
 31
0.0
  0
LINE
  5
B3
330
48
100
AcDbEntity
  8
0
  6
Continuous
 62
     7
100
AcDbLine
 10
2648.4101718
 20
2891.0445989
 30
0.0
 11
2653.1942618
 21
2637.3331429
 31
0.0
  0
LINE
  5
B4
330
48
100
AcDbEntity
  8
0
  6
Continuous
 62
     7
100
AcDbLine
 10
2653.1942618
 20
2637.3331429
 30
0.0
 11
2457.8908678
 21
2542.3404449
 31
0.0
  0
LINE
  5
B5
330
48
100
AcDbEntity
  8
0
  6
Continuous
 62
     7
100
AcDbLine
 10
2382.9113378
 20
2880.4050469
 30
0.0
 11
2372.7681018
 21
3078.8290849
 31
0.0
  0
LINE
  5
B6
330
48
100
AcDbEntity
  8
0
  6
Continuous
 62
     7
100
AcDbLine
 10
2461.7661458
 20
2891.1561049
 30
0.0
 11
2647.3901078
 21
2975.3052889
 31
0.0
  0
LINE
  5
B7
330
48
100
AcDbEntity
  8
0
  6
Continuous
 62
     7
100
AcDbLine
 10
2461.7661458
 20
2891.1561049
 30
0.0
 11
2462.6777518
 21
3085.1933089
 31
0.0
  0
LINE
  5
B8
330
48
100
AcDbEntity
  8
0
  6
Continuous
 62
     7
100
AcDbLine
 10
2647.3901078
 20
3218.2976909
 30
0.0
 11
2647.3901078
 21
2975.3052889
 31
0.0
  0
LINE
  5
B9
330
48
100
AcDbEntity
  8
0
  6
Continuous
 62
     7
100
AcDbLine
 10
2727.7932998
 20
3203.2497149
 30
0.0
 11
2727.7932998
 21
3019.5096709
 31
0.0
  0
LINE
  5
BA
330
48
100
AcDbEntity
  8
0
  6
Continuous
 62
     7
100
AcDbLine
 10
2727.7932998
 20
3019.5096709
 30
0.0
 11
2882.7099318
 21
3080.0604769
 31
0.0
  0
LINE
  5
BB
330
48
100
AcDbEntity
  8
0
  6
Continuous
 62
     7
100
AcDbLine
 10
2727.1743018
 20
2927.0290329
 30
0.0
 11
2912.0733478
 21
3010.1154809
 31
0.0
  0
LINE
  5
BC
330
48
100
AcDbEntity
  8
0
  6
Continuous
 62
     7
100
AcDbLine
 10
2727.1743018
 20
2927.0290329
 30
0.0
 11
2725.4120498
 21
2675.2820129
 31
0.0
  0
LINE
  5
BD
330
48
100
AcDbEntity
  8
0
  6
Continuous
 62
     7
100
AcDbLine
 10
2725.4120498
 20
2675.2820129
 30
0.0
 11
3101.6236418
 21
2848.1020889
 31
0.0
  0
LINE
  5
BE
330
48
100
AcDbEntity
  8
0
  6
Continuous
 62
     7
100
AcDbLine
 10
3101.6236418
 20
2760.6884969
 30
0.0
 11
2728.8799118
 21
2590.0391049
 31
0.0
  0
LINE
  5
BF
330
48
100
AcDbEntity
  8
0
  6
Continuous
 62
     7
100
AcDbLine
 10
2728.8799118
 20
2590.0391049
 30
0.0
 11
2728.8799118
 21
2291.8202449
 31
0.0
  0
LINE
  5
C0
330
48
100
AcDbEntity
  8
0
  6
Continuous
 62
     7
100
AcDbLine
 10
2650.4975438
 20
2552.9289429
 30
0.0
 11
2461.3262178
 21
2465.8915249
 31
0.0
  0
LINE
  5
C1
330
48
100
AcDbEntity
  8
0
  6
Continuous
 62
     7
100
AcDbLine
 10
2381.3317118
 20
2179.4219429
 30
0.0
 11
2381.3317118
 21
2427.5961989
 31
0.0
  0
LINE
  5
C2
330
48
100
AcDbEntity
  8
0
  6
Continuous
 62
     7
100
AcDbLine
 10
2461.3262178
 20
2198.1491089
 30
0.0
 11
2461.3262178
 21
2465.8915249
 31
0.0
  0
LINE
  5
C3
330
48
100
AcDbEntity
  8
0
  6
Continuous
 62
     7
100
AcDbLine
 10
2650.4975438
 20
2552.9289429
 30
0.0
 11
2649.2003658
 21
2298.4867289
 31
0.0
  0
LINE
  5
C4
330
48
100
AcDbEntity
  8
0
  6
Continuous
 62
     7
100
AcDbLine
 10
3101.6236418
 20
1087.6021809
 30
0.0
 11
3101.6236418
 21
3876.2112849
 31
0.0
  0
LINE
  5
C5
330
48
100
AcDbEntity
  8
0
  6
Continuous
 62
     7
100
AcDbLine
 10
1095.8872164
 20
2331.9474189
 30
0.0
 11
1001.728121
 21
2288.2192869
 31
0.0
  0
LINE
  5
C6
330
48
100
AcDbEntity
  8
0
  6
Continuous
 62
     7
100
AcDbLine
 10
1366.0622158
 20
2113.7154449
 30
0.0
 11
1366.0622158
 21
1884.6656109
 31
0.0
  0
LINE
  5
C7
330
48
100
AcDbEntity
  8
0
  6
Continuous
 62
     7
100
AcDbLine
 10
1892.0217938
 20
2650.7971749
 30
0.0
 11
1893.2547098
 21
2453.2458809
 31
0.0
  0
LINE
  5
C8
330
48
100
AcDbEntity
  8
0
  6
Continuous
 62
     7
100
AcDbLine
 10
1221.4602698
 20
414.3388589
 30
0.0
 11
1113.547176
 21
129.9392753
 31
0.0
  0
LINE
  5
C9
330
48
100
AcDbEntity
  8
0
  6
Continuous
 62
     7
100
AcDbLine
 10
1013.7867964
 20
293.7747109
 30
0.0
 11
1099.9257402
 21
293.7747109
 31
0.0
  0
LINE
  5
CA
330
48
100
AcDbEntity
  8
0
  6
Continuous
 62
     7
100
AcDbLine
 10
546.4238246
 20
143.9009187
 30
0.0
 11
461.355948
 21
143.9009187
 31
0.0
  0
LINE
  5
CB
330
48
100
AcDbEntity
  8
0
  6
Continuous
 62
     7
100
AcDbLine
 10
461.355948
 20
143.9009187
 30
0.0
 11
360.0456604
 21
414.2631669
 31
0.0
  0
LINE
  5
CC
330
48
100
AcDbEntity
  8
0
  6
Continuous
 62
     7
100
AcDbLine
 10
360.0456604
 20
414.2631669
 30
0.0
 11
268.9420072
 21
414.2631669
 31
0.0
  0
LINE
  5
CD
330
48
100
AcDbEntity
  8
0
  6
Continuous
 62
     7
100
AcDbLine
 10
268.9420072
 20
414.2631669
 30
0.0
 11
115.6156946
 21
9.6017969
 31
0.0
  0
LINE
  5
CE
330
48
100
AcDbEntity
  8
0
  6
Continuous
 62
     7
100
AcDbLine
 10
115.6156946
 20
9.6017969
 30
0.0
 11
205.6356822
 21
9.6017969
 31
0.0
  0
LINE
  5
CF
330
48
100
AcDbEntity
  8
0
  6
Continuous
 62
     7
100
AcDbLine
 10
205.6356822
 20
9.6017969
 30
0.0
 11
237.339251
 21
99.6721781
 31
0.0
  0
LINE
  5
D0
330
48
100
AcDbEntity
  8
0
  6
Continuous
 62
     7
100
AcDbLine
 10
237.339251
 20
99.6721781
 30
0.0
 11
388.7880464
 21
99.6974003
 31
0.0
  0
LINE
  5
D1
330
48
100
AcDbEntity
  8
0
  6
Continuous
 62
     7
100
AcDbLine
 10
388.7880464
 20
99.6974003
 30
0.0
 11
419.3449322
 21
9.6017969
 31
0.0
  0
LINE
  5
D2
330
48
100
AcDbEntity
  8
0
  6
Continuous
 62
     7
100
AcDbLine
 10
419.3449322
 20
9.6017969
 30
0.0
 11
511.6582604
 21
9.6017969
 31
0.0
  0
LINE
  5
D3
330
48
100
AcDbEntity
  8
0
  6
Continuous
 62
     7
100
AcDbLine
 10
511.6582604
 20
9.6017969
 30
0.0
 11
497.4697696
 21
47.4293565
 31
0.0
  0
LINE
  5
D4
330
48
100
AcDbEntity
  8
0
  6
Continuous
 62
     7
100
AcDbLine
 10
1082.8264602
 20
48.8910503
 30
0.0
 11
1068.0331446
 21
9.6522159
 31
0.0
  0
LINE
  5
D5
330
48
100
AcDbEntity
  8
0
  6
Continuous
 62
     7
100
AcDbLine
 10
1068.0331446
 20
9.6522159
 30
0.0
 11
1158.128748
 21
9.6522159
 31
0.0
  0
LINE
  5
D6
330
48
100
AcDbEntity
  8
0
  6
Continuous
 62
     7
100
AcDbLine
 10
1158.128748
 20
9.6522159
 30
0.0
 11
1189.8575136
 21
100.0502063
 31
0.0
  0
LINE
  5
D7
330
48
100
AcDbEntity
  8
0
  6
Continuous
 62
     7
100
AcDbLine
 10
1189.8575136
 20
100.0502063
 30
0.0
 11
1341.2558138
 21
100.0754031
 31
0.0
  0
LINE
  5
D8
330
48
100
AcDbEntity
  8
0
  6
Continuous
 62
     7
100
AcDbLine
 10
1341.2558138
 20
100.0754031
 30
0.0
 11
1371.9009138
 21
9.5262065
 31
0.0
  0
LINE
  5
D9
330
48
100
AcDbEntity
  8
0
  6
Continuous
 62
     7
100
AcDbLine
 10
1371.9009138
 20
9.5262065
 30
0.0
 11
1464.3277038
 21
9.5514033
 31
0.0
  0
LINE
  5
DA
330
48
100
AcDbEntity
  8
0
  6
Continuous
 62
     7
100
AcDbLine
 10
1464.3277038
 20
9.5514033
 30
0.0
 11
1312.7907958
 21
414.3388589
 31
0.0
  0
LINE
  5
DB
330
48
100
AcDbEntity
  8
0
  6
Continuous
 62
     7
100
AcDbLine
 10
1312.7907958
 20
414.3388589
 30
0.0
 11
1221.4602698
 21
414.3388589
 31
0.0
  0
LINE
  5
DC
330
48
100
AcDbEntity
  8
0
  6
Continuous
 62
     7
100
AcDbLine
 10
260.4868806
 20
166.0279001
 30
0.0
 11
313.208543
 21
314.4398969
 31
0.0
  0
LINE
  5
DD
330
48
100
AcDbEntity
  8
0
  6
Continuous
 62
     7
100
AcDbLine
 10
314.3930212
 20
314.4398969
 30
0.0
 11
365.4135948
 21
166.0027033
 31
0.0
  0
LINE
  5
DE
330
48
100
AcDbEntity
  8
0
  6
Continuous
 62
     7
100
AcDbLine
 10
365.4135948
 20
166.0027033
 30
0.0
 11
260.4868806
 21
166.0279001
 31
0.0
  0
LINE
  5
DF
330
48
100
AcDbEntity
  8
0
  6
Continuous
 62
     7
100
AcDbLine
 10
858.935798
 20
143.9009187
 30
0.0
 11
799.9641354
 21
143.9765345
 31
0.0
  0
LINE
  5
E0
330
48
100
AcDbEntity
  8
0
  6
Continuous
 62
     7
100
AcDbLine
 10
701.0857962
 20
293.6738729
 30
0.0
 11
786.8845324
 21
293.6738729
 31
0.0
  0
LINE
  5
E1
330
48
100
AcDbEntity
  8
0
  6
Continuous
 62
     7
100
AcDbLine
 10
1212.9925448
 20
166.3303125
 30
0.0
 11
1265.7393278
 21
314.7927029
 31
0.0
  0
LINE
  5
E2
330
48
100
AcDbEntity
  8
0
  6
Continuous
 62
     7
100
AcDbLine
 10
1266.8482918
 20
314.7927029
 30
0.0
 11
1318.0074478
 21
166.3807315
 31
0.0
  0
LINE
  5
E3
330
48
100
AcDbEntity
  8
0
  6
Continuous
 62
     7
100
AcDbLine
 10
1318.0074478
 20
166.3807315
 30
0.0
 11
1212.9925448
 21
166.3303125
 31
0.0
  0
LINE
  5
E4
330
48
100
AcDbEntity
  8
0
  6
Continuous
 62
     7
100
AcDbLine
 10
2107.4841518
 20
414.1877289
 30
0.0
 11
1917.0611138
 21
414.1625829
 31
0.0
  0
LINE
  5
E5
330
48
100
AcDbEntity
  8
0
  6
Continuous
 62
     7
100
AcDbLine
 10
1917.0611138
 20
414.1625829
 30
0.0
 11
1917.2376438
 21
39.5664563
 31
0.0
  0
LINE
  5
E6
330
48
100
AcDbEntity
  8
0
  6
Continuous
 62
     7
100
AcDbLine
 10
1917.2376438
 20
39.5664563
 30
0.0
 11
1776.9656358
 21
414.2380209
 31
0.0
  0
LINE
  5
E7
330
48
100
AcDbEntity
  8
0
  6
Continuous
 62
     7
100
AcDbLine
 10
1776.9656358
 20
414.2380209
 30
0.0
 11
1685.5848178
 21
414.2631669
 31
0.0
  0
LINE
  5
E8
330
48
100
AcDbEntity
  8
0
  6
Continuous
 62
     7
100
AcDbLine
 10
1685.5848178
 20
414.2631669
 30
0.0
 11
1532.1200498
 21
9.5262065
 31
0.0
  0
LINE
  5
E9
330
48
100
AcDbEntity
  8
0
  6
Continuous
 62
     7
100
AcDbLine
 10
1532.1200498
 20
9.5262065
 30
0.0
 11
1622.3667578
 21
9.5262065
 31
0.0
  0
LINE
  5
EA
330
48
100
AcDbEntity
  8
0
  6
Continuous
 62
     7
100
AcDbLine
 10
1622.3667578
 20
9.5262065
 30
0.0
 11
1654.0072838
 21
99.6469813
 31
0.0
  0
LINE
  5
EB
330
48
100
AcDbEntity
  8
0
  6
Continuous
 62
     7
100
AcDbLine
 10
1654.0072838
 20
99.6469813
 30
0.0
 11
1805.4433538
 21
99.6469813
 31
0.0
  0
LINE
  5
EC
330
48
100
AcDbEntity
  8
0
  6
Continuous
 62
     7
100
AcDbLine
 10
1805.4433538
 20
99.6469813
 30
0.0
 11
1836.0130158
 21
9.6269937
 31
0.0
  0
LINE
  5
ED
330
48
100
AcDbEntity
  8
0
  6
Continuous
 62
     7
100
AcDbLine
 10
1836.0130158
 20
9.6269937
 30
0.0
 11
1928.4773978
 21
9.6522159
 31
0.0
  0
LINE
  5
EE
330
48
100
AcDbEntity
  8
0
  6
Continuous
 62
     7
100
AcDbLine
 10
1928.4271058
 20
9.6269937
 30
0.0
 11
2113.4569618
 21
9.5514033
 31
0.0
  0
LINE
  5
EF
330
48
100
AcDbEntity
  8
0
  6
Continuous
 62
     7
100
AcDbLine
 10
1677.2178038
 20
165.9522843
 30
0.0
 11
1729.9901138
 21
314.4901889
 31
0.0
  0
LINE
  5
F0
330
48
100
AcDbEntity
  8
0
  6
Continuous
 62
     7
100
AcDbLine
 10
1731.1239698
 20
314.4901889
 30
0.0
 11
1782.1825418
 21
165.9522843
 31
0.0
  0
LINE
  5
F1
330
48
100
AcDbEntity
  8
0
  6
Continuous
 62
     7
100
AcDbLine
 10
1782.1825418
 20
165.9522843
 30
0.0
 11
1677.2178038
 21
165.9522843
 31
0.0
  0
LINE
  5
F2
330
48
100
AcDbEntity
  8
0
  6
Continuous
 62
     7
100
AcDbLine
 10
2006.1739658
 20
345.3621109
 30
0.0
 11
2089.4145918
 21
345.3621109
 31
0.0
  0
LINE
  5
F3
330
48
100
AcDbEntity
  8
0
  6
Continuous
 62
     7
100
AcDbLine
 10
2096.4206738
 20
250.6295089
 30
0.0
 11
2006.1991118
 21
250.5792169
 31
0.0
  0
LINE
  5
F4
330
48
100
AcDbEntity
  8
0
  6
Continuous
 62
     7
100
AcDbLine
 10
2006.1991118
 20
250.5792169
 30
0.0
 11
2006.1739658
 21
345.3621109
 31
0.0
  0
LINE
  5
F5
330
48
100
AcDbEntity
  8
0
  6
Continuous
 62
     7
100
AcDbLine
 10
2101.5367418
 20
78.9313001
 30
0.0
 11
2006.2748038
 21
78.9061033
 31
0.0
  0
LINE
  5
F6
330
48
100
AcDbEntity
  8
0
  6
Continuous
 62
     7
100
AcDbLine
 10
2006.2748038
 20
78.9061033
 30
0.0
 11
2006.1991118
 21
190.0197749
 31
0.0
  0
LINE
  5
F7
330
48
100
AcDbEntity
  8
0
  6
Continuous
 62
     7
100
AcDbLine
 10
2006.1991118
 20
190.0197749
 30
0.0
 11
2103.1496418
 21
190.0449209
 31
0.0
  0
LINE
  5
F8
330
48
100
AcDbEntity
  8
0
  6
Continuous
 62
     7
100
AcDbLine
 10
2509.0711058
 20
85.0804877
 30
0.0
 11
2358.2398098
 21
85.0804877
 31
0.0
  0
LINE
  5
F9
330
48
100
AcDbEntity
  8
0
  6
Continuous
 62
     7
100
AcDbLine
 10
2358.2398098
 20
85.0804877
 30
0.0
 11
2358.1389718
 21
414.2380209
 31
0.0
  0
LINE
  5
FA
330
48
100
AcDbEntity
  8
0
  6
Continuous
 62
     7
100
AcDbLine
 10
2358.1389718
 20
414.2380209
 30
0.0
 11
2269.2529418
 21
414.2128749
 31
0.0
  0
LINE
  5
FB
330
48
100
AcDbEntity
  8
0
  6
Continuous
 62
     7
100
AcDbLine
 10
2269.2529418
 20
414.2128749
 30
0.0
 11
2269.2783418
 21
9.5514033
 31
0.0
  0
LINE
  5
FC
330
48
100
AcDbEntity
  8
0
  6
Continuous
 62
     7
100
AcDbLine
 10
2269.2783418
 20
9.5514033
 30
0.0
 11
2527.4683258
 21
9.5514033
 31
0.0
  0
LINE
  5
FD
330
48
100
AcDbEntity
  8
0
  6
Continuous
 62
     7
100
AcDbLine
 10
2527.4683258
 20
9.5514033
 30
0.0
 11
2527.4683258
 21
60.8617909
 31
0.0
  0
LINE
  5
FE
330
48
100
AcDbEntity
  8
0
  6
Continuous
 62
     7
100
AcDbLine
 10
3098.4600718
 20
414.2631669
 30
0.0
 11
3004.5085198
 21
254.8634349
 31
0.0
  0
LINE
  5
FF
330
48
100
AcDbEntity
  8
0
  6
Continuous
 62
     7
100
AcDbLine
 10
3004.5085198
 20
254.8634349
 30
0.0
 11
2909.7759178
 21
414.2631669
 31
0.0
  0
LINE
  5
100
330
48
100
AcDbEntity
  8
0
  6
Continuous
 62
     7
100
AcDbLine
 10
2909.7759178
 20
414.2631669
 30
0.0
 11
2809.3981658
 21
414.2631669
 31
0.0
  0
LINE
  5
101
330
48
100
AcDbEntity
  8
0
  6
Continuous
 62
     7
100
AcDbLine
 10
2809.3981658
 20
414.2631669
 30
0.0
 11
2958.4400318
 21
167.6911937
 31
0.0
  0
LINE
  5
102
330
48
100
AcDbEntity
  8
0
  6
Continuous
 62
     7
100
AcDbLine
 10
2958.4400318
 20
167.6911937
 30
0.0
 11
2958.4400318
 21
9.6269937
 31
0.0
  0
LINE
  5
103
330
48
100
AcDbEntity
  8
0
  6
Continuous
 62
     7
100
AcDbLine
 10
2958.4400318
 20
9.6269937
 30
0.0
 11
3047.4771918
 21
9.6269937
 31
0.0
  0
LINE
  5
104
330
48
100
AcDbEntity
  8
0
  6
Continuous
 62
     7
100
AcDbLine
 10
3047.4771918
 20
9.6269937
 30
0.0
 11
3047.4520458
 21
165.4482721
 31
0.0
  0
LINE
  5
105
330
48
100
AcDbEntity
  8
0
  6
Continuous
 62
     7
100
AcDbLine
 10
3047.4520458
 20
165.4482721
 30
0.0
 11
3197.6534218
 21
414.2885669
 31
0.0
  0
LINE
  5
106
330
48
100
AcDbEntity
  8
0
  6
Continuous
 62
     7
100
AcDbLine
 10
3197.6534218
 20
414.2885669
 30
0.0
 11
3098.4600718
 21
414.2631669
 31
0.0
  0
LINE
  5
107
330
48
100
AcDbEntity
  8
0
  6
Continuous
 62
     7
100
AcDbLine
 10
0.0
 20
851.0987169
 30
0.0
 11
0.0
 21
650.4387169
 31
0.0
  0
LINE
  5
108
330
48
100
AcDbEntity
  8
0
  6
Continuous
 62
     7
100
AcDbLine
 10
3309.9028798
 20
652.3208569
 30
0.0
 11
3309.9028798
 21
539.6586489
 31
0.0
  0
LINE
  5
109
330
48
100
AcDbEntity
  8
0
  6
Continuous
 62
     7
100
AcDbLine
 10
3398.8028798
 20
539.6586489
 30
0.0
 11
3309.9028798
 21
539.6586489
 31
0.0
  0
LINE
  5
10A
330
48
100
AcDbEntity
  8
0
  6
Continuous
 62
     7
100
AcDbLine
 10
3398.8028798
 20
741.2714029
 30
0.0
 11
3398.8028798
 21
539.6586489
 31
0.0
  0
LINE
  5
10B
330
48
100
AcDbEntity
  8
0
  6
Continuous
 62
     7
100
AcDbLine
 10
88.9
 20
739.3892629
 30
0.0
 11
3398.8028798
 21
741.2714029
 31
0.0
  0
LINE
  5
10C
330
48
100
AcDbEntity
  8
0
  6
Continuous
 62
     7
100
AcDbLine
 10
88.9
 20
851.1492629
 30
0.0
 11
88.9
 21
739.3892629
 31
0.0
  0
LINE
  5
10D
330
48
100
AcDbEntity
  8
0
  6
Continuous
 62
     7
100
AcDbLine
 10
0.0
 20
851.0987169
 30
0.0
 11
88.9
 21
851.1492629
 31
0.0
  0
SPLINE
  5
10E
330
48
100
AcDbEntity
  8
0
  6
Continuous
 62
     7
100
AcDbSpline
210
0.0
220
0.0
230
1.0
 70
     8
 71
     3
 72
     8
 73
     4
 74
     0
 42
0.00000001
 43
0.00000001
 40
1.0
 40
1.0
 40
1.0
 40
1.0
 40
2.0
 40
2.0
 40
2.0
 40
2.0
 10
1113.547176000002
 20
129.9392752999995
 30
0.0
 10
1113.395969800002
 20
221.8241308999995
 30
0.0
 10
1022.846747800001
 20
240.5236108999995
 30
0.0
 10
993.3357324000011
 20
247.7565148999994
 30
0.0
  0
SPLINE
  5
10F
330
48
100
AcDbEntity
  8
0
  6
Continuous
 62
     7
100
AcDbSpline
210
0.0
220
0.0
230
1.0
 70
     8
 71
     3
 72
     8
 73
     4
 74
     0
 42
0.00000001
 43
0.00000001
 40
2.0
 40
2.0
 40
2.0
 40
2.0
 40
3.0
 40
3.0
 40
3.0
 40
3.0
 10
993.3357324000011
 20
247.7565148999994
 30
0.0
 10
891.8742386000007
 20
273.9408668999994
 30
0.0
 10
872.6202258000013
 20
277.6708568999995
 30
0.0
 10
872.5824306000014
 20
309.0215688999991
 30
0.0
  0
SPLINE
  5
110
330
48
100
AcDbEntity
  8
0
  6
Continuous
 62
     7
100
AcDbSpline
210
0.0
220
0.0
230
1.0
 70
     8
 71
     3
 72
     8
 73
     4
 74
     0
 42
0.00000001
 43
0.00000001
 40
3.0
 40
3.0
 40
3.0
 40
3.0
 40
4.0
 40
4.0
 40
4.0
 40
4.0
 10
872.5824306000014
 20
309.0215688999991
 30
0.0
 10
872.6202258000013
 20
343.0689988999993
 30
0.0
 10
905.4956744000018
 20
354.9135268999995
 30
0.0
 10
933.7844418000012
 20
354.8883808999994
 30
0.0
  0
SPLINE
  5
111
330
48
100
AcDbEntity
  8
0
  6
Continuous
 62
     7
100
AcDbSpline
210
0.0
220
0.0
230
1.0
 70
     8
 71
     3
 72
     8
 73
     4
 74
     0
 42
0.00000001
 43
0.00000001
 40
4.0
 40
4.0
 40
4.0
 40
4.0
 40
5.0
 40
5.0
 40
5.0
 40
5.0
 10
933.7844418000012
 20
354.8883808999994
 30
0.0
 10
976.4002824000011
 20
354.9135268999995
 30
0.0
 10
1010.901204
 20
342.4891168999995
 30
0.0
 10
1013.786796400001
 20
293.7747108999993
 30
0.0
  0
SPLINE
  5
112
330
48
100
AcDbEntity
  8
0
  6
Continuous
 62
     7
100
AcDbSpline
210
0.0
220
0.0
230
1.0
 70
     8
 71
     3
 72
     8
 73
     4
 74
     0
 42
0.00000001
 43
0.00000001
 40
6.0
 40
6.0
 40
6.0
 40
6.0
 40
7.0
 40
7.0
 40
7.0
 40
7.0
 10
1099.925740200001
 20
293.7747108999993
 30
0.0
 10
1099.812329200001
 20
387.3229108999996
 30
0.0
 10
1022.191504000001
 20
424.0668048999994
 30
0.0
 10
937.8166918000011
 20
424.0414048999992
 30
0.0
  0
SPLINE
  5
113
330
48
100
AcDbEntity
  8
0
  6
Continuous
 62
     7
100
AcDbSpline
210
0.0
220
0.0
230
1.0
 70
     8
 71
     3
 72
     8
 73
     4
 74
     0
 42
0.00000001
 43
0.00000001
 40
7.0
 40
7.0
 40
7.0
 40
7.0
 40
8.0
 40
8.0
 40
8.0
 40
8.0
 10
937.8166918000011
 20
424.0414048999992
 30
0.0
 10
865.538604200001
 20
424.1170968999994
 30
0.0
 10
788.5982196000017
 20
385.3066588999994
 30
0.0
 10
786.657710400001
 20
304.7624968999996
 30
0.0
  0
SPLINE
  5
114
330
48
100
AcDbEntity
  8
0
  6
Continuous
 62
     7
100
AcDbSpline
210
0.0
220
0.0
230
1.0
 70
     8
 71
     3
 72
     8
 73
     4
 74
     0
 42
0.00000001
 43
0.00000001
 40
8.0
 40
8.0
 40
8.0
 40
8.0
 40
9.0
 40
9.0
 40
9.0
 40
9.0
 10
786.657710400001
 20
304.7624968999996
 30
0.0
 10
780.6093354000012
 20
389.9942288999996
 30
0.0
 10
706.0757024000015
 20
423.9659668999996
 30
0.0
 10
624.9266902000014
 20
423.8651288999993
 30
0.0
  0
SPLINE
  5
115
330
48
100
AcDbEntity
  8
0
  6
Continuous
 62
     7
100
AcDbSpline
210
0.0
220
0.0
230
1.0
 70
     8
 71
     3
 72
     8
 73
     4
 74
     0
 42
0.00000001
 43
0.00000001
 40
9.0
 40
9.0
 40
9.0
 40
9.0
 40
10.0
 40
10.0
 40
10.0
 40
10.0
 10
624.9266902000014
 20
423.8651288999993
 30
0.0
 10
551.9807604000011
 20
423.8902748999993
 30
0.0
 10
473.7803072000011
 20
384.1222568999996
 30
0.0
 10
473.8307008000016
 20
301.4610048999993
 30
0.0
  0
SPLINE
  5
116
330
48
100
AcDbEntity
  8
0
  6
Continuous
 62
     7
100
AcDbSpline
210
0.0
220
0.0
230
1.0
 70
     8
 71
     3
 72
     8
 73
     4
 74
     0
 42
0.00000001
 43
0.00000001
 40
10.0
 40
10.0
 40
10.0
 40
10.0
 40
11.0
 40
11.0
 40
11.0
 40
11.0
 10
473.8307008000016
 20
301.4610048999993
 30
0.0
 10
473.8307008000016
 20
225.4027368999991
 30
0.0
 10
534.4908792000007
 20
202.2930548999993
 30
0.0
 10
594.5462074000014
 20
186.4411688999996
 30
0.0
  0
SPLINE
  5
117
330
48
100
AcDbEntity
  8
0
  6
Continuous
 62
     7
100
AcDbSpline
210
0.0
220
0.0
230
1.0
 70
     8
 71
     3
 72
     8
 73
     4
 74
     0
 42
0.00000001
 43
0.00000001
 40
11.0
 40
11.0
 40
11.0
 40
11.0
 40
12.0
 40
12.0
 40
12.0
 40
12.0
 10
594.5462074000014
 20
186.4411688999996
 30
0.0
 10
654.1100964000011
 20
170.5641876999993
 30
0.0
 10
714.7324542000009
 20
163.2305218999996
 30
0.0
 10
714.6694368000012
 20
119.6318282999993
 30
0.0
  0
SPLINE
  5
118
330
48
100
AcDbEntity
  8
0
  6
Continuous
 62
     7
100
AcDbSpline
210
0.0
220
0.0
230
1.0
 70
     8
 71
     3
 72
     8
 73
     4
 74
     0
 42
0.00000001
 43
0.00000001
 40
12.0
 40
12.0
 40
12.0
 40
12.0
 40
13.0
 40
13.0
 40
13.0
 40
13.0
 10
714.6694368000012
 20
119.6318282999993
 30
0.0
 10
714.7072574000015
 20
78.27605629999911
 30
0.0
 10
667.1519042000016
 20
69.22870329999941
 30
0.0
 10
636.027963400001
 20
69.10269389999968
 30
0.0
  0
SPLINE
  5
119
330
48
100
AcDbEntity
  8
0
  6
Continuous
 62
     7
100
AcDbSpline
210
0.0
220
0.0
230
1.0
 70
     8
 71
     3
 72
     8
 73
     4
 74
     0
 42
0.00000001
 43
0.00000001
 40
13.0
 40
13.0
 40
13.0
 40
13.0
 40
14.0
 40
14.0
 40
14.0
 40
14.0
 10
636.027963400001
 20
69.10269389999968
 30
0.0
 10
588.3466008000014
 20
69.0523002999992
 30
0.0
 10
546.4994150000014
 20
90.09559069999939
 30
0.0
 10
546.4238246000015
 20
143.9009186999996
 30
0.0
  0
SPLINE
  5
11A
330
48
100
AcDbEntity
  8
0
  6
Continuous
 62
     7
100
AcDbSpline
210
0.0
220
0.0
230
1.0
 70
     8
 71
     3
 72
     8
 73
     4
 74
     0
 42
0.00000001
 43
0.00000001
 40
24.0
 40
24.0
 40
24.0
 40
24.0
 40
25.0
 40
25.0
 40
25.0
 40
25.0
 10
497.4697696000012
 20
47.42935649999946
 30
0.0
 10
530.105797800001
 20
15.09574069999919
 30
0.0
 10
580.2569040000014
 20
-0.0504063000001942
 30
0.0
 10
632.6005636000014
 20
0.0504062999997501
 30
0.0
  0
SPLINE
  5
11B
330
48
100
AcDbEntity
  8
0
  6
Continuous
 62
     7
100
AcDbSpline
210
0.0
220
0.0
230
1.0
 70
     8
 71
     3
 72
     8
 73
     4
 74
     0
 42
0.00000001
 43
0.00000001
 40
25.0
 40
25.0
 40
25.0
 40
25.0
 40
26.0
 40
26.0
 40
26.0
 40
26.0
 10
632.6005636000014
 20
0.0504062999997501
 30
0.0
 10
713.5983696000005
 20
-0.0251841000005193
 30
0.0
 10
766.559452400001
 20
30.26708449999971
 30
0.0
 10
788.8124432000012
 20
75.90712529999965
 30
0.0
  0
SPLINE
  5
11C
330
48
100
AcDbEntity
  8
0
  6
Continuous
 62
     7
100
AcDbSpline
210
0.0
220
0.0
230
1.0
 70
     8
 71
     3
 72
     8
 73
     4
 74
     0
 42
0.00000001
 43
0.00000001
 40
26.0
 40
26.0
 40
26.0
 40
26.0
 40
27.0
 40
27.0
 40
27.0
 40
27.0
 10
788.8124432000012
 20
75.90712529999965
 30
0.0
 10
817.1390058000005
 20
23.94149389999933
 30
0.0
 10
879.6388808000008
 20
0.1008252999992187
 30
0.0
 10
945.3771542000018
 20
0.1764156999994881
 30
0.0
  0
SPLINE
  5
11D
330
48
100
AcDbEntity
  8
0
  6
Continuous
 62
     7
100
AcDbSpline
210
0.0
220
0.0
230
1.0
 70
     8
 71
     3
 72
     8
 73
     4
 74
     0
 42
0.00000001
 43
0.00000001
 40
27.0
 40
27.0
 40
27.0
 40
27.0
 40
28.0
 40
28.0
 40
28.0
 40
28.0
 10
945.3771542000018
 20
0.1764156999994881
 30
0.0
 10
1008.910275800001
 20
0.1764156999994881
 30
0.0
 10
1055.079551000001
 20
18.85077509999977
 30
0.0
 10
1082.826460200001
 20
48.89105029999952
 30
0.0
  0
SPLINE
  5
11E
330
48
100
AcDbEntity
  8
0
  6
Continuous
 62
     7
100
AcDbSpline
210
0.0
220
0.0
230
1.0
 70
     8
 71
     3
 72
     8
 73
     4
 74
     0
 42
0.00000001
 43
0.00000001
 40
0.0
 40
0.0
 40
0.0
 40
0.0
 40
1.0
 40
1.0
 40
1.0
 40
1.0
 10
948.5525352000019
 20
69.32951589999936
 30
0.0
 10
901.047601000001
 20
69.22870329999941
 30
0.0
 10
859.0870042000018
 20
90.24679689999937
 30
0.0
 10
858.935798000001
 20
143.9009186999996
 30
0.0
  0
SPLINE
  5
11F
330
48
100
AcDbEntity
  8
0
  6
Continuous
 62
     7
100
AcDbSpline
210
0.0
220
0.0
230
1.0
 70
     8
 71
     3
 72
     8
 73
     4
 74
     0
 42
0.00000001
 43
0.00000001
 40
2.0
 40
2.0
 40
2.0
 40
2.0
 40
3.0
 40
3.0
 40
3.0
 40
3.0
 10
799.9641354000007
 20
143.9765344999997
 30
0.0
 10
791.1561774000013
 20
223.5630148999994
 30
0.0
 10
708.5832666000016
 20
240.6749948999991
 30
0.0
 10
680.584338600001
 20
247.6810768999993
 30
0.0
  0
SPLINE
  5
120
330
48
100
AcDbEntity
  8
0
  6
Continuous
 62
     7
100
AcDbSpline
210
0.0
220
0.0
230
1.0
 70
     8
 71
     3
 72
     8
 73
     4
 74
     0
 42
0.00000001
 43
0.00000001
 40
3.0
 40
3.0
 40
3.0
 40
3.0
 40
4.0
 40
4.0
 40
4.0
 40
4.0
 10
680.584338600001
 20
247.6810768999993
 30
0.0
 10
579.324444600001
 20
273.7142988999994
 30
0.0
 10
559.9696446000015
 20
277.7716948999998
 30
0.0
 10
559.919251000001
 20
308.8198928999994
 30
0.0
  0
SPLINE
  5
121
330
48
100
AcDbEntity
  8
0
  6
Continuous
 62
     7
100
AcDbSpline
210
0.0
220
0.0
230
1.0
 70
     8
 71
     3
 72
     8
 73
     4
 74
     0
 42
0.00000001
 43
0.00000001
 40
4.0
 40
4.0
 40
4.0
 40
4.0
 40
5.0
 40
5.0
 40
5.0
 40
5.0
 10
559.919251000001
 20
308.8198928999994
 30
0.0
 10
560.0452604000017
 20
342.8924688999992
 30
0.0
 10
592.8072980000012
 20
354.8126888999996
 30
0.0
 10
621.1212368000014
 20
354.7372508999991
 30
0.0
  0
SPLINE
  5
122
330
48
100
AcDbEntity
  8
0
  6
Continuous
 62
     7
100
AcDbSpline
210
0.0
220
0.0
230
1.0
 70
     8
 71
     3
 72
     8
 73
     4
 74
     0
 42
0.00000001
 43
0.00000001
 40
5.0
 40
5.0
 40
5.0
 40
5.0
 40
6.0
 40
6.0
 40
6.0
 40
6.0
 10
621.1212368000014
 20
354.7372508999991
 30
0.0
 10
663.6992822000014
 20
354.7372508999991
 30
0.0
 10
698.1498102000012
 20
342.4136788999994
 30
0.0
 10
701.085796200001
 20
293.6738728999995
 30
0.0
  0
SPLINE
  5
123
330
48
100
AcDbEntity
  8
0
  6
Continuous
 62
     7
100
AcDbSpline
210
0.0
220
0.0
230
1.0
 70
     8
 71
     3
 72
     8
 73
     4
 74
     0
 42
0.00000001
 43
0.00000001
 40
7.0
 40
7.0
 40
7.0
 40
7.0
 40
8.0
 40
8.0
 40
8.0
 40
8.0
 10
786.8845324000011
 20
293.6738728999995
 30
0.0
 10
791.0931854000012
 20
224.0672048999994
 30
0.0
 10
849.2835948000011
 20
201.7888648999997
 30
0.0
 10
907.1715918000009
 20
186.6428448999997
 30
0.0
  0
SPLINE
  5
124
330
48
100
AcDbEntity
  8
0
  6
Continuous
 62
     7
100
AcDbSpline
210
0.0
220
0.0
230
1.0
 70
     8
 71
     3
 72
     8
 73
     4
 74
     0
 42
0.00000001
 43
0.00000001
 40
8.0
 40
8.0
 40
8.0
 40
8.0
 40
9.0
 40
9.0
 40
9.0
 40
9.0
 10
907.1715918000009
 20
186.6428448999997
 30
0.0
 10
966.7480792000011
 20
170.7909842999995
 30
0.0
 10
1027.446027400001
 20
163.4573438999993
 30
0.0
 10
1027.458625800001
 20
119.7830344999993
 30
0.0
  0
SPLINE
  5
125
330
48
100
AcDbEntity
  8
0
  6
Continuous
 62
     7
100
AcDbSpline
210
0.0
220
0.0
230
1.0
 70
     8
 71
     3
 72
     8
 73
     4
 74
     0
 42
0.00000001
 43
0.00000001
 40
9.0
 40
9.0
 40
9.0
 40
9.0
 40
10.0
 40
10.0
 40
10.0
 40
10.0
 10
1027.458625800001
 20
119.7830344999993
 30
0.0
 10
1027.446027400001
 20
78.45245929999933
 30
0.0
 10
979.9032980000009
 20
69.3547126999996
 30
0.0
 10
948.5525352000019
 20
69.32951589999936
 30
0.0
  0
SPLINE
  5
126
330
48
100
AcDbEntity
  8
0
  6
Continuous
 62
     7
100
AcDbSpline
210
0.0
220
0.0
230
1.0
 70
     8
 71
     3
 72
     8
 73
     4
 74
     0
 42
0.00000001
 43
0.00000001
 40
0.0
 40
0.0
 40
0.0
 40
0.0
 40
1.0
 40
1.0
 40
1.0
 40
1.0
 10
2181.828681800002
 20
229.6366628999995
 30
0.0
 10
2217.0353678
 20
246.6729508999994
 30
0.0
 10
2236.818665800001
 20
274.4953488999995
 30
0.0
 10
2236.9195038
 20
314.1879288999991
 30
0.0
  0
SPLINE
  5
127
330
48
100
AcDbEntity
  8
0
  6
Continuous
 62
     7
100
AcDbSpline
210
0.0
220
0.0
230
1.0
 70
     8
 71
     3
 72
     8
 73
     4
 74
     0
 42
0.00000001
 43
0.00000001
 40
1.0
 40
1.0
 40
1.0
 40
1.0
 40
2.0
 40
2.0
 40
2.0
 40
2.0
 10
2236.9195038
 20
314.1879288999991
 30
0.0
 10
2236.818665800001
 20
389.4900388999995
 30
0.0
 10
2184.676529800002
 20
414.4648428999993
 30
0.0
 10
2107.4841518
 20
414.1877288999996
 30
0.0
  0
SPLINE
  5
128
330
48
100
AcDbEntity
  8
0
  6
Continuous
 62
     7
100
AcDbSpline
210
0.0
220
0.0
230
1.0
 70
     8
 71
     3
 72
     8
 73
     4
 74
     0
 42
0.00000001
 43
0.00000001
 40
14.0
 40
14.0
 40
14.0
 40
14.0
 40
15.0
 40
15.0
 40
15.0
 40
15.0
 10
2113.456961800002
 20
9.551403299999706
 30
0.0
 10
2186.516251800002
 20
9.727806299999475
 30
0.0
 10
2256.148319800001
 20
45.03520329999944
 30
0.0
 10
2256.223757800002
 20
127.2174874999994
 30
0.0
  0
SPLINE
  5
129
330
48
100
AcDbEntity
  8
0
  6
Continuous
 62
     7
100
AcDbSpline
210
0.0
220
0.0
230
1.0
 70
     8
 71
     3
 72
     8
 73
     4
 74
     0
 42
0.00000001
 43
0.00000001
 40
15.0
 40
15.0
 40
15.0
 40
15.0
 40
16.0
 40
16.0
 40
16.0
 40
16.0
 10
2256.223757800002
 20
127.2174874999994
 30
0.0
 10
2256.148319800001
 20
177.6710568999995
 30
0.0
 10
2231.173515800001
 20
215.5742068999995
 30
0.0
 10
2181.828681800002
 20
229.6366628999995
 30
0.0
  0
SPLINE
  5
12A
330
48
100
AcDbEntity
  8
0
  6
Continuous
 62
     7
100
AcDbSpline
210
0.0
220
0.0
230
1.0
 70
     8
 71
     3
 72
     8
 73
     4
 74
     0
 42
0.00000001
 43
0.00000001
 40
1.0
 40
1.0
 40
1.0
 40
1.0
 40
2.0
 40
2.0
 40
2.0
 40
2.0
 10
2089.414591800002
 20
345.3621108999995
 30
0.0
 10
2121.092963800002
 20
345.2866728999995
 30
0.0
 10
2150.654499800001
 20
337.3984488999997
 30
0.0
 10
2150.755337800002
 20
298.8653788999995
 30
0.0
  0
SPLINE
  5
12B
330
48
100
AcDbEntity
  8
0
  6
Continuous
 62
     7
100
AcDbSpline
210
0.0
220
0.0
230
1.0
 70
     8
 71
     3
 72
     8
 73
     4
 74
     0
 42
0.00000001
 43
0.00000001
 40
2.0
 40
2.0
 40
2.0
 40
2.0
 40
3.0
 40
3.0
 40
3.0
 40
3.0
 10
2150.755337800002
 20
298.8653788999995
 30
0.0
 10
2150.704791800002
 20
264.7676568999993
 30
0.0
 10
2127.368287800001
 20
250.5538168999992
 30
0.0
 10
2096.420673800002
 20
250.6295088999995
 30
0.0
  0
SPLINE
  5
12C
330
48
100
AcDbEntity
  8
0
  6
Continuous
 62
     7
100
AcDbSpline
210
0.0
220
0.0
230
1.0
 70
     8
 71
     3
 72
     8
 73
     4
 74
     0
 42
0.00000001
 43
0.00000001
 40
3.0
 40
3.0
 40
3.0
 40
3.0
 40
4.0
 40
4.0
 40
4.0
 40
4.0
 10
2103.149641800001
 20
190.0449208999993
 30
0.0
 10
2141.077937800001
 20
190.0954668999995
 30
0.0
 10
2167.262289800001
 20
173.5882608999995
 30
0.0
 10
2167.161451800001
 20
132.2073936999994
 30
0.0
  0
SPLINE
  5
12D
330
48
100
AcDbEntity
  8
0
  6
Continuous
 62
     7
100
AcDbSpline
210
0.0
220
0.0
230
1.0
 70
     8
 71
     3
 72
     8
 73
     4
 74
     0
 42
0.00000001
 43
0.00000001
 40
4.0
 40
4.0
 40
4.0
 40
4.0
 40
5.0
 40
5.0
 40
5.0
 40
5.0
 10
2167.161451800001
 20
132.2073936999994
 30
0.0
 10
2167.161451800001
 20
90.22160009999958
 30
0.0
 10
2136.516351800001
 20
78.93130009999982
 30
0.0
 10
2101.536741800001
 20
78.93130009999982
 30
0.0
  0
SPLINE
  5
12E
330
48
100
AcDbEntity
  8
0
  6
Continuous
 62
     7
100
AcDbSpline
210
0.0
220
0.0
230
1.0
 70
     8
 71
     3
 72
     8
 73
     4
 74
     0
 42
0.00000001
 43
0.00000001
 40
0.0
 40
0.0
 40
0.0
 40
0.0
 40
1.0
 40
1.0
 40
1.0
 40
1.0
 10
2672.9821318
 20
424.1422428999995
 30
0.0
 10
2547.7807058
 20
424.2179348999992
 30
0.0
 10
2474.040949800002
 20
330.7705728999993
 30
0.0
 10
2474.141787800001
 20
210.5086848999997
 30
0.0
  0
SPLINE
  5
12F
330
48
100
AcDbEntity
  8
0
  6
Continuous
 62
     7
100
AcDbSpline
210
0.0
220
0.0
230
1.0
 70
     8
 71
     3
 72
     8
 73
     4
 74
     0
 42
0.00000001
 43
0.00000001
 40
1.0
 40
1.0
 40
1.0
 40
1.0
 40
2.0
 40
2.0
 40
2.0
 40
2.0
 10
2474.141787800001
 20
210.5086848999997
 30
0.0
 10
2474.242625800001
 20
163.2809408999991
 30
0.0
 10
2486.465359800001
 20
120.0350532999996
 30
0.0
 10
2509.071105800001
 20
85.08048769999954
 30
0.0
  0
SPLINE
  5
130
330
48
100
AcDbEntity
  8
0
  6
Continuous
 62
     7
100
AcDbSpline
210
0.0
220
0.0
230
1.0
 70
     8
 71
     3
 72
     8
 73
     4
 74
     0
 42
0.00000001
 43
0.00000001
 40
8.0
 40
8.0
 40
8.0
 40
8.0
 40
9.0
 40
9.0
 40
9.0
 40
9.0
 10
2527.468325800002
 20
60.86179089999977
 30
0.0
 10
2561.490355800001
 20
23.36186589999922
 30
0.0
 10
2610.986319800001
 20
0.2772282999994324
 30
0.0
 10
2673.234099800001
 20
0.3528186999997018
 30
0.0
  0
SPLINE
  5
131
330
48
100
AcDbEntity
  8
0
  6
Continuous
 62
     7
100
AcDbSpline
210
0.0
220
0.0
230
1.0
 70
     8
 71
     3
 72
     8
 73
     4
 74
     0
 42
0.00000001
 43
0.00000001
 40
9.0
 40
9.0
 40
9.0
 40
9.0
 40
10.0
 40
10.0
 40
10.0
 40
10.0
 10
2673.234099800001
 20
0.3528186999997018
 30
0.0
 10
2798.460671800001
 20
0.3528186999997018
 30
0.0
 10
2872.099589800001
 20
93.90101869999911
 30
0.0
 10
2871.973605800001
 20
210.6346688999996
 30
0.0
  0
SPLINE
  5
132
330
48
100
AcDbEntity
  8
0
  6
Continuous
 62
     7
100
AcDbSpline
210
0.0
220
0.0
230
1.0
 70
     8
 71
     3
 72
     8
 73
     4
 74
     0
 42
0.00000001
 43
0.00000001
 40
10.0
 40
10.0
 40
10.0
 40
10.0
 40
11.0
 40
11.0
 40
11.0
 40
11.0
 10
2871.973605800001
 20
210.6346688999996
 30
0.0
 10
2872.023897800001
 20
330.8460108999998
 30
0.0
 10
2798.208703800001
 20
424.3439188999991
 30
0.0
 10
2672.9821318
 20
424.1422428999995
 30
0.0
  0
SPLINE
  5
133
330
48
100
AcDbEntity
  8
0
  6
Continuous
 62
     7
100
AcDbSpline
210
0.0
220
0.0
230
1.0
 70
     8
 71
     3
 72
     8
 73
     4
 74
     0
 42
0.00000001
 43
0.00000001
 40
3.0
 40
3.0
 40
3.0
 40
3.0
 40
4.0
 40
4.0
 40
4.0
 40
4.0
 10
2783.163267800001
 20
210.7103608999994
 30
0.0
 10
2783.238959800001
 20
143.0944686999993
 30
0.0
 10
2753.097795800001
 20
75.17626569999925
 30
0.0
 10
2673.208953800001
 20
75.05025629999973
 30
0.0
  0
SPLINE
  5
134
330
48
100
AcDbEntity
  8
0
  6
Continuous
 62
     7
100
AcDbSpline
210
0.0
220
0.0
230
1.0
 70
     8
 71
     3
 72
     8
 73
     4
 74
     0
 42
0.00000001
 43
0.00000001
 40
2.0
 40
2.0
 40
2.0
 40
2.0
 40
3.0
 40
3.0
 40
3.0
 40
3.0
 10
2673.057569800001
 20
349.3943608999994
 30
0.0
 10
2753.022103800001
 20
349.3943608999994
 30
0.0
 10
2783.012137800001
 20
281.4511388999996
 30
0.0
 10
2783.163267800001
 20
210.7103608999994
 30
0.0
  0
SPLINE
  5
135
330
48
100
AcDbEntity
  8
0
  6
Continuous
 62
     7
100
AcDbSpline
210
0.0
220
0.0
230
1.0
 70
     8
 71
     3
 72
     8
 73
     4
 74
     0
 42
0.00000001
 43
0.00000001
 40
1.0
 40
1.0
 40
1.0
 40
1.0
 40
2.0
 40
2.0
 40
2.0
 40
2.0
 10
2563.153547800001
 20
210.5086848999997
 30
0.0
 10
2563.052963800001
 20
281.3251548999993
 30
0.0
 10
2593.0175978
 20
349.3440688999993
 30
0.0
 10
2673.057569800001
 20
349.3943608999994
 30
0.0
  0
SPLINE
  5
136
330
48
100
AcDbEntity
  8
0
  6
Continuous
 62
     7
100
AcDbSpline
210
0.0
220
0.0
230
1.0
 70
     8
 71
     3
 72
     8
 73
     4
 74
     0
 42
0.00000001
 43
0.00000001
 40
0.0
 40
0.0
 40
0.0
 40
0.0
 40
1.0
 40
1.0
 40
1.0
 40
1.0
 10
2673.208953800001
 20
75.05025629999973
 30
0.0
 10
2593.244419800001
 20
75.0502562999995
 30
0.0
 10
2563.254385800001
 20
143.0692718999995
 30
0.0
 10
2563.153547800001
 20
210.5086848999997
 30
0.0
  0
ENDBLK
  5
4A
330
48
100
AcDbEntity
  8
0
100
AcDbBlockEnd
  0
BLOCK
  5
138
330
137
100
AcDbEntity
  8
0
100
AcDbBlockBegin
  2
effeff Logo fuer Schriftkopf
 70
     0
 10
0.0
 20
0.0
 30
0.0
  3
effeff Logo fuer Schriftkopf
  1

  0
INSERT
  5
142
330
137
100
AcDbEntity
  8
0
  6
Continuous
 62
     7
370
     0
100
AcDbBlockReference
  2
SW_NOTE_0
 10
10.9430671197
 20
8.8581138453
 30
0.0
  0
INSERT
  5
143
330
137
100
AcDbEntity
  8
0
  6
Continuous
 62
     7
100
AcDbBlockReference
  2
effeff Logo-0015_2
 10
0.0
 20
0.0
 30
0.0
 41
0.003
 42
0.003
 43
0.003
  0
ENDBLK
  5
139
330
137
100
AcDbEntity
  8
0
100
AcDbBlockEnd
  0
BLOCK
  5
13B
330
13A
100
AcDbEntity
  8
0
100
AcDbBlockBegin
  2
SW_NOTE_0
 70
     0
 10
0.0
 20
0.0
 30
0.0
  3
SW_NOTE_0
  1

  0
MTEXT
  5
13E
330
13A
100
AcDbEntity
  8
0
  6
Continuous
 62
     0
370
     0
100
AcDbMText
 10
0.0
 20
2.3874608764
 30
0.0
 40
1.8520833333
 41
0.0
 71
     1
 72
     1
  1
ASSA ABLOY
  7
SLDTEXTSTYLE0
 73
     1
 44
1.0
  0
MTEXT
  5
13F
330
13A
100
AcDbEntity
  8
0
  6
Continuous
 62
     0
370
     0
100
AcDbMText
 10
0.0
 20
-0.0819835382
 30
0.0
 40
1.8520833333
 41
0.0
 71
     1
 72
     1
  1
Sicherheitstechnik GmbH
  7
SLDTEXTSTYLE0
 73
     1
 44
1.0
  0
MTEXT
  5
140
330
13A
100
AcDbEntity
  8
0
  6
Continuous
 62
     0
370
     0
100
AcDbMText
 10
0.0
 20
-2.5514279528
 30
0.0
 40
1.8520833333
 41
0.0
 71
     1
 72
     1
  1
Bildstockstrasse 20
  7
SLDTEXTSTYLE0
 73
     1
 44
1.0
  0
MTEXT
  5
141
330
13A
100
AcDbEntity
  8
0
  6
Continuous
 62
     0
370
     0
100
AcDbMText
 10
0.0
 20
-5.0208723674
 30
0.0
 40
1.8520833333
 41
0.0
 71
     1
 72
     1
  1
72458 Albstadt
  7
SLDTEXTSTYLE0
 73
     1
 44
1.0
  0
ENDBLK
  5
13C
330
13A
100
AcDbEntity
  8
0
100
AcDbBlockEnd
  0
BLOCK
  5
16A
330
169
100
AcDbEntity
  8
0
100
AcDbBlockBegin
  2
SW_NOTE_1
 70
     0
 10
0.0
 20
0.0
 30
0.0
  3
SW_NOTE_1
  1

  0
MTEXT
  5
16D
330
169
100
AcDbEntity
  8
0
  6
Continuous
 62
     0
370
     0
100
AcDbMText
 10
0.0
 20
6.1391851107
 30
0.0
 40
4.7625
 41
0.0
 71
     1
 72
     1
  1
Mass X:
  7
SLDTEXTSTYLE1
 73
     1
 44
1.0
  0
MTEXT
  5
16F
330
169
100
AcDbEntity
  8
0
  6
Continuous
 62
     0
370
     0
100
AcDbMText
 10
0.0
 20
-0.2108148126
 30
0.0
 40
4.7625
 41
0.0
 71
     1
 72
     1
  1
Modell 118                 13,4 bis 16,4
  7
SLDTEXTSTYLE2
 73
     1
 44
1.0
  0
MTEXT
  5
170
330
169
100
AcDbEntity
  8
0
  6
Continuous
 62
     0
370
     0
100
AcDbMText
 10
0.0
 20
-6.5608147359
 30
0.0
 40
4.7625
 41
0.0
 71
     1
 72
     1
  1
Modell 143/343/332   13.4 bis 15.4
  7
SLDTEXTSTYLE1
 73
     1
 44
1.0
  0
ENDBLK
  5
16B
330
169
100
AcDbEntity
  8
0
100
AcDbBlockEnd
  0
BLOCK
  5
175
330
174
100
AcDbEntity
  8
0
100
AcDbBlockBegin
  2
SW_NOTE_2
 70
     0
 10
0.0
 20
0.0
 30
0.0
  3
SW_NOTE_2
  1

  0
MTEXT
  5
177
330
174
100
AcDbEntity
  8
0
  6
Continuous
 62
     0
370
     0
100
AcDbMText
 10
0.0
 20
2.0463950369
 30
0.0
 40
1.5875
 41
0.0
 71
     1
 72
     1
  1
Blatt
  7
SLDTEXTSTYLE1
 73
     1
 44
1.0
  0
MTEXT
  5
178
330
174
100
AcDbEntity
  8
0
  6
Continuous
 62
     0
370
     0
100
AcDbMText
 10
0.0
 20
-0.0702716042
 30
0.0
 40
1.5875
 41
0.0
 71
     1
 72
     1
  1
sheet
  7
SLDTEXTSTYLE1
 73
     1
 44
1.0
  0
ENDBLK
  5
176
330
174
100
AcDbEntity
  8
0
100
AcDbBlockEnd
  0
BLOCK
  5
17E
330
17D
100
AcDbEntity
  8
0
100
AcDbBlockBegin
  2
SW_NOTE_3
 70
     0
 10
0.0
 20
0.0
 30
0.0
  3
SW_NOTE_3
  1

  0
MTEXT
  5
180
330
17D
100
AcDbEntity
  8
0
  6
Continuous
 62
     0
370
     0
100
AcDbMText
 10
0.0
 20
2.0463950369
 30
0.0
 40
1.5875
 41
0.0
 71
     1
 72
     1
  1
freig.
  7
SLDTEXTSTYLE1
 73
     1
 44
1.0
  0
MTEXT
  5
181
330
17D
100
AcDbEntity
  8
0
  6
Continuous
 62
     0
370
     0
100
AcDbMText
 10
0.0
 20
-0.0702716042
 30
0.0
 40
1.5875
 41
0.0
 71
     1
 72
     1
  1
approved
  7
SLDTEXTSTYLE1
 73
     1
 44
1.0
  0
ENDBLK
  5
17F
330
17D
100
AcDbEntity
  8
0
100
AcDbBlockEnd
  0
BLOCK
  5
184
330
183
100
AcDbEntity
  8
0
100
AcDbBlockBegin
  2
SW_NOTE_4
 70
     0
 10
0.0
 20
0.0
 30
0.0
  3
SW_NOTE_4
  1

  0
MTEXT
  5
186
330
183
100
AcDbEntity
  8
0
  6
Continuous
 62
     0
370
     0
100
AcDbMText
 10
0.0
 20
2.0463950369
 30
0.0
 40
1.5875
 41
0.0
 71
     1
 72
     1
  1
Gepr.
  7
SLDTEXTSTYLE1
 73
     1
 44
1.0
  0
MTEXT
  5
187
330
183
100
AcDbEntity
  8
0
  6
Continuous
 62
     0
370
     0
100
AcDbMText
 10
0.0
 20
-0.0702716042
 30
0.0
 40
1.5875
 41
0.0
 71
     1
 72
     1
  1
checked
  7
SLDTEXTSTYLE1
 73
     1
 44
1.0
  0
ENDBLK
  5
185
330
183
100
AcDbEntity
  8
0
100
AcDbBlockEnd
  0
BLOCK
  5
18A
330
189
100
AcDbEntity
  8
0
100
AcDbBlockBegin
  2
SW_NOTE_5
 70
     0
 10
0.0
 20
0.0
 30
0.0
  3
SW_NOTE_5
  1

  0
MTEXT
  5
18C
330
189
100
AcDbEntity
  8
0
  6
Continuous
 62
     0
370
     0
100
AcDbMText
 10
0.0
 20
2.0463950369
 30
0.0
 40
1.5875
 41
0.0
 71
     1
 72
     1
  1
Bearb.
  7
SLDTEXTSTYLE1
 73
     1
 44
1.0
  0
MTEXT
  5
18D
330
189
100
AcDbEntity
  8
0
  6
Continuous
 62
     0
370
     0
100
AcDbMText
 10
0.0
 20
-0.0702716042
 30
0.0
 40
1.5875
 41
0.0
 71
     1
 72
     1
  1
author
  7
SLDTEXTSTYLE1
 73
     1
 44
1.0
  0
ENDBLK
  5
18B
330
189
100
AcDbEntity
  8
0
100
AcDbBlockEnd
  0
BLOCK
  5
190
330
18F
100
AcDbEntity
  8
0
100
AcDbBlockBegin
  2
SW_NOTE_6
 70
     0
 10
0.0
 20
0.0
 30
0.0
  3
SW_NOTE_6
  1

  0
MTEXT
  5
192
330
18F
100
AcDbEntity
  8
0
  6
Continuous
 62
     0
370
     0
100
AcDbMText
 10
0.0
 20
2.0463950369
 30
0.0
 40
1.5875
 41
0.0
 71
     1
 72
     1
  1
Name
  7
SLDTEXTSTYLE1
 73
     1
 44
1.0
  0
MTEXT
  5
193
330
18F
100
AcDbEntity
  8
0
  6
Continuous
 62
     0
370
     0
100
AcDbMText
 10
0.0
 20
-0.0702716042
 30
0.0
 40
1.5875
 41
0.0
 71
     1
 72
     1
  1
name
  7
SLDTEXTSTYLE1
 73
     1
 44
1.0
  0
ENDBLK
  5
191
330
18F
100
AcDbEntity
  8
0
100
AcDbBlockEnd
  0
BLOCK
  5
196
330
195
100
AcDbEntity
  8
0
100
AcDbBlockBegin
  2
SW_NOTE_7
 70
     0
 10
0.0
 20
0.0
 30
0.0
  3
SW_NOTE_7
  1

  0
MTEXT
  5
198
330
195
100
AcDbEntity
  8
0
  6
Continuous
 62
     0
370
     0
100
AcDbMText
 10
0.0
 20
2.0463950369
 30
0.0
 40
1.5875
 41
0.0
 71
     1
 72
     1
  1
Datum
  7
SLDTEXTSTYLE1
 73
     1
 44
1.0
  0
MTEXT
  5
199
330
195
100
AcDbEntity
  8
0
  6
Continuous
 62
     0
370
     0
100
AcDbMText
 10
0.0
 20
-0.0702716042
 30
0.0
 40
1.5875
 41
0.0
 71
     1
 72
     1
  1
date
  7
SLDTEXTSTYLE1
 73
     1
 44
1.0
  0
ENDBLK
  5
197
330
195
100
AcDbEntity
  8
0
100
AcDbBlockEnd
  0
BLOCK
  5
19C
330
19B
100
AcDbEntity
  8
0
100
AcDbBlockBegin
  2
SW_NOTE_8
 70
     0
 10
0.0
 20
0.0
 30
0.0
  3
SW_NOTE_8
  1

  0
MTEXT
  5
19E
330
19B
100
AcDbEntity
  8
0
  6
Continuous
 62
     0
370
     0
100
AcDbMText
 10
0.0
 20
2.0463950369
 30
0.0
 40
1.5875
 41
0.0
 71
     1
 72
     1
  1
Aenderung
  7
SLDTEXTSTYLE1
 73
     1
 44
1.0
  0
MTEXT
  5
19F
330
19B
100
AcDbEntity
  8
0
  6
Continuous
 62
     0
370
     0
100
AcDbMText
 10
0.0
 20
-0.0702716042
 30
0.0
 40
1.5875
 41
0.0
 71
     1
 72
     1
  1
description
  7
SLDTEXTSTYLE1
 73
     1
 44
1.0
  0
ENDBLK
  5
19D
330
19B
100
AcDbEntity
  8
0
100
AcDbBlockEnd
  0
BLOCK
  5
1A2
330
1A1
100
AcDbEntity
  8
0
100
AcDbBlockBegin
  2
SW_NOTE_9
 70
     0
 10
0.0
 20
0.0
 30
0.0
  3
SW_NOTE_9
  1

  0
MTEXT
  5
1A4
330
1A1
100
AcDbEntity
  8
0
  6
Continuous
 62
     0
370
     0
100
AcDbMText
 10
0.0
 20
2.0463950369
 30
0.0
 40
1.5875
 41
0.0
 71
     1
 72
     1
  1
Stand
  7
SLDTEXTSTYLE1
 73
     1
 44
1.0
  0
MTEXT
  5
1A5
330
1A1
100
AcDbEntity
  8
0
  6
Continuous
 62
     0
370
     0
100
AcDbMText
 10
0.0
 20
-0.0702716042
 30
0.0
 40
1.5875
 41
0.0
 71
     1
 72
     1
  1
state
  7
SLDTEXTSTYLE1
 73
     1
 44
1.0
  0
ENDBLK
  5
1A3
330
1A1
100
AcDbEntity
  8
0
100
AcDbBlockEnd
  0
BLOCK
  5
1B6
330
1B5
100
AcDbEntity
  8
0
100
AcDbBlockBegin
  2
SW_NOTE_10
 70
     0
 10
0.0
 20
0.0
 30
0.0
  3
SW_NOTE_10
  1

  0
MTEXT
  5
1B8
330
1B5
100
AcDbEntity
  8
0
  6
Continuous
 62
     0
370
     0
100
AcDbMText
 10
0.0
 20
3.4106583948
 30
0.0
 40
2.6458333333
 41
0.0
 71
     1
 72
     1
  1
Gewicht/
  7
SLDTEXTSTYLE1
 73
     1
 44
1.0
  0
MTEXT
  5
1B9
330
1B5
100
AcDbEntity
  8
0
  6
Continuous
 62
     0
370
     0
100
AcDbMText
 10
0.0
 20
-0.1171193403
 30
0.0
 40
2.6458333333
 41
0.0
 71
     1
 72
     1
  1
weight:
  7
SLDTEXTSTYLE1
 73
     1
 44
1.0
  0
ENDBLK
  5
1B7
330
1B5
100
AcDbEntity
  8
0
100
AcDbBlockEnd
  0
BLOCK
  5
1E8
330
1E7
100
AcDbEntity
  8
0
100
AcDbBlockBegin
  2
*D14
 70
     1
 10
0.0
 20
0.0
 30
0.0
  3
*D14
  1

  0
SOLID
  5
1EA
330
1E7
100
AcDbEntity
  8
0
  6
Continuous
 62
     7
370
     0
100
AcDbTrace
 10
184.9800104739
 20
243.9133986613
 30
0.0
 11
185.4800104739
 21
247.2133986613
 31
0.0
 12
184.4800104739
 22
247.2133986613
 32
0.0
 13
184.4800104739
 23
247.2133986613
 33
0.0
  0
SOLID
  5
1EB
330
1E7
100
AcDbEntity
  8
0
  6
Continuous
 62
     7
370
     0
100
AcDbTrace
 10
184.9800104739
 20
258.3476346499
 30
0.0
 11
184.4800104739
 21
255.0476346499
 31
0.0
 12
185.4800104739
 22
255.0476346499
 32
0.0
 13
185.4800104739
 23
255.0476346499
 33
0.0
  0
LINE
  5
1EC
330
1E7
100
AcDbEntity
  8
0
  6
Continuous
 62
     7
370
     0
100
AcDbLine
 10
175.0540231315
 20
243.9133986613
 30
0.0
 11
185.9800104739
 21
243.9133986613
 31
0.0
  0
LINE
  5
1ED
330
1E7
100
AcDbEntity
  8
0
  6
Continuous
 62
     7
370
     0
100
AcDbLine
 10
184.9800104739
 20
243.9133986613
 30
0.0
 11
184.9800104739
 21
258.3476346499
 31
0.0
  0
MTEXT
  5
1EE
330
1E7
100
AcDbEntity
  8
0
  6
Continuous
 62
     7
370
     0
100
AcDbMText
 10
180.4682731519
 20
250.3012365161
 30
0.0
 40
3.5
 41
0.0
 71
     1
 72
     1
  1
X
  7
SLDTEXTSTYLE1
 11
6.123233995736766E-17
 21
1.0
 31
0.0
 73
     1
 44
1.0
  0
ENDBLK
  5
1E9
330
1E7
100
AcDbEntity
  8
0
100
AcDbBlockEnd
  0
BLOCK
  5
1F2
330
1F1
100
AcDbEntity
  8
0
100
AcDbBlockBegin
  2
*D15
 70
     1
 10
0.0
 20
0.0
 30
0.0
  3
*D15
  1

  0
SOLID
  5
1F4
330
1F1
100
AcDbEntity
  8
0
  6
Continuous
 62
     7
370
     0
100
AcDbTrace
 10
37.8190349834
 20
258.3476346499
 30
0.0
 11
37.3190349834
 21
255.0476346499
 31
0.0
 12
38.3190349834
 22
255.0476346499
 32
0.0
 13
38.3190349834
 23
255.0476346499
 33
0.0
  0
SOLID
  5
1F5
330
1F1
100
AcDbEntity
  8
0
  6
Continuous
 62
     7
370
     0
100
AcDbTrace
 10
37.8190349834
 20
224.3476346499
 30
0.0
 11
38.3190349834
 21
227.6476346499
 31
0.0
 12
37.3190349834
 22
227.6476346499
 32
0.0
 13
37.3190349834
 23
227.6476346499
 33
0.0
  0
LINE
  5
1F6
330
1F1
100
AcDbEntity
  8
0
  6
Continuous
 62
     7
370
     0
100
AcDbLine
 10
59.4372665273
 20
258.3476346499
 30
0.0
 11
36.8190349834
 21
258.3476346499
 31
0.0
  0
LINE
  5
1F7
330
1F1
100
AcDbEntity
  8
0
  6
Continuous
 62
     7
370
     0
100
AcDbLine
 10
59.4372665273
 20
224.3476346499
 30
0.0
 11
36.8190349834
 21
224.3476346499
 31
0.0
  0
LINE
  5
1F8
330
1F1
100
AcDbEntity
  8
0
  6
Continuous
 62
     7
370
     0
100
AcDbLine
 10
37.8190349834
 20
258.3476346499
 30
0.0
 11
37.8190349834
 21
224.3476346499
 31
0.0
  0
MTEXT
  5
1F9
330
1F1
100
AcDbEntity
  8
0
  6
Continuous
 62
     7
370
     0
100
AcDbMText
 10
33.3072976613
 20
234.8853052592
 30
0.0
 40
3.5
 41
0.0
 71
     1
 72
     1
  1
34
  7
SLDTEXTSTYLE1
 11
-7.044195017643634E-15
 21
1.0
 31
0.0
 73
     1
 44
1.0
  0
MTEXT
  5
1FA
330
1F1
100
AcDbEntity
  8
0
  6
Continuous
 62
     7
370
     0
100
AcDbMText
 10
34.3550567493
 20
241.5914181755
 30
0.0
 40
2.45
 41
0.0
 71
     1
 72
     1
  1
-
  7
SLDTEXTSTYLE1
 11
-7.044195017643634E-15
 21
1.0
 31
0.0
 73
     1
 44
1.0
  0
MTEXT
  5
1FB
330
1F1
100
AcDbEntity
  8
0
  6
Continuous
 62
     7
370
     0
100
AcDbMText
 10
34.3550567493
 20
243.1326258883
 30
0.0
 40
2.45
 41
0.0
 71
     1
 72
     1
  1
0,3
  7
SLDTEXTSTYLE1
 11
-7.044195017643634E-15
 21
1.0
 31
0.0
 73
     1
 44
1.0
  0
MTEXT
  5
1FC
330
1F1
100
AcDbEntity
  8
0
  6
Continuous
 62
     7
370
     0
100
AcDbMText
 10
30.5950057611
 20
243.1326258883
 30
0.0
 40
2.45
 41
0.0
 71
     1
 72
     1
  1
0
  7
SLDTEXTSTYLE1
 11
-7.044195017643634E-15
 21
1.0
 31
0.0
 73
     1
 44
1.0
  0
ENDBLK
  5
1F3
330
1F1
100
AcDbEntity
  8
0
100
AcDbBlockEnd
  0
BLOCK
  5
1FF
330
1FE
100
AcDbEntity
  8
0
100
AcDbBlockBegin
  2
*D16
 70
     1
 10
0.0
 20
0.0
 30
0.0
  3
*D16
  1

  0
SOLID
  5
201
330
1FE
100
AcDbEntity
  8
0
  6
Continuous
 62
     7
370
     0
100
AcDbTrace
 10
59.4372665273
 20
189.148964591
 30
0.0
 11
62.7372665273
 21
188.648964591
 31
0.0
 12
62.7372665273
 22
189.648964591
 32
0.0
 13
62.7372665273
 23
189.648964591
 33
0.0
  0
SOLID
  5
202
330
1FE
100
AcDbEntity
  8
0
  6
Continuous
 62
     7
370
     0
100
AcDbTrace
 10
344.4372665273
 20
189.148964591
 30
0.0
 11
341.1372665273
 21
189.648964591
 31
0.0
 12
341.1372665273
 22
188.648964591
 32
0.0
 13
341.1372665273
 23
188.648964591
 33
0.0
  0
LINE
  5
203
330
1FE
100
AcDbEntity
  8
0
  6
Continuous
 62
     7
370
     0
100
AcDbLine
 10
59.4372665273
 20
224.3476346499
 30
0.0
 11
59.4372665273
 21
188.148964591
 31
0.0
  0
LINE
  5
204
330
1FE
100
AcDbEntity
  8
0
  6
Continuous
 62
     7
370
     0
100
AcDbLine
 10
344.4372665273
 20
224.3476346499
 30
0.0
 11
344.4372665273
 21
188.148964591
 31
0.0
  0
LINE
  5
205
330
1FE
100
AcDbEntity
  8
0
  6
Continuous
 62
     7
370
     0
100
AcDbLine
 10
59.4372665273
 20
189.148964591
 30
0.0
 11
344.4372665273
 21
189.148964591
 31
0.0
  0
MTEXT
  5
206
330
1FE
100
AcDbEntity
  8
0
  6
Continuous
 62
     7
370
     0
100
AcDbMText
 10
194.13825967
 20
193.6607019131
 30
0.0
 40
3.5
 41
0.0
 71
     1
 72
     1
  1
285
  7
SLDTEXTSTYLE1
 73
     1
 44
1.0
  0
MTEXT
  5
207
330
1FE
100
AcDbEntity
  8
0
  6
Continuous
 62
     7
370
     0
100
AcDbMText
 10
203.5177275196
 20
192.6129428251
 30
0.0
 40
2.45
 41
0.0
 71
     1
 72
     1
  1
-
  7
SLDTEXTSTYLE1
 73
     1
 44
1.0
  0
MTEXT
  5
208
330
1FE
100
AcDbEntity
  8
0
  6
Continuous
 62
     7
370
     0
100
AcDbMText
 10
205.0589352324
 20
192.6129428251
 30
0.0
 40
2.45
 41
0.0
 71
     1
 72
     1
  1
0,3
  7
SLDTEXTSTYLE1
 73
     1
 44
1.0
  0
MTEXT
  5
209
330
1FE
100
AcDbEntity
  8
0
  6
Continuous
 62
     7
370
     0
100
AcDbMText
 10
205.0589352324
 20
196.3729938133
 30
0.0
 40
2.45
 41
0.0
 71
     1
 72
     1
  1
0
  7
SLDTEXTSTYLE1
 73
     1
 44
1.0
  0
ENDBLK
  5
200
330
1FE
100
AcDbEntity
  8
0
100
AcDbBlockEnd
  0
BLOCK
  5
20D
330
20C
100
AcDbEntity
  8
0
100
AcDbBlockBegin
  2
*D17
 70
     1
 10
0.0
 20
0.0
 30
0.0
  3
*D17
  1

  0
SOLID
  5
20F
330
20C
100
AcDbEntity
  8
0
  6
Continuous
 62
     7
370
     0
100
AcDbTrace
 10
59.4372665273
 20
269.3207214287
 30
0.0
 11
62.7372665273
 21
268.8207214287
 31
0.0
 12
62.7372665273
 22
269.8207214287
 32
0.0
 13
62.7372665273
 23
269.8207214287
 33
0.0
  0
SOLID
  5
210
330
20C
100
AcDbEntity
  8
0
  6
Continuous
 62
     7
370
     0
100
AcDbTrace
 10
151.9372665273
 20
269.3207214287
 30
0.0
 11
148.6372665273
 21
269.8207214287
 31
0.0
 12
148.6372665273
 22
268.8207214287
 32
0.0
 13
148.6372665273
 23
268.8207214287
 33
0.0
  0
LINE
  5
211
330
20C
100
AcDbEntity
  8
0
  6
Continuous
 62
     7
370
     0
100
AcDbLine
 10
59.4372665273
 20
258.3476346499
 30
0.0
 11
59.4372665273
 21
270.3207214287
 31
0.0
  0
LINE
  5
212
330
20C
100
AcDbEntity
  8
0
  6
Continuous
 62
     7
370
     0
100
AcDbLine
 10
59.4372665273
 20
269.3207214287
 30
0.0
 11
151.9372665273
 21
269.3207214287
 31
0.0
  0
MTEXT
  5
213
330
20C
100
AcDbEntity
  8
0
  6
Continuous
 62
     7
370
     0
100
AcDbMText
 10
95.891278261
 20
273.8324587508
 30
0.0
 40
3.5
 41
0.0
 71
     1
 72
     1
  1
92,5
  7
SLDTEXTSTYLE1
 73
     1
 44
1.0
  0
MTEXT
  5
214
330
20C
100
AcDbEntity
  8
0
  6
Continuous
 62
     7
370
     0
100
AcDbMText
 10
106.5805660703
 20
272.7846996628
 30
0.0
 40
2.45
 41
0.0
 71
     1
 72
     1
  1
±0,2
  7
SLDTEXTSTYLE1
 73
     1
 44
1.0
  0
ENDBLK
  5
20E
330
20C
100
AcDbEntity
  8
0
100
AcDbBlockEnd
  0
BLOCK
  5
217
330
216
100
AcDbEntity
  8
0
100
AcDbBlockBegin
  2
*D18
 70
     1
 10
0.0
 20
0.0
 30
0.0
  3
*D18
  1

  0
SOLID
  5
219
330
216
100
AcDbEntity
  8
0
  6
Continuous
 62
     7
370
     0
100
AcDbTrace
 10
151.9372665273
 20
269.3207214287
 30
0.0
 11
155.2372665273
 21
268.8207214287
 31
0.0
 12
155.2372665273
 22
269.8207214287
 32
0.0
 13
155.2372665273
 23
269.8207214287
 33
0.0
  0
SOLID
  5
21A
330
216
100
AcDbEntity
  8
0
  6
Continuous
 62
     7
370
     0
100
AcDbTrace
 10
251.9372665273
 20
269.3207214287
 30
0.0
 11
248.6372665273
 21
269.8207214287
 31
0.0
 12
248.6372665273
 22
268.8207214287
 32
0.0
 13
248.6372665273
 23
268.8207214287
 33
0.0
  0
LINE
  5
21B
330
216
100
AcDbEntity
  8
0
  6
Continuous
 62
     7
370
     0
100
AcDbLine
 10
251.9372665273
 20
251.353239391
 30
0.0
 11
251.9372665273
 21
270.3207214287
 31
0.0
  0
LINE
  5
21C
330
216
100
AcDbEntity
  8
0
  6
Continuous
 62
     7
370
     0
100
AcDbLine
 10
151.9372665273
 20
269.3207214287
 30
0.0
 11
251.9372665273
 21
269.3207214287
 31
0.0
  0
MTEXT
  5
21D
330
216
100
AcDbEntity
  8
0
  6
Continuous
 62
     7
370
     0
100
AcDbMText
 10
194.2002385324
 20
273.8324587508
 30
0.0
 40
3.5
 41
0.0
 71
     1
 72
     1
  1
100
  7
SLDTEXTSTYLE1
 73
     1
 44
1.0
  0
MTEXT
  5
21E
330
216
100
AcDbEntity
  8
0
  6
Continuous
 62
     7
370
     0
100
AcDbMText
 10
203.5549148371
 20
272.7846996628
 30
0.0
 40
2.45
 41
0.0
 71
     1
 72
     1
  1
±0,2
  7
SLDTEXTSTYLE1
 73
     1
 44
1.0
  0
ENDBLK
  5
218
330
216
100
AcDbEntity
  8
0
100
AcDbBlockEnd
  0
BLOCK
  5
221
330
220
100
AcDbEntity
  8
0
100
AcDbBlockBegin
  2
*D19
 70
     1
 10
0.0
 20
0.0
 30
0.0
  3
*D19
  1

  0
ARC
  5
223
330
220
100
AcDbEntity
  8
0
  6
Continuous
 62
     7
370
     0
100
AcDbCircle
 10
203.0479130057
 20
214.5208178158
 30
0.0
 40
6.005521148881128
100
AcDbArc
 50
153.4349488229
 51
206.5650511771
  0
ARC
  5
224
330
220
100
AcDbEntity
  8
0
  6
Continuous
 62
     7
370
     0
100
AcDbCircle
 10
200.826620049
 20
214.5208178158
 30
0.0
 40
6.005521148881128
100
AcDbArc
 50
333.4349488229
 51
26.5650511771
  0
SOLID
  5
225
330
220
100
AcDbEntity
  8
0
  6
Continuous
 62
     7
370
     0
100
AcDbTrace
 10
173.9372665273
 20
211.83506711
 30
0.0
 11
177.2372665273
 21
211.33506711
 31
0.0
 12
177.2372665273
 22
212.33506711
 32
0.0
 13
177.2372665273
 23
212.33506711
 33
0.0
  0
SOLID
  5
226
330
220
100
AcDbEntity
  8
0
  6
Continuous
 62
     7
370
     0
100
AcDbTrace
 10
229.9372665273
 20
211.83506711
 30
0.0
 11
226.6372665273
 21
212.33506711
 31
0.0
 12
226.6372665273
 22
211.33506711
 32
0.0
 13
226.6372665273
 23
211.33506711
 33
0.0
  0
LINE
  5
227
330
220
100
AcDbEntity
  8
0
  6
Continuous
 62
     7
370
     0
100
AcDbLine
 10
173.9372665273
 20
230.1476346499
 30
0.0
 11
173.9372665273
 21
210.83506711
 31
0.0
  0
LINE
  5
228
330
220
100
AcDbEntity
  8
0
  6
Continuous
 62
     7
370
     0
100
AcDbLine
 10
229.9372665273
 20
230.1476346499
 30
0.0
 11
229.9372665273
 21
210.83506711
 31
0.0
  0
LINE
  5
229
330
220
100
AcDbEntity
  8
0
  6
Continuous
 62
     7
370
     0
100
AcDbLine
 10
173.9372665273
 20
211.83506711
 30
0.0
 11
229.9372665273
 21
211.83506711
 31
0.0
  0
MTEXT
  5
22A
330
220
100
AcDbEntity
  8
0
  6
Continuous
 62
     7
370
     0
100
AcDbMText
 10
199.263911594
 20
216.346804432
 30
0.0
 40
3.5
 41
0.0
 71
     1
 72
     1
  1
56
  7
SLDTEXTSTYLE1
 73
     1
 44
1.0
  0
ENDBLK
  5
222
330
220
100
AcDbEntity
  8
0
100
AcDbBlockEnd
  0
BLOCK
  5
22D
330
22C
100
AcDbEntity
  8
0
100
AcDbBlockBegin
  2
*D20
 70
     1
 10
0.0
 20
0.0
 30
0.0
  3
*D20
  1

  0
SOLID
  5
22F
330
22C
100
AcDbEntity
  8
0
  6
Continuous
 62
     7
370
     0
100
AcDbTrace
 10
66.4372665273
 20
200.3476346499
 30
0.0
 11
69.7372665273
 21
199.8476346499
 31
0.0
 12
69.7372665273
 22
200.8476346499
 32
0.0
 13
69.7372665273
 23
200.8476346499
 33
0.0
  0
SOLID
  5
230
330
22C
100
AcDbEntity
  8
0
  6
Continuous
 62
     7
370
     0
100
AcDbTrace
 10
337.4372665273
 20
200.3476346499
 30
0.0
 11
334.1372665273
 21
200.8476346499
 31
0.0
 12
334.1372665273
 22
199.8476346499
 32
0.0
 13
334.1372665273
 23
199.8476346499
 33
0.0
  0
LINE
  5
231
330
22C
100
AcDbEntity
  8
0
  6
Continuous
 62
     7
370
     0
100
AcDbLine
 10
66.4372665273
 20
236.3476346499
 30
0.0
 11
66.4372665273
 21
199.3476346499
 31
0.0
  0
LINE
  5
232
330
22C
100
AcDbEntity
  8
0
  6
Continuous
 62
     7
370
     0
100
AcDbLine
 10
337.4372665273
 20
236.3476346499
 30
0.0
 11
337.4372665273
 21
199.3476346499
 31
0.0
  0
LINE
  5
233
330
22C
100
AcDbEntity
  8
0
  6
Continuous
 62
     7
370
     0
100
AcDbLine
 10
66.4372665273
 20
200.3476346499
 30
0.0
 11
337.4372665273
 21
200.3476346499
 31
0.0
  0
MTEXT
  5
234
330
22C
100
AcDbEntity
  8
0
  6
Continuous
 62
     7
370
     0
100
AcDbMText
 10
194.2002385324
 20
204.8593719719
 30
0.0
 40
3.5
 41
0.0
 71
     1
 72
     1
  1
271
  7
SLDTEXTSTYLE1
 73
     1
 44
1.0
  0
MTEXT
  5
235
330
22C
100
AcDbEntity
  8
0
  6
Continuous
 62
     7
370
     0
100
AcDbMText
 10
203.5549148371
 20
203.811612884
 30
0.0
 40
2.45
 41
0.0
 71
     1
 72
     1
  1
±0,2
  7
SLDTEXTSTYLE1
 73
     1
 44
1.0
  0
ENDBLK
  5
22E
330
22C
100
AcDbEntity
  8
0
100
AcDbBlockEnd
  0
BLOCK
  5
239
330
238
100
AcDbEntity
  8
0
100
AcDbBlockBegin
  2
*D21
 70
     1
 10
0.0
 20
0.0
 30
0.0
  3
*D21
  1

  0
SOLID
  5
23B
330
238
100
AcDbEntity
  8
0
  6
Continuous
 62
     7
370
     0
100
AcDbTrace
 10
66.4372665273
 20
214.3476346499
 30
0.0
 11
69.7372665273
 21
213.8476346499
 31
0.0
 12
69.7372665273
 22
214.8476346499
 32
0.0
 13
69.7372665273
 23
214.8476346499
 33
0.0
  0
SOLID
  5
23C
330
238
100
AcDbEntity
  8
0
  6
Continuous
 62
     7
370
     0
100
AcDbTrace
 10
59.4372665273
 20
214.3476346499
 30
0.0
 11
56.1372665273
 21
214.8476346499
 31
0.0
 12
56.1372665273
 22
213.8476346499
 32
0.0
 13
56.1372665273
 23
213.8476346499
 33
0.0
  0
LINE
  5
23D
330
238
100
AcDbEntity
  8
0
  6
Continuous
 62
     7
370
     0
100
AcDbLine
 10
66.4372665273
 20
236.3476346499
 30
0.0
 11
66.4372665273
 21
213.3476346499
 31
0.0
  0
LINE
  5
23E
330
238
100
AcDbEntity
  8
0
  6
Continuous
 62
     7
370
     0
100
AcDbLine
 10
59.4372665273
 20
224.3476346499
 30
0.0
 11
59.4372665273
 21
213.3476346499
 31
0.0
  0
LINE
  5
23F
330
238
100
AcDbEntity
  8
0
  6
Continuous
 62
     7
370
     0
100
AcDbLine
 10
66.4372665273
 20
214.3476346499
 30
0.0
 11
72.6872665273
 21
214.3476346499
 31
0.0
  0
LINE
  5
240
330
238
100
AcDbEntity
  8
0
  6
Continuous
 62
     7
370
     0
100
AcDbLine
 10
66.4372665273
 20
214.3476346499
 30
0.0
 11
59.4372665273
 21
214.3476346499
 31
0.0
  0
LINE
  5
241
330
238
100
AcDbEntity
  8
0
  6
Continuous
 62
     7
370
     0
100
AcDbLine
 10
59.4372665273
 20
214.3476346499
 30
0.0
 11
53.1872665273
 21
214.3476346499
 31
0.0
  0
MTEXT
  5
242
330
238
100
AcDbEntity
  8
0
  6
Continuous
 62
     7
370
     0
100
AcDbMText
 10
61.6005890607
 20
218.8593719719
 30
0.0
 40
3.5
 41
0.0
 71
     1
 72
     1
  1
7
  7
SLDTEXTSTYLE1
 73
     1
 44
1.0
  0
ENDBLK
  5
23A
330
238
100
AcDbEntity
  8
0
100
AcDbBlockEnd
  0
BLOCK
  5
246
330
245
100
AcDbEntity
  8
0
100
AcDbBlockBegin
  2
*D22
 70
     1
 10
0.0
 20
0.0
 30
0.0
  3
*D22
  1

  0
SOLID
  5
248
330
245
100
AcDbEntity
  8
0
  6
Continuous
 62
     7
370
     0
100
AcDbTrace
 10
110.4066512117
 20
236.6476346499
 30
0.0
 11
110.9066512117
 21
239.9476346499
 31
0.0
 12
109.9066512117
 22
239.9476346499
 32
0.0
 13
109.9066512117
 23
239.9476346499
 33
0.0
  0
SOLID
  5
249
330
245
100
AcDbEntity
  8
0
  6
Continuous
 62
     7
370
     0
100
AcDbTrace
 10
110.4066512117
 20
258.3476346499
 30
0.0
 11
109.9066512117
 21
255.0476346499
 31
0.0
 12
110.9066512117
 22
255.0476346499
 32
0.0
 13
110.9066512117
 23
255.0476346499
 33
0.0
  0
LINE
  5
24A
330
245
100
AcDbEntity
  8
0
  6
Continuous
 62
     7
370
     0
100
AcDbLine
 10
125.6872665273
 20
236.6476346499
 30
0.0
 11
109.4066512117
 21
236.6476346499
 31
0.0
  0
LINE
  5
24B
330
245
100
AcDbEntity
  8
0
  6
Continuous
 62
     7
370
     0
100
AcDbLine
 10
110.4066512117
 20
236.6476346499
 30
0.0
 11
110.4066512117
 21
258.3476346499
 31
0.0
  0
MTEXT
  5
24C
330
245
100
AcDbEntity
  8
0
  6
Continuous
 62
     7
370
     0
100
AcDbMText
 10
105.8949138897
 20
242.8202964976
 30
0.0
 40
3.5
 41
0.0
 71
     1
 72
     1
  1
21,7
  7
SLDTEXTSTYLE1
 11
6.123233995736766E-17
 21
1.0
 31
0.0
 73
     1
 44
1.0
  0
ENDBLK
  5
247
330
245
100
AcDbEntity
  8
0
100
AcDbBlockEnd
  0
BLOCK
  5
24F
330
24E
100
AcDbEntity
  8
0
100
AcDbBlockBegin
  2
*D23
 70
     1
 10
0.0
 20
0.0
 30
0.0
  3
*D23
  1

  0
SOLID
  5
251
330
24E
100
AcDbEntity
  8
0
  6
Continuous
 62
     7
370
     0
100
AcDbTrace
 10
49.4372665273
 20
241.3476346499
 30
0.0
 11
49.9372665273
 21
244.6476346499
 31
0.0
 12
48.9372665273
 22
244.6476346499
 32
0.0
 13
48.9372665273
 23
244.6476346499
 33
0.0
  0
SOLID
  5
252
330
24E
100
AcDbEntity
  8
0
  6
Continuous
 62
     7
370
     0
100
AcDbTrace
 10
49.4372665273
 20
258.3476346499
 30
0.0
 11
48.9372665273
 21
255.0476346499
 31
0.0
 12
49.9372665273
 22
255.0476346499
 32
0.0
 13
49.9372665273
 23
255.0476346499
 33
0.0
  0
LINE
  5
253
330
24E
100
AcDbEntity
  8
0
  6
Continuous
 62
     7
370
     0
100
AcDbLine
 10
61.4372665273
 20
241.3476346499
 30
0.0
 11
48.4372665273
 21
241.3476346499
 31
0.0
  0
LINE
  5
254
330
24E
100
AcDbEntity
  8
0
  6
Continuous
 62
     7
370
     0
100
AcDbLine
 10
59.4372665273
 20
258.3476346499
 30
0.0
 11
48.4372665273
 21
258.3476346499
 31
0.0
  0
LINE
  5
255
330
24E
100
AcDbEntity
  8
0
  6
Continuous
 62
     7
370
     0
100
AcDbLine
 10
49.4372665273
 20
241.3476346499
 30
0.0
 11
49.4372665273
 21
258.3476346499
 31
0.0
  0
MTEXT
  5
256
330
24E
100
AcDbEntity
  8
0
  6
Continuous
 62
     7
370
     0
100
AcDbMText
 10
44.9255292053
 20
247.1742797166
 30
0.0
 40
3.5
 41
0.0
 71
     1
 72
     1
  1
17
  7
SLDTEXTSTYLE1
 11
6.123233995736766E-17
 21
1.0
 31
0.0
 73
     1
 44
1.0
  0
ENDBLK
  5
250
330
24E
100
AcDbEntity
  8
0
100
AcDbBlockEnd
  0
BLOCK
  5
25A
330
259
100
AcDbEntity
  8
0
100
AcDbBlockBegin
  2
*D24
 70
     1
 10
0.0
 20
0.0
 30
0.0
  3
*D24
  1

  0
SOLID
  5
25C
330
259
100
AcDbEntity
  8
0
  6
Continuous
 62
     7
370
     0
100
AcDbTrace
 10
356.5561285433
 20
243.4976346499
 30
0.0
 11
357.0561285433
 21
246.7976346499
 31
0.0
 12
356.0561285433
 22
246.7976346499
 32
0.0
 13
356.0561285433
 23
246.7976346499
 33
0.0
  0
SOLID
  5
25D
330
259
100
AcDbEntity
  8
0
  6
Continuous
 62
     7
370
     0
100
AcDbTrace
 10
356.5561285433
 20
239.1976346499
 30
0.0
 11
356.0561285433
 21
235.8976346499
 31
0.0
 12
357.0561285433
 22
235.8976346499
 32
0.0
 13
357.0561285433
 23
235.8976346499
 33
0.0
  0
LINE
  5
25E
330
259
100
AcDbEntity
  8
0
  6
Continuous
 62
     7
370
     0
100
AcDbLine
 10
337.4372665273
 20
243.4976346499
 30
0.0
 11
357.5561285433
 21
243.4976346499
 31
0.0
  0
LINE
  5
25F
330
259
100
AcDbEntity
  8
0
  6
Continuous
 62
     7
370
     0
100
AcDbLine
 10
337.4372665273
 20
239.1976346499
 30
0.0
 11
357.5561285433
 21
239.1976346499
 31
0.0
  0
LINE
  5
260
330
259
100
AcDbEntity
  8
0
  6
Continuous
 62
     7
370
     0
100
AcDbLine
 10
356.5561285433
 20
243.4976346499
 30
0.0
 11
356.5561285433
 21
249.7476346499
 31
0.0
  0
LINE
  5
261
330
259
100
AcDbEntity
  8
0
  6
Continuous
 62
     7
370
     0
100
AcDbLine
 10
356.5561285433
 20
243.4976346499
 30
0.0
 11
356.5561285433
 21
239.1976346499
 31
0.0
  0
LINE
  5
262
330
259
100
AcDbEntity
  8
0
  6
Continuous
 62
     7
370
     0
100
AcDbLine
 10
356.5561285433
 20
239.1976346499
 30
0.0
 11
356.5561285433
 21
220.6730146972
 31
0.0
  0
MTEXT
  5
263
330
259
100
AcDbEntity
  8
0
  6
Continuous
 62
     7
370
     0
100
AcDbMText
 10
352.0443914541
 20
222.2605146972
 30
0.0
 40
3.5
 41
0.0
 71
     1
 72
     1
  1
%%c
  7
SLDTEXTSTYLE1
 11
-7.044195017643634E-15
 21
1.0
 31
0.0
 73
     1
 44
1.0
  0
MTEXT
  5
264
330
259
100
AcDbEntity
  8
0
  6
Continuous
 62
     7
370
     0
100
AcDbMText
 10
352.0443912212
 20
227.3634410383
 30
0.0
 40
3.5
 41
0.0
 71
     1
 72
     1
  1
4,3
  7
SLDTEXTSTYLE1
 11
-7.044195017643634E-15
 21
1.0
 31
0.0
 73
     1
 44
1.0
  0
ENDBLK
  5
25B
330
259
100
AcDbEntity
  8
0
100
AcDbBlockEnd
  0
BLOCK
  5
267
330
266
100
AcDbEntity
  8
0
100
AcDbBlockBegin
  2
*D25
 70
     1
 10
0.0
 20
0.0
 30
0.0
  3
*D25
  1

  0
SOLID
  5
269
330
266
100
AcDbEntity
  8
0
  6
Continuous
 62
     7
370
     0
100
AcDbTrace
 10
368.4372665273
 20
245.3476346499
 30
0.0
 11
368.9372665273
 21
248.6476346499
 31
0.0
 12
367.9372665273
 22
248.6476346499
 32
0.0
 13
367.9372665273
 23
248.6476346499
 33
0.0
  0
SOLID
  5
26A
330
266
100
AcDbEntity
  8
0
  6
Continuous
 62
     7
370
     0
100
AcDbTrace
 10
368.4372665273
 20
237.3476346499
 30
0.0
 11
367.9372665273
 21
234.0476346499
 31
0.0
 12
368.9372665273
 22
234.0476346499
 32
0.0
 13
368.9372665273
 23
234.0476346499
 33
0.0
  0
LINE
  5
26B
330
266
100
AcDbEntity
  8
0
  6
Continuous
 62
     7
370
     0
100
AcDbLine
 10
337.4372665273
 20
245.3476346499
 30
0.0
 11
369.4372665273
 21
245.3476346499
 31
0.0
  0
LINE
  5
26C
330
266
100
AcDbEntity
  8
0
  6
Continuous
 62
     7
370
     0
100
AcDbLine
 10
337.4372665273
 20
237.3476346499
 30
0.0
 11
369.4372665273
 21
237.3476346499
 31
0.0
  0
LINE
  5
26D
330
266
100
AcDbEntity
  8
0
  6
Continuous
 62
     7
370
     0
100
AcDbLine
 10
368.4372665273
 20
245.3476346499
 30
0.0
 11
368.4372665273
 21
251.5976346499
 31
0.0
  0
LINE
  5
26E
330
266
100
AcDbEntity
  8
0
  6
Continuous
 62
     7
370
     0
100
AcDbLine
 10
368.4372665273
 20
245.3476346499
 30
0.0
 11
368.4372665273
 21
237.3476346499
 31
0.0
  0
LINE
  5
26F
330
266
100
AcDbEntity
  8
0
  6
Continuous
 62
     7
370
     0
100
AcDbLine
 10
368.4372665273
 20
237.3476346499
 30
0.0
 11
368.4372665273
 21
231.0976346499
 31
0.0
  0
MTEXT
  5
270
330
266
100
AcDbEntity
  8
0
  6
Continuous
 62
     7
370
     0
100
AcDbMText
 10
363.9255294381
 20
237.4594940127
 30
0.0
 40
3.5
 41
0.0
 71
     1
 72
     1
  1
%%c
  7
SLDTEXTSTYLE1
 11
-7.044195017643634E-15
 21
1.0
 31
0.0
 73
     1
 44
1.0
  0
MTEXT
  5
271
330
266
100
AcDbEntity
  8
0
  6
Continuous
 62
     7
370
     0
100
AcDbMText
 10
363.9255292053
 20
242.5624203538
 30
0.0
 40
3.5
 41
0.0
 71
     1
 72
     1
  1
8
  7
SLDTEXTSTYLE1
 11
-7.044195017643634E-15
 21
1.0
 31
0.0
 73
     1
 44
1.0
  0
ENDBLK
  5
268
330
266
100
AcDbEntity
  8
0
100
AcDbBlockEnd
  0
BLOCK
  5
274
330
273
100
AcDbEntity
  8
0
100
AcDbBlockBegin
  2
*D26
 70
     1
 10
0.0
 20
0.0
 30
0.0
  3
*D26
  1

  0
ARC
  5
276
330
273
100
AcDbEntity
  8
0
  6
Continuous
 62
     7
370
     0
100
AcDbCircle
 10
297.2939297867
 20
272.0064721346
 30
0.0
 40
6.005521148881001
100
AcDbArc
 50
153.4349488229
 51
206.5650511771
  0
ARC
  5
277
330
273
100
AcDbEntity
  8
0
  6
Continuous
 62
     7
370
     0
100
AcDbCircle
 10
299.080603268
 20
272.0064721346
 30
0.0
 40
6.005521148881001
100
AcDbArc
 50
333.4349488229
 51
26.5650511771
  0
SOLID
  5
278
330
273
100
AcDbEntity
  8
0
  6
Continuous
 62
     7
370
     0
100
AcDbTrace
 10
251.9372665273
 20
269.3207214287
 30
0.0
 11
255.2372665273
 21
268.8207214287
 31
0.0
 12
255.2372665273
 22
269.8207214287
 32
0.0
 13
255.2372665273
 23
269.8207214287
 33
0.0
  0
SOLID
  5
279
330
273
100
AcDbEntity
  8
0
  6
Continuous
 62
     7
370
     0
100
AcDbTrace
 10
344.4372665273
 20
269.3207214287
 30
0.0
 11
341.1372665273
 21
269.8207214287
 31
0.0
 12
341.1372665273
 22
268.8207214287
 32
0.0
 13
341.1372665273
 23
268.8207214287
 33
0.0
  0
LINE
  5
27A
330
273
100
AcDbEntity
  8
0
  6
Continuous
 62
     7
370
     0
100
AcDbLine
 10
251.9372665273
 20
251.353239391
 30
0.0
 11
251.9372665273
 21
270.3207214287
 31
0.0
  0
LINE
  5
27B
330
273
100
AcDbEntity
  8
0
  6
Continuous
 62
     7
370
     0
100
AcDbLine
 10
344.4372665273
 20
258.3476346499
 30
0.0
 11
344.4372665273
 21
270.3207214287
 31
0.0
  0
LINE
  5
27C
330
273
100
AcDbEntity
  8
0
  6
Continuous
 62
     7
370
     0
100
AcDbLine
 10
251.9372665273
 20
269.3207214287
 30
0.0
 11
344.4372665273
 21
269.3207214287
 31
0.0
  0
MTEXT
  5
27D
330
273
100
AcDbEntity
  8
0
  6
Continuous
 62
     7
370
     0
100
AcDbMText
 10
293.509928375
 20
273.8324587508
 30
0.0
 40
3.5
 41
0.0
 71
     1
 72
     1
  1
92,5
  7
SLDTEXTSTYLE1
 73
     1
 44
1.0
  0
ENDBLK
  5
275
330
273
100
AcDbEntity
  8
0
100
AcDbBlockEnd
  0
BLOCK
  5
282
330
281
100
AcDbEntity
  8
0
100
AcDbBlockBegin
  2
SW_CENTERMARKSYMBOL_0
 70
     0
 10
0.0
 20
0.0
 30
0.0
  3
SW_CENTERMARKSYMBOL_0
  1

  0
LINE
  5
284
330
281
100
AcDbEntity
  8
0
  6
Continuous
 62
     0
370
     0
100
AcDbLine
 10
0.0
 20
0.0
 30
0.0
 11
0.0
 21
1.0
 31
0.0
  0
LINE
  5
285
330
281
100
AcDbEntity
  8
0
  6
Continuous
 62
     0
370
     0
100
AcDbLine
 10
0.0
 20
0.0
 30
0.0
 11
-1.0
 21
0.0
 31
0.0
  0
LINE
  5
286
330
281
100
AcDbEntity
  8
0
  6
Continuous
 62
     0
370
     0
100
AcDbLine
 10
0.0
 20
0.0
 30
0.0
 11
0.0
 21
-1.0
 31
0.0
  0
LINE
  5
287
330
281
100
AcDbEntity
  8
0
  6
Continuous
 62
     0
370
     0
100
AcDbLine
 10
0.0
 20
0.0
 30
0.0
 11
1.0
 21
0.0
 31
0.0
  0
LINE
  5
288
330
281
100
AcDbEntity
  8
0
  6
Continuous
 62
     0
370
     0
100
AcDbLine
 10
0.0
 20
2.0
 30
0.0
 11
0.0
 21
5.0
 31
0.0
  0
LINE
  5
289
330
281
100
AcDbEntity
  8
0
  6
Continuous
 62
     0
370
     0
100
AcDbLine
 10
-2.0
 20
0.0
 30
0.0
 11
-5.0
 21
0.0
 31
0.0
  0
LINE
  5
28A
330
281
100
AcDbEntity
  8
0
  6
Continuous
 62
     0
370
     0
100
AcDbLine
 10
0.0
 20
-2.0
 30
0.0
 11
0.0
 21
-5.0
 31
0.0
  0
LINE
  5
28B
330
281
100
AcDbEntity
  8
0
  6
Continuous
 62
     0
370
     0
100
AcDbLine
 10
2.0
 20
0.0
 30
0.0
 11
5.0
 21
0.0
 31
0.0
  0
ENDBLK
  5
283
330
281
100
AcDbEntity
  8
0
100
AcDbBlockEnd
  0
BLOCK
  5
28E
330
28D
100
AcDbEntity
  8
0
100
AcDbBlockBegin
  2
SW_CENTERMARKSYMBOL_1
 70
     0
 10
0.0
 20
0.0
 30
0.0
  3
SW_CENTERMARKSYMBOL_1
  1

  0
LINE
  5
290
330
28D
100
AcDbEntity
  8
0
  6
Continuous
 62
     0
370
     0
100
AcDbLine
 10
0.0
 20
0.0
 30
0.0
 11
0.0
 21
1.0
 31
0.0
  0
LINE
  5
291
330
28D
100
AcDbEntity
  8
0
  6
Continuous
 62
     0
370
     0
100
AcDbLine
 10
0.0
 20
0.0
 30
0.0
 11
-1.0
 21
0.0
 31
0.0
  0
LINE
  5
292
330
28D
100
AcDbEntity
  8
0
  6
Continuous
 62
     0
370
     0
100
AcDbLine
 10
0.0
 20
0.0
 30
0.0
 11
0.0
 21
-1.0
 31
0.0
  0
LINE
  5
293
330
28D
100
AcDbEntity
  8
0
  6
Continuous
 62
     0
370
     0
100
AcDbLine
 10
0.0
 20
0.0
 30
0.0
 11
1.0
 21
0.0
 31
0.0
  0
LINE
  5
294
330
28D
100
AcDbEntity
  8
0
  6
Continuous
 62
     0
370
     0
100
AcDbLine
 10
0.0
 20
2.0
 30
0.0
 11
0.0
 21
5.0
 31
0.0
  0
LINE
  5
295
330
28D
100
AcDbEntity
  8
0
  6
Continuous
 62
     0
370
     0
100
AcDbLine
 10
-2.0
 20
0.0
 30
0.0
 11
-5.0
 21
0.0
 31
0.0
  0
LINE
  5
296
330
28D
100
AcDbEntity
  8
0
  6
Continuous
 62
     0
370
     0
100
AcDbLine
 10
0.0
 20
-2.0
 30
0.0
 11
0.0
 21
-5.0
 31
0.0
  0
LINE
  5
297
330
28D
100
AcDbEntity
  8
0
  6
Continuous
 62
     0
370
     0
100
AcDbLine
 10
2.0
 20
0.0
 30
0.0
 11
5.0
 21
0.0
 31
0.0
  0
ENDBLK
  5
28F
330
28D
100
AcDbEntity
  8
0
100
AcDbBlockEnd
  0
BLOCK
  5
29A
330
299
100
AcDbEntity
  8
0
100
AcDbBlockBegin
  2
SW_CENTERMARKSYMBOL_2
 70
     0
 10
0.0
 20
0.0
 30
0.0
  3
SW_CENTERMARKSYMBOL_2
  1

  0
LINE
  5
29C
330
299
100
AcDbEntity
  8
0
  6
Continuous
 62
     0
370
     0
100
AcDbLine
 10
0.0
 20
0.0
 30
0.0
 11
0.0
 21
1.0
 31
0.0
  0
LINE
  5
29D
330
299
100
AcDbEntity
  8
0
  6
Continuous
 62
     0
370
     0
100
AcDbLine
 10
0.0
 20
0.0
 30
0.0
 11
-1.0
 21
0.0
 31
0.0
  0
LINE
  5
29E
330
299
100
AcDbEntity
  8
0
  6
Continuous
 62
     0
370
     0
100
AcDbLine
 10
0.0
 20
0.0
 30
0.0
 11
0.0
 21
-1.0
 31
0.0
  0
LINE
  5
29F
330
299
100
AcDbEntity
  8
0
  6
Continuous
 62
     0
370
     0
100
AcDbLine
 10
0.0
 20
0.0
 30
0.0
 11
1.0
 21
0.0
 31
0.0
  0
LINE
  5
2A0
330
299
100
AcDbEntity
  8
0
  6
Continuous
 62
     0
370
     0
100
AcDbLine
 10
0.0
 20
2.0
 30
0.0
 11
0.0
 21
4.9
 31
0.0
  0
LINE
  5
2A1
330
299
100
AcDbEntity
  8
0
  6
Continuous
 62
     0
370
     0
100
AcDbLine
 10
-2.0
 20
0.0
 30
0.0
 11
-4.9
 21
0.0
 31
0.0
  0
LINE
  5
2A2
330
299
100
AcDbEntity
  8
0
  6
Continuous
 62
     0
370
     0
100
AcDbLine
 10
0.0
 20
-2.0
 30
0.0
 11
0.0
 21
-4.9
 31
0.0
  0
LINE
  5
2A3
330
299
100
AcDbEntity
  8
0
  6
Continuous
 62
     0
370
     0
100
AcDbLine
 10
2.0
 20
0.0
 30
0.0
 11
4.9
 21
0.0
 31
0.0
  0
ENDBLK
  5
29B
330
299
100
AcDbEntity
  8
0
100
AcDbBlockEnd
  0
BLOCK
  5
2A6
330
2A5
100
AcDbEntity
  8
0
100
AcDbBlockBegin
  2
SW_CENTERMARKSYMBOL_3
 70
     0
 10
0.0
 20
0.0
 30
0.0
  3
SW_CENTERMARKSYMBOL_3
  1

  0
LINE
  5
2A8
330
2A5
100
AcDbEntity
  8
0
  6
Continuous
 62
     0
370
     0
100
AcDbLine
 10
0.0
 20
0.0
 30
0.0
 11
0.0
 21
1.0
 31
0.0
  0
LINE
  5
2A9
330
2A5
100
AcDbEntity
  8
0
  6
Continuous
 62
     0
370
     0
100
AcDbLine
 10
0.0
 20
0.0
 30
0.0
 11
-1.0
 21
0.0
 31
0.0
  0
LINE
  5
2AA
330
2A5
100
AcDbEntity
  8
0
  6
Continuous
 62
     0
370
     0
100
AcDbLine
 10
0.0
 20
0.0
 30
0.0
 11
0.0
 21
-1.0
 31
0.0
  0
LINE
  5
2AB
330
2A5
100
AcDbEntity
  8
0
  6
Continuous
 62
     0
370
     0
100
AcDbLine
 10
0.0
 20
0.0
 30
0.0
 11
1.0
 21
0.0
 31
0.0
  0
LINE
  5
2AC
330
2A5
100
AcDbEntity
  8
0
  6
Continuous
 62
     0
370
     0
100
AcDbLine
 10
0.0
 20
2.0
 30
0.0
 11
0.0
 21
4.9
 31
0.0
  0
LINE
  5
2AD
330
2A5
100
AcDbEntity
  8
0
  6
Continuous
 62
     0
370
     0
100
AcDbLine
 10
-2.0
 20
0.0
 30
0.0
 11
-4.9
 21
0.0
 31
0.0
  0
LINE
  5
2AE
330
2A5
100
AcDbEntity
  8
0
  6
Continuous
 62
     0
370
     0
100
AcDbLine
 10
0.0
 20
-2.0
 30
0.0
 11
0.0
 21
-4.9
 31
0.0
  0
LINE
  5
2AF
330
2A5
100
AcDbEntity
  8
0
  6
Continuous
 62
     0
370
     0
100
AcDbLine
 10
2.0
 20
0.0
 30
0.0
 11
4.9
 21
0.0
 31
0.0
  0
ENDBLK
  5
2A7
330
2A5
100
AcDbEntity
  8
0
100
AcDbBlockEnd
  0
BLOCK
  5
2B2
330
2B1
100
AcDbEntity
  8
0
100
AcDbBlockBegin
  2
SW_CENTERMARKSYMBOL_4
 70
     0
 10
0.0
 20
0.0
 30
0.0
  3
SW_CENTERMARKSYMBOL_4
  1

  0
LINE
  5
2B4
330
2B1
100
AcDbEntity
  8
0
  6
Continuous
 62
     0
370
     0
100
AcDbLine
 10
0.0
 20
0.0
 30
0.0
 11
0.0
 21
1.0
 31
0.0
  0
LINE
  5
2B5
330
2B1
100
AcDbEntity
  8
0
  6
Continuous
 62
     0
370
     0
100
AcDbLine
 10
0.0
 20
0.0
 30
0.0
 11
-1.0
 21
0.0
 31
0.0
  0
LINE
  5
2B6
330
2B1
100
AcDbEntity
  8
0
  6
Continuous
 62
     0
370
     0
100
AcDbLine
 10
0.0
 20
0.0
 30
0.0
 11
0.0
 21
-1.0
 31
0.0
  0
LINE
  5
2B7
330
2B1
100
AcDbEntity
  8
0
  6
Continuous
 62
     0
370
     0
100
AcDbLine
 10
0.0
 20
0.0
 30
0.0
 11
1.0
 21
0.0
 31
0.0
  0
LINE
  5
2B8
330
2B1
100
AcDbEntity
  8
0
  6
Continuous
 62
     0
370
     0
100
AcDbLine
 10
0.0
 20
2.0
 30
0.0
 11
0.0
 21
4.9
 31
0.0
  0
LINE
  5
2B9
330
2B1
100
AcDbEntity
  8
0
  6
Continuous
 62
     0
370
     0
100
AcDbLine
 10
-2.0
 20
0.0
 30
0.0
 11
-4.9
 21
0.0
 31
0.0
  0
LINE
  5
2BA
330
2B1
100
AcDbEntity
  8
0
  6
Continuous
 62
     0
370
     0
100
AcDbLine
 10
0.0
 20
-2.0
 30
0.0
 11
0.0
 21
-4.9
 31
0.0
  0
LINE
  5
2BB
330
2B1
100
AcDbEntity
  8
0
  6
Continuous
 62
     0
370
     0
100
AcDbLine
 10
2.0
 20
0.0
 30
0.0
 11
4.9
 21
0.0
 31
0.0
  0
ENDBLK
  5
2B3
330
2B1
100
AcDbEntity
  8
0
100
AcDbBlockEnd
  0
BLOCK
  5
2BE
330
2BD
100
AcDbEntity
  8
0
100
AcDbBlockBegin
  2
SW_CENTERMARKSYMBOL_5
 70
     0
 10
0.0
 20
0.0
 30
0.0
  3
SW_CENTERMARKSYMBOL_5
  1

  0
LINE
  5
2C0
330
2BD
100
AcDbEntity
  8
0
  6
Continuous
 62
     0
370
     0
100
AcDbLine
 10
0.0
 20
0.0
 30
0.0
 11
0.0
 21
1.0
 31
0.0
  0
LINE
  5
2C1
330
2BD
100
AcDbEntity
  8
0
  6
Continuous
 62
     0
370
     0
100
AcDbLine
 10
0.0
 20
0.0
 30
0.0
 11
-1.0
 21
0.0
 31
0.0
  0
LINE
  5
2C2
330
2BD
100
AcDbEntity
  8
0
  6
Continuous
 62
     0
370
     0
100
AcDbLine
 10
0.0
 20
0.0
 30
0.0
 11
0.0
 21
-1.0
 31
0.0
  0
LINE
  5
2C3
330
2BD
100
AcDbEntity
  8
0
  6
Continuous
 62
     0
370
     0
100
AcDbLine
 10
0.0
 20
0.0
 30
0.0
 11
1.0
 21
0.0
 31
0.0
  0
LINE
  5
2C4
330
2BD
100
AcDbEntity
  8
0
  6
Continuous
 62
     0
370
     0
100
AcDbLine
 10
0.0
 20
2.0
 30
0.0
 11
0.0
 21
4.9
 31
0.0
  0
LINE
  5
2C5
330
2BD
100
AcDbEntity
  8
0
  6
Continuous
 62
     0
370
     0
100
AcDbLine
 10
-2.0
 20
0.0
 30
0.0
 11
-4.9
 21
0.0
 31
0.0
  0
LINE
  5
2C6
330
2BD
100
AcDbEntity
  8
0
  6
Continuous
 62
     0
370
     0
100
AcDbLine
 10
0.0
 20
-2.0
 30
0.0
 11
0.0
 21
-4.9
 31
0.0
  0
LINE
  5
2C7
330
2BD
100
AcDbEntity
  8
0
  6
Continuous
 62
     0
370
     0
100
AcDbLine
 10
2.0
 20
0.0
 30
0.0
 11
4.9
 21
0.0
 31
0.0
  0
ENDBLK
  5
2BF
330
2BD
100
AcDbEntity
  8
0
100
AcDbBlockEnd
  0
BLOCK
  5
360
330
35F
100
AcDbEntity
  8
0
100
AcDbBlockBegin
  2
*D33
 70
     1
 10
0.0
 20
0.0
 30
0.0
  3
*D33
  1

  0
SOLID
  5
362
330
35F
100
AcDbEntity
  8
0
  6
Continuous
 62
     7
370
     0
100
AcDbTrace
 10
50.4244620535
 20
153.1268667032
 30
0.0
 11
49.9244620535
 21
149.8268667032
 31
0.0
 12
50.9244620535
 22
149.8268667032
 32
0.0
 13
50.9244620535
 23
149.8268667032
 33
0.0
  0
SOLID
  5
363
330
35F
100
AcDbEntity
  8
0
  6
Continuous
 62
     7
370
     0
100
AcDbTrace
 10
50.4244620535
 20
156.1268667032
 30
0.0
 11
50.9244620535
 21
159.4268667032
 31
0.0
 12
49.9244620535
 22
159.4268667032
 32
0.0
 13
49.9244620535
 23
159.4268667032
 33
0.0
  0
LINE
  5
364
330
35F
100
AcDbEntity
  8
0
  6
Continuous
 62
     7
370
     0
100
AcDbLine
 10
59.4372665273
 20
153.1268667032
 30
0.0
 11
49.4244620535
 21
153.1268667032
 31
0.0
  0
LINE
  5
365
330
35F
100
AcDbEntity
  8
0
  6
Continuous
 62
     7
370
     0
100
AcDbLine
 10
59.4372665273
 20
156.1268667032
 30
0.0
 11
49.4244620535
 21
156.1268667032
 31
0.0
  0
LINE
  5
366
330
35F
100
AcDbEntity
  8
0
  6
Continuous
 62
     7
370
     0
100
AcDbLine
 10
50.4244620535
 20
153.1268667032
 30
0.0
 11
50.4244620535
 21
146.8768667032
 31
0.0
  0
LINE
  5
367
330
35F
100
AcDbEntity
  8
0
  6
Continuous
 62
     7
370
     0
100
AcDbLine
 10
50.4244620535
 20
153.1268667032
 30
0.0
 11
50.4244620535
 21
156.1268667032
 31
0.0
  0
LINE
  5
368
330
35F
100
AcDbEntity
  8
0
  6
Continuous
 62
     7
370
     0
100
AcDbLine
 10
50.4244620535
 20
156.1268667032
 30
0.0
 11
50.4244620535
 21
164.6067728289
 31
0.0
  0
MTEXT
  5
369
330
35F
100
AcDbEntity
  8
0
  6
Continuous
 62
     7
370
     0
100
AcDbMText
 10
45.9127247315
 20
160.3459178956
 30
0.0
 40
3.5
 41
0.0
 71
     1
 72
     1
  1
3
  7
SLDTEXTSTYLE1
 11
6.123233995736766E-17
 21
1.0
 31
0.0
 73
     1
 44
1.0
  0
ENDBLK
  5
361
330
35F
100
AcDbEntity
  8
0
100
AcDbBlockEnd
  0
ENDSEC
  0
SECTION
  2
ENTITIES
  0
LINE
  5
144
330
1F
100
AcDbEntity
  8
0
  6
Continuous
 62
     7
370
     0
100
AcDbLine
 10
420.0
 20
297.0
 30
0.0
 11
420.0
 21
0.1
 31
0.0
  0
LINE
  5
145
330
1F
100
AcDbEntity
  8
0
  6
Continuous
 62
     7
370
     0
100
AcDbLine
 10
420.0
 20
0.1
 30
0.0
 11
0.0
 21
0.1
 31
0.0
  0
LINE
  5
146
330
1F
100
AcDbEntity
  8
0
  6
Continuous
 62
     7
370
     0
100
AcDbLine
 10
0.0
 20
0.1
 30
0.0
 11
0.0
 21
297.0
 31
0.0
  0
LINE
  5
147
330
1F
100
AcDbEntity
  8
0
  6
Continuous
 62
     7
370
     0
100
AcDbLine
 10
0.0
 20
297.0
 30
0.0
 11
420.0
 21
297.0
 31
0.0
  0
LINE
  5
148
330
1F
100
AcDbEntity
  8
LINIEN-DICK
100
AcDbLine
 10
415.0
 20
292.0
 30
0.0
 11
5.0
 21
292.0
 31
0.0
  0
LINE
  5
149
330
1F
100
AcDbEntity
  8
LINIEN-DICK
100
AcDbLine
 10
5.0
 20
292.0
 30
0.0
 11
5.0
 21
5.0
 31
0.0
  0
LINE
  5
14A
330
1F
100
AcDbEntity
  8
0
  6
Continuous
 62
     7
370
     0
100
AcDbLine
 10
21.0
 20
292.0
 30
0.0
 11
21.0
 21
5.0
 31
0.0
  0
LINE
  5
14B
330
1F
100
AcDbEntity
  8
LINIEN-DICK
100
AcDbLine
 10
5.0
 20
5.0
 30
0.0
 11
227.8
 21
5.0
 31
0.0
  0
LINE
  5
14C
330
1F
100
AcDbEntity
  8
LINIEN-DICK
100
AcDbLine
 10
415.0
 20
60.25
 30
0.0
 11
415.0
 21
292.0
 31
0.0
  0
LINE
  5
14D
330
1F
100
AcDbEntity
  8
LINIEN-DICK
100
AcDbLine
 10
227.8
 20
60.25
 30
0.0
 11
227.8
 21
5.0
 31
0.0
  0
LINE
  5
14E
330
1F
100
AcDbEntity
  8
0
  6
Continuous
 62
     7
370
     0
100
AcDbLine
 10
235.42
 20
43.25
 30
0.0
 11
235.42
 21
5.0
 31
0.0
  0
LINE
  5
14F
330
1F
100
AcDbEntity
  8
0
  6
Continuous
 62
     7
370
     0
100
AcDbLine
 10
260.82
 20
5.0
 30
0.0
 11
260.82
 21
43.25
 31
0.0
  0
LINE
  5
150
330
1F
100
AcDbEntity
  8
0
  6
Continuous
 62
     7
370
     0
100
AcDbLine
 10
281.14
 20
22.0
 30
0.0
 11
415.0
 21
22.0
 31
0.0
  0
LINE
  5
151
330
1F
100
AcDbEntity
  8
0
  6
Continuous
 62
     7
370
     0
100
AcDbLine
 10
415.0
 20
43.25
 30
0.0
 11
227.8
 21
43.25
 31
0.0
  0
LINE
  5
152
330
1F
100
AcDbEntity
  8
LINIEN-DICK
100
AcDbLine
 10
227.8
 20
60.25
 30
0.0
 11
415.0
 21
60.25
 31
0.0
  0
LINE
  5
153
330
1F
100
AcDbEntity
  8
0
  6
Continuous
 62
     7
370
     0
100
AcDbLine
 10
281.14
 20
38.9447711707
 30
0.0
 11
227.8
 21
38.9447711707
 31
0.0
  0
LINE
  5
154
330
1F
100
AcDbEntity
  8
0
  6
Continuous
 62
     7
370
     0
100
AcDbLine
 10
281.14
 20
5.0
 30
0.0
 11
281.14
 21
60.25
 31
0.0
  0
LINE
  5
155
330
1F
100
AcDbEntity
  8
LINIEN-DICK
100
AcDbLine
 10
324.32
 20
60.25
 30
0.0
 11
324.32
 21
5.0
 31
0.0
  0
LINE
  5
156
330
1F
100
AcDbEntity
  8
0
  6
Continuous
 62
     7
370
     0
100
AcDbLine
 10
273.52
 20
43.25
 30
0.0
 11
273.52
 21
5.0
 31
0.0
  0
LINE
  5
157
330
1F
100
AcDbEntity
  8
0
  6
Continuous
 62
     7
370
     0
100
AcDbLine
 10
290.5491845626
 20
22.0
 30
0.0
 11
290.5491845626
 21
43.25
 31
0.0
  0
LINE
  5
158
330
1F
100
AcDbEntity
  8
0
  6
Continuous
 62
     7
370
     0
100
AcDbLine
 10
281.14
 20
13.5
 30
0.0
 11
227.8
 21
13.5
 31
0.0
  0
LINE
  5
159
330
1F
100
AcDbEntity
  8
0
  6
Continuous
 62
     7
370
     0
100
AcDbLine
 10
306.6969257405
 20
60.25
 30
0.0
 11
306.6969257405
 21
22.0
 31
0.0
  0
LINE
  5
15A
330
1F
100
AcDbEntity
  8
0
  6
Continuous
 62
     7
370
     0
100
AcDbLine
 10
368.48
 20
5.0
 30
0.0
 11
368.48
 21
9.25
 31
0.0
  0
LINE
  5
15B
330
1F
100
AcDbEntity
  8
0
  6
Continuous
 62
     7
370
     0
100
AcDbLine
 10
376.28
 20
53.875
 30
0.0
 11
376.28
 21
60.25
 31
0.0
  0
LINE
  5
15C
330
1F
100
AcDbEntity
  8
0
  6
Continuous
 62
     7
370
     0
100
AcDbLine
 10
227.8
 20
9.23
 30
0.0
 11
415.0
 21
9.23
 31
0.0
  0
LINE
  5
15D
330
1F
100
AcDbEntity
  8
0
  6
Continuous
 62
     7
370
     0
100
AcDbLine
 10
399.68
 20
9.25
 30
0.0
 11
399.68
 21
22.0
 31
0.0
  0
LINE
  5
15E
330
1F
100
AcDbEntity
  8
0
  6
Continuous
 62
     7
370
     0
100
AcDbLine
 10
415.0
 20
53.875
 30
0.0
 11
324.32
 21
53.875
 31
0.0
  0
LINE
  5
15F
330
1F
100
AcDbEntity
  8
LINIEN-DICK
100
AcDbLine
 10
415.0
 20
5.0
 30
0.0
 11
415.0
 21
60.25
 31
0.0
  0
LINE
  5
160
330
1F
100
AcDbEntity
  8
LINIEN-DICK
100
AcDbLine
 10
227.8
 20
5.0
 30
0.0
 11
415.0
 21
5.0
 31
0.0
  0
LINE
  5
161
330
1F
100
AcDbEntity
  8
0
  6
Continuous
 62
     7
370
     0
100
AcDbLine
 10
281.14
 20
17.75
 30
0.0
 11
227.8
 21
17.75
 31
0.0
  0
LINE
  5
162
330
1F
100
AcDbEntity
  8
0
  6
Continuous
 62
     7
370
     0
100
AcDbLine
 10
281.14
 20
22.0
 30
0.0
 11
227.8
 21
22.0
 31
0.0
  0
LINE
  5
163
330
1F
100
AcDbEntity
  8
0
  6
Continuous
 62
     7
370
     0
100
AcDbLine
 10
324.32
 20
26.25
 30
0.0
 11
227.8
 21
26.25
 31
0.0
  0
LINE
  5
164
330
1F
100
AcDbEntity
  8
0
  6
Continuous
 62
     7
370
     0
100
AcDbLine
 10
324.32
 20
30.5
 30
0.0
 11
227.8
 21
30.5
 31
0.0
  0
LINE
  5
165
330
1F
100
AcDbEntity
  8
0
  6
Continuous
 62
     7
370
     0
100
AcDbLine
 10
324.32
 20
34.75
 30
0.0
 11
227.8
 21
34.75
 31
0.0
  0
LINE
  5
166
330
1F
100
AcDbEntity
  8
0
  6
Continuous
 62
     7
370
     0
100
AcDbLine
 10
324.32
 20
38.9447711707
 30
0.0
 11
281.14
 21
38.9447711707
 31
0.0
  0
LINE
  5
167
330
1F
100
AcDbEntity
  8
0
  6
Continuous
 62
     7
370
     0
100
AcDbLine
 10
415.0
 20
13.5
 30
0.0
 11
399.68
 21
13.5
 31
0.0
  0
INSERT
  5
168
330
1F
100
AcDbEntity
  8
0
  6
Continuous
 62
     7
100
AcDbBlockReference
  2
effeff Logo fuer Schriftkopf
 10
281.4163612828
 20
9.5537357694
 30
0.0
  0
INSERT
  5
171
330
1F
100
AcDbEntity
  8
0
  6
Continuous
 62
     7
370
     0
100
AcDbBlockReference
  2
SW_NOTE_1
 10
228.4615052655
 20
84.6173666915
 30
0.0
  0
MTEXT
  5
172
330
1F
100
AcDbEntity
  8
0
  6
Continuous
 62
     7
370
     0
100
AcDbMText
 10
325.8260642912
 20
21.0127144526
 30
0.0
 40
2.5
 41
0.0
 71
     1
 72
     1
  1
Zeichnungsnummer/drawing number:
  7
SLDTEXTSTYLE1
 73
     1
 44
1.0
  0
MTEXT
  5
173
330
1F
100
AcDbEntity
  8
0
  6
Continuous
 62
     7
370
     0
100
AcDbMText
 10
325.8260642912
 20
52.3779131886
 30
0.0
 40
2.5
 41
0.0
 71
     1
 72
     1
  1
Werkstoff/material:
  7
SLDTEXTSTYLE1
 73
     1
 44
1.0
  0
INSERT
  5
179
330
1F
100
AcDbEntity
  8
0
  6
Continuous
 62
     7
370
     0
100
AcDbBlockReference
  2
SW_NOTE_2
 10
400.679992
 20
19.3836658113
 30
0.0
  0
MTEXT
  5
17A
330
1F
100
AcDbEntity
  8
0
  6
Continuous
 62
     7
370
     0
100
AcDbMText
 10
308.6624886193
 20
42.1115838431
 30
0.0
 40
2.0
 41
0.0
 71
     1
 72
     1
  1
Name/name
  7
SLDTEXTSTYLE1
 73
     1
 44
1.0
  0
MTEXT
  5
17B
330
1F
100
AcDbEntity
  8
0
  6
Continuous
 62
     7
370
     0
100
AcDbMText
 10
291.5276529145
 20
42.2400306748
 30
0.0
 40
2.1166666667
 41
0.0
 71
     1
 72
     1
  1
Datum/date
  7
SLDTEXTSTYLE1
 73
     1
 44
1.0
  0
MTEXT
  5
17C
330
1F
100
AcDbEntity
  8
0
  6
Continuous
 62
     7
370
     0
100
AcDbMText
 10
325.7973605375
 20
58.5086132061
 30
0.0
 40
2.5
 41
0.0
 71
     1
 72
     1
  1
Maßstab/scale: 1:1
  7
SLDTEXTSTYLE1
 73
     1
 44
1.0
  0
INSERT
  5
182
330
1F
100
AcDbEntity
  8
0
  6
Continuous
 62
     7
370
     0
100
AcDbBlockReference
  2
SW_NOTE_3
 10
281.5969414389
 20
24.2146643741
 30
0.0
  0
INSERT
  5
188
330
1F
100
AcDbEntity
  8
0
  6
Continuous
 62
     7
370
     0
100
AcDbBlockReference
  2
SW_NOTE_4
 10
281.5969414389
 20
32.6160489974
 30
0.0
  0
INSERT
  5
18E
330
1F
100
AcDbEntity
  8
0
  6
Continuous
 62
     7
370
     0
100
AcDbBlockReference
  2
SW_NOTE_5
 10
281.5969414389
 20
36.7918740267
 30
0.0
  0
INSERT
  5
194
330
1F
100
AcDbEntity
  8
0
  6
Continuous
 62
     7
370
     0
100
AcDbBlockReference
  2
SW_NOTE_6
 10
274.5994263081
 20
7.1633912139
 30
0.0
  0
INSERT
  5
19A
330
1F
100
AcDbEntity
  8
0
  6
Continuous
 62
     7
370
     0
100
AcDbBlockReference
  2
SW_NOTE_7
 10
264.1179175561
 20
7.1633910975
 30
0.0
  0
INSERT
  5
1A0
330
1F
100
AcDbEntity
  8
0
  6
Continuous
 62
     7
370
     0
100
AcDbBlockReference
  2
SW_NOTE_8
 10
242.4345306832
 20
7.1633909811
 30
0.0
  0
INSERT
  5
1A6
330
1F
100
AcDbEntity
  8
0
  6
Continuous
 62
     7
370
     0
100
AcDbBlockReference
  2
SW_NOTE_9
 10
228.8348455297
 20
6.9203474822
 30
0.0
  0
MTEXT
  5
1A7
330
1F
100
AcDbEntity
  8
0
  6
Continuous
 62
     7
370
     0
100
AcDbMText
 10
325.5963189226
 20
41.9881722711
 30
0.0
 40
2.5
 41
0.0
 71
     1
 72
     1
  1
Benennung/name:
  7
SLDTEXTSTYLE1
 73
     1
 44
1.0
  0
MTEXT
  5
1A8
330
1F
100
AcDbEntity
  8
0
  6
Continuous
 62
     7
370
     0
100
AcDbMText
 10
389.3572359152
 20
58.6789710928
 30
0.0
 40
2.6458333333
 41
0.0
 71
     1
 72
     1
  1
172693
  7
SLDTEXTSTYLE0
 73
     1
 44
1.0
  0
MTEXT
  5
1A9
330
1F
100
AcDbEntity
  8
0
  6
Continuous
 62
     7
370
     0
100
AcDbMText
 10
368.7973606246
 20
53.1292798643
 30
0.0
 40
2.1166666667
 41
0.0
 71
     1
 72
     1
  1
SBL-Flach
  7
SLDTEXTSTYLE0
 73
     1
 44
1.0
  0
MTEXT
  5
1AA
330
1F
100
AcDbEntity
  8
0
  6
Continuous
 62
     7
370
     0
100
AcDbMText
 10
339.6372376212
 20
36.8399577249
 30
0.0
 40
3.7041666667
 41
0.0
 71
     1
 72
     1
  1
Schliessblech Profix 2
  7
SLDTEXTSTYLE0
 73
     1
 44
1.0
  0
MTEXT
  5
1AB
330
1F
100
AcDbEntity
  8
0
  6
Continuous
 62
     7
370
     0
100
AcDbMText
 10
354.5327913219
 20
31.79580762
 30
0.0
 40
3.7041666667
 41
0.0
 71
     1
 72
     1
  1
face plate
  7
SLDTEXTSTYLE0
 73
     1
 44
1.0
  0
MTEXT
  5
1AC
330
1F
100
AcDbEntity
  8
0
  6
Continuous
 62
     7
370
     0
100
AcDbMText
 10
347.9887647757
 20
26.9758419643
 30
0.0
 40
3.7041666667
 41
0.0
 71
     1
 72
     1
  1
Masszeichnung
  7
SLDTEXTSTYLE0
 73
     1
 44
1.0
  0
MTEXT
  5
1AD
330
1F
100
AcDbEntity
  8
0
  6
Continuous
 62
     7
370
     0
100
AcDbMText
 10
325.9399734772
 20
15.7666195091
 30
0.0
 40
3.7041666667
 41
0.0
 71
     1
 72
     1
  1
118.13-70-42-01-1000
  7
SLDTEXTSTYLE0
 73
     1
 44
1.0
  0
MTEXT
  5
1AE
330
1F
100
AcDbEntity
  8
0
  6
Continuous
 62
     7
370
     0
100
AcDbMText
 10
311.805474309
 20
38.0103977868
 30
0.0
 40
2.1166666667
 41
0.0
 71
     1
 72
     1
  1
failer
  7
SLDTEXTSTYLE0
 73
     1
 44
1.0
  0
MTEXT
  5
1AF
330
1F
100
AcDbEntity
  8
0
  6
Continuous
 62
     7
370
     0
100
AcDbMText
 10
291.5635737288
 20
38.0103977868
 30
0.0
 40
2.1166666667
 41
0.0
 71
     1
 72
     1
  1
12.01.11
  7
SLDTEXTSTYLE0
 73
     1
 44
1.0
  0
MTEXT
  5
1B0
330
1F
100
AcDbEntity
  8
0
  6
Continuous
 62
     7
370
     0
100
AcDbMText
 10
325.9399734772
 20
8.9548062719
 30
0.0
 40
2.9104166667
 41
0.0
 71
     1
 72
     1
  1
-------49C..-01
  7
SLDTEXTSTYLE0
 73
     1
 44
1.0
  0
MTEXT
  5
1B1
330
1F
100
AcDbEntity
  8
0
  6
Continuous
 62
     7
370
     0
100
AcDbMText
 10
400.4718753549
 20
16.4743802336
 30
0.0
 40
2.1166666667
 41
0.0
 71
     1
 72
     1
  1
1
  7
SLDTEXTSTYLE1
 73
     1
 44
1.0
  0
MTEXT
  5
1B2
330
1F
100
AcDbEntity
  8
0
  6
Continuous
 62
     7
370
     0
100
AcDbMText
 10
403.2139810665
 20
16.4743801754
 30
0.0
 40
2.1166666667
 41
0.0
 71
     1
 72
     1
  1
(A3)
  7
SLDTEXTSTYLE1
 73
     1
 44
1.0
  0
MTEXT
  5
1B3
330
1F
100
AcDbEntity
  8
0
  6
Continuous
 62
     7
370
     0
100
AcDbMText
 10
408.0730426314
 20
12.2318141691
 30
0.0
 40
2.1166666667
 41
0.0
 71
     1
 72
     1
  1
1
  7
SLDTEXTSTYLE1
 73
     1
 44
1.0
  0
MTEXT
  5
1B4
330
1F
100
AcDbEntity
  8
0
  6
Continuous
 62
     7
370
     0
100
AcDbMText
 10
400.4718753549
 20
12.2318141691
 30
0.0
 40
2.1166666667
 41
0.0
 71
     1
 72
     1
  1
1 von
  7
SLDTEXTSTYLE1
 73
     1
 44
1.0
  0
INSERT
  5
1BA
330
1F
100
AcDbEntity
  8
0
  6
Continuous
 62
     7
370
     0
100
AcDbBlockReference
  2
SW_NOTE_10
 10
308.7749742127
 20
55.2200058741
 30
0.0
  0
MTEXT
  5
1BB
330
1F
100
AcDbEntity
  8
0
  6
Continuous
 62
     7
370
     0
100
AcDbMText
 10
320.17368302
 20
49.2589754895
 30
0.0
 40
2.6458333333
 41
0.0
 71
     1
 72
     1
  1
g
  7
SLDTEXTSTYLE1
 73
     1
 44
1.0
  0
CIRCLE
  5
1BC
330
1F
100
AcDbEntity
  8
0
  6
Continuous
 62
     7
370
    40
100
AcDbCircle
 10
66.4372665273
 20
241.3476346499
 30
0.0
 40
4.0
  0
CIRCLE
  5
1BD
330
1F
100
AcDbEntity
  8
0
  6
Continuous
 62
     7
370
    40
100
AcDbCircle
 10
337.4372665273
 20
241.3476346499
 30
0.0
 40
4.0
  0
LINE
  5
1BE
330
1F
100
AcDbEntity
  8
0
  6
Continuous
 62
     7
370
    40
100
AcDbLine
 10
129.9372666465
 20
230.1476345158
 30
0.0
 11
139.937266423
 21
230.1476345158
 31
0.0
  0
LINE
  5
1BF
330
1F
100
AcDbEntity
  8
0
  6
Continuous
 62
     7
370
    40
100
AcDbLine
 10
139.937266423
 20
230.1476345158
 30
0.0
 11
139.937266423
 21
231.1476346797
 31
0.0
  0
LINE
  5
1C0
330
1F
100
AcDbEntity
  8
0
  6
Continuous
 62
     7
370
    40
100
AcDbLine
 10
139.937266423
 20
231.1476346797
 30
0.0
 11
163.9372666316
 21
231.1476346797
 31
0.0
  0
LINE
  5
1C1
330
1F
100
AcDbEntity
  8
0
  6
Continuous
 62
     7
370
    40
100
AcDbLine
 10
163.9372666316
 20
231.1476346797
 30
0.0
 11
163.9372666316
 21
230.1476345158
 31
0.0
  0
LINE
  5
1C2
330
1F
100
AcDbEntity
  8
0
  6
Continuous
 62
     7
370
    40
100
AcDbLine
 10
173.9372664081
 20
230.1476345158
 30
0.0
 11
173.9372664081
 21
240.6476348399
 31
0.0
  0
LINE
  5
1C3
330
1F
100
AcDbEntity
  8
0
  6
Continuous
 62
     7
370
    40
100
AcDbLine
 10
173.9372664081
 20
240.6476348399
 30
0.0
 11
175.9372667359
 21
242.6476347021
 31
0.0
  0
LINE
  5
1C4
330
1F
100
AcDbEntity
  8
0
  6
Continuous
 62
     7
370
    40
100
AcDbLine
 10
175.9372667359
 20
242.6476347021
 30
0.0
 11
175.9372667359
 21
248.6476347542
 31
0.0
  0
LINE
  5
1C5
330
1F
100
AcDbEntity
  8
0
  6
Continuous
 62
     7
370
    40
100
AcDbLine
 10
175.9372667359
 20
248.6476347542
 30
0.0
 11
127.9372663187
 21
248.6476347542
 31
0.0
  0
LINE
  5
1C6
330
1F
100
AcDbEntity
  8
0
  6
Continuous
 62
     7
370
    40
100
AcDbLine
 10
127.9372663187
 20
248.6476347542
 30
0.0
 11
127.9372663187
 21
242.6476347021
 31
0.0
  0
LINE
  5
1C7
330
1F
100
AcDbEntity
  8
0
  6
Continuous
 62
     7
370
    40
100
AcDbLine
 10
127.9372663187
 20
242.6476347021
 30
0.0
 11
129.9372666465
 21
240.6476348399
 31
0.0
  0
LINE
  5
1C8
330
1F
100
AcDbEntity
  8
0
  6
Continuous
 62
     7
370
    40
100
AcDbLine
 10
129.9372666465
 20
240.6476348399
 30
0.0
 11
129.9372666465
 21
230.1476345158
 31
0.0
  0
LINE
  5
1C9
330
1F
100
AcDbEntity
  8
0
  6
Continuous
 62
     7
370
    40
100
AcDbLine
 10
344.437261759
 20
224.3476350552
 30
0.0
 11
344.437261759
 21
258.3476350403
 31
0.0
  0
LINE
  5
1CA
330
1F
100
AcDbEntity
  8
0
  6
Continuous
 62
     7
370
    40
100
AcDbLine
 10
59.4372653352
 20
224.3476350552
 30
0.0
 11
344.437261759
 21
224.3476350552
 31
0.0
  0
LINE
  5
1CB
330
1F
100
AcDbEntity
  8
0
  6
Continuous
 62
     7
370
    40
100
AcDbLine
 10
59.4372653352
 20
258.3476350403
 30
0.0
 11
59.4372653352
 21
224.3476350552
 31
0.0
  0
LINE
  5
1CC
330
1F
100
AcDbEntity
  8
0
  6
Continuous
 62
     7
370
    40
100
AcDbLine
 10
344.437261759
 20
258.3476350403
 30
0.0
 11
59.4372653352
 21
258.3476350403
 31
0.0
  0
LINE
  5
1CD
330
1F
100
AcDbEntity
  8
0
  6
Continuous
 62
     7
370
    40
100
AcDbLine
 10
229.9372681367
 20
230.1476345158
 30
0.0
 11
239.9372660505
 21
230.1476345158
 31
0.0
  0
LINE
  5
1CE
330
1F
100
AcDbEntity
  8
0
  6
Continuous
 62
     7
370
    40
100
AcDbLine
 10
239.9372660505
 20
230.1476345158
 30
0.0
 11
239.9372660505
 21
231.1476346797
 31
0.0
  0
LINE
  5
1CF
330
1F
100
AcDbEntity
  8
0
  6
Continuous
 62
     7
370
    40
100
AcDbLine
 10
239.9372660505
 20
231.1476346797
 30
0.0
 11
263.9372699844
 21
231.1476346797
 31
0.0
  0
LINE
  5
1D0
330
1F
100
AcDbEntity
  8
0
  6
Continuous
 62
     7
370
    40
100
AcDbLine
 10
263.9372699844
 20
231.1476346797
 30
0.0
 11
263.9372699844
 21
230.1476345158
 31
0.0
  0
LINE
  5
1D1
330
1F
100
AcDbEntity
  8
0
  6
Continuous
 62
     7
370
    40
100
AcDbLine
 10
263.9372699844
 20
230.1476345158
 30
0.0
 11
273.9372678982
 21
230.1476345158
 31
0.0
  0
LINE
  5
1D2
330
1F
100
AcDbEntity
  8
0
  6
Continuous
 62
     7
370
    40
100
AcDbLine
 10
273.9372678982
 20
230.1476345158
 30
0.0
 11
273.9372678982
 21
240.6476348399
 31
0.0
  0
LINE
  5
1D3
330
1F
100
AcDbEntity
  8
0
  6
Continuous
 62
     7
370
    40
100
AcDbLine
 10
273.9372678982
 20
240.6476348399
 30
0.0
 11
275.9372645008
 21
242.6476347021
 31
0.0
  0
LINE
  5
1D4
330
1F
100
AcDbEntity
  8
0
  6
Continuous
 62
     7
370
    40
100
AcDbLine
 10
275.9372645008
 20
242.6476347021
 30
0.0
 11
275.9372645008
 21
248.6476347542
 31
0.0
  0
LINE
  5
1D5
330
1F
100
AcDbEntity
  8
0
  6
Continuous
 62
     7
370
    40
100
AcDbLine
 10
275.9372645008
 20
248.6476347542
 30
0.0
 11
227.9372640835
 21
248.6476347542
 31
0.0
  0
LINE
  5
1D6
330
1F
100
AcDbEntity
  8
0
  6
Continuous
 62
     7
370
    40
100
AcDbLine
 10
227.9372640835
 20
248.6476347542
 30
0.0
 11
227.9372640835
 21
242.6476347021
 31
0.0
  0
LINE
  5
1D7
330
1F
100
AcDbEntity
  8
0
  6
Continuous
 62
     7
370
    40
100
AcDbLine
 10
227.9372640835
 20
242.6476347021
 30
0.0
 11
229.9372681367
 21
240.6476348399
 31
0.0
  0
LINE
  5
1D8
330
1F
100
AcDbEntity
  8
0
  6
Continuous
 62
     7
370
    40
100
AcDbLine
 10
229.9372681367
 20
240.6476348399
 30
0.0
 11
229.9372681367
 21
230.1476345158
 31
0.0
  0
LINE
  5
1D9
330
1F
100
AcDbEntity
  8
0
  6
Continuous
 62
     7
370
    40
100
AcDbLine
 10
163.9372666316
 20
230.1476345158
 30
0.0
 11
173.9372664081
 21
230.1476345158
 31
0.0
  0
CIRCLE
  5
1DA
330
1F
100
AcDbEntity
  8
0
  6
Continuous
 62
     7
370
    40
100
AcDbCircle
 10
225.6872665273
 20
236.6476346499
 30
0.0
 40
3.900000000000006
  0
CIRCLE
  5
1DB
330
1F
100
AcDbEntity
  8
0
  6
Continuous
 62
     7
370
    40
100
AcDbCircle
 10
278.1872665273
 20
236.6476346499
 30
0.0
 40
3.899999999999977
  0
CIRCLE
  5
1DC
330
1F
100
AcDbEntity
  8
0
  6
Continuous
 62
     7
370
    40
100
AcDbCircle
 10
125.6872665273
 20
236.6476346499
 30
0.0
 40
3.899999999999991
  0
CIRCLE
  5
1DD
330
1F
100
AcDbEntity
  8
0
  6
Continuous
 62
     7
370
    40
100
AcDbCircle
 10
178.1872665273
 20
236.6476346499
 30
0.0
 40
3.900000000000006
  0
CIRCLE
  5
1DE
330
1F
100
AcDbEntity
  8
0
  6
Continuous
 62
     7
370
    40
100
AcDbCircle
 10
178.1872665273
 20
236.6476346499
 30
0.0
 40
2.150000000000006
  0
CIRCLE
  5
1DF
330
1F
100
AcDbEntity
  8
0
  6
Continuous
 62
     7
370
    40
100
AcDbCircle
 10
125.6872665273
 20
236.6476346499
 30
0.0
 40
2.150000000000006
  0
CIRCLE
  5
1E0
330
1F
100
AcDbEntity
  8
0
  6
Continuous
 62
     7
370
    40
100
AcDbCircle
 10
337.4372665273
 20
241.3476346499
 30
0.0
 40
2.150000000000034
  0
CIRCLE
  5
1E1
330
1F
100
AcDbEntity
  8
0
  6
Continuous
 62
     7
370
    40
100
AcDbCircle
 10
66.4372665273
 20
241.3476346499
 30
0.0
 40
2.149999999999991
  0
CIRCLE
  5
1E2
330
1F
100
AcDbEntity
  8
0
  6
Continuous
 62
     7
370
    40
100
AcDbCircle
 10
278.1872665273
 20
236.6476346499
 30
0.0
 40
2.149999999999977
  0
CIRCLE
  5
1E3
330
1F
100
AcDbEntity
  8
0
  6
Continuous
 62
     7
370
    40
100
AcDbCircle
 10
225.6872665273
 20
236.6476346499
 30
0.0
 40
2.149999999999977
  0
LINE
  5
1E4
330
1F
100
AcDbEntity
  8
0
  6
HIDDEN
 62
     7
370
    40
100
AcDbLine
 10
128.4001884947
 20
243.9133986613
 30
0.0
 11
175.0540231315
 21
243.9133986613
 31
0.0
  0
DIMENSION
  5
1E5
330
1F
100
AcDbEntity
  8
0
  6
Continuous
 62
     7
370
     0
100
AcDbDimension
  2
*D14
 10
184.9800104739
 20
258.3476346499
 30
0.0
 11
184.9800104739
 21
251.9044230913
 31
0.0
 70
   160
  1
X
 71
     2
 42
-1.0
  3
SLDDIMSTYLE0
100
AcDbAlignedDimension
 13
175.0540231315
 23
243.9133986613
 33
0.0
 14
59.4372665273
 24
258.3476346499
 34
0.0
 50
90.0
100
AcDbRotatedDimension
  0
DIMENSION
  5
1EF
330
1F
100
AcDbEntity
  8
0
  6
Continuous
 62
     7
370
     0
100
AcDbDimension
  2
*D15
 10
37.8190349834
 20
224.3476346499
 30
0.0
 11
37.8190349834
 21
241.3476346499
 31
0.0
 70
   160
 71
     2
 42
-1.0
  3
SLDDIMSTYLE1
100
AcDbAlignedDimension
 13
59.4372665273
 23
258.3476346499
 33
0.0
 14
59.4372665273
 24
224.3476346499
 34
0.0
 50
90.0
100
AcDbRotatedDimension
  0
DIMENSION
  5
1FD
330
1F
100
AcDbEntity
  8
0
  6
Continuous
 62
     7
370
     0
100
AcDbDimension
  2
*D16
 10
344.4372665273
 20
189.148964591
 30
0.0
 11
201.9372665273
 21
189.148964591
 31
0.0
 70
   160
 71
     2
 42
-1.0
  3
SLDDIMSTYLE1
100
AcDbAlignedDimension
 13
59.4372665273
 23
224.3476346499
 33
0.0
 14
344.4372665273
 24
224.3476346499
 34
0.0
100
AcDbRotatedDimension
  0
DIMENSION
  5
20A
330
1F
100
AcDbEntity
  8
0
  6
Continuous
 62
     7
370
     0
100
AcDbDimension
  2
*D17
 10
151.9372665273
 20
269.3207214287
 30
0.0
 11
104.2956120082
 21
269.3207214287
 31
0.0
 70
   160
 71
     2
 42
-1.0
  3
SLDDIMSTYLE2
100
AcDbAlignedDimension
 13
59.4372665273
 23
258.3476346499
 33
0.0
 14
151.9372665273
 24
271.7269343599
 34
0.0
100
AcDbRotatedDimension
  0
DIMENSION
  5
215
330
1F
100
AcDbEntity
  8
0
  6
Continuous
 62
     7
370
     0
100
AcDbDimension
  2
*D18
 10
251.9372665273
 20
269.3207214287
 30
0.0
 11
201.9372665273
 21
269.3207214287
 31
0.0
 70
   160
 71
     2
 42
-1.0
  3
SLDDIMSTYLE2
100
AcDbAlignedDimension
 13
151.9372665273
 23
271.7269343599
 33
0.0
 14
251.9372665273
 24
251.353239391
 34
0.0
100
AcDbRotatedDimension
  0
DIMENSION
  5
21F
330
1F
100
AcDbEntity
  8
0
  6
Continuous
 62
     7
370
     0
100
AcDbDimension
  2
*D19
 10
229.9372665273
 20
211.83506711
 30
0.0
 11
201.9372665273
 21
211.83506711
 31
0.0
 70
   160
  1
(<>)
 71
     2
 42
-1.0
  3
SLDDIMSTYLE0
100
AcDbAlignedDimension
 13
173.9372665273
 23
230.1476346499
 33
0.0
 14
229.9372665273
 24
230.1476346499
 34
0.0
100
AcDbRotatedDimension
  0
DIMENSION
  5
22B
330
1F
100
AcDbEntity
  8
0
  6
Continuous
 62
     7
370
     0
100
AcDbDimension
  2
*D20
 10
337.4372665273
 20
200.3476346499
 30
0.0
 11
201.9372665273
 21
200.3476346499
 31
0.0
 70
   160
 71
     2
 42
-1.0
  3
SLDDIMSTYLE2
100
AcDbAlignedDimension
 13
66.4372665273
 23
236.3476346499
 33
0.0
 14
337.4372665273
 24
236.3476346499
 34
0.0
100
AcDbRotatedDimension
  0
DIMENSION
  5
236
330
1F
100
AcDbEntity
  8
0
  6
Continuous
 62
     7
370
     0
100
AcDbDimension
  2
*D21
 10
59.4372665273
 20
214.3476346499
 30
0.0
 11
62.9372665273
 21
214.3476346499
 31
0.0
 70
   160
 71
     2
 42
-1.0
  3
SLDDIMSTYLE3
100
AcDbAlignedDimension
 13
66.4372665273
 23
236.3476346499
 33
0.0
 14
59.4372665273
 24
224.3476346499
 34
0.0
100
AcDbRotatedDimension
  0
DIMENSION
  5
243
330
1F
100
AcDbEntity
  8
0
  6
Continuous
 62
     7
370
     0
100
AcDbDimension
  2
*D22
 10
110.4066512117
 20
258.3476346499
 30
0.0
 11
110.4066512117
 21
247.4976346499
 31
0.0
 70
   160
 71
     2
 42
-1.0
  3
SLDDIMSTYLE4
100
AcDbAlignedDimension
 13
125.6872665273
 23
236.6476346499
 33
0.0
 14
59.4372665273
 24
258.3476346499
 34
0.0
 50
90.0
100
AcDbRotatedDimension
  0
DIMENSION
  5
24D
330
1F
100
AcDbEntity
  8
0
  6
Continuous
 62
     7
370
     0
100
AcDbDimension
  2
*D23
 10
49.4372665273
 20
258.3476346499
 30
0.0
 11
49.4372665273
 21
249.8476346499
 31
0.0
 70
   160
 71
     2
 42
-1.0
  3
SLDDIMSTYLE0
100
AcDbAlignedDimension
 13
61.4372665273
 23
241.3476346499
 33
0.0
 14
59.4372665273
 24
258.3476346499
 34
0.0
 50
90.0
100
AcDbRotatedDimension
  0
DIMENSION
  5
257
330
1F
100
AcDbEntity
  8
0
  6
Continuous
 62
     7
370
     0
100
AcDbDimension
  2
*D24
 10
356.5561285433
 20
239.1976346499
 30
0.0
 11
356.5561285433
 21
228.1526385534
 31
0.0
 70
   160
  1
%%c<>
 71
     2
 42
-1.0
  3
SLDDIMSTYLE5
100
AcDbAlignedDimension
 13
337.4372665273
 23
243.4976346499
 33
0.0
 14
337.4372665273
 24
239.1976346499
 34
0.0
 50
90.0
100
AcDbRotatedDimension
  0
DIMENSION
  5
265
330
1F
100
AcDbEntity
  8
0
  6
Continuous
 62
     7
370
     0
100
AcDbDimension
  2
*D25
 10
368.4372665273
 20
237.3476346499
 30
0.0
 11
368.4372665273
 21
241.3476346499
 31
0.0
 70
   160
  1
%%c<>
 71
     2
 42
-1.0
  3
SLDDIMSTYLE5
100
AcDbAlignedDimension
 13
337.4372665273
 23
245.3476346499
 33
0.0
 14
337.4372665273
 24
237.3476346499
 34
0.0
 50
90.0
100
AcDbRotatedDimension
  0
DIMENSION
  5
272
330
1F
100
AcDbEntity
  8
0
  6
Continuous
 62
     7
370
     0
100
AcDbDimension
  2
*D26
 10
344.4372665273
 20
269.3207214287
 30
0.0
 11
298.1872665273
 21
269.3207214287
 31
0.0
 70
   160
  1
(<>)
 71
     2
 42
-1.0
  3
SLDDIMSTYLE0
100
AcDbAlignedDimension
 13
251.9372665273
 23
251.353239391
 33
0.0
 14
344.4372665273
 24
258.3476346499
 34
0.0
100
AcDbRotatedDimension
  0
MTEXT
  5
27E
330
1F
100
AcDbEntity
  8
0
  6
Continuous
 62
     7
370
     0
100
AcDbMText
 10
360.4657475578
 20
269.4042471993
 30
0.0
 40
3.5
 41
0.0
 71
     1
 72
     1
  1
Senkung 90°
  7
SLDTEXTSTYLE1
 73
     1
 44
1.0
  0
LEADER
  5
280
330
1F
100
AcDbEntity
  8
0
  6
Continuous
 62
     7
370
     0
100
AcDbLeader
  3
SLDDIMSTYLE6
 76
     3
 10
338.9498516092
 20
245.0506180917
 30
0.0
 10
359.9643197745
 20
264.8886213565
 30
0.0
 10
388.0573093339
 20
264.8886213565
 30
0.0
  0
INSERT
  5
28C
330
1F
100
AcDbEntity
  8
0
  6
Continuous
 62
     7
370
     0
100
AcDbBlockReference
  2
SW_CENTERMARKSYMBOL_0
 10
66.4372665273
 20
241.3476346499
 30
0.0
  0
INSERT
  5
298
330
1F
100
AcDbEntity
  8
0
  6
Continuous
 62
     7
370
     0
100
AcDbBlockReference
  2
SW_CENTERMARKSYMBOL_1
 10
337.4372665273
 20
241.3476346499
 30
0.0
  0
INSERT
  5
2A4
330
1F
100
AcDbEntity
  8
0
  6
Continuous
 62
     7
370
     0
100
AcDbBlockReference
  2
SW_CENTERMARKSYMBOL_2
 10
225.6872665273
 20
236.6476346499
 30
0.0
  0
INSERT
  5
2B0
330
1F
100
AcDbEntity
  8
0
  6
Continuous
 62
     7
370
     0
100
AcDbBlockReference
  2
SW_CENTERMARKSYMBOL_3
 10
278.1872665273
 20
236.6476346499
 30
0.0
  0
INSERT
  5
2BC
330
1F
100
AcDbEntity
  8
0
  6
Continuous
 62
     7
370
     0
100
AcDbBlockReference
  2
SW_CENTERMARKSYMBOL_4
 10
125.6872665273
 20
236.6476346499
 30
0.0
  0
INSERT
  5
2C8
330
1F
100
AcDbEntity
  8
0
  6
Continuous
 62
     7
370
     0
100
AcDbBlockReference
  2
SW_CENTERMARKSYMBOL_5
 10
178.1872665273
 20
236.6476346499
 30
0.0
  0
LINE
  5
2C9
330
1F
100
AcDbEntity
  8
0
  6
CENTERX2
 62
     7
370
     0
100
AcDbLine
 10
151.9372665273
 20
229.1476346499
 30
0.0
 11
151.9372665273
 21
271.7269343599
 31
0.0
  0
LINE
  5
2CA
330
1F
100
AcDbEntity
  8
0
  6
CENTERX2
 62
     7
370
     0
100
AcDbLine
 10
251.9372665273
 20
229.1476346499
 30
0.0
 11
251.9372665273
 21
251.353239391
 31
0.0
  0
LWPOLYLINE
  5
2CB
330
1F
100
AcDbEntity
  8
0
  6
Continuous
 62
     7
370
    40
100
AcDbPolyline
 90
       24
 70
   128
 43
0.0
 10
132.4829511119
 20
60.3878502822
 10
132.3977310622
 20
61.1530220272
 10
132.1483929406
 20
61.9598365297
 10
131.7534242865
 20
62.7484587395
 10
131.2421259402
 20
63.4603955705
 10
130.6524125042
 20
64.0428495824
 10
130.0280245047
 20
64.4526202891
 10
129.4152664012
 20
64.6593190273
 10
128.8595865454
 20
64.6476142182
 10
128.4021922622
 20
64.4183766561
 10
128.0770117648
 20
63.9886048405
 10
127.9081609529
 20
63.3901736975
 10
127.9081609529
 20
62.6674671551
 10
128.0770117648
 20
61.8740850144
 10
128.4021922622
 20
61.068867788
 10
128.8595865454
 20
60.3115340274
 10
129.4152664012
 20
59.6582549131
 10
130.0280245047
 20
59.157478204
 10
130.6524125042
 20
58.8463458714
 10
131.2421259402
 20
58.7479312427
 10
131.7534242865
 20
58.8695355687
 10
132.1483929406
 20
59.2021366771
 10
132.3977310622
 20
59.7210715121
 10
132.4829511119
 20
60.3878502822
  0
LWPOLYLINE
  5
2CC
330
1F
100
AcDbEntity
  8
0
  6
Continuous
 62
     7
370
    40
100
AcDbPolyline
 90
       24
 70
   128
 43
0.0
 10
38.702911672
 20
117.7240328235
 10
38.6155096449
 20
118.5088226428
 10
38.359774861
 20
119.3363264432
 10
37.9546821826
 20
120.1451677775
 10
37.4302744103
 20
120.8753593992
 10
36.8254407924
 20
121.4727476419
 10
36.1850413808
 20
121.8930258097
 10
35.5565704053
 20
122.1050250841
 10
34.9866396463
 20
122.0930221988
 10
34.5175188806
 20
121.8579054751
 10
34.1840012097
 20
121.4171133738
 10
34.0108215653
 20
120.8033376639
 10
34.0108215653
 20
120.0621002251
 10
34.1840012097
 20
119.2483752369
 10
34.5175188806
 20
118.4225118292
 10
34.9866396463
 20
117.6457601946
 10
35.5565704053
 20
116.975728707
 10
36.1850413808
 20
116.4621108779
 10
36.8254407924
 20
116.1430000195
 10
37.4302744103
 20
116.04206235
 10
37.9546821826
 20
116.1667852495
 10
38.359774861
 20
116.5079165329
 10
38.6155096449
 20
117.040155395
 10
38.702911672
 20
117.7240328235
  0
LWPOLYLINE
  5
2CD
330
1F
100
AcDbEntity
  8
0
  6
Continuous
 62
     7
370
    40
100
AcDbPolyline
 90
       24
 70
   128
 43
0.0
 10
198.3911962159
 20
25.5379483923
 10
198.3037854082
 20
26.3227432806
 10
198.0480594048
 20
27.150242012
 10
197.6429667265
 20
27.9590833463
 10
197.1185545639
 20
28.6892775025
 10
196.513720946
 20
29.2866657451
 10
195.8733259246
 20
29.7069413785
 10
195.2448549492
 20
29.9189406529
 10
194.6749241902
 20
29.9069377676
 10
194.2058034245
 20
29.6718210439
 10
193.8722813633
 20
29.2310314771
 10
193.6991017189
 20
28.6172557671
 10
193.6991017189
 20
27.8760183284
 10
193.8722813633
 20
27.0622933402
 10
194.2058034245
 20
26.236427398
 10
194.6749241902
 20
25.4596757634
 10
195.2448549492
 20
24.7896442758
 10
195.8733259246
 20
24.2760264467
 10
196.513720946
 20
23.9569181228
 10
197.1185545639
 20
23.8559804533
 10
197.6429667265
 20
23.9807008183
 10
198.0480594048
 20
24.3218321017
 10
198.3037854082
 20
24.8540760328
 10
198.3911962159
 20
25.5379483923
  0
LWPOLYLINE
  5
2CE
330
1F
100
AcDbEntity
  8
0
  6
Continuous
 62
     7
370
    40
100
AcDbPolyline
 90
       24
 70
   128
 43
0.0
 10
104.493305846
 20
76.5459285598
 10
104.4080857964
 20
77.3111003048
 10
104.1587476747
 20
78.1179148074
 10
103.7637823134
 20
78.9065351163
 10
103.2524828695
 20
79.6184725809
 10
102.6627705311
 20
80.2009259592
 10
102.038381434
 20
80.6106972995
 10
101.4256233305
 20
80.8173960377
 10
100.8699412795
 20
80.8056924958
 10
100.4125491915
 20
80.5764536665
 10
100.087368694
 20
80.1466818509
 10
99.9185167846
 20
79.5482513415
 10
99.9185167846
 20
78.8255447991
 10
100.087368694
 20
78.0321620248
 10
100.4125491915
 20
77.2269447984
 10
100.8699412795
 20
76.4696123051
 10
101.4256233305
 20
75.8163319235
 10
102.038381434
 20
75.3155552144
 10
102.6627705311
 20
75.0044222482
 10
103.2524828695
 20
74.9060082531
 10
103.7637823134
 20
75.0276119455
 10
104.1587476747
 20
75.3602149547
 10
104.4080857964
 20
75.8791497897
 10
104.493305846
 20
76.5459285598
  0
LINE
  5
2CF
330
1F
100
AcDbEntity
  8
0
  6
Continuous
 62
     7
370
    40
100
AcDbLine
 10
73.7636237136
 20
89.8628669621
 30
0.0
 11
79.6561800918
 21
86.4611665722
 31
0.0
  0
LINE
  5
2D0
330
1F
100
AcDbEntity
  8
0
  6
Continuous
 62
     7
370
    40
100
AcDbLine
 10
79.6561800918
 20
86.4611665722
 30
0.0
 11
79.6561800918
 21
87.1416173603
 31
0.0
  0
LINE
  5
2D1
330
1F
100
AcDbEntity
  8
0
  6
Continuous
 62
     7
370
    40
100
AcDbLine
 10
79.6561800918
 20
87.1416173603
 30
0.0
 11
93.7983158385
 21
78.9775361711
 31
0.0
  0
LINE
  5
2D2
330
1F
100
AcDbEntity
  8
0
  6
Continuous
 62
     7
370
    40
100
AcDbLine
 10
93.7983158385
 20
78.9775361711
 30
0.0
 11
93.7983158385
 21
78.297085383
 31
0.0
  0
LINE
  5
2D3
330
1F
100
AcDbEntity
  8
0
  6
Continuous
 62
     7
370
    40
100
AcDbLine
 10
93.7983158385
 20
78.297085383
 30
0.0
 11
99.6908722167
 21
74.8953849931
 31
0.0
  0
LINE
  5
2D4
330
1F
100
AcDbEntity
  8
0
  6
Continuous
 62
     7
370
    40
100
AcDbLine
 10
99.6908722167
 20
74.8953849931
 30
0.0
 11
99.6908722167
 21
82.0401173177
 31
0.0
  0
LINE
  5
2D5
330
1F
100
AcDbEntity
  8
0
  6
Continuous
 62
     7
370
    40
100
AcDbLine
 10
99.6908722167
 20
82.0401173177
 30
0.0
 11
100.8693837118
 21
82.7206783723
 31
0.0
  0
LINE
  5
2D6
330
1F
100
AcDbEntity
  8
0
  6
Continuous
 62
     7
370
    40
100
AcDbLine
 10
100.8693837118
 20
82.7206783723
 30
0.0
 11
100.8693837118
 21
86.8033824673
 31
0.0
  0
LINE
  5
2D7
330
1F
100
AcDbEntity
  8
0
  6
Continuous
 62
     7
370
    40
100
AcDbLine
 10
100.8693837118
 20
86.8033824673
 30
0.0
 11
72.5851122185
 21
103.1315448456
 31
0.0
  0
LINE
  5
2D8
330
1F
100
AcDbEntity
  8
0
  6
Continuous
 62
     7
370
    40
100
AcDbLine
 10
72.5851122185
 20
103.1315448456
 30
0.0
 11
72.5851122185
 21
99.0488407507
 31
0.0
  0
LINE
  5
2D9
330
1F
100
AcDbEntity
  8
0
  6
Continuous
 62
     7
370
    40
100
AcDbLine
 10
72.5851122185
 20
99.0488407507
 30
0.0
 11
73.7636237136
 21
97.0075992867
 31
0.0
  0
LINE
  5
2DA
330
1F
100
AcDbEntity
  8
0
  6
Continuous
 62
     7
370
    40
100
AcDbLine
 10
73.7636237136
 20
97.0075992867
 30
0.0
 11
73.7636237136
 21
89.8628669621
 31
0.0
  0
LINE
  5
2DB
330
1F
100
AcDbEntity
  8
0
  6
Continuous
 62
     7
370
    40
100
AcDbLine
 10
200.1589579707
 20
12.9497800735
 30
0.0
 11
200.1589579707
 21
36.0851030668
 31
0.0
  0
LINE
  5
2DC
330
1F
100
AcDbEntity
  8
0
  6
Continuous
 62
     7
370
    40
100
AcDbLine
 10
32.2210995462
 20
109.8982421359
 30
0.0
 11
200.1589579707
 21
12.9497800735
 31
0.0
  0
LINE
  5
2DD
330
1F
100
AcDbEntity
  8
0
  6
Continuous
 62
     7
370
    40
100
AcDbLine
 10
32.2210995462
 20
133.0335651292
 30
0.0
 11
32.2210995462
 21
109.8982421359
 31
0.0
  0
LINE
  5
2DE
330
1F
100
AcDbEntity
  8
0
  6
Continuous
 62
     7
370
    40
100
AcDbLine
 10
200.1589579707
 20
36.0851030668
 30
0.0
 11
32.2210995462
 21
133.0335651292
 31
0.0
  0
LWPOLYLINE
  5
2DF
330
1F
100
AcDbEntity
  8
0
  6
Continuous
 62
     7
370
    40
100
AcDbPolyline
 90
       24
 70
   128
 43
0.0
 10
73.5573840374
 20
94.404856082
 10
73.4721639877
 20
95.170027827
 10
73.2228258661
 20
95.9768423295
 10
72.8278605047
 20
96.7654626384
 10
72.3165610609
 20
97.4774001031
 10
71.7268487224
 20
98.0598534813
 10
71.1024596254
 20
98.4696248217
 10
70.4897015219
 20
98.6763235599
 10
69.9340194709
 20
98.664620018
 10
69.4766273829
 20
98.4353811887
 10
69.1514468854
 20
98.0056093731
 10
68.982594976
 20
97.4071788637
 10
68.982594976
 20
96.6844723213
 10
69.1514468854
 20
95.891089547
 10
69.4766273829
 20
95.0858723206
 10
69.9340194709
 20
94.3285398272
 10
70.4897015219
 20
93.6752594456
 10
71.1024596254
 20
93.1744827365
 10
71.7268487224
 20
92.8633497703
 10
72.3165610609
 20
92.7649357752
 10
72.8278605047
 20
92.8865394676
 10
73.2228258661
 20
93.2191424769
 10
73.4721639877
 20
93.7380773119
 10
73.5573840374
 20
94.404856082
  0
LINE
  5
2E0
330
1F
100
AcDbEntity
  8
0
  6
Continuous
 62
     7
370
    40
100
AcDbLine
 10
132.6891896906
 20
55.845861796
 30
0.0
 11
138.5817449712
 21
52.4441620397
 31
0.0
  0
LINE
  5
2E1
330
1F
100
AcDbEntity
  8
0
  6
Continuous
 62
     7
370
    40
100
AcDbLine
 10
138.5817449712
 20
52.4441620397
 30
0.0
 11
138.5817449712
 21
53.1246128278
 31
0.0
  0
LINE
  5
2E2
330
1F
100
AcDbEntity
  8
0
  6
Continuous
 62
     7
370
    40
100
AcDbLine
 10
138.5817449712
 20
53.1246128278
 30
0.0
 11
152.723882913
 21
44.9605303714
 31
0.0
  0
LINE
  5
2E3
330
1F
100
AcDbEntity
  8
0
  6
Continuous
 62
     7
370
    40
100
AcDbLine
 10
152.723882913
 20
44.9605303714
 30
0.0
 11
152.723882913
 21
44.2800795833
 31
0.0
  0
LINE
  5
2E4
330
1F
100
AcDbEntity
  8
0
  6
Continuous
 62
     7
370
    40
100
AcDbLine
 10
152.723882913
 20
44.2800795833
 30
0.0
 11
158.6164381936
 21
40.878379827
 31
0.0
  0
LINE
  5
2E5
330
1F
100
AcDbEntity
  8
0
  6
Continuous
 62
     7
370
    40
100
AcDbLine
 10
158.6164381936
 20
40.878379827
 30
0.0
 11
158.6164381936
 21
48.0231121515
 31
0.0
  0
LINE
  5
2E6
330
1F
100
AcDbEntity
  8
0
  6
Continuous
 62
     7
370
    40
100
AcDbLine
 10
158.6164381936
 20
48.0231121515
 30
0.0
 11
159.7949474936
 21
48.7036744734
 31
0.0
  0
LINE
  5
2E7
330
1F
100
AcDbEntity
  8
0
  6
Continuous
 62
     7
370
    40
100
AcDbLine
 10
159.7949474936
 20
48.7036744734
 30
0.0
 11
159.7949474936
 21
52.7863785683
 31
0.0
  0
LINE
  5
2E8
330
1F
100
AcDbEntity
  8
0
  6
Continuous
 62
     7
370
    40
100
AcDbLine
 10
159.7949474936
 20
52.7863785683
 30
0.0
 11
131.5106760003
 21
69.1145409467
 31
0.0
  0
LINE
  5
2E9
330
1F
100
AcDbEntity
  8
0
  6
Continuous
 62
     7
370
    40
100
AcDbLine
 10
131.5106760003
 20
69.1145409467
 30
0.0
 11
131.5106760003
 21
65.0318368518
 31
0.0
  0
LINE
  5
2EA
330
1F
100
AcDbEntity
  8
0
  6
Continuous
 62
     7
370
    40
100
AcDbLine
 10
131.5106760003
 20
65.0318368518
 30
0.0
 11
132.6891896906
 21
62.9905941205
 31
0.0
  0
LINE
  5
2EB
330
1F
100
AcDbEntity
  8
0
  6
Continuous
 62
     7
370
    40
100
AcDbLine
 10
132.6891896906
 20
62.9905941205
 30
0.0
 11
132.6891896906
 21
55.845861796
 31
0.0
  0
LWPOLYLINE
  5
2EC
330
1F
100
AcDbEntity
  8
0
  6
Continuous
 62
     7
370
    40
100
AcDbPolyline
 90
       24
 70
   128
 43
0.0
 10
163.4188740181
 20
42.5289221264
 10
163.3336495781
 20
43.2940964059
 10
163.0843158468
 20
44.100908374
 10
162.6893471927
 20
44.8895305837
 10
162.1780444561
 20
45.6014699492
 10
161.5883398007
 20
46.1839188921
 10
160.9639430206
 20
46.5936946678
 10
160.3511893074
 20
46.8003908715
 10
159.7955050613
 20
46.7886885969
 10
159.3381151684
 20
46.5594485003
 10
159.012934671
 20
46.1296766847
 10
158.8440794688
 20
45.5312480762
 10
158.8440794688
 20
44.8085415338
 10
159.012934671
 20
44.0151568586
 10
159.3381151684
 20
43.2099396322
 10
159.7955050613
 20
42.4526084061
 10
160.3511893074
 20
41.7993267573
 10
160.9639430206
 20
41.2985525827
 10
161.5883398007
 20
40.9874151811
 10
162.1780444561
 20
40.8890056214
 10
162.6893471927
 20
41.0106074129
 10
163.0843158468
 20
41.3432085213
 10
163.3336495781
 20
41.8621458908
 10
163.4188740181
 20
42.5289221264
  0
LINE
  5
2ED
330
1F
100
AcDbEntity
  8
0
  6
Continuous
 62
     7
370
    40
100
AcDbLine
 10
200.1589579707
 20
36.0851030668
 30
0.0
 11
201.926724939
 21
37.1056132155
 31
0.0
  0
LINE
  5
2EE
330
1F
100
AcDbEntity
  8
0
  6
Continuous
 62
     7
370
    40
100
AcDbLine
 10
32.2210995462
 20
133.0335651292
 30
0.0
 11
33.9888665146
 21
134.0540752779
 31
0.0
  0
LINE
  5
2EF
330
1F
100
AcDbEntity
  8
0
  6
Continuous
 62
     7
370
    40
100
AcDbLine
 10
201.926724939
 20
37.1056132155
 30
0.0
 11
33.9888665146
 21
134.0540752779
 31
0.0
  0
LINE
  5
2F0
330
1F
100
AcDbEntity
  8
0
  6
Continuous
 62
     7
370
    40
100
AcDbLine
 10
200.1589579707
 20
12.9497800735
 30
0.0
 11
201.926724939
 21
13.9702902222
 31
0.0
  0
LINE
  5
2F1
330
1F
100
AcDbEntity
  8
0
  6
Continuous
 62
     7
370
    40
100
AcDbLine
 10
201.926724939
 20
13.9702902222
 30
0.0
 11
201.926724939
 21
37.1056132155
 31
0.0
  0
LWPOLYLINE
  5
2F2
330
1F
100
AcDbEntity
  8
0
  6
Continuous
 62
     7
370
    40
100
AcDbPolyline
 90
       13
 70
   128
 43
0.0
 10
194.4583741764
 20
29.8324227569
 10
194.3825800939
 20
29.773872043
 10
194.0490580327
 20
29.3330824761
 10
193.8758783882
 20
28.7193067662
 10
193.8758783882
 20
27.9780693274
 10
194.0490580327
 20
27.1643443392
 10
194.3825800939
 20
26.3384783971
 10
194.8517008596
 20
25.5617267624
 10
195.4216316186
 20
24.8916952748
 10
196.050102594
 20
24.3780774458
 10
196.6904976154
 20
24.0589691218
 10
197.2953312333
 20
23.9580314523
 10
197.7867459257
 20
24.0668877624
  0
LWPOLYLINE
  5
2F3
330
1F
100
AcDbEntity
  8
0
  6
Continuous
 62
     7
370
    40
100
AcDbPolyline
 90
       12
 70
   128
 43
0.0
 10
196.5635688894
 20
29.2452767136
 10
196.537595894
 20
29.238214646
 10
196.2239267546
 20
29.0219716717
 10
196.0557432678
 20
28.6177277215
 10
196.0557432678
 20
28.080088062
 10
196.2239267546
 20
27.4816637497
 10
196.537595894
 20
26.9032659372
 10
196.9543667616
 20
26.4230225061
 10
197.4179645341
 20
26.1057861548
 10
197.8657747995
 20
25.9944029334
 10
198.2373168303
 20
26.103916569
 10
198.3310584459
 20
26.18355993
  0
ARC
  5
2F4
330
1F
100
AcDbEntity
  8
0
  6
Continuous
 62
     7
370
    40
100
AcDbCircle
 10
198.8597874223
 20
28.5298215432
 30
0.0
 40
2.310259599952865
100
AcDbArc
 50
163.7225012673
 51
256.2720536785
  0
LWPOLYLINE
  5
2F5
330
1F
100
AcDbEntity
  8
0
  6
Continuous
 62
     7
370
    40
100
AcDbPolyline
 90
       13
 70
   128
 43
0.0
 10
159.586699531
 20
46.7171051052
 10
159.5148918378
 20
46.6614994994
 10
159.1897113404
 20
46.2317276838
 10
159.0208561382
 20
45.6332990752
 10
159.0208561382
 20
44.9105925328
 10
159.1897113404
 20
44.1172078576
 10
159.5148918378
 20
43.3119906313
 10
159.9722817307
 20
42.5546594051
 10
160.5279659768
 20
41.9013777563
 10
161.14071969
 20
41.4006035817
 10
161.7651164701
 20
41.0894661802
 10
162.3548211255
 20
40.9910566204
 10
162.8316249105
 20
41.0961200182
  0
LWPOLYLINE
  5
2F6
330
1F
100
AcDbEntity
  8
0
  6
Continuous
 62
     7
370
    40
100
AcDbPolyline
 90
       12
 70
   128
 43
0.0
 10
161.6038039349
 20
46.1712165108
 10
161.5652703006
 20
46.161156407
 10
161.2516099418
 20
45.9449081261
 10
161.0834176744
 20
45.5406694231
 10
161.0834176744
 20
45.003029724
 10
161.2516099418
 20
44.4046003626
 10
161.5652703006
 20
43.8262075398
 10
161.9820455585
 20
43.3459616535
 10
162.445643331
 20
43.0287253021
 10
162.8934535964
 20
42.9173420015
 10
163.2649956272
 20
43.0268556371
 10
163.3676144227
 20
43.1158735661
  0
ARC
  5
2F7
330
1F
100
AcDbEntity
  8
0
  6
Continuous
 62
     7
370
    40
100
AcDbCircle
 10
163.9851756463
 20
45.5091695781
 30
0.0
 40
2.350429449361476
100
AcDbArc
 50
165.8459024777
 51
254.1486371094
  0
LINE
  5
2F8
330
1F
100
AcDbEntity
  8
0
  6
Continuous
 62
     7
370
    40
100
AcDbLine
 10
154.4916498813
 20
45.3005897319
 30
0.0
 11
152.723882913
 21
44.2800795833
 31
0.0
  0
LINE
  5
2F9
330
1F
100
AcDbEntity
  8
0
  6
Continuous
 62
     7
370
    40
100
AcDbLine
 10
154.4916498813
 20
45.3005897319
 30
0.0
 11
158.6164390168
 21
42.9193996491
 31
0.0
  0
LINE
  5
2FA
330
1F
100
AcDbEntity
  8
0
  6
Continuous
 62
     7
370
    40
100
AcDbLine
 10
154.4916498813
 20
45.98104052
 30
0.0
 11
152.723882913
 21
44.9605303714
 31
0.0
  0
LINE
  5
2FB
330
1F
100
AcDbEntity
  8
0
  6
Continuous
 62
     7
370
    40
100
AcDbLine
 10
154.4916498813
 20
45.98104052
 30
0.0
 11
154.4916498813
 21
45.3005897319
 31
0.0
  0
LINE
  5
2FC
330
1F
100
AcDbEntity
  8
0
  6
Continuous
 62
     7
370
    40
100
AcDbLine
 10
140.3495119395
 20
54.1451229764
 30
0.0
 11
138.5817449712
 21
53.1246128278
 31
0.0
  0
LINE
  5
2FD
330
1F
100
AcDbEntity
  8
0
  6
Continuous
 62
     7
370
    40
100
AcDbLine
 10
140.3495119395
 20
54.1451229764
 30
0.0
 11
154.4916498813
 21
45.98104052
 31
0.0
  0
LINE
  5
2FE
330
1F
100
AcDbEntity
  8
0
  6
Continuous
 62
     7
370
    40
100
AcDbLine
 10
133.2784429686
 20
66.0523470004
 30
0.0
 11
131.5106760003
 21
65.0318368518
 31
0.0
  0
LINE
  5
2FF
330
1F
100
AcDbEntity
  8
0
  6
Continuous
 62
     7
370
    40
100
AcDbLine
 10
133.2784429686
 20
68.0940307998
 30
0.0
 11
133.2784429686
 21
66.0523470004
 31
0.0
  0
LINE
  5
300
330
1F
100
AcDbEntity
  8
0
  6
Continuous
 62
     7
370
    40
100
AcDbLine
 10
134.4569566589
 20
64.0111042691
 30
0.0
 11
132.6891896906
 21
62.9905941205
 31
0.0
  0
LINE
  5
301
330
1F
100
AcDbEntity
  8
0
  6
Continuous
 62
     7
370
    40
100
AcDbLine
 10
133.2784429686
 20
66.0523470004
 30
0.0
 11
134.4569566589
 21
64.0111042691
 31
0.0
  0
LINE
  5
302
330
1F
100
AcDbEntity
  8
0
  6
Continuous
 62
     7
370
    40
100
AcDbLine
 10
134.4569566589
 20
56.8663719446
 30
0.0
 11
132.6891896906
 21
55.845861796
 31
0.0
  0
LINE
  5
303
330
1F
100
AcDbEntity
  8
0
  6
Continuous
 62
     7
370
    40
100
AcDbLine
 10
134.4569566589
 20
64.0111042691
 30
0.0
 11
134.4569566589
 21
56.8663719446
 31
0.0
  0
LWPOLYLINE
  5
304
330
1F
100
AcDbEntity
  8
0
  6
Continuous
 62
     7
370
    40
100
AcDbPolyline
 90
       13
 70
   128
 43
0.0
 10
128.6507766248
 20
64.5760332609
 10
128.5789689316
 20
64.5204276551
 10
128.2537884342
 20
64.0906558395
 10
128.0849376223
 20
63.4922246965
 10
128.0849376223
 20
62.7695181541
 10
128.2537884342
 20
61.9761360134
 10
128.5789689316
 20
61.170918787
 10
129.0363632148
 20
60.4135850265
 10
129.5920430706
 20
59.7603059121
 10
130.2048011741
 20
59.259529203
 10
130.8291891736
 20
58.9483968704
 10
131.4189026096
 20
58.8499822417
 10
131.8957020043
 20
58.955048174
  0
LINE
  5
305
330
1F
100
AcDbEntity
  8
0
  6
Continuous
 62
     7
370
    40
100
AcDbLine
 10
134.4569566589
 20
56.8663719446
 30
0.0
 11
139.7601628981
 21
53.804896148
 31
0.0
  0
LWPOLYLINE
  5
306
330
1F
100
AcDbEntity
  8
0
  6
Continuous
 62
     7
370
    40
100
AcDbPolyline
 90
       12
 70
   128
 43
0.0
 10
130.6678810287
 20
64.0301446666
 10
130.6293473944
 20
64.0200845628
 10
130.3156870356
 20
63.8038362819
 10
130.1474991585
 20
63.3995950444
 10
130.1474991585
 20
62.8619553454
 10
130.3156870356
 20
62.2635285184
 10
130.6293473944
 20
61.6851356956
 10
131.0461226523
 20
61.2048898092
 10
131.5097204248
 20
60.8876534579
 10
131.9575306902
 20
60.7762701573
 10
132.3290771113
 20
60.8857812584
 10
132.4316915165
 20
60.9748017218
  0
ARC
  5
307
330
1F
100
AcDbEntity
  8
0
  6
Continuous
 62
     7
370
    40
100
AcDbCircle
 10
133.0492645196
 20
63.3681035071
 30
0.0
 40
2.350439459470245
100
AcDbArc
 50
165.8461091532
 51
254.1485191518
  0
LWPOLYLINE
  5
308
330
1F
100
AcDbEntity
  8
0
  6
Continuous
 62
     7
370
    40
100
AcDbPolyline
 90
       13
 70
   128
 43
0.0
 10
100.6611346516
 20
80.7341096377
 10
100.5893258609
 20
80.6785046655
 10
100.2641453634
 20
80.2487328499
 10
100.095293454
 20
79.6503023405
 10
100.095293454
 20
78.9275957982
 10
100.2641453634
 20
78.1342130238
 10
100.5893258609
 20
77.3289957974
 10
101.0467179489
 20
76.5716633041
 10
101.6023999999
 20
75.9183829225
 10
102.2151581034
 20
75.4176062134
 10
102.8395472004
 20
75.1064732472
 10
103.4292595389
 20
75.0080592521
 10
103.9060600311
 20
75.1131245508
  0
LWPOLYLINE
  5
309
330
1F
100
AcDbEntity
  8
0
  6
Continuous
 62
     7
370
    40
100
AcDbPolyline
 90
       12
 70
   128
 43
0.0
 10
102.6782357628
 20
80.1882229442
 10
102.6397054213
 20
80.1781609396
 10
102.3260428672
 20
79.9619139259
 10
102.1578549902
 20
79.5576726884
 10
102.1578549902
 20
79.0200329894
 10
102.3260428672
 20
78.4216061624
 10
102.6397054213
 20
77.8432120724
 10
103.0564795816
 20
77.3629668196
 10
103.520077354
 20
77.0457304683
 10
103.967888717
 20
76.9343465341
 10
104.339432943
 20
77.0438589025
 10
104.4420484458
 20
77.1328787322
  0
ARC
  5
30A
330
1F
100
AcDbEntity
  8
0
  6
Continuous
 62
     7
370
    40
100
AcDbCircle
 10
105.0596210957
 20
79.5261815809
 30
0.0
 40
2.350440076240603
100
AcDbArc
 50
165.846123749
 51
254.148504556
  0
LINE
  5
30B
330
1F
100
AcDbEntity
  8
0
  6
Continuous
 62
     7
370
    40
100
AcDbLine
 10
95.5660828068
 20
79.3175955317
 30
0.0
 11
93.7983158385
 21
78.297085383
 31
0.0
  0
LINE
  5
30C
330
1F
100
AcDbEntity
  8
0
  6
Continuous
 62
     7
370
    40
100
AcDbLine
 10
95.5660828068
 20
79.3175955317
 30
0.0
 11
99.6908719423
 21
76.9364054489
 31
0.0
  0
LINE
  5
30D
330
1F
100
AcDbEntity
  8
0
  6
Continuous
 62
     7
370
    40
100
AcDbLine
 10
95.5660828068
 20
79.9980463198
 30
0.0
 11
93.7983158385
 21
78.9775361711
 31
0.0
  0
LINE
  5
30E
330
1F
100
AcDbEntity
  8
0
  6
Continuous
 62
     7
370
    40
100
AcDbLine
 10
95.5660828068
 20
79.9980463198
 30
0.0
 11
95.5660828068
 21
79.3175955317
 31
0.0
  0
LINE
  5
30F
330
1F
100
AcDbEntity
  8
0
  6
Continuous
 62
     7
370
    40
100
AcDbLine
 10
81.4239470602
 20
88.162127509
 30
0.0
 11
79.6561800918
 21
87.1416173603
 31
0.0
  0
LINE
  5
310
330
1F
100
AcDbEntity
  8
0
  6
Continuous
 62
     7
370
    40
100
AcDbLine
 10
81.4239470602
 20
88.162127509
 30
0.0
 11
95.5660828068
 21
79.9980463198
 31
0.0
  0
LINE
  5
311
330
1F
100
AcDbEntity
  8
0
  6
Continuous
 62
     7
370
    40
100
AcDbLine
 10
74.3528791868
 20
100.0693508994
 30
0.0
 11
72.5851122185
 21
99.0488407507
 31
0.0
  0
LINE
  5
312
330
1F
100
AcDbEntity
  8
0
  6
Continuous
 62
     7
370
    40
100
AcDbLine
 10
74.3528791868
 20
102.1110346988
 30
0.0
 11
74.3528791868
 21
100.0693508994
 31
0.0
  0
LINE
  5
313
330
1F
100
AcDbEntity
  8
0
  6
Continuous
 62
     7
370
    40
100
AcDbLine
 10
75.531390682
 20
98.0281094353
 30
0.0
 11
73.7636237136
 21
97.0075992867
 31
0.0
  0
LINE
  5
314
330
1F
100
AcDbEntity
  8
0
  6
Continuous
 62
     7
370
    40
100
AcDbLine
 10
74.3528791868
 20
100.0693508994
 30
0.0
 11
75.531390682
 21
98.0281094353
 31
0.0
  0
LINE
  5
315
330
1F
100
AcDbEntity
  8
0
  6
Continuous
 62
     7
370
    40
100
AcDbLine
 10
75.531390682
 20
90.8833771108
 30
0.0
 11
73.7636237136
 21
89.8628669621
 31
0.0
  0
LINE
  5
316
330
1F
100
AcDbEntity
  8
0
  6
Continuous
 62
     7
370
    40
100
AcDbLine
 10
75.531390682
 20
98.0281094353
 30
0.0
 11
75.531390682
 21
90.8833771108
 31
0.0
  0
LWPOLYLINE
  5
317
330
1F
100
AcDbEntity
  8
0
  6
Continuous
 62
     7
370
    40
100
AcDbPolyline
 90
       13
 70
   128
 43
0.0
 10
69.725212843
 20
98.5930371599
 10
69.6534040523
 20
98.5374321877
 10
69.3282235548
 20
98.1076603721
 10
69.1593716454
 20
97.5092298627
 10
69.1593716454
 20
96.7865233203
 10
69.3282235548
 20
95.993140546
 10
69.6534040523
 20
95.1879233196
 10
70.1107961403
 20
94.4305908262
 10
70.6664781913
 20
93.7773104446
 10
71.2792362947
 20
93.2765337356
 10
71.9036253918
 20
92.9654007693
 10
72.4933377303
 20
92.8669867743
 10
72.9701382225
 20
92.9720520729
  0
LINE
  5
318
330
1F
100
AcDbEntity
  8
0
  6
Continuous
 62
     7
370
    40
100
AcDbLine
 10
75.531390682
 20
90.8833771108
 30
0.0
 11
80.8345958236
 21
87.8219019478
 31
0.0
  0
LWPOLYLINE
  5
319
330
1F
100
AcDbEntity
  8
0
  6
Continuous
 62
     7
370
    40
100
AcDbPolyline
 90
       12
 70
   128
 43
0.0
 10
71.7423139542
 20
98.0471504663
 10
71.7037836126
 20
98.0370884617
 10
71.3901210586
 20
97.8208414481
 10
71.2219331816
 20
97.4166002106
 10
71.2219331816
 20
96.8789605115
 10
71.3901210586
 20
96.2805336846
 10
71.7037836126
 20
95.7021395946
 10
72.120557773
 20
95.2218943418
 10
72.5841555454
 20
94.9046579904
 10
73.0319669084
 20
94.7932740562
 10
73.4035111344
 20
94.9027864246
 10
73.5061266372
 20
94.9918062544
  0
ARC
  5
31A
330
1F
100
AcDbEntity
  8
0
  6
Continuous
 62
     7
370
    40
100
AcDbCircle
 10
74.1236992871
 20
97.3851091031
 30
0.0
 40
2.350440076240639
100
AcDbArc
 50
165.846123749
 51
254.148504556
  0
LWPOLYLINE
  5
31B
330
1F
100
AcDbEntity
  8
0
  6
Continuous
 62
     7
370
    40
100
AcDbPolyline
 90
       13
 70
   128
 43
0.0
 10
34.7700896326
 20
122.0185071881
 10
34.69429555
 20
121.9599564741
 10
34.3607778791
 20
121.5191643729
 10
34.1875982347
 20
120.9053886629
 10
34.1875982347
 20
120.1641512241
 10
34.3607778791
 20
119.3504262359
 10
34.69429555
 20
118.5245628283
 10
35.1634163157
 20
117.7478111936
 10
35.7333470747
 20
117.077779706
 10
36.3618180502
 20
116.564161877
 10
37.0022174618
 20
116.2450510185
 10
37.6070510797
 20
116.1441133491
 10
38.0984657722
 20
116.2529696591
  0
LWPOLYLINE
  5
31C
330
1F
100
AcDbEntity
  8
0
  6
Continuous
 62
     7
370
    40
100
AcDbPolyline
 90
       12
 70
   128
 43
0.0
 10
36.8752843456
 20
121.4313611448
 10
36.8493113502
 20
121.4242990772
 10
36.5356509913
 20
121.2080510339
 10
36.3674631143
 20
120.8038096182
 10
36.3674631143
 20
120.2661699587
 10
36.5356509913
 20
119.667743112
 10
36.8493113502
 20
119.0893503684
 10
37.2660866081
 20
118.6091044028
 10
37.7296843805
 20
118.2918680515
 10
38.1774946459
 20
118.1804848301
 10
38.5490410671
 20
118.2899959312
 10
38.6427782923
 20
118.3696418267
  0
ARC
  5
31D
330
1F
100
AcDbEntity
  8
0
  6
Continuous
 62
     7
370
    40
100
AcDbCircle
 10
39.1715120441
 20
120.715910131
 30
0.0
 40
2.310267233165502
100
AcDbArc
 50
163.7226639353
 51
256.2719780103
  0
LINE
  5
31E
330
1F
100
AcDbEntity
  8
0
  6
Continuous
 62
     7
370
    40
100
AcDbLine
 10
344.437261759
 20
153.1268666772
 30
0.0
 11
344.437261759
 21
156.1268667032
 31
0.0
  0
LINE
  5
31F
330
1F
100
AcDbEntity
  8
0
  6
Continuous
 62
     7
370
    40
100
AcDbLine
 10
344.437261759
 20
153.1268666772
 30
0.0
 11
59.4372653352
 21
153.1268666772
 31
0.0
  0
LINE
  5
320
330
1F
100
AcDbEntity
  8
0
  6
Continuous
 62
     7
370
    40
100
AcDbLine
 10
59.4372653352
 20
153.1268666772
 30
0.0
 11
59.4372653352
 21
156.1268667032
 31
0.0
  0
LINE
  5
321
330
1F
100
AcDbEntity
  8
0
  6
Continuous
 62
     7
370
    40
100
AcDbLine
 10
344.437261759
 20
156.1268667032
 30
0.0
 11
59.4372653352
 21
156.1268667032
 31
0.0
  0
LINE
  5
322
330
1F
100
AcDbEntity
  8
0
  6
HIDDEN
 62
     7
370
     0
100
AcDbLine
 10
275.9372645008
 20
156.1268667032
 30
0.0
 11
275.9372645008
 21
153.1268666772
 31
0.0
  0
LINE
  5
323
330
1F
100
AcDbEntity
  8
0
  6
HIDDEN
 62
     7
370
     0
100
AcDbLine
 10
227.9372640835
 20
156.1268667032
 30
0.0
 11
227.9372640835
 21
153.1268666772
 31
0.0
  0
LINE
  5
324
330
1F
100
AcDbEntity
  8
0
  6
HIDDEN
 62
     7
370
     0
100
AcDbLine
 10
175.9372667359
 20
156.1268667032
 30
0.0
 11
175.9372667359
 21
153.1268666772
 31
0.0
  0
LINE
  5
325
330
1F
100
AcDbEntity
  8
0
  6
HIDDEN
 62
     7
370
     0
100
AcDbLine
 10
127.9372663187
 20
156.1268667032
 30
0.0
 11
127.9372663187
 21
153.1268666772
 31
0.0
  0
LINE
  5
326
330
1F
100
AcDbEntity
  8
0
  6
HIDDEN
 62
     7
370
     0
100
AcDbLine
 10
70.4372652756
 20
153.4268666332
 30
0.0
 11
62.4372639643
 21
153.4268666332
 31
0.0
  0
LINE
  5
327
330
1F
100
AcDbEntity
  8
0
  6
HIDDEN
 62
     7
370
     0
100
AcDbLine
 10
68.5872637617
 20
155.276866692
 30
0.0
 11
64.2872654783
 21
155.276866692
 31
0.0
  0
LINE
  5
328
330
1F
100
AcDbEntity
  8
0
  6
HIDDEN
 62
     7
370
     0
100
AcDbLine
 10
341.4372705804
 20
153.4268666332
 30
0.0
 11
333.4372692691
 21
153.4268666332
 31
0.0
  0
LINE
  5
329
330
1F
100
AcDbEntity
  8
0
  6
HIDDEN
 62
     7
370
     0
100
AcDbLine
 10
339.5872616159
 20
155.276866692
 30
0.0
 11
335.2872633325
 21
155.276866692
 31
0.0
  0
LINE
  5
32A
330
1F
100
AcDbEntity
  8
0
  6
HIDDEN
 62
     7
370
     0
100
AcDbLine
 10
273.9372678982
 20
156.1268667032
 30
0.0
 11
273.9372678982
 21
153.1268666772
 31
0.0
  0
LINE
  5
32B
330
1F
100
AcDbEntity
  8
0
  6
HIDDEN
 62
     7
370
     0
100
AcDbLine
 10
229.9372681367
 20
156.1268667032
 30
0.0
 11
229.9372681367
 21
153.1268666772
 31
0.0
  0
LINE
  5
32C
330
1F
100
AcDbEntity
  8
0
  6
HIDDEN
 62
     7
370
     0
100
AcDbLine
 10
173.9372664081
 20
156.1268667032
 30
0.0
 11
173.9372664081
 21
153.1268666772
 31
0.0
  0
LINE
  5
32D
330
1F
100
AcDbEntity
  8
0
  6
HIDDEN
 62
     7
370
     0
100
AcDbLine
 10
129.9372666465
 20
156.1268667032
 30
0.0
 11
129.9372666465
 21
153.1268666772
 31
0.0
  0
LINE
  5
32E
330
1F
100
AcDbEntity
  8
0
  6
HIDDEN
 62
     7
370
     0
100
AcDbLine
 10
229.5872696625
 20
153.4268666332
 30
0.0
 11
221.7872642862
 21
153.4268666332
 31
0.0
  0
LINE
  5
32F
330
1F
100
AcDbEntity
  8
0
  6
HIDDEN
 62
     7
370
     0
100
AcDbLine
 10
227.8372698413
 20
155.1768666872
 30
0.0
 11
223.5372641074
 21
155.1768666872
 31
0.0
  0
LINE
  5
330
330
1F
100
AcDbEntity
  8
0
  6
HIDDEN
 62
     7
370
     0
100
AcDbLine
 10
182.0872665333
 20
153.4268666332
 30
0.0
 11
174.2872667449
 21
153.4268666332
 31
0.0
  0
LINE
  5
331
330
1F
100
AcDbEntity
  8
0
  6
HIDDEN
 62
     7
370
     0
100
AcDbLine
 10
180.3372667121
 20
155.1768666872
 30
0.0
 11
176.0372665661
 21
155.1768666872
 31
0.0
  0
LINE
  5
332
330
1F
100
AcDbEntity
  8
0
  6
HIDDEN
 62
     7
370
     0
100
AcDbLine
 10
129.5872663098
 20
153.4268666332
 30
0.0
 11
121.7872665214
 21
153.4268666332
 31
0.0
  0
LINE
  5
333
330
1F
100
AcDbEntity
  8
0
  6
HIDDEN
 62
     7
370
     0
100
AcDbLine
 10
127.8372664886
 20
155.1768666872
 30
0.0
 11
123.5372663426
 21
155.1768666872
 31
0.0
  0
LINE
  5
334
330
1F
100
AcDbEntity
  8
0
  6
HIDDEN
 62
     7
370
     0
100
AcDbLine
 10
282.0872717487
 20
153.4268666332
 30
0.0
 11
274.2872663724
 21
153.4268666332
 31
0.0
  0
LINE
  5
335
330
1F
100
AcDbEntity
  8
0
  6
HIDDEN
 62
     7
370
     0
100
AcDbLine
 10
280.3372644769
 20
155.1768666872
 30
0.0
 11
276.0372661935
 21
155.1768666872
 31
0.0
  0
LINE
  5
336
330
1F
100
AcDbEntity
  8
0
  6
HIDDEN
 62
     7
370
     0
100
AcDbLine
 10
239.9372660505
 20
156.1268667032
 30
0.0
 11
239.9372660505
 21
153.1268666772
 31
0.0
  0
LINE
  5
337
330
1F
100
AcDbEntity
  8
0
  6
HIDDEN
 62
     7
370
     0
100
AcDbLine
 10
263.9372699844
 20
156.1268667032
 30
0.0
 11
263.9372699844
 21
153.1268666772
 31
0.0
  0
LINE
  5
338
330
1F
100
AcDbEntity
  8
0
  6
HIDDEN
 62
     7
370
     0
100
AcDbLine
 10
139.937266423
 20
156.1268667032
 30
0.0
 11
139.937266423
 21
153.1268666772
 31
0.0
  0
LINE
  5
339
330
1F
100
AcDbEntity
  8
0
  6
HIDDEN
 62
     7
370
     0
100
AcDbLine
 10
163.9372666316
 20
156.1268667032
 30
0.0
 11
163.9372666316
 21
153.1268666772
 31
0.0
  0
LINE
  5
33A
330
1F
100
AcDbEntity
  8
0
  6
HIDDEN
 62
     7
370
     0
100
AcDbLine
 10
70.4372652756
 20
153.4268666332
 30
0.0
 11
68.5872637617
 21
155.276866692
 31
0.0
  0
LINE
  5
33B
330
1F
100
AcDbEntity
  8
0
  6
HIDDEN
 62
     7
370
     0
100
AcDbLine
 10
64.2872654783
 20
155.276866692
 30
0.0
 11
62.4372639643
 21
153.4268666332
 31
0.0
  0
LINE
  5
33C
330
1F
100
AcDbEntity
  8
0
  6
HIDDEN
 62
     7
370
     0
100
AcDbLine
 10
341.4372705804
 20
153.4268666332
 30
0.0
 11
339.5872616159
 21
155.276866692
 31
0.0
  0
LINE
  5
33D
330
1F
100
AcDbEntity
  8
0
  6
HIDDEN
 62
     7
370
     0
100
AcDbLine
 10
335.2872633325
 20
155.276866692
 30
0.0
 11
333.4372692691
 21
153.4268666332
 31
0.0
  0
LINE
  5
33E
330
1F
100
AcDbEntity
  8
0
  6
HIDDEN
 62
     7
370
     0
100
AcDbLine
 10
70.4372652756
 20
153.1268666772
 30
0.0
 11
70.4372652756
 21
153.4268666332
 31
0.0
  0
LINE
  5
33F
330
1F
100
AcDbEntity
  8
0
  6
HIDDEN
 62
     7
370
     0
100
AcDbLine
 10
62.4372639643
 20
153.4268666332
 30
0.0
 11
62.4372639643
 21
153.1268666772
 31
0.0
  0
LINE
  5
340
330
1F
100
AcDbEntity
  8
0
  6
HIDDEN
 62
     7
370
     0
100
AcDbLine
 10
341.4372705804
 20
153.1268666772
 30
0.0
 11
341.4372705804
 21
153.4268666332
 31
0.0
  0
LINE
  5
341
330
1F
100
AcDbEntity
  8
0
  6
HIDDEN
 62
     7
370
     0
100
AcDbLine
 10
333.4372692691
 20
153.4268666332
 30
0.0
 11
333.4372692691
 21
153.1268666772
 31
0.0
  0
LINE
  5
342
330
1F
100
AcDbEntity
  8
0
  6
HIDDEN
 62
     7
370
     0
100
AcDbLine
 10
339.5872616159
 20
155.276866692
 30
0.0
 11
339.5872616159
 21
156.1268667032
 31
0.0
  0
LINE
  5
343
330
1F
100
AcDbEntity
  8
0
  6
HIDDEN
 62
     7
370
     0
100
AcDbLine
 10
335.2872633325
 20
156.1268667032
 30
0.0
 11
335.2872633325
 21
155.276866692
 31
0.0
  0
LINE
  5
344
330
1F
100
AcDbEntity
  8
0
  6
HIDDEN
 62
     7
370
     0
100
AcDbLine
 10
68.5872637617
 20
155.276866692
 30
0.0
 11
68.5872637617
 21
156.1268667032
 31
0.0
  0
LINE
  5
345
330
1F
100
AcDbEntity
  8
0
  6
HIDDEN
 62
     7
370
     0
100
AcDbLine
 10
64.2872654783
 20
156.1268667032
 30
0.0
 11
64.2872654783
 21
155.276866692
 31
0.0
  0
LINE
  5
346
330
1F
100
AcDbEntity
  8
0
  6
HIDDEN
 62
     7
370
     0
100
AcDbLine
 10
229.5872696625
 20
153.4268666332
 30
0.0
 11
227.8372698413
 21
155.1768666872
 31
0.0
  0
LINE
  5
347
330
1F
100
AcDbEntity
  8
0
  6
HIDDEN
 62
     7
370
     0
100
AcDbLine
 10
223.5372641074
 20
155.1768666872
 30
0.0
 11
221.7872642862
 21
153.4268666332
 31
0.0
  0
LINE
  5
348
330
1F
100
AcDbEntity
  8
0
  6
HIDDEN
 62
     7
370
     0
100
AcDbLine
 10
182.0872665333
 20
153.4268666332
 30
0.0
 11
180.3372667121
 21
155.1768666872
 31
0.0
  0
LINE
  5
349
330
1F
100
AcDbEntity
  8
0
  6
HIDDEN
 62
     7
370
     0
100
AcDbLine
 10
176.0372665661
 20
155.1768666872
 30
0.0
 11
174.2872667449
 21
153.4268666332
 31
0.0
  0
LINE
  5
34A
330
1F
100
AcDbEntity
  8
0
  6
HIDDEN
 62
     7
370
     0
100
AcDbLine
 10
129.5872663098
 20
153.4268666332
 30
0.0
 11
127.8372664886
 21
155.1768666872
 31
0.0
  0
LINE
  5
34B
330
1F
100
AcDbEntity
  8
0
  6
HIDDEN
 62
     7
370
     0
100
AcDbLine
 10
123.5372663426
 20
155.1768666872
 30
0.0
 11
121.7872665214
 21
153.4268666332
 31
0.0
  0
LINE
  5
34C
330
1F
100
AcDbEntity
  8
0
  6
HIDDEN
 62
     7
370
     0
100
AcDbLine
 10
229.5872696625
 20
153.1268666772
 30
0.0
 11
229.5872696625
 21
153.4268666332
 31
0.0
  0
LINE
  5
34D
330
1F
100
AcDbEntity
  8
0
  6
HIDDEN
 62
     7
370
     0
100
AcDbLine
 10
221.7872642862
 20
153.4268666332
 30
0.0
 11
221.7872642862
 21
153.1268666772
 31
0.0
  0
LINE
  5
34E
330
1F
100
AcDbEntity
  8
0
  6
HIDDEN
 62
     7
370
     0
100
AcDbLine
 10
182.0872665333
 20
153.1268666772
 30
0.0
 11
182.0872665333
 21
153.4268666332
 31
0.0
  0
LINE
  5
34F
330
1F
100
AcDbEntity
  8
0
  6
HIDDEN
 62
     7
370
     0
100
AcDbLine
 10
174.2872667449
 20
153.4268666332
 30
0.0
 11
174.2872667449
 21
153.1268666772
 31
0.0
  0
LINE
  5
350
330
1F
100
AcDbEntity
  8
0
  6
HIDDEN
 62
     7
370
     0
100
AcDbLine
 10
129.5872663098
 20
153.1268666772
 30
0.0
 11
129.5872663098
 21
153.4268666332
 31
0.0
  0
LINE
  5
351
330
1F
100
AcDbEntity
  8
0
  6
HIDDEN
 62
     7
370
     0
100
AcDbLine
 10
121.7872665214
 20
153.4268666332
 30
0.0
 11
121.7872665214
 21
153.1268666772
 31
0.0
  0
LINE
  5
352
330
1F
100
AcDbEntity
  8
0
  6
HIDDEN
 62
     7
370
     0
100
AcDbLine
 10
282.0872717487
 20
153.4268666332
 30
0.0
 11
280.3372644769
 21
155.1768666872
 31
0.0
  0
LINE
  5
353
330
1F
100
AcDbEntity
  8
0
  6
HIDDEN
 62
     7
370
     0
100
AcDbLine
 10
276.0372661935
 20
155.1768666872
 30
0.0
 11
274.2872663724
 21
153.4268666332
 31
0.0
  0
LINE
  5
354
330
1F
100
AcDbEntity
  8
0
  6
HIDDEN
 62
     7
370
     0
100
AcDbLine
 10
282.0872717487
 20
153.1268666772
 30
0.0
 11
282.0872717487
 21
153.4268666332
 31
0.0
  0
LINE
  5
355
330
1F
100
AcDbEntity
  8
0
  6
HIDDEN
 62
     7
370
     0
100
AcDbLine
 10
274.2872663724
 20
153.4268666332
 30
0.0
 11
274.2872663724
 21
153.1268666772
 31
0.0
  0
LINE
  5
356
330
1F
100
AcDbEntity
  8
0
  6
HIDDEN
 62
     7
370
     0
100
AcDbLine
 10
280.3372644769
 20
155.1768666872
 30
0.0
 11
280.3372644769
 21
156.1268667032
 31
0.0
  0
LINE
  5
357
330
1F
100
AcDbEntity
  8
0
  6
HIDDEN
 62
     7
370
     0
100
AcDbLine
 10
276.0372661935
 20
156.1268667032
 30
0.0
 11
276.0372661935
 21
155.1768666872
 31
0.0
  0
LINE
  5
358
330
1F
100
AcDbEntity
  8
0
  6
HIDDEN
 62
     7
370
     0
100
AcDbLine
 10
227.8372698413
 20
155.1768666872
 30
0.0
 11
227.8372698413
 21
156.1268667032
 31
0.0
  0
LINE
  5
359
330
1F
100
AcDbEntity
  8
0
  6
HIDDEN
 62
     7
370
     0
100
AcDbLine
 10
223.5372641074
 20
156.1268667032
 30
0.0
 11
223.5372641074
 21
155.1768666872
 31
0.0
  0
LINE
  5
35A
330
1F
100
AcDbEntity
  8
0
  6
HIDDEN
 62
     7
370
     0
100
AcDbLine
 10
180.3372667121
 20
155.1768666872
 30
0.0
 11
180.3372667121
 21
156.1268667032
 31
0.0
  0
LINE
  5
35B
330
1F
100
AcDbEntity
  8
0
  6
HIDDEN
 62
     7
370
     0
100
AcDbLine
 10
176.0372665661
 20
156.1268667032
 30
0.0
 11
176.0372665661
 21
155.1768666872
 31
0.0
  0
LINE
  5
35C
330
1F
100
AcDbEntity
  8
0
  6
HIDDEN
 62
     7
370
     0
100
AcDbLine
 10
127.8372664886
 20
155.1768666872
 30
0.0
 11
127.8372664886
 21
156.1268667032
 31
0.0
  0
LINE
  5
35D
330
1F
100
AcDbEntity
  8
0
  6
HIDDEN
 62
     7
370
     0
100
AcDbLine
 10
123.5372663426
 20
156.1268667032
 30
0.0
 11
123.5372663426
 21
155.1768666872
 31
0.0
  0
DIMENSION
  5
35E
330
1F
100
AcDbEntity
  8
0
  6
Continuous
 62
     7
370
     0
100
AcDbDimension
  2
*D33
 10
50.4244620535
 20
156.1268667032
 30
0.0
 11
50.4244620535
 21
161.6825953622
 31
0.0
 70
   160
 71
     2
 42
-1.0
  3
SLDDIMSTYLE3
100
AcDbAlignedDimension
 13
59.4372665273
 23
153.1268667032
 33
0.0
 14
59.4372665273
 24
156.1268667032
 34
0.0
 50
90.0
100
AcDbRotatedDimension
  0
LINE
  5
36A
330
1F
100
AcDbEntity
  8
0
  6
CENTERX2
 62
     7
370
     0
100
AcDbLine
 10
151.9372665273
 20
157.1268667032
 30
0.0
 11
151.9372665273
 21
152.1268667032
 31
0.0
  0
LINE
  5
36B
330
1F
100
AcDbEntity
  8
0
  6
CENTERX2
 62
     7
370
     0
100
AcDbLine
 10
72.9372665273
 20
151.9929010274
 30
0.0
 11
72.9372665273
 21
157.1268667032
 31
0.0
  0
LINE
  5
36C
330
1F
100
AcDbEntity
  8
0
  6
CENTERX2
 62
     7
370
     0
100
AcDbLine
 10
125.6569547028
 20
152.1154888129
 30
0.0
 11
125.6569547028
 21
157.1268667032
 31
0.0
  0
LINE
  5
36D
330
1F
100
AcDbEntity
  8
0
  6
CENTERX2
 62
     7
370
     0
100
AcDbLine
 10
178.1569547028
 20
152.0061769146
 30
0.0
 11
178.1569547028
 21
157.1268667032
 31
0.0
  0
LINE
  5
36E
330
1F
100
AcDbEntity
  8
0
  6
CENTERX2
 62
     7
370
     0
100
AcDbLine
 10
308.9372665273
 20
151.4961929794
 30
0.0
 11
308.9372665273
 21
157.1268667032
 31
0.0
  0
LINE
  5
36F
330
1F
100
AcDbEntity
  8
0
  6
CENTERX2
 62
     7
370
     0
100
AcDbLine
 10
178.1872665273
 20
156.1268667032
 30
0.0
 11
178.1872665273
 21
155.1768667032
 31
0.0
  0
LINE
  5
370
330
1F
100
AcDbEntity
  8
0
  6
CENTERX2
 62
     7
370
     0
100
AcDbLine
 10
178.1872665273
 20
153.4268667032
 30
0.0
 11
178.1872665273
 21
155.1768667032
 31
0.0
  0
LINE
  5
371
330
1F
100
AcDbEntity
  8
0
  6
CENTERX2
 62
     7
370
     0
100
AcDbLine
 10
178.1872665273
 20
153.4268667032
 30
0.0
 11
178.1872665273
 21
152.1268667032
 31
0.0
  0
LINE
  5
372
330
1F
100
AcDbEntity
  8
0
  6
CENTERX2
 62
     7
370
     0
100
AcDbLine
 10
125.6872665273
 20
156.1268667032
 30
0.0
 11
125.6872665273
 21
155.1768667032
 31
0.0
  0
LINE
  5
373
330
1F
100
AcDbEntity
  8
0
  6
CENTERX2
 62
     7
370
     0
100
AcDbLine
 10
125.6872665273
 20
153.4268667032
 30
0.0
 11
125.6872665273
 21
155.1768667032
 31
0.0
  0
LINE
  5
374
330
1F
100
AcDbEntity
  8
0
  6
CENTERX2
 62
     7
370
     0
100
AcDbLine
 10
125.6872665273
 20
153.4268667032
 30
0.0
 11
125.6872665273
 21
152.1268667032
 31
0.0
  0
LINE
  5
375
330
1F
100
AcDbEntity
  8
0
  6
CENTERX2
 62
     7
370
     0
100
AcDbLine
 10
337.4372665273
 20
156.1268667032
 30
0.0
 11
337.4372665273
 21
155.2768667032
 31
0.0
  0
LINE
  5
376
330
1F
100
AcDbEntity
  8
0
  6
CENTERX2
 62
     7
370
     0
100
AcDbLine
 10
337.4372665273
 20
153.4268667032
 30
0.0
 11
337.4372665273
 21
155.2768667032
 31
0.0
  0
LINE
  5
377
330
1F
100
AcDbEntity
  8
0
  6
CENTERX2
 62
     7
370
     0
100
AcDbLine
 10
337.4372665273
 20
153.4268667032
 30
0.0
 11
337.4372665273
 21
152.1268667032
 31
0.0
  0
LINE
  5
378
330
1F
100
AcDbEntity
  8
0
  6
CENTERX2
 62
     7
370
     0
100
AcDbLine
 10
66.4372665273
 20
156.1268667032
 30
0.0
 11
66.4372665273
 21
155.2768667032
 31
0.0
  0
LINE
  5
379
330
1F
100
AcDbEntity
  8
0
  6
CENTERX2
 62
     7
370
     0
100
AcDbLine
 10
66.4372665273
 20
153.4268667032
 30
0.0
 11
66.4372665273
 21
155.2768667032
 31
0.0
  0
LINE
  5
37A
330
1F
100
AcDbEntity
  8
0
  6
CENTERX2
 62
     7
370
     0
100
AcDbLine
 10
66.4372665273
 20
153.4268667032
 30
0.0
 11
66.4372665273
 21
152.1268667032
 31
0.0
  0
LINE
  5
37B
330
1F
100
AcDbEntity
  8
0
  6
CENTERX2
 62
     7
370
     0
100
AcDbLine
 10
203.6872665273
 20
152.4268667032
 30
0.0
 11
203.6872665273
 21
157.2362655337
 31
0.0
  0
LINE
  5
37C
330
1F
100
AcDbEntity
  8
0
  6
CENTERX2
 62
     7
370
     0
100
AcDbLine
 10
256.1872665273
 20
152.4268667032
 30
0.0
 11
256.1872665273
 21
157.4943482544
 31
0.0
  0
LINE
  5
37D
330
1F
100
AcDbEntity
  8
0
  6
Continuous
 62
     7
370
    40
100
AcDbLine
 10
388.7060957132
 20
258.3476350403
 30
0.0
 11
388.7060957132
 21
224.3476350552
 31
0.0
  0
LINE
  5
37E
330
1F
100
AcDbEntity
  8
0
  6
Continuous
 62
     7
370
    40
100
AcDbLine
 10
388.7060957132
 20
258.3476350403
 30
0.0
 11
385.7060956871
 21
258.3476350403
 31
0.0
  0
LINE
  5
37F
330
1F
100
AcDbEntity
  8
0
  6
Continuous
 62
     7
370
    40
100
AcDbLine
 10
388.7060957132
 20
224.3476350552
 30
0.0
 11
385.7060956871
 21
224.3476350552
 31
0.0
  0
LINE
  5
380
330
1F
100
AcDbEntity
  8
0
  6
Continuous
 62
     7
370
    40
100
AcDbLine
 10
385.7060956871
 20
258.3476350403
 30
0.0
 11
385.7060956871
 21
224.3476350552
 31
0.0
  0
ENDSEC
  0
SECTION
  2
OBJECTS
  0
DICTIONARY
  5
C
330
0
100
AcDbDictionary
281
     1
  3
ACAD_GROUP
350
D
  3
ACAD_LAYOUT
350
1A
  3
ACAD_MLEADERSTYLE
350
382
  3
ACAD_MLINESTYLE
350
17
  3
ACAD_PLOTSETTINGS
350
19
  3
ACAD_PLOTSTYLENAME
350
E
  3
ACAD_TABLESTYLE
350
381
  3
ACAD_VISUALSTYLE
350
2A
  3
AcDbVariableDictionary
350
383
  0
DICTIONARY
  5
D
102
{ACAD_REACTORS
330
C
102
}
330
C
100
AcDbDictionary
281
     1
  0
DICTIONARY
  5
1A
102
{ACAD_REACTORS
330
C
102
}
330
C
100
AcDbDictionary
281
     1
  3
Layout1
350
1E
  3
Layout2
350
26
  3
Model
350
22
  0
DICTIONARY
  5
382
102
{ACAD_REACTORS
330
C
102
}
330
C
100
AcDbDictionary
281
     1
  0
DICTIONARY
  5
17
102
{ACAD_REACTORS
330
C
102
}
330
C
100
AcDbDictionary
281
     1
  3
Standard
350
18
  0
DICTIONARY
  5
19
102
{ACAD_REACTORS
330
C
102
}
330
C
100
AcDbDictionary
281
     1
  0
ACDBDICTIONARYWDFLT
  5
E
102
{ACAD_REACTORS
330
C
102
}
330
C
100
AcDbDictionary
281
     1
  3
Normal
350
F
100
AcDbDictionaryWithDefault
340
F
  0
DICTIONARY
  5
381
102
{ACAD_REACTORS
330
C
102
}
330
C
100
AcDbDictionary
281
     1
  0
DICTIONARY
  5
2A
102
{ACAD_REACTORS
330
C
102
}
330
C
100
AcDbDictionary
281
     1
  3
2dWireframe
350
2F
  3
3D Hidden
350
31
  3
3dWireframe
350
30
  3
Basic
350
32
  3
Brighten
350
36
  3
ColorChange
350
3A
  3
Conceptual
350
34
  3
Dim
350
35
  3
Facepattern
350
39
  3
Flat
350
2B
  3
FlatWithEdges
350
2C
  3
Gouraud
350
2D
  3
GouraudWithEdges
350
2E
  3
Linepattern
350
38
  3
Realistic
350
33
  3
Thicken
350
37
  0
DICTIONARY
  5
383
102
{ACAD_REACTORS
330
C
102
}
330
C
100
AcDbDictionary
281
     1
  3
PSOLHEIGHT
350
385
  3
PSOLWIDTH
350
384
  0
LAYOUT
  5
1E
102
{ACAD_REACTORS
330
1A
102
}
330
1A
100
AcDbPlotSettings
  1

  2
none_device
  4

  6

 40
0.0
 41
0.0
 42
0.0
 43
0.0
 44
0.0
 45
0.0
 46
0.0
 47
0.0
 48
0.0
 49
0.0
140
0.0
141
0.0
142
1.0
143
1.0
 70
   688
 72
     0
 73
     0
 74
     5
  7

 75
    16
147
1.0
148
0.0
149
0.0
100
AcDbLayout
  1
Layout1
 70
     1
 71
     1
 10
0.0
 20
0.0
 11
420.0
 21
297.0
 12
0.0
 22
0.0
 32
0.0
 14
1.0000000000E+20
 24
1.0000000000E+20
 34
1.0000000000E+20
 15
-1.0000000000E+20
 25
-1.0000000000E+20
 35
-1.0000000000E+20
146
0.0
 13
0.0
 23
0.0
 33
0.0
 16
1.0
 26
0.0
 36
0.0
 17
0.0
 27
1.0
 37
0.0
 76
     0
330
1B
  0
LAYOUT
  5
26
102
{ACAD_REACTORS
330
1A
102
}
330
1A
100
AcDbPlotSettings
  1

  2
none_device
  4

  6

 40
0.0
 41
0.0
 42
0.0
 43
0.0
 44
0.0
 45
0.0
 46
0.0
 47
0.0
 48
0.0
 49
0.0
140
0.0
141
0.0
142
1.0
143
1.0
 70
   688
 72
     0
 73
     0
 74
     5
  7

 75
    16
147
1.0
148
0.0
149
0.0
100
AcDbLayout
  1
Layout2
 70
     1
 71
     2
 10
0.0
 20
0.0
 11
0.0
 21
0.0
 12
0.0
 22
0.0
 32
0.0
 14
0.0
 24
0.0
 34
0.0
 15
0.0
 25
0.0
 35
0.0
146
0.0
 13
0.0
 23
0.0
 33
0.0
 16
1.0
 26
0.0
 36
0.0
 17
0.0
 27
1.0
 37
0.0
 76
     0
330
23
  0
LAYOUT
  5
22
102
{ACAD_REACTORS
330
1A
102
}
330
1A
100
AcDbPlotSettings
  1

  2
none_device
  4

  6

 40
0.0
 41
0.0
 42
0.0
 43
0.0
 44
0.0
 45
0.0
 46
0.0
 47
0.0
 48
0.0
 49
0.0
140
0.0
141
0.0
142
1.0
143
1.0
 70
  1712
 72
     0
 73
     0
 74
     0
  7

 75
     0
147
1.0
148
0.0
149
0.0
100
AcDbLayout
  1
Model
 70
     1
 71
     0
 10
0.0
 20
0.0
 11
420.0
 21
297.0
 12
0.0
 22
0.0
 32
0.0
 14
0.0
 24
0.0
 34
0.0
 15
420.0
 25
297.0
 35
0.0
146
0.0
 13
0.0
 23
0.0
 33
0.0
 16
1.0
 26
0.0
 36
0.0
 17
0.0
 27
1.0
 37
0.0
 76
     0
330
1F
331
29
  0
MLINESTYLE
  5
18
102
{ACAD_REACTORS
330
17
102
}
330
17
100
AcDbMlineStyle
  2
Standard
 70
     0
  3

 62
   256
 51
90.0
 52
90.0
 71
     2
 49
0.5
 62
   256
  6
BYLAYER
 49
-0.5
 62
   256
  6
BYLAYER
  0
ACDBPLACEHOLDER
  5
F
102
{ACAD_REACTORS
330
E
102
}
330
E
  0
VISUALSTYLE
  5
2F
102
{ACAD_REACTORS
330
2A
102
}
330
2A
100
AcDbVisualStyle
  2
2dWireframe
 70
     4
 71
     0
 72
     2
 73
     0
 90
        0
 40
-0.6
 41
-30.0
 62
     5
 63
     7
 74
     1
 91
        4
 64
     7
 65
   257
 75
     1
175
     1
 42
1.0
 92
        0
 66
   257
 43
1.0
 76
     1
 77
     6
 78
     2
 67
     7
 79
     5
170
     0
171
     0
290
     0
174
     0
 93
        1
 44
0.0
173
     0
291
     0
 45
0.0
1001
ACAD
1000
AcDbSavedByObjectVersion
1070
     0
  0
VISUALSTYLE
  5
31
102
{ACAD_REACTORS
330
2A
102
}
330
2A
100
AcDbVisualStyle
  2
3D Hidden
 70
     6
 71
     1
 72
     2
 73
     2
 90
        0
 40
-0.6
 41
-30.0
 62
     5
 63
     7
 74
     2
 91
        2
 64
     7
 65
   257
 75
     2
175
     1
 42
40.0
 92
        0
 66
   257
 43
1.0
 76
     1
 77
     6
 78
     2
 67
     7
 79
     3
170
     0
171
     0
290
     0
174
     0
 93
        1
 44
0.0
173
     0
291
     0
 45
0.0
1001
ACAD
1000
AcDbSavedByObjectVersion
1070
     0
  0
VISUALSTYLE
  5
30
102
{ACAD_REACTORS
330
2A
102
}
330
2A
100
AcDbVisualStyle
  2
3dWireframe
 70
     5
 71
     0
 72
     2
 73
     0
 90
        0
 40
-0.6
 41
-30.0
 62
     5
 63
     7
 74
     1
 91
        4
 64
     7
 65
   257
 75
     1
175
     1
 42
1.0
 92
        0
 66
   257
 43
1.0
 76
     1
 77
     6
 78
     2
 67
     7
 79
     5
170
     0
171
     0
290
     0
174
     0
 93
        1
 44
0.0
173
     0
291
     0
 45
0.0
1001
ACAD
1000
AcDbSavedByObjectVersion
1070
     0
  0
VISUALSTYLE
  5
32
102
{ACAD_REACTORS
330
2A
102
}
330
2A
100
AcDbVisualStyle
  2
Basic
 70
     7
 71
     1
 72
     0
 73
     1
 90
        0
 40
-0.6
 41
-30.0
 62
     5
 63
     7
 74
     0
 91
        4
 64
     7
 65
   257
 75
     1
175
     1
 42
1.0
 92
        8
 66
     7
 43
1.0
 76
     1
 77
     6
 78
     2
 67
     7
 79
     5
170
     0
171
     0
290
     0
174
     0
 93
        1
 44
0.0
173
     0
291
     1
 45
0.0
1001
ACAD
1000
AcDbSavedByObjectVersion
1070
     0
  0
VISUALSTYLE
  5
36
102
{ACAD_REACTORS
330
2A
102
}
330
2A
100
AcDbVisualStyle
  2
Brighten
 70
    12
 71
     2
 72
     2
 73
     0
 90
        0
 40
-0.6
 41
-30.0
 62
     5
 63
     7
 74
     1
 91
        4
 64
     7
 65
   257
 75
     1
175
     1
 42
1.0
 92
        8
 66
     7
 43
1.0
 76
     1
 77
     6
 78
     2
 67
     7
 79
     5
170
     0
171
     0
290
     0
174
     0
 93
        1
 44
50.0
173
     0
291
     1
 45
0.0
1001
ACAD
1000
AcDbSavedByObjectVersion
1070
     0
  0
VISUALSTYLE
  5
3A
102
{ACAD_REACTORS
330
2A
102
}
330
2A
100
AcDbVisualStyle
  2
ColorChange
 70
    16
 71
     2
 72
     2
 73
     3
 90
        0
 40
-0.6
 41
-30.0
 62
     5
 63
     8
 74
     1
 91
        4
 64
     7
 65
   257
 75
     1
175
     1
 42
1.0
 92
        8
 66
     8
 43
1.0
 76
     1
 77
     6
 78
     2
 67
     7
 79
     5
170
     0
171
     0
290
     0
174
     0
 93
        1
 44
0.0
173
     0
291
     1
 45
0.0
1001
ACAD
1000
AcDbSavedByObjectVersion
1070
     0
  0
VISUALSTYLE
  5
34
102
{ACAD_REACTORS
330
2A
102
}
330
2A
100
AcDbVisualStyle
  2
Conceptual
 70
     9
 71
     3
 72
     2
 73
     0
 90
        0
 40
-0.6
 41
-30.0
 62
     5
 63
     7
 74
     2
 91
        2
 64
     7
 65
   257
 75
     1
175
     1
 42
40.0
 92
        8
 66
     7
 43
1.0
 76
     1
 77
     6
 78
     2
 67
     7
 79
     3
170
     0
171
     0
290
     0
174
     0
 93
        1
 44
0.0
173
     0
291
     0
 45
0.0
1001
ACAD
1000
AcDbSavedByObjectVersion
1070
     0
  0
VISUALSTYLE
  5
35
102
{ACAD_REACTORS
330
2A
102
}
330
2A
100
AcDbVisualStyle
  2
Dim
 70
    11
 71
     2
 72
     2
 73
     0
 90
        0
 40
-0.6
 41
-30.0
 62
     5
 63
     7
 74
     1
 91
        4
 64
     7
 65
   257
 75
     1
175
     1
 42
1.0
 92
        8
 66
     7
 43
1.0
 76
     1
 77
     6
 78
     2
 67
     7
 79
     5
170
     0
171
     0
290
     0
174
     0
 93
        1
 44
-50.0
173
     0
291
     1
 45
0.0
1001
ACAD
1000
AcDbSavedByObjectVersion
1070
     0
  0
VISUALSTYLE
  5
39
102
{ACAD_REACTORS
330
2A
102
}
330
2A
100
AcDbVisualStyle
  2
Facepattern
 70
    15
 71
     2
 72
     2
 73
     0
 90
        0
 40
-0.6
 41
-30.0
 62
     5
 63
     7
 74
     1
 91
        4
 64
     7
 65
   257
 75
     1
175
     1
 42
1.0
 92
        8
 66
     7
 43
1.0
 76
     1
 77
     6
 78
     2
 67
     7
 79
     5
170
     0
171
     0
290
     0
174
     0
 93
        1
 44
0.0
173
     0
291
     1
 45
0.0
1001
ACAD
1000
AcDbSavedByObjectVersion
1070
     0
  0
VISUALSTYLE
  5
2B
102
{ACAD_REACTORS
330
2A
102
}
330
2A
100
AcDbVisualStyle
  2
Flat
 70
     0
 71
     2
 72
     1
 73
     1
 90
        2
 40
-0.6
 41
30.0
 62
     5
 63
     7
 74
     0
 91
        4
 64
     7
 65
   257
 75
     1
175
     1
 42
1.0
 92
        8
 66
     7
 43
1.0
 76
     1
 77
     6
 78
     2
 67
     7
 79
     5
170
     0
171
     0
290
     0
174
     0
 93
       13
 44
0.0
173
     0
291
     1
 45
0.0
1001
ACAD
1000
AcDbSavedByObjectVersion
1070
     0
  0
VISUALSTYLE
  5
2C
102
{ACAD_REACTORS
330
2A
102
}
330
2A
100
AcDbVisualStyle
  2
FlatWithEdges
 70
     1
 71
     2
 72
     1
 73
     1
 90
        2
 40
-0.6
 41
30.0
 62
     5
 63
     7
 74
     1
 91
        4
 64
     7
 65
   257
 75
     1
175
     1
 42
1.0
 92
        0
 66
   257
 43
1.0
 76
     1
 77
     6
 78
     2
 67
     7
 79
     5
170
     0
171
     0
290
     0
174
     0
 93
       13
 44
0.0
173
     0
291
     1
 45
0.0
1001
ACAD
1000
AcDbSavedByObjectVersion
1070
     0
  0
VISUALSTYLE
  5
2D
102
{ACAD_REACTORS
330
2A
102
}
330
2A
100
AcDbVisualStyle
  2
Gouraud
 70
     2
 71
     2
 72
     2
 73
     1
 90
        2
 40
-0.6
 41
30.0
 62
     5
 63
     7
 74
     0
 91
        4
 64
     7
 65
   257
 75
     1
175
     1
 42
1.0
 92
        0
 66
     7
 43
1.0
 76
     1
 77
     6
 78
     2
 67
     7
 79
     5
170
     0
171
     0
290
     0
174
     0
 93
       13
 44
0.0
173
     0
291
     1
 45
0.0
1001
ACAD
1000
AcDbSavedByObjectVersion
1070
     0
  0
VISUALSTYLE
  5
2E
102
{ACAD_REACTORS
330
2A
102
}
330
2A
100
AcDbVisualStyle
  2
GouraudWithEdges
 70
     3
 71
     2
 72
     2
 73
     1
 90
        2
 40
-0.6
 41
30.0
 62
     5
 63
     7
 74
     1
 91
        4
 64
     7
 65
   257
 75
     1
175
     1
 42
1.0
 92
        0
 66
   257
 43
1.0
 76
     1
 77
     6
 78
     2
 67
     7
 79
     5
170
     0
171
     0
290
     0
174
     0
 93
       13
 44
0.0
173
     0
291
     1
 45
0.0
1001
ACAD
1000
AcDbSavedByObjectVersion
1070
     0
  0
VISUALSTYLE
  5
38
102
{ACAD_REACTORS
330
2A
102
}
330
2A
100
AcDbVisualStyle
  2
Linepattern
 70
    14
 71
     2
 72
     2
 73
     0
 90
        0
 40
-0.6
 41
-30.0
 62
     5
 63
     7
 74
     1
 91
        4
 64
     7
 65
   257
 75
     7
175
     7
 42
1.0
 92
        8
 66
     7
 43
1.0
 76
     1
 77
     6
 78
     2
 67
     7
 79
     5
170
     0
171
     0
290
     0
174
     0
 93
        1
 44
0.0
173
     0
291
     1
 45
0.0
1001
ACAD
1000
AcDbSavedByObjectVersion
1070
     0
  0
VISUALSTYLE
  5
33
102
{ACAD_REACTORS
330
2A
102
}
330
2A
100
AcDbVisualStyle
  2
Realistic
 70
     8
 71
     2
 72
     2
 73
     0
 90
        0
 40
-0.6
 41
-30.0
 62
     5
 63
     7
 74
     1
 91
        0
 64
     7
 65
   257
 75
     1
175
     1
 42
1.0
 92
        8
 66
     8
 43
1.0
 76
     1
 77
     6
 78
     2
 67
     7
 79
     5
170
     0
171
     0
290
     0
174
     0
 93
       13
 44
0.0
173
     0
291
     0
 45
0.0
1001
ACAD
1000
AcDbSavedByObjectVersion
1070
     0
  0
VISUALSTYLE
  5
37
102
{ACAD_REACTORS
330
2A
102
}
330
2A
100
AcDbVisualStyle
  2
Thicken
 70
    13
 71
     2
 72
     2
 73
     0
 90
        0
 40
-0.6
 41
-30.0
 62
     5
 63
     7
 74
     1
 91
        4
 64
     7
 65
   257
 75
     1
175
     1
 42
1.0
 92
       12
 66
     7
 43
1.0
 76
     1
 77
     6
 78
     2
 67
     7
 79
     5
170
     0
171
     0
290
     0
174
     0
 93
        1
 44
0.0
173
     0
291
     1
 45
0.0
1001
ACAD
1000
AcDbSavedByObjectVersion
1070
     0
  0
DICTIONARYVAR
  5
385
102
{ACAD_REACTORS
330
383
102
}
330
383
100
DictionaryVariables
280
     0
  1
80.000000
  0
DICTIONARYVAR
  5
384
102
{ACAD_REACTORS
330
383
102
}
330
383
100
DictionaryVariables
280
     0
  1
5.000000
  0
ENDSEC
  0
EOF
