  0
SECTION
  2
HEADER
  9
$ACADVER
  1
AC1009
999
I-DEAS 9 Not Encoded
  9
$EXTMIN
 10
0.0
 20
0.0
  9
$EXTMAX
 10
4.2E+002
 20
2.97E+002
  9
$TEXTSIZE
 40
1.25E-001
  9
$LTSCALE
 40
1.0
  9
$CLAYER
  8
100
  9
$CECOLOR
 62
3
  9
$DIMASZ
 40
1.25E-001
  9
$DIMEXO
 40
6.25E-002
  9
$DIMDLI
 40
2.5E-001
  9
$DIMEXE
 40
1.25E-001
  9
$DIMTP
 40
5.0E-003
  9
$DIMTM
 40
-5.0E-003
  9
$DIMTXT
 40
3.0
  9
$DIMLIM
 70
0
  9
$DIMTIH
 70
1
  9
$DIMTOH
 70
1
  9
$DIMSE1
 70
0
  9
$DIMSE2
 70
0
  9
$DIMTAD
 70
0
  9
$DIMASO
 70
1
  9
$DIMALT
 70
0
  9
$DIMALTD
 70
0
  9
$DIMTOFL
 70
1
  9
$DIMTIX
 70
0
  9
$DIMSAH
 70
0
  9
$DIMTFAC
 40
1.0
  9
$DIMGAP
 40
6.25E-002
  9
$LUNITS
 70
2
  9
$LUPREC
 70
3
  9
$FILLETRAD
 40
1.0E+001
  9
$AUNITS
 70
0
  9
$AUPREC
 70
1
  9
$CHAMFERA
 40
6.0
  9
$CHAMFERB
 40
6.0
  9
$ANGBASE
 50
0.0
  9
$ANGDIR
 70
0
  9
$PEXTMIN
 10
0.0
 20
0.0
 30
0.0
  9
$PEXTMAX
 10
4.2E+002
 20
2.97E+002
 30
0.0
  9
$PLIMMIN
 10
0.0
 20
0.0
  9
$PLIMMAX
 10
4.2E+002
 20
2.97E+002
  9
$PDMODE
 70
2
  9
$PDSIZE
 40
-1.0E-002
  9
$SPLINETYPE
 70
6
  9
$TILEMODE
 70
1
  0
ENDSEC
  0
SECTION
  2
TABLES
  0
TABLE
  2
VPORT
 70
2
  0
VPORT
  2
*Active
 70
0
 10
0.0
 20
0.0
 11
4.2E+002
 21
2.97E+002
 12
2.1E+002
 22
1.485E+002
 13
0.0
 23
0.0
 14
1.0
 24
1.0
 15
0.0
 25
0.0
 16
0.0
 26
0.0
 36
1.0
 17
0.0
 27
0.0
 37
0.0
 40
2.97E+002
 41
1.4141414
 42
5.0E+001
 43
0.0
 44
0.0
 50
0.0
 51
0.0
 71
0
 72
100
 73
1
 74
3
 75
0
 76
0
 77
0
 78
0
  0
ENDTAB
  0
TABLE
  2
LTYPE
 70
7
  0
LTYPE
  2
HIDDENNEW0
  3
_ 
 70
64
 72
65
 73
3
 40
4.5
 49
1.5
 49
-1.5
 49
1.5
  0
LTYPE
  2
HIDDENNEW1
  3
_ 
 70
64
 72
65
 73
3
 40
4.5
 49
1.5
 49
-1.5
 49
1.5
  0
LTYPE
  2
HIDDEN
  3
_ 
 70
64
 72
65
 73
3
 40
4.5
 49
1.5
 49
-1.5
 49
1.5
  0
LTYPE
  2
CENTERLINE
  3
_ 
 70
64
 72
65
 73
5
 40
3.0E+001
 49
1.2E+001
 49
-1.5
 49
3.0
 49
-1.5
 49
1.2E+001
  0
LTYPE
  2
PHANTOM
  3
_ 
 70
64
 72
65
 73
7
 40
2.95E+001
 49
9.5
 49
-1.5
 49
3.0
 49
-1.5
 49
3.0
 49
-1.5
 49
9.5
  0
LTYPE
  2
SHORT_DASH
  3
_ 
 70
64
 72
65
 73
3
 40
3.0
 49
7.5E-001
 49
-1.5
 49
7.5E-001
  0
LTYPE
  2
LONG_DASH
  3
_ 
 70
64
 72
65
 73
3
 40
9.0
 49
2.25
 49
-4.5
 49
2.25
  0
ENDTAB
  0
TABLE
  2
LAYER
 70
258
  0
LAYER
  2
1
 70
0
 62
7
  6
CONTINUOUS
  0
LAYER
  2
2
 70
0
 62
7
  6
CONTINUOUS
  0
LAYER
  2
3
 70
0
 62
7
  6
CONTINUOUS
  0
LAYER
  2
4
 70
0
 62
7
  6
CONTINUOUS
  0
LAYER
  2
5
 70
0
 62
7
  6
CONTINUOUS
  0
LAYER
  2
6
 70
0
 62
7
  6
CONTINUOUS
  0
LAYER
  2
7
 70
0
 62
7
  6
CONTINUOUS
  0
LAYER
  2
8
 70
0
 62
7
  6
CONTINUOUS
  0
LAYER
  2
9
 70
0
 62
7
  6
CONTINUOUS
  0
LAYER
  2
10
 70
0
 62
7
  6
CONTINUOUS
  0
LAYER
  2
11
 70
0
 62
7
  6
CONTINUOUS
  0
LAYER
  2
12
 70
0
 62
7
  6
CONTINUOUS
  0
LAYER
  2
13
 70
0
 62
7
  6
CONTINUOUS
  0
LAYER
  2
14
 70
0
 62
7
  6
CONTINUOUS
  0
LAYER
  2
15
 70
0
 62
7
  6
CONTINUOUS
  0
LAYER
  2
16
 70
0
 62
7
  6
CONTINUOUS
  0
LAYER
  2
17
 70
0
 62
7
  6
CONTINUOUS
  0
LAYER
  2
18
 70
0
 62
7
  6
CONTINUOUS
  0
LAYER
  2
19
 70
0
 62
7
  6
CONTINUOUS
  0
LAYER
  2
20
 70
0
 62
7
  6
CONTINUOUS
  0
LAYER
  2
21
 70
0
 62
7
  6
CONTINUOUS
  0
LAYER
  2
22
 70
0
 62
7
  6
CONTINUOUS
  0
LAYER
  2
23
 70
0
 62
7
  6
CONTINUOUS
  0
LAYER
  2
24
 70
0
 62
7
  6
CONTINUOUS
  0
LAYER
  2
25
 70
0
 62
7
  6
CONTINUOUS
  0
LAYER
  2
26
 70
0
 62
7
  6
CONTINUOUS
  0
LAYER
  2
27
 70
0
 62
7
  6
CONTINUOUS
  0
LAYER
  2
28
 70
0
 62
7
  6
CONTINUOUS
  0
LAYER
  2
29
 70
0
 62
7
  6
CONTINUOUS
  0
LAYER
  2
30
 70
0
 62
7
  6
CONTINUOUS
  0
LAYER
  2
31
 70
0
 62
7
  6
CONTINUOUS
  0
LAYER
  2
32
 70
0
 62
7
  6
CONTINUOUS
  0
LAYER
  2
33
 70
0
 62
7
  6
CONTINUOUS
  0
LAYER
  2
34
 70
0
 62
7
  6
CONTINUOUS
  0
LAYER
  2
35
 70
0
 62
7
  6
CONTINUOUS
  0
LAYER
  2
36
 70
0
 62
7
  6
CONTINUOUS
  0
LAYER
  2
37
 70
0
 62
7
  6
CONTINUOUS
  0
LAYER
  2
38
 70
0
 62
7
  6
CONTINUOUS
  0
LAYER
  2
39
 70
0
 62
7
  6
CONTINUOUS
  0
LAYER
  2
40
 70
0
 62
7
  6
CONTINUOUS
  0
LAYER
  2
41
 70
0
 62
7
  6
CONTINUOUS
  0
LAYER
  2
42
 70
0
 62
7
  6
CONTINUOUS
  0
LAYER
  2
43
 70
0
 62
7
  6
CONTINUOUS
  0
LAYER
  2
44
 70
0
 62
7
  6
CONTINUOUS
  0
LAYER
  2
45
 70
0
 62
7
  6
CONTINUOUS
  0
LAYER
  2
46
 70
0
 62
7
  6
CONTINUOUS
  0
LAYER
  2
47
 70
0
 62
7
  6
CONTINUOUS
  0
LAYER
  2
48
 70
0
 62
7
  6
CONTINUOUS
  0
LAYER
  2
49
 70
0
 62
7
  6
CONTINUOUS
  0
LAYER
  2
50
 70
0
 62
7
  6
CONTINUOUS
  0
LAYER
  2
51
 70
0
 62
7
  6
CONTINUOUS
  0
LAYER
  2
52
 70
0
 62
7
  6
CONTINUOUS
  0
LAYER
  2
53
 70
0
 62
7
  6
CONTINUOUS
  0
LAYER
  2
54
 70
0
 62
7
  6
CONTINUOUS
  0
LAYER
  2
55
 70
0
 62
7
  6
CONTINUOUS
  0
LAYER
  2
56
 70
0
 62
7
  6
CONTINUOUS
  0
LAYER
  2
57
 70
0
 62
7
  6
CONTINUOUS
  0
LAYER
  2
58
 70
0
 62
7
  6
CONTINUOUS
  0
LAYER
  2
59
 70
0
 62
7
  6
CONTINUOUS
  0
LAYER
  2
60
 70
0
 62
7
  6
CONTINUOUS
  0
LAYER
  2
61
 70
0
 62
7
  6
CONTINUOUS
  0
LAYER
  2
62
 70
0
 62
7
  6
CONTINUOUS
  0
LAYER
  2
63
 70
0
 62
7
  6
CONTINUOUS
  0
LAYER
  2
64
 70
0
 62
7
  6
CONTINUOUS
  0
LAYER
  2
65
 70
0
 62
7
  6
CONTINUOUS
  0
LAYER
  2
66
 70
0
 62
7
  6
CONTINUOUS
  0
LAYER
  2
67
 70
0
 62
7
  6
CONTINUOUS
  0
LAYER
  2
68
 70
0
 62
7
  6
CONTINUOUS
  0
LAYER
  2
69
 70
0
 62
7
  6
CONTINUOUS
  0
LAYER
  2
70
 70
0
 62
7
  6
CONTINUOUS
  0
LAYER
  2
71
 70
0
 62
7
  6
CONTINUOUS
  0
LAYER
  2
72
 70
0
 62
7
  6
CONTINUOUS
  0
LAYER
  2
73
 70
0
 62
7
  6
CONTINUOUS
  0
LAYER
  2
74
 70
0
 62
7
  6
CONTINUOUS
  0
LAYER
  2
75
 70
0
 62
7
  6
CONTINUOUS
  0
LAYER
  2
76
 70
0
 62
7
  6
CONTINUOUS
  0
LAYER
  2
77
 70
0
 62
7
  6
CONTINUOUS
  0
LAYER
  2
78
 70
0
 62
7
  6
CONTINUOUS
  0
LAYER
  2
79
 70
0
 62
7
  6
CONTINUOUS
  0
LAYER
  2
80
 70
0
 62
7
  6
CONTINUOUS
  0
LAYER
  2
81
 70
0
 62
7
  6
CONTINUOUS
  0
LAYER
  2
82
 70
0
 62
7
  6
CONTINUOUS
  0
LAYER
  2
83
 70
0
 62
7
  6
CONTINUOUS
  0
LAYER
  2
84
 70
0
 62
7
  6
CONTINUOUS
  0
LAYER
  2
85
 70
0
 62
7
  6
CONTINUOUS
  0
LAYER
  2
86
 70
0
 62
7
  6
CONTINUOUS
  0
LAYER
  2
87
 70
0
 62
7
  6
CONTINUOUS
  0
LAYER
  2
88
 70
0
 62
7
  6
CONTINUOUS
  0
LAYER
  2
89
 70
0
 62
7
  6
CONTINUOUS
  0
LAYER
  2
90
 70
0
 62
7
  6
CONTINUOUS
  0
LAYER
  2
91
 70
0
 62
7
  6
CONTINUOUS
  0
LAYER
  2
92
 70
0
 62
7
  6
CONTINUOUS
  0
LAYER
  2
93
 70
0
 62
7
  6
CONTINUOUS
  0
LAYER
  2
94
 70
0
 62
7
  6
CONTINUOUS
  0
LAYER
  2
95
 70
0
 62
7
  6
CONTINUOUS
  0
LAYER
  2
96
 70
0
 62
7
  6
CONTINUOUS
  0
LAYER
  2
97
 70
0
 62
7
  6
CONTINUOUS
  0
LAYER
  2
98
 70
0
 62
7
  6
CONTINUOUS
  0
LAYER
  2
99
 70
0
 62
7
  6
CONTINUOUS
  0
LAYER
  2
100
 70
0
 62
7
  6
CONTINUOUS
  0
LAYER
  2
SCHRIFTFELD_2D
 70
0
 62
1
  6
CONTINUOUS
  0
LAYER
  2
SICHTBAR____2D
 70
0
 62
2
  6
HIDDENNEW0
  0
LAYER
  2
VERDECKT____2D
 70
0
 62
190
  6
HIDDEN
  0
LAYER
  2
MITTELLINIE_2D
 70
0
 62
3
  6
PHANTOM
  0
LAYER
  2
LICHTKANTE__2D
 70
0
 62
150
  6
HIDDENNEW0
  0
LAYER
  2
SCHRAFFUR___2D
 70
0
 62
150
  6
HIDDENNEW0
  0
LAYER
  2
BEMASSUNG___2D
 70
0
 62
3
  6
HIDDENNEW0
  0
LAYER
  2
BESCHRIFTUNG__2D
 70
0
 62
4
  6
HIDDENNEW0
  0
LAYER
  2
SCHNITTLINIEN_2D
 70
0
 62
40
  6
PHANTOM
  0
LAYER
  2
110
 70
0
 62
7
  6
CONTINUOUS
  0
LAYER
  2
111
 70
0
 62
7
  6
CONTINUOUS
  0
LAYER
  2
112
 70
0
 62
7
  6
CONTINUOUS
  0
LAYER
  2
113
 70
0
 62
7
  6
CONTINUOUS
  0
LAYER
  2
114
 70
0
 62
7
  6
CONTINUOUS
  0
LAYER
  2
115
 70
0
 62
7
  6
CONTINUOUS
  0
LAYER
  2
116
 70
0
 62
7
  6
CONTINUOUS
  0
LAYER
  2
117
 70
0
 62
7
  6
CONTINUOUS
  0
LAYER
  2
118
 70
0
 62
7
  6
CONTINUOUS
  0
LAYER
  2
119
 70
0
 62
7
  6
CONTINUOUS
  0
LAYER
  2
120
 70
0
 62
7
  6
CONTINUOUS
  0
LAYER
  2
121
 70
0
 62
7
  6
CONTINUOUS
  0
LAYER
  2
122
 70
0
 62
7
  6
CONTINUOUS
  0
LAYER
  2
123
 70
0
 62
7
  6
CONTINUOUS
  0
LAYER
  2
124
 70
0
 62
7
  6
CONTINUOUS
  0
LAYER
  2
125
 70
0
 62
7
  6
CONTINUOUS
  0
LAYER
  2
126
 70
0
 62
7
  6
CONTINUOUS
  0
LAYER
  2
127
 70
0
 62
7
  6
CONTINUOUS
  0
LAYER
  2
128
 70
0
 62
7
  6
CONTINUOUS
  0
LAYER
  2
129
 70
0
 62
7
  6
CONTINUOUS
  0
LAYER
  2
130
 70
0
 62
7
  6
CONTINUOUS
  0
LAYER
  2
131
 70
0
 62
7
  6
CONTINUOUS
  0
LAYER
  2
132
 70
0
 62
7
  6
CONTINUOUS
  0
LAYER
  2
133
 70
0
 62
7
  6
CONTINUOUS
  0
LAYER
  2
134
 70
0
 62
7
  6
CONTINUOUS
  0
LAYER
  2
135
 70
0
 62
7
  6
CONTINUOUS
  0
LAYER
  2
136
 70
0
 62
7
  6
CONTINUOUS
  0
LAYER
  2
137
 70
0
 62
7
  6
CONTINUOUS
  0
LAYER
  2
138
 70
0
 62
7
  6
CONTINUOUS
  0
LAYER
  2
139
 70
0
 62
7
  6
CONTINUOUS
  0
LAYER
  2
140
 70
0
 62
7
  6
CONTINUOUS
  0
LAYER
  2
141
 70
0
 62
7
  6
CONTINUOUS
  0
LAYER
  2
142
 70
0
 62
7
  6
CONTINUOUS
  0
LAYER
  2
143
 70
0
 62
7
  6
CONTINUOUS
  0
LAYER
  2
144
 70
0
 62
7
  6
CONTINUOUS
  0
LAYER
  2
145
 70
0
 62
7
  6
CONTINUOUS
  0
LAYER
  2
146
 70
0
 62
7
  6
CONTINUOUS
  0
LAYER
  2
147
 70
0
 62
7
  6
CONTINUOUS
  0
LAYER
  2
148
 70
0
 62
7
  6
CONTINUOUS
  0
LAYER
  2
149
 70
0
 62
7
  6
CONTINUOUS
  0
LAYER
  2
150
 70
0
 62
7
  6
CONTINUOUS
  0
LAYER
  2
151
 70
0
 62
7
  6
CONTINUOUS
  0
LAYER
  2
152
 70
0
 62
7
  6
CONTINUOUS
  0
LAYER
  2
153
 70
0
 62
7
  6
CONTINUOUS
  0
LAYER
  2
154
 70
0
 62
7
  6
CONTINUOUS
  0
LAYER
  2
155
 70
0
 62
7
  6
CONTINUOUS
  0
LAYER
  2
156
 70
0
 62
7
  6
CONTINUOUS
  0
LAYER
  2
157
 70
0
 62
7
  6
CONTINUOUS
  0
LAYER
  2
158
 70
0
 62
7
  6
CONTINUOUS
  0
LAYER
  2
159
 70
0
 62
7
  6
CONTINUOUS
  0
LAYER
  2
160
 70
0
 62
7
  6
CONTINUOUS
  0
LAYER
  2
161
 70
0
 62
7
  6
CONTINUOUS
  0
LAYER
  2
162
 70
0
 62
7
  6
CONTINUOUS
  0
LAYER
  2
163
 70
0
 62
7
  6
CONTINUOUS
  0
LAYER
  2
164
 70
0
 62
7
  6
CONTINUOUS
  0
LAYER
  2
165
 70
0
 62
7
  6
CONTINUOUS
  0
LAYER
  2
166
 70
0
 62
7
  6
CONTINUOUS
  0
LAYER
  2
167
 70
0
 62
7
  6
CONTINUOUS
  0
LAYER
  2
168
 70
0
 62
7
  6
CONTINUOUS
  0
LAYER
  2
169
 70
0
 62
7
  6
CONTINUOUS
  0
LAYER
  2
170
 70
0
 62
7
  6
CONTINUOUS
  0
LAYER
  2
171
 70
0
 62
7
  6
CONTINUOUS
  0
LAYER
  2
172
 70
0
 62
7
  6
CONTINUOUS
  0
LAYER
  2
173
 70
0
 62
7
  6
CONTINUOUS
  0
LAYER
  2
174
 70
0
 62
7
  6
CONTINUOUS
  0
LAYER
  2
175
 70
0
 62
7
  6
CONTINUOUS
  0
LAYER
  2
176
 70
0
 62
7
  6
CONTINUOUS
  0
LAYER
  2
177
 70
0
 62
7
  6
CONTINUOUS
  0
LAYER
  2
178
 70
0
 62
7
  6
CONTINUOUS
  0
LAYER
  2
179
 70
0
 62
7
  6
CONTINUOUS
  0
LAYER
  2
180
 70
0
 62
7
  6
CONTINUOUS
  0
LAYER
  2
181
 70
0
 62
7
  6
CONTINUOUS
  0
LAYER
  2
182
 70
0
 62
7
  6
CONTINUOUS
  0
LAYER
  2
183
 70
0
 62
7
  6
CONTINUOUS
  0
LAYER
  2
184
 70
0
 62
7
  6
CONTINUOUS
  0
LAYER
  2
185
 70
0
 62
7
  6
CONTINUOUS
  0
LAYER
  2
186
 70
0
 62
7
  6
CONTINUOUS
  0
LAYER
  2
187
 70
0
 62
7
  6
CONTINUOUS
  0
LAYER
  2
188
 70
0
 62
7
  6
CONTINUOUS
  0
LAYER
  2
189
 70
0
 62
7
  6
CONTINUOUS
  0
LAYER
  2
190
 70
0
 62
7
  6
CONTINUOUS
  0
LAYER
  2
191
 70
0
 62
7
  6
CONTINUOUS
  0
LAYER
  2
192
 70
0
 62
7
  6
CONTINUOUS
  0
LAYER
  2
193
 70
0
 62
7
  6
CONTINUOUS
  0
LAYER
  2
194
 70
0
 62
7
  6
CONTINUOUS
  0
LAYER
  2
195
 70
0
 62
7
  6
CONTINUOUS
  0
LAYER
  2
196
 70
0
 62
7
  6
CONTINUOUS
  0
LAYER
  2
197
 70
0
 62
7
  6
CONTINUOUS
  0
LAYER
  2
198
 70
0
 62
7
  6
CONTINUOUS
  0
LAYER
  2
199
 70
0
 62
7
  6
CONTINUOUS
  0
LAYER
  2
BEMASSUNG_3D
 70
0
 62
6
  6
HIDDENNEW0
  0
LAYER
  2
201
 70
0
 62
7
  6
CONTINUOUS
  0
LAYER
  2
202
 70
0
 62
7
  6
CONTINUOUS
  0
LAYER
  2
TEXT_3D
 70
0
 62
1
  6
HIDDENNEW0
  0
LAYER
  2
SICHTBAR__3D
 70
0
 62
2
  6
HIDDENNEW0
  0
LAYER
  2
VERDECKT__3D
 70
0
 62
190
  6
HIDDEN
  0
LAYER
  2
MITTELLINIE_3D
 70
0
 62
1
  6
PHANTOM
  0
LAYER
  2
KONTUR____3D
 70
0
 62
1
  6
CONTINUOUS
  0
LAYER
  2
SCHRAFFUR_3D
 70
0
 62
150
  6
HIDDENNEW0
  0
LAYER
  2
FCF_LAYER_209
 70
0
 62
4
  6
HIDDENNEW0
  0
LAYER
  2
NULLPUNKTZIEL
 70
0
 62
4
  6
HIDDENNEW0
  0
LAYER
  2
TOLERANZBEZUG
 70
0
 62
4
  6
HIDDENNEW0
  0
LAYER
  2
TOLERANZRAHMEN
 70
0
 62
4
  6
HIDDENNEW0
  0
LAYER
  2
SCHWEISSNAHT
 70
0
 62
4
  6
HIDDENNEW0
  0
LAYER
  2
TANG_KANTE_3D
 70
0
 62
180
  6
CONTINUOUS
  0
LAYER
  2
SCHWEISSPUNKT
 70
0
 62
4
  6
HIDDENNEW0
  0
LAYER
  2
OBERFLAECHENSYM
 70
0
 62
4
  6
HIDDENNEW0
  0
LAYER
  2
MASSPUNKTE
 70
0
 62
4
  6
HIDDENNEW0
  0
LAYER
  2
KREISMITTE
 70
0
 62
230
  6
PHANTOM
  0
LAYER
  2
BEFESTIGUNGEN
 70
0
 62
4
  6
HIDDENNEW0
  0
LAYER
  2
220
 70
0
 62
7
  6
CONTINUOUS
  0
LAYER
  2
KABELWEG
 70
0
 62
230
  6
PHANTOM
  0
LAYER
  2
KABELSYMBOL
 70
0
 62
4
  6
HIDDENNEW0
  0
LAYER
  2
KABELLAENGE
 70
0
 62
4
  6
HIDDENNEW0
  0
LAYER
  2
224
 70
0
 62
7
  6
CONTINUOUS
  0
LAYER
  2
225
 70
0
 62
7
  6
CONTINUOUS
  0
LAYER
  2
226
 70
0
 62
7
  6
CONTINUOUS
  0
LAYER
  2
227
 70
0
 62
7
  6
CONTINUOUS
  0
LAYER
  2
228
 70
0
 62
7
  6
CONTINUOUS
  0
LAYER
  2
229
 70
0
 62
7
  6
CONTINUOUS
  0
LAYER
  2
230
 70
0
 62
7
  6
CONTINUOUS
  0
LAYER
  2
231
 70
0
 62
7
  6
CONTINUOUS
  0
LAYER
  2
232
 70
0
 62
7
  6
CONTINUOUS
  0
LAYER
  2
233
 70
0
 62
7
  6
CONTINUOUS
  0
LAYER
  2
234
 70
0
 62
7
  6
CONTINUOUS
  0
LAYER
  2
235
 70
0
 62
7
  6
CONTINUOUS
  0
LAYER
  2
236
 70
0
 62
7
  6
CONTINUOUS
  0
LAYER
  2
237
 70
0
 62
7
  6
CONTINUOUS
  0
LAYER
  2
238
 70
0
 62
7
  6
CONTINUOUS
  0
LAYER
  2
239
 70
0
 62
7
  6
CONTINUOUS
  0
LAYER
  2
240
 70
0
 62
7
  6
CONTINUOUS
  0
LAYER
  2
241
 70
0
 62
7
  6
CONTINUOUS
  0
LAYER
  2
242
 70
0
 62
7
  6
CONTINUOUS
  0
LAYER
  2
243
 70
0
 62
7
  6
CONTINUOUS
  0
LAYER
  2
244
 70
0
 62
7
  6
CONTINUOUS
  0
LAYER
  2
245
 70
0
 62
7
  6
CONTINUOUS
  0
LAYER
  2
246
 70
0
 62
7
  6
CONTINUOUS
  0
LAYER
  2
247
 70
0
 62
7
  6
CONTINUOUS
  0
LAYER
  2
248
 70
0
 62
7
  6
CONTINUOUS
  0
LAYER
  2
249
 70
0
 62
7
  6
CONTINUOUS
  0
LAYER
  2
250
 70
0
 62
7
  6
CONTINUOUS
  0
LAYER
  2
Drafting_Hidden_Entities
 70
1
 62
7
  6
CONTINUOUS
  0
ENDTAB
  0
TABLE
  2
STYLE
 70
1
  0
STYLE
  2
STANDARD
 70
64
 40
0.0
 41
1.0
 50
0.0
 71
0
 42
1.0
  3
monotxt.shx
  4

  0
ENDTAB
  0
TABLE
  2
VIEW
 70
0
  0
ENDTAB
  0
TABLE
  2
DIMSTYLE
 70
1
  0
DIMSTYLE
  2
DSTYLE1
 70
0
  3

  4

  5

  6

  7

 40
1.0
 41
3.0
 42
0.0
 43
3.8E-001
 44
3.0
 45
1.0E-002
 46
0.0
 47
1.0E-001
 48
1.0E-001
 71
0
 72
0
 73
0
 74
0
 75
0
 76
0
 77
1
 78
11
140
3.0
141
9.0E-002
142
0.0
143
3.9370079E-002
144
1.0
145
0.0
146
1.0
147
1.5
170
0
171
2
172
0
173
0
174
0
175
0
176
0
177
0
178
0
  0
ENDTAB
  0
ENDSEC
  0
SECTION
  2
BLOCKS
  0
BLOCK
  2
_AH12
  3
_AH
 10
0.0
 20
0.0
 70
64
  0
LINE
  8
0
  6
CONTINUOUS
 62
0
 10
0.0
 20
0.0
 11
1.0
 21
0.0
  0
LINE
  8
0
  6
CONTINUOUS
 62
0
 10
0.0
 20
0.0
 11
-1.0
 21
0.0
  0
ENDBLK
  0
BLOCK
  2
_AH13
  3
_AH
 10
0.0
 20
0.0
 70
64
  0
SOLID
  8
0
  6
CONTINUOUS
 62
0
 10
0.0
 20
0.0
 11
-1.0
 21
1.66667E-001
 12
-1.0
 22
-1.66667E-001
 13
0.0
 23
0.0
  0
ENDBLK
  0
BLOCK
  2
_AH14
  3
_AH
 10
0.0
 20
0.0
 70
64
  0
ENDBLK
  0
BLOCK
  2
_AH15
  3
_AH
 10
0.0
 20
0.0
 70
64
  0
CIRCLE
  8
0
  6
CONTINUOUS
 62
0
 10
0.0
 20
0.0
 40
1.66667E-001
  0
LINE
  8
0
  6
CONTINUOUS
 62
0
 10
0.0
 20
0.0
 11
-1.0
 21
0.0
  0
ENDBLK
  0
BLOCK
  2
_AH16
  3
_AH
 10
0.0
 20
0.0
 70
64
  0
POLYLINE
  8
0
  6
CONTINUOUS
 62
0
 66
1
 40
2.73E+002
 41
2.73E+002
 70
0
  0
VERTEX
  8
0
 42
1.0
 10
8.3335E-002
 20
0.0
 70
0
  0
VERTEX
  8
0
 42
1.0
 10
-8.3335E-002
 20
0.0
 70
0
  0
VERTEX
  8
0
 42
0.0
 10
8.3335E-002
 20
0.0
 70
0
  0
SEQEND
  0
LINE
  8
0
  6
CONTINUOUS
 62
0
 10
0.0
 20
0.0
 11
-1.0
 21
0.0
  0
ENDBLK
  0
BLOCK
  2
_AH17
  3
_AH
 10
0.0
 20
0.0
 70
64
  0
LINE
  8
0
  6
CONTINUOUS
 62
0
 10
-1.66667E-001
 20
-1.66667E-001
 11
1.66667E-001
 21
-1.66667E-001
  0
LINE
  8
0
  6
CONTINUOUS
 62
0
 10
1.66667E-001
 20
-1.66667E-001
 11
1.66667E-001
 21
1.66667E-001
  0
LINE
  8
0
  6
CONTINUOUS
 62
0
 10
1.66667E-001
 20
1.66667E-001
 11
-1.66667E-001
 21
1.66667E-001
  0
LINE
  8
0
  6
CONTINUOUS
 62
0
 10
-1.66667E-001
 20
1.66667E-001
 11
-1.66667E-001
 21
-1.66667E-001
  0
LINE
  8
0
  6
CONTINUOUS
 62
0
 10
0.0
 20
0.0
 11
-1.0
 21
0.0
  0
ENDBLK
  0
BLOCK
  2
_AH18
  3
_AH
 10
0.0
 20
0.0
 70
64
  0
SOLID
  8
0
  6
CONTINUOUS
 62
0
 10
-1.66667E-001
 20
-1.66667E-001
 11
1.66667E-001
 21
-1.66667E-001
 12
-1.66667E-001
 22
1.66667E-001
 13
1.66667E-001
 23
1.66667E-001
  0
LINE
  8
0
  6
CONTINUOUS
 62
0
 10
0.0
 20
0.0
 11
-1.0
 21
0.0
  0
ENDBLK
  0
BLOCK
  2
_AH19
  3
_AH
 10
0.0
 20
0.0
 70
64
  0
LINE
  8
0
  6
CONTINUOUS
 62
0
 10
-5.0E-001
 20
-5.0E-001
 11
5.0E-001
 21
5.0E-001
  0
LINE
  8
0
  6
CONTINUOUS
 62
0
 10
0.0
 20
0.0
 11
-1.0
 21
0.0
  0
ENDBLK
  0
BLOCK
  2
_AH20
  3
_AH
 10
0.0
 20
0.0
 70
64
  0
POLYLINE
  8
0
  6
CONTINUOUS
 62
0
 66
1
 40
5.0E-001
 41
5.0E-001
 70
0
  0
VERTEX
  8
0
 42
4.1421356E-001
 10
-1.66667E-001
 20
-1.66667E-001
 70
0
  0
VERTEX
  8
0
 42
0.0
 10
0.0
 20
0.0
 70
0
  0
SEQEND
  0
POLYLINE
  8
0
  6
CONTINUOUS
 62
0
 66
1
 40
5.0E-001
 41
5.0E-001
 70
0
  0
VERTEX
  8
0
 42
4.1421356E-001
 10
1.66667E-001
 20
1.66667E-001
 70
0
  0
VERTEX
  8
0
 42
0.0
 10
0.0
 20
0.0
 70
0
  0
SEQEND
  0
LINE
  8
0
  6
CONTINUOUS
 62
0
 10
0.0
 20
0.0
 11
-1.0
 21
0.0
  0
ENDBLK
  0
BLOCK
  2
_AH21
  3
_AH
 10
0.0
 20
0.0
 70
64
  0
LINE
  8
0
  6
CONTINUOUS
 62
0
 10
0.0
 20
0.0
 11
-1.0
 21
-1.66667E-001
  0
LINE
  8
0
  6
CONTINUOUS
 62
0
 10
-1.0
 20
-1.66667E-001
 11
-1.0
 21
1.66667E-001
  0
LINE
  8
0
  6
CONTINUOUS
 62
0
 10
-1.0
 20
1.66667E-001
 11
0.0
 21
0.0
  0
ENDBLK
  0
BLOCK
  2
EFFZF_SCHLIETAB
 10
0.0
 20
0.0
 70
0
  0
LINE
  8
3
  6
CONTINUOUS
 62
2
 10
4.500061
 20
4.5000076
 11
-4.4999695
 21
4.5000076
  0
LINE
  8
3
  6
CONTINUOUS
 62
2
 10
5.0000305
 20
5.0
 11
-5.0
 21
5.0
  0
LINE
  8
3
  6
CONTINUOUS
 62
2
 10
-5.0
 20
5.0
 11
-5.0
 21
-5.0
  0
LINE
  8
1
  6
CONTINUOUS
 62
1
 10
-2.537384
 20
-1.1550369
 11
-4.4999695
 21
-2.0699539
  0
LINE
  8
1
  6
CONTINUOUS
 62
1
 10
7.1792603E-001
 20
-7.3999786E-001
 11
4.500061
 21
1.0229492
  0
LINE
  8
1
  6
CONTINUOUS
 62
1
 10
2.5131531
 20
2.0080566
 11
2.5131226
 21
-9.5800018E-001
  0
ARC
  8
1
  6
CONTINUOUS
 62
1
 10
2.913147
 20
2.0080566
 40
4.0000394E-001
 50
9.9308349E+001
 51
1.8E+002
  0
ARC
  8
1
  6
CONTINUOUS
 62
1
 10
2.7506104
 20
1.8110275
 40
6.0000294E-001
 50
8.0591814E+001
 51
1.8E+002
  0
LINE
  8
1
  6
CONTINUOUS
 62
1
 10
2.1506348
 20
1.8110275
 11
2.1506348
 21
-1.1550369
  0
ARC
  8
1
  6
CONTINUOUS
 62
1
 10
1.7506409
 20
-1.1550369
 40
4.0000916E-001
 50
2.7E+002
 51
3.6E+002
  0
LINE
  8
1
  6
CONTINUOUS
 62
1
 10
3.9194336
 20
1.8559647
 11
1.850647
 21
8.9099884E-001
  0
LINE
  8
1
  6
CONTINUOUS
 62
1
 10
3.2194519
 20
-9.830246E-001
 11
3.2194519
 21
2.644043
  0
LINE
  8
3
  6
CONTINUOUS
 62
2
 10
4.500061
 20
-4.5000076
 11
4.500061
 21
4.5000076
  0
LINE
  8
3
  6
CONTINUOUS
 62
2
 10
5.0000305
 20
-5.0
 11
5.0000305
 21
5.0
  0
LINE
  8
3
  6
CONTINUOUS
 62
2
 10
-4.4999695
 20
-4.5000076
 11
4.500061
 21
-4.5000076
  0
LINE
  8
3
  6
CONTINUOUS
 62
2
 10
-5.0
 20
-5.0
 11
5.0000305
 21
-5.0
  0
LINE
  8
1
  6
CONTINUOUS
 62
1
 10
-3.6080933
 20
-5.5103302E-001
 11
-2.9641724
 21
-2.4999237E-001
  0
LINE
  8
3
  6
CONTINUOUS
 62
2
 10
-4.4999695
 20
4.5000076
 11
-4.4999695
 21
-4.5000076
  0
LINE
  8
1
  6
CONTINUOUS
 62
1
 10
1.6506348
 20
2.4597168E-001
 11
-3.4700012
 21
-2.1409988
  0
LINE
  8
1
  6
CONTINUOUS
 62
1
 10
-1.6748047
 20
6.0704803E-001
 11
-1.6748047
 21
-2.3590088
  0
ARC
  8
1
  6
CONTINUOUS
 62
1
 10
7.9116821E-001
 20
3.9698029E-001
 40
5.0000376E-001
 50
1.1501034E+002
 51
1.8E+002
  0
LINE
  8
1
  6
CONTINUOUS
 62
1
 10
5.7983398E-001
 20
8.4996796E-001
 11
1.2238159
 21
1.1510086
  0
LINE
  8
1
  6
CONTINUOUS
 62
1
 10
2.350647
 20
2.258049
 11
2.350647
 21
-1.3690186
  0
LINE
  8
1
  6
CONTINUOUS
 62
1
 10
3.0569458
 20
2.2330246
 11
3.0569458
 21
-7.3303223E-001
  0
ARC
  8
1
  6
CONTINUOUS
 62
1
 10
3.8194275
 20
2.4300613
 40
4.0000445E-001
 50
9.9285896E+001
 51
1.8E+002
  0
ARC
  8
1
  6
CONTINUOUS
 62
1
 10
3.6569519
 20
2.2330246
 40
5.9999055E-001
 50
8.0606189E+001
 51
1.8E+002
  0
ARC
  8
1
  6
CONTINUOUS
 62
1
 10
2.6569214
 20
-7.3303223E-001
 40
4.0000916E-001
 50
2.7E+002
 51
3.6E+002
  0
ARC
  8
1
  6
CONTINUOUS
 62
1
 10
1.913147
 20
-9.5800018E-001
 40
6.0000563E-001
 50
2.606093E+002
 51
3.6E+002
  0
ARC
  8
1
  6
CONTINUOUS
 62
1
 10
-1.3684692
 20
-1.9370041
 40
6.0000312E-001
 50
2.606093E+002
 51
3.6E+002
  0
ARC
  8
1
  6
CONTINUOUS
 62
1
 10
-2.2747803
 20
-2.3590088
 40
6.0000551E-001
 50
2.6060319E+002
 51
3.6E+002
  0
LINE
  8
1
  6
CONTINUOUS
 62
1
 10
-2.0373535
 20
4.0904999E-001
 11
-2.0373535
 21
-2.5570145
  0
ARC
  8
1
  6
CONTINUOUS
 62
1
 10
-1.4373779
 20
4.0904999E-001
 40
6.0000807E-001
 50
8.0603552E+001
 51
1.8E+002
  0
ARC
  8
1
  6
CONTINUOUS
 62
1
 10
-1.2747498
 20
6.0704803E-001
 40
4.0000123E-001
 50
9.9325427E+001
 51
1.8E+002
  0
LINE
  8
1
  6
CONTINUOUS
 62
1
 10
-3.8967896
 20
-1.8700027
 11
-3.8967896
 21
-1.0040283
  0
LINE
  8
1
  6
CONTINUOUS
 62
1
 10
-3.4967651
 20
-4.9901581E-001
 11
-3.4967651
 21
-1.6020584
  0
LINE
  8
1
  6
CONTINUOUS
 62
1
 10
-2.9373474
 20
-2.3803711E-001
 11
-2.9373474
 21
-1.3409424
  0
LINE
  8
1
  6
CONTINUOUS
 62
1
 10
-2.537384
 20
-1.1550369
 11
-2.537384
 21
-5.2196503E-001
  0
ARC
  8
1
  6
CONTINUOUS
 62
1
 10
-3.396759
 20
-1.0040283
 40
4.9999732E-001
 50
1.1500681E+002
 51
1.8E+002
  0
LINE
  8
1
  6
CONTINUOUS
 62
1
 10
-2.7373657
 20
-1.2480545
 11
-2.7373657
 21
-2.399826E-001
  0
ARC
  8
1
  6
CONTINUOUS
 62
1
 10
-2.8373718
 20
-5.2196503E-001
 40
2.9998779E-001
 50
0.0
 51
1.14997E+002
  0
LINE
  8
1
  6
CONTINUOUS
 62
1
 10
-2.6849365E-001
 20
4.5496368E-001
 11
-2.3373413
 21
-5.1000214E-001
  0
LINE
  8
1
  6
CONTINUOUS
 62
1
 10
-9.6847534E-001
 20
-2.3840332
 11
-9.6847534E-001
 21
1.2430344
  0
ARC
  8
1
  6
CONTINUOUS
 62
1
 10
-5.3100586E-001
 20
8.3202362E-001
 40
6.0000807E-001
 50
8.0603552E+001
 51
1.8E+002
  0
ARC
  8
1
  6
CONTINUOUS
 62
1
 10
-3.6849976E-001
 20
1.0290527
 40
3.9999428E-001
 50
9.9286249E+001
 51
1.8E+002
  0
LINE
  8
1
  6
CONTINUOUS
 62
1
 10
2.911377E-001
 20
-4.6802521E-001
 11
2.911377E-001
 21
3.9698029E-001
  0
ARC
  8
1
  6
CONTINUOUS
 62
1
 10
5.9112549E-001
 20
-4.6802521E-001
 40
3.0001092E-001
 50
1.8E+002
 51
2.9499577E+002
  0
LINE
  8
1
  6
CONTINUOUS
 62
1
 10
6.9116211E-001
 20
9.0198517E-001
 11
6.9116211E-001
 21
-2.0105743E-001
  0
LINE
  8
1
  6
CONTINUOUS
 62
1
 10
1.2506104
 20
1.1629715
 11
1.2506104
 21
6.0066223E-002
  0
LINE
  8
1
  6
CONTINUOUS
 62
1
 10
1.4506531
 20
1.5294647E-001
 11
1.4506531
 21
1.1619949
  0
LINE
  8
1
  6
CONTINUOUS
 62
1
 10
4.9118042E-001
 20
7.970047E-001
 11
4.9118042E-001
 21
-2.9393768E-001
  0
ARC
  8
1
  6
CONTINUOUS
 62
1
 10
1.350647
 20
8.7902069E-001
 40
2.9998779E-001
 50
0.0
 51
1.1499049E+002
  0
LINE
  8
1
  6
CONTINUOUS
 62
1
 10
1.6506348
 20
2.4597168E-001
 11
1.6506348
 21
8.7902069E-001
  0
LINE
  8
1
  6
CONTINUOUS
 62
1
 10
3.4194336
 20
2.4300613
 11
3.4194336
 21
-5.3600311E-001
  0
ARC
  8
1
  6
CONTINUOUS
 62
1
 10
2.819458
 20
-5.3600311E-001
 40
6.0000294E-001
 50
2.6059181E+002
 51
3.6E+002
  0
ARC
  8
1
  6
CONTINUOUS
 62
1
 10
-1.5310059
 20
-2.1340408
 40
3.9999393E-001
 50
2.7E+002
 51
3.6E+002
  0
LINE
  8
1
  6
CONTINUOUS
 62
1
 10
-1.1310425
 20
8.3202362E-001
 11
-1.1310425
 21
-2.1340408
  0
LINE
  8
1
  6
CONTINUOUS
 62
1
 10
-7.6843262E-001
 20
1.0290527
 11
-7.6843262E-001
 21
-1.9370041
  0
LINE
  8
1
  6
CONTINUOUS
 62
1
 10
-3.6967468
 20
-6.0399628E-001
 11
-3.6967468
 21
-1.6949463
  0
ARC
  8
1
  6
CONTINUOUS
 62
1
 10
-3.5968018
 20
-1.8700027
 40
3.0000648E-001
 50
1.8E+002
 51
2.9508511E+002
  0
LINE
  8
1
  6
CONTINUOUS
 62
1
 10
-1.8374023
 20
8.5704803E-001
 11
-1.8374023
 21
-2.7700272
  0
ARC
  8
1
  6
CONTINUOUS
 62
1
 10
-2.4373779
 20
-2.5570145
 40
4.0000916E-001
 50
2.7E+002
 51
3.6E+002
  0
POINT
  8
Drafting_Hidden_Entities
  6
CONTINUOUS
 62
1
 10
0.0
 20
0.0
  0
ENDBLK
  0
BLOCK
  2
A3
 10
0.0
 20
0.0
 70
0
  0
POLYLINE
  8
100
  6
CONTINUOUS
 62
2
 66
1
 40
5.0E-001
 41
5.0E-001
 70
0
  0
VERTEX
  8
100
 42
0.0
 10
4.146327E+002
 20
5.2475
 70
0
  0
VERTEX
  8
100
 42
0.0
 10
4.146327E+002
 20
2.9181714E+002
 70
0
  0
SEQEND
  0
POLYLINE
  8
100
  6
CONTINUOUS
 62
2
 66
1
 40
5.0E-001
 41
5.0E-001
 70
0
  0
VERTEX
  8
100
 42
0.0
 10
4.146327E+002
 20
2.9181714E+002
 70
0
  0
VERTEX
  8
100
 42
0.0
 10
5.2475
 20
2.9181714E+002
 70
0
  0
SEQEND
  0
POLYLINE
  8
100
  6
CONTINUOUS
 62
2
 66
1
 40
5.0E-001
 41
5.0E-001
 70
0
  0
VERTEX
  8
100
 42
0.0
 10
5.2475
 20
2.9181714E+002
 70
0
  0
VERTEX
  8
100
 42
0.0
 10
5.2475
 20
5.2475
 70
0
  0
SEQEND
  0
POLYLINE
  8
100
  6
CONTINUOUS
 62
2
 66
1
 40
5.0E-001
 41
5.0E-001
 70
0
  0
VERTEX
  8
100
 42
0.0
 10
5.2475
 20
5.2475
 70
0
  0
VERTEX
  8
100
 42
0.0
 10
4.146327E+002
 20
5.2475
 70
0
  0
SEQEND
  0
LINE
  8
100
  6
CONTINUOUS
 62
2
 10
2.2991011E+002
 20
3.5484755E-001
 11
2.2991011E+002
 21
5.2475
  0
LINE
  8
100
  6
CONTINUOUS
 62
2
 10
1.2506756E+002
 20
3.5484755E-001
 11
1.2506756E+002
 21
5.2475
  0
LINE
  8
100
  6
CONTINUOUS
 62
2
 10
2.099401E+002
 20
2.967098E+002
 11
2.099401E+002
 21
2.9181714E+002
  0
LINE
  8
100
  6
CONTINUOUS
 62
2
 10
3.5484755E-001
 20
1.4853232E+002
 11
5.2475
 21
1.4853232E+002
  0
LINE
  8
100
  6
CONTINUOUS
 62
2
 10
2.2991011E+002
 20
2.9181714E+002
 11
2.2991011E+002
 21
2.967098E+002
  0
LINE
  8
100
  6
CONTINUOUS
 62
2
 10
1.2506756E+002
 20
2.9181714E+002
 11
1.2506756E+002
 21
2.967098E+002
  0
LINE
  8
100
  6
CONTINUOUS
 62
2
 10
2.099401E+002
 20
5.2475
 11
2.099401E+002
 21
3.5484755E-001
  0
LINE
  8
100
  6
CONTINUOUS
 62
2
 10
4.146327E+002
 20
1.4853232E+002
 11
4.1952536E+002
 21
1.4853232E+002
  0
LINE
  8
100
  6
CONTINUOUS
 62
2
 10
4.1952536E+002
 20
3.5484755E-001
 11
4.1952536E+002
 21
2.967098E+002
  0
LINE
  8
100
  6
CONTINUOUS
 62
2
 10
4.1952536E+002
 20
2.967098E+002
 11
3.5484755E-001
 21
2.967098E+002
  0
LINE
  8
100
  6
CONTINUOUS
 62
2
 10
3.5484755E-001
 20
2.967098E+002
 11
3.5484755E-001
 21
3.5484755E-001
  0
LINE
  8
100
  6
CONTINUOUS
 62
2
 10
3.5484755E-001
 20
3.5484755E-001
 11
4.1952536E+002
 21
3.5484755E-001
  0
POINT
  8
100
  6
CONTINUOUS
 62
2
 10
2.549975E-001
 20
2.549975E-001
  0
ATTDEF
  8
5
  6
CONTINUOUS
 62
6
 10
3.730125E+002
 20
3.3889971E+001
 40
4.0
  1
 
 41
7.0E-001
 72
1
 11
3.716125E+002
 21
3.3889971E+001
  3
1
  2
1
 70
0
  0
ATTDEF
  8
5
  6
CONTINUOUS
 62
6
 10
3.730125E+002
 20
2.5889971E+001
 40
4.0
  1
 
 41
7.0E-001
 72
1
 11
3.716125E+002
 21
2.5889971E+001
  3
2
  2
2
 70
0
  0
ATTDEF
  8
5
  6
CONTINUOUS
 62
6
 10
3.666625E+002
 20
1.1458917E+001
 40
4.0
  1
 
 41
7.0E-001
 72
1
 11
3.652625E+002
 21
1.1458917E+001
  3
3
  2
3
 70
0
  0
ATTDEF
  8
5
  6
CONTINUOUS
 62
6
 10
3.826625E+002
 20
4.96425E+001
 40
3.0
  1
 
 41
7.0E-001
 72
1
 11
3.816125E+002
 21
4.96425E+001
  3
4
  2
4
 70
0
  0
ATTDEF
  8
5
  6
CONTINUOUS
 62
6
 10
3.826625E+002
 20
4.4355E+001
 40
3.0
  1
 
 41
7.0E-001
 72
1
 11
3.816125E+002
 21
4.4355E+001
  3
5
  2
5
 70
0
  0
ATTDEF
  8
5
  6
CONTINUOUS
 62
6
 10
3.980625E+002
 20
5.51425E+001
 40
3.0
  1
 
 41
7.0E-001
 72
1
 11
3.970125E+002
 21
5.51425E+001
  3
6
  2
6
 70
0
  0
ATTDEF
  8
5
  6
CONTINUOUS
 62
6
 10
2.9298701E+002
 20
5.92056
 40
2.5
  1
 
 41
7.0E-001
  3
7
  2
7
 70
0
  0
ATTDEF
  8
5
  6
CONTINUOUS
 62
6
 10
3.3616701E+002
 20
5.92056
 40
2.5
  1
 
 41
7.0E-001
  3
8
  2
8
 70
0
  0
ATTDEF
  8
4
  6
CONTINUOUS
 62
6
 10
2.8667184E+002
 20
3.9889149E+001
 40
2.0
  1
 
 41
7.0E-001
  3
9
  2
9
 70
0
  0
ATTDEF
  8
4
  6
CONTINUOUS
 62
6
 10
2.964125E+002
 20
3.54075E+001
 40
2.2
  1
 
 41
7.0E-001
  3
10
  2
10
 70
0
  0
ATTDEF
  8
4
  6
CONTINUOUS
 62
6
 10
3.116525E+002
 20
3.54075E+001
 40
2.2
  1
 
 41
7.0E-001
  3
11
  2
11
 70
0
  0
ATTDEF
  8
4
  6
CONTINUOUS
 62
6
 10
2.964125E+002
 20
3.11775E+001
 40
2.2
  1
 
 41
7.0E-001
  3
12
  2
12
 70
0
  0
ATTDEF
  8
4
  6
CONTINUOUS
 62
6
 10
3.116525E+002
 20
3.11775E+001
 40
2.2
  1
 
 41
7.0E-001
  3
13
  2
13
 70
0
  0
ATTDEF
  8
4
  6
CONTINUOUS
 62
6
 10
2.964125E+002
 20
2.69475E+001
 40
2.2
  1
 
 41
7.0E-001
  3
14
  2
14
 70
0
  0
ATTDEF
  8
4
  6
CONTINUOUS
 62
6
 10
3.116525E+002
 20
2.69475E+001
 40
2.2
  1
 
 41
7.0E-001
  3
15
  2
15
 70
0
  0
ATTDEF
  8
4
  6
CONTINUOUS
 62
6
 10
2.964125E+002
 20
2.27175E+001
 40
2.2
  1
 
 41
7.0E-001
  3
16
  2
16
 70
0
  0
ATTDEF
  8
4
  6
CONTINUOUS
 62
6
 10
4.0766572E+002
 20
4.0035527E+001
 40
1.0
  1
 
  3
17
  2
17
 70
0
  0
ATTDEF
  8
4
  6
CONTINUOUS
 62
6
 10
4.0766572E+002
 20
3.8535527E+001
 40
1.0
  1
 
  3
18
  2
18
 70
0
  0
ATTDEF
  8
4
  6
CONTINUOUS
 62
6
 10
4.0766572E+002
 20
3.7035527E+001
 40
1.0
  1
 
  3
19
  2
19
 70
0
  0
ATTDEF
  8
4
  6
CONTINUOUS
 62
6
 10
4.0766572E+002
 20
3.5535527E+001
 40
1.0
  1
 
  3
20
  2
20
 70
0
  0
ATTDEF
  8
4
  6
CONTINUOUS
 62
6
 10
2.329125E+002
 20
3.96375E+001
 40
2.0
  1
 
 41
7.0E-001
  3
21
  2
21
 70
0
  0
ATTDEF
  8
4
  6
CONTINUOUS
 62
6
 10
2.405325E+002
 20
3.96375E+001
 40
2.0
  1
 
 41
7.0E-001
  3
22
  2
22
 70
0
  0
ATTDEF
  8
4
  6
CONTINUOUS
 62
6
 10
2.659325E+002
 20
3.96375E+001
 40
2.0
  1
 
 41
7.0E-001
  3
23
  2
23
 70
0
  0
ATTDEF
  8
4
  6
CONTINUOUS
 62
6
 10
2.781325E+002
 20
3.96375E+001
 40
2.0
  1
 
 41
7.0E-001
  3
24
  2
24
 70
0
  0
ATTDEF
  8
4
  6
CONTINUOUS
 62
6
 10
2.329125E+002
 20
3.54075E+001
 40
2.0
  1
 
 41
7.0E-001
  3
25
  2
25
 70
0
  0
ATTDEF
  8
4
  6
CONTINUOUS
 62
6
 10
2.405325E+002
 20
3.54075E+001
 40
2.0
  1
 
 41
7.0E-001
  3
26
  2
26
 70
0
  0
ATTDEF
  8
4
  6
CONTINUOUS
 62
6
 10
2.659325E+002
 20
3.54075E+001
 40
2.0
  1
 
 41
7.0E-001
  3
27
  2
27
 70
0
  0
ATTDEF
  8
4
  6
CONTINUOUS
 62
6
 10
2.781325E+002
 20
3.54075E+001
 40
2.0
  1
 
 41
7.0E-001
  3
28
  2
28
 70
0
  0
ATTDEF
  8
4
  6
CONTINUOUS
 62
6
 10
2.329125E+002
 20
3.11775E+001
 40
2.0
  1
 
 41
7.0E-001
  3
29
  2
29
 70
0
  0
ATTDEF
  8
4
  6
CONTINUOUS
 62
6
 10
2.405325E+002
 20
3.11775E+001
 40
2.0
  1
 
 41
7.0E-001
  3
30
  2
30
 70
0
  0
ATTDEF
  8
4
  6
CONTINUOUS
 62
6
 10
2.659325E+002
 20
3.11775E+001
 40
2.0
  1
 
 41
7.0E-001
  3
31
  2
31
 70
0
  0
ATTDEF
  8
4
  6
CONTINUOUS
 62
6
 10
2.781325E+002
 20
3.11775E+001
 40
2.0
  1
 
 41
7.0E-001
  3
32
  2
32
 70
0
  0
ATTDEF
  8
4
  6
CONTINUOUS
 62
6
 10
2.329125E+002
 20
2.69475E+001
 40
2.0
  1
 
 41
7.0E-001
  3
33
  2
33
 70
0
  0
ATTDEF
  8
4
  6
CONTINUOUS
 62
6
 10
2.405325E+002
 20
2.69475E+001
 40
2.0
  1
 
 41
7.0E-001
  3
34
  2
34
 70
0
  0
ATTDEF
  8
4
  6
CONTINUOUS
 62
6
 10
2.659325E+002
 20
2.69475E+001
 40
2.0
  1
 
 41
7.0E-001
  3
35
  2
35
 70
0
  0
ATTDEF
  8
4
  6
CONTINUOUS
 62
6
 10
2.781325E+002
 20
2.69475E+001
 40
2.0
  1
 
 41
7.0E-001
  3
36
  2
36
 70
0
  0
ATTDEF
  8
4
  6
CONTINUOUS
 62
6
 10
2.329125E+002
 20
2.27175E+001
 40
2.0
  1
 
 41
7.0E-001
  3
37
  2
37
 70
0
  0
ATTDEF
  8
4
  6
CONTINUOUS
 62
6
 10
2.405325E+002
 20
2.27175E+001
 40
2.0
  1
 
 41
7.0E-001
  3
38
  2
38
 70
0
  0
ATTDEF
  8
4
  6
CONTINUOUS
 62
6
 10
2.659325E+002
 20
2.27175E+001
 40
2.0
  1
 
 41
7.0E-001
  3
39
  2
39
 70
0
  0
ATTDEF
  8
4
  6
CONTINUOUS
 62
6
 10
2.781325E+002
 20
2.27175E+001
 40
2.0
  1
 
 41
7.0E-001
  3
40
  2
40
 70
0
  0
ATTDEF
  8
4
  6
CONTINUOUS
 62
6
 10
2.329125E+002
 20
1.84875E+001
 40
2.0
  1
 
 41
7.0E-001
  3
41
  2
41
 70
0
  0
ATTDEF
  8
4
  6
CONTINUOUS
 62
6
 10
2.405325E+002
 20
1.84875E+001
 40
2.0
  1
 
 41
7.0E-001
  3
42
  2
42
 70
0
  0
ATTDEF
  8
4
  6
CONTINUOUS
 62
6
 10
2.659325E+002
 20
1.84875E+001
 40
2.0
  1
 
 41
7.0E-001
  3
43
  2
43
 70
0
  0
ATTDEF
  8
4
  6
CONTINUOUS
 62
6
 10
2.781325E+002
 20
1.84875E+001
 40
2.0
  1
 
 41
7.0E-001
  3
44
  2
44
 70
0
  0
ATTDEF
  8
4
  6
CONTINUOUS
 62
6
 10
2.329125E+002
 20
1.42575E+001
 40
2.0
  1
 
 41
7.0E-001
  3
45
  2
45
 70
0
  0
ATTDEF
  8
4
  6
CONTINUOUS
 62
6
 10
2.405325E+002
 20
1.42575E+001
 40
2.0
  1
 
 41
7.0E-001
  3
46
  2
46
 70
0
  0
ATTDEF
  8
4
  6
CONTINUOUS
 62
6
 10
2.659325E+002
 20
1.42575E+001
 40
2.0
  1
 
 41
7.0E-001
  3
47
  2
47
 70
0
  0
ATTDEF
  8
4
  6
CONTINUOUS
 62
6
 10
2.781325E+002
 20
1.42575E+001
 40
2.0
  1
 
 41
7.0E-001
  3
48
  2
48
 70
0
  0
ATTDEF
  8
4
  6
CONTINUOUS
 62
6
 10
2.329125E+002
 20
1.00275E+001
 40
2.0
  1
 
 41
7.0E-001
  3
49
  2
49
 70
0
  0
ATTDEF
  8
4
  6
CONTINUOUS
 62
6
 10
2.405325E+002
 20
1.00275E+001
 40
2.0
  1
 
 41
7.0E-001
  3
50
  2
50
 70
0
  0
ATTDEF
  8
4
  6
CONTINUOUS
 62
6
 10
2.659325E+002
 20
1.00275E+001
 40
2.0
  1
 
 41
7.0E-001
  3
51
  2
51
 70
0
  0
ATTDEF
  8
4
  6
CONTINUOUS
 62
6
 10
2.781325E+002
 20
1.00275E+001
 40
2.0
  1
 
 41
7.0E-001
  3
52
  2
52
 70
0
  0
POLYLINE
  8
250
  6
CONTINUOUS
 62
2
 66
1
 40
5.0E-001
 41
5.0E-001
 70
0
  0
VERTEX
  8
250
 42
0.0
 10
2.3193577E+002
 20
6.018235E+001
 70
0
  0
VERTEX
  8
250
 42
0.0
 10
4.1463239E+002
 20
6.018235E+001
 70
0
  0
SEQEND
  0
POLYLINE
  8
250
  6
CONTINUOUS
 62
2
 66
1
 40
5.0E-001
 41
5.0E-001
 70
0
  0
VERTEX
  8
250
 42
0.0
 10
2.3193577E+002
 20
6.018235E+001
 70
0
  0
VERTEX
  8
250
 42
0.0
 10
2.3193577E+002
 20
5.2477916
 70
0
  0
SEQEND
  0
POLYLINE
  8
1
  6
CONTINUOUS
 62
2
 66
1
 40
5.0E-001
 41
5.0E-001
 70
0
  0
VERTEX
  8
1
 42
0.0
 10
4.146327E+002
 20
4.327943E+001
 70
0
  0
VERTEX
  8
1
 42
0.0
 10
2.3193559E+002
 20
4.327943E+001
 70
0
  0
SEQEND
  0
POLYLINE
  8
1
  6
CONTINUOUS
 62
2
 66
1
 40
5.0E-001
 41
5.0E-001
 70
0
  0
VERTEX
  8
1
 42
0.0
 10
2.8522224E+002
 20
2.215058E+001
 70
0
  0
VERTEX
  8
1
 42
0.0
 10
4.146327E+002
 20
2.215058E+001
 70
0
  0
SEQEND
  0
POLYLINE
  8
1
  6
CONTINUOUS
 62
2
 66
1
 40
5.0E-001
 41
5.0E-001
 70
0
  0
VERTEX
  8
1
 42
0.0
 10
4.019454E+002
 20
2.215058E+001
 70
0
  0
VERTEX
  8
1
 42
0.0
 10
4.019454E+002
 20
9.47327
 70
0
  0
SEQEND
  0
POLYLINE
  8
1
  6
CONTINUOUS
 62
2
 66
1
 40
5.0E-001
 41
5.0E-001
 70
0
  0
VERTEX
  8
1
 42
0.0
 10
3.2835906E+002
 20
5.2475
 70
0
  0
VERTEX
  8
1
 42
0.0
 10
3.2835906E+002
 20
6.018251E+001
 70
0
  0
SEQEND
  0
POLYLINE
  8
1
  6
CONTINUOUS
 62
2
 66
1
 40
5.0E-001
 41
5.0E-001
 70
0
  0
VERTEX
  8
1
 42
0.0
 10
2.8522224E+002
 20
6.018251E+001
 70
0
  0
VERTEX
  8
1
 42
0.0
 10
2.8522224E+002
 20
5.2475
 70
0
  0
SEQEND
  0
LINE
  8
1
  6
CONTINUOUS
 62
150
 10
2.3193559E+002
 20
9.47327
 11
4.146327E+002
 21
9.47327
  0
LINE
  8
1
  6
CONTINUOUS
 62
150
 10
4.146327E+002
 20
1.369904E+001
 11
4.019454E+002
 21
1.369904E+001
  0
LINE
  8
1
  6
CONTINUOUS
 62
150
 10
2.8522224E+002
 20
1.369904E+001
 11
2.3193559E+002
 21
1.369904E+001
  0
LINE
  8
1
  6
CONTINUOUS
 62
150
 10
2.3193559E+002
 20
1.792481E+001
 11
2.8522224E+002
 21
1.792481E+001
  0
LINE
  8
1
  6
CONTINUOUS
 62
150
 10
2.8522224E+002
 20
2.215058E+001
 11
2.3193559E+002
 21
2.215058E+001
  0
LINE
  8
1
  6
CONTINUOUS
 62
150
 10
2.3193559E+002
 20
2.637635E+001
 11
3.2835906E+002
 21
2.637635E+001
  0
LINE
  8
1
  6
CONTINUOUS
 62
150
 10
3.2835906E+002
 20
3.060212E+001
 11
2.3193559E+002
 21
3.060212E+001
  0
LINE
  8
1
  6
CONTINUOUS
 62
150
 10
2.3193559E+002
 20
3.482789E+001
 11
3.2835906E+002
 21
3.482789E+001
  0
LINE
  8
1
  6
CONTINUOUS
 62
150
 10
3.2835906E+002
 20
3.905366E+001
 11
2.3193559E+002
 21
3.905366E+001
  0
LINE
  8
1
  6
CONTINUOUS
 62
150
 10
3.2835906E+002
 20
5.3843855E+001
 11
4.146327E+002
 21
5.3843855E+001
  0
LINE
  8
1
  6
CONTINUOUS
 62
150
 10
3.7910827E+002
 20
6.018251E+001
 11
3.7910827E+002
 21
5.3843855E+001
  0
LINE
  8
1
  6
CONTINUOUS
 62
150
 10
3.7149588E+002
 20
9.47327
 11
3.7149588E+002
 21
5.2475
  0
LINE
  8
1
  6
CONTINUOUS
 62
150
 10
3.1059684E+002
 20
2.215058E+001
 11
3.1059684E+002
 21
6.018251E+001
  0
LINE
  8
1
  6
CONTINUOUS
 62
150
 10
2.9537209E+002
 20
4.327943E+001
 11
2.9537209E+002
 21
2.215058E+001
  0
LINE
  8
1
  6
CONTINUOUS
 62
150
 10
2.7760987E+002
 20
5.2475
 11
2.7760987E+002
 21
4.327943E+001
  0
LINE
  8
1
  6
CONTINUOUS
 62
150
 10
2.6492257E+002
 20
4.327943E+001
 11
2.6492257E+002
 21
5.2475
  0
LINE
  8
1
  6
CONTINUOUS
 62
150
 10
2.3954797E+002
 20
5.2475
 11
2.3954797E+002
 21
4.327943E+001
  0
TEXT
  8
1
  6
CONTINUOUS
 62
1
 10
2.3288763E+002
 20
6.111635
 40
2.5
  1
Zust
 41
5.714E-001
 51
-2.104591E-004
  0
TEXT
  8
1
  6
CONTINUOUS
 62
1
 10
2.4554596E+002
 20
6.111635
 40
2.5
  1
Aenderung
 41
5.9524444E-001
 51
-2.104591E-004
  0
TEXT
  8
1
  6
CONTINUOUS
 62
1
 10
2.6734114E+002
 20
6.111635
 40
2.5
  1
Datum
 41
6.2856E-001
 51
-2.104591E-004
  0
TEXT
  8
1
  6
CONTINUOUS
 62
1
 10
2.7811536E+002
 20
6.111635
 40
2.5
  1
Name
 41
6.607E-001
 51
-2.104591E-004
  0
TEXT
  8
1
  6
CONTINUOUS
 62
1
 10
2.8669377E+002
 20
3.5692025E+001
 40
2.5
  1
Bearb.
 41
5.476E-001
 51
-2.104591E-004
  0
TEXT
  8
1
  6
CONTINUOUS
 62
1
 10
2.8699647E+002
 20
3.1466255E+001
 40
2.5
  1
Gepr.
 41
5.2856E-001
 51
-2.104591E-004
  0
TEXT
  8
1
  6
CONTINUOUS
 62
1
 10
2.8708638E+002
 20
2.7240485E+001
 40
2.5
  1
Norm
 41
6.429E-001
 51
-2.104591E-004
  0
TEXT
  8
1
  6
CONTINUOUS
 62
1
 10
2.9905939E+002
 20
3.9917795E+001
 40
2.5
  1
Datum
 41
6.2856E-001
 51
-2.104591E-004
  0
TEXT
  8
1
  6
CONTINUOUS
 62
1
 10
3.1617726E+002
 20
3.9917795E+001
 40
2.5
  1
Name
 41
6.607E-001
 51
-2.104591E-004
  0
TEXT
  8
1
  6
CONTINUOUS
 62
1
 10
3.3089653E+002
 20
5.5264433E+001
 40
3.5
  1
Maßstab:
 41
6.2244898E-001
 51
-2.104591E-004
  0
TEXT
  8
1
  6
CONTINUOUS
 62
6
 10
4.0234001E+002
 20
1.8788945E+001
 40
2.5
  1
Blatt
 41
5.4288E-001
 51
-2.104591E-004
  0
TEXT
  8
1
  6
CONTINUOUS
 62
6
 10
4.1052981E+002
 20
1.0337405E+001
 40
2.5
  1
Bl. 
 41
4.107E-001
 51
-2.104591E-004
  0
TEXT
  8
1
  6
CONTINUOUS
 62
1
 10
2.8708638E+002
 20
2.3014715E+001
 40
2.2
  1
Freig.
 41
6.0E-001
 51
-2.104591E-004
  0
LINE
  8
3
  6
CONTINUOUS
 62
2
 10
2.8630713E+002
 20
2.1029722E+001
 11
2.8630713E+002
 21
1.1039722E+001
  0
LINE
  8
3
  6
CONTINUOUS
 62
2
 10
2.9629716E+002
 20
2.1029722E+001
 11
2.8630713E+002
 21
2.1029722E+001
  0
LINE
  8
3
  6
CONTINUOUS
 62
2
 10
2.9629716E+002
 20
1.1039722E+001
 11
2.9629716E+002
 21
2.1029722E+001
  0
LINE
  8
3
  6
CONTINUOUS
 62
2
 10
2.9579769E+002
 20
1.1539214E+001
 11
2.9579769E+002
 21
2.0530229E+001
  0
LINE
  8
3
  6
CONTINUOUS
 62
2
 10
2.9579769E+002
 20
2.0530229E+001
 11
2.8680666E+002
 21
2.0530229E+001
  0
LINE
  8
1
  6
CONTINUOUS
 62
1
 10
2.8740923E+002
 20
1.4166589E+001
 11
2.8740923E+002
 21
1.5031697E+001
  0
LINE
  8
3
  6
CONTINUOUS
 62
2
 10
2.8680666E+002
 20
2.0530229E+001
 11
2.8680666E+002
 21
1.1539214E+001
  0
LINE
  8
3
  6
CONTINUOUS
 62
2
 10
2.8680666E+002
 20
1.1539214E+001
 11
2.9579769E+002
 21
1.1539214E+001
  0
LINE
  8
3
  6
CONTINUOUS
 62
2
 10
2.8630713E+002
 20
1.1039722E+001
 11
2.9629716E+002
 21
1.1039722E+001
  0
LINE
  8
1
  6
CONTINUOUS
 62
1
 10
2.8876728E+002
 20
1.488084E+001
 11
2.8680666E+002
 21
1.3966838E+001
  0
LINE
  8
1
  6
CONTINUOUS
 62
1
 10
2.8760908E+002
 20
1.5431329E+001
 11
2.8760908E+002
 21
1.434147E+001
  0
LINE
  8
1
  6
CONTINUOUS
 62
1
 10
2.8780886E+002
 20
1.5536205E+001
 11
2.8780886E+002
 21
1.4434265E+001
  0
ARC
  8
1
  6
CONTINUOUS
 62
1
 10
2.8790876E+002
 20
1.5031697E+001
 40
4.9949732E-001
 50
1.1500681E+002
 51
1.8E+002
  0
LINE
  8
1
  6
CONTINUOUS
 62
1
 10
2.8769764E+002
 20
1.548424E+001
 11
2.8834092E+002
 21
1.5784979E+001
  0
ARC
  8
1
  6
CONTINUOUS
 62
1
 10
2.8846759E+002
 20
1.5513279E+001
 40
2.9968781E-001
 50
0.0
 51
1.14997E+002
  0
LINE
  8
1
  6
CONTINUOUS
 62
1
 10
2.8876728E+002
 20
1.488084E+001
 11
2.8876728E+002
 21
1.5513279E+001
  0
LINE
  8
1
  6
CONTINUOUS
 62
1
 10
2.8836772E+002
 20
1.5796923E+001
 11
2.8836772E+002
 21
1.469512E+001
  0
LINE
  8
1
  6
CONTINUOUS
 62
1
 10
2.885675E+002
 20
1.4787915E+001
 11
2.885675E+002
 21
1.5794979E+001
  0
ARC
  8
1
  6
CONTINUOUS
 62
1
 10
2.8770892E+002
 20
1.4166589E+001
 40
2.9970647E-001
 50
1.8E+002
 51
2.9508511E+002
  0
LINE
  8
1
  6
CONTINUOUS
 62
1
 10
2.9295111E+002
 20
1.6280447E+001
 11
2.878356E+002
 21
1.3895864E+001
  0
LINE
  8
1
  6
CONTINUOUS
 62
1
 10
2.910339E+002
 20
1.648923E+001
 11
2.8896712E+002
 21
1.552523E+001
  0
LINE
  8
1
  6
CONTINUOUS
 62
1
 10
2.8926681E+002
 20
1.6443363E+001
 11
2.8926681E+002
 21
1.3480264E+001
  0
LINE
  8
1
  6
CONTINUOUS
 62
1
 10
2.8946656E+002
 20
1.6890913E+001
 11
2.8946656E+002
 21
1.3267465E+001
  0
LINE
  8
1
  6
CONTINUOUS
 62
1
 10
2.89629E+002
 20
1.6641163E+001
 11
2.89629E+002
 21
1.3678072E+001
  0
LINE
  8
1
  6
CONTINUOUS
 62
1
 10
2.9053446E+002
 20
1.7062745E+001
 11
2.9053446E+002
 21
1.4099655E+001
  0
LINE
  8
1
  6
CONTINUOUS
 62
1
 10
2.9033462E+002
 20
1.3653073E+001
 11
2.9033462E+002
 21
1.7276513E+001
  0
ARC
  8
1
  6
CONTINUOUS
 62
1
 10
2.90934E+002
 20
1.7062745E+001
 40
3.9959429E-001
 50
9.9286249E+001
 51
1.8E+002
  0
ARC
  8
1
  6
CONTINUOUS
 62
1
 10
2.9077165E+002
 20
1.6865913E+001
 40
5.9940806E-001
 50
8.0603552E+001
 51
1.8E+002
  0
LINE
  8
1
  6
CONTINUOUS
 62
1
 10
2.9017222E+002
 20
1.6865913E+001
 11
2.9017222E+002
 21
1.3902815E+001
  0
ARC
  8
1
  6
CONTINUOUS
 62
1
 10
2.9002865E+002
 20
1.6641163E+001
 40
3.9960123E-001
 50
9.9325427E+001
 51
1.8E+002
  0
ARC
  8
1
  6
CONTINUOUS
 62
1
 10
2.8986619E+002
 20
1.6443363E+001
 40
5.9940806E-001
 50
8.0603552E+001
 51
1.8E+002
  0
ARC
  8
1
  6
CONTINUOUS
 62
1
 10
2.8886719E+002
 20
1.3480264E+001
 40
3.9960915E-001
 50
2.7E+002
 51
3.6E+002
  0
ARC
  8
1
  6
CONTINUOUS
 62
1
 10
2.8902962E+002
 20
1.3678072E+001
 40
5.994055E-001
 50
2.6060319E+002
 51
3.6E+002
  0
ARC
  8
1
  6
CONTINUOUS
 62
1
 10
2.8977265E+002
 20
1.3902815E+001
 40
3.9959393E-001
 50
2.7E+002
 51
3.6E+002
  0
ARC
  8
1
  6
CONTINUOUS
 62
1
 10
2.8993503E+002
 20
1.4099655E+001
 40
5.9940312E-001
 50
2.606093E+002
 51
3.6E+002
  0
LINE
  8
1
  6
CONTINUOUS
 62
1
 10
2.9159297E+002
 20
1.5567165E+001
 11
2.9159297E+002
 21
1.6431305E+001
  0
LINE
  8
1
  6
CONTINUOUS
 62
1
 10
2.9179282E+002
 20
1.6830929E+001
 11
2.9179282E+002
 21
1.5741078E+001
  0
LINE
  8
1
  6
CONTINUOUS
 62
1
 10
2.919926E+002
 20
1.6935805E+001
 11
2.919926E+002
 21
1.5833865E+001
  0
LINE
  8
1
  6
CONTINUOUS
 62
1
 10
2.9255149E+002
 20
1.719653E+001
 11
2.9255149E+002
 21
1.6094728E+001
  0
LINE
  8
1
  6
CONTINUOUS
 62
1
 10
2.9275133E+002
 20
1.6187515E+001
 11
2.9275133E+002
 21
1.7195555E+001
  0
LINE
  8
1
  6
CONTINUOUS
 62
1
 10
2.9295111E+002
 20
1.6280447E+001
 11
2.9295111E+002
 21
1.6912863E+001
  0
ARC
  8
1
  6
CONTINUOUS
 62
1
 10
2.9265142E+002
 20
1.6912863E+001
 40
2.9968781E-001
 50
0.0
 51
1.1499049E+002
  0
LINE
  8
1
  6
CONTINUOUS
 62
1
 10
2.9188138E+002
 20
1.688384E+001
 11
2.9252472E+002
 21
1.7184579E+001
  0
ARC
  8
1
  6
CONTINUOUS
 62
1
 10
2.920925E+002
 20
1.6431305E+001
 40
4.9950375E-001
 50
1.1501034E+002
 51
1.8E+002
  0
LINE
  8
1
  6
CONTINUOUS
 62
1
 10
2.9201934E+002
 20
1.5295464E+001
 11
2.9579769E+002
 21
1.7056648E+001
  0
ARC
  8
1
  6
CONTINUOUS
 62
1
 10
2.9189266E+002
 20
1.5567165E+001
 40
2.9971091E-001
 50
1.8E+002
 51
2.9499577E+002
  0
ARC
  8
1
  6
CONTINUOUS
 62
1
 10
2.9404999E+002
 20
1.7843938E+001
 40
5.9940294E-001
 50
8.0591814E+001
 51
1.8E+002
  0
ARC
  8
1
  6
CONTINUOUS
 62
1
 10
2.9421236E+002
 20
1.804077E+001
 40
3.9960394E-001
 50
9.9308349E+001
 51
1.8E+002
  0
LINE
  8
1
  6
CONTINUOUS
 62
1
 10
2.9365042E+002
 20
1.8290513E+001
 11
2.9365042E+002
 21
1.4667072E+001
  0
LINE
  8
1
  6
CONTINUOUS
 62
1
 10
2.9381277E+002
 20
1.804077E+001
 11
2.9381274E+002
 21
1.507768E+001
  0
LINE
  8
1
  6
CONTINUOUS
 62
1
 10
2.9345061E+002
 20
1.7843938E+001
 11
2.9345061E+002
 21
1.488084E+001
  0
LINE
  8
1
  6
CONTINUOUS
 62
1
 10
2.9521764E+002
 20
1.788883E+001
 11
2.9315092E+002
 21
1.692483E+001
  0
LINE
  8
1
  6
CONTINUOUS
 62
1
 10
2.9435602E+002
 20
1.8265513E+001
 11
2.9435602E+002
 21
1.5302423E+001
  0
LINE
  8
1
  6
CONTINUOUS
 62
1
 10
2.9451836E+002
 20
1.505268E+001
 11
2.9451836E+002
 21
1.8676121E+001
  0
LINE
  8
1
  6
CONTINUOUS
 62
1
 10
2.9471814E+002
 20
1.8462353E+001
 11
2.9471814E+002
 21
1.5499255E+001
  0
ARC
  8
1
  6
CONTINUOUS
 62
1
 10
2.9511774E+002
 20
1.8462353E+001
 40
3.9960444E-001
 50
9.9285896E+001
 51
1.8E+002
  0
ARC
  8
1
  6
CONTINUOUS
 62
1
 10
2.9495542E+002
 20
1.8265513E+001
 40
5.9939056E-001
 50
8.0606189E+001
 51
1.8E+002
  0
ARC
  8
1
  6
CONTINUOUS
 62
1
 10
2.9305102E+002
 20
1.488084E+001
 40
3.9960915E-001
 50
2.7E+002
 51
3.6E+002
  0
ARC
  8
1
  6
CONTINUOUS
 62
1
 10
2.9321336E+002
 20
1.507768E+001
 40
5.9940562E-001
 50
2.606093E+002
 51
3.6E+002
  0
ARC
  8
1
  6
CONTINUOUS
 62
1
 10
2.9395639E+002
 20
1.5302423E+001
 40
3.9960915E-001
 50
2.7E+002
 51
3.6E+002
  0
ARC
  8
1
  6
CONTINUOUS
 62
1
 10
2.9411877E+002
 20
1.5499255E+001
 40
5.9940294E-001
 50
2.6059181E+002
 51
3.6E+002
  0
TEXT
  8
4
  6
CONTINUOUS
 62
1
 10
2.9795242E+002
 20
1.9223722E+001
 40
2.2
  1
FRITZ FUSS GmbH&Co
 41
7.0E-001
  0
TEXT
  8
4
  6
CONTINUOUS
 62
1
 10
2.9795242E+002
 20
1.3429522E+001
 40
2.2
  1
Sicherheitstechnik
 41
7.0E-001
  0
TEXT
  8
4
  6
CONTINUOUS
 62
1
 10
2.9795242E+002
 20
1.0532422E+001
 40
2.2
  1
D-72458 Albstadt
 41
7.0E-001
  0
TEXT
  8
4
  6
CONTINUOUS
 62
1
 10
2.9795242E+002
 20
1.6326622E+001
 40
2.2
  1
Kommanditg. auf Aktien
 41
6.0E-001
  0
TEXT
  8
4
  6
CONTINUOUS
 62
1
 10
3.2935807E+002
 20
4.028243E+001
 40
2.0
  1
Benennung
 41
7.0E-001
  0
TEXT
  8
4
  6
CONTINUOUS
 62
1
 10
3.2935807E+002
 20
1.915358E+001
 40
2.0
  1
Zeichnungsnummer
 41
7.0E-001
  0
TEXT
  8
4
  6
CONTINUOUS
 62
1
 10
3.2935807E+002
 20
5.0846855E+001
 40
2.0
  1
Werkstoff
 41
7.0E-001
  0
POINT
  8
Drafting_Hidden_Entities
  6
CONTINUOUS
 62
1
 10
0.0
 20
0.0
  0
ENDBLK
  0
BLOCK
  2
M11
 10
0.0
 20
0.0
 70
0
  0
TEXT
  8
4
  6
CONTINUOUS
 62
1
 10
-3.7549647
 20
1.445907
 40
3.5
  1
1:1
 41
7.0E-001
  0
POINT
  8
Drafting_Hidden_Entities
  6
CONTINUOUS
 62
1
 10
0.0
 20
0.0
  0
ENDBLK
  0
BLOCK
  2
_AH1
 70
0
 10
0.0
 20
0.0
  3
_AH1
  0
LINE
  8
0
  6
CONTINUOUS
 62
0
 10
-1.0
 20
1.66667E-001
 11
0.0
 21
0.0
  0
LINE
  8
0
  6
CONTINUOUS
 62
0
 10
0.0
 20
0.0
 11
-1.0
 21
-1.66667E-001
  0
LINE
  8
0
  6
CONTINUOUS
 62
0
 10
-1.0
 20
1.66667E-001
 11
-1.0
 21
-1.66667E-001
  0
LINE
  8
0
  6
CONTINUOUS
 62
0
 10
0.0
 20
0.0
 11
-1.0
 21
0.0
  0
ENDBLK
  0
BLOCK
  2
_AH2
 70
0
 10
0.0
 20
0.0
  3
_AH2
  0
LINE
  8
0
  6
CONTINUOUS
 62
0
 10
-1.0
 20
1.66667E-001
 11
0.0
 21
0.0
  0
LINE
  8
0
  6
CONTINUOUS
 62
0
 10
0.0
 20
0.0
 11
-1.0
 21
-1.66667E-001
  0
LINE
  8
0
  6
CONTINUOUS
 62
0
 10
0.0
 20
0.0
 11
-1.0
 21
0.0
  0
ENDBLK
  0
BLOCK
  2
*D159
  3
*D
 10
0.0
 20
0.0
 70
65
  0
LINE
  8
BEMASSUNG___2D
  6
CONTINUOUS
 62
3
 10
5.2847671E+001
 20
1.0649949E+002
 11
4.0679722E+001
 21
1.0649949E+002
  0
LINE
  8
BEMASSUNG___2D
  6
CONTINUOUS
 62
3
 10
5.2847671E+001
 20
1.0349949E+002
 11
4.0679722E+001
 21
1.0349949E+002
  0
LINE
  8
BEMASSUNG___2D
  6
CONTINUOUS
 62
3
 10
4.3679722E+001
 20
1.0649949E+002
 11
4.3679722E+001
 21
1.1481074E+002
  0
LINE
  8
BEMASSUNG___2D
  6
CONTINUOUS
 62
3
 10
4.3679722E+001
 20
9.7499491E+001
 11
4.3679722E+001
 21
1.0649949E+002
  0
INSERT
  2
_AH1
  8
BEMASSUNG___2D
 62
3
 10
4.3679722E+001
 20
1.0649949E+002
 41
3.0
 42
3.0
 43
3.0
 50
2.7E+002
  0
INSERT
  2
_AH1
  8
BEMASSUNG___2D
 62
3
 10
4.3679722E+001
 20
1.0349949E+002
 41
3.0
 42
3.0
 43
3.0
 50
9.0E+001
  0
TEXT
  8
BEMASSUNG___2D
  6
CONTINUOUS
 62
3
 10
4.2178722E+001
 20
1.1106074E+002
 40
3.0
  1
3
 41
7.5E-001
 50
9.0E+001
  0
ENDBLK
  0
BLOCK
  2
*D209
  3
*D
 10
0.0
 20
0.0
 70
65
  0
LINE
  8
BEMASSUNG___2D
  6
CONTINUOUS
 62
3
 10
3.2259767E+002
 20
1.9128589E+002
 11
3.2259767E+002
 21
1.7262376E+002
  0
LINE
  8
BEMASSUNG___2D
  6
CONTINUOUS
 62
3
 10
3.2909767E+002
 20
1.9128589E+002
 11
3.2909767E+002
 21
1.7262376E+002
  0
LINE
  8
BEMASSUNG___2D
  6
CONTINUOUS
 62
3
 10
3.2259767E+002
 20
1.7562376E+002
 11
3.0990506E+002
 21
1.7562376E+002
  0
LINE
  8
BEMASSUNG___2D
  6
CONTINUOUS
 62
3
 10
3.3509767E+002
 20
1.7562376E+002
 11
3.2259767E+002
 21
1.7562376E+002
  0
INSERT
  2
_AH1
  8
BEMASSUNG___2D
 62
3
 10
3.2259767E+002
 20
1.7562376E+002
 41
3.0
 42
3.0
 43
3.0
 50
0.0
  0
INSERT
  2
_AH1
  8
BEMASSUNG___2D
 62
3
 10
3.2909767E+002
 20
1.7562376E+002
 41
3.0
 42
3.0
 43
3.0
 50
1.8E+002
  0
TEXT
  8
BEMASSUNG___2D
  6
CONTINUOUS
 62
3
 10
3.1140506E+002
 20
1.7712476E+002
 40
3.0
  1
6,5
 41
7.5E-001
  0
ENDBLK
  0
BLOCK
  2
*D210
  3
*D
 10
0.0
 20
0.0
 70
65
  0
LINE
  8
BEMASSUNG___2D
  6
CONTINUOUS
 62
3
 10
3.2064767E+002
 20
1.9128589E+002
 11
3.2064767E+002
 21
1.6352579E+002
  0
LINE
  8
BEMASSUNG___2D
  6
CONTINUOUS
 62
3
 10
3.3104767E+002
 20
1.9128589E+002
 11
3.3104767E+002
 21
1.6352579E+002
  0
LINE
  8
BEMASSUNG___2D
  6
CONTINUOUS
 62
3
 10
3.2064767E+002
 20
1.6652579E+002
 11
3.0047793E+002
 21
1.6652579E+002
  0
LINE
  8
BEMASSUNG___2D
  6
CONTINUOUS
 62
3
 10
3.3704767E+002
 20
1.6652579E+002
 11
3.2064767E+002
 21
1.6652579E+002
  0
INSERT
  2
_AH1
  8
BEMASSUNG___2D
 62
3
 10
3.2064767E+002
 20
1.6652579E+002
 41
3.0
 42
3.0
 43
3.0
 50
0.0
  0
INSERT
  2
_AH1
  8
BEMASSUNG___2D
 62
3
 10
3.3104767E+002
 20
1.6652579E+002
 41
3.0
 42
3.0
 43
3.0
 50
1.8E+002
  0
TEXT
  8
BEMASSUNG___2D
  6
CONTINUOUS
 62
3
 10
3.0197793E+002
 20
1.6802679E+002
 40
3.0
  1
10,4
 41
7.5E-001
  0
INSERT
  2
_AH1
  8
BEMASSUNG___2D
 62
3
 10
3.2064767E+002
 20
1.6652579E+002
 41
3.0
 42
3.0
 43
3.0
 50
0.0
  0
INSERT
  2
_AH1
  8
BEMASSUNG___2D
 62
3
 10
3.3104767E+002
 20
1.6652579E+002
 41
3.0
 42
3.0
 43
3.0
 50
1.8E+002
  0
TEXT
  8
BEMASSUNG___2D
  6
CONTINUOUS
 62
3
 10
3.1097793E+002
 20
1.6802679E+002
 40
3.0
  1
x90°
 41
7.5E-001
  0
ENDBLK
  0
BLOCK
  2
*D211
  3
*D
 10
0.0
 20
0.0
 70
65
  0
LINE
  8
BEMASSUNG___2D
  6
CONTINUOUS
 62
3
 10
1.9334767E+002
 20
2.1078589E+002
 11
2.5358653E+002
 21
2.1078589E+002
  0
LINE
  8
BEMASSUNG___2D
  6
CONTINUOUS
 62
3
 10
2.3284767E+002
 20
2.0678589E+002
 11
2.5358653E+002
 21
2.0678589E+002
  0
LINE
  8
BEMASSUNG___2D
  6
CONTINUOUS
 62
3
 10
2.5058653E+002
 20
2.1078589E+002
 11
2.5058653E+002
 21
2.204223E+002
  0
LINE
  8
BEMASSUNG___2D
  6
CONTINUOUS
 62
3
 10
2.5058653E+002
 20
2.0078589E+002
 11
2.5058653E+002
 21
2.1078589E+002
  0
INSERT
  2
_AH1
  8
BEMASSUNG___2D
 62
3
 10
2.5058653E+002
 20
2.1078589E+002
 41
3.0
 42
3.0
 43
3.0
 50
2.7E+002
  0
INSERT
  2
_AH1
  8
BEMASSUNG___2D
 62
3
 10
2.5058653E+002
 20
2.0678589E+002
 41
3.0
 42
3.0
 43
3.0
 50
9.0E+001
  0
TEXT
  8
BEMASSUNG___2D
  6
CONTINUOUS
 62
3
 10
2.4908553E+002
 20
2.166723E+002
 40
3.0
  1
4
 41
7.5E-001
 50
9.0E+001
  0
ENDBLK
  0
BLOCK
  2
*D212
  3
*D
 10
0.0
 20
0.0
 70
65
  0
LINE
  8
BEMASSUNG___2D
  6
CONTINUOUS
 62
3
 10
2.3284767E+002
 20
2.0678589E+002
 11
2.6986378E+002
 21
2.0678589E+002
  0
LINE
  8
BEMASSUNG___2D
  6
CONTINUOUS
 62
3
 10
2.3284767E+002
 20
1.9478589E+002
 11
2.6986378E+002
 21
1.9478589E+002
  0
LINE
  8
BEMASSUNG___2D
  6
CONTINUOUS
 62
3
 10
2.6686378E+002
 20
2.1278589E+002
 11
2.6686378E+002
 21
2.0678589E+002
  0
LINE
  8
BEMASSUNG___2D
  6
CONTINUOUS
 62
3
 10
2.6686378E+002
 20
1.8878589E+002
 11
2.6686378E+002
 21
2.0678589E+002
  0
INSERT
  2
_AH1
  8
BEMASSUNG___2D
 62
3
 10
2.6686378E+002
 20
2.0678589E+002
 41
3.0
 42
3.0
 43
3.0
 50
2.7E+002
  0
INSERT
  2
_AH1
  8
BEMASSUNG___2D
 62
3
 10
2.6686378E+002
 20
1.9478589E+002
 41
3.0
 42
3.0
 43
3.0
 50
9.0E+001
  0
TEXT
  8
BEMASSUNG___2D
  6
CONTINUOUS
 62
3
 10
2.6536278E+002
 20
1.9948422E+002
 40
3.0
  1
12
 41
7.5E-001
 50
9.0E+001
  0
ENDBLK
  0
BLOCK
  2
*D213
  3
*D
 10
0.0
 20
0.0
 70
65
  0
LINE
  8
BEMASSUNG___2D
  6
CONTINUOUS
 62
3
 10
2.3284767E+002
 20
2.0678589E+002
 11
2.3284767E+002
 21
2.2572075E+002
  0
LINE
  8
BEMASSUNG___2D
  6
CONTINUOUS
 62
3
 10
3.0684767E+002
 20
2.0678589E+002
 11
3.0684767E+002
 21
2.2572075E+002
  0
LINE
  8
BEMASSUNG___2D
  6
CONTINUOUS
 62
3
 10
2.3284767E+002
 20
2.2272075E+002
 11
2.6814626E+002
 21
2.2272075E+002
  0
LINE
  8
BEMASSUNG___2D
  6
CONTINUOUS
 62
3
 10
3.0684767E+002
 20
2.2272075E+002
 11
2.6814626E+002
 21
2.2272075E+002
  0
INSERT
  2
_AH1
  8
BEMASSUNG___2D
 62
3
 10
2.3284767E+002
 20
2.2272075E+002
 41
3.0
 42
3.0
 43
3.0
 50
1.8E+002
  0
INSERT
  2
_AH1
  8
BEMASSUNG___2D
 62
3
 10
3.0684767E+002
 20
2.2272075E+002
 41
3.0
 42
3.0
 43
3.0
 50
0.0
  0
TEXT
  8
BEMASSUNG___2D
  6
CONTINUOUS
 62
3
 10
2.6589626E+002
 20
2.2422175E+002
 40
3.0
  1
74
 41
7.5E-001
  0
ENDBLK
  0
BLOCK
  2
*D214
  3
*D
 10
0.0
 20
0.0
 70
65
  0
LINE
  8
BEMASSUNG___2D
  6
CONTINUOUS
 62
3
 10
1.6884767E+002
 20
2.1807162E+002
 11
1.6884767E+002
 21
2.2572075E+002
  0
LINE
  8
BEMASSUNG___2D
  6
CONTINUOUS
 62
3
 10
2.3284767E+002
 20
2.0678589E+002
 11
2.3284767E+002
 21
2.2572075E+002
  0
LINE
  8
BEMASSUNG___2D
  6
CONTINUOUS
 62
3
 10
1.6884767E+002
 20
2.2272075E+002
 11
2.0367979E+002
 21
2.2272075E+002
  0
LINE
  8
BEMASSUNG___2D
  6
CONTINUOUS
 62
3
 10
2.3284767E+002
 20
2.2272075E+002
 11
2.0367979E+002
 21
2.2272075E+002
  0
INSERT
  2
_AH1
  8
BEMASSUNG___2D
 62
3
 10
1.6884767E+002
 20
2.2272075E+002
 41
3.0
 42
3.0
 43
3.0
 50
1.8E+002
  0
INSERT
  2
_AH1
  8
BEMASSUNG___2D
 62
3
 10
2.3284767E+002
 20
2.2272075E+002
 41
3.0
 42
3.0
 43
3.0
 50
0.0
  0
TEXT
  8
BEMASSUNG___2D
  6
CONTINUOUS
 62
3
 10
2.0142979E+002
 20
2.2422175E+002
 40
3.0
  1
64
 41
7.5E-001
  0
ENDBLK
  0
BLOCK
  2
*D216
  3
*D
 10
0.0
 20
0.0
 70
65
  0
LINE
  8
BEMASSUNG___2D
  6
CONTINUOUS
 62
3
 10
5.2847671E+001
 20
2.1078589E+002
 11
5.2847671E+001
 21
2.2572075E+002
  0
LINE
  8
BEMASSUNG___2D
  6
CONTINUOUS
 62
3
 10
1.6884767E+002
 20
2.1807162E+002
 11
1.6884767E+002
 21
2.2572075E+002
  0
LINE
  8
BEMASSUNG___2D
  6
CONTINUOUS
 62
3
 10
5.2847671E+001
 20
2.2272075E+002
 11
1.1115648E+002
 21
2.2272075E+002
  0
LINE
  8
BEMASSUNG___2D
  6
CONTINUOUS
 62
3
 10
1.6884767E+002
 20
2.2272075E+002
 11
1.1115648E+002
 21
2.2272075E+002
  0
INSERT
  2
_AH1
  8
BEMASSUNG___2D
 62
3
 10
5.2847671E+001
 20
2.2272075E+002
 41
3.0
 42
3.0
 43
3.0
 50
1.8E+002
  0
INSERT
  2
_AH1
  8
BEMASSUNG___2D
 62
3
 10
1.6884767E+002
 20
2.2272075E+002
 41
3.0
 42
3.0
 43
3.0
 50
0.0
  0
TEXT
  8
BEMASSUNG___2D
  6
CONTINUOUS
 62
3
 10
1.0778148E+002
 20
2.2422175E+002
 40
3.0
  1
116
 41
7.5E-001
  0
ENDBLK
  0
BLOCK
  2
*D217
  3
*D
 10
0.0
 20
0.0
 70
65
  0
LINE
  8
BEMASSUNG___2D
  6
CONTINUOUS
 62
3
 10
5.9847671E+001
 20
1.8308589E+002
 11
5.9847671E+001
 21
1.5375506E+002
  0
LINE
  8
BEMASSUNG___2D
  6
CONTINUOUS
 62
3
 10
3.2584767E+002
 20
1.8308589E+002
 11
3.2584767E+002
 21
1.5375506E+002
  0
LINE
  8
BEMASSUNG___2D
  6
CONTINUOUS
 62
3
 10
5.9847671E+001
 20
1.5675506E+002
 11
1.9284767E+002
 21
1.5675506E+002
  0
LINE
  8
BEMASSUNG___2D
  6
CONTINUOUS
 62
3
 10
3.2584767E+002
 20
1.5675506E+002
 11
1.9284767E+002
 21
1.5675506E+002
  0
INSERT
  2
_AH1
  8
BEMASSUNG___2D
 62
3
 10
5.9847671E+001
 20
1.5675506E+002
 41
3.0
 42
3.0
 43
3.0
 50
1.8E+002
  0
INSERT
  2
_AH1
  8
BEMASSUNG___2D
 62
3
 10
3.2584767E+002
 20
1.5675506E+002
 41
3.0
 42
3.0
 43
3.0
 50
0.0
  0
TEXT
  8
BEMASSUNG___2D
  6
CONTINUOUS
 62
3
 10
1.8947267E+002
 20
1.5825606E+002
 40
3.0
  1
266
 41
7.5E-001
  0
ENDBLK
  0
BLOCK
  2
*D218
  3
*D
 10
0.0
 20
0.0
 70
65
  0
LINE
  8
BEMASSUNG___2D
  6
CONTINUOUS
 62
3
 10
5.2847671E+001
 20
1.8578589E+002
 11
5.2847671E+001
 21
1.5375506E+002
  0
LINE
  8
BEMASSUNG___2D
  6
CONTINUOUS
 62
3
 10
5.9847671E+001
 20
1.8308589E+002
 11
5.9847671E+001
 21
1.5375506E+002
  0
LINE
  8
BEMASSUNG___2D
  6
CONTINUOUS
 62
3
 10
4.6847671E+001
 20
1.5675506E+002
 11
5.2847671E+001
 21
1.5675506E+002
  0
LINE
  8
BEMASSUNG___2D
  6
CONTINUOUS
 62
3
 10
6.5847671E+001
 20
1.5675506E+002
 11
5.2847671E+001
 21
1.5675506E+002
  0
INSERT
  2
_AH1
  8
BEMASSUNG___2D
 62
3
 10
5.2847671E+001
 20
1.5675506E+002
 41
3.0
 42
3.0
 43
3.0
 50
0.0
  0
INSERT
  2
_AH1
  8
BEMASSUNG___2D
 62
3
 10
5.9847671E+001
 20
1.5675506E+002
 41
3.0
 42
3.0
 43
3.0
 50
1.8E+002
  0
TEXT
  8
BEMASSUNG___2D
  6
CONTINUOUS
 62
3
 10
5.4346152E+001
 20
1.5825606E+002
 40
3.0
  1
7
 41
7.5E-001
  0
ENDBLK
  0
BLOCK
  2
*D219
  3
*D
 10
0.0
 20
0.0
 70
65
  0
LINE
  8
BEMASSUNG___2D
  6
CONTINUOUS
 62
3
 10
5.2847671E+001
 20
1.8578589E+002
 11
5.2847671E+001
 21
1.4368886E+002
  0
LINE
  8
BEMASSUNG___2D
  6
CONTINUOUS
 62
3
 10
3.3284767E+002
 20
1.8578589E+002
 11
3.3284767E+002
 21
1.4368886E+002
  0
LINE
  8
BEMASSUNG___2D
  6
CONTINUOUS
 62
3
 10
5.2847671E+001
 20
1.4668886E+002
 11
1.9211438E+002
 21
1.4668886E+002
  0
LINE
  8
BEMASSUNG___2D
  6
CONTINUOUS
 62
3
 10
3.3284767E+002
 20
1.4668886E+002
 11
1.9211438E+002
 21
1.4668886E+002
  0
INSERT
  2
_AH1
  8
BEMASSUNG___2D
 62
3
 10
5.2847671E+001
 20
1.4668886E+002
 41
3.0
 42
3.0
 43
3.0
 50
1.8E+002
  0
INSERT
  2
_AH1
  8
BEMASSUNG___2D
 62
3
 10
3.3284767E+002
 20
1.4668886E+002
 41
3.0
 42
3.0
 43
3.0
 50
0.0
  0
TEXT
  8
BEMASSUNG___2D
  6
CONTINUOUS
 62
3
 10
1.8873938E+002
 20
1.4818986E+002
 40
3.0
  1
280
 41
7.5E-001
  0
ENDBLK
  0
BLOCK
  2
*D220
  3
*D
 10
0.0
 20
0.0
 70
65
  0
LINE
  8
BEMASSUNG___2D
  6
CONTINUOUS
 62
3
 10
5.2847671E+001
 20
2.1078589E+002
 11
3.9469123E+001
 21
2.1078589E+002
  0
LINE
  8
BEMASSUNG___2D
  6
CONTINUOUS
 62
3
 10
5.1647671E+001
 20
2.0528589E+002
 11
3.9469123E+001
 21
2.0528589E+002
  0
LINE
  8
BEMASSUNG___2D
  6
CONTINUOUS
 62
3
 10
4.2469123E+001
 20
2.1078589E+002
 11
4.2469123E+001
 21
2.2245733E+002
  0
LINE
  8
BEMASSUNG___2D
  6
CONTINUOUS
 62
3
 10
4.2469123E+001
 20
1.9928589E+002
 11
4.2469123E+001
 21
2.1078589E+002
  0
INSERT
  2
_AH1
  8
BEMASSUNG___2D
 62
3
 10
4.2469123E+001
 20
2.1078589E+002
 41
3.0
 42
3.0
 43
3.0
 50
2.7E+002
  0
INSERT
  2
_AH1
  8
BEMASSUNG___2D
 62
3
 10
4.2469123E+001
 20
2.0528589E+002
 41
3.0
 42
3.0
 43
3.0
 50
9.0E+001
  0
TEXT
  8
BEMASSUNG___2D
  6
CONTINUOUS
 62
3
 10
4.0968123E+001
 20
2.1420733E+002
 40
3.0
  1
5,5
 41
7.5E-001
 50
9.0E+001
  0
ENDBLK
  0
BLOCK
  2
*D221
  3
*D
 10
0.0
 20
0.0
 70
65
  0
LINE
  8
BEMASSUNG___2D
  6
CONTINUOUS
 62
3
 10
5.1647671E+001
 20
2.0528589E+002
 11
3.9469123E+001
 21
2.0528589E+002
  0
LINE
  8
BEMASSUNG___2D
  6
CONTINUOUS
 62
3
 10
5.1647671E+001
 20
1.9128589E+002
 11
3.9469123E+001
 21
1.9128589E+002
  0
LINE
  8
BEMASSUNG___2D
  6
CONTINUOUS
 62
3
 10
4.2469123E+001
 20
2.0528589E+002
 11
4.2469123E+001
 21
1.9940996E+002
  0
LINE
  8
BEMASSUNG___2D
  6
CONTINUOUS
 62
3
 10
4.2469123E+001
 20
1.9128589E+002
 11
4.2469123E+001
 21
1.9940996E+002
  0
INSERT
  2
_AH1
  8
BEMASSUNG___2D
 62
3
 10
4.2469123E+001
 20
2.0528589E+002
 41
3.0
 42
3.0
 43
3.0
 50
9.0E+001
  0
INSERT
  2
_AH1
  8
BEMASSUNG___2D
 62
3
 10
4.2469123E+001
 20
1.9128589E+002
 41
3.0
 42
3.0
 43
3.0
 50
2.7E+002
  0
TEXT
  8
BEMASSUNG___2D
  6
CONTINUOUS
 62
3
 10
4.0968123E+001
 20
1.9715996E+002
 40
3.0
  1
14
 41
7.5E-001
 50
9.0E+001
  0
ENDBLK
  0
BLOCK
  2
*D823
  3
*D
 10
0.0
 20
0.0
 70
65
  0
LINE
  8
BEMASSUNG___2D
  6
CONTINUOUS
 62
3
 10
1.4434767E+002
 20
2.1078589E+002
 11
1.5794923E+002
 21
2.1078589E+002
  0
LINE
  8
BEMASSUNG___2D
  6
CONTINUOUS
 62
3
 10
1.4724767E+002
 20
1.9878589E+002
 11
1.5794923E+002
 21
1.9878589E+002
  0
LINE
  8
BEMASSUNG___2D
  6
CONTINUOUS
 62
3
 10
1.5494923E+002
 20
2.1678589E+002
 11
1.5494923E+002
 21
2.1078589E+002
  0
LINE
  8
BEMASSUNG___2D
  6
CONTINUOUS
 62
3
 10
1.5494923E+002
 20
1.9278589E+002
 11
1.5494923E+002
 21
2.1078589E+002
  0
INSERT
  2
_AH1
  8
BEMASSUNG___2D
 62
3
 10
1.5494923E+002
 20
2.1078589E+002
 41
3.0
 42
3.0
 43
3.0
 50
2.7E+002
  0
INSERT
  2
_AH1
  8
BEMASSUNG___2D
 62
3
 10
1.5494923E+002
 20
1.9878589E+002
 41
3.0
 42
3.0
 43
3.0
 50
9.0E+001
  0
TEXT
  8
BEMASSUNG___2D
  6
CONTINUOUS
 62
3
 10
1.5344823E+002
 20
2.021865E+002
 40
3.0
  1
12
 41
7.5E-001
 50
9.0E+001
  0
ENDBLK
  0
BLOCK
  2
*D880
  3
*D
 10
0.0
 20
0.0
 70
65
  0
LINE
  8
BEMASSUNG___2D
  6
CONTINUOUS
 62
3
 10
5.2847671E+001
 20
2.1078589E+002
 11
2.9477963E+001
 21
2.1078589E+002
  0
LINE
  8
BEMASSUNG___2D
  6
CONTINUOUS
 62
3
 10
5.2847671E+001
 20
1.8578589E+002
 11
2.9477963E+001
 21
1.8578589E+002
  0
LINE
  8
BEMASSUNG___2D
  6
CONTINUOUS
 62
3
 10
3.2477963E+001
 20
2.1078589E+002
 11
3.2477963E+001
 21
1.9938499E+002
  0
LINE
  8
BEMASSUNG___2D
  6
CONTINUOUS
 62
3
 10
3.2477963E+001
 20
1.8578589E+002
 11
3.2477963E+001
 21
1.9938499E+002
  0
INSERT
  2
_AH1
  8
BEMASSUNG___2D
 62
3
 10
3.2477963E+001
 20
2.1078589E+002
 41
3.0
 42
3.0
 43
3.0
 50
9.0E+001
  0
INSERT
  2
_AH1
  8
BEMASSUNG___2D
 62
3
 10
3.2477963E+001
 20
1.8578589E+002
 41
3.0
 42
3.0
 43
3.0
 50
2.7E+002
  0
TEXT
  8
BEMASSUNG___2D
  6
CONTINUOUS
 62
3
 10
3.0976963E+001
 20
1.9713499E+002
 40
3.0
  1
25
 41
7.5E-001
 50
9.0E+001
  0
ENDBLK
  0
ENDSEC
  0
SECTION
  2
ENTITIES
  0
LINE
  8
SICHTBAR__3D
  6
CONTINUOUS
 62
1
 10
5.2847671E+001
 20
2.1078589E+002
 11
5.2847671E+001
 21
1.8578589E+002
  0
LINE
  8
SICHTBAR__3D
  6
CONTINUOUS
 62
1
 10
3.3284767E+002
 20
1.8578589E+002
 11
3.3284767E+002
 21
2.1078589E+002
  0
LINE
  8
SICHTBAR__3D
  6
CONTINUOUS
 62
1
 10
3.3284767E+002
 20
1.8578589E+002
 11
5.2847671E+001
 21
1.8578589E+002
  0
LINE
  8
SICHTBAR__3D
  6
CONTINUOUS
 62
1
 10
1.4434767E+002
 20
2.1078589E+002
 11
5.2847671E+001
 21
2.1078589E+002
  0
LINE
  8
SICHTBAR__3D
  6
CONTINUOUS
 62
1
 10
3.3284767E+002
 20
2.1078589E+002
 11
1.9334767E+002
 21
2.1078589E+002
  0
CIRCLE
  8
SICHTBAR__3D
  6
CONTINUOUS
 62
6
 10
3.2584767E+002
 20
1.9128589E+002
 40
3.25
  0
CIRCLE
  8
SICHTBAR__3D
  6
CONTINUOUS
 62
6
 10
3.2584767E+002
 20
2.0528589E+002
 40
3.25
  0
LINE
  8
SICHTBAR__3D
  6
CONTINUOUS
 62
6
 10
3.0684767E+002
 20
2.0678589E+002
 11
3.0684767E+002
 21
1.9478589E+002
  0
LINE
  8
SICHTBAR__3D
  6
CONTINUOUS
 62
6
 10
2.3284767E+002
 20
2.0678589E+002
 11
3.0684767E+002
 21
2.0678589E+002
  0
LINE
  8
SICHTBAR__3D
  6
CONTINUOUS
 62
6
 10
2.3284767E+002
 20
1.9478589E+002
 11
2.3284767E+002
 21
2.0678589E+002
  0
LINE
  8
SICHTBAR__3D
  6
CONTINUOUS
 62
6
 10
3.0684767E+002
 20
1.9478589E+002
 11
2.3284767E+002
 21
1.9478589E+002
  0
CIRCLE
  8
SICHTBAR__3D
  6
CONTINUOUS
 62
6
 10
2.1084767E+002
 20
1.9878589E+002
 40
3.25
  0
CIRCLE
  8
SICHTBAR__3D
  6
CONTINUOUS
 62
6
 10
1.9884767E+002
 20
1.9878589E+002
 40
3.25
  0
LINE
  8
SICHTBAR__3D
  6
CONTINUOUS
 62
6
 10
1.4434767E+002
 20
1.9178589E+002
 11
1.4434767E+002
 21
2.1078589E+002
  0
LINE
  8
SICHTBAR__3D
  6
CONTINUOUS
 62
6
 10
1.9334767E+002
 20
1.9178589E+002
 11
1.4434767E+002
 21
1.9178589E+002
  0
LINE
  8
SICHTBAR__3D
  6
CONTINUOUS
 62
6
 10
1.9334767E+002
 20
2.1078589E+002
 11
1.9334767E+002
 21
1.9178589E+002
  0
CIRCLE
  8
SICHTBAR__3D
  6
CONTINUOUS
 62
6
 10
1.3884767E+002
 20
1.9878589E+002
 40
3.25
  0
CIRCLE
  8
SICHTBAR__3D
  6
CONTINUOUS
 62
6
 10
8.5847671E+001
 20
1.9878589E+002
 40
3.25
  0
CIRCLE
  8
SICHTBAR__3D
  6
CONTINUOUS
 62
6
 10
5.9847671E+001
 20
1.9128589E+002
 40
3.25
  0
CIRCLE
  8
SICHTBAR__3D
  6
CONTINUOUS
 62
6
 10
5.9847671E+001
 20
2.0528589E+002
 40
3.25
  0
CIRCLE
  8
SICHTBAR__3D
  6
CONTINUOUS
 62
6
 10
8.5847671E+001
 20
1.9878589E+002
 40
5.4
  0
CIRCLE
  8
SICHTBAR__3D
  6
CONTINUOUS
 62
6
 10
1.3884767E+002
 20
1.9878589E+002
 40
5.4
  0
CIRCLE
  8
SICHTBAR__3D
  6
CONTINUOUS
 62
6
 10
1.9884767E+002
 20
1.9878589E+002
 40
5.4
  0
CIRCLE
  8
SICHTBAR__3D
  6
CONTINUOUS
 62
6
 10
2.1084767E+002
 20
1.9878589E+002
 40
5.4
  0
CIRCLE
  8
SICHTBAR__3D
  6
CONTINUOUS
 62
6
 10
5.9847671E+001
 20
2.0528589E+002
 40
5.2
  0
CIRCLE
  8
SICHTBAR__3D
  6
CONTINUOUS
 62
6
 10
5.9847671E+001
 20
1.9128589E+002
 40
5.2
  0
CIRCLE
  8
SICHTBAR__3D
  6
CONTINUOUS
 62
6
 10
3.2584767E+002
 20
2.0528589E+002
 40
5.2
  0
CIRCLE
  8
SICHTBAR__3D
  6
CONTINUOUS
 62
6
 10
3.2584767E+002
 20
1.9128589E+002
 40
5.2
  0
LINE
  8
SICHTBAR__3D
  6
CONTINUOUS
 62
1
 10
3.7924717E+002
 20
1.8578589E+002
 11
3.7624717E+002
 21
1.8578589E+002
  0
LINE
  8
SICHTBAR__3D
  6
CONTINUOUS
 62
1
 10
3.7624717E+002
 20
2.1078589E+002
 11
3.7924717E+002
 21
2.1078589E+002
  0
LINE
  8
SICHTBAR__3D
  6
CONTINUOUS
 62
1
 10
3.7624717E+002
 20
1.8578589E+002
 11
3.7624717E+002
 21
2.1078589E+002
  0
LINE
  8
VERDECKT__3D
  6
HIDDEN
 62
6
 10
3.7924717E+002
 20
2.0678589E+002
 11
3.7624717E+002
 21
2.0678589E+002
  0
LINE
  8
VERDECKT__3D
  6
HIDDEN
 62
6
 10
3.7924717E+002
 20
1.9478589E+002
 11
3.7624717E+002
 21
1.9478589E+002
  0
LINE
  8
VERDECKT__3D
  6
HIDDEN
 62
6
 10
3.7924717E+002
 20
1.9178589E+002
 11
3.7624717E+002
 21
1.9178589E+002
  0
LINE
  8
SICHTBAR__3D
  6
CONTINUOUS
 62
1
 10
3.7924717E+002
 20
2.1078589E+002
 11
3.7924717E+002
 21
1.8578589E+002
  0
LINE
  8
VERDECKT__3D
  6
HIDDEN
 62
6
 10
3.7709717E+002
 20
1.9553589E+002
 11
3.7709717E+002
 21
2.0203589E+002
  0
LINE
  8
VERDECKT__3D
  6
HIDDEN
 62
6
 10
3.7624717E+002
 20
1.9553589E+002
 11
3.7709717E+002
 21
1.9553589E+002
  0
LINE
  8
VERDECKT__3D
  6
HIDDEN
 62
6
 10
3.7729717E+002
 20
1.8803589E+002
 11
3.7729717E+002
 21
1.9453589E+002
  0
LINE
  8
VERDECKT__3D
  6
HIDDEN
 62
6
 10
3.7624717E+002
 20
1.8803589E+002
 11
3.7729717E+002
 21
1.8803589E+002
  0
LINE
  8
VERDECKT__3D
  6
HIDDEN
 62
6
 10
3.7729717E+002
 20
1.9453589E+002
 11
3.7624717E+002
 21
1.9453589E+002
  0
LINE
  8
VERDECKT__3D
  6
HIDDEN
 62
6
 10
3.7729717E+002
 20
2.0203589E+002
 11
3.7729717E+002
 21
2.0853589E+002
  0
LINE
  8
VERDECKT__3D
  6
HIDDEN
 62
6
 10
3.7624717E+002
 20
2.0203589E+002
 11
3.7729717E+002
 21
2.0203589E+002
  0
LINE
  8
VERDECKT__3D
  6
HIDDEN
 62
6
 10
3.7729717E+002
 20
2.0853589E+002
 11
3.7624717E+002
 21
2.0853589E+002
  0
LINE
  8
VERDECKT__3D
  6
HIDDEN
 62
6
 10
3.7924717E+002
 20
1.9648589E+002
 11
3.7729717E+002
 21
1.9453589E+002
  0
LINE
  8
VERDECKT__3D
  6
HIDDEN
 62
6
 10
3.7729717E+002
 20
1.8803589E+002
 11
3.7924717E+002
 21
1.8608589E+002
  0
LINE
  8
VERDECKT__3D
  6
HIDDEN
 62
6
 10
3.7924717E+002
 20
2.1048589E+002
 11
3.7729717E+002
 21
2.0853589E+002
  0
LINE
  8
VERDECKT__3D
  6
HIDDEN
 62
6
 10
3.7729717E+002
 20
2.0203589E+002
 11
3.7924717E+002
 21
2.0008589E+002
  0
LINE
  8
VERDECKT__3D
  6
HIDDEN
 62
6
 10
3.7924717E+002
 20
2.0418589E+002
 11
3.7709717E+002
 21
2.0203589E+002
  0
LINE
  8
VERDECKT__3D
  6
HIDDEN
 62
6
 10
3.7709717E+002
 20
1.9553589E+002
 11
3.7924717E+002
 21
1.9338589E+002
  0
LINE
  8
SICHTBAR__3D
  6
CONTINUOUS
 62
1
 10
5.2847671E+001
 20
1.0649949E+002
 11
5.2847671E+001
 21
1.0349949E+002
  0
LINE
  8
SICHTBAR__3D
  6
CONTINUOUS
 62
1
 10
3.3284767E+002
 20
1.0649949E+002
 11
3.3284767E+002
 21
1.0349949E+002
  0
LINE
  8
SICHTBAR__3D
  6
CONTINUOUS
 62
1
 10
1.4434767E+002
 20
1.0649949E+002
 11
1.9334767E+002
 21
1.0649949E+002
  0
LINE
  8
SICHTBAR__3D
  6
CONTINUOUS
 62
1
 10
1.9334767E+002
 20
1.0649949E+002
 11
3.3284767E+002
 21
1.0649949E+002
  0
LINE
  8
SICHTBAR__3D
  6
CONTINUOUS
 62
1
 10
5.2847671E+001
 20
1.0649949E+002
 11
1.4434767E+002
 21
1.0649949E+002
  0
LINE
  8
VERDECKT__3D
  6
HIDDEN
 62
6
 10
3.0684767E+002
 20
1.0349949E+002
 11
3.0684767E+002
 21
1.0649949E+002
  0
LINE
  8
VERDECKT__3D
  6
HIDDEN
 62
6
 10
2.3284767E+002
 20
1.0349949E+002
 11
2.3284767E+002
 21
1.0649949E+002
  0
LINE
  8
SICHTBAR__3D
  6
CONTINUOUS
 62
1
 10
1.4434767E+002
 20
1.0349949E+002
 11
1.4434767E+002
 21
1.0649949E+002
  0
LINE
  8
SICHTBAR__3D
  6
CONTINUOUS
 62
1
 10
1.9334767E+002
 20
1.0649949E+002
 11
1.9334767E+002
 21
1.0349949E+002
  0
LINE
  8
SICHTBAR__3D
  6
CONTINUOUS
 62
1
 10
1.4434767E+002
 20
1.0349949E+002
 11
5.2847671E+001
 21
1.0349949E+002
  0
LINE
  8
SICHTBAR__3D
  6
CONTINUOUS
 62
1
 10
3.3284767E+002
 20
1.0349949E+002
 11
1.9334767E+002
 21
1.0349949E+002
  0
LINE
  8
SICHTBAR__3D
  6
CONTINUOUS
 62
6
 10
1.9334767E+002
 20
1.0349949E+002
 11
1.4434767E+002
 21
1.0349949E+002
  0
LINE
  8
VERDECKT__3D
  6
HIDDEN
 62
6
 10
3.2584769E+002
 20
1.0544947E+002
 11
3.2909769E+002
 21
1.0544947E+002
  0
LINE
  8
VERDECKT__3D
  6
HIDDEN
 62
6
 10
3.2259768E+002
 20
1.0544947E+002
 11
3.2584769E+002
 21
1.0544947E+002
  0
LINE
  8
VERDECKT__3D
  6
HIDDEN
 62
6
 10
3.2909769E+002
 20
1.0544947E+002
 11
3.2909769E+002
 21
1.0649946E+002
  0
LINE
  8
VERDECKT__3D
  6
HIDDEN
 62
6
 10
3.2259768E+002
 20
1.0649946E+002
 11
3.2259768E+002
 21
1.0544947E+002
  0
LINE
  8
VERDECKT__3D
  6
HIDDEN
 62
6
 10
2.1084766E+002
 20
1.0564952E+002
 11
2.1409766E+002
 21
1.0564952E+002
  0
LINE
  8
VERDECKT__3D
  6
HIDDEN
 62
6
 10
2.0759765E+002
 20
1.0564952E+002
 11
2.1084766E+002
 21
1.0564952E+002
  0
LINE
  8
VERDECKT__3D
  6
HIDDEN
 62
6
 10
2.1409766E+002
 20
1.0564952E+002
 11
2.1409766E+002
 21
1.0649946E+002
  0
LINE
  8
VERDECKT__3D
  6
HIDDEN
 62
6
 10
2.0759765E+002
 20
1.0649946E+002
 11
2.0759765E+002
 21
1.0564952E+002
  0
LINE
  8
VERDECKT__3D
  6
HIDDEN
 62
6
 10
1.9884769E+002
 20
1.0564952E+002
 11
2.0209769E+002
 21
1.0564952E+002
  0
LINE
  8
VERDECKT__3D
  6
HIDDEN
 62
6
 10
1.9559769E+002
 20
1.0564952E+002
 11
1.9884769E+002
 21
1.0564952E+002
  0
LINE
  8
VERDECKT__3D
  6
HIDDEN
 62
6
 10
2.0209769E+002
 20
1.0564952E+002
 11
2.0209769E+002
 21
1.0649946E+002
  0
LINE
  8
VERDECKT__3D
  6
HIDDEN
 62
6
 10
1.9559769E+002
 20
1.0649946E+002
 11
1.9559769E+002
 21
1.0564952E+002
  0
LINE
  8
VERDECKT__3D
  6
HIDDEN
 62
6
 10
1.3884766E+002
 20
1.0564952E+002
 11
1.4209766E+002
 21
1.0564952E+002
  0
LINE
  8
VERDECKT__3D
  6
HIDDEN
 62
6
 10
1.3559765E+002
 20
1.0564952E+002
 11
1.3884766E+002
 21
1.0564952E+002
  0
LINE
  8
VERDECKT__3D
  6
HIDDEN
 62
6
 10
1.4209766E+002
 20
1.0564952E+002
 11
1.4209766E+002
 21
1.0649946E+002
  0
LINE
  8
VERDECKT__3D
  6
HIDDEN
 62
6
 10
1.3559765E+002
 20
1.0649946E+002
 11
1.3559765E+002
 21
1.0564952E+002
  0
LINE
  8
VERDECKT__3D
  6
HIDDEN
 62
6
 10
8.584769E+001
 20
1.0564952E+002
 11
8.9097694E+001
 21
1.0564952E+002
  0
LINE
  8
VERDECKT__3D
  6
HIDDEN
 62
6
 10
8.2597687E+001
 20
1.0564952E+002
 11
8.584769E+001
 21
1.0564952E+002
  0
LINE
  8
VERDECKT__3D
  6
HIDDEN
 62
6
 10
8.9097694E+001
 20
1.0564952E+002
 11
8.9097694E+001
 21
1.0649946E+002
  0
LINE
  8
VERDECKT__3D
  6
HIDDEN
 62
6
 10
8.2597687E+001
 20
1.0649946E+002
 11
8.2597687E+001
 21
1.0564952E+002
  0
LINE
  8
VERDECKT__3D
  6
HIDDEN
 62
6
 10
5.9847661E+001
 20
1.0544947E+002
 11
6.3097665E+001
 21
1.0544947E+002
  0
LINE
  8
VERDECKT__3D
  6
HIDDEN
 62
6
 10
5.6597658E+001
 20
1.0544947E+002
 11
5.9847661E+001
 21
1.0544947E+002
  0
LINE
  8
VERDECKT__3D
  6
HIDDEN
 62
6
 10
6.3097665E+001
 20
1.0544947E+002
 11
6.3097665E+001
 21
1.0649946E+002
  0
LINE
  8
VERDECKT__3D
  6
HIDDEN
 62
6
 10
5.6597658E+001
 20
1.0649946E+002
 11
5.6597658E+001
 21
1.0544947E+002
  0
LINE
  8
VERDECKT__3D
  6
HIDDEN
 62
6
 10
3.3104771E+002
 20
1.0349952E+002
 11
3.2909769E+002
 21
1.0544947E+002
  0
LINE
  8
VERDECKT__3D
  6
HIDDEN
 62
6
 10
3.2259768E+002
 20
1.0544947E+002
 11
3.2064767E+002
 21
1.0349952E+002
  0
LINE
  8
VERDECKT__3D
  6
HIDDEN
 62
6
 10
6.5047681E+001
 20
1.0349952E+002
 11
6.3097665E+001
 21
1.0544947E+002
  0
LINE
  8
VERDECKT__3D
  6
HIDDEN
 62
6
 10
5.6597658E+001
 20
1.0544947E+002
 11
5.4647642E+001
 21
1.0349952E+002
  0
LINE
  8
VERDECKT__3D
  6
HIDDEN
 62
6
 10
2.1624766E+002
 20
1.0349952E+002
 11
2.1409766E+002
 21
1.0564952E+002
  0
LINE
  8
VERDECKT__3D
  6
HIDDEN
 62
6
 10
2.0759765E+002
 20
1.0564952E+002
 11
2.0544765E+002
 21
1.0349952E+002
  0
LINE
  8
VERDECKT__3D
  6
HIDDEN
 62
6
 10
2.0424769E+002
 20
1.0349952E+002
 11
2.0209769E+002
 21
1.0564952E+002
  0
LINE
  8
VERDECKT__3D
  6
HIDDEN
 62
6
 10
1.9559769E+002
 20
1.0564952E+002
 11
1.9344769E+002
 21
1.0349952E+002
  0
LINE
  8
VERDECKT__3D
  6
HIDDEN
 62
6
 10
1.4424766E+002
 20
1.0349952E+002
 11
1.4209766E+002
 21
1.0564952E+002
  0
LINE
  8
VERDECKT__3D
  6
HIDDEN
 62
6
 10
1.3559765E+002
 20
1.0564952E+002
 11
1.3344766E+002
 21
1.0349952E+002
  0
LINE
  8
VERDECKT__3D
  6
HIDDEN
 62
6
 10
9.1247692E+001
 20
1.0349952E+002
 11
8.9097694E+001
 21
1.0564952E+002
  0
LINE
  8
VERDECKT__3D
  6
HIDDEN
 62
6
 10
8.2597687E+001
 20
1.0564952E+002
 11
8.0447689E+001
 21
1.0349952E+002
  0
LINE
  8
100
  6
CENTERLINE
 62
3
 10
5.9847661E+001
 20
1.0914077E+002
 11
5.9847661E+001
 21
1.0075239E+002
  0
LINE
  8
100
  6
CENTERLINE
 62
3
 10
8.584769E+001
 20
1.0914077E+002
 11
8.584769E+001
 21
1.0019317E+002
  0
LINE
  8
100
  6
CENTERLINE
 62
3
 10
1.3884766E+002
 20
1.1051342E+002
 11
1.3884766E+002
 21
1.0014233E+002
  0
LINE
  8
100
  6
CENTERLINE
 62
3
 10
1.9884769E+002
 20
1.1005587E+002
 11
1.9884769E+002
 21
1.0039652E+002
  0
LINE
  8
100
  6
CENTERLINE
 62
3
 10
2.1084766E+002
 20
1.1000503E+002
 11
2.1084766E+002
 21
1.0029485E+002
  0
LINE
  8
100
  6
CENTERLINE
 62
3
 10
3.2584769E+002
 20
1.1031006E+002
 11
3.2584769E+002
 21
1.0009149E+002
  0
DIMENSION
  8
BEMASSUNG___2D
  6
CONTINUOUS
 62
3
  2
*D159
  3
DSTYLE1
 10
4.3679722E+001
 20
1.0349949E+002
 11
4.0678722E+001
 21
1.1218574E+002
 70
128
 13
5.2847671E+001
 23
1.0649949E+002
 14
5.2847671E+001
 24
1.0349949E+002
 40
3.0
 50
9.0E+001
1001
ACAD
1000
DSTYLE
1002
{
1070
173
1070
0
1070
5
1000
_AH1
1002
}
  0
LINE
  8
100
  6
CENTERLINE
 62
3
 10
1.6884767E+002
 20
1.7442238E+002
 11
1.6884767E+002
 21
2.1807162E+002
  0
LINE
  8
BEMASSUNG___2D
  6
CONTINUOUS
 62
3
 10
6.2847671E+001
 20
2.0528589E+002
 11
5.6847671E+001
 21
2.0528589E+002
  0
LINE
  8
BEMASSUNG___2D
  6
CONTINUOUS
 62
3
 10
5.9847671E+001
 20
2.0828589E+002
 11
5.9847671E+001
 21
2.0228589E+002
  0
LINE
  8
BEMASSUNG___2D
  6
CONTINUOUS
 62
3
 10
6.4347671E+001
 20
2.0528589E+002
 11
6.8047671E+001
 21
2.0528589E+002
  0
LINE
  8
BEMASSUNG___2D
  6
CONTINUOUS
 62
3
 10
5.9847671E+001
 20
2.0978589E+002
 11
5.9847671E+001
 21
2.1348589E+002
  0
LINE
  8
BEMASSUNG___2D
  6
CONTINUOUS
 62
3
 10
5.5347671E+001
 20
2.0528589E+002
 11
5.1647671E+001
 21
2.0528589E+002
  0
LINE
  8
BEMASSUNG___2D
  6
CONTINUOUS
 62
3
 10
5.9847671E+001
 20
2.0078589E+002
 11
5.9847671E+001
 21
1.9708589E+002
  0
LINE
  8
BEMASSUNG___2D
  6
CONTINUOUS
 62
3
 10
6.2847671E+001
 20
1.9128589E+002
 11
5.6847671E+001
 21
1.9128589E+002
  0
LINE
  8
BEMASSUNG___2D
  6
CONTINUOUS
 62
3
 10
5.9847671E+001
 20
1.9428589E+002
 11
5.9847671E+001
 21
1.8828589E+002
  0
LINE
  8
BEMASSUNG___2D
  6
CONTINUOUS
 62
3
 10
6.4347671E+001
 20
1.9128589E+002
 11
6.8047671E+001
 21
1.9128589E+002
  0
LINE
  8
BEMASSUNG___2D
  6
CONTINUOUS
 62
3
 10
5.9847671E+001
 20
1.9578589E+002
 11
5.9847671E+001
 21
1.9948589E+002
  0
LINE
  8
BEMASSUNG___2D
  6
CONTINUOUS
 62
3
 10
5.5347671E+001
 20
1.9128589E+002
 11
5.1647671E+001
 21
1.9128589E+002
  0
LINE
  8
BEMASSUNG___2D
  6
CONTINUOUS
 62
3
 10
5.9847671E+001
 20
1.8678589E+002
 11
5.9847671E+001
 21
1.8308589E+002
  0
LINE
  8
BEMASSUNG___2D
  6
CONTINUOUS
 62
3
 10
8.8847671E+001
 20
1.9878589E+002
 11
8.2847671E+001
 21
1.9878589E+002
  0
LINE
  8
BEMASSUNG___2D
  6
CONTINUOUS
 62
3
 10
8.5847671E+001
 20
2.0178589E+002
 11
8.5847671E+001
 21
1.9578589E+002
  0
LINE
  8
BEMASSUNG___2D
  6
CONTINUOUS
 62
3
 10
9.0347671E+001
 20
1.9878589E+002
 11
9.4247671E+001
 21
1.9878589E+002
  0
LINE
  8
BEMASSUNG___2D
  6
CONTINUOUS
 62
3
 10
8.5847671E+001
 20
2.0328589E+002
 11
8.5847671E+001
 21
2.0718589E+002
  0
LINE
  8
BEMASSUNG___2D
  6
CONTINUOUS
 62
3
 10
8.1347671E+001
 20
1.9878589E+002
 11
7.7447671E+001
 21
1.9878589E+002
  0
LINE
  8
BEMASSUNG___2D
  6
CONTINUOUS
 62
3
 10
8.5847671E+001
 20
1.9428589E+002
 11
8.5847671E+001
 21
1.9038589E+002
  0
LINE
  8
BEMASSUNG___2D
  6
CONTINUOUS
 62
3
 10
1.4184767E+002
 20
1.9878589E+002
 11
1.3584767E+002
 21
1.9878589E+002
  0
LINE
  8
BEMASSUNG___2D
  6
CONTINUOUS
 62
3
 10
1.3884767E+002
 20
2.0178589E+002
 11
1.3884767E+002
 21
1.9578589E+002
  0
LINE
  8
BEMASSUNG___2D
  6
CONTINUOUS
 62
3
 10
1.4334767E+002
 20
1.9878589E+002
 11
1.4724767E+002
 21
1.9878589E+002
  0
LINE
  8
BEMASSUNG___2D
  6
CONTINUOUS
 62
3
 10
1.3884767E+002
 20
2.0328589E+002
 11
1.3884767E+002
 21
2.0718589E+002
  0
LINE
  8
BEMASSUNG___2D
  6
CONTINUOUS
 62
3
 10
1.3434767E+002
 20
1.9878589E+002
 11
1.3044767E+002
 21
1.9878589E+002
  0
LINE
  8
BEMASSUNG___2D
  6
CONTINUOUS
 62
3
 10
1.3884767E+002
 20
1.9428589E+002
 11
1.3884767E+002
 21
1.9038589E+002
  0
LINE
  8
BEMASSUNG___2D
  6
CONTINUOUS
 62
3
 10
2.0184767E+002
 20
1.9878589E+002
 11
1.9584767E+002
 21
1.9878589E+002
  0
LINE
  8
BEMASSUNG___2D
  6
CONTINUOUS
 62
3
 10
1.9884767E+002
 20
2.0178589E+002
 11
1.9884767E+002
 21
1.9578589E+002
  0
LINE
  8
BEMASSUNG___2D
  6
CONTINUOUS
 62
3
 10
2.0334767E+002
 20
1.9878589E+002
 11
2.0724767E+002
 21
1.9878589E+002
  0
LINE
  8
BEMASSUNG___2D
  6
CONTINUOUS
 62
3
 10
1.9884767E+002
 20
2.0328589E+002
 11
1.9884767E+002
 21
2.0718589E+002
  0
LINE
  8
BEMASSUNG___2D
  6
CONTINUOUS
 62
3
 10
1.9434767E+002
 20
1.9878589E+002
 11
1.9044767E+002
 21
1.9878589E+002
  0
LINE
  8
BEMASSUNG___2D
  6
CONTINUOUS
 62
3
 10
1.9884767E+002
 20
1.9428589E+002
 11
1.9884767E+002
 21
1.9038589E+002
  0
LINE
  8
BEMASSUNG___2D
  6
CONTINUOUS
 62
3
 10
2.1384767E+002
 20
1.9878589E+002
 11
2.0784767E+002
 21
1.9878589E+002
  0
LINE
  8
BEMASSUNG___2D
  6
CONTINUOUS
 62
3
 10
2.1084767E+002
 20
2.0178589E+002
 11
2.1084767E+002
 21
1.9578589E+002
  0
LINE
  8
BEMASSUNG___2D
  6
CONTINUOUS
 62
3
 10
2.1534767E+002
 20
1.9878589E+002
 11
2.1924767E+002
 21
1.9878589E+002
  0
LINE
  8
BEMASSUNG___2D
  6
CONTINUOUS
 62
3
 10
2.1084767E+002
 20
2.0328589E+002
 11
2.1084767E+002
 21
2.0718589E+002
  0
LINE
  8
BEMASSUNG___2D
  6
CONTINUOUS
 62
3
 10
2.0634767E+002
 20
1.9878589E+002
 11
2.0244767E+002
 21
1.9878589E+002
  0
LINE
  8
BEMASSUNG___2D
  6
CONTINUOUS
 62
3
 10
2.1084767E+002
 20
1.9428589E+002
 11
2.1084767E+002
 21
1.9038589E+002
  0
LINE
  8
BEMASSUNG___2D
  6
CONTINUOUS
 62
3
 10
3.2884767E+002
 20
2.0528589E+002
 11
3.2284767E+002
 21
2.0528589E+002
  0
LINE
  8
BEMASSUNG___2D
  6
CONTINUOUS
 62
3
 10
3.2584767E+002
 20
2.0828589E+002
 11
3.2584767E+002
 21
2.0228589E+002
  0
LINE
  8
BEMASSUNG___2D
  6
CONTINUOUS
 62
3
 10
3.3034767E+002
 20
2.0528589E+002
 11
3.3404767E+002
 21
2.0528589E+002
  0
LINE
  8
BEMASSUNG___2D
  6
CONTINUOUS
 62
3
 10
3.2584767E+002
 20
2.0978589E+002
 11
3.2584767E+002
 21
2.1348589E+002
  0
LINE
  8
BEMASSUNG___2D
  6
CONTINUOUS
 62
3
 10
3.2134767E+002
 20
2.0528589E+002
 11
3.1764767E+002
 21
2.0528589E+002
  0
LINE
  8
BEMASSUNG___2D
  6
CONTINUOUS
 62
3
 10
3.2584767E+002
 20
2.0078589E+002
 11
3.2584767E+002
 21
1.9708589E+002
  0
LINE
  8
BEMASSUNG___2D
  6
CONTINUOUS
 62
3
 10
3.2884767E+002
 20
1.9128589E+002
 11
3.2284767E+002
 21
1.9128589E+002
  0
LINE
  8
BEMASSUNG___2D
  6
CONTINUOUS
 62
3
 10
3.2584767E+002
 20
1.9428589E+002
 11
3.2584767E+002
 21
1.8828589E+002
  0
LINE
  8
BEMASSUNG___2D
  6
CONTINUOUS
 62
3
 10
3.3034767E+002
 20
1.9128589E+002
 11
3.3404767E+002
 21
1.9128589E+002
  0
LINE
  8
BEMASSUNG___2D
  6
CONTINUOUS
 62
3
 10
3.2584767E+002
 20
1.9578589E+002
 11
3.2584767E+002
 21
1.9948589E+002
  0
LINE
  8
BEMASSUNG___2D
  6
CONTINUOUS
 62
3
 10
3.2134767E+002
 20
1.9128589E+002
 11
3.1764767E+002
 21
1.9128589E+002
  0
LINE
  8
BEMASSUNG___2D
  6
CONTINUOUS
 62
3
 10
3.2584767E+002
 20
1.8678589E+002
 11
3.2584767E+002
 21
1.8308589E+002
  0
DIMENSION
  8
BEMASSUNG___2D
  6
CONTINUOUS
 62
3
  2
*D209
  3
DSTYLE1
 10
3.2909767E+002
 20
1.7562376E+002
 11
3.1478006E+002
 21
1.7862476E+002
 70
129
 13
3.2259767E+002
 23
1.9128589E+002
 14
3.2909767E+002
 24
1.9128589E+002
 40
3.0
1001
ACAD
1000
DSTYLE
1002
{
1070
173
1070
0
1070
5
1000
_AH1
1002
}
  0
DIMENSION
  8
BEMASSUNG___2D
  6
CONTINUOUS
 62
3
  1
<>x90°
  2
*D210
  3
DSTYLE1
 10
3.3104767E+002
 20
1.6652579E+002
 11
3.1097793E+002
 21
1.6952679E+002
 70
129
 13
3.2064767E+002
 23
1.9128589E+002
 14
3.3104767E+002
 24
1.9128589E+002
 40
3.0
1001
ACAD
1000
DSTYLE
1002
{
1070
173
1070
0
1070
5
1000
_AH1
1002
}
  0
DIMENSION
  8
BEMASSUNG___2D
  6
CONTINUOUS
 62
3
  2
*D211
  3
DSTYLE1
 10
2.5058653E+002
 20
2.0678589E+002
 11
2.4758553E+002
 21
2.177973E+002
 70
128
 13
1.9334767E+002
 23
2.1078589E+002
 14
2.3284767E+002
 24
2.0678589E+002
 40
3.0
 50
2.7E+002
1001
ACAD
1000
DSTYLE
1002
{
1070
173
1070
0
1070
5
1000
_AH1
1002
}
  0
DIMENSION
  8
BEMASSUNG___2D
  6
CONTINUOUS
 62
3
  2
*D212
  3
DSTYLE1
 10
2.6686378E+002
 20
1.9478589E+002
 11
2.6386278E+002
 21
2.0173422E+002
 70
128
 13
2.3284767E+002
 23
2.0678589E+002
 14
2.3284767E+002
 24
1.9478589E+002
 40
3.0
 50
2.7E+002
1001
ACAD
1000
DSTYLE
1002
{
1070
173
1070
0
1070
5
1000
_AH1
1002
}
  0
DIMENSION
  8
BEMASSUNG___2D
  6
CONTINUOUS
 62
3
  2
*D213
  3
DSTYLE1
 10
3.0684767E+002
 20
2.2272075E+002
 11
2.6814626E+002
 21
2.2572175E+002
 70
128
 13
2.3284767E+002
 23
2.0678589E+002
 14
3.0684767E+002
 24
2.0678589E+002
 40
3.0
 50
0.0
1001
ACAD
1000
DSTYLE
1002
{
1070
173
1070
0
1070
5
1000
_AH1
1002
}
  0
DIMENSION
  8
BEMASSUNG___2D
  6
CONTINUOUS
 62
3
  2
*D214
  3
DSTYLE1
 10
2.3284767E+002
 20
2.2272075E+002
 11
2.0367979E+002
 21
2.2572175E+002
 70
128
 13
1.6884767E+002
 23
2.1807162E+002
 14
2.3284767E+002
 24
2.0678589E+002
 40
3.0
 50
0.0
1001
ACAD
1000
DSTYLE
1002
{
1070
173
1070
0
1070
5
1000
_AH1
1002
}
  0
DIMENSION
  8
BEMASSUNG___2D
  6
CONTINUOUS
 62
3
  2
*D216
  3
DSTYLE1
 10
1.6884767E+002
 20
2.2272075E+002
 11
1.1115648E+002
 21
2.2572175E+002
 70
128
 13
5.2847671E+001
 23
2.1078589E+002
 14
1.6884767E+002
 24
2.1807162E+002
 40
3.0
 50
0.0
1001
ACAD
1000
DSTYLE
1002
{
1070
173
1070
0
1070
5
1000
_AH1
1002
}
  0
DIMENSION
  8
BEMASSUNG___2D
  6
CONTINUOUS
 62
3
  2
*D217
  3
DSTYLE1
 10
3.2584767E+002
 20
1.5675506E+002
 11
1.9284767E+002
 21
1.5975606E+002
 70
128
 13
5.9847671E+001
 23
1.8308589E+002
 14
3.2584767E+002
 24
1.8308589E+002
 40
3.0
 50
0.0
1001
ACAD
1000
DSTYLE
1002
{
1070
173
1070
0
1070
5
1000
_AH1
1002
}
  0
DIMENSION
  8
BEMASSUNG___2D
  6
CONTINUOUS
 62
3
  2
*D218
  3
DSTYLE1
 10
5.9847671E+001
 20
1.5675506E+002
 11
5.5471152E+001
 21
1.5975606E+002
 70
128
 13
5.2847671E+001
 23
1.8578589E+002
 14
5.9847671E+001
 24
1.8308589E+002
 40
3.0
 50
0.0
1001
ACAD
1000
DSTYLE
1002
{
1070
173
1070
0
1070
5
1000
_AH1
1002
}
  0
DIMENSION
  8
BEMASSUNG___2D
  6
CONTINUOUS
 62
3
  2
*D219
  3
DSTYLE1
 10
3.3284767E+002
 20
1.4668886E+002
 11
1.9211438E+002
 21
1.4968986E+002
 70
128
 13
5.2847671E+001
 23
1.8578589E+002
 14
3.3284767E+002
 24
1.8578589E+002
 40
3.0
 50
0.0
1001
ACAD
1000
DSTYLE
1002
{
1070
173
1070
0
1070
5
1000
_AH1
1002
}
  0
DIMENSION
  8
BEMASSUNG___2D
  6
CONTINUOUS
 62
3
  2
*D220
  3
DSTYLE1
 10
4.2469123E+001
 20
2.0528589E+002
 11
3.9468123E+001
 21
2.1758233E+002
 70
128
 13
5.2847671E+001
 23
2.1078589E+002
 14
5.1647671E+001
 24
2.0528589E+002
 40
3.0
 50
2.7E+002
1001
ACAD
1000
DSTYLE
1002
{
1070
173
1070
0
1070
5
1000
_AH1
1002
}
  0
DIMENSION
  8
BEMASSUNG___2D
  6
CONTINUOUS
 62
3
  2
*D221
  3
DSTYLE1
 10
4.2469123E+001
 20
1.9128589E+002
 11
3.9468123E+001
 21
1.9940996E+002
 70
128
 13
5.1647671E+001
 23
2.0528589E+002
 14
5.1647671E+001
 24
1.9128589E+002
 40
3.0
 50
9.0E+001
1001
ACAD
1000
DSTYLE
1002
{
1070
173
1070
0
1070
5
1000
_AH1
1002
}
  0
INSERT
  2
EFFZF_SCHLIETAB
  8
100
 10
1.1184767E+002
 20
1.9828589E+002
 41
1.2
 43
1.2
 42
1.2
 50
9.0E+001
  0
DIMENSION
  8
BEMASSUNG___2D
  6
CONTINUOUS
 62
3
  2
*D823
  3
DSTYLE1
 10
1.5494923E+002
 20
1.9878589E+002
 11
1.5194823E+002
 21
2.044365E+002
 70
128
 13
1.4434767E+002
 23
2.1078589E+002
 14
1.4724767E+002
 24
1.9878589E+002
 40
3.0
 50
2.7E+002
1001
ACAD
1000
DSTYLE
1002
{
1070
173
1070
0
1070
5
1000
_AH1
1002
}
  0
INSERT
  2
M11
  8
100
 10
3.5808591E+002
 20
5.3843855E+001
  0
INSERT
  2
A3
  8
100
 10
0.0
 20
0.0
 66
1
  0
ATTRIB
  8
100
  6
CONTINUOUS
 62
6
 10
4.052125E+002
 20
3.3889971E+001
 40
4.0
  1
Schliessbl. 141.00-00-17
 41
7.0E-001
 72
1
 11
3.716125E+002
 21
3.3889971E+001
  2
1
 70
0
  0
ATTRIB
  8
100
  6
CONTINUOUS
 62
6
 10
3.898125E+002
 20
2.5889971E+001
 40
4.0
  1
Masszeichnung
 41
7.0E-001
 72
1
 11
3.716125E+002
 21
2.5889971E+001
  2
2
 70
0
  0
ATTRIB
  8
100
  6
CONTINUOUS
 62
6
 10
3.862625E+002
 20
1.1458917E+001
 40
4.0
  1
-------028-1000
 41
7.0E-001
 72
1
 11
3.652625E+002
 21
1.1458917E+001
  2
3
 70
0
  0
ATTRIB
  8
100
  6
CONTINUOUS
 62
6
 10
3.826625E+002
 20
4.96425E+001
 40
3.0
  1
 
 41
7.0E-001
 72
1
 11
3.816125E+002
 21
4.96425E+001
  2
4
 70
0
  0
ATTRIB
  8
100
  6
CONTINUOUS
 62
6
 10
3.826625E+002
 20
4.4355E+001
 40
3.0
  1
 
 41
7.0E-001
 72
1
 11
3.816125E+002
 21
4.4355E+001
  2
5
 70
0
  0
ATTRIB
  8
100
  6
CONTINUOUS
 62
6
 10
4.022625E+002
 20
5.51425E+001
 40
3.0
  1
54227
 41
7.0E-001
 72
1
 11
3.970125E+002
 21
5.51425E+001
  2
6
 70
0
  0
ATTRIB
  8
100
  6
CONTINUOUS
 62
6
 10
2.9298701E+002
 20
5.92056
 40
2.5
  1
 
 41
7.0E-001
  2
7
 70
0
  0
ATTRIB
  8
100
  6
CONTINUOUS
 62
6
 10
3.3616701E+002
 20
5.92056
 40
2.5
  1
 
 41
7.0E-001
  2
8
 70
0
  0
ATTRIB
  8
100
  6
CONTINUOUS
 62
6
 10
2.8667184E+002
 20
3.9889149E+001
 40
2.0
  1
 
 41
7.0E-001
  2
9
 70
0
  0
ATTRIB
  8
100
  6
CONTINUOUS
 62
6
 10
2.964125E+002
 20
3.54075E+001
 40
2.2
  1
19.03.04
 41
7.0E-001
  2
10
 70
0
  0
ATTRIB
  8
100
  6
CONTINUOUS
 62
6
 10
3.116525E+002
 20
3.54075E+001
 40
2.2
  1
Nolle
 41
7.0E-001
  2
11
 70
0
  0
ATTRIB
  8
100
  6
CONTINUOUS
 62
6
 10
2.964125E+002
 20
3.11775E+001
 40
2.2
  1
 
 41
7.0E-001
  2
12
 70
0
  0
ATTRIB
  8
100
  6
CONTINUOUS
 62
6
 10
3.116525E+002
 20
3.11775E+001
 40
2.2
  1
 
 41
7.0E-001
  2
13
 70
0
  0
ATTRIB
  8
100
  6
CONTINUOUS
 62
6
 10
2.964125E+002
 20
2.69475E+001
 40
2.2
  1
 
 41
7.0E-001
  2
14
 70
0
  0
ATTRIB
  8
100
  6
CONTINUOUS
 62
6
 10
3.116525E+002
 20
2.69475E+001
 40
2.2
  1
 
 41
7.0E-001
  2
15
 70
0
  0
ATTRIB
  8
100
  6
CONTINUOUS
 62
6
 10
2.964125E+002
 20
2.27175E+001
 40
2.2
  1
 
 41
7.0E-001
  2
16
 70
0
  0
ATTRIB
  8
100
  6
CONTINUOUS
 62
6
 10
4.0766572E+002
 20
4.0035527E+001
 40
1.0
  1
 
  2
17
 70
0
  0
ATTRIB
  8
100
  6
CONTINUOUS
 62
6
 10
4.0766572E+002
 20
3.8535527E+001
 40
1.0
  1
 
  2
18
 70
0
  0
ATTRIB
  8
100
  6
CONTINUOUS
 62
6
 10
4.0766572E+002
 20
3.7035527E+001
 40
1.0
  1
 
  2
19
 70
0
  0
ATTRIB
  8
100
  6
CONTINUOUS
 62
6
 10
4.0766572E+002
 20
3.5535527E+001
 40
1.0
  1
 
  2
20
 70
0
  0
ATTRIB
  8
100
  6
CONTINUOUS
 62
6
 10
2.329125E+002
 20
3.96375E+001
 40
2.0
  1
 
 41
7.0E-001
  2
21
 70
0
  0
ATTRIB
  8
100
  6
CONTINUOUS
 62
6
 10
2.405325E+002
 20
3.96375E+001
 40
2.0
  1
 
 41
7.0E-001
  2
22
 70
0
  0
ATTRIB
  8
100
  6
CONTINUOUS
 62
6
 10
2.659325E+002
 20
3.96375E+001
 40
2.0
  1
 
 41
7.0E-001
  2
23
 70
0
  0
ATTRIB
  8
100
  6
CONTINUOUS
 62
6
 10
2.781325E+002
 20
3.96375E+001
 40
2.0
  1
 
 41
7.0E-001
  2
24
 70
0
  0
ATTRIB
  8
100
  6
CONTINUOUS
 62
6
 10
2.329125E+002
 20
3.54075E+001
 40
2.0
  1
 
 41
7.0E-001
  2
25
 70
0
  0
ATTRIB
  8
100
  6
CONTINUOUS
 62
6
 10
2.405325E+002
 20
3.54075E+001
 40
2.0
  1
 
 41
7.0E-001
  2
26
 70
0
  0
ATTRIB
  8
100
  6
CONTINUOUS
 62
6
 10
2.659325E+002
 20
3.54075E+001
 40
2.0
  1
 
 41
7.0E-001
  2
27
 70
0
  0
ATTRIB
  8
100
  6
CONTINUOUS
 62
6
 10
2.781325E+002
 20
3.54075E+001
 40
2.0
  1
 
 41
7.0E-001
  2
28
 70
0
  0
ATTRIB
  8
100
  6
CONTINUOUS
 62
6
 10
2.329125E+002
 20
3.11775E+001
 40
2.0
  1
 
 41
7.0E-001
  2
29
 70
0
  0
ATTRIB
  8
100
  6
CONTINUOUS
 62
6
 10
2.405325E+002
 20
3.11775E+001
 40
2.0
  1
 
 41
7.0E-001
  2
30
 70
0
  0
ATTRIB
  8
100
  6
CONTINUOUS
 62
6
 10
2.659325E+002
 20
3.11775E+001
 40
2.0
  1
 
 41
7.0E-001
  2
31
 70
0
  0
ATTRIB
  8
100
  6
CONTINUOUS
 62
6
 10
2.781325E+002
 20
3.11775E+001
 40
2.0
  1
 
 41
7.0E-001
  2
32
 70
0
  0
ATTRIB
  8
100
  6
CONTINUOUS
 62
6
 10
2.329125E+002
 20
2.69475E+001
 40
2.0
  1
 
 41
7.0E-001
  2
33
 70
0
  0
ATTRIB
  8
100
  6
CONTINUOUS
 62
6
 10
2.405325E+002
 20
2.69475E+001
 40
2.0
  1
 
 41
7.0E-001
  2
34
 70
0
  0
ATTRIB
  8
100
  6
CONTINUOUS
 62
6
 10
2.659325E+002
 20
2.69475E+001
 40
2.0
  1
 
 41
7.0E-001
  2
35
 70
0
  0
ATTRIB
  8
100
  6
CONTINUOUS
 62
6
 10
2.781325E+002
 20
2.69475E+001
 40
2.0
  1
 
 41
7.0E-001
  2
36
 70
0
  0
ATTRIB
  8
100
  6
CONTINUOUS
 62
6
 10
2.329125E+002
 20
2.27175E+001
 40
2.0
  1
 
 41
7.0E-001
  2
37
 70
0
  0
ATTRIB
  8
100
  6
CONTINUOUS
 62
6
 10
2.405325E+002
 20
2.27175E+001
 40
2.0
  1
 
 41
7.0E-001
  2
38
 70
0
  0
ATTRIB
  8
100
  6
CONTINUOUS
 62
6
 10
2.659325E+002
 20
2.27175E+001
 40
2.0
  1
 
 41
7.0E-001
  2
39
 70
0
  0
ATTRIB
  8
100
  6
CONTINUOUS
 62
6
 10
2.781325E+002
 20
2.27175E+001
 40
2.0
  1
 
 41
7.0E-001
  2
40
 70
0
  0
ATTRIB
  8
100
  6
CONTINUOUS
 62
6
 10
2.329125E+002
 20
1.84875E+001
 40
2.0
  1
 
 41
7.0E-001
  2
41
 70
0
  0
ATTRIB
  8
100
  6
CONTINUOUS
 62
6
 10
2.405325E+002
 20
1.84875E+001
 40
2.0
  1
 
 41
7.0E-001
  2
42
 70
0
  0
ATTRIB
  8
100
  6
CONTINUOUS
 62
6
 10
2.659325E+002
 20
1.84875E+001
 40
2.0
  1
 
 41
7.0E-001
  2
43
 70
0
  0
ATTRIB
  8
100
  6
CONTINUOUS
 62
6
 10
2.781325E+002
 20
1.84875E+001
 40
2.0
  1
 
 41
7.0E-001
  2
44
 70
0
  0
ATTRIB
  8
100
  6
CONTINUOUS
 62
6
 10
2.329125E+002
 20
1.42575E+001
 40
2.0
  1
 
 41
7.0E-001
  2
45
 70
0
  0
ATTRIB
  8
100
  6
CONTINUOUS
 62
6
 10
2.405325E+002
 20
1.42575E+001
 40
2.0
  1
 
 41
7.0E-001
  2
46
 70
0
  0
ATTRIB
  8
100
  6
CONTINUOUS
 62
6
 10
2.659325E+002
 20
1.42575E+001
 40
2.0
  1
 
 41
7.0E-001
  2
47
 70
0
  0
ATTRIB
  8
100
  6
CONTINUOUS
 62
6
 10
2.781325E+002
 20
1.42575E+001
 40
2.0
  1
 
 41
7.0E-001
  2
48
 70
0
  0
ATTRIB
  8
100
  6
CONTINUOUS
 62
6
 10
2.329125E+002
 20
1.00275E+001
 40
2.0
  1
 
 41
7.0E-001
  2
49
 70
0
  0
ATTRIB
  8
100
  6
CONTINUOUS
 62
6
 10
2.405325E+002
 20
1.00275E+001
 40
2.0
  1
 
 41
7.0E-001
  2
50
 70
0
  0
ATTRIB
  8
100
  6
CONTINUOUS
 62
6
 10
2.659325E+002
 20
1.00275E+001
 40
2.0
  1
 
 41
7.0E-001
  2
51
 70
0
  0
ATTRIB
  8
100
  6
CONTINUOUS
 62
6
 10
2.781325E+002
 20
1.00275E+001
 40
2.0
  1
 
 41
7.0E-001
  2
52
 70
0
  0
SEQEND
  0
DIMENSION
  8
BEMASSUNG___2D
  6
CONTINUOUS
 62
3
  2
*D880
  3
DSTYLE1
 10
3.2477963E+001
 20
1.8578589E+002
 11
2.9476963E+001
 21
1.9938499E+002
 70
128
 13
5.2847671E+001
 23
2.1078589E+002
 14
5.2847671E+001
 24
1.8578589E+002
 40
3.0
 50
2.7E+002
1001
ACAD
1000
DSTYLE
1002
{
1070
173
1070
0
1070
5
1000
_AH1
1002
}
  0
ENDSEC
  0
EOF
