  0
SECTION
  2
HEADER
  9
$ACADVER
  1
AC1015
  9
$ACADMAINTVER
 70
    14
  9
$DWGCODEPAGE
  3
ANSI_1252
  9
$INSBASE
 10
0.0
 20
0.0
 30
0.0
  9
$EXTMIN
 10
35.10000000000002
 20
14.83594455833997
 30
0.0
  9
$EXTMAX
 10
914.904331846712
 20
610.7137534154542
 30
0.0
  9
$LIMMIN
 10
0.0
 20
0.0
  9
$LIMMAX
 10
500.0
 20
600.0
  9
$ORTHOMODE
 70
     1
  9
$REGENMODE
 70
     1
  9
$FILLMODE
 70
     1
  9
$QTEXTMODE
 70
     0
  9
$MIRRTEXT
 70
     1
  9
$LTSCALE
 40
1.0
  9
$ATTMODE
 70
     1
  9
$TEXTSIZE
 40
10.0
  9
$TRACEWID
 40
0.05
  9
$TEXTSTYLE
  7
ARIAL-STANDARD
  9
$CLAYER
  8
BEMASSUNG
  9
$CELTYPE
  6
BYLAYER
  9
$CECOLOR
 62
   256
  9
$CELTSCALE
 40
1.0
  9
$DISPSILH
 70
     0
  9
$DIMSCALE
 40
1.7
  9
$DIMASZ
 40
3.5
  9
$DIMEXO
 40
0.5
  9
$DIMDLI
 40
8.0
  9
$DIMRND
 40
0.0
  9
$DIMDLE
 40
0.0
  9
$DIMEXE
 40
1.3
  9
$DIMTP
 40
0.0
  9
$DIMTM
 40
0.0
  9
$DIMTXT
 40
3.5
  9
$DIMCEN
 40
1.5
  9
$DIMTSZ
 40
0.0
  9
$DIMTOL
 70
     0
  9
$DIMLIM
 70
     0
  9
$DIMTIH
 70
     0
  9
$DIMTOH
 70
     0
  9
$DIMSE1
 70
     0
  9
$DIMSE2
 70
     0
  9
$DIMTAD
 70
     1
  9
$DIMZIN
 70
     8
  9
$DIMBLK
  1

  9
$DIMASO
 70
     1
  9
$DIMSHO
 70
     1
  9
$DIMPOST
  1

  9
$DIMAPOST
  1

  9
$DIMALT
 70
     0
  9
$DIMALTD
 70
     2
  9
$DIMALTF
 40
25.39999999999999
  9
$DIMLFAC
 40
1.0
  9
$DIMTOFL
 70
     1
  9
$DIMTVP
 40
0.0
  9
$DIMTIX
 70
     1
  9
$DIMSOXD
 70
     0
  9
$DIMSAH
 70
     0
  9
$DIMBLK1
  1

  9
$DIMBLK2
  1

  9
$DIMSTYLE
  2
EPS
  9
$DIMCLRD
 70
     2
  9
$DIMCLRE
 70
     2
  9
$DIMCLRT
 70
     3
  9
$DIMTFAC
 40
0.5
  9
$DIMGAP
 40
1.0
  9
$DIMJUST
 70
     0
  9
$DIMSD1
 70
     0
  9
$DIMSD2
 70
     0
  9
$DIMTOLJ
 70
     1
  9
$DIMTZIN
 70
     8
  9
$DIMALTZ
 70
     8
  9
$DIMALTTZ
 70
     8
  9
$DIMUPT
 70
     0
  9
$DIMDEC
 70
     2
  9
$DIMTDEC
 70
     2
  9
$DIMALTU
 70
     2
  9
$DIMALTTD
 70
     2
  9
$DIMTXSTY
  7
NORM
  9
$DIMAUNIT
 70
     1
  9
$DIMADEC
 70
     0
  9
$DIMALTRND
 40
0.0
  9
$DIMAZIN
 70
     0
  9
$DIMDSEP
 70
    46
  9
$DIMATFIT
 70
     3
  9
$DIMFRAC
 70
     0
  9
$DIMLDRBLK
  1

  9
$DIMLUNIT
 70
     2
  9
$DIMLWD
 70
    -2
  9
$DIMLWE
 70
    -2
  9
$DIMTMOVE
 70
     2
  9
$LUNITS
 70
     2
  9
$LUPREC
 70
     4
  9
$SKETCHINC
 40
0.1
  9
$FILLETRAD
 40
0.0
  9
$AUNITS
 70
     0
  9
$AUPREC
 70
     0
  9
$MENU
  1
.
  9
$ELEVATION
 40
0.0
  9
$PELEVATION
 40
0.0
  9
$THICKNESS
 40
0.0
  9
$LIMCHECK
 70
     0
  9
$CHAMFERA
 40
0.5
  9
$CHAMFERB
 40
0.5
  9
$CHAMFERC
 40
1.0
  9
$CHAMFERD
 40
0.0
  9
$SKPOLY
 70
     0
  9
$TDCREATE
 40
2451229.388389212
  9
$TDUCREATE
 40
2451229.305055879
  9
$TDUPDATE
 40
2452919.309980729
  9
$TDUUPDATE
 40
2452919.226647396
  9
$TDINDWG
 40
0.0347737269
  9
$TDUSRTIMER
 40
0.0347737269
  9
$USRTIMER
 70
     1
  9
$ANGBASE
 50
0.0
  9
$ANGDIR
 70
     0
  9
$PDMODE
 70
     0
  9
$PDSIZE
 40
0.0
  9
$PLINEWID
 40
0.0
  9
$SPLFRAME
 70
     0
  9
$SPLINETYPE
 70
     6
  9
$SPLINESEGS
 70
     8
  9
$HANDSEED
  5
223
  9
$SURFTAB1
 70
     6
  9
$SURFTAB2
 70
     6
  9
$SURFTYPE
 70
     6
  9
$SURFU
 70
     6
  9
$SURFV
 70
     6
  9
$UCSBASE
  2

  9
$UCSNAME
  2

  9
$UCSORG
 10
0.0
 20
0.0
 30
0.0
  9
$UCSXDIR
 10
1.0
 20
0.0
 30
0.0
  9
$UCSYDIR
 10
0.0
 20
1.0
 30
0.0
  9
$UCSORTHOREF
  2

  9
$UCSORTHOVIEW
 70
     0
  9
$UCSORGTOP
 10
0.0
 20
0.0
 30
0.0
  9
$UCSORGBOTTOM
 10
0.0
 20
0.0
 30
0.0
  9
$UCSORGLEFT
 10
0.0
 20
0.0
 30
0.0
  9
$UCSORGRIGHT
 10
0.0
 20
0.0
 30
0.0
  9
$UCSORGFRONT
 10
0.0
 20
0.0
 30
0.0
  9
$UCSORGBACK
 10
0.0
 20
0.0
 30
0.0
  9
$PUCSBASE
  2

  9
$PUCSNAME
  2

  9
$PUCSORG
 10
0.0
 20
0.0
 30
0.0
  9
$PUCSXDIR
 10
1.0
 20
0.0
 30
0.0
  9
$PUCSYDIR
 10
0.0
 20
1.0
 30
0.0
  9
$PUCSORTHOREF
  2

  9
$PUCSORTHOVIEW
 70
     0
  9
$PUCSORGTOP
 10
0.0
 20
0.0
 30
0.0
  9
$PUCSORGBOTTOM
 10
0.0
 20
0.0
 30
0.0
  9
$PUCSORGLEFT
 10
0.0
 20
0.0
 30
0.0
  9
$PUCSORGRIGHT
 10
0.0
 20
0.0
 30
0.0
  9
$PUCSORGFRONT
 10
0.0
 20
0.0
 30
0.0
  9
$PUCSORGBACK
 10
0.0
 20
0.0
 30
0.0
  9
$USERI1
 70
     0
  9
$USERI2
 70
     0
  9
$USERI3
 70
     0
  9
$USERI4
 70
     0
  9
$USERI5
 70
     0
  9
$USERR1
 40
0.0
  9
$USERR2
 40
0.0
  9
$USERR3
 40
0.0
  9
$USERR4
 40
0.0
  9
$USERR5
 40
0.0
  9
$WORLDVIEW
 70
     1
  9
$SHADEDGE
 70
     3
  9
$SHADEDIF
 70
    70
  9
$TILEMODE
 70
     1
  9
$MAXACTVP
 70
    48
  9
$PINSBASE
 10
0.0
 20
0.0
 30
0.0
  9
$PLIMCHECK
 70
     0
  9
$PEXTMIN
 10
1.000000000000000E+20
 20
1.000000000000000E+20
 30
1.000000000000000E+20
  9
$PEXTMAX
 10
-1.000000000000000E+20
 20
-1.000000000000000E+20
 30
-1.000000000000000E+20
  9
$PLIMMIN
 10
0.0
 20
0.0
  9
$PLIMMAX
 10
12.0
 20
9.0
  9
$UNITMODE
 70
     0
  9
$VISRETAIN
 70
     1
  9
$PLINEGEN
 70
     0
  9
$PSLTSCALE
 70
     1
  9
$TREEDEPTH
 70
  3020
  9
$CMLSTYLE
  2
STANDARD
  9
$CMLJUST
 70
     0
  9
$CMLSCALE
 40
1.0
  9
$PROXYGRAPHICS
 70
     1
  9
$MEASUREMENT
 70
     1
  9
$CELWEIGHT
370
    -1
  9
$ENDCAPS
280
     0
  9
$JOINSTYLE
280
     0
  9
$LWDISPLAY
290
     0
  9
$INSUNITS
 70
     0
  9
$HYPERLINKBASE
  1

  9
$STYLESHEET
  1

  9
$XEDIT
290
     1
  9
$CEPSNTYPE
380
     0
  9
$PSTYLEMODE
290
     1
  9
$FINGERPRINTGUID
  2
{D6DA9D8D-AD21-4C23-B3AC-773C3686A581}
  9
$VERSIONGUID
  2
{C1F63D9C-FA3B-4FF6-BCFA-F0010ADD2FAC}
  9
$EXTNAMES
290
     1
  9
$PSVPSCALE
 40
0.0
  9
$OLESTARTUP
290
     0
  0
ENDSEC
  0
SECTION
  2
CLASSES
  0
CLASS
  1
XRECORD
  2
AcDbXrecord
  3
AutoCAD 2000
 90
    32768
280
     0
281
     0
  0
CLASS
  1
LWPOLYLINE
  2
AcDbPolyline
  3
AutoCAD 2000
 90
    32768
280
     0
281
     1
  0
CLASS
  1
HATCH
  2
AcDbHatch
  3
AutoCAD 2000
 90
    32768
280
     0
281
     1
  0
CLASS
  1
ACDBDICTIONARYWDFLT
  2
AcDbDictionaryWithDefault
  3
AutoCAD 2000
 90
        0
280
     0
281
     0
  0
CLASS
  1
ACDBPLACEHOLDER
  2
AcDbPlaceHolder
  3
AutoCAD 2000
 90
        0
280
     0
281
     0
  0
CLASS
  1
LAYOUT
  2
AcDbLayout
  3
AutoCAD 2000
 90
        0
280
     0
281
     0
  0
CLASS
  1
ACME_DOCUMENT
  2
AcMeDbDoc
  3
AcMeServices
 90
    32768
280
     0
281
     0
  0
CLASS
  1
AMGSETTINGSOBJ
  2
AmgSettingsObj
  3
"AcadM|Product Description: AutoCAD Mechanical 2000|Company: Autodesk"
 90
        0
280
     0
281
     0
  0
CLASS
  1
ACMESCOPE
  2
AcMeScope
  3
AcMeServices
 90
        0
280
     0
281
     0
  0
CLASS
  1
ACMECOMMANDHISTORY
  2
AcMeCommandHistory
  3
AcMeServices
 90
    32768
280
     0
281
     0
  0
CLASS
  1
ACIMSYSVARMAN
  2
AcImSysVarManager
  3
AcMeServices
 90
        0
280
     0
281
     0
  0
CLASS
  1
ACIMREALSYSVAR
  2
AcImRealSysVar
  3
AcMeServices
 90
    32768
280
     0
281
     0
  0
CLASS
  1
ACIMINTSYSVAR
  2
AcImIntSysVar
  3
AcMeServices
 90
    32768
280
     0
281
     0
  0
CLASS
  1
ACMEDRAWINGMAN
  2
AcMeDrawingMan
  3
AcMeServices
 90
    32768
280
     0
281
     0
  0
CLASS
  1
ACMEVIEW
  2
AcMeView
  3
AcMeServices
 90
    32768
280
     0
281
     0
  0
CLASS
  1
ACDBENTITYCACHE
  2
AcMeEntityCache
  3
AcMeServices
 90
    32768
280
     0
281
     0
  0
CLASS
  1
GSMANAGER
  2
AcMeGSManager
  3
AcMeServices
 90
    32768
280
     0
281
     0
  0
CLASS
  1
AMDTINTERNALREACTOR
  2
AmdtInternalReactor
  3
AcMeServices
 90
    32768
280
     0
281
     0
  0
CLASS
  1
ACMESTATEMGR
  2
AcMeStateMgr
  3
AcMeServices
 90
        0
280
     0
281
     0
  0
CLASS
  1
ACGREFMASTER
  2
AcGrefMaster
  3
AcAttribServices
 90
        0
280
     0
281
     0
  0
CLASS
  1
ACME_DATABASE
  2
AcMeDbDatabase
  3
AcMeServices
 90
    32768
280
     0
281
     0
  0
CLASS
  1
ACRFINSADJUSTERMGR
  2
AcRfInsAdjusterMgr
  3
AcMeServices
 90
    32768
280
     0
281
     0
  0
CLASS
  1
ACGREFACADMASTER
  2
AcGrefacadMaster
  3
AcGrefServices
 90
    32768
280
     0
281
     0
  0
CLASS
  1
AMIMASTER
  2
AmiMaster
  3
AmiServices
 90
    32768
280
     0
281
     0
  0
CLASS
  1
ACMDATADICTIONARY
  2
AcmDataDictionary
  3
"AcmSymBB|Product Description: AutoCAD Mechanical 2000|Company: Autodesk"
 90
    32768
280
     0
281
     0
  0
CLASS
  1
ACMDATAENTRYBLOCK
  2
AcmDataEntryBlock
  3
"AcmSymBB|Product Description: AutoCAD Mechanical 2000|Company: Autodesk"
 90
    32768
280
     0
281
     0
  0
CLASS
  1
ACIMSTRSYSVAR
  2
AcImStrSysVar
  3
AcMeServices
 90
        0
280
     0
281
     0
  0
CLASS
  1
ACMSTANDARDDIN
  2
AcmStandardDIN
  3
"Amdt_StdImp|Product Description: AutoCAD Mechanical 2000|Company: Autodesk"
 90
        0
280
     0
281
     0
  0
CLASS
  1
AMGOBJPROPCFG
  2
AmgObjPropCfg
  3
"AmgLay|Product Description: AutoCAD Mechanical 2000|Company: Autodesk"
 90
        1
280
     0
281
     0
  0
CLASS
  1
AMDTEDGESTANDARDDIN
  2
AmdtEdgeStdDIN
  3
"Amdt_StdImp|Product Description: AutoCAD Mechanical 2000|Company: Autodesk"
 90
        0
280
     0
281
     0
  0
CLASS
  1
ACMSURFSTANDARDDIN
  2
AcmSurfTextStdDIN
  3
"Amdt_StdImp|Product Description: AutoCAD Mechanical 2000|Company: Autodesk"
 90
        0
280
     0
281
     0
  0
CLASS
  1
ACMFCFSTANDARDDIN
  2
AcmFCFStdDIN
  3
"Amdt_StdImp|Product Description: AutoCAD Mechanical 2000|Company: Autodesk"
 90
        0
280
     0
281
     0
  0
CLASS
  1
ACMWELDSTANDARDDIN
  2
AcmWeldingStdDIN
  3
"Amdt_StdImp|Product Description: AutoCAD Mechanical 2000|Company: Autodesk"
 90
        0
280
     0
281
     0
  0
CLASS
  1
ACMIDSTANDARDDIN
  2
AcmIdStdDIN
  3
"Amdt_StdImp|Product Description: AutoCAD Mechanical 2000|Company: Autodesk"
 90
        0
280
     0
281
     0
  0
CLASS
  1
ACMDATUMSTANDARDDIN
  2
AcmDatumStdDIN
  3
"Amdt_StdImp|Product Description: AutoCAD Mechanical 2000|Company: Autodesk"
 90
        0
280
     0
281
     0
  0
CLASS
  1
ACMBOMSTANDARDDIN
  2
AcmBOMStdDIN
  3
"Amdt_StdImp|Product Description: AutoCAD Mechanical 2000|Company: Autodesk"
 90
        0
280
     0
281
     0
  0
CLASS
  1
ACMDETAILSTANDARDDIN
  2
AmdtDetailSymStdDIN
  3
"Amdt_StdImp|Product Description: AutoCAD Mechanical 2000|Company: Autodesk"
 90
        0
280
     0
281
     0
  0
CLASS
  1
ACMSECTIONSTANDARDDIN
  2
AmdtSectionSymStdDIN
  3
"Amdt_StdImp|Product Description: AutoCAD Mechanical 2000|Company: Autodesk"
 90
        0
280
     0
281
     0
  0
CLASS
  1
ACMCENTERLINESTANDARDDIN
  2
AmdtCenterLineStdDIN
  3
"Amdt_StdImp|Product Description: AutoCAD Mechanical 2000|Company: Autodesk"
 90
        0
280
     0
281
     0
  0
CLASS
  1
ACMNOTESTANDARDDIN
  2
AmdtNoteStdDIN
  3
"Amdt_StdImp|Product Description: AutoCAD Mechanical 2000|Company: Autodesk"
 90
        0
280
     0
281
     0
  0
CLASS
  1
ACAMGLAYSTD
  2
AcAmgLayStd
  3
"AcAmgLayStd|Product Description: AutoCAD Mechanical 2000|Company: Autodesk"
 90
        0
280
     0
281
     0
  0
CLASS
  1
ACAMGDIMSTD
  2
AcAmgDimStd
  3
"AcAmgDimStd|Product Description: AutoCAD Mechanical 2000|Company: Autodesk"
 90
        0
280
     0
281
     0
  0
CLASS
  1
ACAMGHOLECHARTSTDDIN
  2
AcAmgHoleChartStdDIN
  3
ACMSYMBB_MODULE_NAME
 90
        0
280
     0
281
     0
  0
CLASS
  1
ACAMGTITLESTD
  2
AcAmgTitleStd
  3
"TITLEAPP"
 90
        0
280
     0
281
     0
  0
CLASS
  1
ACAMGFILTERDAT
  2
AcAmgFilterDat
  3
"AcadM|Product Description: AutoCAD Mechanical 2000|Company: Autodesk"
 90
    32768
280
     0
281
     0
  0
CLASS
  1
LAYER_INDEX
  2
AcDbLayerIndex
  3
AutoCAD 2000
 90
    32768
280
     0
281
     0
  0
CLASS
  1
IDBUFFER
  2
AcDbIdBuffer
  3
AutoCAD 2000
 90
    32768
280
     0
281
     0
  0
CLASS
  1
DICTIONARYVAR
  2
AcDbDictionaryVar
  3
AutoCAD 2000
 90
        0
280
     0
281
     0
  0
ENDSEC
  0
SECTION
  2
TABLES
  0
TABLE
  2
VPORT
  5
1A
330
0
100
AcDbSymbolTable
 70
     1
  0
VPORT
  5
1B
330
1A
100
AcDbSymbolTableRecord
100
AcDbViewportTableRecord
  2
*Active
 70
     0
 10
0.0
 20
0.0
 11
1.0
 21
1.0
 12
472.5643384904487
 22
303.6852204152422
 13
0.0
 23
0.0
 14
10.0
 24
10.0
 15
10.0
 25
10.0
 16
0.0
 26
0.0
 36
1.0
 17
0.0
 27
0.0
 37
0.0
 40
609.5578166138027
 41
1.712406015037593
 42
50.0
 43
0.0
 44
0.0
 50
0.0
 51
0.0
 71
     0
 72
  5000
 73
     1
 74
     0
 75
     0
 76
     0
 77
     0
 78
     0
281
     0
 65
     1
110
0.0
120
0.0
130
0.0
111
1.0
121
0.0
131
0.0
112
0.0
122
1.0
132
0.0
 79
     0
146
0.0
  0
ENDTAB
  0
TABLE
  2
LTYPE
  5
15
330
0
100
AcDbSymbolTable
 70
    13
  0
LTYPE
  5
16
330
15
100
AcDbSymbolTableRecord
100
AcDbLinetypeTableRecord
  2
BYBLOCK
 70
     0
  3

 72
    65
 73
     0
 40
0.0
  0
LTYPE
  5
17
330
15
100
AcDbSymbolTableRecord
100
AcDbLinetypeTableRecord
  2
BYLAYER
 70
     0
  3

 72
    65
 73
     0
 40
0.0
  0
LTYPE
  5
9
330
15
100
AcDbSymbolTableRecord
100
AcDbLinetypeTableRecord
  2
CONTINUOUS
 70
     0
  3
Solid line
 72
    65
 73
     0
 40
0.0
  0
LTYPE
  5
118
330
15
100
AcDbSymbolTableRecord
100
AcDbLinetypeTableRecord
  2
STRICHPUNKT2
 70
     0
  3
Strichpunkt (.5x) _._._._._._._._._._._._._._._
 72
    65
 73
     4
 40
12.7
 49
6.349999999999999
 74
     0
 49
-3.174999999999999
 74
     0
 49
0.0
 74
     0
 49
-3.174999999999999
 74
     0
  0
LTYPE
  5
1FC
330
15
100
AcDbSymbolTableRecord
100
AcDbLinetypeTableRecord
  2
AM_ISO02W050
 70
     0
  3
__ __ __ __ __ __ __ __ __ __ __ __ __ __ __
 72
    65
 73
     2
 40
7.5
 49
6.0
 74
     0
 49
-1.5
 74
     0
  0
LTYPE
  5
20E
330
15
100
AcDbSymbolTableRecord
100
AcDbLinetypeTableRecord
  2
ACDINWELD
 70
     0
  3
_ _ _ _ _
 72
    65
 73
     2
 40
2.0
 49
2.0
 74
     0
 49
-1.0
 74
     0
  0
LTYPE
  5
211
330
15
100
AcDbSymbolTableRecord
100
AcDbLinetypeTableRecord
  2
ACDINTGB
 70
     0
  3
__ . . __ . .
 72
    65
 73
     6
 40
9.0
 49
4.0
 74
     0
 49
-1.0
 74
     0
 49
1.0
 74
     0
 49
-1.0
 74
     0
 49
1.0
 74
     0
 49
-1.0
 74
     0
  0
LTYPE
  5
212
330
15
100
AcDbSymbolTableRecord
100
AcDbLinetypeTableRecord
  2
ACDINTGL
 70
     0
  3
_ _ _ _ _
 72
    65
 73
     2
 40
3.0
 49
2.0
 74
     0
 49
-1.0
 74
     0
  0
LTYPE
  5
216
330
15
100
AcDbSymbolTableRecord
100
AcDbLinetypeTableRecord
  2
CENTER
 70
     0
  3
__ . __
 72
    65
 73
     4
 40
7.0
 49
4.0
 74
     0
 49
-1.0
 74
     0
 49
1.0
 74
     0
 49
-1.0
 74
     0
  0
LTYPE
  5
1F7
330
15
100
AcDbSymbolTableRecord
100
AcDbLinetypeTableRecord
  2
gen3
 70
     0
  3
-- -- -- -- -- -- -- -- -- -- -- -- -- -- --
 72
    65
 73
     2
 40
6.25
 49
4.75
 74
     0
 49
-1.5
 74
     0
  0
LTYPE
  5
1F8
330
15
100
AcDbSymbolTableRecord
100
AcDbLinetypeTableRecord
  2
gen7
 70
     0
  3
____ . ____ . ____ . ____ . ____ . ____ . ____
 72
    65
 73
     4
 40
13.75
 49
9.75
 74
     0
 49
-1.5
 74
     0
 49
1.0
 74
     0
 49
-1.5
 74
     0
  0
LTYPE
  5
1F9
330
15
100
AcDbSymbolTableRecord
100
AcDbLinetypeTableRecord
  2
gen3a
 70
     0
  3
 - - - - -
 72
    65
 73
     2
 40
3.125
 49
2.25
 74
     0
 49
-0.875
 74
     0
  0
LTYPE
  5
1FA
330
15
100
AcDbSymbolTableRecord
100
AcDbLinetypeTableRecord
  2
gen7a
 70
     0
  3
__ . __ . __
 72
    65
 73
     4
 40
6.875
 49
4.75
 74
     0
 49
-0.875
 74
     0
 49
0.375
 74
     0
 49
-0.875
 74
     0
  0
LTYPE
  5
1FB
330
15
100
AcDbSymbolTableRecord
100
AcDbLinetypeTableRecord
  2
gen4a
 70
     0
  3
_____ . . _____ . . _____ . . ____ .. ____
 72
    65
 73
     6
 40
16.25
 49
9.75
 74
     0
 49
-1.5
 74
     0
 49
1.0
 74
     0
 49
-1.5
 74
     0
 49
1.0
 74
     0
 49
-1.5
 74
     0
  0
LTYPE
  5
1FD
330
15
100
AcDbSymbolTableRecord
100
AcDbLinetypeTableRecord
  2
genzigzag
 70
     0
  3
/\/-/\/-/\/-/\/-/\/-/\/
 72
    65
 73
     2
 40
12.0001
 49
0.0001
 74
     4
 75
   135
340
1FE
 46
2.0
 50
0.0
 44
0.0
 45
0.0
 49
-12.0
 74
     0
  0
ENDTAB
  0
TABLE
  2
LAYER
  5
11
330
0
100
AcDbSymbolTable
 70
     6
  0
LAYER
  5
5
330
11
100
AcDbSymbolTableRecord
100
AcDbLayerTableRecord
  2
0
 70
     0
 62
     7
  6
CONTINUOUS
370
    -3
390
6
  0
LAYER
  5
46
330
11
100
AcDbSymbolTableRecord
100
AcDbLayerTableRecord
  2
UMRISS05
 70
     0
 62
     4
  6
CONTINUOUS
370
    -3
390
6
  0
LAYER
  5
23
330
11
100
AcDbSymbolTableRecord
100
AcDbLayerTableRecord
  2
BEMASSUNG
 70
     0
 62
     2
  6
CONTINUOUS
370
    -3
390
6
  0
LAYER
  5
117
330
11
100
AcDbSymbolTableRecord
100
AcDbLayerTableRecord
  2
ACHSEN
 70
     0
 62
    12
  6
STRICHPUNKT2
370
    -3
390
6
  0
LAYER
  5
33
330
11
100
AcDbSymbolTableRecord
100
AcDbLayerTableRecord
  2
DEFPOINTS
 70
     0
 62
     7
  6
CONTINUOUS
290
     0
370
    -3
390
6
  0
LAYER
  5
AC
330
11
100
AcDbSymbolTableRecord
100
AcDbLayerTableRecord
  2
BEMASSUNG-DEUTSCH
 70
     0
 62
     3
  6
CONTINUOUS
370
    -3
390
6
  0
ENDTAB
  0
TABLE
  2
STYLE
  5
12
330
0
100
AcDbSymbolTable
 70
     7
  0
STYLE
  5
13
330
12
100
AcDbSymbolTableRecord
100
AcDbTextStyleTableRecord
  2
STANDARD
 70
     0
 40
0.0
 41
1.0
 50
0.0
 71
     0
 42
10.0
  3
txt
  4

  0
STYLE
  5
25
330
12
100
AcDbSymbolTableRecord
100
AcDbTextStyleTableRecord
  2
ARIAL-STANDARD
 70
     0
 40
0.0
 41
1.0
 50
0.0
 71
     0
 42
10.0
  3
ARIAL.TTF
  4

1001
ACAD
1000
Arial
1071
       34
  0
STYLE
  5
24
330
12
100
AcDbSymbolTableRecord
100
AcDbTextStyleTableRecord
  2
NORM
 70
     0
 40
0.0
 41
1.0
 50
0.0
 71
     0
 42
2.399999999999999
  3
SIMPLEX
  4

  0
STYLE
  5
2A
330
12
100
AcDbSymbolTableRecord
100
AcDbTextStyleTableRecord
  2
ACA_NORM
 70
     0
 40
5.299999999999999
 41
0.7
 50
0.0
 71
     0
 42
0.2
  3
SIMPLEX.shx
  4

  0
STYLE
  5
208
330
12
100
AcDbSymbolTableRecord
100
AcDbTextStyleTableRecord
  2
ACDINTS
 70
     0
 40
1.0
 41
1.0
 50
0.0
 71
     0
 42
10.0
  3
isocp.shx
  4

  0
STYLE
  5
20C
330
12
100
AcDbSymbolTableRecord
100
AcDbTextStyleTableRecord
  2
ACDINGDT
 70
     0
 40
0.0
 41
1.0
 50
0.0
 71
     0
 42
10.0
  3
amgdt.shx
  4

  0
STYLE
  5
1FE
330
12
100
AcDbSymbolTableRecord
100
AcDbTextStyleTableRecord
  2

 70
     1
 40
0.0
 41
1.0
 50
0.0
 71
     0
 42
10.0
  3
genltshp.shx
  4

  0
ENDTAB
  0
TABLE
  2
VIEW
  5
18
330
0
100
AcDbSymbolTable
 70
     0
  0
ENDTAB
  0
TABLE
  2
UCS
  5
19
330
0
100
AcDbSymbolTable
 70
     0
  0
ENDTAB
  0
TABLE
  2
APPID
  5
1C
330
0
100
AcDbSymbolTable
 70
     1
  0
APPID
  5
1D
330
1C
100
AcDbSymbolTableRecord
100
AcDbRegAppTableRecord
  2
ACAD
 70
     0
  0
ENDTAB
  0
TABLE
  2
DIMSTYLE
  5
1E
330
0
100
AcDbSymbolTable
 70
     2
100
AcDbDimStyleTable
 71
     0
  0
DIMSTYLE
105
29
102
{ACAD_REACTORS
330
107
330
38
330
1E2
330
48
330
55
330
62
330
D7
330
E7
330
9C
330
CA
330
8F
330
82
330
F8
330
AB
330
13B
330
72
330
B9
330
12B
330
167
330
190
330
183
330
158
330
176
330
1A1
330
28
330
11B
330
1AE
102
}
330
1E
100
AcDbSymbolTableRecord
100
AcDbDimStyleTableRecord
  2
PROSPEKT
 70
     0
 40
1.7
 41
3.5
 42
0.5
 43
8.0
 44
1.3
 73
     0
 74
     0
 77
     1
 78
     8
140
3.5
141
1.5
143
25.39999999999999
146
0.5
147
1.0
172
     1
174
     1
176
     2
177
     2
178
     3
271
     2
272
     2
275
     1
279
     2
284
     8
285
     8
286
     8
340
2A
  0
DIMSTYLE
105
27
330
1E
100
AcDbSymbolTableRecord
100
AcDbDimStyleTableRecord
  2
EPS
 70
     0
 40
1.7
 41
3.5
 42
0.5
 43
8.0
 44
1.3
 73
     0
 74
     0
 77
     1
 78
     8
140
3.5
141
1.5
143
25.39999999999999
146
0.5
147
1.0
172
     1
174
     1
176
     2
177
     2
178
     3
271
     2
272
     2
275
     1
279
     2
284
     8
285
     8
286
     8
340
24
  0
ENDTAB
  0
TABLE
  2
BLOCK_RECORD
  5
1
330
0
100
AcDbSymbolTable
 70
    27
  0
BLOCK_RECORD
  5
2
102
{ACAD_XDICTIONARY
360
3
102
}
330
1
100
AcDbSymbolTableRecord
100
AcDbBlockTableRecord
  2
*MODEL_SPACE
340
B
  0
BLOCK_RECORD
  5
D
330
1
100
AcDbSymbolTableRecord
100
AcDbBlockTableRecord
  2
*PAPER_SPACE
340
10
  0
BLOCK_RECORD
  5
2B
330
1
100
AcDbSymbolTableRecord
100
AcDbBlockTableRecord
  2
*D0
340
0
  0
BLOCK_RECORD
  5
177
330
1
100
AcDbSymbolTableRecord
100
AcDbBlockTableRecord
  2
*D1
340
0
  0
BLOCK_RECORD
  5
184
330
1
100
AcDbSymbolTableRecord
100
AcDbBlockTableRecord
  2
*D2
340
0
  0
BLOCK_RECORD
  5
1E3
330
1
100
AcDbSymbolTableRecord
100
AcDbBlockTableRecord
  2
*D3
340
0
  0
BLOCK_RECORD
  5
D8
330
1
100
AcDbSymbolTableRecord
100
AcDbBlockTableRecord
  2
*D4
340
0
  0
BLOCK_RECORD
  5
E8
330
1
100
AcDbSymbolTableRecord
100
AcDbBlockTableRecord
  2
*D5
340
0
  0
BLOCK_RECORD
  5
73
330
1
100
AcDbSymbolTableRecord
100
AcDbBlockTableRecord
  2
*D6
340
0
  0
BLOCK_RECORD
  5
F9
330
1
100
AcDbSymbolTableRecord
100
AcDbBlockTableRecord
  2
*D7
340
0
  0
BLOCK_RECORD
  5
63
330
1
100
AcDbSymbolTableRecord
100
AcDbBlockTableRecord
  2
*D8
340
0
  0
BLOCK_RECORD
  5
56
330
1
100
AcDbSymbolTableRecord
100
AcDbBlockTableRecord
  2
*D9
340
0
  0
BLOCK_RECORD
  5
BA
330
1
100
AcDbSymbolTableRecord
100
AcDbBlockTableRecord
  2
*D10
340
0
  0
BLOCK_RECORD
  5
AD
330
1
100
AcDbSymbolTableRecord
100
AcDbBlockTableRecord
  2
*D11
340
0
  0
BLOCK_RECORD
  5
9D
330
1
100
AcDbSymbolTableRecord
100
AcDbBlockTableRecord
  2
*D12
340
0
  0
BLOCK_RECORD
  5
90
330
1
100
AcDbSymbolTableRecord
100
AcDbBlockTableRecord
  2
*D13
340
0
  0
BLOCK_RECORD
  5
CB
330
1
100
AcDbSymbolTableRecord
100
AcDbBlockTableRecord
  2
*D14
340
0
  0
BLOCK_RECORD
  5
83
330
1
100
AcDbSymbolTableRecord
100
AcDbBlockTableRecord
  2
*D15
340
0
  0
BLOCK_RECORD
  5
13C
330
1
100
AcDbSymbolTableRecord
100
AcDbBlockTableRecord
  2
*D16
340
0
  0
BLOCK_RECORD
  5
12C
330
1
100
AcDbSymbolTableRecord
100
AcDbBlockTableRecord
  2
*D17
340
0
  0
BLOCK_RECORD
  5
168
330
1
100
AcDbSymbolTableRecord
100
AcDbBlockTableRecord
  2
*D18
340
0
  0
BLOCK_RECORD
  5
49
330
1
100
AcDbSymbolTableRecord
100
AcDbBlockTableRecord
  2
*D19
340
0
  0
BLOCK_RECORD
  5
191
330
1
100
AcDbSymbolTableRecord
100
AcDbBlockTableRecord
  2
*D20
340
0
  0
BLOCK_RECORD
  5
159
330
1
100
AcDbSymbolTableRecord
100
AcDbBlockTableRecord
  2
*D21
340
0
  0
BLOCK_RECORD
  5
1AF
330
1
100
AcDbSymbolTableRecord
100
AcDbBlockTableRecord
  2
*D22
340
0
  0
BLOCK_RECORD
  5
1A2
330
1
100
AcDbSymbolTableRecord
100
AcDbBlockTableRecord
  2
*D23
340
0
  0
BLOCK_RECORD
  5
39
330
1
100
AcDbSymbolTableRecord
100
AcDbBlockTableRecord
  2
*D24
340
0
  0
BLOCK_RECORD
  5
108
330
1
100
AcDbSymbolTableRecord
100
AcDbBlockTableRecord
  2
*D25
340
0
  0
BLOCK_RECORD
  5
11C
330
1
100
AcDbSymbolTableRecord
100
AcDbBlockTableRecord
  2
*D26
340
0
  0
ENDTAB
  0
ENDSEC
  0
SECTION
  2
BLOCKS
  0
BLOCK
  5
4
330
2
100
AcDbEntity
  8
0
100
AcDbBlockBegin
  2
*MODEL_SPACE
 70
     0
 10
0.0
 20
0.0
 30
0.0
  3
*MODEL_SPACE
  1

  0
ENDBLK
  5
A
330
2
100
AcDbEntity
  8
0
100
AcDbBlockEnd
  0
BLOCK
  5
E
330
D
100
AcDbEntity
 67
     1
  8
0
100
AcDbBlockBegin
  2
*PAPER_SPACE
 70
     0
 10
0.0
 20
0.0
 30
0.0
  3
*PAPER_SPACE
  1

  0
ENDBLK
  5
F
330
D
100
AcDbEntity
 67
     1
  8
0
100
AcDbBlockEnd
  0
BLOCK
  5
36
330
2B
100
AcDbEntity
  8
0
100
AcDbBlockBegin
  2
*D0
 70
     1
 10
0.0
 20
0.0
 30
0.0
  3
*D0
  1

  0
LINE
  5
2C
330
2B
100
AcDbEntity
  8
0
  6
ByBlock
 62
     2
100
AcDbLine
 10
458.0200766615502
 20
206.9950130996768
 30
0.0
 11
478.8837330599035
 21
206.9950130996768
 31
0.0
  0
LINE
  5
2D
330
2B
100
AcDbEntity
  8
0
  6
ByBlock
 62
     2
100
AcDbLine
 10
458.0200766615502
 20
426.9950130996768
 30
0.0
 11
478.8837330599035
 21
426.9950130996767
 31
0.0
  0
LINE
  5
2E
330
2B
100
AcDbEntity
  8
0
  6
ByBlock
 62
     2
100
AcDbLine
 10
476.6737330599035
 20
212.9450130996767
 30
0.0
 11
476.6737330599035
 21
421.0450130996767
 31
0.0
  0
SOLID
  5
2F
330
2B
100
AcDbEntity
  8
0
  6
ByBlock
 62
     2
100
AcDbTrace
 10
475.6820663932368
 20
212.9450130996767
 30
0.0
 11
477.6653997265701
 21
212.9450130996767
 31
0.0
 12
476.6737330599035
 22
206.9950130996768
 32
0.0
 13
476.6737330599035
 23
206.9950130996768
 33
0.0
  0
SOLID
  5
30
330
2B
100
AcDbEntity
  8
0
  6
ByBlock
 62
     2
100
AcDbTrace
 10
475.6820663932368
 20
421.0450130996767
 30
0.0
 11
477.6653997265701
 21
421.0450130996767
 31
0.0
 12
476.6737330599035
 22
426.9950130996767
 32
0.0
 13
476.6737330599035
 23
426.9950130996767
 33
0.0
  0
MTEXT
  5
31
330
2B
100
AcDbEntity
  8
0
  6
ByBlock
 62
     3
100
AcDbMText
 10
472.3237330599034
 20
316.9950130996767
 30
0.0
 40
5.299999999999999
 41
0.0
 71
     5
 72
     1
  1
\A1;220
  7
ACA_NORM
 11
0.0000000000000001
 21
1.0
 31
0.0
 73
     1
 44
1.0
  0
POINT
  5
32
330
2B
100
AcDbEntity
  8
DEFPOINTS
  6
ByBlock
 62
     0
100
AcDbPoint
 10
457.1700766615501
 20
206.9950130996768
 30
0.0
  0
POINT
  5
34
330
2B
100
AcDbEntity
  8
DEFPOINTS
  6
ByBlock
 62
     0
100
AcDbPoint
 10
457.1700766615501
 20
426.9950130996768
 30
0.0
  0
POINT
  5
35
330
2B
100
AcDbEntity
  8
DEFPOINTS
  6
ByBlock
 62
     0
100
AcDbPoint
 10
476.6737330599035
 20
426.9950130996767
 30
0.0
  0
ENDBLK
  5
37
330
2B
100
AcDbEntity
  8
0
100
AcDbBlockEnd
  0
BLOCK
  5
181
330
177
100
AcDbEntity
  8
0
100
AcDbBlockBegin
  2
*D1
 70
     1
 10
0.0
 20
0.0
 30
0.0
  3
*D1
  1

  0
LINE
  5
178
330
177
100
AcDbEntity
  8
0
  6
ByBlock
 62
     2
100
AcDbLine
 10
312.2046701949713
 20
426.9950130996768
 30
0.0
 11
290.085709770447
 21
426.9950130996768
 31
0.0
  0
LINE
  5
179
330
177
100
AcDbEntity
  8
0
  6
ByBlock
 62
     2
100
AcDbLine
 10
315.2046701949712
 20
399.9950130996768
 30
0.0
 11
290.085709770447
 21
399.9950130996768
 31
0.0
  0
LINE
  5
17A
330
177
100
AcDbEntity
  8
0
  6
ByBlock
 62
     2
100
AcDbLine
 10
292.295709770447
 20
421.0450130996768
 30
0.0
 11
292.295709770447
 21
405.9450130996768
 31
0.0
  0
SOLID
  5
17B
330
177
100
AcDbEntity
  8
0
  6
ByBlock
 62
     2
100
AcDbTrace
 10
291.3040431037803
 20
421.0450130996768
 30
0.0
 11
293.2873764371137
 21
421.0450130996768
 31
0.0
 12
292.295709770447
 22
426.9950130996768
 32
0.0
 13
292.295709770447
 23
426.9950130996768
 33
0.0
  0
SOLID
  5
17C
330
177
100
AcDbEntity
  8
0
  6
ByBlock
 62
     2
100
AcDbTrace
 10
291.3040431037803
 20
405.9450130996768
 30
0.0
 11
293.2873764371137
 21
405.9450130996768
 31
0.0
 12
292.295709770447
 22
399.9950130996768
 32
0.0
 13
292.295709770447
 23
399.9950130996768
 33
0.0
  0
MTEXT
  5
17D
330
177
100
AcDbEntity
  8
0
  6
ByBlock
 62
     3
100
AcDbMText
 10
287.945709770447
 20
413.4950130996768
 30
0.0
 40
5.299999999999999
 41
0.0
 71
     5
 72
     1
  1
\A1;27
  7
ACA_NORM
 11
0.0000000000000001
 21
1.0
 31
0.0
 73
     1
 44
1.0
  0
POINT
  5
17E
330
177
100
AcDbEntity
  8
DEFPOINTS
  6
ByBlock
 62
     0
100
AcDbPoint
 10
313.0546701949713
 20
426.9950130996768
 30
0.0
  0
POINT
  5
17F
330
177
100
AcDbEntity
  8
DEFPOINTS
  6
ByBlock
 62
     0
100
AcDbPoint
 10
316.0546701949713
 20
399.9950130996768
 30
0.0
  0
POINT
  5
180
330
177
100
AcDbEntity
  8
DEFPOINTS
  6
ByBlock
 62
     0
100
AcDbPoint
 10
292.295709770447
 20
399.9950130996768
 30
0.0
  0
ENDBLK
  5
182
330
177
100
AcDbEntity
  8
0
100
AcDbBlockEnd
  0
BLOCK
  5
18E
330
184
100
AcDbEntity
  8
0
100
AcDbBlockBegin
  2
*D2
 70
     1
 10
0.0
 20
0.0
 30
0.0
  3
*D2
  1

  0
LINE
  5
185
330
184
100
AcDbEntity
  8
0
  6
ByBlock
 62
     2
100
AcDbLine
 10
312.2046701949713
 20
426.9950130996768
 30
0.0
 11
271.8519806060661
 21
426.9950130996768
 31
0.0
  0
LINE
  5
186
330
184
100
AcDbEntity
  8
0
  6
ByBlock
 62
     2
100
AcDbLine
 10
302.2046701949713
 20
387.9950130996768
 30
0.0
 11
271.8519806060661
 21
387.9950130996768
 31
0.0
  0
LINE
  5
187
330
184
100
AcDbEntity
  8
0
  6
ByBlock
 62
     2
100
AcDbLine
 10
274.061980606066
 20
421.0450130996768
 30
0.0
 11
274.061980606066
 21
393.9450130996767
 31
0.0
  0
SOLID
  5
188
330
184
100
AcDbEntity
  8
0
  6
ByBlock
 62
     2
100
AcDbTrace
 10
273.0703139393994
 20
421.0450130996768
 30
0.0
 11
275.0536472727327
 21
421.0450130996768
 31
0.0
 12
274.061980606066
 22
426.9950130996768
 32
0.0
 13
274.061980606066
 23
426.9950130996768
 33
0.0
  0
SOLID
  5
189
330
184
100
AcDbEntity
  8
0
  6
ByBlock
 62
     2
100
AcDbTrace
 10
273.0703139393994
 20
393.9450130996767
 30
0.0
 11
275.0536472727327
 21
393.9450130996767
 31
0.0
 12
274.061980606066
 22
387.9950130996768
 32
0.0
 13
274.061980606066
 23
387.9950130996768
 33
0.0
  0
MTEXT
  5
18A
330
184
100
AcDbEntity
  8
0
  6
ByBlock
 62
     3
100
AcDbMText
 10
269.711980606066
 20
407.4950130996768
 30
0.0
 40
5.299999999999999
 41
0.0
 71
     5
 72
     1
  1
\A1;39
  7
ACA_NORM
 11
0.0000000000000001
 21
1.0
 31
0.0
 73
     1
 44
1.0
  0
POINT
  5
18B
330
184
100
AcDbEntity
  8
DEFPOINTS
  6
ByBlock
 62
     0
100
AcDbPoint
 10
313.0546701949713
 20
426.9950130996768
 30
0.0
  0
POINT
  5
18C
330
184
100
AcDbEntity
  8
DEFPOINTS
  6
ByBlock
 62
     0
100
AcDbPoint
 10
303.0546701949713
 20
387.9950130996768
 30
0.0
  0
POINT
  5
18D
330
184
100
AcDbEntity
  8
DEFPOINTS
  6
ByBlock
 62
     0
100
AcDbPoint
 10
274.061980606066
 20
387.9950130996768
 30
0.0
  0
ENDBLK
  5
18F
330
184
100
AcDbEntity
  8
0
100
AcDbBlockEnd
  0
BLOCK
  5
1EF
330
1E3
100
AcDbEntity
  8
0
100
AcDbBlockBegin
  2
*D3
 70
     1
 10
0.0
 20
0.0
 30
0.0
  3
*D3
  1

  0
LINE
  5
1E4
330
1E3
100
AcDbEntity
  8
0
  6
ByBlock
 62
     2
100
AcDbLine
 10
434.3200766615502
 20
426.9950130996768
 30
0.0
 11
419.5457228893756
 21
426.9950130996768
 31
0.0
  0
LINE
  5
1E5
330
1E3
100
AcDbEntity
  8
0
  6
ByBlock
 62
     2
100
AcDbLine
 10
437.3700766615503
 20
416.9950130996763
 30
0.0
 11
419.5457228893756
 21
416.9950130996763
 31
0.0
  0
LINE
  5
1E6
330
1E3
100
AcDbEntity
  8
0
  6
ByBlock
 62
     2
100
AcDbLine
 10
421.7557228893756
 20
432.9450130996768
 30
0.0
 11
421.7557228893756
 21
438.8950130996768
 31
0.0
  0
LINE
  5
1E7
330
1E3
100
AcDbEntity
  8
0
  6
ByBlock
 62
     2
100
AcDbLine
 10
421.7557228893756
 20
411.0450130996763
 30
0.0
 11
421.7557228893756
 21
405.0950130996763
 31
0.0
  0
LINE
  5
1E8
330
1E3
100
AcDbEntity
  8
0
  6
ByBlock
 62
     2
100
AcDbLine
 10
421.7557228893756
 20
426.9950130996768
 30
0.0
 11
421.7557228893756
 21
416.9950130996763
 31
0.0
  0
SOLID
  5
1E9
330
1E3
100
AcDbEntity
  8
0
  6
ByBlock
 62
     2
100
AcDbTrace
 10
420.7640562227089
 20
432.9450130996768
 30
0.0
 11
422.7473895560422
 21
432.9450130996768
 31
0.0
 12
421.7557228893756
 22
426.9950130996768
 32
0.0
 13
421.7557228893756
 23
426.9950130996768
 33
0.0
  0
SOLID
  5
1EA
330
1E3
100
AcDbEntity
  8
0
  6
ByBlock
 62
     2
100
AcDbTrace
 10
420.7640562227089
 20
411.0450130996763
 30
0.0
 11
422.7473895560422
 21
411.0450130996763
 31
0.0
 12
421.7557228893756
 22
416.9950130996763
 32
0.0
 13
421.7557228893756
 23
416.9950130996763
 33
0.0
  0
MTEXT
  5
1EB
330
1E3
100
AcDbEntity
  8
0
  6
ByBlock
 62
     3
100
AcDbMText
 10
417.4057228893756
 20
421.9950130996766
 30
0.0
 40
5.299999999999999
 41
0.0
 71
     5
 72
     1
  1
\A1;10
  7
ACA_NORM
 11
0.0000000000000001
 21
1.0
 31
0.0
 73
     1
 44
1.0
  0
POINT
  5
1EC
330
1E3
100
AcDbEntity
  8
DEFPOINTS
  6
ByBlock
 62
     0
100
AcDbPoint
 10
435.1700766615501
 20
426.9950130996768
 30
0.0
  0
POINT
  5
1ED
330
1E3
100
AcDbEntity
  8
DEFPOINTS
  6
ByBlock
 62
     0
100
AcDbPoint
 10
438.2200766615503
 20
416.9950130996763
 30
0.0
  0
POINT
  5
1EE
330
1E3
100
AcDbEntity
  8
DEFPOINTS
  6
ByBlock
 62
     0
100
AcDbPoint
 10
421.7557228893756
 20
416.9950130996763
 30
0.0
  0
ENDBLK
  5
1F0
330
1E3
100
AcDbEntity
  8
0
100
AcDbBlockEnd
  0
BLOCK
  5
E4
330
D8
100
AcDbEntity
  8
0
100
AcDbBlockBegin
  2
*D4
 70
     1
 10
0.0
 20
0.0
 30
0.0
  3
*D4
  1

  0
LINE
  5
D9
330
D8
100
AcDbEntity
  8
0
  6
ByBlock
 62
     2
100
AcDbLine
 10
312.2046701949713
 20
126.9110058969681
 30
0.0
 11
274.4654543133202
 21
126.9110058969681
 31
0.0
  0
LINE
  5
DA
330
D8
100
AcDbEntity
  8
0
  6
ByBlock
 62
     2
100
AcDbLine
 10
302.2046701949713
 20
139.9110058969681
 30
0.0
 11
274.4654543133202
 21
139.9110058969681
 31
0.0
  0
LINE
  5
DB
330
D8
100
AcDbEntity
  8
0
  6
ByBlock
 62
     2
100
AcDbLine
 10
276.6754543133202
 20
120.9610058969681
 30
0.0
 11
276.6754543133202
 21
115.0110058969681
 31
0.0
  0
LINE
  5
DC
330
D8
100
AcDbEntity
  8
0
  6
ByBlock
 62
     2
100
AcDbLine
 10
276.6754543133202
 20
145.8610058969681
 30
0.0
 11
276.6754543133202
 21
151.8110058969681
 31
0.0
  0
LINE
  5
DD
330
D8
100
AcDbEntity
  8
0
  6
ByBlock
 62
     2
100
AcDbLine
 10
276.6754543133202
 20
126.9110058969681
 30
0.0
 11
276.6754543133202
 21
139.9110058969681
 31
0.0
  0
SOLID
  5
DE
330
D8
100
AcDbEntity
  8
0
  6
ByBlock
 62
     2
100
AcDbTrace
 10
275.6837876466535
 20
120.9610058969681
 30
0.0
 11
277.6671209799868
 21
120.9610058969681
 31
0.0
 12
276.6754543133202
 22
126.9110058969681
 32
0.0
 13
276.6754543133202
 23
126.9110058969681
 33
0.0
  0
SOLID
  5
DF
330
D8
100
AcDbEntity
  8
0
  6
ByBlock
 62
     2
100
AcDbTrace
 10
275.6837876466535
 20
145.8610058969681
 30
0.0
 11
277.6671209799868
 21
145.8610058969681
 31
0.0
 12
276.6754543133202
 22
139.9110058969681
 32
0.0
 13
276.6754543133202
 23
139.9110058969681
 33
0.0
  0
MTEXT
  5
E0
330
D8
100
AcDbEntity
  8
0
  6
ByBlock
 62
     3
100
AcDbMText
 10
272.3254543133201
 20
133.4110058969681
 30
0.0
 40
5.299999999999999
 41
0.0
 71
     5
 72
     1
  1
\A1;13
  7
ACA_NORM
 11
0.0000000000000001
 21
1.0
 31
0.0
 73
     1
 44
1.0
  0
POINT
  5
E1
330
D8
100
AcDbEntity
  8
DEFPOINTS
  6
ByBlock
 62
     0
100
AcDbPoint
 10
313.0546701949713
 20
126.9110058969681
 30
0.0
  0
POINT
  5
E2
330
D8
100
AcDbEntity
  8
DEFPOINTS
  6
ByBlock
 62
     0
100
AcDbPoint
 10
303.0546701949713
 20
139.9110058969681
 30
0.0
  0
POINT
  5
E3
330
D8
100
AcDbEntity
  8
DEFPOINTS
  6
ByBlock
 62
     0
100
AcDbPoint
 10
276.6754543133202
 20
139.9110058969681
 30
0.0
  0
ENDBLK
  5
E5
330
D8
100
AcDbEntity
  8
0
100
AcDbBlockEnd
  0
BLOCK
  5
F4
330
E8
100
AcDbEntity
  8
0
100
AcDbBlockBegin
  2
*D5
 70
     1
 10
0.0
 20
0.0
 30
0.0
  3
*D5
  1

  0
LINE
  5
E9
330
E8
100
AcDbEntity
  8
0
  6
ByBlock
 62
     2
100
AcDbLine
 10
301.2046701949722
 20
128.9110058969656
 30
0.0
 11
286.2063761393886
 21
128.9110058969656
 31
0.0
  0
LINE
  5
EA
330
E8
100
AcDbEntity
  8
0
  6
ByBlock
 62
     2
100
AcDbLine
 10
301.2046701949722
 20
137.9110058969697
 30
0.0
 11
286.2063761393886
 21
137.9110058969697
 31
0.0
  0
LINE
  5
EB
330
E8
100
AcDbEntity
  8
0
  6
ByBlock
 62
     2
100
AcDbLine
 10
288.4163761393886
 20
122.9610058969656
 30
0.0
 11
288.4163761393886
 21
117.0110058969656
 31
0.0
  0
LINE
  5
EC
330
E8
100
AcDbEntity
  8
0
  6
ByBlock
 62
     2
100
AcDbLine
 10
288.4163761393886
 20
143.8610058969697
 30
0.0
 11
288.4163761393886
 21
149.8110058969697
 31
0.0
  0
LINE
  5
ED
330
E8
100
AcDbEntity
  8
0
  6
ByBlock
 62
     2
100
AcDbLine
 10
288.4163761393886
 20
128.9110058969656
 30
0.0
 11
288.4163761393886
 21
137.9110058969697
 31
0.0
  0
SOLID
  5
EE
330
E8
100
AcDbEntity
  8
0
  6
ByBlock
 62
     2
100
AcDbTrace
 10
287.4247094727219
 20
122.9610058969656
 30
0.0
 11
289.4080428060552
 21
122.9610058969656
 31
0.0
 12
288.4163761393886
 22
128.9110058969656
 32
0.0
 13
288.4163761393886
 23
128.9110058969656
 33
0.0
  0
SOLID
  5
EF
330
E8
100
AcDbEntity
  8
0
  6
ByBlock
 62
     2
100
AcDbTrace
 10
287.4247094727219
 20
143.8610058969697
 30
0.0
 11
289.4080428060552
 21
143.8610058969697
 31
0.0
 12
288.4163761393886
 22
137.9110058969697
 32
0.0
 13
288.4163761393886
 23
137.9110058969697
 33
0.0
  0
MTEXT
  5
F0
330
E8
100
AcDbEntity
  8
0
  6
ByBlock
 62
     3
100
AcDbMText
 10
284.0663761393885
 20
133.4110058969677
 30
0.0
 40
5.299999999999999
 41
0.0
 71
     5
 72
     1
  1
\A1;9
  7
ACA_NORM
 11
0.0000000000000001
 21
1.0
 31
0.0
 73
     1
 44
1.0
  0
POINT
  5
F1
330
E8
100
AcDbEntity
  8
DEFPOINTS
  6
ByBlock
 62
     0
100
AcDbPoint
 10
302.0546701949722
 20
128.9110058969656
 30
0.0
  0
POINT
  5
F2
330
E8
100
AcDbEntity
  8
DEFPOINTS
  6
ByBlock
 62
     0
100
AcDbPoint
 10
302.0546701949722
 20
137.9110058969697
 30
0.0
  0
POINT
  5
F3
330
E8
100
AcDbEntity
  8
DEFPOINTS
  6
ByBlock
 62
     0
100
AcDbPoint
 10
288.4163761393886
 20
137.9110058969697
 30
0.0
  0
ENDBLK
  5
F5
330
E8
100
AcDbEntity
  8
0
100
AcDbBlockEnd
  0
BLOCK
  5
80
330
73
100
AcDbEntity
  8
0
100
AcDbBlockBegin
  2
*D6
 70
     1
 10
0.0
 20
0.0
 30
0.0
  3
*D6
  1

  0
LINE
  5
74
330
73
100
AcDbEntity
  8
0
  6
ByBlock
 62
     2
100
AcDbLine
 10
354.4046701949713
 20
126.4110058969679
 30
0.0
 11
368.8483743379201
 21
126.4110058969679
 31
0.0
  0
LINE
  5
75
330
73
100
AcDbEntity
  8
0
  6
ByBlock
 62
     2
100
AcDbLine
 10
354.4046701949713
 20
140.4110058969679
 30
0.0
 11
368.8483743379201
 21
140.4110058969679
 31
0.0
  0
LINE
  5
76
330
73
100
AcDbEntity
  8
0
  6
ByBlock
 62
     2
100
AcDbLine
 10
366.6383743379201
 20
120.4610058969679
 30
0.0
 11
366.6383743379201
 21
114.5110058969679
 31
0.0
  0
LINE
  5
77
330
73
100
AcDbEntity
  8
0
  6
ByBlock
 62
     2
100
AcDbLine
 10
366.6383743379201
 20
146.3610058969679
 30
0.0
 11
366.6383743379201
 21
152.3110058969679
 31
0.0
  0
MTEXT
  5
78
330
73
100
AcDbEntity
  8
0
  6
ByBlock
 62
     3
100
AcDbMText
 10
362.0639883969065
 20
133.2620861774271
 30
0.0
 40
5.299999999999999
 41
0.0
 71
     5
 72
     1
  1
\A1;14
  7
ACA_NORM
 11
0.0000000000000001
 21
1.0
 31
0.0
 73
     1
 44
1.0
  0
LINE
  5
79
330
73
100
AcDbEntity
  8
0
  6
ByBlock
 62
     2
100
AcDbLine
 10
366.6383743379201
 20
126.4110058969679
 30
0.0
 11
366.6383743379201
 21
140.4110058969679
 31
0.0
  0
LINE
  5
7A
330
73
100
AcDbEntity
  8
0
  6
ByBlock
 62
     2
100
AcDbLine
 10
366.6383743379201
 20
126.4110058969679
 30
0.0
 11
366.6383743379201
 21
140.4110058969679
 31
0.0
  0
SOLID
  5
7B
330
73
100
AcDbEntity
  8
0
  6
ByBlock
 62
     2
100
AcDbTrace
 10
365.6467076712534
 20
120.4610058969679
 30
0.0
 11
367.6300410045868
 21
120.4610058969679
 31
0.0
 12
366.6383743379201
 22
126.4110058969679
 32
0.0
 13
366.6383743379201
 23
126.4110058969679
 33
0.0
  0
SOLID
  5
7C
330
73
100
AcDbEntity
  8
0
  6
ByBlock
 62
     2
100
AcDbTrace
 10
365.6467076712534
 20
146.3610058969679
 30
0.0
 11
367.6300410045868
 21
146.3610058969679
 31
0.0
 12
366.6383743379201
 22
140.4110058969679
 32
0.0
 13
366.6383743379201
 23
140.4110058969679
 33
0.0
  0
POINT
  5
7D
330
73
100
AcDbEntity
  8
DEFPOINTS
  6
ByBlock
 62
     0
100
AcDbPoint
 10
353.5546701949713
 20
126.4110058969679
 30
0.0
  0
POINT
  5
7E
330
73
100
AcDbEntity
  8
DEFPOINTS
  6
ByBlock
 62
     0
100
AcDbPoint
 10
353.5546701949713
 20
140.4110058969679
 30
0.0
  0
POINT
  5
7F
330
73
100
AcDbEntity
  8
DEFPOINTS
  6
ByBlock
 62
     0
100
AcDbPoint
 10
366.6383743379201
 20
140.4110058969679
 30
0.0
  0
ENDBLK
  5
81
330
73
100
AcDbEntity
  8
0
100
AcDbBlockEnd
  0
BLOCK
  5
103
330
F9
100
AcDbEntity
  8
0
100
AcDbBlockBegin
  2
*D7
 70
     1
 10
0.0
 20
0.0
 30
0.0
  3
*D7
  1

  0
LINE
  5
FA
330
F9
100
AcDbEntity
  8
0
  6
ByBlock
 62
     2
100
AcDbLine
 10
300.2046701949713
 20
300.9950130996763
 30
0.0
 11
271.8519806060661
 21
300.9950130996763
 31
0.0
  0
LINE
  5
FB
330
F9
100
AcDbEntity
  8
0
  6
ByBlock
 62
     2
100
AcDbLine
 10
300.2046701949713
 20
268.9950130996763
 30
0.0
 11
271.8519806060661
 21
268.9950130996763
 31
0.0
  0
LINE
  5
FC
330
F9
100
AcDbEntity
  8
0
  6
ByBlock
 62
     2
100
AcDbLine
 10
274.061980606066
 20
295.0450130996763
 30
0.0
 11
274.061980606066
 21
274.9450130996763
 31
0.0
  0
SOLID
  5
FD
330
F9
100
AcDbEntity
  8
0
  6
ByBlock
 62
     2
100
AcDbTrace
 10
273.0703139393994
 20
295.0450130996763
 30
0.0
 11
275.0536472727327
 21
295.0450130996763
 31
0.0
 12
274.061980606066
 22
300.9950130996763
 32
0.0
 13
274.061980606066
 23
300.9950130996763
 33
0.0
  0
SOLID
  5
FE
330
F9
100
AcDbEntity
  8
0
  6
ByBlock
 62
     2
100
AcDbTrace
 10
273.0703139393994
 20
274.9450130996763
 30
0.0
 11
275.0536472727327
 21
274.9450130996763
 31
0.0
 12
274.061980606066
 22
268.9950130996763
 32
0.0
 13
274.061980606066
 23
268.9950130996763
 33
0.0
  0
MTEXT
  5
FF
330
F9
100
AcDbEntity
  8
0
  6
ByBlock
 62
     3
100
AcDbMText
 10
269.711980606066
 20
284.9950130996763
 30
0.0
 40
5.299999999999999
 41
0.0
 71
     5
 72
     1
  1
\A1;32
  7
ACA_NORM
 11
0.0000000000000001
 21
1.0
 31
0.0
 73
     1
 44
1.0
  0
POINT
  5
100
330
F9
100
AcDbEntity
  8
DEFPOINTS
  6
ByBlock
 62
     0
100
AcDbPoint
 10
301.0546701949713
 20
300.9950130996763
 30
0.0
  0
POINT
  5
101
330
F9
100
AcDbEntity
  8
DEFPOINTS
  6
ByBlock
 62
     0
100
AcDbPoint
 10
301.0546701949713
 20
268.9950130996763
 30
0.0
  0
POINT
  5
102
330
F9
100
AcDbEntity
  8
DEFPOINTS
  6
ByBlock
 62
     0
100
AcDbPoint
 10
274.061980606066
 20
268.9950130996763
 30
0.0
  0
ENDBLK
  5
104
330
F9
100
AcDbEntity
  8
0
100
AcDbBlockEnd
  0
BLOCK
  5
6D
330
63
100
AcDbEntity
  8
0
100
AcDbBlockBegin
  2
*D8
 70
     1
 10
0.0
 20
0.0
 30
0.0
  3
*D8
  1

  0
LINE
  5
64
330
63
100
AcDbEntity
  8
0
  6
ByBlock
 62
     2
100
AcDbLine
 10
353.0046701949714
 20
263.9950130996767
 30
0.0
 11
372.0623304530617
 21
263.9950130996767
 31
0.0
  0
LINE
  5
65
330
63
100
AcDbEntity
  8
0
  6
ByBlock
 62
     2
100
AcDbLine
 10
350.9046701949713
 20
341.9950130996767
 30
0.0
 11
372.0623304530617
 21
341.9950130996767
 31
0.0
  0
LINE
  5
66
330
63
100
AcDbEntity
  8
0
  6
ByBlock
 62
     2
100
AcDbLine
 10
369.8523304530617
 20
269.9450130996767
 30
0.0
 11
369.8523304530617
 21
336.0450130996767
 31
0.0
  0
SOLID
  5
67
330
63
100
AcDbEntity
  8
0
  6
ByBlock
 62
     2
100
AcDbTrace
 10
368.8606637863951
 20
269.9450130996767
 30
0.0
 11
370.8439971197284
 21
269.9450130996767
 31
0.0
 12
369.8523304530617
 22
263.9950130996767
 32
0.0
 13
369.8523304530617
 23
263.9950130996767
 33
0.0
  0
SOLID
  5
68
330
63
100
AcDbEntity
  8
0
  6
ByBlock
 62
     2
100
AcDbTrace
 10
368.8606637863951
 20
336.0450130996767
 30
0.0
 11
370.8439971197284
 21
336.0450130996767
 31
0.0
 12
369.8523304530617
 22
341.9950130996767
 32
0.0
 13
369.8523304530617
 23
341.9950130996767
 33
0.0
  0
MTEXT
  5
69
330
63
100
AcDbEntity
  8
0
  6
ByBlock
 62
     3
100
AcDbMText
 10
365.5023304530617
 20
302.9950130996768
 30
0.0
 40
5.299999999999999
 41
0.0
 71
     5
 72
     1
  1
\A1;78
  7
ACA_NORM
 11
0.0000000000000001
 21
1.0
 31
0.0
 73
     1
 44
1.0
  0
POINT
  5
6A
330
63
100
AcDbEntity
  8
DEFPOINTS
  6
ByBlock
 62
     0
100
AcDbPoint
 10
352.1546701949714
 20
263.9950130996767
 30
0.0
  0
POINT
  5
6B
330
63
100
AcDbEntity
  8
DEFPOINTS
  6
ByBlock
 62
     0
100
AcDbPoint
 10
350.0546701949713
 20
341.9950130996767
 30
0.0
  0
POINT
  5
6C
330
63
100
AcDbEntity
  8
DEFPOINTS
  6
ByBlock
 62
     0
100
AcDbPoint
 10
369.8523304530617
 20
341.9950130996767
 30
0.0
  0
ENDBLK
  5
6E
330
63
100
AcDbEntity
  8
0
100
AcDbBlockEnd
  0
BLOCK
  5
60
330
56
100
AcDbEntity
  8
0
100
AcDbBlockBegin
  2
*D9
 70
     1
 10
0.0
 20
0.0
 30
0.0
  3
*D9
  1

  0
LINE
  5
57
330
56
100
AcDbEntity
  8
0
  6
ByBlock
 62
     2
100
AcDbLine
 10
354.4046701949713
 20
399.9950130996763
 30
0.0
 11
387.1815454967478
 21
399.9950130996763
 31
0.0
  0
LINE
  5
58
330
56
100
AcDbEntity
  8
0
  6
ByBlock
 62
     2
100
AcDbLine
 10
354.4046701949713
 20
233.9950130996768
 30
0.0
 11
387.1815454967478
 21
233.9950130996768
 31
0.0
  0
LINE
  5
59
330
56
100
AcDbEntity
  8
0
  6
ByBlock
 62
     2
100
AcDbLine
 10
384.9715454967479
 20
394.0450130996763
 30
0.0
 11
384.9715454967479
 21
239.9450130996767
 31
0.0
  0
SOLID
  5
5A
330
56
100
AcDbEntity
  8
0
  6
ByBlock
 62
     2
100
AcDbTrace
 10
383.9798788300812
 20
394.0450130996763
 30
0.0
 11
385.9632121634146
 21
394.0450130996763
 31
0.0
 12
384.9715454967479
 22
399.9950130996763
 32
0.0
 13
384.9715454967479
 23
399.9950130996763
 33
0.0
  0
SOLID
  5
5B
330
56
100
AcDbEntity
  8
0
  6
ByBlock
 62
     2
100
AcDbTrace
 10
383.9798788300812
 20
239.9450130996767
 30
0.0
 11
385.9632121634146
 21
239.9450130996767
 31
0.0
 12
384.9715454967479
 22
233.9950130996768
 32
0.0
 13
384.9715454967479
 23
233.9950130996768
 33
0.0
  0
MTEXT
  5
5C
330
56
100
AcDbEntity
  8
0
  6
ByBlock
 62
     3
100
AcDbMText
 10
380.6215454967479
 20
316.9950130996766
 30
0.0
 40
5.299999999999999
 41
0.0
 71
     5
 72
     1
  1
\A1;166
  7
ACA_NORM
 11
0.0000000000000001
 21
1.0
 31
0.0
 73
     1
 44
1.0
  0
POINT
  5
5D
330
56
100
AcDbEntity
  8
DEFPOINTS
  6
ByBlock
 62
     0
100
AcDbPoint
 10
353.5546701949713
 20
399.9950130996763
 30
0.0
  0
POINT
  5
5E
330
56
100
AcDbEntity
  8
DEFPOINTS
  6
ByBlock
 62
     0
100
AcDbPoint
 10
353.5546701949713
 20
233.9950130996768
 30
0.0
  0
POINT
  5
5F
330
56
100
AcDbEntity
  8
DEFPOINTS
  6
ByBlock
 62
     0
100
AcDbPoint
 10
384.9715454967479
 20
233.9950130996768
 30
0.0
  0
ENDBLK
  5
61
330
56
100
AcDbEntity
  8
0
100
AcDbBlockEnd
  0
BLOCK
  5
C7
330
BA
100
AcDbEntity
  8
0
100
AcDbBlockBegin
  2
*D10
 70
     1
 10
0.0
 20
0.0
 30
0.0
  3
*D10
  1

  0
LINE
  5
BB
330
BA
100
AcDbEntity
  8
0
  6
ByBlock
 62
     2
100
AcDbLine
 10
313.0546701949713
 20
206.1450130996767
 30
0.0
 11
313.0546701949713
 21
188.8436977501937
 31
0.0
  0
LINE
  5
BC
330
BA
100
AcDbEntity
  8
0
  6
ByBlock
 62
     2
100
AcDbLine
 10
316.0546701949713
 20
206.1450130996767
 30
0.0
 11
316.0546701949713
 21
188.8436977501937
 31
0.0
  0
LINE
  5
BD
330
BA
100
AcDbEntity
  8
0
  6
ByBlock
 62
     2
100
AcDbLine
 10
307.1046701949713
 20
191.0536977501937
 30
0.0
 11
301.1546701949713
 21
191.0536977501937
 31
0.0
  0
LINE
  5
BE
330
BA
100
AcDbEntity
  8
0
  6
ByBlock
 62
     2
100
AcDbLine
 10
322.0046701949712
 20
191.0536977501937
 30
0.0
 11
327.9546701949712
 21
191.0536977501937
 31
0.0
  0
MTEXT
  5
BF
330
BA
100
AcDbEntity
  8
0
  6
ByBlock
 62
     3
100
AcDbMText
 10
323.0076044553793
 20
195.9617500220386
 30
0.0
 40
5.299999999999999
 41
0.0
 71
     5
 72
     1
  1
\A1;3
  7
ACA_NORM
 73
     1
 44
1.0
  0
LINE
  5
C0
330
BA
100
AcDbEntity
  8
0
  6
ByBlock
 62
     2
100
AcDbLine
 10
313.0546701949713
 20
191.0536977501937
 30
0.0
 11
316.0546701949713
 21
191.0536977501937
 31
0.0
  0
LINE
  5
C1
330
BA
100
AcDbEntity
  8
0
  6
ByBlock
 62
     2
100
AcDbLine
 10
313.0546701949713
 20
191.0536977501937
 30
0.0
 11
316.0546701949713
 21
191.0536977501937
 31
0.0
  0
SOLID
  5
C2
330
BA
100
AcDbEntity
  8
0
  6
ByBlock
 62
     2
100
AcDbTrace
 10
307.1046701949713
 20
192.0453644168604
 30
0.0
 11
307.1046701949713
 21
190.062031083527
 31
0.0
 12
313.0546701949713
 22
191.0536977501937
 32
0.0
 13
313.0546701949713
 23
191.0536977501937
 33
0.0
  0
SOLID
  5
C3
330
BA
100
AcDbEntity
  8
0
  6
ByBlock
 62
     2
100
AcDbTrace
 10
322.0046701949712
 20
192.0453644168604
 30
0.0
 11
322.0046701949712
 21
190.062031083527
 31
0.0
 12
316.0546701949713
 22
191.0536977501937
 32
0.0
 13
316.0546701949713
 23
191.0536977501937
 33
0.0
  0
POINT
  5
C4
330
BA
100
AcDbEntity
  8
DEFPOINTS
  6
ByBlock
 62
     0
100
AcDbPoint
 10
313.0546701949713
 20
206.9950130996768
 30
0.0
  0
POINT
  5
C5
330
BA
100
AcDbEntity
  8
DEFPOINTS
  6
ByBlock
 62
     0
100
AcDbPoint
 10
316.0546701949713
 20
206.9950130996768
 30
0.0
  0
POINT
  5
C6
330
BA
100
AcDbEntity
  8
DEFPOINTS
  6
ByBlock
 62
     0
100
AcDbPoint
 10
316.0546701949713
 20
191.0536977501937
 30
0.0
  0
ENDBLK
  5
C8
330
BA
100
AcDbEntity
  8
0
100
AcDbBlockEnd
  0
BLOCK
  5
B7
330
AD
100
AcDbEntity
  8
0
100
AcDbBlockBegin
  2
*D11
 70
     1
 10
0.0
 20
0.0
 30
0.0
  3
*D11
  1

  0
LINE
  5
AE
330
AD
100
AcDbEntity
  8
0
  6
ByBlock
 62
     2
100
AcDbLine
 10
338.0546701949713
 20
234.0378202578198
 30
0.0
 11
338.0546701949713
 21
217.3717453437632
 31
0.0
  0
LINE
  5
AF
330
AD
100
AcDbEntity
  8
0
  6
ByBlock
 62
     2
100
AcDbLine
 10
313.0546701949713
 20
220.2783689501345
 30
0.0
 11
313.0546701949713
 21
221.7917453437632
 31
0.0
  0
LINE
  5
B0
330
AD
100
AcDbEntity
  8
0
  6
ByBlock
 62
     2
100
AcDbLine
 10
332.1046701949713
 20
219.5817453437632
 30
0.0
 11
319.0046701949713
 21
219.5817453437632
 31
0.0
  0
SOLID
  5
B1
330
AD
100
AcDbEntity
  8
0
  6
ByBlock
 62
     2
100
AcDbTrace
 10
332.1046701949713
 20
220.5734120104299
 30
0.0
 11
332.1046701949713
 21
218.5900786770965
 31
0.0
 12
338.0546701949713
 22
219.5817453437632
 32
0.0
 13
338.0546701949713
 23
219.5817453437632
 33
0.0
  0
SOLID
  5
B2
330
AD
100
AcDbEntity
  8
0
  6
ByBlock
 62
     2
100
AcDbTrace
 10
319.0046701949713
 20
220.5734120104299
 30
0.0
 11
319.0046701949713
 21
218.5900786770965
 31
0.0
 12
313.0546701949713
 22
219.5817453437632
 32
0.0
 13
313.0546701949713
 23
219.5817453437632
 33
0.0
  0
MTEXT
  5
B3
330
AD
100
AcDbEntity
  8
0
  6
ByBlock
 62
     3
100
AcDbMText
 10
325.5546701949713
 20
223.9317453437632
 30
0.0
 40
5.299999999999999
 41
0.0
 71
     5
 72
     1
  1
\A1;DM
  7
ACA_NORM
 73
     1
 44
1.0
  0
POINT
  5
B4
330
AD
100
AcDbEntity
  8
DEFPOINTS
  6
ByBlock
 62
     0
100
AcDbPoint
 10
338.0546701949713
 20
234.8878202578199
 30
0.0
  0
POINT
  5
B5
330
AD
100
AcDbEntity
  8
DEFPOINTS
  6
ByBlock
 62
     0
100
AcDbPoint
 10
313.0546701949713
 20
219.4283689501346
 30
0.0
  0
POINT
  5
B6
330
AD
100
AcDbEntity
  8
DEFPOINTS
  6
ByBlock
 62
     0
100
AcDbPoint
 10
313.0546701949713
 20
219.5817453437632
 30
0.0
  0
ENDBLK
  5
B8
330
AD
100
AcDbEntity
  8
0
100
AcDbBlockEnd
  0
BLOCK
  5
A9
330
9D
100
AcDbEntity
  8
0
100
AcDbBlockBegin
  2
*D12
 70
     1
 10
0.0
 20
0.0
 30
0.0
  3
*D12
  1

  0
LINE
  5
9E
330
9D
100
AcDbEntity
  8
0
  6
ByBlock
 62
     2
100
AcDbLine
 10
301.0546701949713
 20
268.1450130996763
 30
0.0
 11
301.0546701949713
 21
254.1821284275841
 31
0.0
  0
LINE
  5
9F
330
9D
100
AcDbEntity
  8
0
  6
ByBlock
 62
     2
100
AcDbLine
 10
313.0546701949713
 20
256.922515970242
 30
0.0
 11
313.0546701949713
 21
254.1821284275841
 31
0.0
  0
LINE
  5
A0
330
9D
100
AcDbEntity
  8
0
  6
ByBlock
 62
     2
100
AcDbLine
 10
295.1046701949713
 20
256.3921284275841
 30
0.0
 11
289.1546701949713
 21
256.3921284275841
 31
0.0
  0
LINE
  5
A1
330
9D
100
AcDbEntity
  8
0
  6
ByBlock
 62
     2
100
AcDbLine
 10
319.0046701949713
 20
256.3921284275841
 30
0.0
 11
324.9546701949713
 21
256.3921284275841
 31
0.0
  0
LINE
  5
A2
330
9D
100
AcDbEntity
  8
0
  6
ByBlock
 62
     2
100
AcDbLine
 10
301.0546701949713
 20
256.3921284275841
 30
0.0
 11
313.0546701949713
 21
256.3921284275841
 31
0.0
  0
SOLID
  5
A3
330
9D
100
AcDbEntity
  8
0
  6
ByBlock
 62
     2
100
AcDbTrace
 10
295.1046701949713
 20
257.3837950942508
 30
0.0
 11
295.1046701949713
 21
255.4004617609174
 31
0.0
 12
301.0546701949713
 22
256.3921284275841
 32
0.0
 13
301.0546701949713
 23
256.3921284275841
 33
0.0
  0
SOLID
  5
A4
330
9D
100
AcDbEntity
  8
0
  6
ByBlock
 62
     2
100
AcDbTrace
 10
319.0046701949713
 20
257.3837950942508
 30
0.0
 11
319.0046701949713
 21
255.4004617609174
 31
0.0
 12
313.0546701949713
 22
256.3921284275841
 32
0.0
 13
313.0546701949713
 23
256.3921284275841
 33
0.0
  0
MTEXT
  5
A5
330
9D
100
AcDbEntity
  8
0
  6
ByBlock
 62
     3
100
AcDbMText
 10
307.0546701949713
 20
260.7421284275841
 30
0.0
 40
5.299999999999999
 41
0.0
 71
     5
 72
     1
  1
\A1;12
  7
ACA_NORM
 73
     1
 44
1.0
  0
POINT
  5
A6
330
9D
100
AcDbEntity
  8
DEFPOINTS
  6
ByBlock
 62
     0
100
AcDbPoint
 10
301.0546701949713
 20
268.9950130996763
 30
0.0
  0
POINT
  5
A7
330
9D
100
AcDbEntity
  8
DEFPOINTS
  6
ByBlock
 62
     0
100
AcDbPoint
 10
313.0546701949713
 20
257.772515970242
 30
0.0
  0
POINT
  5
A8
330
9D
100
AcDbEntity
  8
DEFPOINTS
  6
ByBlock
 62
     0
100
AcDbPoint
 10
313.0546701949713
 20
256.3921284275841
 30
0.0
  0
ENDBLK
  5
AA
330
9D
100
AcDbEntity
  8
0
100
AcDbBlockEnd
  0
BLOCK
  5
9A
330
90
100
AcDbEntity
  8
0
100
AcDbBlockBegin
  2
*D13
 70
     1
 10
0.0
 20
0.0
 30
0.0
  3
*D13
  1

  0
LINE
  5
91
330
90
100
AcDbEntity
  8
0
  6
ByBlock
 62
     2
100
AcDbLine
 10
315.2046701949712
 20
233.9950130996768
 30
0.0
 11
286.2748287620204
 21
233.9950130996768
 31
0.0
  0
LINE
  5
92
330
90
100
AcDbEntity
  8
0
  6
ByBlock
 62
     2
100
AcDbLine
 10
312.2046701949713
 20
206.9950130996768
 30
0.0
 11
286.2748287620204
 21
206.9950130996768
 31
0.0
  0
LINE
  5
93
330
90
100
AcDbEntity
  8
0
  6
ByBlock
 62
     2
100
AcDbLine
 10
288.4848287620204
 20
228.0450130996768
 30
0.0
 11
288.4848287620204
 21
212.9450130996767
 31
0.0
  0
SOLID
  5
94
330
90
100
AcDbEntity
  8
0
  6
ByBlock
 62
     2
100
AcDbTrace
 10
287.4931620953537
 20
228.0450130996768
 30
0.0
 11
289.4764954286871
 21
228.0450130996768
 31
0.0
 12
288.4848287620204
 22
233.9950130996768
 32
0.0
 13
288.4848287620204
 23
233.9950130996768
 33
0.0
  0
SOLID
  5
95
330
90
100
AcDbEntity
  8
0
  6
ByBlock
 62
     2
100
AcDbTrace
 10
287.4931620953537
 20
212.9450130996767
 30
0.0
 11
289.4764954286871
 21
212.9450130996767
 31
0.0
 12
288.4848287620204
 22
206.9950130996768
 32
0.0
 13
288.4848287620204
 23
206.9950130996768
 33
0.0
  0
MTEXT
  5
96
330
90
100
AcDbEntity
  8
0
  6
ByBlock
 62
     3
100
AcDbMText
 10
284.1348287620204
 20
220.4950130996767
 30
0.0
 40
5.299999999999999
 41
0.0
 71
     5
 72
     1
  1
\A1;27
  7
ACA_NORM
 11
0.0000000000000001
 21
1.0
 31
0.0
 73
     1
 44
1.0
  0
POINT
  5
97
330
90
100
AcDbEntity
  8
DEFPOINTS
  6
ByBlock
 62
     0
100
AcDbPoint
 10
316.0546701949713
 20
233.9950130996768
 30
0.0
  0
POINT
  5
98
330
90
100
AcDbEntity
  8
DEFPOINTS
  6
ByBlock
 62
     0
100
AcDbPoint
 10
313.0546701949713
 20
206.9950130996768
 30
0.0
  0
POINT
  5
99
330
90
100
AcDbEntity
  8
DEFPOINTS
  6
ByBlock
 62
     0
100
AcDbPoint
 10
288.4848287620204
 20
206.9950130996768
 30
0.0
  0
ENDBLK
  5
9B
330
90
100
AcDbEntity
  8
0
100
AcDbBlockEnd
  0
BLOCK
  5
D5
330
CB
100
AcDbEntity
  8
0
100
AcDbBlockBegin
  2
*D14
 70
     1
 10
0.0
 20
0.0
 30
0.0
  3
*D14
  1

  0
LINE
  5
CC
330
CB
100
AcDbEntity
  8
0
  6
ByBlock
 62
     2
100
AcDbLine
 10
300.2046701949713
 20
268.9950130996763
 30
0.0
 11
271.8519806060661
 21
268.9950130996763
 31
0.0
  0
LINE
  5
CD
330
CB
100
AcDbEntity
  8
0
  6
ByBlock
 62
     2
100
AcDbLine
 10
312.2046701949713
 20
206.9950130996768
 30
0.0
 11
271.8519806060661
 21
206.9950130996768
 31
0.0
  0
LINE
  5
CE
330
CB
100
AcDbEntity
  8
0
  6
ByBlock
 62
     2
100
AcDbLine
 10
274.061980606066
 20
263.0450130996763
 30
0.0
 11
274.061980606066
 21
212.9450130996767
 31
0.0
  0
SOLID
  5
CF
330
CB
100
AcDbEntity
  8
0
  6
ByBlock
 62
     2
100
AcDbTrace
 10
273.0703139393994
 20
263.0450130996763
 30
0.0
 11
275.0536472727327
 21
263.0450130996763
 31
0.0
 12
274.061980606066
 22
268.9950130996763
 32
0.0
 13
274.061980606066
 23
268.9950130996763
 33
0.0
  0
SOLID
  5
D0
330
CB
100
AcDbEntity
  8
0
  6
ByBlock
 62
     2
100
AcDbTrace
 10
273.0703139393994
 20
212.9450130996767
 30
0.0
 11
275.0536472727327
 21
212.9450130996767
 31
0.0
 12
274.061980606066
 22
206.9950130996768
 32
0.0
 13
274.061980606066
 23
206.9950130996768
 33
0.0
  0
MTEXT
  5
D1
330
CB
100
AcDbEntity
  8
0
  6
ByBlock
 62
     3
100
AcDbMText
 10
269.711980606066
 20
237.9950130996765
 30
0.0
 40
5.299999999999999
 41
0.0
 71
     5
 72
     1
  1
\A1;62
  7
ACA_NORM
 11
0.0000000000000001
 21
1.0
 31
0.0
 73
     1
 44
1.0
  0
POINT
  5
D2
330
CB
100
AcDbEntity
  8
DEFPOINTS
  6
ByBlock
 62
     0
100
AcDbPoint
 10
301.0546701949713
 20
268.9950130996763
 30
0.0
  0
POINT
  5
D3
330
CB
100
AcDbEntity
  8
DEFPOINTS
  6
ByBlock
 62
     0
100
AcDbPoint
 10
313.0546701949713
 20
206.9950130996768
 30
0.0
  0
POINT
  5
D4
330
CB
100
AcDbEntity
  8
DEFPOINTS
  6
ByBlock
 62
     0
100
AcDbPoint
 10
274.061980606066
 20
206.9950130996768
 30
0.0
  0
ENDBLK
  5
D6
330
CB
100
AcDbEntity
  8
0
100
AcDbBlockEnd
  0
BLOCK
  5
8D
330
83
100
AcDbEntity
  8
0
100
AcDbBlockBegin
  2
*D15
 70
     1
 10
0.0
 20
0.0
 30
0.0
  3
*D15
  1

  0
LINE
  5
84
330
83
100
AcDbEntity
  8
0
  6
ByBlock
 62
     2
100
AcDbLine
 10
300.2046701949713
 20
268.9950130996763
 30
0.0
 11
286.2748287620204
 21
268.9950130996763
 31
0.0
  0
LINE
  5
85
330
83
100
AcDbEntity
  8
0
  6
ByBlock
 62
     2
100
AcDbLine
 10
315.2046701949712
 20
233.9950130996768
 30
0.0
 11
286.2748287620204
 21
233.9950130996768
 31
0.0
  0
LINE
  5
86
330
83
100
AcDbEntity
  8
0
  6
ByBlock
 62
     2
100
AcDbLine
 10
288.4848287620204
 20
263.0450130996763
 30
0.0
 11
288.4848287620204
 21
239.9450130996767
 31
0.0
  0
SOLID
  5
87
330
83
100
AcDbEntity
  8
0
  6
ByBlock
 62
     2
100
AcDbTrace
 10
287.4931620953537
 20
263.0450130996763
 30
0.0
 11
289.4764954286871
 21
263.0450130996763
 31
0.0
 12
288.4848287620204
 22
268.9950130996763
 32
0.0
 13
288.4848287620204
 23
268.9950130996763
 33
0.0
  0
SOLID
  5
88
330
83
100
AcDbEntity
  8
0
  6
ByBlock
 62
     2
100
AcDbTrace
 10
287.4931620953537
 20
239.9450130996767
 30
0.0
 11
289.4764954286871
 21
239.9450130996767
 31
0.0
 12
288.4848287620204
 22
233.9950130996768
 32
0.0
 13
288.4848287620204
 23
233.9950130996768
 33
0.0
  0
MTEXT
  5
89
330
83
100
AcDbEntity
  8
0
  6
ByBlock
 62
     3
100
AcDbMText
 10
284.1348287620204
 20
251.4950130996765
 30
0.0
 40
5.299999999999999
 41
0.0
 71
     5
 72
     1
  1
\A1;35
  7
ACA_NORM
 11
0.0000000000000001
 21
1.0
 31
0.0
 73
     1
 44
1.0
  0
POINT
  5
8A
330
83
100
AcDbEntity
  8
DEFPOINTS
  6
ByBlock
 62
     0
100
AcDbPoint
 10
301.0546701949713
 20
268.9950130996763
 30
0.0
  0
POINT
  5
8B
330
83
100
AcDbEntity
  8
DEFPOINTS
  6
ByBlock
 62
     0
100
AcDbPoint
 10
316.0546701949713
 20
233.9950130996768
 30
0.0
  0
POINT
  5
8C
330
83
100
AcDbEntity
  8
DEFPOINTS
  6
ByBlock
 62
     0
100
AcDbPoint
 10
288.4848287620204
 20
233.9950130996768
 30
0.0
  0
ENDBLK
  5
8E
330
83
100
AcDbEntity
  8
0
100
AcDbBlockEnd
  0
BLOCK
  5
146
330
13C
100
AcDbEntity
  8
0
100
AcDbBlockBegin
  2
*D16
 70
     1
 10
0.0
 20
0.0
 30
0.0
  3
*D16
  1

  0
LINE
  5
13D
330
13C
100
AcDbEntity
  8
0
  6
ByBlock
 62
     2
100
AcDbLine
 10
353.5546701949713
 20
233.1450130996767
 30
0.0
 11
353.5546701949713
 21
217.3717453437632
 31
0.0
  0
LINE
  5
13E
330
13C
100
AcDbEntity
  8
0
  6
ByBlock
 62
     2
100
AcDbLine
 10
338.0546701949713
 20
234.0378202578198
 30
0.0
 11
338.0546701949713
 21
217.3717453437632
 31
0.0
  0
LINE
  5
13F
330
13C
100
AcDbEntity
  8
0
  6
ByBlock
 62
     2
100
AcDbLine
 10
347.6046701949713
 20
219.5817453437632
 30
0.0
 11
344.0046701949713
 21
219.5817453437632
 31
0.0
  0
MTEXT
  5
140
330
13C
100
AcDbEntity
  8
0
  6
ByBlock
 62
     3
100
AcDbMText
 10
345.7159184991799
 20
224.4897950570322
 30
0.0
 40
5.299999999999999
 41
0.0
 71
     5
 72
     1
  1
\A1;15.5
  7
ACA_NORM
 73
     1
 44
1.0
  0
SOLID
  5
141
330
13C
100
AcDbEntity
  8
0
  6
ByBlock
 62
     2
100
AcDbTrace
 10
347.6046701949713
 20
220.5734120104299
 30
0.0
 11
347.6046701949713
 21
218.5900786770965
 31
0.0
 12
353.5546701949713
 22
219.5817453437632
 32
0.0
 13
353.5546701949713
 23
219.5817453437632
 33
0.0
  0
SOLID
  5
142
330
13C
100
AcDbEntity
  8
0
  6
ByBlock
 62
     2
100
AcDbTrace
 10
344.0046701949713
 20
220.5734120104299
 30
0.0
 11
344.0046701949713
 21
218.5900786770965
 31
0.0
 12
338.0546701949713
 22
219.5817453437632
 32
0.0
 13
338.0546701949713
 23
219.5817453437632
 33
0.0
  0
POINT
  5
143
330
13C
100
AcDbEntity
  8
DEFPOINTS
  6
ByBlock
 62
     0
100
AcDbPoint
 10
353.5546701949713
 20
233.9950130996768
 30
0.0
  0
POINT
  5
144
330
13C
100
AcDbEntity
  8
DEFPOINTS
  6
ByBlock
 62
     0
100
AcDbPoint
 10
338.0546701949713
 20
234.8878202578199
 30
0.0
  0
POINT
  5
145
330
13C
100
AcDbEntity
  8
DEFPOINTS
  6
ByBlock
 62
     0
100
AcDbPoint
 10
338.0546701949713
 20
219.5817453437632
 30
0.0
  0
ENDBLK
  5
147
330
13C
100
AcDbEntity
  8
0
100
AcDbBlockEnd
  0
BLOCK
  5
136
330
12C
100
AcDbEntity
  8
0
100
AcDbBlockBegin
  2
*D17
 70
     1
 10
0.0
 20
0.0
 30
0.0
  3
*D17
  1

  0
LINE
  5
12D
330
12C
100
AcDbEntity
  8
0
  6
ByBlock
 62
     2
100
AcDbLine
 10
354.4046701949713
 20
233.9950130996768
 30
0.0
 11
372.0623304530617
 21
233.9950130996768
 31
0.0
  0
LINE
  5
12E
330
12C
100
AcDbEntity
  8
0
  6
ByBlock
 62
     2
100
AcDbLine
 10
353.0046701949714
 20
263.9950130996767
 30
0.0
 11
372.0623304530617
 21
263.9950130996767
 31
0.0
  0
LINE
  5
12F
330
12C
100
AcDbEntity
  8
0
  6
ByBlock
 62
     2
100
AcDbLine
 10
369.8523304530617
 20
239.9450130996767
 30
0.0
 11
369.8523304530617
 21
258.0450130996768
 31
0.0
  0
SOLID
  5
130
330
12C
100
AcDbEntity
  8
0
  6
ByBlock
 62
     2
100
AcDbTrace
 10
368.8606637863951
 20
239.9450130996767
 30
0.0
 11
370.8439971197284
 21
239.9450130996767
 31
0.0
 12
369.8523304530617
 22
233.9950130996768
 32
0.0
 13
369.8523304530617
 23
233.9950130996768
 33
0.0
  0
SOLID
  5
131
330
12C
100
AcDbEntity
  8
0
  6
ByBlock
 62
     2
100
AcDbTrace
 10
368.8606637863951
 20
258.0450130996768
 30
0.0
 11
370.8439971197284
 21
258.0450130996768
 31
0.0
 12
369.8523304530617
 22
263.9950130996767
 32
0.0
 13
369.8523304530617
 23
263.9950130996767
 33
0.0
  0
MTEXT
  5
132
330
12C
100
AcDbEntity
  8
0
  6
ByBlock
 62
     3
100
AcDbMText
 10
365.5023304530617
 20
248.9950130996767
 30
0.0
 40
5.299999999999999
 41
0.0
 71
     5
 72
     1
  1
\A1;30
  7
ACA_NORM
 11
0.0000000000000001
 21
1.0
 31
0.0
 73
     1
 44
1.0
  0
POINT
  5
133
330
12C
100
AcDbEntity
  8
DEFPOINTS
  6
ByBlock
 62
     0
100
AcDbPoint
 10
353.5546701949713
 20
233.9950130996768
 30
0.0
  0
POINT
  5
134
330
12C
100
AcDbEntity
  8
DEFPOINTS
  6
ByBlock
 62
     0
100
AcDbPoint
 10
352.1546701949714
 20
263.9950130996767
 30
0.0
  0
POINT
  5
135
330
12C
100
AcDbEntity
  8
DEFPOINTS
  6
ByBlock
 62
     0
100
AcDbPoint
 10
369.8523304530617
 20
263.9950130996767
 30
0.0
  0
ENDBLK
  5
137
330
12C
100
AcDbEntity
  8
0
100
AcDbBlockEnd
  0
BLOCK
  5
174
330
168
100
AcDbEntity
  8
0
100
AcDbBlockBegin
  2
*D18
 70
     1
 10
0.0
 20
0.0
 30
0.0
  3
*D18
  1

  0
LINE
  5
169
330
168
100
AcDbEntity
  8
0
  6
ByBlock
 62
     2
100
AcDbLine
 10
303.0546701949713
 20
357.1450130996763
 30
0.0
 11
303.0546701949713
 21
344.9898828857993
 31
0.0
  0
LINE
  5
16A
330
168
100
AcDbEntity
  8
0
  6
ByBlock
 62
     2
100
AcDbLine
 10
313.0546701949713
 20
345.9049621477161
 30
0.0
 11
313.0546701949713
 21
349.4098828857993
 31
0.0
  0
LINE
  5
16B
330
168
100
AcDbEntity
  8
0
  6
ByBlock
 62
     2
100
AcDbLine
 10
297.1046701949713
 20
347.1998828857993
 30
0.0
 11
291.1546701949713
 21
347.1998828857993
 31
0.0
  0
LINE
  5
16C
330
168
100
AcDbEntity
  8
0
  6
ByBlock
 62
     2
100
AcDbLine
 10
319.0046701949713
 20
347.1998828857993
 30
0.0
 11
324.9546701949713
 21
347.1998828857993
 31
0.0
  0
LINE
  5
16D
330
168
100
AcDbEntity
  8
0
  6
ByBlock
 62
     2
100
AcDbLine
 10
303.0546701949713
 20
347.1998828857993
 30
0.0
 11
313.0546701949713
 21
347.1998828857993
 31
0.0
  0
SOLID
  5
16E
330
168
100
AcDbEntity
  8
0
  6
ByBlock
 62
     2
100
AcDbTrace
 10
297.1046701949713
 20
348.1915495524659
 30
0.0
 11
297.1046701949713
 21
346.2082162191326
 31
0.0
 12
303.0546701949713
 22
347.1998828857993
 32
0.0
 13
303.0546701949713
 23
347.1998828857993
 33
0.0
  0
SOLID
  5
16F
330
168
100
AcDbEntity
  8
0
  6
ByBlock
 62
     2
100
AcDbTrace
 10
319.0046701949713
 20
348.1915495524659
 30
0.0
 11
319.0046701949713
 21
346.2082162191326
 31
0.0
 12
313.0546701949713
 22
347.1998828857993
 32
0.0
 13
313.0546701949713
 23
347.1998828857993
 33
0.0
  0
MTEXT
  5
170
330
168
100
AcDbEntity
  8
0
  6
ByBlock
 62
     3
100
AcDbMText
 10
308.0546701949713
 20
351.5498828857993
 30
0.0
 40
5.299999999999999
 41
0.0
 71
     5
 72
     1
  1
\A1;10
  7
ACA_NORM
 73
     1
 44
1.0
  0
POINT
  5
171
330
168
100
AcDbEntity
  8
DEFPOINTS
  6
ByBlock
 62
     0
100
AcDbPoint
 10
303.0546701949713
 20
357.9950130996763
 30
0.0
  0
POINT
  5
172
330
168
100
AcDbEntity
  8
DEFPOINTS
  6
ByBlock
 62
     0
100
AcDbPoint
 10
313.0546701949713
 20
345.054962147716
 30
0.0
  0
POINT
  5
173
330
168
100
AcDbEntity
  8
DEFPOINTS
  6
ByBlock
 62
     0
100
AcDbPoint
 10
313.0546701949713
 20
347.1998828857993
 30
0.0
  0
ENDBLK
  5
175
330
168
100
AcDbEntity
  8
0
100
AcDbBlockEnd
  0
BLOCK
  5
53
330
49
100
AcDbEntity
  8
0
100
AcDbBlockBegin
  2
*D19
 70
     1
 10
0.0
 20
0.0
 30
0.0
  3
*D19
  1

  0
LINE
  5
4A
330
49
100
AcDbEntity
  8
0
  6
ByBlock
 62
     2
100
AcDbLine
 10
302.2046701949713
 20
357.9950130996763
 30
0.0
 11
271.8519806060661
 21
357.9950130996763
 31
0.0
  0
LINE
  5
4B
330
49
100
AcDbEntity
  8
0
  6
ByBlock
 62
     2
100
AcDbLine
 10
300.2046701949713
 20
300.9950130996763
 30
0.0
 11
271.8519806060661
 21
300.9950130996763
 31
0.0
  0
LINE
  5
4C
330
49
100
AcDbEntity
  8
0
  6
ByBlock
 62
     2
100
AcDbLine
 10
274.061980606066
 20
352.0450130996763
 30
0.0
 11
274.061980606066
 21
306.9450130996763
 31
0.0
  0
SOLID
  5
4D
330
49
100
AcDbEntity
  8
0
  6
ByBlock
 62
     2
100
AcDbTrace
 10
273.0703139393994
 20
352.0450130996763
 30
0.0
 11
275.0536472727327
 21
352.0450130996763
 31
0.0
 12
274.061980606066
 22
357.9950130996763
 32
0.0
 13
274.061980606066
 23
357.9950130996763
 33
0.0
  0
SOLID
  5
4E
330
49
100
AcDbEntity
  8
0
  6
ByBlock
 62
     2
100
AcDbTrace
 10
273.0703139393994
 20
306.9450130996763
 30
0.0
 11
275.0536472727327
 21
306.9450130996763
 31
0.0
 12
274.061980606066
 22
300.9950130996763
 32
0.0
 13
274.061980606066
 23
300.9950130996763
 33
0.0
  0
MTEXT
  5
4F
330
49
100
AcDbEntity
  8
0
  6
ByBlock
 62
     3
100
AcDbMText
 10
269.711980606066
 20
329.4950130996763
 30
0.0
 40
5.299999999999999
 41
0.0
 71
     5
 72
     1
  1
\A1;57
  7
ACA_NORM
 11
0.0000000000000001
 21
1.0
 31
0.0
 73
     1
 44
1.0
  0
POINT
  5
50
330
49
100
AcDbEntity
  8
DEFPOINTS
  6
ByBlock
 62
     0
100
AcDbPoint
 10
303.0546701949713
 20
357.9950130996763
 30
0.0
  0
POINT
  5
51
330
49
100
AcDbEntity
  8
DEFPOINTS
  6
ByBlock
 62
     0
100
AcDbPoint
 10
301.0546701949713
 20
300.9950130996763
 30
0.0
  0
POINT
  5
52
330
49
100
AcDbEntity
  8
DEFPOINTS
  6
ByBlock
 62
     0
100
AcDbPoint
 10
274.061980606066
 20
300.9950130996763
 30
0.0
  0
ENDBLK
  5
54
330
49
100
AcDbEntity
  8
0
100
AcDbBlockEnd
  0
BLOCK
  5
19B
330
191
100
AcDbEntity
  8
0
100
AcDbBlockBegin
  2
*D20
 70
     1
 10
0.0
 20
0.0
 30
0.0
  3
*D20
  1

  0
LINE
  5
192
330
191
100
AcDbEntity
  8
0
  6
ByBlock
 62
     2
100
AcDbLine
 10
302.2046701949713
 20
387.9950130996768
 30
0.0
 11
271.8519806060661
 21
387.9950130996768
 31
0.0
  0
LINE
  5
193
330
191
100
AcDbEntity
  8
0
  6
ByBlock
 62
     2
100
AcDbLine
 10
302.2046701949713
 20
357.9950130996763
 30
0.0
 11
271.8519806060661
 21
357.9950130996763
 31
0.0
  0
LINE
  5
194
330
191
100
AcDbEntity
  8
0
  6
ByBlock
 62
     2
100
AcDbLine
 10
274.061980606066
 20
382.0450130996768
 30
0.0
 11
274.061980606066
 21
363.9450130996763
 31
0.0
  0
SOLID
  5
195
330
191
100
AcDbEntity
  8
0
  6
ByBlock
 62
     2
100
AcDbTrace
 10
273.0703139393994
 20
382.0450130996768
 30
0.0
 11
275.0536472727327
 21
382.0450130996768
 31
0.0
 12
274.061980606066
 22
387.9950130996768
 32
0.0
 13
274.061980606066
 23
387.9950130996768
 33
0.0
  0
SOLID
  5
196
330
191
100
AcDbEntity
  8
0
  6
ByBlock
 62
     2
100
AcDbTrace
 10
273.0703139393994
 20
363.9450130996763
 30
0.0
 11
275.0536472727327
 21
363.9450130996763
 31
0.0
 12
274.061980606066
 22
357.9950130996763
 32
0.0
 13
274.061980606066
 23
357.9950130996763
 33
0.0
  0
MTEXT
  5
197
330
191
100
AcDbEntity
  8
0
  6
ByBlock
 62
     3
100
AcDbMText
 10
269.711980606066
 20
372.9950130996765
 30
0.0
 40
5.299999999999999
 41
0.0
 71
     5
 72
     1
  1
\A1;30
  7
ACA_NORM
 11
0.0000000000000001
 21
1.0
 31
0.0
 73
     1
 44
1.0
  0
POINT
  5
198
330
191
100
AcDbEntity
  8
DEFPOINTS
  6
ByBlock
 62
     0
100
AcDbPoint
 10
303.0546701949713
 20
387.9950130996768
 30
0.0
  0
POINT
  5
199
330
191
100
AcDbEntity
  8
DEFPOINTS
  6
ByBlock
 62
     0
100
AcDbPoint
 10
303.0546701949713
 20
357.9950130996763
 30
0.0
  0
POINT
  5
19A
330
191
100
AcDbEntity
  8
DEFPOINTS
  6
ByBlock
 62
     0
100
AcDbPoint
 10
274.061980606066
 20
357.9950130996763
 30
0.0
  0
ENDBLK
  5
19C
330
191
100
AcDbEntity
  8
0
100
AcDbBlockEnd
  0
BLOCK
  5
165
330
159
100
AcDbEntity
  8
0
100
AcDbBlockBegin
  2
*D21
 70
     1
 10
0.0
 20
0.0
 30
0.0
  3
*D21
  1

  0
LINE
  5
15A
330
159
100
AcDbEntity
  8
0
  6
ByBlock
 62
     2
100
AcDbLine
 10
315.2046701949712
 20
399.9950130996768
 30
0.0
 11
290.085709770447
 21
399.9950130996768
 31
0.0
  0
LINE
  5
15B
330
159
100
AcDbEntity
  8
0
  6
ByBlock
 62
     2
100
AcDbLine
 10
302.2046701949713
 20
387.9950130996768
 30
0.0
 11
290.085709770447
 21
387.9950130996768
 31
0.0
  0
LINE
  5
15C
330
159
100
AcDbEntity
  8
0
  6
ByBlock
 62
     2
100
AcDbLine
 10
292.295709770447
 20
405.9450130996768
 30
0.0
 11
292.295709770447
 21
411.8950130996767
 31
0.0
  0
LINE
  5
15D
330
159
100
AcDbEntity
  8
0
  6
ByBlock
 62
     2
100
AcDbLine
 10
292.295709770447
 20
382.0450130996768
 30
0.0
 11
292.295709770447
 21
376.0950130996768
 31
0.0
  0
LINE
  5
15E
330
159
100
AcDbEntity
  8
0
  6
ByBlock
 62
     2
100
AcDbLine
 10
292.295709770447
 20
399.9950130996768
 30
0.0
 11
292.295709770447
 21
387.9950130996768
 31
0.0
  0
SOLID
  5
15F
330
159
100
AcDbEntity
  8
0
  6
ByBlock
 62
     2
100
AcDbTrace
 10
291.3040431037803
 20
405.9450130996768
 30
0.0
 11
293.2873764371137
 21
405.9450130996768
 31
0.0
 12
292.295709770447
 22
399.9950130996768
 32
0.0
 13
292.295709770447
 23
399.9950130996768
 33
0.0
  0
SOLID
  5
160
330
159
100
AcDbEntity
  8
0
  6
ByBlock
 62
     2
100
AcDbTrace
 10
291.3040431037803
 20
382.0450130996768
 30
0.0
 11
293.2873764371137
 21
382.0450130996768
 31
0.0
 12
292.295709770447
 22
387.9950130996768
 32
0.0
 13
292.295709770447
 23
387.9950130996768
 33
0.0
  0
MTEXT
  5
161
330
159
100
AcDbEntity
  8
0
  6
ByBlock
 62
     3
100
AcDbMText
 10
287.945709770447
 20
393.9950130996768
 30
0.0
 40
5.299999999999999
 41
0.0
 71
     5
 72
     1
  1
\A1;12
  7
ACA_NORM
 11
0.0000000000000001
 21
1.0
 31
0.0
 73
     1
 44
1.0
  0
POINT
  5
162
330
159
100
AcDbEntity
  8
DEFPOINTS
  6
ByBlock
 62
     0
100
AcDbPoint
 10
316.0546701949713
 20
399.9950130996768
 30
0.0
  0
POINT
  5
163
330
159
100
AcDbEntity
  8
DEFPOINTS
  6
ByBlock
 62
     0
100
AcDbPoint
 10
303.0546701949713
 20
387.9950130996768
 30
0.0
  0
POINT
  5
164
330
159
100
AcDbEntity
  8
DEFPOINTS
  6
ByBlock
 62
     0
100
AcDbPoint
 10
292.295709770447
 20
387.9950130996768
 30
0.0
  0
ENDBLK
  5
166
330
159
100
AcDbEntity
  8
0
100
AcDbBlockEnd
  0
BLOCK
  5
1BC
330
1AF
100
AcDbEntity
  8
0
100
AcDbBlockBegin
  2
*D22
 70
     1
 10
0.0
 20
0.0
 30
0.0
  3
*D22
  1

  0
LINE
  5
1B0
330
1AF
100
AcDbEntity
  8
0
  6
ByBlock
 62
     2
100
AcDbLine
 10
333.484300091108
 20
347.2850241690138
 30
0.0
 11
333.3020230192688
 21
361.0646345595747
 31
0.0
  0
LINE
  5
1B1
330
1AF
100
AcDbEntity
  8
0
  6
ByBlock
 62
     2
100
AcDbLine
 10
342.4835127811695
 20
347.4040660063016
 30
0.0
 11
342.3012357093304
 21
361.1836763968625
 31
0.0
  0
LINE
  5
1B2
330
1AF
100
AcDbEntity
  8
0
  6
ByBlock
 62
     2
100
AcDbLine
 10
327.3817749031062
 20
358.7761280065859
 30
0.0
 11
321.432295402454
 21
358.6974281252679
 31
0.0
  0
LINE
  5
1B3
330
1AF
100
AcDbEntity
  8
0
  6
ByBlock
 62
     2
100
AcDbLine
 10
348.2799465944721
 20
359.0525696065098
 30
0.0
 11
354.2294260951243
 21
359.1312694878278
 31
0.0
  0
MTEXT
  5
1B4
330
1AF
100
AcDbEntity
  8
0
  6
ByBlock
 62
     3
100
AcDbMText
 10
337.8717619611837
 20
365.1981986152924
 30
0.0
 40
5.299999999999999
 41
0.0
 71
     5
 72
     1
  1
\A1;8/9
  7
ACA_NORM
 11
0.9999125211180135
 21
0.0132268708097559
 31
0.0
 73
     1
 44
1.0
  0
LINE
  5
1B5
330
1AF
100
AcDbEntity
  8
0
  6
ByBlock
 62
     2
100
AcDbLine
 10
333.3312544037584
 20
358.8548278879039
 30
0.0
 11
342.3304670938199
 21
358.9738697251917
 31
0.0
  0
LINE
  5
1B6
330
1AF
100
AcDbEntity
  8
0
  6
ByBlock
 62
     2
100
AcDbLine
 10
333.3312544037584
 20
358.8548278879039
 30
0.0
 11
342.3304670938199
 21
358.9738697251917
 31
0.0
  0
SOLID
  5
1B7
330
1AF
100
AcDbEntity
  8
0
  6
ByBlock
 62
     2
100
AcDbTrace
 10
327.3686582562199
 20
359.7677079233613
 30
0.0
 11
327.3948915499925
 21
357.7845480898105
 31
0.0
 12
333.3312544037584
 22
358.8548278879039
 32
0.0
 13
333.3312544037584
 23
358.8548278879039
 33
0.0
  0
SOLID
  5
1B8
330
1AF
100
AcDbEntity
  8
0
  6
ByBlock
 62
     2
100
AcDbTrace
 10
348.2668299475857
 20
360.0441495232851
 30
0.0
 11
348.2930632413584
 21
358.0609896897344
 31
0.0
 12
342.3304670938199
 22
358.9738697251917
 32
0.0
 13
342.3304670938199
 23
358.9738697251917
 33
0.0
  0
POINT
  5
1B9
330
1AF
100
AcDbEntity
  8
DEFPOINTS
  6
ByBlock
 62
     0
100
AcDbPoint
 10
333.4955429312963
 20
346.4350985260634
 30
0.0
  0
POINT
  5
1BA
330
1AF
100
AcDbEntity
  8
DEFPOINTS
  6
ByBlock
 62
     0
100
AcDbPoint
 10
342.4947556213578
 20
346.5541403633512
 30
0.0
  0
POINT
  5
1BB
330
1AF
100
AcDbEntity
  8
DEFPOINTS
  6
ByBlock
 62
     0
100
AcDbPoint
 10
342.3304670938199
 20
358.9738697251917
 30
0.0
  0
ENDBLK
  5
1BD
330
1AF
100
AcDbEntity
  8
0
100
AcDbBlockEnd
  0
BLOCK
  5
1AC
330
1A2
100
AcDbEntity
  8
0
100
AcDbBlockBegin
  2
*D23
 70
     1
 10
0.0
 20
0.0
 30
0.0
  3
*D23
  1

  0
LINE
  5
1A3
330
1A2
100
AcDbEntity
  8
0
  6
ByBlock
 62
     2
100
AcDbLine
 10
350.9046701949713
 20
341.9950130996767
 30
0.0
 11
372.0623304530617
 21
341.9950130996767
 31
0.0
  0
LINE
  5
1A4
330
1A2
100
AcDbEntity
  8
0
  6
ByBlock
 62
     2
100
AcDbLine
 10
354.4046701949713
 20
399.9950130996763
 30
0.0
 11
372.0623304530617
 21
399.9950130996763
 31
0.0
  0
LINE
  5
1A5
330
1A2
100
AcDbEntity
  8
0
  6
ByBlock
 62
     2
100
AcDbLine
 10
369.8523304530617
 20
347.9450130996767
 30
0.0
 11
369.8523304530617
 21
394.0450130996763
 31
0.0
  0
SOLID
  5
1A6
330
1A2
100
AcDbEntity
  8
0
  6
ByBlock
 62
     2
100
AcDbTrace
 10
368.8606637863951
 20
347.9450130996767
 30
0.0
 11
370.8439971197284
 21
347.9450130996767
 31
0.0
 12
369.8523304530617
 22
341.9950130996767
 32
0.0
 13
369.8523304530617
 23
341.9950130996767
 33
0.0
  0
SOLID
  5
1A7
330
1A2
100
AcDbEntity
  8
0
  6
ByBlock
 62
     2
100
AcDbTrace
 10
368.8606637863951
 20
394.0450130996763
 30
0.0
 11
370.8439971197284
 21
394.0450130996763
 31
0.0
 12
369.8523304530617
 22
399.9950130996763
 32
0.0
 13
369.8523304530617
 23
399.9950130996763
 33
0.0
  0
MTEXT
  5
1A8
330
1A2
100
AcDbEntity
  8
0
  6
ByBlock
 62
     3
100
AcDbMText
 10
365.5023304530617
 20
370.9950130996766
 30
0.0
 40
5.299999999999999
 41
0.0
 71
     5
 72
     1
  1
\A1;58
  7
ACA_NORM
 11
0.0000000000000001
 21
1.0
 31
0.0
 73
     1
 44
1.0
  0
POINT
  5
1A9
330
1A2
100
AcDbEntity
  8
DEFPOINTS
  6
ByBlock
 62
     0
100
AcDbPoint
 10
350.0546701949713
 20
341.9950130996767
 30
0.0
  0
POINT
  5
1AA
330
1A2
100
AcDbEntity
  8
DEFPOINTS
  6
ByBlock
 62
     0
100
AcDbPoint
 10
353.5546701949713
 20
399.9950130996763
 30
0.0
  0
POINT
  5
1AB
330
1A2
100
AcDbEntity
  8
DEFPOINTS
  6
ByBlock
 62
     0
100
AcDbPoint
 10
369.8523304530617
 20
399.9950130996763
 30
0.0
  0
ENDBLK
  5
1AD
330
1A2
100
AcDbEntity
  8
0
100
AcDbBlockEnd
  0
BLOCK
  5
43
330
39
100
AcDbEntity
  8
0
100
AcDbBlockBegin
  2
*D24
 70
     1
 10
0.0
 20
0.0
 30
0.0
  3
*D24
  1

  0
LINE
  5
3A
330
39
100
AcDbEntity
  8
0
  6
ByBlock
 62
     2
100
AcDbLine
 10
435.6300766615503
 20
416.9950130996763
 30
0.0
 11
419.5457228893756
 21
416.9950130996763
 31
0.0
  0
LINE
  5
3B
330
39
100
AcDbEntity
  8
0
  6
ByBlock
 62
     2
100
AcDbLine
 10
437.3700766615503
 20
216.9950130996767
 30
0.0
 11
419.5457228893756
 21
216.9950130996767
 31
0.0
  0
LINE
  5
3C
330
39
100
AcDbEntity
  8
0
  6
ByBlock
 62
     2
100
AcDbLine
 10
421.7557228893756
 20
411.0450130996763
 30
0.0
 11
421.7557228893756
 21
222.9450130996767
 31
0.0
  0
SOLID
  5
3D
330
39
100
AcDbEntity
  8
0
  6
ByBlock
 62
     2
100
AcDbTrace
 10
420.7640562227089
 20
411.0450130996763
 30
0.0
 11
422.7473895560422
 21
411.0450130996763
 31
0.0
 12
421.7557228893756
 22
416.9950130996763
 32
0.0
 13
421.7557228893756
 23
416.9950130996763
 33
0.0
  0
SOLID
  5
3E
330
39
100
AcDbEntity
  8
0
  6
ByBlock
 62
     2
100
AcDbTrace
 10
420.7640562227089
 20
222.9450130996767
 30
0.0
 11
422.7473895560422
 21
222.9450130996767
 31
0.0
 12
421.7557228893756
 22
216.9950130996767
 32
0.0
 13
421.7557228893756
 23
216.9950130996767
 33
0.0
  0
MTEXT
  5
3F
330
39
100
AcDbEntity
  8
0
  6
ByBlock
 62
     3
100
AcDbMText
 10
417.4057228893756
 20
316.9950130996766
 30
0.0
 40
5.299999999999999
 41
0.0
 71
     5
 72
     1
  1
\A1;200
  7
ACA_NORM
 11
0.0000000000000001
 21
1.0
 31
0.0
 73
     1
 44
1.0
  0
POINT
  5
40
330
39
100
AcDbEntity
  8
DEFPOINTS
  6
ByBlock
 62
     0
100
AcDbPoint
 10
436.4800766615503
 20
416.9950130996763
 30
0.0
  0
POINT
  5
41
330
39
100
AcDbEntity
  8
DEFPOINTS
  6
ByBlock
 62
     0
100
AcDbPoint
 10
438.2200766615503
 20
216.9950130996767
 30
0.0
  0
POINT
  5
42
330
39
100
AcDbEntity
  8
DEFPOINTS
  6
ByBlock
 62
     0
100
AcDbPoint
 10
421.7557228893756
 20
216.9950130996767
 30
0.0
  0
ENDBLK
  5
44
330
39
100
AcDbEntity
  8
0
100
AcDbBlockEnd
  0
BLOCK
  5
114
330
108
100
AcDbEntity
  8
0
100
AcDbBlockBegin
  2
*D25
 70
     1
 10
0.0
 20
0.0
 30
0.0
  3
*D25
  1

  0
LINE
  5
109
330
108
100
AcDbEntity
  8
0
  6
ByBlock
 62
     2
100
AcDbLine
 10
434.3200766615502
 20
206.9950130996768
 30
0.0
 11
419.5457228893756
 21
206.9950130996768
 31
0.0
  0
LINE
  5
10A
330
108
100
AcDbEntity
  8
0
  6
ByBlock
 62
     2
100
AcDbLine
 10
437.3700766615503
 20
216.9950130996767
 30
0.0
 11
419.5457228893756
 21
216.9950130996767
 31
0.0
  0
LINE
  5
10B
330
108
100
AcDbEntity
  8
0
  6
ByBlock
 62
     2
100
AcDbLine
 10
421.7557228893756
 20
201.0450130996768
 30
0.0
 11
421.7557228893756
 21
195.0950130996767
 31
0.0
  0
LINE
  5
10C
330
108
100
AcDbEntity
  8
0
  6
ByBlock
 62
     2
100
AcDbLine
 10
421.7557228893756
 20
222.9450130996767
 30
0.0
 11
421.7557228893756
 21
228.8950130996767
 31
0.0
  0
LINE
  5
10D
330
108
100
AcDbEntity
  8
0
  6
ByBlock
 62
     2
100
AcDbLine
 10
421.7557228893756
 20
206.9950130996768
 30
0.0
 11
421.7557228893756
 21
216.9950130996767
 31
0.0
  0
SOLID
  5
10E
330
108
100
AcDbEntity
  8
0
  6
ByBlock
 62
     2
100
AcDbTrace
 10
420.7640562227089
 20
201.0450130996768
 30
0.0
 11
422.7473895560422
 21
201.0450130996768
 31
0.0
 12
421.7557228893756
 22
206.9950130996768
 32
0.0
 13
421.7557228893756
 23
206.9950130996768
 33
0.0
  0
SOLID
  5
10F
330
108
100
AcDbEntity
  8
0
  6
ByBlock
 62
     2
100
AcDbTrace
 10
420.7640562227089
 20
222.9450130996767
 30
0.0
 11
422.7473895560422
 21
222.9450130996767
 31
0.0
 12
421.7557228893756
 22
216.9950130996767
 32
0.0
 13
421.7557228893756
 23
216.9950130996767
 33
0.0
  0
MTEXT
  5
110
330
108
100
AcDbEntity
  8
0
  6
ByBlock
 62
     3
100
AcDbMText
 10
417.4057228893756
 20
211.9950130996767
 30
0.0
 40
5.299999999999999
 41
0.0
 71
     5
 72
     1
  1
\A1;10
  7
ACA_NORM
 11
0.0000000000000001
 21
1.0
 31
0.0
 73
     1
 44
1.0
  0
POINT
  5
111
330
108
100
AcDbEntity
  8
DEFPOINTS
  6
ByBlock
 62
     0
100
AcDbPoint
 10
435.1700766615501
 20
206.9950130996768
 30
0.0
  0
POINT
  5
112
330
108
100
AcDbEntity
  8
DEFPOINTS
  6
ByBlock
 62
     0
100
AcDbPoint
 10
438.2200766615503
 20
216.9950130996767
 30
0.0
  0
POINT
  5
113
330
108
100
AcDbEntity
  8
DEFPOINTS
  6
ByBlock
 62
     0
100
AcDbPoint
 10
421.7557228893756
 20
216.9950130996767
 30
0.0
  0
ENDBLK
  5
115
330
108
100
AcDbEntity
  8
0
100
AcDbBlockEnd
  0
BLOCK
  5
126
330
11C
100
AcDbEntity
  8
0
100
AcDbBlockBegin
  2
*D26
 70
     1
 10
0.0
 20
0.0
 30
0.0
  3
*D26
  1

  0
LINE
  5
11D
330
11C
100
AcDbEntity
  8
0
  6
ByBlock
 62
     2
100
AcDbLine
 10
435.1700766615501
 20
206.1450130996767
 30
0.0
 11
435.1700766615501
 21
186.5932946016055
 31
0.0
  0
LINE
  5
11E
330
11C
100
AcDbEntity
  8
0
  6
ByBlock
 62
     2
100
AcDbLine
 10
457.1700766615501
 20
206.1450130996767
 30
0.0
 11
457.1700766615501
 21
186.5932946016055
 31
0.0
  0
LINE
  5
11F
330
11C
100
AcDbEntity
  8
0
  6
ByBlock
 62
     2
100
AcDbLine
 10
441.1200766615501
 20
188.8032946016055
 30
0.0
 11
451.2200766615501
 21
188.8032946016055
 31
0.0
  0
SOLID
  5
120
330
11C
100
AcDbEntity
  8
0
  6
ByBlock
 62
     2
100
AcDbTrace
 10
441.1200766615501
 20
189.7949612682722
 30
0.0
 11
441.1200766615501
 21
187.8116279349388
 31
0.0
 12
435.1700766615501
 22
188.8032946016055
 32
0.0
 13
435.1700766615501
 23
188.8032946016055
 33
0.0
  0
SOLID
  5
121
330
11C
100
AcDbEntity
  8
0
  6
ByBlock
 62
     2
100
AcDbTrace
 10
451.2200766615501
 20
189.7949612682722
 30
0.0
 11
451.2200766615501
 21
187.8116279349388
 31
0.0
 12
457.1700766615501
 22
188.8032946016055
 32
0.0
 13
457.1700766615501
 23
188.8032946016055
 33
0.0
  0
MTEXT
  5
122
330
11C
100
AcDbEntity
  8
0
  6
ByBlock
 62
     3
100
AcDbMText
 10
446.1700766615502
 20
193.1532946016055
 30
0.0
 40
5.299999999999999
 41
0.0
 71
     5
 72
     1
  1
\A1;22
  7
ACA_NORM
 73
     1
 44
1.0
  0
POINT
  5
123
330
11C
100
AcDbEntity
  8
DEFPOINTS
  6
ByBlock
 62
     0
100
AcDbPoint
 10
435.1700766615501
 20
206.9950130996768
 30
0.0
  0
POINT
  5
124
330
11C
100
AcDbEntity
  8
DEFPOINTS
  6
ByBlock
 62
     0
100
AcDbPoint
 10
457.1700766615501
 20
206.9950130996768
 30
0.0
  0
POINT
  5
125
330
11C
100
AcDbEntity
  8
DEFPOINTS
  6
ByBlock
 62
     0
100
AcDbPoint
 10
457.1700766615501
 20
188.8032946016055
 30
0.0
  0
ENDBLK
  5
127
330
11C
100
AcDbEntity
  8
0
100
AcDbBlockEnd
  0
ENDSEC
  0
SECTION
  2
ENTITIES
  0
DIMENSION
  5
28
330
2
100
AcDbEntity
  8
BEMASSUNG
100
AcDbDimension
  2
*D0
 10
476.6737330599035
 20
426.9950130996767
 30
0.0
 11
472.3237330599034
 21
316.9950130996767
 31
0.0
 71
     5
 42
-1.0
  3
PROSPEKT
100
AcDbAlignedDimension
 13
457.1700766615501
 23
206.9950130996768
 33
0.0
 14
457.1700766615501
 24
426.9950130996768
 34
0.0
 50
90.0
100
AcDbRotatedDimension
  0
DIMENSION
  5
38
330
2
100
AcDbEntity
  8
BEMASSUNG
100
AcDbDimension
  2
*D24
 10
421.7557228893756
 20
216.9950130996767
 30
0.0
 11
417.4057228893756
 21
316.9950130996766
 31
0.0
 71
     5
 42
-1.0
  3
PROSPEKT
100
AcDbAlignedDimension
 13
436.4800766615503
 23
416.9950130996763
 33
0.0
 14
438.2200766615503
 24
216.9950130996767
 34
0.0
 50
90.0
100
AcDbRotatedDimension
  0
LWPOLYLINE
  5
45
330
2
100
AcDbEntity
  8
UMRISS05
100
AcDbPolyline
 90
       24
 70
     1
 43
0.0
 10
346.2546701949713
 20
306.995013099676
 10
345.8546701949714
 20
306.9950130996765
 42
0.4142135623733172
 10
345.5546701949713
 20
306.6950130996766
 10
345.5546701949713
 20
305.5950130996764
 42
-0.4142135623732059
 10
345.4546701949714
 20
305.4950130996765
 10
344.3546701949715
 20
305.4950130996767
 42
0.4142135623731427
 10
344.0546701949713
 20
305.1950130996768
 10
344.0546701949713
 20
304.7950130996769
 42
0.4142135623731427
 10
344.3546701949715
 20
304.495013099677
 10
345.4546701949714
 20
304.4950130996774
 42
-0.4142135623731299
 10
345.5546701949713
 20
304.3950130996775
 10
345.5546701949713
 20
303.2950130996762
 42
0.4142135623730773
 10
345.8546701949714
 20
302.9950130996763
 10
346.2546701949715
 20
302.9950130996765
 42
0.4142135623731189
 10
346.5546701949715
 20
303.2950130996765
 10
346.5546701949713
 20
304.3950130996768
 42
-0.414213562373123
 10
346.6546701949714
 20
304.4950130996767
 10
347.7546701949713
 20
304.495013099677
 42
0.4142135623730951
 10
348.0546701949713
 20
304.7950130996769
 10
348.0546701949713
 20
305.1950130996763
 42
0.4142135623730475
 10
347.7546701949713
 20
305.4950130996763
 10
346.6546701949714
 20
305.4950130996767
 42
-0.4142135623729704
 10
346.5546701949713
 20
305.5950130996766
 10
346.5546701949713
 20
306.6950130996761
 42
0.4142135623730831
  0
CIRCLE
  5
47
330
2
100
AcDbEntity
  8
UMRISS05
  6
Continuous
100
AcDbCircle
 10
346.0546701949713
 20
304.9950130996768
 30
0.0
 40
3.5
  0
DIMENSION
  5
48
330
2
100
AcDbEntity
  8
BEMASSUNG
100
AcDbDimension
  2
*D19
 10
274.061980606066
 20
300.9950130996763
 30
0.0
 11
269.711980606066
 21
329.4950130996763
 31
0.0
 71
     5
 42
-1.0
  3
PROSPEKT
100
AcDbAlignedDimension
 13
303.0546701949713
 23
357.9950130996763
 33
0.0
 14
301.0546701949713
 24
300.9950130996763
 34
0.0
 50
90.0
100
AcDbRotatedDimension
  0
DIMENSION
  5
55
330
2
100
AcDbEntity
  8
BEMASSUNG
100
AcDbDimension
  2
*D9
 10
384.9715454967479
 20
233.9950130996768
 30
0.0
 11
380.6215454967479
 21
316.9950130996766
 31
0.0
 71
     5
 42
-1.0
  3
PROSPEKT
100
AcDbAlignedDimension
 13
353.5546701949713
 23
399.9950130996763
 33
0.0
 14
353.5546701949713
 24
233.9950130996768
 34
0.0
 50
90.0
100
AcDbRotatedDimension
  0
DIMENSION
  5
62
330
2
100
AcDbEntity
  8
BEMASSUNG
100
AcDbDimension
  2
*D8
 10
369.8523304530617
 20
341.9950130996767
 30
0.0
 11
365.5023304530617
 21
302.9950130996768
 31
0.0
 71
     5
 42
-1.0
  3
PROSPEKT
100
AcDbAlignedDimension
 13
352.1546701949714
 23
263.9950130996767
 33
0.0
 14
350.0546701949713
 24
341.9950130996767
 34
0.0
 50
90.0
100
AcDbRotatedDimension
  0
LWPOLYLINE
  5
6F
330
2
100
AcDbEntity
  8
UMRISS05
100
AcDbPolyline
 90
        4
 70
     0
 43
0.0
 10
316.0546701949713
 20
399.9950130996768
 10
353.5546701949713
 20
399.9950130996763
 10
353.5546701949713
 20
233.9950130996768
 10
316.0546701949713
 20
233.9950130996768
  0
LWPOLYLINE
  5
70
330
2
100
AcDbEntity
  8
UMRISS05
100
AcDbPolyline
 90
        4
 70
     1
 43
0.0
 10
313.0546701949713
 20
206.9950130996768
 10
313.0546701949713
 20
426.9950130996768
 10
316.0546701949713
 20
426.9950130996768
 10
316.0546701949713
 20
206.9950130996768
  0
LWPOLYLINE
  5
71
330
2
100
AcDbEntity
  8
UMRISS05
100
AcDbPolyline
 90
        4
 70
     1
 43
0.0
 10
435.1700766615501
 20
206.9950130996768
 10
435.1700766615501
 20
426.9950130996768
 10
457.1700766615501
 20
426.9950130996768
 10
457.1700766615501
 20
206.9950130996768
  0
DIMENSION
  5
72
330
2
100
AcDbEntity
  8
BEMASSUNG
100
AcDbDimension
  2
*D6
 10
366.6383743379201
 20
140.4110058969679
 30
0.0
 11
362.0639883969065
 21
133.2620861774271
 31
0.0
 70
   128
 71
     5
 42
-1.0
  3
PROSPEKT
100
AcDbAlignedDimension
 13
353.5546701949713
 23
126.4110058969679
 33
0.0
 14
353.5546701949713
 24
140.4110058969679
 34
0.0
 50
90.0
100
AcDbRotatedDimension
  0
DIMENSION
  5
82
330
2
100
AcDbEntity
  8
BEMASSUNG
100
AcDbDimension
  2
*D15
 10
288.4848287620204
 20
233.9950130996768
 30
0.0
 11
284.1348287620204
 21
251.4950130996765
 31
0.0
 71
     5
 42
-1.0
  3
PROSPEKT
100
AcDbAlignedDimension
 13
301.0546701949713
 23
268.9950130996763
 33
0.0
 14
316.0546701949713
 24
233.9950130996768
 34
0.0
 50
90.0
100
AcDbRotatedDimension
  0
DIMENSION
  5
8F
330
2
100
AcDbEntity
  8
BEMASSUNG
100
AcDbDimension
  2
*D13
 10
288.4848287620204
 20
206.9950130996768
 30
0.0
 11
284.1348287620204
 21
220.4950130996767
 31
0.0
 71
     5
 42
-1.0
  3
PROSPEKT
100
AcDbAlignedDimension
 13
316.0546701949713
 23
233.9950130996768
 33
0.0
 14
313.0546701949713
 24
206.9950130996768
 34
0.0
 50
90.0
100
AcDbRotatedDimension
  0
DIMENSION
  5
9C
330
2
100
AcDbEntity
  8
BEMASSUNG
100
AcDbDimension
  2
*D12
 10
313.0546701949713
 20
256.3921284275841
 30
0.0
 11
307.0546701949713
 21
260.7421284275841
 31
0.0
 71
     5
 42
-1.0
  3
PROSPEKT
100
AcDbAlignedDimension
 13
301.0546701949713
 23
268.9950130996763
 33
0.0
 14
313.0546701949713
 24
257.772515970242
 34
0.0
100
AcDbRotatedDimension
  0
DIMENSION
  5
AB
330
2
100
AcDbEntity
  8
BEMASSUNG-DEUTSCH
100
AcDbDimension
  2
*D11
 10
313.0546701949713
 20
219.5817453437632
 30
0.0
 11
325.5546701949713
 21
223.9317453437632
 31
0.0
  1
DM
 71
     5
 42
-1.0
  3
PROSPEKT
100
AcDbAlignedDimension
 13
338.0546701949713
 23
234.8878202578199
 33
0.0
 14
313.0546701949713
 24
219.4283689501346
 34
0.0
100
AcDbRotatedDimension
  0
DIMENSION
  5
B9
330
2
100
AcDbEntity
  8
BEMASSUNG
100
AcDbDimension
  2
*D10
 10
316.0546701949713
 20
191.0536977501937
 30
0.0
 11
323.0076044553793
 21
195.9617500220386
 31
0.0
 70
   128
 71
     5
 42
-1.0
  3
PROSPEKT
100
AcDbAlignedDimension
 13
313.0546701949713
 23
206.9950130996768
 33
0.0
 14
316.0546701949713
 24
206.9950130996768
 34
0.0
100
AcDbRotatedDimension
  0
LWPOLYLINE
  5
C9
330
2
100
AcDbEntity
  8
UMRISS05
100
AcDbPolyline
 90
        4
 70
     1
 43
0.0
 10
313.0546701949713
 20
123.4110058969677
 10
316.0546701949713
 20
123.4110058969677
 10
316.0546701949713
 20
143.4110058969677
 10
313.0546701949713
 20
143.4110058969679
  0
DIMENSION
  5
CA
330
2
100
AcDbEntity
  8
BEMASSUNG
100
AcDbDimension
  2
*D14
 10
274.061980606066
 20
206.9950130996768
 30
0.0
 11
269.711980606066
 21
237.9950130996765
 31
0.0
 71
     5
 42
-1.0
  3
PROSPEKT
100
AcDbAlignedDimension
 13
301.0546701949713
 23
268.9950130996763
 33
0.0
 14
313.0546701949713
 24
206.9950130996768
 34
0.0
 50
90.0
100
AcDbRotatedDimension
  0
DIMENSION
  5
D7
330
2
100
AcDbEntity
  8
BEMASSUNG
100
AcDbDimension
  2
*D4
 10
276.6754543133202
 20
139.9110058969681
 30
0.0
 11
272.3254543133201
 21
133.4110058969681
 31
0.0
 71
     5
 42
-1.0
  3
PROSPEKT
100
AcDbAlignedDimension
 13
313.0546701949713
 23
126.9110058969681
 33
0.0
 14
303.0546701949713
 24
139.9110058969681
 34
0.0
 50
90.0
100
AcDbRotatedDimension
  0
LWPOLYLINE
  5
E6
330
2
100
AcDbEntity
  8
UMRISS05
100
AcDbPolyline
 90
        4
 70
     0
 43
0.0
 10
313.0546701949713
 20
126.9110058969681
 10
303.0546701949713
 20
136.9110058969681
 10
303.0546701949713
 20
139.9110058969681
 10
313.0546701949713
 20
139.9110058969681
  0
DIMENSION
  5
E7
330
2
100
AcDbEntity
  8
BEMASSUNG
100
AcDbDimension
  2
*D5
 10
288.4163761393886
 20
137.9110058969697
 30
0.0
 11
284.0663761393885
 21
133.4110058969677
 31
0.0
 71
     5
 42
-1.0
  3
PROSPEKT
100
AcDbAlignedDimension
 13
302.0546701949722
 23
128.9110058969656
 33
0.0
 14
302.0546701949722
 24
137.9110058969697
 34
0.0
 50
90.0
100
AcDbRotatedDimension
  0
LINE
  5
F6
330
2
100
AcDbEntity
  8
UMRISS05
100
AcDbLine
 10
303.0546701949713
 20
136.9110058969681
 30
0.0
 11
313.0546701949713
 21
136.9110058969681
 31
0.0
  0
LWPOLYLINE
  5
F7
330
2
100
AcDbEntity
  8
UMRISS05
100
AcDbPolyline
 90
        4
 70
     0
 43
0.0
 10
311.0546701949713
 20
128.9110058969681
 10
302.0546701949722
 20
128.9110058969658
 42
-0.2222222222223337
 10
302.0546701949722
 20
137.9110058969699
 10
303.0546701949713
 20
137.9110058969679
  0
DIMENSION
  5
F8
330
2
100
AcDbEntity
  8
BEMASSUNG
100
AcDbDimension
  2
*D7
 10
274.061980606066
 20
268.9950130996763
 30
0.0
 11
269.711980606066
 21
284.9950130996763
 31
0.0
 71
     5
 42
-1.0
  3
PROSPEKT
100
AcDbAlignedDimension
 13
301.0546701949713
 23
300.9950130996763
 33
0.0
 14
301.0546701949713
 24
268.9950130996763
 34
0.0
 50
90.0
100
AcDbRotatedDimension
  0
LWPOLYLINE
  5
105
330
2
100
AcDbEntity
  8
UMRISS05
100
AcDbPolyline
 90
        4
 70
     0
 43
0.0
 10
313.0546701949713
 20
300.9950130996763
 10
301.0546701949713
 20
300.9950130996763
 10
301.0546701949713
 20
268.9950130996763
 10
313.0546701949713
 20
268.9950130996763
  0
LINE
  5
106
330
2
100
AcDbEntity
  8
UMRISS05
100
AcDbLine
 10
302.0546701949713
 20
300.9950130996763
 30
0.0
 11
302.0546701949713
 21
268.9950130996763
 31
0.0
  0
DIMENSION
  5
107
330
2
100
AcDbEntity
  8
BEMASSUNG
100
AcDbDimension
  2
*D25
 10
421.7557228893756
 20
216.9950130996767
 30
0.0
 11
417.4057228893756
 21
211.9950130996767
 31
0.0
 71
     5
 42
-1.0
  3
PROSPEKT
100
AcDbAlignedDimension
 13
435.1700766615501
 23
206.9950130996768
 33
0.0
 14
438.2200766615503
 24
216.9950130996767
 34
0.0
 50
90.0
100
AcDbRotatedDimension
  0
LINE
  5
116
330
2
100
AcDbEntity
  8
ACHSEN
100
AcDbLine
 10
446.1700766615502
 20
224.9450130996766
 30
0.0
 11
446.1700766615502
 21
209.0450130996767
 31
0.0
  0
LWPOLYLINE
  5
119
330
2
100
AcDbEntity
  8
UMRISS05
100
AcDbPolyline
 90
        4
 70
     0
 43
0.0
 10
316.0546701949713
 20
126.4110058969677
 10
353.5546701949713
 20
126.4110058969679
 10
353.5546701949713
 20
140.4110058969679
 10
316.0546701949713
 20
140.4110058969679
  0
LWPOLYLINE
  5
11A
330
2
100
AcDbEntity
  8
UMRISS05
100
AcDbPolyline
 90
        4
 70
     0
 43
0.0
 10
331.3546701949714
 20
126.4110058969674
 10
331.3546701949714
 20
128.4110058969674
 10
344.5546701949713
 20
128.4110058969674
 10
344.5546701949713
 20
126.4110058969672
  0
DIMENSION
  5
11B
330
2
100
AcDbEntity
  8
BEMASSUNG
100
AcDbDimension
  2
*D26
 10
457.1700766615501
 20
188.8032946016055
 30
0.0
 11
446.1700766615502
 21
193.1532946016055
 31
0.0
 71
     5
 42
-1.0
  3
PROSPEKT
100
AcDbAlignedDimension
 13
435.1700766615501
 23
206.9950130996768
 33
0.0
 14
457.1700766615501
 24
206.9950130996768
 34
0.0
100
AcDbRotatedDimension
  0
LWPOLYLINE
  5
128
330
2
100
AcDbEntity
  8
UMRISS05
100
AcDbPolyline
 90
        4
 70
     1
 43
0.0
 10
343.1546701949714
 20
244.7950130996767
 10
343.1546701949714
 20
254.1360070645838
 42
4.109609026488783
 10
332.9546701949711
 20
254.1360070645838
 10
332.9546701949714
 20
244.7950130996767
 42
1.000000000000002
  0
LINE
  5
129
330
2
100
AcDbEntity
  8
ACHSEN
100
AcDbLine
 10
338.0546701949713
 20
234.8878202578199
 30
0.0
 11
338.0546701949713
 21
278.0950130996739
 31
0.0
  0
LWPOLYLINE
  5
12A
330
2
100
AcDbEntity
  8
ACHSEN
100
AcDbPolyline
 90
        4
 70
     1
 43
0.0
 10
332.9546701949711
 20
243.9950130996764
 10
332.9546701949786
 20
257.0704192487653
 42
-3.044038009987016
 10
343.1546701949712
 20
257.0704192487553
 10
343.1546701949712
 20
243.9950130996764
 42
-1.0
  0
DIMENSION
  5
12B
330
2
100
AcDbEntity
  8
BEMASSUNG
100
AcDbDimension
  2
*D17
 10
369.8523304530617
 20
263.9950130996767
 30
0.0
 11
365.5023304530617
 21
248.9950130996767
 31
0.0
 71
     5
 42
-1.0
  3
PROSPEKT
100
AcDbAlignedDimension
 13
353.5546701949713
 23
233.9950130996768
 33
0.0
 14
352.1546701949714
 24
263.9950130996767
 34
0.0
 50
90.0
100
AcDbRotatedDimension
  0
CIRCLE
  5
138
330
2
100
AcDbEntity
  8
UMRISS05
100
AcDbCircle
 10
348.0546701949713
 20
250.9950130996768
 30
0.0
 40
2.6
  0
LINE
  5
139
330
2
100
AcDbEntity
  8
ACHSEN
100
AcDbLine
 10
343.4546701949714
 20
250.9950130996768
 30
0.0
 11
352.6546701949703
 21
250.995013099677
 31
0.0
  0
LWPOLYLINE
  5
13A
330
2
100
AcDbEntity
  8
UMRISS05
100
AcDbPolyline
 90
        3
 70
     0
 43
0.0
 10
353.5546701949713
 20
236.1950130996766
 10
344.5546701949713
 20
236.1950130996766
 10
344.5546701949713
 20
233.9950130996768
  0
DIMENSION
  5
13B
330
2
100
AcDbEntity
  8
BEMASSUNG
100
AcDbDimension
  2
*D16
 10
338.0546701949713
 20
219.5817453437632
 30
0.0
 11
345.7159184991799
 21
224.4897950570322
 31
0.0
 70
   128
 71
     5
 42
-1.0
  3
PROSPEKT
100
AcDbAlignedDimension
 13
353.5546701949713
 23
233.9950130996768
 33
0.0
 14
338.0546701949713
 24
234.8878202578199
 34
0.0
100
AcDbRotatedDimension
  0
LINE
  5
148
330
2
100
AcDbEntity
  8
ACHSEN
100
AcDbLine
 10
323.4546701949593
 20
250.9950130996768
 30
0.0
 11
332.6546701949714
 21
250.9950130996768
 31
0.0
  0
LWPOLYLINE
  5
149
330
2
100
AcDbEntity
  8
UMRISS05
100
AcDbPolyline
 90
        3
 70
     0
 43
0.0
 10
316.0546701949713
 20
236.1950130996768
 10
331.5546701949713
 20
236.1950130996768
 10
331.5546701949713
 20
233.9950130996768
  0
LWPOLYLINE
  5
14A
330
2
100
AcDbEntity
  8
UMRISS05
100
AcDbPolyline
 90
       24
 70
     1
 43
0.0
 10
322.2546701949713
 20
254.4950130996761
 10
321.8546701949715
 20
254.4950130996765
 42
0.4142135623733172
 10
321.5546701949713
 20
254.1950130996766
 10
321.5546701949713
 20
253.0950130996764
 42
-0.4142135623732059
 10
321.4546701949714
 20
252.9950130996765
 10
320.3546701949715
 20
252.9950130996768
 42
0.4142135623731427
 10
320.0546701949713
 20
252.6950130996768
 10
320.0546701949713
 20
252.2950130996769
 42
0.4142135623731427
 10
320.3546701949715
 20
251.995013099677
 10
321.4546701949714
 20
251.9950130996774
 42
-0.4142135623731299
 10
321.5546701949713
 20
251.8950130996775
 10
321.5546701949713
 20
250.7950130996762
 42
0.4142135623730773
 10
321.8546701949715
 20
250.4950130996763
 10
322.2546701949716
 20
250.4950130996765
 42
0.4142135623731189
 10
322.5546701949715
 20
250.7950130996765
 10
322.5546701949713
 20
251.8950130996768
 42
-0.414213562373123
 10
322.6546701949714
 20
251.9950130996767
 10
323.7546701949713
 20
251.995013099677
 42
0.4142135623730951
 10
324.0546701949713
 20
252.2950130996769
 10
324.0546701949713
 20
252.6950130996763
 42
0.4142135623730475
 10
323.7546701949713
 20
252.9950130996763
 10
322.6546701949714
 20
252.9950130996768
 42
-0.4142135623729704
 10
322.5546701949713
 20
253.0950130996767
 10
322.5546701949713
 20
254.1950130996761
 42
0.4142135623730831
  0
CIRCLE
  5
14B
330
2
100
AcDbEntity
  8
UMRISS05
  6
Continuous
100
AcDbCircle
 10
322.0546701949713
 20
252.4950130996767
 30
0.0
 40
3.5
  0
LINE
  5
14C
330
2
100
AcDbEntity
  8
ACHSEN
100
AcDbLine
 10
328.0546701949713
 20
255.5950130996766
 30
0.0
 11
328.0546701949713
 21
246.3950130996768
 31
0.0
  0
CIRCLE
  5
14D
330
2
100
AcDbEntity
  8
UMRISS05
100
AcDbCircle
 10
328.0546701949713
 20
250.9950130996768
 30
0.0
 40
2.6
  0
LINE
  5
14E
330
2
100
AcDbEntity
  8
ACHSEN
100
AcDbLine
 10
348.0546701949713
 20
255.5950130996766
 30
0.0
 11
348.0546701949713
 21
246.3950130996768
 31
0.0
  0
LINE
  5
14F
330
2
100
AcDbEntity
  8
ACHSEN
100
AcDbLine
 10
324.6966255358815
 20
263.9950130996767
 30
0.0
 11
352.1546701949714
 21
263.9950130996767
 31
0.0
  0
LINE
  5
150
330
2
100
AcDbEntity
  8
ACHSEN
100
AcDbLine
 10
438.2200766615503
 20
216.9950130996767
 30
0.0
 11
454.1200766615502
 21
216.9950130996767
 31
0.0
  0
CIRCLE
  5
151
330
2
100
AcDbEntity
  8
UMRISS05
100
AcDbCircle
 10
446.1700766615502
 20
216.9950130996767
 30
0.0
 40
4.75
  0
CIRCLE
  5
152
330
2
100
AcDbEntity
  8
UMRISS05
100
AcDbCircle
 10
446.1700766615502
 20
216.9950130996767
 30
0.0
 40
2.6
  0
LINE
  5
153
330
2
100
AcDbEntity
  8
ACHSEN
100
AcDbLine
 10
438.2200766615503
 20
245.5950130996766
 30
0.0
 11
454.1200766615502
 21
245.5950130996766
 31
0.0
  0
CIRCLE
  5
154
330
2
100
AcDbEntity
  8
UMRISS05
100
AcDbCircle
 10
446.1700766615502
 20
245.5950130996766
 30
0.0
 40
4.75
  0
CIRCLE
  5
155
330
2
100
AcDbEntity
  8
UMRISS05
100
AcDbCircle
 10
446.1700766615502
 20
245.5950130996766
 30
0.0
 40
2.6
  0
LINE
  5
156
330
2
100
AcDbEntity
  8
ACHSEN
100
AcDbLine
 10
446.1700766615502
 20
253.5450130996764
 30
0.0
 11
446.1700766615502
 21
237.6450130996768
 31
0.0
  0
LWPOLYLINE
  5
157
330
2
100
AcDbEntity
  8
UMRISS05
100
AcDbPolyline
 90
        4
 70
     1
 43
0.0
 10
441.5700766615502
 20
268.9950130996767
 10
450.7700766615503
 20
268.9950130996767
 10
450.7700766615503
 20
301.1950130996766
 10
441.5700766615502
 20
301.1950130996766
  0
DIMENSION
  5
158
330
2
100
AcDbEntity
  8
BEMASSUNG
100
AcDbDimension
  2
*D21
 10
292.295709770447
 20
387.9950130996768
 30
0.0
 11
287.945709770447
 21
393.9950130996768
 31
0.0
 71
     5
 42
-1.0
  3
PROSPEKT
100
AcDbAlignedDimension
 13
316.0546701949713
 23
399.9950130996768
 33
0.0
 14
303.0546701949713
 24
387.9950130996768
 34
0.0
 50
90.0
100
AcDbRotatedDimension
  0
DIMENSION
  5
167
330
2
100
AcDbEntity
  8
BEMASSUNG
100
AcDbDimension
  2
*D18
 10
313.0546701949713
 20
347.1998828857993
 30
0.0
 11
308.0546701949713
 21
351.5498828857993
 31
0.0
 71
     5
 42
-1.0
  3
PROSPEKT
100
AcDbAlignedDimension
 13
303.0546701949713
 23
357.9950130996763
 33
0.0
 14
313.0546701949713
 24
345.054962147716
 34
0.0
100
AcDbRotatedDimension
  0
DIMENSION
  5
176
330
2
100
AcDbEntity
  8
BEMASSUNG
100
AcDbDimension
  2
*D1
 10
292.295709770447
 20
399.9950130996768
 30
0.0
 11
287.945709770447
 21
413.4950130996768
 31
0.0
 71
     5
 42
-1.0
  3
PROSPEKT
100
AcDbAlignedDimension
 13
313.0546701949713
 23
426.9950130996768
 33
0.0
 14
316.0546701949713
 24
399.9950130996768
 34
0.0
 50
90.0
100
AcDbRotatedDimension
  0
DIMENSION
  5
183
330
2
100
AcDbEntity
  8
BEMASSUNG
100
AcDbDimension
  2
*D2
 10
274.061980606066
 20
387.9950130996768
 30
0.0
 11
269.711980606066
 21
407.4950130996768
 31
0.0
 71
     5
 42
-1.0
  3
PROSPEKT
100
AcDbAlignedDimension
 13
313.0546701949713
 23
426.9950130996768
 33
0.0
 14
303.0546701949713
 24
387.9950130996768
 34
0.0
 50
90.0
100
AcDbRotatedDimension
  0
DIMENSION
  5
190
330
2
100
AcDbEntity
  8
BEMASSUNG
100
AcDbDimension
  2
*D20
 10
274.061980606066
 20
357.9950130996763
 30
0.0
 11
269.711980606066
 21
372.9950130996765
 31
0.0
 71
     5
 42
-1.0
  3
PROSPEKT
100
AcDbAlignedDimension
 13
303.0546701949713
 23
387.9950130996768
 33
0.0
 14
303.0546701949713
 24
357.9950130996763
 34
0.0
 50
90.0
100
AcDbRotatedDimension
  0
LWPOLYLINE
  5
19D
330
2
100
AcDbEntity
  8
UMRISS05
100
AcDbPolyline
 90
        4
 70
     0
 43
0.0
 10
313.0546701949713
 20
387.9950130996768
 10
303.0546701949713
 20
387.9950130996768
 10
303.0546701949713
 20
357.9950130996763
 10
313.0546701949713
 20
357.9950130996763
  0
LINE
  5
19E
330
2
100
AcDbEntity
  8
UMRISS05
100
AcDbLine
 10
313.0546701949713
 20
360.4450130996766
 30
0.0
 11
303.0546701949713
 21
360.4450130996766
 31
0.0
  0
LINE
  5
19F
330
2
100
AcDbEntity
  8
UMRISS05
100
AcDbLine
 10
313.0546701949713
 20
385.6450130996764
 30
0.0
 11
303.0546701949713
 21
385.6450130996764
 31
0.0
  0
LINE
  5
1A0
330
2
100
AcDbEntity
  8
ACHSEN
100
AcDbLine
 10
338.0546701949713
 20
329.9950130996768
 30
0.0
 11
338.0546701949713
 21
353.9950130996767
 31
0.0
  0
DIMENSION
  5
1A1
330
2
100
AcDbEntity
  8
BEMASSUNG
100
AcDbDimension
  2
*D23
 10
369.8523304530617
 20
399.9950130996763
 30
0.0
 11
365.5023304530617
 21
370.9950130996766
 31
0.0
 71
     5
 42
-1.0
  3
PROSPEKT
100
AcDbAlignedDimension
 13
350.0546701949713
 23
341.9950130996767
 33
0.0
 14
353.5546701949713
 24
399.9950130996763
 34
0.0
 50
90.0
100
AcDbRotatedDimension
  0
DIMENSION
  5
1AE
330
2
100
AcDbEntity
  8
BEMASSUNG
100
AcDbDimension
  2
*D22
 10
342.3304670938199
 20
358.9738697251917
 30
0.0
 11
337.8717619611837
 21
365.1981986152924
 31
0.0
 70
   129
  1
8/<>
 71
     5
 42
-1.0
  3
PROSPEKT
100
AcDbAlignedDimension
 13
333.4955429312963
 23
346.4350985260634
 33
0.0
 14
342.4947556213578
 24
346.5541403633512
 34
0.0
  0
CIRCLE
  5
1BE
330
2
100
AcDbEntity
  8
UMRISS05
  6
Continuous
100
AcDbCircle
 10
324.0546701949713
 20
352.9950130996768
 30
0.0
 40
3.5
  0
LWPOLYLINE
  5
1BF
330
2
100
AcDbEntity
  8
UMRISS05
100
AcDbPolyline
 90
       24
 70
     1
 43
0.0
 10
324.2546701949713
 20
354.995013099676
 10
323.8546701949715
 20
354.9950130996765
 42
0.4142135623733172
 10
323.5546701949713
 20
354.6950130996766
 10
323.5546701949713
 20
353.5950130996764
 42
-0.4142135623732059
 10
323.4546701949714
 20
353.4950130996765
 10
322.3546701949715
 20
353.4950130996767
 42
0.4142135623731427
 10
322.0546701949713
 20
353.1950130996768
 10
322.0546701949713
 20
352.7950130996769
 42
0.4142135623731427
 10
322.3546701949715
 20
352.495013099677
 10
323.4546701949714
 20
352.4950130996774
 42
-0.4142135623731299
 10
323.5546701949713
 20
352.3950130996775
 10
323.5546701949713
 20
351.2950130996762
 42
0.4142135623730773
 10
323.8546701949715
 20
350.9950130996763
 10
324.2546701949716
 20
350.9950130996765
 42
0.4142135623731189
 10
324.5546701949715
 20
351.2950130996765
 10
324.5546701949713
 20
352.3950130996768
 42
-0.414213562373123
 10
324.6546701949714
 20
352.4950130996767
 10
325.7546701949713
 20
352.495013099677
 42
0.4142135623730951
 10
326.0546701949713
 20
352.7950130996769
 10
326.0546701949713
 20
353.1950130996763
 42
0.4142135623730475
 10
325.7546701949713
 20
353.4950130996763
 10
324.6546701949714
 20
353.4950130996767
 42
-0.4142135623729704
 10
324.5546701949713
 20
353.5950130996766
 10
324.5546701949713
 20
354.6950130996761
 42
0.4142135623730831
  0
LINE
  5
1C0
330
2
100
AcDbEntity
  8
ACHSEN
100
AcDbLine
 10
338.0546701949713
 20
312.3450130996766
 30
0.0
 11
338.0546701949713
 21
327.6450130996768
 31
0.0
  0
LWPOLYLINE
  5
1C1
330
2
100
AcDbEntity
  8
UMRISS05
100
AcDbPolyline
 90
        4
 70
     1
 43
0.0
 10
335.4046701949714
 20
321.9950130996767
 10
335.4046701949714
 20
317.9950130996767
 42
1.0
 10
340.7046701949714
 20
317.9950130996767
 10
340.7046701949714
 20
321.9950130996767
 42
1.0
  0
LINE
  5
1C2
330
2
100
AcDbEntity
  8
ACHSEN
100
AcDbLine
 10
332.4046701949714
 20
321.9950130996767
 30
0.0
 11
343.7046701949714
 21
321.9950130996767
 31
0.0
  0
LINE
  5
1C3
330
2
100
AcDbEntity
  8
ACHSEN
100
AcDbLine
 10
332.4046701949714
 20
317.9950130996767
 30
0.0
 11
343.7046701949714
 21
317.9950130996767
 31
0.0
  0
CIRCLE
  5
1C4
330
2
100
AcDbEntity
  8
UMRISS05
100
AcDbCircle
 10
338.0546701949713
 20
341.9950130996767
 30
0.0
 40
9.0
  0
LINE
  5
1C5
330
2
100
AcDbEntity
  8
ACHSEN
100
AcDbLine
 10
326.0546701949713
 20
341.9950130996767
 30
0.0
 11
350.0546701949713
 21
341.9950130996767
 31
0.0
  0
LWPOLYLINE
  5
1C6
330
2
100
AcDbEntity
  8
UMRISS05
100
AcDbPolyline
 90
        4
 70
     1
 43
0.0
 10
318.4546701949714
 20
343.995013099677
 10
318.4546701949714
 20
333.995013099677
 10
322.7546701949713
 20
333.9950130996768
 10
322.7546701949713
 20
343.9950130996772
  0
LINE
  5
1C7
330
2
100
AcDbEntity
  8
UMRISS05
100
AcDbLine
 10
318.4546701949714
 20
335.995013099677
 30
0.0
 11
322.7546701949715
 21
335.9950130996768
 31
0.0
  0
LWPOLYLINE
  5
1C8
330
2
100
AcDbEntity
  8
UMRISS05
100
AcDbPolyline
 90
        4
 70
     1
 43
0.0
 10
333.6145847685843
 20
337.4358858360008
 10
342.6137974586465
 20
337.5549276732893
 10
342.4947556213578
 20
346.5541403633512
 10
333.4955429312961
 20
346.4350985260634
  0
LINE
  5
1C9
330
2
100
AcDbEntity
  8
UMRISS05
100
AcDbLine
 10
351.3546701949715
 20
328.0950130996764
 30
0.0
 11
353.5546701949713
 21
328.0950130996767
 31
0.0
  0
LINE
  5
1CA
330
2
100
AcDbEntity
  8
UMRISS05
100
AcDbLine
 10
351.3546701949715
 20
319.8950130996768
 30
0.0
 11
353.5546701949713
 21
319.8950130996766
 31
0.0
  0
LINE
  5
1CB
330
2
100
AcDbEntity
  8
UMRISS05
100
AcDbLine
 10
351.3546701949715
 20
328.0950130996764
 30
0.0
 11
351.3546701949715
 21
319.8950130996768
 31
0.0
  0
LINE
  5
1CC
330
2
100
AcDbEntity
  8
UMRISS05
100
AcDbLine
 10
353.5546701949713
 20
397.7950130996765
 30
0.0
 11
344.5546701949713
 21
397.7950130996765
 31
0.0
  0
LWPOLYLINE
  5
1CD
330
2
100
AcDbEntity
  8
UMRISS05
100
AcDbPolyline
 90
        4
 70
     1
 43
0.0
 10
336.1546701949714
 20
376.0450130996769
 10
350.6546701949714
 20
376.0450130996774
 10
350.6546701949714
 20
369.9450130996766
 10
336.1546701949714
 20
369.9450130996766
  0
LWPOLYLINE
  5
1CE
330
2
100
AcDbEntity
  8
UMRISS05
100
AcDbPolyline
 90
        8
 70
     1
 43
0.0
 10
329.8546701949715
 20
367.8450130996766
 10
331.6546701949714
 20
367.8450130996766
 10
331.6546701949714
 20
369.9950130996767
 10
333.6546701949714
 20
369.9950130996767
 10
333.6546701949714
 20
375.995013099677
 10
331.6546701949714
 20
375.995013099677
 10
331.6546701949714
 20
378.1450130996768
 10
329.8546701949715
 20
378.1450130996768
  0
LWPOLYLINE
  5
1CF
330
2
100
AcDbEntity
  8
UMRISS05
100
AcDbPolyline
 90
        4
 70
     0
 43
0.0
 10
316.0546701949708
 20
356.9950130996768
 10
325.0546701949713
 20
356.9950130996768
 10
325.0546701949713
 20
388.9950130996763
 10
316.0546701949713
 20
388.9950130996767
  0
LINE
  5
1D0
330
2
100
AcDbEntity
  8
UMRISS05
100
AcDbLine
 10
316.0546701949713
 20
369.4950130996768
 30
0.0
 11
325.0546701949713
 21
369.4950130996768
 31
0.0
  0
LINE
  5
1D1
330
2
100
AcDbEntity
  8
UMRISS05
100
AcDbLine
 10
316.0546701949713
 20
376.4950130996767
 30
0.0
 11
325.0546701949713
 21
376.4950130996767
 31
0.0
  0
LINE
  5
1D2
330
2
100
AcDbEntity
  8
UMRISS05
100
AcDbLine
 10
331.6546701949714
 20
375.995013099677
 30
0.0
 11
331.6546701949714
 21
369.9950130996767
 31
0.0
  0
LINE
  5
1D3
330
2
100
AcDbEntity
  8
UMRISS05
100
AcDbLine
 10
340.1546701949714
 20
369.9450130996766
 30
0.0
 11
340.1546701949714
 21
376.0450130996769
 31
0.0
  0
LINE
  5
1D4
330
2
100
AcDbEntity
  8
UMRISS05
100
AcDbLine
 10
338.1546701949714
 20
369.9450130996766
 30
0.0
 11
338.1546701949714
 21
376.0450130996769
 31
0.0
  0
LINE
  5
1D5
330
2
100
AcDbEntity
  8
UMRISS05
100
AcDbLine
 10
331.5546701949713
 20
397.7950130996765
 30
0.0
 11
316.0546701949713
 21
397.7950130996765
 31
0.0
  0
LINE
  5
1D6
330
2
100
AcDbEntity
  8
UMRISS05
100
AcDbLine
 10
331.5546701949713
 20
397.7950130996765
 30
0.0
 11
331.5546701949713
 21
399.9950130996763
 31
0.0
  0
CIRCLE
  5
1D7
330
2
100
AcDbEntity
  8
UMRISS05
  6
Continuous
100
AcDbCircle
 10
346.0546701949713
 20
391.9950130996767
 30
0.0
 40
3.5
  0
LWPOLYLINE
  5
1D8
330
2
100
AcDbEntity
  8
UMRISS05
100
AcDbPolyline
 90
       24
 70
     1
 43
0.0
 10
346.2546701949713
 20
393.9950130996763
 10
345.8546701949714
 20
393.9950130996763
 42
0.4142135623733172
 10
345.5546701949713
 20
393.6950130996766
 10
345.5546701949713
 20
392.5950130996767
 42
-0.4142135623732059
 10
345.4546701949714
 20
392.4950130996763
 10
344.3546701949715
 20
392.4950130996768
 42
0.4142135623731427
 10
344.0546701949713
 20
392.195013099677
 10
344.0546701949713
 20
391.7950130996769
 42
0.4142135623731427
 10
344.3546701949715
 20
391.4950130996772
 10
345.4546701949714
 20
391.4950130996772
 42
-0.4142135623731299
 10
345.5546701949713
 20
391.3950130996778
 10
345.5546701949713
 20
390.2950130996765
 42
0.4142135623730773
 10
345.8546701949714
 20
389.9950130996763
 10
346.2546701949715
 20
389.9950130996763
 42
0.4142135623731189
 10
346.5546701949715
 20
390.2950130996765
 10
346.5546701949713
 20
391.3950130996768
 42
-0.414213562373123
 10
346.6546701949714
 20
391.4950130996767
 10
347.7546701949713
 20
391.4950130996772
 42
0.4142135623730951
 10
348.0546701949713
 20
391.7950130996769
 10
348.0546701949713
 20
392.1950130996761
 42
0.4142135623730475
 10
347.7546701949713
 20
392.4950130996763
 10
346.6546701949714
 20
392.4950130996768
 42
-0.4142135623729704
 10
346.5546701949713
 20
392.5950130996767
 10
346.5546701949713
 20
393.6950130996761
 42
0.4142135623730831
  0
LINE
  5
1D9
330
2
100
AcDbEntity
  8
UMRISS05
100
AcDbLine
 10
344.5546701949713
 20
397.7950130996765
 30
0.0
 11
344.5546701949713
 21
399.9950130996763
 31
0.0
  0
LWPOLYLINE
  5
1DA
330
2
100
AcDbEntity
  8
UMRISS05
100
AcDbPolyline
 90
        4
 70
     1
 43
0.0
 10
442.77007666155
 20
388.1950130996766
 10
439.57007666155
 20
388.1950130996766
 10
439.57007666155
 20
357.8950130996764
 10
442.77007666155
 20
357.8950130996764
  0
LINE
  5
1DB
330
2
100
AcDbEntity
  8
UMRISS05
100
AcDbLine
 10
452.7700766615501
 20
388.1950130996766
 30
0.0
 11
452.7700766615501
 21
357.8950130996764
 31
0.0
  0
LWPOLYLINE
  5
1DC
330
2
100
AcDbEntity
  8
UMRISS05
100
AcDbPolyline
 90
        2
 70
     0
 43
0.0
 10
442.77007666155
 20
360.4450130996766
 10
452.7700766615501
 20
360.4450130996766
  0
LINE
  5
1DD
330
2
100
AcDbEntity
  8
UMRISS05
100
AcDbLine
 10
449.57007666155
 20
360.4450130996766
 30
0.0
 11
449.57007666155
 21
357.8950130996764
 31
0.0
  0
LINE
  5
1DE
330
2
100
AcDbEntity
  8
UMRISS05
100
AcDbLine
 10
449.5700766615502
 20
357.8950130996764
 30
0.0
 11
452.7700766615501
 21
357.8950130996764
 31
0.0
  0
LINE
  5
1DF
330
2
100
AcDbEntity
  8
UMRISS05
100
AcDbLine
 10
442.77007666155
 20
385.6450130996764
 30
0.0
 11
452.7700766615501
 21
385.6450130996764
 31
0.0
  0
LINE
  5
1E0
330
2
100
AcDbEntity
  8
UMRISS05
100
AcDbLine
 10
449.5700766615502
 20
388.1950130996766
 30
0.0
 11
452.7700766615501
 21
388.1950130996766
 31
0.0
  0
LINE
  5
1E1
330
2
100
AcDbEntity
  8
UMRISS05
100
AcDbLine
 10
449.5700766615502
 20
388.1950130996766
 30
0.0
 11
449.57007666155
 21
385.6450130996764
 31
0.0
  0
DIMENSION
  5
1E2
330
2
100
AcDbEntity
  8
BEMASSUNG
100
AcDbDimension
  2
*D3
 10
421.7557228893756
 20
416.9950130996763
 30
0.0
 11
417.4057228893756
 21
421.9950130996766
 31
0.0
 71
     5
 42
-1.0
  3
PROSPEKT
100
AcDbAlignedDimension
 13
435.1700766615501
 23
426.9950130996768
 33
0.0
 14
438.2200766615503
 24
416.9950130996763
 34
0.0
 50
90.0
100
AcDbRotatedDimension
  0
LINE
  5
1F1
330
2
100
AcDbEntity
  8
ACHSEN
100
AcDbLine
 10
446.1700766615502
 20
424.9450130996762
 30
0.0
 11
446.1700766615502
 21
409.0450130996766
 31
0.0
  0
LINE
  5
1F2
330
2
100
AcDbEntity
  8
ACHSEN
100
AcDbLine
 10
438.2200766615503
 20
416.9950130996763
 30
0.0
 11
454.1200766615502
 21
416.9950130996763
 31
0.0
  0
CIRCLE
  5
1F3
330
2
100
AcDbEntity
  8
UMRISS05
100
AcDbCircle
 10
446.1700766615502
 20
416.9950130996763
 30
0.0
 40
4.75
  0
CIRCLE
  5
1F4
330
2
100
AcDbEntity
  8
UMRISS05
100
AcDbCircle
 10
446.1700766615502
 20
416.9950130996763
 30
0.0
 40
2.6
  0
ENDSEC
  0
SECTION
  2
OBJECTS
  0
DICTIONARY
  5
8
330
0
100
AcDbDictionary
281
     1
  3
ACAD_GROUP
350
20
  3
ACAD_LAYOUT
350
C
  3
ACAD_MLINESTYLE
350
21
  3
ACAD_PLOTSETTINGS
350
22
  3
ACAD_PLOTSTYLENAME
350
7
  3
AcDbVariableDictionary
350
220
  3
AcmDictionary
350
205
  3
AMG
350
1F6
  3
DWGPROPS
350
21F
  0
DICTIONARY
  5
3
330
2
100
AcDbDictionary
280
     1
281
     1
  0
DICTIONARY
  5
20
102
{ACAD_REACTORS
330
8
102
}
330
8
100
AcDbDictionary
281
     1
  0
DICTIONARY
  5
C
102
{ACAD_REACTORS
330
8
102
}
330
8
100
AcDbDictionary
281
     1
  3
Layout1
350
10
  3
Model
350
B
  0
DICTIONARY
  5
21
102
{ACAD_REACTORS
330
8
102
}
330
8
100
AcDbDictionary
281
     1
  3
STANDARD
350
26
  0
DICTIONARY
  5
22
102
{ACAD_REACTORS
330
8
102
}
330
8
100
AcDbDictionary
281
     1
  0
ACDBDICTIONARYWDFLT
  5
7
102
{ACAD_REACTORS
330
8
102
}
330
8
100
AcDbDictionary
281
     1
  3
Normal
350
6
100
AcDbDictionaryWithDefault
340
6
  0
DICTIONARY
  5
220
102
{ACAD_REACTORS
330
8
102
}
330
8
100
AcDbDictionary
281
     1
  3
DIMASSOC
350
222
  3
HIDETEXT
350
221
  0
DICTIONARY
  5
205
102
{ACAD_REACTORS
330
8
102
}
330
8
100
AcDbDictionary
281
     1
  3
AcmStdDictionary
350
206
  0
DICTIONARY
  5
1F6
102
{ACAD_REACTORS
330
8
102
}
330
8
100
AcDbDictionary
281
     1
  3
AcMgSettings
350
200
  3
AMGLAYCFG
350
1F5
  0
XRECORD
  5
21F
102
{ACAD_REACTORS
330
8
102
}
330
8
100
AcDbXrecord
280
     1
  1
DWGPROPS COOKIE
  2

  3

  4

  6

  7

  8

  9

300
AmdtFileType=84
301
=
302
=
303
=
304
=
305
=
306
=
307
=
308
=
309
=
 40
0.0347737268518519
 41
2451229.388389212
 42
2452919.309980729
  1

 90
        1
  0
LAYOUT
  5
10
102
{ACAD_REACTORS
330
C
102
}
330
C
100
AcDbPlotSettings
  1

  2
G:\VORLAGEN\AutoCAD2002\Plotten\A3hoch-MSL.pc3
  4

  6

 40
0.0
 41
0.0
 42
0.0
 43
0.0
 44
0.0
 45
0.0
 46
0.0
 47
0.0
 48
0.0
 49
0.0
140
0.0
141
0.0
142
1.0
143
1.0
 70
   688
 72
     0
 73
     0
 74
     5
  7
monochrome.ctb
 75
    16
147
1.0
148
0.0
149
0.0
100
AcDbLayout
  1
Layout1
 70
     1
 71
     1
 10
0.0
 20
0.0
 11
12.0
 21
9.0
 12
0.0
 22
0.0
 32
0.0
 14
1.000000000000000E+20
 24
1.000000000000000E+20
 34
1.000000000000000E+20
 15
-1.000000000000000E+20
 25
-1.000000000000000E+20
 35
-1.000000000000000E+20
146
0.0
 13
0.0
 23
0.0
 33
0.0
 16
1.0
 26
0.0
 36
0.0
 17
0.0
 27
1.0
 37
0.0
 76
     0
330
D
  0
LAYOUT
  5
B
102
{ACAD_REACTORS
330
C
102
}
330
C
100
AcDbPlotSettings
  1

  2
G:\VORLAGEN\AutoCAD2002\Plotten\A3hoch-MSL.pc3
  4

  6

 40
0.0
 41
0.0
 42
0.0
 43
0.0
 44
0.0
 45
0.0
 46
0.0
 47
0.0
 48
0.0
 49
0.0
140
0.0
141
0.0
142
1.0
143
1.0
 70
  1712
 72
     0
 73
     0
 74
     0
  7
monochrome.ctb
 75
     0
147
1.0
148
0.0
149
0.0
100
AcDbLayout
  1
Model
 70
     1
 71
     0
 10
0.0
 20
0.0
 11
12.0
 21
9.0
 12
0.0
 22
0.0
 32
0.0
 14
0.0
 24
0.0
 34
0.0
 15
0.0
 25
0.0
 35
0.0
146
0.0
 13
0.0
 23
0.0
 33
0.0
 16
1.0
 26
0.0
 36
0.0
 17
0.0
 27
1.0
 37
0.0
 76
     0
330
2
  0
MLINESTYLE
  5
26
102
{ACAD_REACTORS
330
21
102
}
330
21
100
AcDbMlineStyle
  2
STANDARD
 70
     0
  3

 62
     0
 51
90.0
 52
90.0
 71
     2
 49
0.5
 62
   256
  6
BYLAYER
 49
-0.5
 62
   256
  6
BYLAYER
  0
ACDBPLACEHOLDER
  5
6
102
{ACAD_REACTORS
330
7
102
}
330
7
  0
DICTIONARYVAR
  5
222
102
{ACAD_REACTORS
330
220
102
}
330
220
100
DictionaryVariables
280
     0
  1
1
  0
DICTIONARYVAR
  5
221
102
{ACAD_REACTORS
330
220
102
}
330
220
100
DictionaryVariables
280
     0
  1
1
  0
DICTIONARY
  5
206
102
{ACAD_REACTORS
330
205
102
}
330
205
100
AcDbDictionary
281
     1
  3
DIN
350
207
  0
DICTIONARY
  5
200
102
{ACAD_REACTORS
330
1F6
102
}
330
1F6
100
AcDbDictionary
281
     1
  3
DWGSETTINGS
350
1FF
  3
TRANSSETTINGS
350
201
  0
ENDSEC
  0
EOF
