  0
SECTION
  2
HEADER
  9
$ACADVER
  1
AC1021
  9
$DWGCODEPAGE
  3
ANSI_1252
  9
$EXTMAX
 10
120.0
 20
355.0
 30
0.0
  9
$EXTMIN
 10
0.0
 20
0.0
 30
0.0
  9
$LIMMIN
 10
0.0
 20
0.0
  9
$LIMMAX
 10
120.0
 20
355.0
  9
$VIEWCTR
 10
60.0
 20
177.5
  9
$VIEWSIZE
 40
355.0
  9
$CLAYER
  8
0
  9
$LTSCALE
 40
23.1407407407
  9
$CELTYPE
  6
BYLAYER
  9
$DIMSCALE
 40
1.0
  9
$DIMASZ
 40
3.5
  9
$DIMEXO
 40
0.0
  9
$DIMDLI
 40
15.9881481481
  9
$DIMEXE
 40
1.0
  9
$DIMCEN
 40
3.7866666667
  9
$DIMLFAC
 40
1.0
  9
$DIMBLK
  1
_FILLED
  9
$DIMTXT
 40
2.5
  9
$DIMTOL
 70
1
  9
$DIMLIM
 70
0
  9
$DIMTFAC
 40
1.0
  9
$DIMTP
 40
0.001
  9
$DIMTM
 40
0.001
  9
$DIMGAP
 40
0.625
  9
$DIMDSEP
 70
46
  9
$PDMODE
 70
3
  9
$PDSIZE
 40
2.0
  9
$HANDSEED
  5
51F
  9
$TILEMODE
 70
1
  9
$MEASUREMENT
 70
1
  9
$INSUNITS
 70
4
  0
ENDSEC
  0
SECTION
  2
CLASSES
  0
CLASS
  1
ACDBDICTIONARYWDFLT
  2
AcDbDictionaryWithDefault
  3
AutoCAD 2000
 90
0
 91
1
280
0
281
0
  0
CLASS
  1
ACDBPLACEHOLDER
  2
AcDbPlaceHolder
  3
AutoCAD 2000
 90
0
 91
1
280
0
281
0
  0
CLASS
  1
LAYOUT
  2
AcDbLayout
  3
AutoCAD 2000
 90
0
 91
0
280
0
281
0
  0
ENDSEC
  0
SECTION
  2
TABLES
  0
TABLE
  2
VPORT
  5
8
100
AcDbSymbolTable
 70
2
  0
VPORT
  5
1F4
100
AcDbSymbolTableRecord
100
AcDbViewportTableRecord
  2
*ACTIVE
 70
0
 10
0.0
 20
0.0
 11
1.0
 21
1.0
 12
60.0
 22
177.5
 13
0.0
 23
0.0
 14
1.0
 24
1.0
 15
0.0
 25
0.0
 16
0.0
 26
0.0
 36
1.0
 17
0.0
 27
0.0
 37
0.0
 40
355.0
 41
0.338028169
 42
50.0
 43
0.0
 44
0.0
 50
0.0
 51
0.0
 71
0
 72
100
 73
1
 74
1
 75
0
 76
0
 77
0
 78
0
  0
ENDTAB
  0
TABLE
  2
LTYPE
  5
5
100
AcDbSymbolTable
 70
6
  0
LTYPE
  5
14
100
AcDbSymbolTableRecord
100
AcDbLinetypeTableRecord
  2
BYBLOCK
 70
0
  3

 72
65
 73
0
 40
0.0
  0
LTYPE
  5
15
100
AcDbSymbolTableRecord
100
AcDbLinetypeTableRecord
  2
BYLAYER
 70
0
  3

 72
65
 73
0
 40
0.0
  0
LTYPE
  5
16
100
AcDbSymbolTableRecord
100
AcDbLinetypeTableRecord
  2
CONTINUOUS
 70
64
  3
Solid line
 72
65
 73
0
 40
0.0
  0
LTYPE
  5
1F5
100
AcDbSymbolTableRecord
100
AcDbLinetypeTableRecord
  2
CENTER
 70
64
  3
____ _ ____ _ ____ _ ____ _ ____ _ ____ _ ____
 72
65
 73
4
 40
0.6
 49
0.375
 74
0
 49
-0.075
 74
0
 49
0.075
 74
0
 49
-0.075
 74
0
  0
LTYPE
  5
1F6
100
AcDbSymbolTableRecord
100
AcDbLinetypeTableRecord
  2
HIDDEN
 70
64
  3
- - - - - - - - - - - - - - - - - - - -
 72
65
 73
2
 40
0.2
 49
0.1
 74
0
 49
-0.1
 74
0
  0
LTYPE
  5
1F7
100
AcDbSymbolTableRecord
100
AcDbLinetypeTableRecord
  2
PHANTOM
 70
64
  3
_____ _ _ _____ _ _ _____ _ _ _____
 72
65
 73
6
 40
0.8
 49
0.45
 74
0
 49
-0.05
 74
0
 49
0.1
 74
0
 49
-0.05
 74
0
 49
0.1
 74
0
 49
-0.05
 74
0
  0
LTYPE
  5
1F8
100
AcDbSymbolTableRecord
100
AcDbLinetypeTableRecord
  2
DOT
 70
64
  3
. . . . . . . . . . . . . . . . . . . .
 72
65
 73
2
 40
0.2
 49
0.1
 74
0
 49
-0.1
 74
0
  0
LTYPE
  5
1F9
100
AcDbSymbolTableRecord
100
AcDbLinetypeTableRecord
  2
DASHED
 70
64
  3
- - - - - - - - - - - - - - - - - - - -
 72
65
 73
2
 40
0.2
 49
0.1
 74
0
 49
-0.1
 74
0
  0
ENDTAB
  0
TABLE
  2
LAYER
  5
2
100
AcDbSymbolTable
 70
36
  0
LAYER
  5
10
100
AcDbSymbolTableRecord
100
AcDbLayerTableRecord
  2
0
 70
0
 62
7
  6
CONTINUOUS
370
-3
390
F
  0
LAYER
  5
1FA
100
AcDbSymbolTableRecord
100
AcDbLayerTableRecord
  2
DEFAULT_1
 70
0
 62
7
  6
CENTER
370
-3
390
F
  0
LAYER
  5
1FB
100
AcDbSymbolTableRecord
100
AcDbLayerTableRecord
  2
DEFAULT_2
 70
0
 62
8
  6
HIDDEN
370
-3
390
F
  0
LAYER
  5
1FC
100
AcDbSymbolTableRecord
100
AcDbLayerTableRecord
  2
DEFAULT_3
 70
0
 62
7
  6
PHANTOM
370
-3
390
F
  0
LAYER
  5
1FD
100
AcDbSymbolTableRecord
100
AcDbLayerTableRecord
  2
AXIS
 70
0
 62
7
  6
CONTINUOUS
370
-3
390
F
  0
LAYER
  5
1FE
100
AcDbSymbolTableRecord
100
AcDbLayerTableRecord
  2
COORDSYS
 70
0
 62
7
  6
CONTINUOUS
370
-3
390
F
  0
LAYER
  5
1FF
100
AcDbSymbolTableRecord
100
AcDbLayerTableRecord
  2
CURVES
 70
0
 62
7
  6
CONTINUOUS
370
-3
390
F
  0
LAYER
  5
200
100
AcDbSymbolTableRecord
100
AcDbLayerTableRecord
  2
EINBAUREFERENZ
 70
0
 62
7
  6
CONTINUOUS
370
-3
390
F
  0
LAYER
  5
201
100
AcDbSymbolTableRecord
100
AcDbLayerTableRecord
  2
KOSMETIK
 70
0
 62
7
  6
CONTINUOUS
370
-3
390
F
  0
LAYER
  5
202
100
AcDbSymbolTableRecord
100
AcDbLayerTableRecord
  2
KURVE
 70
0
 62
7
  6
CONTINUOUS
370
-3
390
F
  0
LAYER
  5
203
100
AcDbSymbolTableRecord
100
AcDbLayerTableRecord
  2
PLANES
 70
0
 62
7
  6
CONTINUOUS
370
-3
390
F
  0
LAYER
  5
204
100
AcDbSymbolTableRecord
100
AcDbLayerTableRecord
  2
POINTS
 70
0
 62
7
  6
CONTINUOUS
370
-3
390
F
  0
LAYER
  5
205
100
AcDbSymbolTableRecord
100
AcDbLayerTableRecord
  2
PROFIL-EINBAULAGE
 70
0
 62
7
  6
CONTINUOUS
370
-3
390
F
  0
LAYER
  5
206
100
AcDbSymbolTableRecord
100
AcDbLayerTableRecord
  2
S-AXIS
 70
0
 62
7
  6
CONTINUOUS
370
-3
390
F
  0
LAYER
  5
207
100
AcDbSymbolTableRecord
100
AcDbLayerTableRecord
  2
S-COORDSYS
 70
0
 62
7
  6
CONTINUOUS
370
-3
390
F
  0
LAYER
  5
208
100
AcDbSymbolTableRecord
100
AcDbLayerTableRecord
  2
S-PLANES
 70
0
 62
7
  6
CONTINUOUS
370
-3
390
F
  0
LAYER
  5
209
100
AcDbSymbolTableRecord
100
AcDbLayerTableRecord
  2
THREADS
 70
0
 62
7
  6
CONTINUOUS
370
-3
390
F
  0
LAYER
  5
20A
100
AcDbSymbolTableRecord
100
AcDbLayerTableRecord
  2
XSEC_DATUMS
 70
0
 62
7
  6
CONTINUOUS
370
-3
390
F
  0
LAYER
  5
20B
100
AcDbSymbolTableRecord
100
AcDbLayerTableRecord
  2
94862701R00_BL0
 70
0
 62
7
  6
CONTINUOUS
370
-3
390
F
  0
LAYER
  5
20C
100
AcDbSymbolTableRecord
100
AcDbLayerTableRecord
  2
93780800R00_BL1
 70
0
 62
7
  6
CONTINUOUS
370
-3
390
F
  0
LAYER
  5
20D
100
AcDbSymbolTableRecord
100
AcDbLayerTableRecord
  2
93894203000_BL2
 70
0
 62
7
  6
CONTINUOUS
370
-3
390
F
  0
LAYER
  5
20E
100
AcDbSymbolTableRecord
100
AcDbLayerTableRecord
  2
93780800R00_BL3
 70
0
 62
7
  6
CONTINUOUS
370
-3
390
F
  0
LAYER
  5
20F
100
AcDbSymbolTableRecord
100
AcDbLayerTableRecord
  2
93894102000_BL4
 70
0
 62
7
  6
CONTINUOUS
370
-3
390
F
  0
LAYER
  5
210
100
AcDbSymbolTableRecord
100
AcDbLayerTableRecord
  2
62890299000_O03_BL5
 70
0
 62
7
  6
CONTINUOUS
370
-3
390
F
  0
LAYER
  5
211
100
AcDbSymbolTableRecord
100
AcDbLayerTableRecord
  2
91324206R00_BL6
 70
0
 62
7
  6
CONTINUOUS
370
-3
390
F
  0
LAYER
  5
212
100
AcDbSymbolTableRecord
100
AcDbLayerTableRecord
  2
91324206R00_BL7
 70
0
 62
7
  6
CONTINUOUS
370
-3
390
F
  0
ENDTAB
  0
TABLE
  2
STYLE
  5
3
100
AcDbSymbolTable
 70
1
  0
STYLE
  5
11
100
AcDbSymbolTableRecord
100
AcDbTextStyleTableRecord
  2
STANDARD
 70
0
 40
0.0
 41
0.8
 50
0.0
 71
0
 42
0.2
  3
txt
  4

  0
STYLE
  5
213
100
AcDbSymbolTableRecord
100
AcDbTextStyleTableRecord
  2
TEXTSTYLE_1
 70
0
 40
0.0
 41
0.8
 50
0.0
 71
0
 42
0.2
  3
gdt
  4

  0
STYLE
  5
214
100
AcDbSymbolTableRecord
100
AcDbTextStyleTableRecord
  2
TEXTSTYLE_2
 70
0
 40
0.0
 41
1.0
 50
0.0
 71
0
 42
0.2
  3
arialbd.ttf
  4

  0
STYLE
  5
215
100
AcDbSymbolTableRecord
100
AcDbTextStyleTableRecord
  2
TEXTSTYLE_3
 70
0
 40
0.0
 41
1.0
 50
0.0
 71
0
 42
0.2
  3
arial.ttf
  4

  0
ENDTAB
  0
TABLE
  2
VIEW
  5
6
100
AcDbSymbolTable
 70
0
  0
ENDTAB
  0
TABLE
  2
UCS
  5
7
100
AcDbSymbolTable
 70
0
  0
ENDTAB
  0
TABLE
  2
APPID
  5
9
100
AcDbSymbolTable
 70
1
  0
APPID
  5
216
100
AcDbSymbolTableRecord
100
AcDbRegAppTableRecord
  2
ACAD
 70
0
  0
ENDTAB
  0
TABLE
  2
BLOCK_RECORD
  5
1
100
AcDbSymbolTable
 70
0
  0
BLOCK_RECORD
  5
217
100
AcDbSymbolTableRecord
100
AcDbBlockTableRecord
  2
*Model_Space
  0
BLOCK_RECORD
  5
218
100
AcDbSymbolTableRecord
100
AcDbBlockTableRecord
  2
*Paper_Space
  0
BLOCK_RECORD
  5
219
100
AcDbSymbolTableRecord
100
AcDbBlockTableRecord
  2
_FILLED
  0
BLOCK_RECORD
  5
21A
100
AcDbSymbolTableRecord
100
AcDbBlockTableRecord
  2
*D0
  0
BLOCK_RECORD
  5
21B
100
AcDbSymbolTableRecord
100
AcDbBlockTableRecord
  2
*D1
  0
BLOCK_RECORD
  5
21C
100
AcDbSymbolTableRecord
100
AcDbBlockTableRecord
  2
*D2
  0
BLOCK_RECORD
  5
21D
100
AcDbSymbolTableRecord
100
AcDbBlockTableRecord
  2
*D3
  0
BLOCK_RECORD
  5
21E
100
AcDbSymbolTableRecord
100
AcDbBlockTableRecord
  2
*D4
  0
BLOCK_RECORD
  5
21F
100
AcDbSymbolTableRecord
100
AcDbBlockTableRecord
  2
*D5
  0
BLOCK_RECORD
  5
220
100
AcDbSymbolTableRecord
100
AcDbBlockTableRecord
  2
*D6
  0
BLOCK_RECORD
  5
221
100
AcDbSymbolTableRecord
100
AcDbBlockTableRecord
  2
*D7
  0
BLOCK_RECORD
  5
222
100
AcDbSymbolTableRecord
100
AcDbBlockTableRecord
  2
*D8
  0
BLOCK_RECORD
  5
223
100
AcDbSymbolTableRecord
100
AcDbBlockTableRecord
  2
*D9
  0
BLOCK_RECORD
  5
224
100
AcDbSymbolTableRecord
100
AcDbBlockTableRecord
  2
SYMBOL_0_BL8
  0
BLOCK_RECORD
  5
225
100
AcDbSymbolTableRecord
100
AcDbBlockTableRecord
  2
94862701R00_BL0
  0
BLOCK_RECORD
  5
226
100
AcDbSymbolTableRecord
100
AcDbBlockTableRecord
  2
93780800R00_BL1
  0
BLOCK_RECORD
  5
227
100
AcDbSymbolTableRecord
100
AcDbBlockTableRecord
  2
93894203000_BL2
  0
BLOCK_RECORD
  5
228
100
AcDbSymbolTableRecord
100
AcDbBlockTableRecord
  2
93780800R00_BL3
  0
BLOCK_RECORD
  5
229
100
AcDbSymbolTableRecord
100
AcDbBlockTableRecord
  2
93894102000_BL4
  0
BLOCK_RECORD
  5
22A
100
AcDbSymbolTableRecord
100
AcDbBlockTableRecord
  2
62890299000_O03_BL5
  0
BLOCK_RECORD
  5
22B
100
AcDbSymbolTableRecord
100
AcDbBlockTableRecord
  2
91324206R00_BL6
  0
BLOCK_RECORD
  5
22C
100
AcDbSymbolTableRecord
100
AcDbBlockTableRecord
  2
91324206R00_BL7
  0
ENDTAB
  0
TABLE
  2
DIMSTYLE
  5
A
100
AcDbSymbolTable
 70
1
100
AcDbDimStyleTable
 71
0
  0
DIMSTYLE
105
22D
100
AcDbSymbolTableRecord
100
AcDbDimStyleTableRecord
  2
STANDARD
 70
0
  3

  4

 40
1.0
 41
3.5
 42
0.0
 43
0.38
 44
1.0
 45
0.0
 46
0.0
 47
0.001
 48
0.001
140
2.5
141
0.09
142
0.0
143
25.4
144
1.0
145
0.0
146
1.0
147
0.625
 71
1.0
 72
0.0
 73
0
 74
0
 75
0
 76
0
 77
1
 78
8
170
0
171
2
172
0
173
0
174
0
175
0
176
0
177
0
178
5
270
2
271
3
272
3
273
2
274
2
275
0
280
0
281
0
282
0
283
1
284
8
285
0
286
0
287
3
288
0
340
11
278
46
341
219
342
219
343
219
344
219
  0
DIMSTYLE
105
22E
100
AcDbSymbolTableRecord
100
AcDbDimStyleTableRecord
  2
DIMSTYLE_1
 70
0
  3

  4

 40
1.0
 41
3.5
 42
0.0
 43
0.38
 44
1.0
 45
0.0
 46
0.0
 47
0.2
 48
0.2
140
2.5
141
0.09
142
0.0
143
25.4
144
1.0
145
0.0
146
1.0
147
0.625
 71
0.0
 72
0.0
 73
0
 74
0
 75
0
 76
0
 77
1
 78
8
170
0
171
2
172
0
173
0
174
0
175
0
176
0
177
0
178
5
270
2
271
1
272
1
273
2
274
2
275
0
280
0
281
0
282
0
283
1
284
8
285
0
286
0
287
3
288
0
340
11
278
46
341
219
342
219
343
219
344
219
  0
DIMSTYLE
105
22F
100
AcDbSymbolTableRecord
100
AcDbDimStyleTableRecord
  2
DIMSTYLE_2
 70
0
  3

  4

 40
1.0
 41
3.5
 42
0.0
 43
0.38
 44
1.0
 45
0.0
 46
0.0
 47
0.3
 48
0.3
140
2.5
141
0.09
142
0.0
143
25.4
144
1.0
145
0.0
146
1.0
147
0.625
 71
0.0
 72
0.0
 73
0
 74
0
 75
0
 76
0
 77
1
 78
8
170
0
171
2
172
0
173
0
174
0
175
0
176
0
177
0
178
5
270
2
271
3
272
3
273
2
274
2
275
0
280
0
281
0
282
0
283
1
284
8
285
0
286
0
287
3
288
0
340
11
278
46
341
219
342
219
343
219
344
219
  0
DIMSTYLE
105
230
100
AcDbSymbolTableRecord
100
AcDbDimStyleTableRecord
  2
DIMSTYLE_3
 70
0
  3

  4

 40
1.0
 41
3.5
 42
0.0
 43
0.38
 44
1.0
 45
0.0
 46
0.0
 47
0.5
 48
0.5
140
2.5
141
0.09
142
0.0
143
25.4
144
1.0
145
0.0
146
1.0
147
0.625
 71
0.0
 72
0.0
 73
0
 74
0
 75
0
 76
0
 77
1
 78
8
170
0
171
2
172
0
173
0
174
0
175
0
176
0
177
0
178
5
270
2
271
3
272
3
273
2
274
2
275
0
280
0
281
0
282
0
283
1
284
8
285
0
286
0
287
3
288
0
340
11
278
46
341
219
342
219
343
219
344
219
  0
DIMSTYLE
105
231
100
AcDbSymbolTableRecord
100
AcDbDimStyleTableRecord
  2
DIMSTYLE_4
 70
0
  3

  4

 40
1.0
 41
3.5
 42
0.0
 43
0.38
 44
1.0
 45
0.0
 46
0.0
 47
0.2
 48
0.2
140
2.5
141
0.09
142
0.0
143
25.4
144
1.0
145
0.0
146
1.0
147
0.625
 71
0.0
 72
0.0
 73
0
 74
0
 75
0
 76
0
 77
1
 78
8
170
0
171
2
172
0
173
0
174
0
175
0
176
0
177
0
178
5
270
2
271
3
272
3
273
2
274
2
275
0
280
0
281
0
282
0
283
1
284
8
285
0
286
0
287
3
288
0
340
11
278
46
341
219
342
219
343
219
344
219
  0
DIMSTYLE
105
232
100
AcDbSymbolTableRecord
100
AcDbDimStyleTableRecord
  2
DIMSTYLE_5
 70
0
  3

  4

 40
1.0
 41
3.5
 42
0.0
 43
0.38
 44
1.0
 45
0.0
 46
0.0
 47
0.1
 48
0.1
140
2.5
141
0.09
142
0.0
143
25.4
144
1.0
145
0.0
146
1.0
147
0.625
 71
0.0
 72
0.0
 73
0
 74
0
 75
0
 76
0
 77
1
 78
8
170
0
171
2
172
0
173
0
174
0
175
0
176
0
177
0
178
5
270
2
271
3
272
3
273
2
274
2
275
0
280
0
281
0
282
0
283
1
284
8
285
0
286
0
287
3
288
0
340
11
278
46
341
219
342
219
343
219
344
219
  0
ENDTAB
  0
ENDSEC
  0
SECTION
  2
BLOCKS
  0
BLOCK
  5
20
100
AcDbEntity
  8
0
100
AcDbBlockBegin
  2
*Model_Space
 70
0
 10
0.0
 20
0.0
 30
0.0
  3
*Model_Space
  1

  0
ENDBLK
  5
21
100
AcDbEntity
  8
0
100
AcDbBlockEnd
  0
BLOCK
  5
1C
100
AcDbEntity
  8
0
100
AcDbBlockBegin
  2
*Paper_Space
 70
0
 10
0.0
 20
0.0
 30
0.0
  3
*Paper_Space
  1

  0
ENDBLK
  5
1D
100
AcDbEntity
  8
0
100
AcDbBlockEnd
  0
BLOCK
  5
233
100
AcDbEntity
  8
0
100
AcDbBlockBegin
 62
2
  6
CONTINUOUS
  2
SYMBOL_0_BL8
 70
64
 10
31.0000000239
 20
34.9999999785
  3
SYMBOL_0_BL8
  1

  0
TEXT
  5
234
100
AcDbEntity
  8
0
100
AcDbText
 62
5
  6
CONTINUOUS
 10
11.6434778505
 20
32.1908716548
  7
TEXTSTYLE_2
 40
4.0
  1
6-37368-01-R
 72
5
 11
46.1118793375
 21
32.1908716548
100
AcDbText
  0
TEXT
  5
235
100
AcDbEntity
  8
0
100
AcDbText
 62
5
  6
CONTINUOUS
 10
10.9089559916
 20
24.1776342906
  7
TEXTSTYLE_3
 40
2.5
  1
Scale
 72
5
 11
19.6357217908
 21
24.1776342906
100
AcDbText
  0
TEXT
  5
236
100
AcDbEntity
  8
0
100
AcDbText
 62
5
  6
CONTINUOUS
 10
10.9089559916
 20
20.4276342906
  7
TEXTSTYLE_3
 40
2.5
  1
1:1
 72
5
 11
15.7602571068
 21
20.4276342906
100
AcDbText
  0
TEXT
  5
237
100
AcDbEntity
  8
0
100
AcDbText
 62
5
  6
CONTINUOUS
 10
10.9089559916
 20
13.0518233866
  7
TEXTSTYLE_3
 40
2.5
  1
Draft
 72
5
 11
18.4647180733
 21
13.0518233866
100
AcDbText
  0
TEXT
  5
238
100
AcDbEntity
  8
0
100
AcDbText
 62
5
  6
CONTINUOUS
 10
23.3811982505
 20
13.113338109
  7
TEXTSTYLE_3
 40
2.5
  1
23.03.2017
 72
5
 11
40.8533172096
 21
13.113338109
100
AcDbText
  0
TEXT
  5
239
100
AcDbEntity
  8
0
100
AcDbText
 62
5
  6
CONTINUOUS
 10
45.71759366
 20
13.1067461609
  7
TEXTSTYLE_3
 40
2.5
  1
Dr
 72
5
 11
49.435065779
 21
13.1067461609
100
AcDbText
  0
LINE
  5
23A
100
AcDbEntity
  8
0
100
AcDbLine
 62
2
  6
CONTINUOUS
 10
10.0000000239
 20
59.9999999785
 11
52.0000000239
 21
59.9999999785
  0
LINE
  5
23B
100
AcDbEntity
  8
0
100
AcDbLine
 62
2
  6
CONTINUOUS
 10
52.0000000239
 20
59.9999999785
 11
52.0000000239
 21
9.9999999785
  0
LINE
  5
23C
100
AcDbEntity
  8
0
100
AcDbLine
 62
2
  6
CONTINUOUS
 10
10.0000000239
 20
9.9999999785
 11
52.0000000239
 21
9.9999999785
  0
LINE
  5
23D
100
AcDbEntity
  8
0
100
AcDbLine
 62
2
  6
CONTINUOUS
 10
10.0000000239
 20
39.9999999785
 11
21.0000000239
 21
39.9999999785
  0
LINE
  5
23E
100
AcDbEntity
  8
0
100
AcDbLine
 62
2
  6
CONTINUOUS
 10
10.0000000239
 20
27.9999999785
 11
21.0000000239
 21
27.9999999785
  0
LINE
  5
23F
100
AcDbEntity
  8
0
100
AcDbLine
 62
2
  6
CONTINUOUS
 10
10.0000000239
 20
18.9999999785
 11
21.0000000239
 21
18.9999999785
  0
LINE
  5
240
100
AcDbEntity
  8
0
100
AcDbLine
 62
2
  6
CONTINUOUS
 10
21.0000000239
 20
39.9999999785
 11
43.0000000239
 21
39.9999999785
  0
LINE
  5
241
100
AcDbEntity
  8
0
100
AcDbLine
 62
2
  6
CONTINUOUS
 10
43.0000000239
 20
39.9999999785
 11
52.0000000239
 21
39.9999999785
  0
LINE
  5
242
100
AcDbEntity
  8
0
100
AcDbLine
 62
2
  6
CONTINUOUS
 10
21.0000000239
 20
27.9999999785
 11
43.0000000239
 21
27.9999999785
  0
LINE
  5
243
100
AcDbEntity
  8
0
100
AcDbLine
 62
2
  6
CONTINUOUS
 10
43.0000000239
 20
27.9999999785
 11
52.0000000239
 21
27.9999999785
  0
LINE
  5
244
100
AcDbEntity
  8
0
100
AcDbLine
 62
2
  6
CONTINUOUS
 10
21.0000000239
 20
18.9999999785
 11
21.0000000239
 21
9.9999999785
  0
LINE
  5
245
100
AcDbEntity
  8
0
100
AcDbLine
 62
2
  6
CONTINUOUS
 10
21.0000000239
 20
18.9999999785
 11
43.0000000239
 21
18.9999999785
  0
LINE
  5
246
100
AcDbEntity
  8
0
100
AcDbLine
 62
2
  6
CONTINUOUS
 10
43.0000000239
 20
18.9999999785
 11
43.0000000239
 21
9.9999999785
  0
LINE
  5
247
100
AcDbEntity
  8
0
100
AcDbLine
 62
2
  6
CONTINUOUS
 10
43.0000000239
 20
18.9999999785
 11
52.0000000239
 21
18.9999999785
  0
LINE
  5
248
100
AcDbEntity
  8
0
100
AcDbLine
 62
2
  6
CONTINUOUS
 10
10.0000000239
 20
9.9999999785
 11
10.0000000239
 21
59.9999999785
  0
ARC
  5
249
100
AcDbEntity
  8
0
100
AcDbCircle
 62
2
  6
CONTINUOUS
 10
17.6290122978
 20
56.1308274644
 40
1.2679261569
100
AcDbArc
 50
90.0
 51
180.0
  0
LINE
  5
24A
100
AcDbEntity
  8
0
100
AcDbLine
 62
2
  6
CONTINUOUS
 10
17.6290122978
 20
57.3987536213
 11
44.0849627663
 21
57.3987536213
  0
ARC
  5
24B
100
AcDbEntity
  8
0
100
AcDbCircle
 62
2
  6
CONTINUOUS
 10
44.0849627663
 20
56.1308274644
 40
1.2679261569
100
AcDbArc
 50
0.0
 51
90.0
  0
LINE
  5
24C
100
AcDbEntity
  8
0
100
AcDbLine
 62
2
  6
CONTINUOUS
 10
45.3528889231
 20
56.1308274644
 11
45.3528889231
 21
43.6666783678
  0
ARC
  5
24D
100
AcDbEntity
  8
0
100
AcDbCircle
 62
2
  6
CONTINUOUS
 10
44.0849627663
 20
43.6666783678
 40
1.2679261569
100
AcDbArc
 50
270.0
 51
360.0
  0
LINE
  5
24E
100
AcDbEntity
  8
0
100
AcDbLine
 62
2
  6
CONTINUOUS
 10
44.0849627663
 20
42.3987522109
 11
17.6290122978
 21
42.3987522109
  0
ARC
  5
24F
100
AcDbEntity
  8
0
100
AcDbCircle
 62
2
  6
CONTINUOUS
 10
17.6290122978
 20
43.6666783678
 40
1.2679261569
100
AcDbArc
 50
180.0
 51
270.0
  0
LINE
  5
250
100
AcDbEntity
  8
0
100
AcDbLine
 62
2
  6
CONTINUOUS
 10
16.3610861409
 20
43.6666783678
 11
16.3610861409
 21
56.1308274644
  0
ARC
  5
251
100
AcDbEntity
  8
0
100
AcDbCircle
 62
2
  6
CONTINUOUS
 10
25.0981141224
 20
49.7181091975
 40
2.8108394023
100
AcDbArc
 50
35.2282226131
 51
336.934010569
  0
LINE
  5
252
100
AcDbEntity
  8
0
100
AcDbLine
 62
2
  6
CONTINUOUS
 10
27.3941788183
 20
51.3394990511
 11
29.5865173301
 21
52.961744213
  0
ARC
  5
253
100
AcDbEntity
  8
0
100
AcDbCircle
 62
2
  6
CONTINUOUS
 10
25.0981141224
 20
49.7181091975
 40
5.5377731507
100
AcDbArc
 50
35.8545159817
 51
11.4705154501
  0
LINE
  5
254
100
AcDbEntity
  8
0
100
AcDbLine
 62
2
  6
CONTINUOUS
 10
30.5252822719
 20
50.8193709036
 11
25.2029961896
 21
50.8193709036
  0
ARC
  5
255
100
AcDbEntity
  8
0
100
AcDbCircle
 62
2
  6
CONTINUOUS
 10
25.2029961896
 20
49.7181091975
 40
1.1012617061
100
AcDbArc
 50
90.0
 51
270.0
  0
LINE
  5
256
100
AcDbEntity
  8
0
100
AcDbLine
 62
2
  6
CONTINUOUS
 10
25.2029961896
 20
48.6168474914
 11
27.6842387906
 21
48.6168474914
  0
ARC
  5
257
100
AcDbEntity
  8
0
100
AcDbCircle
 62
2
  6
CONTINUOUS
 10
25.2029961896
 20
49.7181091975
 40
5.9153485927
100
AcDbArc
 50
349.2706340045
 51
10.7293659955
  0
LINE
  5
258
100
AcDbEntity
  8
0
100
AcDbLine
 62
2
  6
CONTINUOUS
 10
31.014929743
 20
48.6168474914
 11
32.8593870987
 21
48.6168474914
  0
LINE
  5
259
100
AcDbEntity
  8
0
100
AcDbLine
 62
2
  6
CONTINUOUS
 10
32.8593870987
 20
48.6168474914
 11
32.8593870987
 21
48.0399961216
  0
ARC
  5
25A
100
AcDbEntity
  8
0
100
AcDbCircle
 62
2
  6
CONTINUOUS
 10
36.7610000003
 20
48.0399961216
 40
3.9016129016
100
AcDbArc
 50
180.0
 51
360.0
  0
LINE
  5
25B
100
AcDbEntity
  8
0
100
AcDbLine
 62
2
  6
CONTINUOUS
 10
40.6626129019
 20
48.0399961216
 11
40.6626129019
 21
54.9622125599
  0
LINE
  5
25C
100
AcDbEntity
  8
0
100
AcDbLine
 62
2
  6
CONTINUOUS
 10
40.6626129019
 20
54.9622125599
 11
37.9356791535
 21
54.9622125599
  0
LINE
  5
25D
100
AcDbEntity
  8
0
100
AcDbLine
 62
2
  6
CONTINUOUS
 10
37.9356791535
 20
54.9622125599
 11
37.9356791535
 21
48.0399961216
  0
ARC
  5
25E
100
AcDbEntity
  8
0
100
AcDbCircle
 62
2
  6
CONTINUOUS
 10
36.7610000003
 20
48.0399961216
 40
1.1746791532
100
AcDbArc
 50
180.0
 51
360.0
  0
LINE
  5
25F
100
AcDbEntity
  8
0
100
AcDbLine
 62
2
  6
CONTINUOUS
 10
35.5863208471
 20
48.0399961216
 11
35.5863208471
 21
54.9622125599
  0
LINE
  5
260
100
AcDbEntity
  8
0
100
AcDbLine
 62
2
  6
CONTINUOUS
 10
35.5863208471
 20
54.9622125599
 11
32.8593870987
 21
54.9622125599
  0
LINE
  5
261
100
AcDbEntity
  8
0
100
AcDbLine
 62
2
  6
CONTINUOUS
 10
32.8593870987
 20
54.9622125599
 11
32.8593870987
 21
50.8193709036
  0
LINE
  5
262
100
AcDbEntity
  8
0
100
AcDbLine
 62
2
  6
CONTINUOUS
 10
32.8593870987
 20
50.8193709036
 11
31.014929743
 21
50.8193709036
  0
LINE
  5
263
100
AcDbEntity
  8
0
100
AcDbLine
 62
2
  6
CONTINUOUS
 10
45.1996126437
 20
56.7334185992
 11
45.2185459944
 21
56.6972621935
  0
LWPOLYLINE
  5
264
100
AcDbEntity
  8
0
100
AcDbPolyline
 62
2
  6
CONTINUOUS
 90
42
 70
0
 10
17.4964779251
 20
57.3918123624
 10
17.6290122978
 20
57.398757363
 10
44.0849627663
 20
57.398757363
 10
44.217497139
 20
57.3918123624
 10
44.3485794374
 20
57.3710523604
 10
44.4767734964
 20
57.3367023572
 10
44.600674795
 20
57.2891373527
 10
44.7189258447
 20
57.2288823471
 10
44.8302310623
 20
57.1565973403
 10
44.9333709645
 20
57.0730773324
 10
45.0272155289
 20
56.9792373236
 10
45.1107365748
 20
56.8760973139
 10
45.1830190283
 20
56.7647973034
 10
45.2432709475
 20
56.6465372923
 10
45.2908322
 20
56.5226372807
 10
45.3251816945
 20
56.3944472686
 10
45.345943091
 20
56.2633622563
 10
45.3528889232
 20
56.1308222438
 10
24.5102931399
 20
55.2245960958
 10
23.6929701738
 20
55.0746474408
 10
22.9072856488
 20
54.8040901322
 10
22.1709301607
 20
54.4190160805
 10
21.5004836049
 20
53.9280956735
 10
20.9110418611
 20
53.3423825519
 10
20.4158768919
 20
52.6750647241
 10
20.0261379092
 20
51.9411676226
 10
16.3610861409
 20
43.6666760719
 10
16.3610861409
 20
56.1308222438
 10
16.368031973
 20
56.2633622563
 10
16.3887933695
 20
56.3944472686
 10
16.4231428641
 20
56.5226372807
 10
16.4707041165
 20
56.6465372923
 10
16.5309560358
 20
56.7647973034
 10
16.6032384892
 20
56.8760973139
 10
16.6867595352
 20
56.9792373236
 10
16.7806040996
 20
57.0730773324
 10
16.8837440018
 20
57.1565973403
 10
16.9950492193
 20
57.2288823471
 10
17.113300269
 20
57.2891373527
 10
17.2372015677
 20
57.3367023572
 10
17.3653956267
 20
57.3710523604
 10
17.4964779251
 20
57.3918123624
  0
HATCH
  5
265
100
AcDbEntity
  8
0
100
AcDbHatch
 62
2
  6
CONTINUOUS
 10
0.0
 20
0.0
 30
0.0
210
0.0
220
0.0
230
1.0
  2
SOLID
 70
1
 71
1
 91
1
 92
1
 93
41
 72
1
 10
17.4964779251
 20
57.3918123624
 11
17.6290122978
 21
57.398757363
 72
1
 10
17.6290122978
 20
57.398757363
 11
44.0849627663
 21
57.398757363
 72
1
 10
44.0849627663
 20
57.398757363
 11
44.217497139
 21
57.3918123624
 72
1
 10
44.217497139
 20
57.3918123624
 11
44.3485794374
 21
57.3710523604
 72
1
 10
44.3485794374
 20
57.3710523604
 11
44.4767734964
 21
57.3367023572
 72
1
 10
44.4767734964
 20
57.3367023572
 11
44.600674795
 21
57.2891373527
 72
1
 10
44.600674795
 20
57.2891373527
 11
44.7189258447
 21
57.2288823471
 72
1
 10
44.7189258447
 20
57.2288823471
 11
44.8302310623
 21
57.1565973403
 72
1
 10
44.8302310623
 20
57.1565973403
 11
44.9333709645
 21
57.0730773324
 72
1
 10
44.9333709645
 20
57.0730773324
 11
45.0272155289
 21
56.9792373236
 72
1
 10
45.0272155289
 20
56.9792373236
 11
45.1107365748
 21
56.8760973139
 72
1
 10
45.1107365748
 20
56.8760973139
 11
45.1830190283
 21
56.7647973034
 72
1
 10
45.1830190283
 20
56.7647973034
 11
45.2432709475
 21
56.6465372923
 72
1
 10
45.2432709475
 20
56.6465372923
 11
45.2908322
 21
56.5226372807
 72
1
 10
45.2908322
 20
56.5226372807
 11
45.3251816945
 21
56.3944472686
 72
1
 10
45.3251816945
 20
56.3944472686
 11
45.345943091
 21
56.2633622563
 72
1
 10
45.345943091
 20
56.2633622563
 11
45.3528889232
 21
56.1308222438
 72
1
 10
45.3528889232
 20
56.1308222438
 11
24.5102931399
 21
55.2245960958
 72
1
 10
24.5102931399
 20
55.2245960958
 11
23.6929701738
 21
55.0746474408
 72
1
 10
23.6929701738
 20
55.0746474408
 11
22.9072856488
 21
54.8040901322
 72
1
 10
22.9072856488
 20
54.8040901322
 11
22.1709301607
 21
54.4190160805
 72
1
 10
22.1709301607
 20
54.4190160805
 11
21.5004836049
 21
53.9280956735
 72
1
 10
21.5004836049
 20
53.9280956735
 11
20.9110418611
 21
53.3423825519
 72
1
 10
20.9110418611
 20
53.3423825519
 11
20.4158768919
 21
52.6750647241
 72
1
 10
20.4158768919
 20
52.6750647241
 11
20.0261379092
 21
51.9411676226
 72
1
 10
20.0261379092
 20
51.9411676226
 11
16.3610861409
 21
43.6666760719
 72
1
 10
16.3610861409
 20
43.6666760719
 11
16.3610861409
 21
56.1308222438
 72
1
 10
16.3610861409
 20
56.1308222438
 11
16.368031973
 21
56.2633622563
 72
1
 10
16.368031973
 20
56.2633622563
 11
16.3887933695
 21
56.3944472686
 72
1
 10
16.3887933695
 20
56.3944472686
 11
16.4231428641
 21
56.5226372807
 72
1
 10
16.4231428641
 20
56.5226372807
 11
16.4707041165
 21
56.6465372923
 72
1
 10
16.4707041165
 20
56.6465372923
 11
16.5309560358
 21
56.7647973034
 72
1
 10
16.5309560358
 20
56.7647973034
 11
16.6032384892
 21
56.8760973139
 72
1
 10
16.6032384892
 20
56.8760973139
 11
16.6867595352
 21
56.9792373236
 72
1
 10
16.6867595352
 20
56.9792373236
 11
16.7806040996
 21
57.0730773324
 72
1
 10
16.7806040996
 20
57.0730773324
 11
16.8837440018
 21
57.1565973403
 72
1
 10
16.8837440018
 20
57.1565973403
 11
16.9950492193
 21
57.2288823471
 72
1
 10
16.9950492193
 20
57.2288823471
 11
17.113300269
 21
57.2891373527
 72
1
 10
17.113300269
 20
57.2891373527
 11
17.2372015677
 21
57.3367023572
 72
1
 10
17.2372015677
 20
57.3367023572
 11
17.3653956267
 21
57.3710523604
 72
1
 10
17.3653956267
 20
57.3710523604
 11
17.4964779251
 21
57.3918123624
 97
1
330
264
 75
0
 76
1
 98
1
 10
0.0
 20
0.0
  0
LWPOLYLINE
  5
266
100
AcDbEntity
  8
0
100
AcDbPolyline
 62
2
  6
CONTINUOUS
 90
23
 70
0
 10
26.9669939813
 20
54.9309989471
 10
26.1659444963
 20
55.151954039
 10
45.3528889232
 20
56.1308222438
 10
45.3528889231
 20
43.6666760719
 10
40.1398958888
 20
46.0891912997
 10
40.3656203039
 20
46.5469163427
 10
40.5296686661
 20
47.0301863881
 10
40.6292340626
 20
47.5307364352
 10
40.6626129019
 20
48.0400014831
 10
40.6626129019
 20
54.9622171339
 10
37.9356791535
 20
54.9622171339
 10
35.5863208471
 20
54.9622171339
 10
32.8593870987
 20
54.9622171339
 10
32.8593870987
 20
50.8193667444
 10
31.0149297429
 20
50.8193667444
 10
30.6289655903
 20
49.9949006497
 10
30.5252822719
 20
50.8193667444
 10
27.3941788183
 20
51.3394990511
 10
29.5865173301
 20
52.961744213
 10
29.0506384437
 20
53.5968310176
 10
28.425763901
 20
54.1445839144
 10
27.7259634749
 20
54.5926696135
 10
26.9669939813
 20
54.9309989471
  0
HATCH
  5
267
100
AcDbEntity
  8
0
100
AcDbHatch
 62
2
  6
CONTINUOUS
 10
0.0
 20
0.0
 30
0.0
210
0.0
220
0.0
230
1.0
  2
SOLID
 70
1
 71
1
 91
1
 92
1
 93
22
 72
1
 10
26.9669939813
 20
54.9309989471
 11
26.1659444963
 21
55.151954039
 72
1
 10
26.1659444963
 20
55.151954039
 11
45.3528889232
 21
56.1308222438
 72
1
 10
45.3528889232
 20
56.1308222438
 11
45.3528889231
 21
43.6666760719
 72
1
 10
45.3528889231
 20
43.6666760719
 11
40.1398958888
 21
46.0891912997
 72
1
 10
40.1398958888
 20
46.0891912997
 11
40.3656203039
 21
46.5469163427
 72
1
 10
40.3656203039
 20
46.5469163427
 11
40.5296686661
 21
47.0301863881
 72
1
 10
40.5296686661
 20
47.0301863881
 11
40.6292340626
 21
47.5307364352
 72
1
 10
40.6292340626
 20
47.5307364352
 11
40.6626129019
 21
48.0400014831
 72
1
 10
40.6626129019
 20
48.0400014831
 11
40.6626129019
 21
54.9622171339
 72
1
 10
40.6626129019
 20
54.9622171339
 11
37.9356791535
 21
54.9622171339
 72
1
 10
37.9356791535
 20
54.9622171339
 11
35.5863208471
 21
54.9622171339
 72
1
 10
35.5863208471
 20
54.9622171339
 11
32.8593870987
 21
54.9622171339
 72
1
 10
32.8593870987
 20
54.9622171339
 11
32.8593870987
 21
50.8193667444
 72
1
 10
32.8593870987
 20
50.8193667444
 11
31.0149297429
 21
50.8193667444
 72
1
 10
31.0149297429
 20
50.8193667444
 11
30.6289655903
 21
49.9949006497
 72
1
 10
30.6289655903
 20
49.9949006497
 11
30.5252822719
 21
50.8193667444
 72
1
 10
30.5252822719
 20
50.8193667444
 11
27.3941788183
 21
51.3394990511
 72
1
 10
27.3941788183
 20
51.3394990511
 11
29.5865173301
 21
52.961744213
 72
1
 10
29.5865173301
 20
52.961744213
 11
29.0506384437
 21
53.5968310176
 72
1
 10
29.0506384437
 20
53.5968310176
 11
28.425763901
 21
54.1445839144
 72
1
 10
28.425763901
 20
54.1445839144
 11
27.7259634749
 21
54.5926696135
 72
1
 10
27.7259634749
 20
54.5926696135
 11
26.9669939813
 21
54.9309989471
 97
1
330
266
 75
0
 76
1
 98
1
 10
0.0
 20
0.0
  0
LWPOLYLINE
  5
268
100
AcDbEntity
  8
0
100
AcDbPolyline
 62
2
  6
CONTINUOUS
 90
20
 70
0
 10
24.5005684601
 20
52.4646993247
 10
24.9072650814
 20
52.5224620264
 10
25.3180376874
 20
52.5203318459
 10
25.7241133608
 20
52.4583542776
 10
26.1168194973
 20
52.3378529835
 10
26.4877690273
 20
52.1614015236
 10
26.8290395394
 20
51.9327683916
 10
27.1333424806
 20
51.6568365314
 10
27.3941788183
 20
51.3394990511
 10
30.5252822719
 20
50.8193667444
 10
25.2029961896
 20
50.8193667444
 10
25.0592526925
 20
50.8099494571
 10
22.4413895628
 20
50.6360595011
 10
22.6035508656
 20
51.0134749
 10
22.8189888395
 20
51.3632250264
 10
23.0831023513
 20
51.6778402269
 10
23.3902506985
 20
51.9506012291
 10
23.7338740791
 20
52.175682645
 10
24.1066336894
 20
52.3482773854
 10
24.5005684601
 20
52.4646993247
  0
HATCH
  5
269
100
AcDbEntity
  8
0
100
AcDbHatch
 62
2
  6
CONTINUOUS
 10
0.0
 20
0.0
 30
0.0
210
0.0
220
0.0
230
1.0
  2
SOLID
 70
1
 71
1
 91
1
 92
1
 93
19
 72
1
 10
24.5005684601
 20
52.4646993247
 11
24.9072650814
 21
52.5224620264
 72
1
 10
24.9072650814
 20
52.5224620264
 11
25.3180376874
 21
52.5203318459
 72
1
 10
25.3180376874
 20
52.5203318459
 11
25.7241133608
 21
52.4583542776
 72
1
 10
25.7241133608
 20
52.4583542776
 11
26.1168194973
 21
52.3378529835
 72
1
 10
26.1168194973
 20
52.3378529835
 11
26.4877690273
 21
52.1614015236
 72
1
 10
26.4877690273
 20
52.1614015236
 11
26.8290395394
 21
51.9327683916
 72
1
 10
26.8290395394
 20
51.9327683916
 11
27.1333424806
 21
51.6568365314
 72
1
 10
27.1333424806
 20
51.6568365314
 11
27.3941788183
 21
51.3394990511
 72
1
 10
27.3941788183
 20
51.3394990511
 11
30.5252822719
 21
50.8193667444
 72
1
 10
30.5252822719
 20
50.8193667444
 11
25.2029961896
 21
50.8193667444
 72
1
 10
25.2029961896
 20
50.8193667444
 11
25.0592526925
 21
50.8099494571
 72
1
 10
25.0592526925
 20
50.8099494571
 11
22.4413895628
 21
50.6360595011
 72
1
 10
22.4413895628
 20
50.6360595011
 11
22.6035508656
 21
51.0134749
 72
1
 10
22.6035508656
 20
51.0134749
 11
22.8189888395
 21
51.3632250264
 72
1
 10
22.8189888395
 20
51.3632250264
 11
23.0831023513
 21
51.6778402269
 72
1
 10
23.0831023513
 20
51.6778402269
 11
23.3902506985
 21
51.9506012291
 72
1
 10
23.3902506985
 20
51.9506012291
 11
23.7338740791
 21
52.175682645
 72
1
 10
23.7338740791
 20
52.175682645
 11
24.1066336894
 21
52.3482773854
 72
1
 10
24.1066336894
 20
52.3482773854
 11
24.5005684601
 21
52.4646993247
 97
1
330
268
 75
0
 76
1
 98
1
 10
0.0
 20
0.0
  0
LWPOLYLINE
  5
26A
100
AcDbEntity
  8
0
100
AcDbPolyline
 62
2
  6
CONTINUOUS
 90
8
 70
0
 10
24.6523653366
 20
50.6718298112
 10
24.5325905397
 20
50.5917988506
 10
22.3359682285
 20
50.2390393331
 10
22.4413895628
 20
50.6360595011
 10
25.0592526925
 20
50.8099494571
 10
24.9179686864
 20
50.7818463209
 10
24.78156158
 20
50.7355423477
 10
24.6523653366
 20
50.6718298112
  0
HATCH
  5
26B
100
AcDbEntity
  8
0
100
AcDbHatch
 62
2
  6
CONTINUOUS
 10
0.0
 20
0.0
 30
0.0
210
0.0
220
0.0
230
1.0
  2
SOLID
 70
1
 71
1
 91
1
 92
1
 93
7
 72
1
 10
24.6523653366
 20
50.6718298112
 11
24.5325905397
 21
50.5917988506
 72
1
 10
24.5325905397
 20
50.5917988506
 11
22.3359682285
 21
50.2390393331
 72
1
 10
22.3359682285
 20
50.2390393331
 11
22.4413895628
 21
50.6360595011
 72
1
 10
22.4413895628
 20
50.6360595011
 11
25.0592526925
 21
50.8099494571
 72
1
 10
25.0592526925
 20
50.8099494571
 11
24.9179686864
 21
50.7818463209
 72
1
 10
24.9179686864
 20
50.7818463209
 11
24.78156158
 21
50.7355423477
 72
1
 10
24.78156158
 20
50.7355423477
 11
24.6523653366
 21
50.6718298112
 97
1
330
26A
 75
0
 76
1
 98
1
 10
0.0
 20
0.0
  0
LWPOLYLINE
  5
26C
100
AcDbEntity
  8
0
100
AcDbPolyline
 62
2
  6
CONTINUOUS
 90
8
 70
0
 10
24.2492755759
 20
50.2687400506
 10
24.1855630394
 20
50.1395438071
 10
22.2895383581
 20
49.830893601
 10
22.3359682285
 20
50.2390393331
 10
24.5325905397
 20
50.5917988506
 10
24.4242865694
 20
50.4968188178
 10
24.3293065366
 20
50.3885148474
 10
24.2492755759
 20
50.2687400506
  0
HATCH
  5
26D
100
AcDbEntity
  8
0
100
AcDbHatch
 62
2
  6
CONTINUOUS
 10
0.0
 20
0.0
 30
0.0
210
0.0
220
0.0
230
1.0
  2
SOLID
 70
1
 71
1
 91
1
 92
1
 93
7
 72
1
 10
24.2492755759
 20
50.2687400506
 11
24.1855630394
 21
50.1395438071
 72
1
 10
24.1855630394
 20
50.1395438071
 11
22.2895383581
 21
49.830893601
 72
1
 10
22.2895383581
 20
49.830893601
 11
22.3359682285
 21
50.2390393331
 72
1
 10
22.3359682285
 20
50.2390393331
 11
24.5325905397
 21
50.5917988506
 72
1
 10
24.5325905397
 20
50.5917988506
 11
24.4242865694
 21
50.4968188178
 72
1
 10
24.4242865694
 20
50.4968188178
 11
24.3293065366
 21
50.3885148474
 72
1
 10
24.3293065366
 20
50.3885148474
 11
24.2492755759
 21
50.2687400506
 97
1
330
26C
 75
0
 76
1
 98
1
 10
0.0
 20
0.0
  0
LWPOLYLINE
  5
26E
100
AcDbEntity
  8
0
100
AcDbPolyline
 62
2
  6
CONTINUOUS
 90
7
 70
0
 10
31.0993048012
 20
50.1923388153
 10
31.1162282192
 20
49.8763366836
 10
30.6081153911
 20
49.1641981161
 10
30.6289655903
 20
49.9949006497
 10
31.0149297429
 20
50.8193667444
 10
31.0655063992
 20
50.5069837221
 10
31.0993048012
 20
50.1923388153
  0
HATCH
  5
26F
100
AcDbEntity
  8
0
100
AcDbHatch
 62
2
  6
CONTINUOUS
 10
0.0
 20
0.0
 30
0.0
210
0.0
220
0.0
230
1.0
  2
SOLID
 70
1
 71
1
 91
1
 92
1
 93
6
 72
1
 10
31.0993048012
 20
50.1923388153
 11
31.1162282192
 21
49.8763366836
 72
1
 10
31.1162282192
 20
49.8763366836
 11
30.6081153911
 21
49.1641981161
 72
1
 10
30.6081153911
 20
49.1641981161
 11
30.6289655903
 21
49.9949006497
 72
1
 10
30.6289655903
 20
49.9949006497
 11
31.0149297429
 21
50.8193667444
 72
1
 10
31.0149297429
 20
50.8193667444
 11
31.0655063992
 21
50.5069837221
 72
1
 10
31.0655063992
 20
50.5069837221
 11
31.0993048012
 21
50.1923388153
 97
1
330
26E
 75
0
 76
1
 98
1
 10
0.0
 20
0.0
  0
LWPOLYLINE
  5
270
100
AcDbEntity
  8
0
100
AcDbPolyline
 62
2
  6
CONTINUOUS
 90
7
 70
0
 10
24.1111559301
 20
49.8618526947
 10
24.1017344835
 20
49.7181091975
 10
22.3030915597
 20
49.4203391196
 10
22.2895383581
 20
49.830893601
 10
24.1855630394
 20
50.1395438071
 10
24.1392590662
 20
50.0031367007
 10
24.1111559301
 20
49.8618526947
  0
HATCH
  5
271
100
AcDbEntity
  8
0
100
AcDbHatch
 62
2
  6
CONTINUOUS
 10
0.0
 20
0.0
 30
0.0
210
0.0
220
0.0
230
1.0
  2
SOLID
 70
1
 71
1
 91
1
 92
1
 93
6
 72
1
 10
24.1111559301
 20
49.8618526947
 11
24.1017344835
 21
49.7181091975
 72
1
 10
24.1017344835
 20
49.7181091975
 11
22.3030915597
 21
49.4203391196
 72
1
 10
22.3030915597
 20
49.4203391196
 11
22.2895383581
 21
49.830893601
 72
1
 10
22.2895383581
 20
49.830893601
 11
24.1855630394
 21
50.1395438071
 72
1
 10
24.1855630394
 20
50.1395438071
 11
24.1392590662
 21
50.0031367007
 72
1
 10
24.1392590662
 20
50.0031367007
 11
24.1111559301
 21
49.8618526947
 97
1
330
270
 75
0
 76
1
 98
1
 10
0.0
 20
0.0
  0
LWPOLYLINE
  5
272
100
AcDbEntity
  8
0
100
AcDbPolyline
 62
2
  6
CONTINUOUS
 90
7
 70
0
 10
24.1392590662
 20
49.4330816944
 10
24.1855630394
 20
49.2966745879
 10
22.3763383759
 20
49.0161441476
 10
22.3030915597
 20
49.4203391196
 10
24.1017344835
 20
49.7181091975
 10
24.1111559301
 20
49.5743657004
 10
24.1392590662
 20
49.4330816944
  0
HATCH
  5
273
100
AcDbEntity
  8
0
100
AcDbHatch
 62
2
  6
CONTINUOUS
 10
0.0
 20
0.0
 30
0.0
210
0.0
220
0.0
230
1.0
  2
SOLID
 70
1
 71
1
 91
1
 92
1
 93
6
 72
1
 10
24.1392590662
 20
49.4330816944
 11
24.1855630394
 21
49.2966745879
 72
1
 10
24.1855630394
 20
49.2966745879
 11
22.3763383759
 21
49.0161441476
 72
1
 10
22.3763383759
 20
49.0161441476
 11
22.3030915597
 21
49.4203391196
 72
1
 10
22.3030915597
 20
49.4203391196
 11
24.1017344835
 21
49.7181091975
 72
1
 10
24.1017344835
 20
49.7181091975
 11
24.1111559301
 21
49.5743657004
 72
1
 10
24.1111559301
 20
49.5743657004
 11
24.1392590662
 21
49.4330816944
 97
1
330
272
 75
0
 76
1
 98
1
 10
0.0
 20
0.0
  0
LWPOLYLINE
  5
274
100
AcDbEntity
  8
0
100
AcDbPolyline
 62
2
  6
CONTINUOUS
 90
7
 70
0
 10
31.0993048012
 20
49.2438795798
 10
31.0655063992
 20
48.929234673
 10
30.4632011408
 20
48.3459675312
 10
30.6081153911
 20
49.1641981161
 10
31.1162282192
 20
49.8763366836
 10
31.1162282192
 20
49.5598817115
 10
31.0993048012
 20
49.2438795798
  0
HATCH
  5
275
100
AcDbEntity
  8
0
100
AcDbHatch
 62
2
  6
CONTINUOUS
 10
0.0
 20
0.0
 30
0.0
210
0.0
220
0.0
230
1.0
  2
SOLID
 70
1
 71
1
 91
1
 92
1
 93
6
 72
1
 10
31.0993048012
 20
49.2438795798
 11
31.0655063992
 21
48.929234673
 72
1
 10
31.0655063992
 20
48.929234673
 11
30.4632011408
 21
48.3459675312
 72
1
 10
30.4632011408
 20
48.3459675312
 11
30.6081153911
 21
49.1641981161
 72
1
 10
30.6081153911
 20
49.1641981161
 11
31.1162282192
 21
49.8763366836
 72
1
 10
31.1162282192
 20
49.8763366836
 11
31.1162282192
 21
49.5598817115
 72
1
 10
31.1162282192
 20
49.5598817115
 11
31.0993048012
 21
49.2438795798
 97
1
330
274
 75
0
 76
1
 98
1
 10
0.0
 20
0.0
  0
LWPOLYLINE
  5
276
100
AcDbEntity
  8
0
100
AcDbPolyline
 62
2
  6
CONTINUOUS
 90
7
 70
0
 10
24.3293065366
 20
49.0477035476
 10
24.4242865694
 20
48.9393995773
 10
22.5077144663
 20
48.6269411229
 10
22.3763383759
 20
49.0161441476
 10
24.1855630394
 20
49.2966745879
 10
24.2492755759
 20
49.1674783445
 10
24.3293065366
 20
49.0477035476
  0
HATCH
  5
277
100
AcDbEntity
  8
0
100
AcDbHatch
 62
2
  6
CONTINUOUS
 10
0.0
 20
0.0
 30
0.0
210
0.0
220
0.0
230
1.0
  2
SOLID
 70
1
 71
1
 91
1
 92
1
 93
6
 72
1
 10
24.3293065366
 20
49.0477035476
 11
24.4242865694
 21
48.9393995773
 72
1
 10
24.4242865694
 20
48.9393995773
 11
22.5077144663
 21
48.6269411229
 72
1
 10
22.5077144663
 20
48.6269411229
 11
22.3763383759
 21
49.0161441476
 72
1
 10
22.3763383759
 20
49.0161441476
 11
24.1855630394
 21
49.2966745879
 72
1
 10
24.1855630394
 20
49.2966745879
 11
24.2492755759
 21
49.1674783445
 72
1
 10
24.2492755759
 20
49.1674783445
 11
24.3293065366
 21
49.0477035476
 97
1
330
276
 75
0
 76
1
 98
1
 10
0.0
 20
0.0
  0
LWPOLYLINE
  5
278
100
AcDbEntity
  8
0
100
AcDbPolyline
 62
2
  6
CONTINUOUS
 90
9
 70
0
 10
24.9179686864
 20
48.6543720741
 10
25.0592526925
 20
48.626268938
 10
22.6944140166
 20
48.2610422989
 10
22.5077144663
 20
48.6269411229
 10
24.4242865694
 20
48.9393995773
 10
24.5325905397
 20
48.8444195445
 10
24.6523653366
 20
48.7643885839
 10
24.78156158
 20
48.7006760474
 10
24.9179686864
 20
48.6543720741
  0
HATCH
  5
279
100
AcDbEntity
  8
0
100
AcDbHatch
 62
2
  6
CONTINUOUS
 10
0.0
 20
0.0
 30
0.0
210
0.0
220
0.0
230
1.0
  2
SOLID
 70
1
 71
1
 91
1
 92
1
 93
8
 72
1
 10
24.9179686864
 20
48.6543720741
 11
25.0592526925
 21
48.626268938
 72
1
 10
25.0592526925
 20
48.626268938
 11
22.6944140166
 21
48.2610422989
 72
1
 10
22.6944140166
 20
48.2610422989
 11
22.5077144663
 21
48.6269411229
 72
1
 10
22.5077144663
 20
48.6269411229
 11
24.4242865694
 21
48.9393995773
 72
1
 10
24.4242865694
 20
48.9393995773
 11
24.5325905397
 21
48.8444195445
 72
1
 10
24.5325905397
 20
48.8444195445
 11
24.6523653366
 21
48.7643885839
 72
1
 10
24.6523653366
 20
48.7643885839
 11
24.78156158
 21
48.7006760474
 72
1
 10
24.78156158
 20
48.7006760474
 11
24.9179686864
 21
48.6543720741
 97
1
330
278
 75
0
 76
1
 98
1
 10
0.0
 20
0.0
  0
LWPOLYLINE
  5
27A
100
AcDbEntity
  8
0
100
AcDbPolyline
 62
2
  6
CONTINUOUS
 90
9
 70
0
 10
32.8593870987
 20
48.6168415373
 10
32.8593870987
 20
48.0400014831
 10
32.8927659379
 20
47.5307364352
 10
29.8169521117
 20
46.8199201942
 10
30.1974857512
 20
47.5586323028
 10
30.4632011408
 20
48.3459675312
 10
31.0655063992
 20
48.929234673
 10
31.0149297429
 20
48.6168415373
 10
32.8593870987
 20
48.6168415373
  0
HATCH
  5
27B
100
AcDbEntity
  8
0
100
AcDbHatch
 62
2
  6
CONTINUOUS
 10
0.0
 20
0.0
 30
0.0
210
0.0
220
0.0
230
1.0
  2
SOLID
 70
1
 71
1
 91
1
 92
1
 93
8
 72
1
 10
32.8593870987
 20
48.6168415373
 11
32.8593870987
 21
48.0400014831
 72
1
 10
32.8593870987
 20
48.0400014831
 11
32.8927659379
 21
47.5307364352
 72
1
 10
32.8927659379
 20
47.5307364352
 11
29.8169521117
 21
46.8199201942
 72
1
 10
29.8169521117
 20
46.8199201942
 11
30.1974857512
 21
47.5586323028
 72
1
 10
30.1974857512
 20
47.5586323028
 11
30.4632011408
 21
48.3459675312
 72
1
 10
30.4632011408
 20
48.3459675312
 11
31.0655063992
 21
48.929234673
 72
1
 10
31.0655063992
 20
48.929234673
 11
31.0149297429
 21
48.6168415373
 72
1
 10
31.0149297429
 20
48.6168415373
 11
32.8593870987
 21
48.6168415373
 97
1
330
27A
 75
0
 76
1
 98
1
 10
0.0
 20
0.0
  0
LWPOLYLINE
  5
27C
100
AcDbEntity
  8
0
100
AcDbPolyline
 62
2
  6
CONTINUOUS
 90
19
 70
0
 10
27.6842387906
 20
48.6168415373
 10
27.4961137435
 20
48.2516795326
 10
27.2567743458
 20
47.9178302789
 10
26.9713321963
 20
47.6224297867
 10
26.6458835153
 20
47.3717869581
 10
26.2873789475
 20
47.1712548002
 10
25.9034751155
 20
47.0251161014
 10
25.5023710973
 20
46.9364919623
 10
25.0926333168
 20
46.9072751387
 10
24.6830125906
 20
46.9380896178
 10
24.2822572349
 20
47.0282772912
 10
23.8989262276
 20
47.1759120104
 10
23.5412064125
 20
47.377840724
 10
23.2167376524
 20
47.6297508175
 10
22.9324496635
 20
47.9262622184
 10
22.6944140166
 20
48.2610422989
 10
25.0592526925
 20
48.626268938
 10
25.2029961896
 20
48.6168415373
 10
27.6842387906
 20
48.6168415373
  0
HATCH
  5
27D
100
AcDbEntity
  8
0
100
AcDbHatch
 62
2
  6
CONTINUOUS
 10
0.0
 20
0.0
 30
0.0
210
0.0
220
0.0
230
1.0
  2
SOLID
 70
1
 71
1
 91
1
 92
1
 93
18
 72
1
 10
27.6842387906
 20
48.6168415373
 11
27.4961137435
 21
48.2516795326
 72
1
 10
27.4961137435
 20
48.2516795326
 11
27.2567743458
 21
47.9178302789
 72
1
 10
27.2567743458
 20
47.9178302789
 11
26.9713321963
 21
47.6224297867
 72
1
 10
26.9713321963
 20
47.6224297867
 11
26.6458835153
 21
47.3717869581
 72
1
 10
26.6458835153
 20
47.3717869581
 11
26.2873789475
 21
47.1712548002
 72
1
 10
26.2873789475
 20
47.1712548002
 11
25.9034751155
 21
47.0251161014
 72
1
 10
25.9034751155
 20
47.0251161014
 11
25.5023710973
 21
46.9364919623
 72
1
 10
25.5023710973
 20
46.9364919623
 11
25.0926333168
 21
46.9072751387
 72
1
 10
25.0926333168
 20
46.9072751387
 11
24.6830125906
 21
46.9380896178
 72
1
 10
24.6830125906
 20
46.9380896178
 11
24.2822572349
 21
47.0282772912
 72
1
 10
24.2822572349
 20
47.0282772912
 11
23.8989262276
 21
47.1759120104
 72
1
 10
23.8989262276
 20
47.1759120104
 11
23.5412064125
 21
47.377840724
 72
1
 10
23.5412064125
 20
47.377840724
 11
23.2167376524
 21
47.6297508175
 72
1
 10
23.2167376524
 20
47.6297508175
 11
22.9324496635
 21
47.9262622184
 72
1
 10
22.9324496635
 20
47.9262622184
 11
22.6944140166
 21
48.2610422989
 72
1
 10
22.6944140166
 20
48.2610422989
 11
25.0592526925
 21
48.626268938
 72
1
 10
25.0592526925
 20
48.626268938
 11
25.2029961896
 21
48.6168415373
 72
1
 10
25.2029961896
 20
48.6168415373
 11
27.6842387906
 21
48.6168415373
 97
1
330
27C
 75
0
 76
1
 98
1
 10
0.0
 20
0.0
  0
LWPOLYLINE
  5
27E
100
AcDbEntity
  8
0
100
AcDbPolyline
 62
2
  6
CONTINUOUS
 90
28
 70
0
 10
35.5863208471
 20
48.0400014831
 10
35.5863208471
 20
54.9622171339
 10
37.9356791535
 20
54.9622171339
 10
37.9356791535
 20
48.0400014831
 10
37.9256296104
 20
47.8866714687
 10
37.8956529319
 20
47.7359664545
 10
37.8462620271
 20
47.5904664408
 10
37.7783019882
 20
47.4526614279
 10
37.6929356302
 20
47.3248914159
 10
37.5916235952
 20
47.209376405
 10
37.4760993602
 20
47.1080663955
 10
37.3483395768
 20
47.0227013874
 10
37.2105302505
 20
46.9547363811
 10
37.065029337
 20
46.9053413764
 10
36.9143263972
 20
46.8753713736
 10
36.7610000003
 20
46.8653169684
 10
36.6076736033
 20
46.8753713736
 10
36.4569706635
 20
46.9053413764
 10
36.31146975
 20
46.9547363811
 10
36.1736604237
 20
47.0227013874
 10
36.0459006404
 20
47.1080663955
 10
35.9303764053
 20
47.209376405
 10
35.8290643703
 20
47.3248914159
 10
35.7436980123
 20
47.4526614279
 10
35.6757379734
 20
47.5904664408
 10
35.6263470686
 20
47.7359664545
 10
35.5963703901
 20
47.8866714687
 10
35.5863208471
 20
48.0400014831
  0
HATCH
  5
27F
100
AcDbEntity
  8
0
100
AcDbHatch
 62
2
  6
CONTINUOUS
 10
0.0
 20
0.0
 30
0.0
210
0.0
220
0.0
230
1.0
  2
SOLID
 70
1
 71
1
 91
1
 92
1
 93
27
 72
1
 10
35.5863208471
 20
48.0400014831
 11
35.5863208471
 21
54.9622171339
 72
1
 10
35.5863208471
 20
54.9622171339
 11
37.9356791535
 21
54.9622171339
 72
1
 10
37.9356791535
 20
54.9622171339
 11
37.9356791535
 21
48.0400014831
 72
1
 10
37.9356791535
 20
48.0400014831
 11
37.9256296104
 21
47.8866714687
 72
1
 10
37.9256296104
 20
47.8866714687
 11
37.8956529319
 21
47.7359664545
 72
1
 10
37.8956529319
 20
47.7359664545
 11
37.8462620271
 21
47.5904664408
 72
1
 10
37.8462620271
 20
47.5904664408
 11
37.7783019882
 21
47.4526614279
 72
1
 10
37.7783019882
 20
47.4526614279
 11
37.6929356302
 21
47.3248914159
 72
1
 10
37.6929356302
 20
47.3248914159
 11
37.5916235952
 21
47.209376405
 72
1
 10
37.5916235952
 20
47.209376405
 11
37.4760993602
 21
47.1080663955
 72
1
 10
37.4760993602
 20
47.1080663955
 11
37.3483395768
 21
47.0227013874
 72
1
 10
37.3483395768
 20
47.0227013874
 11
37.2105302505
 21
46.9547363811
 72
1
 10
37.2105302505
 20
46.9547363811
 11
37.065029337
 21
46.9053413764
 72
1
 10
37.065029337
 20
46.9053413764
 11
36.9143263972
 21
46.8753713736
 72
1
 10
36.9143263972
 20
46.8753713736
 11
36.7610000003
 21
46.8653169684
 72
1
 10
36.7610000003
 20
46.8653169684
 11
36.6076736033
 21
46.8753713736
 72
1
 10
36.6076736033
 20
46.8753713736
 11
36.4569706635
 21
46.9053413764
 72
1
 10
36.4569706635
 20
46.9053413764
 11
36.31146975
 21
46.9547363811
 72
1
 10
36.31146975
 20
46.9547363811
 11
36.1736604237
 21
47.0227013874
 72
1
 10
36.1736604237
 20
47.0227013874
 11
36.0459006404
 21
47.1080663955
 72
1
 10
36.0459006404
 20
47.1080663955
 11
35.9303764053
 21
47.209376405
 72
1
 10
35.9303764053
 20
47.209376405
 11
35.8290643703
 21
47.3248914159
 72
1
 10
35.8290643703
 20
47.3248914159
 11
35.7436980123
 21
47.4526614279
 72
1
 10
35.7436980123
 20
47.4526614279
 11
35.6757379734
 21
47.5904664408
 72
1
 10
35.6757379734
 20
47.5904664408
 11
35.6263470686
 21
47.7359664545
 72
1
 10
35.6263470686
 20
47.7359664545
 11
35.5963703901
 21
47.8866714687
 72
1
 10
35.5963703901
 20
47.8866714687
 11
35.5863208471
 21
48.0400014831
 97
1
330
27E
 75
0
 76
1
 98
1
 10
0.0
 20
0.0
  0
LWPOLYLINE
  5
280
100
AcDbEntity
  8
0
100
AcDbPolyline
 62
2
  6
CONTINUOUS
 90
8
 70
0
 10
32.9923313344
 20
47.0301863881
 10
33.1563796967
 20
46.5469163427
 10
33.3821041117
 20
46.0891912997
 10
28.7480950465
 20
45.5534278506
 10
29.3301683772
 20
46.146464163
 10
29.8169521117
 20
46.8199201942
 10
32.8927659379
 20
47.5307364352
 10
32.9923313344
 20
47.0301863881
  0
HATCH
  5
281
100
AcDbEntity
  8
0
100
AcDbHatch
 62
2
  6
CONTINUOUS
 10
0.0
 20
0.0
 30
0.0
210
0.0
220
0.0
230
1.0
  2
SOLID
 70
1
 71
1
 91
1
 92
1
 93
7
 72
1
 10
32.9923313344
 20
47.0301863881
 11
33.1563796967
 21
46.5469163427
 72
1
 10
33.1563796967
 20
46.5469163427
 11
33.3821041117
 21
46.0891912997
 72
1
 10
33.3821041117
 20
46.0891912997
 11
28.7480950465
 21
45.5534278506
 72
1
 10
28.7480950465
 20
45.5534278506
 11
29.3301683772
 21
46.146464163
 72
1
 10
29.3301683772
 20
46.146464163
 11
29.8169521117
 21
46.8199201942
 72
1
 10
29.8169521117
 20
46.8199201942
 11
32.8927659379
 21
47.5307364352
 72
1
 10
32.8927659379
 20
47.5307364352
 11
32.9923313344
 21
47.0301863881
 97
1
330
280
 75
0
 76
1
 98
1
 10
0.0
 20
0.0
  0
LWPOLYLINE
  5
282
100
AcDbEntity
  8
0
100
AcDbPolyline
 62
2
  6
CONTINUOUS
 90
8
 70
0
 10
33.6656423722
 20
45.6648412598
 10
34.00214306
 20
45.2811412237
 10
34.3858485548
 20
44.9446311921
 10
27.3523542712
 20
44.659914577
 10
28.0838381739
 20
45.0541641554
 10
28.7480950465
 20
45.5534278506
 10
33.3821041117
 20
46.0891912997
 10
33.6656423722
 20
45.6648412598
  0
HATCH
  5
283
100
AcDbEntity
  8
0
100
AcDbHatch
 62
2
  6
CONTINUOUS
 10
0.0
 20
0.0
 30
0.0
210
0.0
220
0.0
230
1.0
  2
SOLID
 70
1
 71
1
 91
1
 92
1
 93
7
 72
1
 10
33.6656423722
 20
45.6648412598
 11
34.00214306
 21
45.2811412237
 72
1
 10
34.00214306
 20
45.2811412237
 11
34.3858485548
 21
44.9446311921
 72
1
 10
34.3858485548
 20
44.9446311921
 11
27.3523542712
 21
44.659914577
 72
1
 10
27.3523542712
 20
44.659914577
 11
28.0838381739
 21
45.0541641554
 72
1
 10
28.0838381739
 20
45.0541641554
 11
28.7480950465
 21
45.5534278506
 72
1
 10
28.7480950465
 20
45.5534278506
 11
33.3821041117
 21
46.0891912997
 72
1
 10
33.3821041117
 20
46.0891912997
 11
33.6656423722
 21
45.6648412598
 97
1
330
282
 75
0
 76
1
 98
1
 10
0.0
 20
0.0
  0
LWPOLYLINE
  5
284
100
AcDbEntity
  8
0
100
AcDbPolyline
 62
2
  6
CONTINUOUS
 90
24
 70
0
 10
34.8101935494
 20
44.6611011654
 10
35.2679173833
 20
44.4353811442
 10
35.7511882747
 20
44.2713261287
 10
36.2517373247
 20
44.1717561194
 10
16.3610861409
 20
43.6666760719
 10
20.0261379092
 20
51.9411676226
 10
19.750600337
 20
51.1572157897
 10
19.5954682224
 20
50.3408608074
 10
19.5642345443
 20
49.5104838523
 10
19.6576025652
 20
48.684781822
 10
19.8734699961
 20
47.8823463527
 10
20.2069763321
 20
47.121245207
 10
20.6506122924
 20
46.4186154575
 10
21.1943889001
 20
45.7902776256
 10
21.8260623961
 20
45.2503794643
 10
22.5314099211
 20
44.8110774052
 10
23.2945497596
 20
44.4822628421
 10
24.0982989358
 20
44.2713261287
 10
24.9245601072
 20
44.1830563096
 10
25.754729048
 20
44.2194013213
 10
26.5701135443
 20
44.3795561005
 10
27.3523542712
 20
44.659914577
 10
34.3858485548
 20
44.9446311921
 10
34.8101935494
 20
44.6611011654
  0
HATCH
  5
285
100
AcDbEntity
  8
0
100
AcDbHatch
 62
2
  6
CONTINUOUS
 10
0.0
 20
0.0
 30
0.0
210
0.0
220
0.0
230
1.0
  2
SOLID
 70
1
 71
1
 91
1
 92
1
 93
23
 72
1
 10
34.8101935494
 20
44.6611011654
 11
35.2679173833
 21
44.4353811442
 72
1
 10
35.2679173833
 20
44.4353811442
 11
35.7511882747
 21
44.2713261287
 72
1
 10
35.7511882747
 20
44.2713261287
 11
36.2517373247
 21
44.1717561194
 72
1
 10
36.2517373247
 20
44.1717561194
 11
16.3610861409
 21
43.6666760719
 72
1
 10
16.3610861409
 20
43.6666760719
 11
20.0261379092
 21
51.9411676226
 72
1
 10
20.0261379092
 20
51.9411676226
 11
19.750600337
 21
51.1572157897
 72
1
 10
19.750600337
 20
51.1572157897
 11
19.5954682224
 21
50.3408608074
 72
1
 10
19.5954682224
 20
50.3408608074
 11
19.5642345443
 21
49.5104838523
 72
1
 10
19.5642345443
 20
49.5104838523
 11
19.6576025652
 21
48.684781822
 72
1
 10
19.6576025652
 20
48.684781822
 11
19.8734699961
 21
47.8823463527
 72
1
 10
19.8734699961
 20
47.8823463527
 11
20.2069763321
 21
47.121245207
 72
1
 10
20.2069763321
 20
47.121245207
 11
20.6506122924
 21
46.4186154575
 72
1
 10
20.6506122924
 20
46.4186154575
 11
21.1943889001
 21
45.7902776256
 72
1
 10
21.1943889001
 20
45.7902776256
 11
21.8260623961
 21
45.2503794643
 72
1
 10
21.8260623961
 20
45.2503794643
 11
22.5314099211
 21
44.8110774052
 72
1
 10
22.5314099211
 20
44.8110774052
 11
23.2945497596
 21
44.4822628421
 72
1
 10
23.2945497596
 20
44.4822628421
 11
24.0982989358
 21
44.2713261287
 72
1
 10
24.0982989358
 20
44.2713261287
 11
24.9245601072
 21
44.1830563096
 72
1
 10
24.9245601072
 20
44.1830563096
 11
25.754729048
 21
44.2194013213
 72
1
 10
25.754729048
 20
44.2194013213
 11
26.5701135443
 21
44.3795561005
 72
1
 10
26.5701135443
 20
44.3795561005
 11
27.3523542712
 21
44.659914577
 72
1
 10
27.3523542712
 20
44.659914577
 11
34.3858485548
 21
44.9446311921
 72
1
 10
34.3858485548
 20
44.9446311921
 11
34.8101935494
 21
44.6611011654
 97
1
330
284
 75
0
 76
1
 98
1
 10
0.0
 20
0.0
  0
LWPOLYLINE
  5
286
100
AcDbEntity
  8
0
100
AcDbPolyline
 62
2
  6
CONTINUOUS
 90
43
 70
0
 10
36.7610000003
 20
44.13838322
 10
37.2702626758
 20
44.1717561194
 10
37.7708117258
 20
44.2713261287
 10
38.2540826172
 20
44.4353811442
 10
38.7118064511
 20
44.6611011654
 10
39.1361514457
 20
44.9446311921
 10
39.5198569406
 20
45.2811412237
 10
39.8563576283
 20
45.6648412598
 10
40.1398958888
 20
46.0891912997
 10
45.3528889231
 20
43.6666760719
 10
45.345943091
 20
43.5341510594
 10
45.3251816945
 20
43.4030660471
 10
45.2908322
 20
43.2748610351
 10
45.2432709475
 20
43.1509610234
 10
45.1830190283
 20
43.0327160123
 10
45.1107365748
 20
42.9214160018
 10
45.0272155289
 20
42.8182759921
 10
44.9333709645
 20
42.7244209833
 10
44.8302310623
 20
42.6409009754
 10
44.7189258447
 20
42.5686159687
 10
44.600674795
 20
42.508375963
 10
44.4767734964
 20
42.4608109585
 10
44.3485794374
 20
42.4264609553
 10
44.217497139
 20
42.4057009533
 10
44.0849627663
 20
42.3987559527
 10
17.6290122978
 20
42.3987559527
 10
17.4964779251
 20
42.4057009533
 10
17.3653956267
 20
42.4264609553
 10
17.2372015677
 20
42.4608109585
 10
17.113300269
 20
42.508375963
 10
16.9950492193
 20
42.5686159687
 10
16.8837440018
 20
42.6409009754
 10
16.7806040996
 20
42.7244209833
 10
16.6867595352
 20
42.8182759921
 10
16.6032384892
 20
42.9214160018
 10
16.5309560358
 20
43.0327160123
 10
16.4707041165
 20
43.1509610234
 10
16.4231428641
 20
43.2748610351
 10
16.3887933695
 20
43.4030660471
 10
16.368031973
 20
43.5341510594
 10
16.3610861409
 20
43.6666760719
 10
36.2517373247
 20
44.1717561194
 10
36.7610000003
 20
44.13838322
  0
HATCH
  5
287
100
AcDbEntity
  8
0
100
AcDbHatch
 62
2
  6
CONTINUOUS
 10
0.0
 20
0.0
 30
0.0
210
0.0
220
0.0
230
1.0
  2
SOLID
 70
1
 71
1
 91
1
 92
1
 93
42
 72
1
 10
36.7610000003
 20
44.13838322
 11
37.2702626758
 21
44.1717561194
 72
1
 10
37.2702626758
 20
44.1717561194
 11
37.7708117258
 21
44.2713261287
 72
1
 10
37.7708117258
 20
44.2713261287
 11
38.2540826172
 21
44.4353811442
 72
1
 10
38.2540826172
 20
44.4353811442
 11
38.7118064511
 21
44.6611011654
 72
1
 10
38.7118064511
 20
44.6611011654
 11
39.1361514457
 21
44.9446311921
 72
1
 10
39.1361514457
 20
44.9446311921
 11
39.5198569406
 21
45.2811412237
 72
1
 10
39.5198569406
 20
45.2811412237
 11
39.8563576283
 21
45.6648412598
 72
1
 10
39.8563576283
 20
45.6648412598
 11
40.1398958888
 21
46.0891912997
 72
1
 10
40.1398958888
 20
46.0891912997
 11
45.3528889231
 21
43.6666760719
 72
1
 10
45.3528889231
 20
43.6666760719
 11
45.345943091
 21
43.5341510594
 72
1
 10
45.345943091
 20
43.5341510594
 11
45.3251816945
 21
43.4030660471
 72
1
 10
45.3251816945
 20
43.4030660471
 11
45.2908322
 21
43.2748610351
 72
1
 10
45.2908322
 20
43.2748610351
 11
45.2432709475
 21
43.1509610234
 72
1
 10
45.2432709475
 20
43.1509610234
 11
45.1830190283
 21
43.0327160123
 72
1
 10
45.1830190283
 20
43.0327160123
 11
45.1107365748
 21
42.9214160018
 72
1
 10
45.1107365748
 20
42.9214160018
 11
45.0272155289
 21
42.8182759921
 72
1
 10
45.0272155289
 20
42.8182759921
 11
44.9333709645
 21
42.7244209833
 72
1
 10
44.9333709645
 20
42.7244209833
 11
44.8302310623
 21
42.6409009754
 72
1
 10
44.8302310623
 20
42.6409009754
 11
44.7189258447
 21
42.5686159687
 72
1
 10
44.7189258447
 20
42.5686159687
 11
44.600674795
 21
42.508375963
 72
1
 10
44.600674795
 20
42.508375963
 11
44.4767734964
 21
42.4608109585
 72
1
 10
44.4767734964
 20
42.4608109585
 11
44.3485794374
 21
42.4264609553
 72
1
 10
44.3485794374
 20
42.4264609553
 11
44.217497139
 21
42.4057009533
 72
1
 10
44.217497139
 20
42.4057009533
 11
44.0849627663
 21
42.3987559527
 72
1
 10
44.0849627663
 20
42.3987559527
 11
17.6290122978
 21
42.3987559527
 72
1
 10
17.6290122978
 20
42.3987559527
 11
17.4964779251
 21
42.4057009533
 72
1
 10
17.4964779251
 20
42.4057009533
 11
17.3653956267
 21
42.4264609553
 72
1
 10
17.3653956267
 20
42.4264609553
 11
17.2372015677
 21
42.4608109585
 72
1
 10
17.2372015677
 20
42.4608109585
 11
17.113300269
 21
42.508375963
 72
1
 10
17.113300269
 20
42.508375963
 11
16.9950492193
 21
42.5686159687
 72
1
 10
16.9950492193
 20
42.5686159687
 11
16.8837440018
 21
42.6409009754
 72
1
 10
16.8837440018
 20
42.6409009754
 11
16.7806040996
 21
42.7244209833
 72
1
 10
16.7806040996
 20
42.7244209833
 11
16.6867595352
 21
42.8182759921
 72
1
 10
16.6867595352
 20
42.8182759921
 11
16.6032384892
 21
42.9214160018
 72
1
 10
16.6032384892
 20
42.9214160018
 11
16.5309560358
 21
43.0327160123
 72
1
 10
16.5309560358
 20
43.0327160123
 11
16.4707041165
 21
43.1509610234
 72
1
 10
16.4707041165
 20
43.1509610234
 11
16.4231428641
 21
43.2748610351
 72
1
 10
16.4231428641
 20
43.2748610351
 11
16.3887933695
 21
43.4030660471
 72
1
 10
16.3887933695
 20
43.4030660471
 11
16.368031973
 21
43.5341510594
 72
1
 10
16.368031973
 20
43.5341510594
 11
16.3610861409
 21
43.6666760719
 72
1
 10
16.3610861409
 20
43.6666760719
 11
36.2517373247
 21
44.1717561194
 72
1
 10
36.2517373247
 20
44.1717561194
 11
36.7610000003
 21
44.13838322
 97
1
330
286
 75
0
 76
1
 98
1
 10
0.0
 20
0.0
  0
SOLID
  5
288
100
AcDbEntity
  8
0
100
AcDbTrace
 62
2
  6
CONTINUOUS
 10
25.3408515753
 20
55.2505598297
 11
24.5102931399
 21
55.2245960958
 12
26.1659444963
 22
55.151954039
 13
45.3528889232
 23
56.1308222438
  0
ENDBLK
  5
289
100
AcDbEntity
  8
0
  6
BYBLOCK
 62
0
100
AcDbBlockEnd
  0
BLOCK
  5
28A
100
AcDbEntity
  8
94862701R00_BL0
100
AcDbBlockBegin
  2
94862701R00_BL0
 70
64
 10
50.1469367678
 20
200.1388967746
  3
94862701R00_BL0
  1

  0
LINE
  5
28B
100
AcDbEntity
  8
94862701R00_BL0
100
AcDbLine
 62
7
  6
CONTINUOUS
 10
89.4174082603
 20
113.3166736575
 11
65.4174082603
 21
113.3166736575
  0
LINE
  5
28C
100
AcDbEntity
  8
94862701R00_BL0
100
AcDbLine
 62
7
  6
CENTER
 10
77.4174082603
 20
125.3166736575
 11
69.6174082603
 21
125.3166736575
  0
LINE
  5
28D
100
AcDbEntity
  8
94862701R00_BL0
100
AcDbLine
 62
7
  6
CENTER
 10
77.4174082603
 20
125.3166736575
 11
85.2174082603
 21
125.3166736575
  0
LINE
  5
28E
100
AcDbEntity
  8
94862701R00_BL0
100
AcDbLine
 62
7
  6
CONTINUOUS
 10
72.7924082603
 20
137.3166736575
 11
82.0424082603
 21
137.3166736575
  0
LINE
  5
28F
100
AcDbEntity
  8
94862701R00_BL0
100
AcDbLine
 62
7
  6
CENTER
 10
77.4174082603
 20
168.3166736575
 11
69.548120141
 21
168.3166736575
  0
LINE
  5
290
100
AcDbEntity
  8
94862701R00_BL0
100
AcDbLine
 62
7
  6
CENTER
 10
77.4174082603
 20
168.3166736575
 11
85.4537798901
 21
168.3166736575
  0
LINE
  5
291
100
AcDbEntity
  8
94862701R00_BL0
100
AcDbLine
 62
7
  6
CONTINUOUS
 10
82.0424082603
 20
199.3166736575
 11
72.7924082603
 21
199.3166736575
  0
LINE
  5
292
100
AcDbEntity
  8
94862701R00_BL0
100
AcDbLine
 62
7
  6
CONTINUOUS
 10
65.4174082603
 20
329.8166736575
 11
65.4174082603
 21
283.4666736575
  0
LINE
  5
293
100
AcDbEntity
  8
94862701R00_BL0
100
AcDbLine
 62
7
  6
CONTINUOUS
 10
65.4174082603
 20
235.1666736575
 11
65.4174082603
 21
113.3166736575
  0
LINE
  5
294
100
AcDbEntity
  8
94862701R00_BL0
100
AcDbLine
 62
7
  6
CONTINUOUS
 10
73.4174082603
 20
235.1666736575
 11
75.5674082603
 21
237.3166736575
  0
LINE
  5
295
100
AcDbEntity
  8
94862701R00_BL0
100
AcDbLine
 62
7
  6
CONTINUOUS
 10
71.2924082603
 20
197.8166736575
 11
71.2924082603
 21
138.8166736575
  0
LINE
  5
296
100
AcDbEntity
  8
94862701R00_BL0
100
AcDbLine
 62
7
  6
CENTER
 10
77.4174082603
 20
216.3166736575
 11
69.6174082603
 21
216.3166736575
  0
LINE
  5
297
100
AcDbEntity
  8
94862701R00_BL0
100
AcDbLine
 62
7
  6
CENTER
 10
77.4174082603
 20
216.3166736575
 11
85.2174082603
 21
216.3166736575
  0
LINE
  5
298
100
AcDbEntity
  8
94862701R00_BL0
100
AcDbLine
 62
7
  6
CENTER
 10
77.4174082603
 20
317.8166736575
 11
77.4174082603
 21
310.0166736575
  0
LINE
  5
299
100
AcDbEntity
  8
94862701R00_BL0
100
AcDbLine
 62
7
  6
CENTER
 10
77.4174082603
 20
216.3166736575
 11
77.4174082603
 21
208.5166736575
  0
LINE
  5
29A
100
AcDbEntity
  8
94862701R00_BL0
100
AcDbLine
 62
7
  6
CENTER
 10
77.4174082603
 20
168.3166736575
 11
77.4174082603
 21
135.9824569508
  0
LINE
  5
29B
100
AcDbEntity
  8
94862701R00_BL0
100
AcDbLine
 62
7
  6
CENTER
 10
77.4174082603
 20
125.3166736575
 11
77.4174082603
 21
117.5166736575
  0
LINE
  5
29C
100
AcDbEntity
  8
94862701R00_BL0
100
AcDbLine
 62
7
  6
CENTER
 10
77.4174082603
 20
125.3166736575
 11
77.4174082603
 21
133.1166736575
  0
LINE
  5
29D
100
AcDbEntity
  8
94862701R00_BL0
100
AcDbLine
 62
7
  6
CENTER
 10
77.4174082603
 20
168.3166736575
 11
77.4174082603
 21
201.7500604342
  0
LINE
  5
29E
100
AcDbEntity
  8
94862701R00_BL0
100
AcDbLine
 62
7
  6
CENTER
 10
77.4174082603
 20
216.3166736575
 11
77.4174082603
 21
224.1166736575
  0
LINE
  5
29F
100
AcDbEntity
  8
94862701R00_BL0
100
AcDbLine
 62
7
  6
CENTER
 10
77.4174082603
 20
317.8166736575
 11
77.4174082603
 21
325.6166736575
  0
LINE
  5
2A0
100
AcDbEntity
  8
94862701R00_BL0
100
AcDbLine
 62
7
  6
CONTINUOUS
 10
83.5424082603
 20
138.8166736575
 11
83.5424082603
 21
197.8166736575
  0
LINE
  5
2A1
100
AcDbEntity
  8
94862701R00_BL0
100
AcDbLine
 62
7
  6
CONTINUOUS
 10
87.4174082603
 20
237.3166736575
 11
87.4174082603
 21
281.3166736575
  0
LINE
  5
2A2
100
AcDbEntity
  8
94862701R00_BL0
100
AcDbLine
 62
7
  6
CONTINUOUS
 10
65.4174082603
 20
235.1666736575
 11
73.4174082603
 21
235.1666736575
  0
LINE
  5
2A3
100
AcDbEntity
  8
94862701R00_BL0
100
AcDbLine
 62
7
  6
CONTINUOUS
 10
89.4174082603
 20
329.8166736575
 11
89.4174082603
 21
113.3166736575
  0
LINE
  5
2A4
100
AcDbEntity
  8
94862701R00_BL0
100
AcDbLine
 62
7
  6
CONTINUOUS
 10
75.5674082603
 20
237.3166736575
 11
87.4174082603
 21
237.3166736575
  0
LINE
  5
2A5
100
AcDbEntity
  8
94862701R00_BL0
100
AcDbLine
 62
7
  6
CONTINUOUS
 10
75.5674082603
 20
281.3166736575
 11
73.4174082603
 21
283.4666736575
  0
LINE
  5
2A6
100
AcDbEntity
  8
94862701R00_BL0
100
AcDbLine
 62
7
  6
CONTINUOUS
 10
87.4174082603
 20
281.3166736575
 11
75.5674082603
 21
281.3166736575
  0
LINE
  5
2A7
100
AcDbEntity
  8
94862701R00_BL0
100
AcDbLine
 62
7
  6
CONTINUOUS
 10
65.4174082603
 20
283.4666736575
 11
73.4174082603
 21
283.4666736575
  0
LINE
  5
2A8
100
AcDbEntity
  8
94862701R00_BL0
100
AcDbLine
 62
7
  6
CENTER
 10
77.4174082603
 20
317.8166736575
 11
69.6174082603
 21
317.8166736575
  0
LINE
  5
2A9
100
AcDbEntity
  8
94862701R00_BL0
100
AcDbLine
 62
7
  6
CENTER
 10
77.4174082603
 20
317.8166736575
 11
85.2174082603
 21
317.8166736575
  0
LINE
  5
2AA
100
AcDbEntity
  8
94862701R00_BL0
100
AcDbLine
 62
7
  6
CONTINUOUS
 10
89.4174082603
 20
329.8166736575
 11
65.4174082603
 21
329.8166736575
  0
LINE
  5
2AB
100
AcDbEntity
  8
94862701R00_BL0
100
AcDbLine
 62
7
  6
CONTINUOUS
 10
16.8764652753
 20
113.3166736575
 11
13.8764652753
 21
113.3166736575
  0
LINE
  5
2AC
100
AcDbEntity
  8
94862701R00_BL0
100
AcDbLine
 62
7
  6
CENTER
 10
10.8764652753
 20
125.3166736575
 11
19.8764652753
 21
125.3166736575
  0
LINE
  5
2AD
100
AcDbEntity
  8
94862701R00_BL0
100
AcDbLine
 62
7
  6
CENTER
 10
19.8764652753
 20
168.3166736575
 11
10.8764652753
 21
168.3166736575
  0
LINE
  5
2AE
100
AcDbEntity
  8
94862701R00_BL0
100
AcDbLine
 62
7
  6
CONTINUOUS
 10
13.8764652753
 20
329.8166736575
 11
13.8764652753
 21
113.3166736575
  0
LINE
  5
2AF
100
AcDbEntity
  8
94862701R00_BL0
100
AcDbLine
 62
7
  6
CONTINUOUS
 10
16.8764652753
 20
329.8166736575
 11
16.8764652753
 21
113.3166736575
  0
LINE
  5
2B0
100
AcDbEntity
  8
94862701R00_BL0
100
AcDbLine
 62
7
  6
CENTER
 10
10.8764652753
 20
216.3166736575
 11
19.8764652753
 21
216.3166736575
  0
LINE
  5
2B1
100
AcDbEntity
  8
94862701R00_BL0
100
AcDbLine
 62
7
  6
CENTER
 10
10.8764652753
 20
317.8166736575
 11
19.8764652753
 21
317.8166736575
  0
LINE
  5
2B2
100
AcDbEntity
  8
94862701R00_BL0
100
AcDbLine
 62
7
  6
CONTINUOUS
 10
16.8764652753
 20
329.8166736575
 11
13.8764652753
 21
329.8166736575
  0
LINE
  5
2B3
100
AcDbEntity
  8
94862701R00_BL0
100
AcDbLine
 62
7
  6
CONTINUOUS
 10
16.8764652753
 20
70.4611198917
 11
13.8764652753
 21
70.4611198917
  0
LINE
  5
2B4
100
AcDbEntity
  8
94862701R00_BL0
100
AcDbLine
 62
7
  6
CONTINUOUS
 10
13.8764652753
 20
70.4611198917
 11
13.8764652753
 21
94.4611198917
  0
LINE
  5
2B5
100
AcDbEntity
  8
94862701R00_BL0
100
AcDbLine
 62
7
  6
CONTINUOUS
 10
16.8764652753
 20
94.4611198917
 11
16.8764652753
 21
70.4611198917
  0
LINE
  5
2B6
100
AcDbEntity
  8
94862701R00_BL0
100
AcDbLine
 62
7
  6
CONTINUOUS
 10
13.8764652753
 20
94.4611198917
 11
16.8764652753
 21
94.4611198917
  0
ARC
  5
2B7
100
AcDbEntity
  8
94862701R00_BL0
100
AcDbCircle
 62
7
  6
CONTINUOUS
 10
79.5686769565
 20
121.5905669749
 40
1.5525373924
100
AcDbArc
 50
58.03273698
 51
181.96726302
  0
ARC
  5
2B8
100
AcDbEntity
  8
94862701R00_BL0
100
AcDbCircle
 62
7
  6
CONTINUOUS
 10
75.2661395641
 20
121.5905669749
 40
1.5525373924
100
AcDbArc
 50
358.03273698
 51
121.96726302
  0
ARC
  5
2B9
100
AcDbEntity
  8
94862701R00_BL0
100
AcDbCircle
 62
7
  6
CONTINUOUS
 10
80.7083047947
 20
123.4166736575
 40
0.6
100
AcDbArc
 50
238.03273698
 51
61.96726302
  0
ARC
  5
2BA
100
AcDbEntity
  8
94862701R00_BL0
100
AcDbCircle
 62
7
  6
CONTINUOUS
 10
77.4174082603
 20
121.5166736575
 40
0.6
100
AcDbArc
 50
178.03273698
 51
1.96726302
  0
ARC
  5
2BB
100
AcDbEntity
  8
94862701R00_BL0
100
AcDbCircle
 62
7
  6
CONTINUOUS
 10
74.1265117259
 20
123.4166736575
 40
0.6
100
AcDbArc
 50
118.03273698
 51
301.96726302
  0
CIRCLE
  5
2BC
100
AcDbEntity
  8
94862701R00_BL0
100
AcDbCircle
 62
7
  6
CONTINUOUS
 10
77.4174082603
 20
125.3166736575
 40
4.8
  0
ARC
  5
2BD
100
AcDbEntity
  8
94862701R00_BL0
100
AcDbCircle
 62
7
  6
CONTINUOUS
 10
75.2661395641
 20
129.04278034
 40
1.5525373924
100
AcDbArc
 50
238.03273698
 51
1.96726302
  0
ARC
  5
2BE
100
AcDbEntity
  8
94862701R00_BL0
100
AcDbCircle
 62
7
  6
CONTINUOUS
 10
73.1148708679
 20
125.3166736575
 40
1.5525373924
100
AcDbArc
 50
298.03273698
 51
61.96726302
  0
ARC
  5
2BF
100
AcDbEntity
  8
94862701R00_BL0
100
AcDbCircle
 62
7
  6
CONTINUOUS
 10
72.7924082603
 20
138.8166736575
 40
1.5
100
AcDbArc
 50
180.0
 51
270.0
  0
ARC
  5
2C0
100
AcDbEntity
  8
94862701R00_BL0
100
AcDbCircle
 62
7
  6
CONTINUOUS
 10
74.1265117259
 20
127.2166736575
 40
0.6
100
AcDbArc
 50
58.03273698
 51
241.96726302
  0
ARC
  5
2C1
100
AcDbEntity
  8
94862701R00_BL0
100
AcDbCircle
 62
7
  6
CONTINUOUS
 10
77.4174082603
 20
129.1166736575
 40
0.6
100
AcDbArc
 50
358.03273698
 51
181.96726302
  0
CIRCLE
  5
2C2
100
AcDbEntity
  8
94862701R00_BL0
100
AcDbCircle
 62
7
  6
CONTINUOUS
 10
77.4174082603
 20
216.3166736575
 40
4.8
  0
ARC
  5
2C3
100
AcDbEntity
  8
94862701R00_BL0
100
AcDbCircle
 62
7
  6
CONTINUOUS
 10
75.2661395641
 20
220.04278034
 40
1.5525373924
100
AcDbArc
 50
238.03273698
 51
1.96726302
  0
ARC
  5
2C4
100
AcDbEntity
  8
94862701R00_BL0
100
AcDbCircle
 62
7
  6
CONTINUOUS
 10
75.2661395641
 20
212.5905669749
 40
1.5525373924
100
AcDbArc
 50
358.03273698
 51
121.96726302
  0
ARC
  5
2C5
100
AcDbEntity
  8
94862701R00_BL0
100
AcDbCircle
 62
7
  6
CONTINUOUS
 10
73.1148708679
 20
216.3166736575
 40
1.5525373924
100
AcDbArc
 50
298.03273698
 51
61.96726302
  0
ARC
  5
2C6
100
AcDbEntity
  8
94862701R00_BL0
100
AcDbCircle
 62
7
  6
CONTINUOUS
 10
72.7924082603
 20
197.8166736575
 40
1.5
100
AcDbArc
 50
90.0
 51
180.0
  0
ARC
  5
2C7
100
AcDbEntity
  8
94862701R00_BL0
100
AcDbCircle
 62
7
  6
CONTINUOUS
 10
74.1265117259
 20
218.2166736575
 40
0.6
100
AcDbArc
 50
58.03273698
 51
241.96726302
  0
ARC
  5
2C8
100
AcDbEntity
  8
94862701R00_BL0
100
AcDbCircle
 62
7
  6
CONTINUOUS
 10
77.4174082603
 20
220.1166736575
 40
0.6
100
AcDbArc
 50
358.03273698
 51
181.96726302
  0
ARC
  5
2C9
100
AcDbEntity
  8
94862701R00_BL0
100
AcDbCircle
 62
7
  6
CONTINUOUS
 10
77.4174082603
 20
212.5166736575
 40
0.6
100
AcDbArc
 50
178.03273698
 51
1.96726302
  0
ARC
  5
2CA
100
AcDbEntity
  8
94862701R00_BL0
100
AcDbCircle
 62
7
  6
CONTINUOUS
 10
74.1265117259
 20
214.4166736575
 40
0.6
100
AcDbArc
 50
118.03273698
 51
301.96726302
  0
ARC
  5
2CB
100
AcDbEntity
  8
94862701R00_BL0
100
AcDbCircle
 62
7
  6
CONTINUOUS
 10
76.602825698
 20
234.6916736575
 40
0.6
100
AcDbArc
 50
110.537822144
 51
187.875660707
  0
ARC
  5
2CC
100
AcDbEntity
  8
94862701R00_BL0
100
AcDbCircle
 62
7
  6
CONTINUOUS
 10
76.602825698
 20
231.4416736575
 40
0.6
100
AcDbArc
 50
172.2213079539
 51
249.4668745528
  0
ARC
  5
2CD
100
AcDbEntity
  8
94862701R00_BL0
100
AcDbCircle
 62
7
  6
CONTINUOUS
 10
79.5686769565
 20
129.04278034
 40
1.5525373924
100
AcDbArc
 50
178.03273698
 51
301.96726302
  0
ARC
  5
2CE
100
AcDbEntity
  8
94862701R00_BL0
100
AcDbCircle
 62
7
  6
CONTINUOUS
 10
81.7199456527
 20
125.3166736575
 40
1.5525373924
100
AcDbArc
 50
118.03273698
 51
241.96726302
  0
ARC
  5
2CF
100
AcDbEntity
  8
94862701R00_BL0
100
AcDbCircle
 62
7
  6
CONTINUOUS
 10
82.0424082603
 20
138.8166736575
 40
1.5
100
AcDbArc
 50
270.0
 51
360.0
  0
ARC
  5
2D0
100
AcDbEntity
  8
94862701R00_BL0
100
AcDbCircle
 62
7
  6
CONTINUOUS
 10
80.7083047947
 20
127.2166736575
 40
0.6
100
AcDbArc
 50
298.03273698
 51
121.96726302
  0
ARC
  5
2D1
100
AcDbEntity
  8
94862701R00_BL0
100
AcDbCircle
 62
7
  6
CONTINUOUS
 10
79.5686769565
 20
220.04278034
 40
1.5525373924
100
AcDbArc
 50
178.03273698
 51
301.96726302
  0
ARC
  5
2D2
100
AcDbEntity
  8
94862701R00_BL0
100
AcDbCircle
 62
7
  6
CONTINUOUS
 10
81.7199456527
 20
216.3166736575
 40
1.5525373924
100
AcDbArc
 50
118.03273698
 51
241.96726302
  0
ARC
  5
2D3
100
AcDbEntity
  8
94862701R00_BL0
100
AcDbCircle
 62
7
  6
CONTINUOUS
 10
79.5686769565
 20
212.5905669749
 40
1.5525373924
100
AcDbArc
 50
58.03273698
 51
181.96726302
  0
ARC
  5
2D4
100
AcDbEntity
  8
94862701R00_BL0
100
AcDbCircle
 62
7
  6
CONTINUOUS
 10
82.0424082603
 20
197.8166736575
 40
1.5
100
AcDbArc
 50
0.0
 51
90.0
  0
ARC
  5
2D5
100
AcDbEntity
  8
94862701R00_BL0
100
AcDbCircle
 62
7
  6
CONTINUOUS
 10
80.7083047947
 20
218.2166736575
 40
0.6
100
AcDbArc
 50
298.03273698
 51
121.96726302
  0
ARC
  5
2D6
100
AcDbEntity
  8
94862701R00_BL0
100
AcDbCircle
 62
7
  6
CONTINUOUS
 10
80.7083047947
 20
214.4166736575
 40
0.6
100
AcDbArc
 50
238.03273698
 51
61.96726302
  0
ARC
  5
2D7
100
AcDbEntity
  8
94862701R00_BL0
100
AcDbCircle
 62
7
  6
CONTINUOUS
 10
79.4174082603
 20
229.8166736575
 40
0.6
100
AcDbArc
 50
229.3102886554
 51
310.6446946108
  0
CIRCLE
  5
2D8
100
AcDbEntity
  8
94862701R00_BL0
100
AcDbCircle
 62
7
  6
CONTINUOUS
 10
79.4174082603
 20
233.0666736575
 40
3.9
  0
ARC
  5
2D9
100
AcDbEntity
  8
94862701R00_BL0
100
AcDbCircle
 62
7
  6
CONTINUOUS
 10
79.4174082603
 20
236.3166736575
 40
0.6
100
AcDbArc
 50
49.3102886554
 51
130.6446946109
  0
ARC
  5
2DA
100
AcDbEntity
  8
94862701R00_BL0
100
AcDbCircle
 62
7
  6
CONTINUOUS
 10
82.2319908226
 20
234.6916736575
 40
0.6
100
AcDbArc
 50
352.2213079539
 51
69.4668745529
  0
ARC
  5
2DB
100
AcDbEntity
  8
94862701R00_BL0
100
AcDbCircle
 62
7
  6
CONTINUOUS
 10
82.2319908226
 20
231.4416736575
 40
0.6
100
AcDbArc
 50
290.537822144
 51
7.875660707
  0
ARC
  5
2DC
100
AcDbEntity
  8
94862701R00_BL0
100
AcDbCircle
 62
7
  6
CONTINUOUS
 10
76.602825698
 20
287.1916736575
 40
0.6
100
AcDbArc
 50
110.537822144
 51
187.875660707
  0
ARC
  5
2DD
100
AcDbEntity
  8
94862701R00_BL0
100
AcDbCircle
 62
7
  6
CONTINUOUS
 10
76.602825698
 20
283.9416736575
 40
0.6
100
AcDbArc
 50
172.2213079539
 51
249.4668745528
  0
CIRCLE
  5
2DE
100
AcDbEntity
  8
94862701R00_BL0
100
AcDbCircle
 62
7
  6
CONTINUOUS
 10
77.4174082603
 20
317.8166736575
 40
4.8
  0
ARC
  5
2DF
100
AcDbEntity
  8
94862701R00_BL0
100
AcDbCircle
 62
7
  6
CONTINUOUS
 10
75.2661395641
 20
321.54278034
 40
1.5525373924
100
AcDbArc
 50
238.03273698
 51
1.96726302
  0
ARC
  5
2E0
100
AcDbEntity
  8
94862701R00_BL0
100
AcDbCircle
 62
7
  6
CONTINUOUS
 10
75.2661395641
 20
314.0905669749
 40
1.5525373924
100
AcDbArc
 50
358.03273698
 51
121.96726302
  0
ARC
  5
2E1
100
AcDbEntity
  8
94862701R00_BL0
100
AcDbCircle
 62
7
  6
CONTINUOUS
 10
73.1148708679
 20
317.8166736575
 40
1.5525373924
100
AcDbArc
 50
298.03273698
 51
61.96726302
  0
ARC
  5
2E2
100
AcDbEntity
  8
94862701R00_BL0
100
AcDbCircle
 62
7
  6
CONTINUOUS
 10
74.1265117259
 20
319.7166736575
 40
0.6
100
AcDbArc
 50
58.03273698
 51
241.96726302
  0
ARC
  5
2E3
100
AcDbEntity
  8
94862701R00_BL0
100
AcDbCircle
 62
7
  6
CONTINUOUS
 10
77.4174082603
 20
321.6166736575
 40
0.6
100
AcDbArc
 50
358.03273698
 51
181.96726302
  0
ARC
  5
2E4
100
AcDbEntity
  8
94862701R00_BL0
100
AcDbCircle
 62
7
  6
CONTINUOUS
 10
77.4174082603
 20
314.0166736575
 40
0.6
100
AcDbArc
 50
178.03273698
 51
1.96726302
  0
ARC
  5
2E5
100
AcDbEntity
  8
94862701R00_BL0
100
AcDbCircle
 62
7
  6
CONTINUOUS
 10
74.1265117259
 20
315.9166736575
 40
0.6
100
AcDbArc
 50
118.03273698
 51
301.96726302
  0
ARC
  5
2E6
100
AcDbEntity
  8
94862701R00_BL0
100
AcDbCircle
 62
7
  6
CONTINUOUS
 10
79.4174082603
 20
282.3166736575
 40
0.6
100
AcDbArc
 50
229.3102886554
 51
310.6446946108
  0
CIRCLE
  5
2E7
100
AcDbEntity
  8
94862701R00_BL0
100
AcDbCircle
 62
7
  6
CONTINUOUS
 10
79.4174082603
 20
285.5666736575
 40
3.9
  0
ARC
  5
2E8
100
AcDbEntity
  8
94862701R00_BL0
100
AcDbCircle
 62
7
  6
CONTINUOUS
 10
79.4174082603
 20
288.8166736575
 40
0.6
100
AcDbArc
 50
49.3102886554
 51
130.6446946109
  0
ARC
  5
2E9
100
AcDbEntity
  8
94862701R00_BL0
100
AcDbCircle
 62
7
  6
CONTINUOUS
 10
82.2319908226
 20
283.9416736575
 40
0.6
100
AcDbArc
 50
290.537822144
 51
7.8756607071
  0
ARC
  5
2EA
100
AcDbEntity
  8
94862701R00_BL0
100
AcDbCircle
 62
7
  6
CONTINUOUS
 10
82.2319908226
 20
287.1916736575
 40
0.6
100
AcDbArc
 50
352.2213079539
 51
69.4668745529
  0
ARC
  5
2EB
100
AcDbEntity
  8
94862701R00_BL0
100
AcDbCircle
 62
7
  6
CONTINUOUS
 10
79.5686769565
 20
321.54278034
 40
1.5525373924
100
AcDbArc
 50
178.03273698
 51
301.96726302
  0
ARC
  5
2EC
100
AcDbEntity
  8
94862701R00_BL0
100
AcDbCircle
 62
7
  6
CONTINUOUS
 10
81.7199456527
 20
317.8166736575
 40
1.5525373924
100
AcDbArc
 50
118.03273698
 51
241.96726302
  0
ARC
  5
2ED
100
AcDbEntity
  8
94862701R00_BL0
100
AcDbCircle
 62
7
  6
CONTINUOUS
 10
79.5686769565
 20
314.0905669749
 40
1.5525373924
100
AcDbArc
 50
58.03273698
 51
181.96726302
  0
ARC
  5
2EE
100
AcDbEntity
  8
94862701R00_BL0
100
AcDbCircle
 62
7
  6
CONTINUOUS
 10
80.7083047947
 20
319.7166736575
 40
0.6
100
AcDbArc
 50
298.03273698
 51
121.96726302
  0
ARC
  5
2EF
100
AcDbEntity
  8
94862701R00_BL0
100
AcDbCircle
 62
7
  6
CONTINUOUS
 10
80.7083047947
 20
315.9166736575
 40
0.6
100
AcDbArc
 50
238.03273698
 51
61.96726302
  0
ENDBLK
  5
2F0
100
AcDbEntity
  8
0
  6
BYBLOCK
 62
0
100
AcDbBlockEnd
  0
BLOCK
  5
2F1
100
AcDbEntity
  8
93780800R00_BL1
100
AcDbBlockBegin
  2
93780800R00_BL1
 70
64
 10
81.4174082603
 20
274.8166736575
  3
93780800R00_BL1
  1

  0
LINE
  5
2F2
100
AcDbEntity
  8
93780800R00_BL1
100
AcDbLine
 62
7
  6
CONTINUOUS
 10
81.4174082603
 20
275.5729159776
 11
81.5085623777
 21
275.6079067649
  0
LINE
  5
2F3
100
AcDbEntity
  8
93780800R00_BL1
100
AcDbLine
 62
7
  6
CONTINUOUS
 10
81.4174082603
 20
274.0604313374
 11
81.3262541429
 21
274.02544055
  0
LINE
  5
2F4
100
AcDbEntity
  8
93780800R00_BL1
100
AcDbLine
 62
7
  6
CONTINUOUS
 10
80.6261751529
 20
274.9078277749
 11
80.845130509
 21
275.0473177207
  0
LINE
  5
2F5
100
AcDbEntity
  8
93780800R00_BL1
100
AcDbLine
 62
7
  6
CONTINUOUS
 10
82.2086413677
 20
274.7255195401
 11
81.9896860116
 21
274.5860295943
  0
LINE
  5
2F6
100
AcDbEntity
  8
93780800R00_BL1
100
AcDbLine
 62
7
  6
CONTINUOUS
 10
79.7290237496
 20
273.7964920659
 11
80.6261751529
 21
274.7255195401
  0
LINE
  5
2F7
100
AcDbEntity
  8
93780800R00_BL1
100
AcDbLine
 62
7
  6
CONTINUOUS
 10
83.105792771
 20
275.8368552491
 11
82.2086413677
 21
274.9078277749
  0
LINE
  5
2F8
100
AcDbEntity
  8
93780800R00_BL1
100
AcDbLine
 62
7
  6
CONTINUOUS
 10
81.5085623777
 20
275.6079067649
 11
82.4375898519
 21
276.5050581682
  0
LINE
  5
2F9
100
AcDbEntity
  8
93780800R00_BL1
100
AcDbLine
 62
7
  6
CONTINUOUS
 10
81.3262541429
 20
274.02544055
 11
80.3972266687
 21
273.1282891467
  0
LINE
  5
2FA
100
AcDbEntity
  8
93780800R00_BL1
100
AcDbLine
 62
7
  6
CONTINUOUS
 10
81.3262541429
 20
275.6079067649
 11
81.1867641971
 21
275.3889514088
  0
LINE
  5
2FB
100
AcDbEntity
  8
93780800R00_BL1
100
AcDbLine
 62
7
  6
CONTINUOUS
 10
81.5085623777
 20
274.02544055
 11
81.6480523235
 21
274.2443959062
  0
LINE
  5
2FC
100
AcDbEntity
  8
93780800R00_BL1
100
AcDbLine
 62
7
  6
CONTINUOUS
 10
80.6261751529
 20
274.7255195401
 11
80.6611659402
 21
274.8166736575
  0
LINE
  5
2FD
100
AcDbEntity
  8
93780800R00_BL1
100
AcDbLine
 62
7
  6
CONTINUOUS
 10
82.2086413677
 20
274.9078277749
 11
82.1736505804
 21
274.8166736575
  0
LINE
  5
2FE
100
AcDbEntity
  8
93780800R00_BL1
100
AcDbLine
 62
7
  6
CONTINUOUS
 10
81.4174082603
 20
275.5729159776
 11
81.4174082603
 21
275.2903953943
  0
LINE
  5
2FF
100
AcDbEntity
  8
93780800R00_BL1
100
AcDbLine
 62
7
  6
CONTINUOUS
 10
81.4174082603
 20
274.0604313374
 11
81.4174082603
 21
274.3429519207
  0
LINE
  5
300
100
AcDbEntity
  8
93780800R00_BL1
100
AcDbLine
 62
7
  6
CONTINUOUS
 10
80.6611659402
 20
274.8166736575
 11
80.6261751529
 21
274.9078277749
  0
LINE
  5
301
100
AcDbEntity
  8
93780800R00_BL1
100
AcDbLine
 62
7
  6
CONTINUOUS
 10
82.1736505804
 20
274.8166736575
 11
82.2086413677
 21
274.7255195401
  0
LINE
  5
302
100
AcDbEntity
  8
93780800R00_BL1
100
AcDbLine
 62
7
  6
CONTINUOUS
 10
81.3262541429
 20
274.02544055
 11
81.1867641971
 21
274.2443959062
  0
LINE
  5
303
100
AcDbEntity
  8
93780800R00_BL1
100
AcDbLine
 62
7
  6
CONTINUOUS
 10
81.5085623777
 20
275.6079067649
 11
81.6480523235
 21
275.3889514088
  0
LINE
  5
304
100
AcDbEntity
  8
93780800R00_BL1
100
AcDbLine
 62
7
  6
CONTINUOUS
 10
82.4375898519
 20
273.1282891467
 11
81.5085623777
 21
274.02544055
  0
LINE
  5
305
100
AcDbEntity
  8
93780800R00_BL1
100
AcDbLine
 62
7
  6
CONTINUOUS
 10
80.3972266687
 20
276.5050581682
 11
81.3262541429
 21
275.6079067649
  0
LINE
  5
306
100
AcDbEntity
  8
93780800R00_BL1
100
AcDbLine
 62
7
  6
CONTINUOUS
 10
80.6261751529
 20
274.9078277749
 11
79.7290237496
 21
275.8368552491
  0
LINE
  5
307
100
AcDbEntity
  8
93780800R00_BL1
100
AcDbLine
 62
7
  6
CONTINUOUS
 10
82.2086413677
 20
274.7255195401
 11
83.105792771
 21
273.7964920659
  0
LINE
  5
308
100
AcDbEntity
  8
93780800R00_BL1
100
AcDbLine
 62
7
  6
CONTINUOUS
 10
81.5085623777
 20
274.02544055
 11
81.4174082603
 21
274.0604313374
  0
LINE
  5
309
100
AcDbEntity
  8
93780800R00_BL1
100
AcDbLine
 62
7
  6
CONTINUOUS
 10
80.6261751529
 20
274.7255195401
 11
80.845130509
 21
274.5860295943
  0
LINE
  5
30A
100
AcDbEntity
  8
93780800R00_BL1
100
AcDbLine
 62
7
  6
CONTINUOUS
 10
82.2086413677
 20
274.9078277749
 11
81.9896860116
 21
275.0473177207
  0
LINE
  5
30B
100
AcDbEntity
  8
93780800R00_BL1
100
AcDbLine
 62
7
  6
CONTINUOUS
 10
82.1736505804
 20
274.8166736575
 11
81.8911299971
 21
274.8166736575
  0
LINE
  5
30C
100
AcDbEntity
  8
93780800R00_BL1
100
AcDbLine
 62
7
  6
CONTINUOUS
 10
80.6611659402
 20
274.8166736575
 11
80.9436865235
 21
274.8166736575
  0
LINE
  5
30D
100
AcDbEntity
  8
93780800R00_BL1
100
AcDbLine
 62
7
  6
CONTINUOUS
 10
81.3262541429
 20
275.6079067649
 11
81.4174082603
 21
275.5729159776
  0
ARC
  5
30E
100
AcDbEntity
  8
93780800R00_BL1
100
AcDbCircle
 62
7
  6
CONTINUOUS
 10
-78.0118579683
 20
19.9428050653
 40
300.5261570227
100
AcDbArc
 50
58.0925201906
 51
58.2631633589
  0
ARC
  5
30F
100
AcDbEntity
  8
93780800R00_BL1
100
AcDbCircle
 62
7
  6
CONTINUOUS
 10
-173.4564603061
 20
434.2459398701
 40
300.5261569924
100
AcDbArc
 50
328.0925201906
 51
328.263163359
  0
CIRCLE
  5
310
100
AcDbEntity
  8
93780800R00_BL1
100
AcDbCircle
 62
7
  6
CONTINUOUS
 10
81.4174082603
 20
274.8166736575
 40
2.85
  0
ARC
  5
311
100
AcDbEntity
  8
93780800R00_BL1
100
AcDbCircle
 62
9
  6
CONTINUOUS
 10
81.4174082603
 20
274.8166736575
 40
1.9726664026
100
AcDbArc
 50
301.1528667687
 51
328.8529794039
  0
ARC
  5
312
100
AcDbEntity
  8
93780800R00_BL1
100
AcDbCircle
 62
9
  6
CONTINUOUS
 10
81.4174082603
 20
274.8166736575
 40
1.9726664026
100
AcDbArc
 50
211.14168669
 51
238.8742098283
  0
ARC
  5
313
100
AcDbEntity
  8
93780800R00_BL1
100
AcDbCircle
 62
9
  6
CONTINUOUS
 10
81.4174082603
 20
274.8166736575
 40
1.9726664026
100
AcDbArc
 50
121.1402786404
 51
148.8739772222
  0
ARC
  5
314
100
AcDbEntity
  8
93780800R00_BL1
100
AcDbCircle
 62
9
  6
CONTINUOUS
 10
81.4174082603
 20
274.8166736575
 40
1.9726664026
100
AcDbArc
 50
31.1234299516
 51
58.8466423422
  0
ARC
  5
315
100
AcDbEntity
  8
93780800R00_BL1
100
AcDbCircle
 62
9
  6
CONTINUOUS
 10
81.4174082603
 20
274.8166736575
 40
1.5251992218
100
AcDbArc
 50
297.9789520644
 51
332.0210479356
  0
ARC
  5
316
100
AcDbEntity
  8
93780800R00_BL1
100
AcDbCircle
 62
9
  6
CONTINUOUS
 10
81.4174082603
 20
274.8166736575
 40
1.5251992218
100
AcDbArc
 50
207.9789520644
 51
242.0210479356
  0
ARC
  5
317
100
AcDbEntity
  8
93780800R00_BL1
100
AcDbCircle
 62
9
  6
CONTINUOUS
 10
81.4174082603
 20
274.8166736575
 40
1.5251992218
100
AcDbArc
 50
117.9789520644
 51
152.0210479356
  0
ARC
  5
318
100
AcDbEntity
  8
93780800R00_BL1
100
AcDbCircle
 62
9
  6
CONTINUOUS
 10
81.4174082603
 20
274.8166736575
 40
1.5251992218
100
AcDbArc
 50
27.9789520644
 51
62.0210479356
  0
ARC
  5
319
100
AcDbEntity
  8
93780800R00_BL1
100
AcDbCircle
 62
7
  6
CONTINUOUS
 10
81.4174082603
 20
274.8166736575
 40
0.635
100
AcDbArc
 50
292.5578096573
 51
337.4421903427
  0
ARC
  5
31A
100
AcDbEntity
  8
93780800R00_BL1
100
AcDbCircle
 62
7
  6
CONTINUOUS
 10
81.4174082603
 20
274.8166736575
 40
0.635
100
AcDbArc
 50
22.5578096573
 51
67.4421903427
  0
ARC
  5
31B
100
AcDbEntity
  8
93780800R00_BL1
100
AcDbCircle
 62
7
  6
CONTINUOUS
 10
81.4174082603
 20
274.8166736575
 40
0.635
100
AcDbArc
 50
202.5578096573
 51
247.4421903427
  0
ARC
  5
31C
100
AcDbEntity
  8
93780800R00_BL1
100
AcDbCircle
 62
7
  6
CONTINUOUS
 10
81.4174082603
 20
274.8166736575
 40
0.635
100
AcDbArc
 50
112.5578096573
 51
157.4421903427
  0
ARC
  5
31D
100
AcDbEntity
  8
93780800R00_BL1
100
AcDbCircle
 62
7
  6
CONTINUOUS
 10
336.2912768267
 20
115.3874074449
 40
300.5261569924
100
AcDbArc
 50
148.0925201906
 51
148.263163359
  0
ARC
  5
31E
100
AcDbEntity
  8
93780800R00_BL1
100
AcDbCircle
 62
7
  6
CONTINUOUS
 10
240.8466744729
 20
529.6905422238
 40
300.5261569923
100
AcDbArc
 50
238.0925201906
 51
238.263163359
  0
LINE
  5
31F
100
AcDbEntity
  8
93780800R00_BL1
100
AcDbLine
 62
7
  6
CONTINUOUS
 10
81.1867641971
 20
274.2443959062
 11
81.1738124793
 21
274.2302556363
  0
SPLINE
  5
320
100
AcDbEntity
  8
93780800R00_BL1
100
AcDbSpline
 62
7
  6
CONTINUOUS
 70
0
 71
3
 72
9
 73
5
 74
0
 42
0.0000001
 43
0.0000001
 44
0.0000000001
 40
0.0
 40
0.0
 40
0.0
 40
0.0
 40
0.2494291971
 40
1.0
 40
1.0
 40
1.0
 40
1.0
 10
80.7018653538
 20
276.1636075887
 30
0.0
 10
80.7410526258
 20
276.1003438046
 30
0.0
 10
80.898195431
 20
275.8467313574
 30
0.0
 10
81.0553520599
 20
275.5931266462
 30
0.0
 10
81.1738124793
 20
275.4030916786
 30
0.0
  0
LINE
  5
321
100
AcDbEntity
  8
93780800R00_BL1
100
AcDbLine
 62
7
  6
CONTINUOUS
 10
81.1738124793
 20
275.4030916786
 11
81.1867641971
 21
275.3889514088
  0
SPLINE
  5
322
100
AcDbEntity
  8
93780800R00_BL1
100
AcDbSpline
 62
7
  6
CONTINUOUS
 70
0
 71
3
 72
9
 73
5
 74
0
 42
0.0000001
 43
0.0000001
 44
0.0000000001
 40
0.0
 40
0.0
 40
0.0
 40
0.0
 40
0.2456562051
 40
1.0
 40
1.0
 40
1.0
 40
1.0
 10
81.1867641971
 20
275.3889514088
 30
0.0
 10
81.2055742459
 20
275.3807042831
 30
0.0
 10
81.2822007783
 20
275.3472612933
 30
0.0
 10
81.3591100383
 20
275.3144565959
 30
0.0
 10
81.4174082603
 20
275.2903953943
 30
0.0
  0
SPLINE
  5
323
100
AcDbEntity
  8
93780800R00_BL1
100
AcDbSpline
 62
7
  6
CONTINUOUS
 70
0
 71
3
 72
9
 73
5
 74
0
 42
0.0000001
 43
0.0000001
 44
0.0000000001
 40
0.0
 40
0.0
 40
0.0
 40
0.0
 40
0.2546871958
 40
1.0
 40
1.0
 40
1.0
 40
1.0
 10
81.4174082603
 20
275.2903953943
 30
0.0
 10
81.4370914078
 20
275.2985191443
 30
0.0
 10
81.5142465728
 20
275.3307276259
 30
0.0
 10
81.5909830669
 20
275.3639298187
 30
0.0
 10
81.6480523235
 20
275.3889514088
 30
0.0
  0
LINE
  5
324
100
AcDbEntity
  8
93780800R00_BL1
100
AcDbLine
 62
7
  6
CONTINUOUS
 10
81.6480523235
 20
275.3889514088
 11
81.6610040413
 21
275.4030916786
  0
SPLINE
  5
325
100
AcDbEntity
  8
93780800R00_BL1
100
AcDbSpline
 62
7
  6
CONTINUOUS
 70
0
 71
3
 72
10
 73
6
 74
0
 42
0.0000001
 43
0.0000001
 44
0.0000000001
 40
0.0
 40
0.0
 40
0.0
 40
0.0
 40
0.1744823037
 40
0.4139756216
 40
1.0
 40
1.0
 40
1.0
 40
1.0
 10
82.7643421915
 20
274.1011307509
 30
0.0
 10
82.7870010181
 20
274.0870952705
 30
0.0
 10
82.8375349124
 20
274.0487801354
 30
0.0
 10
82.9535438384
 20
273.9494433968
 30
0.0
 10
83.0436068196
 20
273.8608875037
 30
0.0
 10
83.105792771
 20
273.7964920659
 30
0.0
  0
SPLINE
  5
326
100
AcDbEntity
  8
93780800R00_BL1
100
AcDbSpline
 62
7
  6
CONTINUOUS
 70
0
 71
3
 72
10
 73
6
 74
0
 42
0.0000001
 43
0.0000001
 44
0.0000000001
 40
0.0
 40
0.0
 40
0.0
 40
0.0
 40
0.5860290742
 40
0.8255203224
 40
1.0
 40
1.0
 40
1.0
 40
1.0
 10
82.4375898519
 20
273.1282891467
 30
0.0
 10
82.3731938965
 20
273.190475598
 30
0.0
 10
82.2846378881
 20
273.2805390081
 30
0.0
 10
82.1853008714
 20
273.3965477243
 30
0.0
 10
82.1469864364
 20
273.4470812401
 30
0.0
 10
82.1329511668
 20
273.4697397263
 30
0.0
  0
SPLINE
  5
327
100
AcDbEntity
  8
93780800R00_BL1
100
AcDbSpline
 62
7
  6
CONTINUOUS
 70
0
 71
3
 72
10
 73
6
 74
0
 42
0.0000001
 43
0.0000001
 44
0.0000000001
 40
0.0
 40
0.0
 40
0.0
 40
0.0
 40
0.1744823037
 40
0.4139756216
 40
1.0
 40
1.0
 40
1.0
 40
1.0
 10
80.7018653538
 20
273.4697397263
 30
0.0
 10
80.6878298733
 20
273.4470808996
 30
0.0
 10
80.6495147383
 20
273.3965470053
 30
0.0
 10
80.5501779996
 20
273.2805380794
 30
0.0
 10
80.4616221065
 20
273.1904750982
 30
0.0
 10
80.3972266687
 20
273.1282891467
 30
0.0
  0
SPLINE
  5
328
100
AcDbEntity
  8
93780800R00_BL1
100
AcDbSpline
 62
7
  6
CONTINUOUS
 70
0
 71
3
 72
10
 73
6
 74
0
 42
0.0000001
 43
0.0000001
 44
0.0000000001
 40
0.0
 40
0.0
 40
0.0
 40
0.0
 40
0.5860290742
 40
0.8255203224
 40
1.0
 40
1.0
 40
1.0
 40
1.0
 10
79.7290237496
 20
273.7964920659
 30
0.0
 10
79.7912102008
 20
273.8608880213
 30
0.0
 10
79.8812736109
 20
273.9494440297
 30
0.0
 10
79.9972823272
 20
274.0487810463
 30
0.0
 10
80.0478158429
 20
274.0870954814
 30
0.0
 10
80.0704743291
 20
274.1011307509
 30
0.0
  0
SPLINE
  5
329
100
AcDbEntity
  8
93780800R00_BL1
100
AcDbSpline
 62
7
  6
CONTINUOUS
 70
0
 71
3
 72
10
 73
6
 74
0
 42
0.0000001
 43
0.0000001
 44
0.0000000001
 40
0.0
 40
0.0
 40
0.0
 40
0.0
 40
0.1744823037
 40
0.4139756216
 40
1.0
 40
1.0
 40
1.0
 40
1.0
 10
80.0704743291
 20
275.532216564
 30
0.0
 10
80.0478155025
 20
275.5462520444
 30
0.0
 10
79.9972816082
 20
275.5845671795
 30
0.0
 10
79.8812726822
 20
275.6839039182
 30
0.0
 10
79.791209701
 20
275.7724598112
 30
0.0
 10
79.7290237496
 20
275.8368552491
 30
0.0
  0
SPLINE
  5
32A
100
AcDbEntity
  8
93780800R00_BL1
100
AcDbSpline
 62
7
  6
CONTINUOUS
 70
0
 71
3
 72
10
 73
6
 74
0
 42
0.0000001
 43
0.0000001
 44
0.0000000001
 40
0.0
 40
0.0
 40
0.0
 40
0.0
 40
0.5860290742
 40
0.8255203224
 40
1.0
 40
1.0
 40
1.0
 40
1.0
 10
80.3972266687
 20
276.5050581682
 30
0.0
 10
80.4616226241
 20
276.442871717
 30
0.0
 10
80.5501786325
 20
276.3528083069
 30
0.0
 10
80.6495156492
 20
276.2367995906
 30
0.0
 10
80.6878300842
 20
276.1862660748
 30
0.0
 10
80.7018653538
 20
276.1636075887
 30
0.0
  0
SPLINE
  5
32B
100
AcDbEntity
  8
93780800R00_BL1
100
AcDbSpline
 62
7
  6
CONTINUOUS
 70
0
 71
3
 72
10
 73
6
 74
0
 42
0.0000001
 43
0.0000001
 44
0.0000000001
 40
0.0
 40
0.0
 40
0.0
 40
0.0
 40
0.1744823037
 40
0.4139756216
 40
1.0
 40
1.0
 40
1.0
 40
1.0
 10
82.1329511668
 20
276.1636075887
 30
0.0
 10
82.1469866473
 20
276.1862664153
 30
0.0
 10
82.1853017823
 20
276.2368003096
 30
0.0
 10
82.284638521
 20
276.3528092355
 30
0.0
 10
82.3731944141
 20
276.4428722168
 30
0.0
 10
82.4375898519
 20
276.5050581682
 30
0.0
  0
SPLINE
  5
32C
100
AcDbEntity
  8
93780800R00_BL1
100
AcDbSpline
 62
7
  6
CONTINUOUS
 70
0
 71
3
 72
10
 73
6
 74
0
 42
0.0000001
 43
0.0000001
 44
0.0000000001
 40
0.0
 40
0.0
 40
0.0
 40
0.0
 40
0.5860290742
 40
0.8255203224
 40
1.0
 40
1.0
 40
1.0
 40
1.0
 10
83.105792771
 20
275.8368552491
 30
0.0
 10
83.0436063198
 20
275.7724592937
 30
0.0
 10
82.9535429097
 20
275.6839032853
 30
0.0
 10
82.8375341934
 20
275.5845662686
 30
0.0
 10
82.7870006777
 20
275.5462518335
 30
0.0
 10
82.7643421915
 20
275.532216564
 30
0.0
  0
SPLINE
  5
32D
100
AcDbEntity
  8
93780800R00_BL1
100
AcDbSpline
 62
7
  6
CONTINUOUS
 70
0
 71
3
 72
9
 73
5
 74
0
 42
0.0000001
 43
0.0000001
 44
0.0000000001
 40
0.0
 40
0.0
 40
0.0
 40
0.0
 40
0.2494291971
 40
1.0
 40
1.0
 40
1.0
 40
1.0
 10
82.1329511668
 20
273.4697397263
 30
0.0
 10
82.0937638948
 20
273.5330035103
 30
0.0
 10
81.9366210896
 20
273.7866159575
 30
0.0
 10
81.7794644607
 20
274.0402206688
 30
0.0
 10
81.6610040413
 20
274.2302556363
 30
0.0
  0
LINE
  5
32E
100
AcDbEntity
  8
93780800R00_BL1
100
AcDbLine
 62
7
  6
CONTINUOUS
 10
81.6610040413
 20
274.2302556363
 11
81.6480523235
 21
274.2443959062
  0
SPLINE
  5
32F
100
AcDbEntity
  8
93780800R00_BL1
100
AcDbSpline
 62
7
  6
CONTINUOUS
 70
0
 71
3
 72
9
 73
5
 74
0
 42
0.0000001
 43
0.0000001
 44
0.0000000001
 40
0.0
 40
0.0
 40
0.0
 40
0.0
 40
0.2456562051
 40
1.0
 40
1.0
 40
1.0
 40
1.0
 10
81.6480523235
 20
274.2443959062
 30
0.0
 10
81.6292422747
 20
274.2526430318
 30
0.0
 10
81.5526157423
 20
274.2860860217
 30
0.0
 10
81.4757064823
 20
274.318890719
 30
0.0
 10
81.4174082603
 20
274.3429519207
 30
0.0
  0
SPLINE
  5
330
100
AcDbEntity
  8
93780800R00_BL1
100
AcDbSpline
 62
7
  6
CONTINUOUS
 70
0
 71
3
 72
9
 73
5
 74
0
 42
0.0000001
 43
0.0000001
 44
0.0000000001
 40
0.0
 40
0.0
 40
0.0
 40
0.0
 40
0.2546871958
 40
1.0
 40
1.0
 40
1.0
 40
1.0
 10
81.4174082603
 20
274.3429519207
 30
0.0
 10
81.3977251128
 20
274.3348281707
 30
0.0
 10
81.3205699478
 20
274.302619689
 30
0.0
 10
81.2438334537
 20
274.2694174963
 30
0.0
 10
81.1867641971
 20
274.2443959062
 30
0.0
  0
SPLINE
  5
331
100
AcDbEntity
  8
93780800R00_BL1
100
AcDbSpline
 62
7
  6
CONTINUOUS
 70
0
 71
3
 72
9
 73
5
 74
0
 42
0.0000001
 43
0.0000001
 44
0.0000000001
 40
0.0
 40
0.0
 40
0.0
 40
0.0
 40
0.2494291971
 40
1.0
 40
1.0
 40
1.0
 40
1.0
 10
82.7643421915
 20
275.532216564
 30
0.0
 10
82.7010784074
 20
275.493029292
 30
0.0
 10
82.4474659602
 20
275.3358864868
 30
0.0
 10
82.193861249
 20
275.1787298578
 30
0.0
 10
82.0038262814
 20
275.0602694384
 30
0.0
  0
LINE
  5
332
100
AcDbEntity
  8
93780800R00_BL1
100
AcDbLine
 62
7
  6
CONTINUOUS
 10
82.0038262814
 20
275.0602694384
 11
81.9896860116
 21
275.0473177207
  0
SPLINE
  5
333
100
AcDbEntity
  8
93780800R00_BL1
100
AcDbSpline
 62
7
  6
CONTINUOUS
 70
0
 71
3
 72
9
 73
5
 74
0
 42
0.0000001
 43
0.0000001
 44
0.0000000001
 40
0.0
 40
0.0
 40
0.0
 40
0.0
 40
0.2456562058
 40
1.0
 40
1.0
 40
1.0
 40
1.0
 10
81.9896860116
 20
275.0473177207
 30
0.0
 10
81.9814388859
 20
275.0285076718
 30
0.0
 10
81.947995896
 20
274.9518811394
 30
0.0
 10
81.9151911987
 20
274.8749718794
 30
0.0
 10
81.8911299971
 20
274.8166736575
 30
0.0
  0
SPLINE
  5
334
100
AcDbEntity
  8
93780800R00_BL1
100
AcDbSpline
 62
7
  6
CONTINUOUS
 70
0
 71
3
 72
9
 73
5
 74
0
 42
0.0000001
 43
0.0000001
 44
0.0000000001
 40
0.0
 40
0.0
 40
0.0
 40
0.0
 40
0.2546871947
 40
1.0
 40
1.0
 40
1.0
 40
1.0
 10
81.8911299971
 20
274.8166736575
 30
0.0
 10
81.8992537471
 20
274.79699051
 30
0.0
 10
81.9314622288
 20
274.7198353451
 30
0.0
 10
81.9646644215
 20
274.643098851
 30
0.0
 10
81.9896860116
 20
274.5860295943
 30
0.0
  0
LINE
  5
335
100
AcDbEntity
  8
93780800R00_BL1
100
AcDbLine
 62
7
  6
CONTINUOUS
 10
81.9896860116
 20
274.5860295943
 11
82.0038262814
 21
274.5730778765
  0
SPLINE
  5
336
100
AcDbEntity
  8
93780800R00_BL1
100
AcDbSpline
 62
7
  6
CONTINUOUS
 70
0
 71
3
 72
9
 73
5
 74
0
 42
0.0000001
 43
0.0000001
 44
0.0000000001
 40
0.0
 40
0.0
 40
0.0
 40
0.0
 40
0.2494291971
 40
1.0
 40
1.0
 40
1.0
 40
1.0
 10
80.0704743291
 20
274.1011307509
 30
0.0
 10
80.1337381132
 20
274.1403180229
 30
0.0
 10
80.3873505604
 20
274.2974608282
 30
0.0
 10
80.6409552716
 20
274.4546174571
 30
0.0
 10
80.8309902392
 20
274.5730778765
 30
0.0
  0
LINE
  5
337
100
AcDbEntity
  8
93780800R00_BL1
100
AcDbLine
 62
7
  6
CONTINUOUS
 10
80.8309902392
 20
274.5730778765
 11
80.845130509
 21
274.5860295943
  0
SPLINE
  5
338
100
AcDbEntity
  8
93780800R00_BL1
100
AcDbSpline
 62
7
  6
CONTINUOUS
 70
0
 71
3
 72
9
 73
5
 74
0
 42
0.0000001
 43
0.0000001
 44
0.0000000001
 40
0.0
 40
0.0
 40
0.0
 40
0.0
 40
0.2456562058
 40
1.0
 40
1.0
 40
1.0
 40
1.0
 10
80.845130509
 20
274.5860295943
 30
0.0
 10
80.8533776347
 20
274.6048396432
 30
0.0
 10
80.8868206246
 20
274.6814661755
 30
0.0
 10
80.9196253219
 20
274.7583754355
 30
0.0
 10
80.9436865235
 20
274.8166736575
 30
0.0
  0
SPLINE
  5
339
100
AcDbEntity
  8
93780800R00_BL1
100
AcDbSpline
 62
7
  6
CONTINUOUS
 70
0
 71
3
 72
9
 73
5
 74
0
 42
0.0000001
 43
0.0000001
 44
0.0000000001
 40
0.0
 40
0.0
 40
0.0
 40
0.0
 40
0.2546871947
 40
1.0
 40
1.0
 40
1.0
 40
1.0
 10
80.9436865235
 20
274.8166736575
 30
0.0
 10
80.9355627735
 20
274.8363568049
 30
0.0
 10
80.9033542918
 20
274.9135119698
 30
0.0
 10
80.8701520991
 20
274.990248464
 30
0.0
 10
80.845130509
 20
275.0473177207
 30
0.0
  0
LINE
  5
33A
100
AcDbEntity
  8
93780800R00_BL1
100
AcDbLine
 62
7
  6
CONTINUOUS
 10
80.845130509
 20
275.0473177207
 11
80.8309902392
 21
275.0602694384
  0
ENDBLK
  5
33B
100
AcDbEntity
  8
0
  6
BYBLOCK
 62
0
100
AcDbBlockEnd
  0
BLOCK
  5
33C
100
AcDbEntity
  8
93894203000_BL2
100
AcDbBlockBegin
  2
93894203000_BL2
 70
64
 10
52.1469367678
 20
181.3888967746
  3
93894203000_BL2
  1

  0
LINE
  5
33D
100
AcDbEntity
  8
93894203000_BL2
100
AcDbLine
 62
7
  6
CONTINUOUS
 10
80.4174082603
 20
280.8166736575
 11
80.0174082603
 21
280.4166736575
  0
LINE
  5
33E
100
AcDbEntity
  8
93894203000_BL2
100
AcDbLine
 62
7
  6
CONTINUOUS
 10
81.4174082603
 20
280.8166736575
 11
81.0174082603
 21
280.4166736575
  0
LINE
  5
33F
100
AcDbEntity
  8
93894203000_BL2
100
AcDbLine
 62
7
  6
CONTINUOUS
 10
82.4174082603
 20
280.8166736575
 11
82.0174082603
 21
280.4166736575
  0
LINE
  5
340
100
AcDbEntity
  8
93894203000_BL2
100
AcDbLine
 62
7
  6
CONTINUOUS
 10
83.4174082603
 20
280.8166736575
 11
83.0174082603
 21
280.4166736575
  0
LINE
  5
341
100
AcDbEntity
  8
93894203000_BL2
100
AcDbLine
 62
7
  6
CONTINUOUS
 10
84.4174082603
 20
280.8166736575
 11
84.0174082603
 21
280.4166736575
  0
LINE
  5
342
100
AcDbEntity
  8
93894203000_BL2
100
AcDbLine
 62
7
  6
CONTINUOUS
 10
85.4174082603
 20
280.8166736575
 11
85.0174082603
 21
280.4166736575
  0
LINE
  5
343
100
AcDbEntity
  8
93894203000_BL2
100
AcDbLine
 62
7
  6
CONTINUOUS
 10
86.4174082603
 20
280.8166736575
 11
85.9174082603
 21
280.3166736575
  0
LINE
  5
344
100
AcDbEntity
  8
93894203000_BL2
100
AcDbLine
 62
7
  6
CONTINUOUS
 10
87.4174082603
 20
280.8166736575
 11
86.9174082603
 21
280.3166736575
  0
LINE
  5
345
100
AcDbEntity
  8
93894203000_BL2
100
AcDbLine
 62
7
  6
CONTINUOUS
 10
72.4174082603
 20
235.1666736575
 11
75.0674082603
 21
237.8166736575
  0
LINE
  5
346
100
AcDbEntity
  8
93894203000_BL2
100
AcDbLine
 62
7
  6
CONTINUOUS
 10
79.8174082603
 20
238.2166736575
 11
79.4174082603
 21
237.8166736575
  0
LINE
  5
347
100
AcDbEntity
  8
93894203000_BL2
100
AcDbLine
 62
7
  6
CONTINUOUS
 10
80.8174082603
 20
238.2166736575
 11
80.4174082603
 21
237.8166736575
  0
LINE
  5
348
100
AcDbEntity
  8
93894203000_BL2
100
AcDbLine
 62
7
  6
CONTINUOUS
 10
81.8174082603
 20
238.2166736575
 11
81.4174082603
 21
237.8166736575
  0
LINE
  5
349
100
AcDbEntity
  8
93894203000_BL2
100
AcDbLine
 62
7
  6
CONTINUOUS
 10
82.8174082603
 20
238.2166736575
 11
82.4174082603
 21
237.8166736575
  0
LINE
  5
34A
100
AcDbEntity
  8
93894203000_BL2
100
AcDbLine
 62
7
  6
CONTINUOUS
 10
83.8174082603
 20
238.2166736575
 11
83.4174082603
 21
237.8166736575
  0
LINE
  5
34B
100
AcDbEntity
  8
93894203000_BL2
100
AcDbLine
 62
7
  6
CONTINUOUS
 10
84.8174082603
 20
238.2166736575
 11
84.4174082603
 21
237.8166736575
  0
LINE
  5
34C
100
AcDbEntity
  8
93894203000_BL2
100
AcDbLine
 62
7
  6
CONTINUOUS
 10
85.9174082603
 20
238.3166736575
 11
85.4174082603
 21
237.8166736575
  0
LINE
  5
34D
100
AcDbEntity
  8
93894203000_BL2
100
AcDbLine
 62
7
  6
CONTINUOUS
 10
86.9174082603
 20
238.3166736575
 11
86.4174082603
 21
237.8166736575
  0
LINE
  5
34E
100
AcDbEntity
  8
93894203000_BL2
100
AcDbLine
 62
7
  6
CONTINUOUS
 10
78.9174082603
 20
280.8166736575
 11
78.9174082603
 21
280.4166736575
  0
LINE
  5
34F
100
AcDbEntity
  8
93894203000_BL2
100
AcDbLine
 62
7
  6
CONTINUOUS
 10
78.9174082603
 20
238.2166736575
 11
78.9174082603
 21
237.8166736575
  0
LINE
  5
350
100
AcDbEntity
  8
93894203000_BL2
100
AcDbLine
 62
7
  6
CONTINUOUS
 10
79.4174082603
 20
237.8166736575
 11
79.4174082603
 21
238.2166736575
  0
LINE
  5
351
100
AcDbEntity
  8
93894203000_BL2
100
AcDbLine
 62
7
  6
CONTINUOUS
 10
79.4174082603
 20
280.4166736575
 11
79.4174082603
 21
280.8166736575
  0
LINE
  5
352
100
AcDbEntity
  8
93894203000_BL2
100
AcDbLine
 62
7
  6
CONTINUOUS
 10
80.4174082603
 20
237.8166736575
 11
80.4174082603
 21
238.2166736575
  0
LINE
  5
353
100
AcDbEntity
  8
93894203000_BL2
100
AcDbLine
 62
7
  6
CONTINUOUS
 10
80.4174082603
 20
280.4166736575
 11
80.4174082603
 21
280.8166736575
  0
LINE
  5
354
100
AcDbEntity
  8
93894203000_BL2
100
AcDbLine
 62
7
  6
CONTINUOUS
 10
81.4174082603
 20
237.8166736575
 11
81.4174082603
 21
238.2166736575
  0
LINE
  5
355
100
AcDbEntity
  8
93894203000_BL2
100
AcDbLine
 62
7
  6
CONTINUOUS
 10
81.4174082603
 20
280.4166736575
 11
81.4174082603
 21
280.8166736575
  0
LINE
  5
356
100
AcDbEntity
  8
93894203000_BL2
100
AcDbLine
 62
7
  6
CONTINUOUS
 10
82.4174082603
 20
237.8166736575
 11
82.4174082603
 21
238.2166736575
  0
LINE
  5
357
100
AcDbEntity
  8
93894203000_BL2
100
AcDbLine
 62
7
  6
CONTINUOUS
 10
82.4174082603
 20
280.4166736575
 11
82.4174082603
 21
280.8166736575
  0
LINE
  5
358
100
AcDbEntity
  8
93894203000_BL2
100
AcDbLine
 62
7
  6
CONTINUOUS
 10
83.4174082603
 20
237.8166736575
 11
83.4174082603
 21
238.2166736575
  0
LINE
  5
359
100
AcDbEntity
  8
93894203000_BL2
100
AcDbLine
 62
7
  6
CONTINUOUS
 10
83.4174082603
 20
280.4166736575
 11
83.4174082603
 21
280.8166736575
  0
LINE
  5
35A
100
AcDbEntity
  8
93894203000_BL2
100
AcDbLine
 62
7
  6
CONTINUOUS
 10
83.9174082603
 20
276.5586014201
 11
83.9174082603
 21
276.1633898046
  0
LINE
  5
35B
100
AcDbEntity
  8
93894203000_BL2
100
AcDbLine
 62
7
  6
CONTINUOUS
 10
83.9174082603
 20
273.4699575104
 11
83.9174082603
 21
273.0747458948
  0
LINE
  5
35C
100
AcDbEntity
  8
93894203000_BL2
100
AcDbLine
 62
7
  6
CONTINUOUS
 10
83.9174082603
 20
245.5586014201
 11
83.9174082603
 21
245.1633898046
  0
LINE
  5
35D
100
AcDbEntity
  8
93894203000_BL2
100
AcDbLine
 62
7
  6
CONTINUOUS
 10
83.9174082603
 20
242.4699575104
 11
83.9174082603
 21
242.0747458948
  0
LINE
  5
35E
100
AcDbEntity
  8
93894203000_BL2
100
AcDbLine
 62
7
  6
CONTINUOUS
 10
84.4174082603
 20
237.8166736575
 11
84.4174082603
 21
238.2166736575
  0
LINE
  5
35F
100
AcDbEntity
  8
93894203000_BL2
100
AcDbLine
 62
7
  6
CONTINUOUS
 10
84.4174082603
 20
242.3377038366
 11
84.4174082603
 21
245.2956434784
  0
LINE
  5
360
100
AcDbEntity
  8
93894203000_BL2
100
AcDbLine
 62
7
  6
CONTINUOUS
 10
84.4174082603
 20
273.3377038366
 11
84.4174082603
 21
276.2956434784
  0
LINE
  5
361
100
AcDbEntity
  8
93894203000_BL2
100
AcDbLine
 62
7
  6
CONTINUOUS
 10
84.4174082603
 20
280.4166736575
 11
84.4174082603
 21
280.8166736575
  0
LINE
  5
362
100
AcDbEntity
  8
93894203000_BL2
100
AcDbLine
 62
7
  6
CONTINUOUS
 10
84.9174082603
 20
275.7288940608
 11
84.9174082603
 21
273.9044532542
  0
LINE
  5
363
100
AcDbEntity
  8
93894203000_BL2
100
AcDbLine
 62
7
  6
CONTINUOUS
 10
84.9174082603
 20
244.7288940608
 11
84.9174082603
 21
242.9044532542
  0
LINE
  5
364
100
AcDbEntity
  8
93894203000_BL2
100
AcDbLine
 62
7
  6
CONTINUOUS
 10
85.4174082603
 20
237.8166736575
 11
85.4174082603
 21
238.2166736575
  0
LINE
  5
365
100
AcDbEntity
  8
93894203000_BL2
100
AcDbLine
 62
7
  6
CONTINUOUS
 10
85.4174082603
 20
280.4166736575
 11
85.4174082603
 21
280.8166736575
  0
LINE
  5
366
100
AcDbEntity
  8
93894203000_BL2
100
AcDbLine
 62
7
  6
CONTINUOUS
 10
85.9174082603
 20
280.3166736575
 11
85.9174082603
 21
280.2787869461
  0
LINE
  5
367
100
AcDbEntity
  8
93894203000_BL2
100
AcDbLine
 62
7
  6
CONTINUOUS
 10
85.9174082603
 20
238.3545603688
 11
85.9174082603
 21
238.3166736575
  0
LINE
  5
368
100
AcDbEntity
  8
93894203000_BL2
100
AcDbLine
 62
7
  6
CONTINUOUS
 10
86.4174082603
 20
237.8166736575
 11
86.4174082603
 21
239.2166736575
  0
LINE
  5
369
100
AcDbEntity
  8
93894203000_BL2
100
AcDbLine
 62
7
  6
CONTINUOUS
 10
86.4174082603
 20
279.4166736575
 11
86.4174082603
 21
280.8166736575
  0
LINE
  5
36A
100
AcDbEntity
  8
93894203000_BL2
100
AcDbLine
 62
7
  6
CONTINUOUS
 10
86.9174082603
 20
280.3166736575
 11
86.9174082603
 21
238.3166736575
  0
LINE
  5
36B
100
AcDbEntity
  8
93894203000_BL2
100
AcDbLine
 62
7
  6
CONTINUOUS
 10
87.4174082603
 20
237.8166736575
 11
75.0674082603
 21
237.8166736575
  0
LINE
  5
36C
100
AcDbEntity
  8
93894203000_BL2
100
AcDbLine
 62
7
  6
CONTINUOUS
 10
80.4174082603
 20
237.8166736575
 11
80.0174082603
 21
238.2166736575
  0
LINE
  5
36D
100
AcDbEntity
  8
93894203000_BL2
100
AcDbLine
 62
7
  6
CONTINUOUS
 10
81.4174082603
 20
237.8166736575
 11
81.0174082603
 21
238.2166736575
  0
LINE
  5
36E
100
AcDbEntity
  8
93894203000_BL2
100
AcDbLine
 62
7
  6
CONTINUOUS
 10
82.4174082603
 20
237.8166736575
 11
82.0174082603
 21
238.2166736575
  0
LINE
  5
36F
100
AcDbEntity
  8
93894203000_BL2
100
AcDbLine
 62
7
  6
CONTINUOUS
 10
83.4174082603
 20
237.8166736575
 11
83.0174082603
 21
238.2166736575
  0
LINE
  5
370
100
AcDbEntity
  8
93894203000_BL2
100
AcDbLine
 62
7
  6
CONTINUOUS
 10
84.4174082603
 20
237.8166736575
 11
84.0174082603
 21
238.2166736575
  0
LINE
  5
371
100
AcDbEntity
  8
93894203000_BL2
100
AcDbLine
 62
7
  6
CONTINUOUS
 10
85.4174082603
 20
237.8166736575
 11
85.0174082603
 21
238.2166736575
  0
LINE
  5
372
100
AcDbEntity
  8
93894203000_BL2
100
AcDbLine
 62
7
  6
CONTINUOUS
 10
86.4174082603
 20
237.8166736575
 11
85.9174082603
 21
238.3166736575
  0
LINE
  5
373
100
AcDbEntity
  8
93894203000_BL2
100
AcDbLine
 62
7
  6
CONTINUOUS
 10
87.4174082603
 20
237.8166736575
 11
86.9174082603
 21
238.3166736575
  0
LINE
  5
374
100
AcDbEntity
  8
93894203000_BL2
100
AcDbLine
 62
7
  6
CONTINUOUS
 10
75.0674082603
 20
280.8166736575
 11
72.4174082603
 21
283.4666736575
  0
LINE
  5
375
100
AcDbEntity
  8
93894203000_BL2
100
AcDbLine
 62
7
  6
CONTINUOUS
 10
79.8174082603
 20
280.4166736575
 11
79.4174082603
 21
280.8166736575
  0
LINE
  5
376
100
AcDbEntity
  8
93894203000_BL2
100
AcDbLine
 62
7
  6
CONTINUOUS
 10
80.8174082603
 20
280.4166736575
 11
80.4174082603
 21
280.8166736575
  0
LINE
  5
377
100
AcDbEntity
  8
93894203000_BL2
100
AcDbLine
 62
7
  6
CONTINUOUS
 10
81.8174082603
 20
280.4166736575
 11
81.4174082603
 21
280.8166736575
  0
LINE
  5
378
100
AcDbEntity
  8
93894203000_BL2
100
AcDbLine
 62
7
  6
CONTINUOUS
 10
82.8174082603
 20
280.4166736575
 11
82.4174082603
 21
280.8166736575
  0
LINE
  5
379
100
AcDbEntity
  8
93894203000_BL2
100
AcDbLine
 62
7
  6
CONTINUOUS
 10
83.8174082603
 20
280.4166736575
 11
83.4174082603
 21
280.8166736575
  0
LINE
  5
37A
100
AcDbEntity
  8
93894203000_BL2
100
AcDbLine
 62
7
  6
CONTINUOUS
 10
84.8174082603
 20
280.4166736575
 11
84.4174082603
 21
280.8166736575
  0
LINE
  5
37B
100
AcDbEntity
  8
93894203000_BL2
100
AcDbLine
 62
7
  6
CONTINUOUS
 10
85.9174082603
 20
280.3166736575
 11
85.4174082603
 21
280.8166736575
  0
LINE
  5
37C
100
AcDbEntity
  8
93894203000_BL2
100
AcDbLine
 62
7
  6
CONTINUOUS
 10
86.9174082603
 20
280.3166736575
 11
86.4174082603
 21
280.8166736575
  0
LINE
  5
37D
100
AcDbEntity
  8
93894203000_BL2
100
AcDbLine
 62
7
  6
CONTINUOUS
 10
75.0674082603
 20
280.8166736575
 11
87.4174082603
 21
280.8166736575
  0
LINE
  5
37E
100
AcDbEntity
  8
93894203000_BL2
100
AcDbLine
 62
7
  6
CONTINUOUS
 10
19.8764652753
 20
228.3166736575
 11
19.8764652753
 21
290.3166736575
  0
LINE
  5
37F
100
AcDbEntity
  8
93894203000_BL2
100
AcDbLine
 62
7
  6
CONTINUOUS
 10
16.8764652753
 20
228.3166736575
 11
19.8764652753
 21
228.3166736575
  0
LINE
  5
380
100
AcDbEntity
  8
93894203000_BL2
100
AcDbLine
 62
7
  6
CONTINUOUS
 10
16.8764652753
 20
290.3166736575
 11
19.8764652753
 21
290.3166736575
  0
LINE
  5
381
100
AcDbEntity
  8
93894203000_BL2
100
AcDbLine
 62
7
  6
CONTINUOUS
 10
16.8764652753
 20
72.4611198917
 11
19.8764652753
 21
72.4611198917
  0
LINE
  5
382
100
AcDbEntity
  8
93894203000_BL2
100
AcDbLine
 62
7
  6
CONTINUOUS
 10
19.8764652753
 20
89.4611198917
 11
16.8764652753
 21
89.4611198917
  0
LINE
  5
383
100
AcDbEntity
  8
93894203000_BL2
100
AcDbLine
 62
7
  6
CONTINUOUS
 10
19.8764652753
 20
72.4611198917
 11
19.8764652753
 21
89.4611198917
  0
ARC
  5
384
100
AcDbEntity
  8
93894203000_BL2
100
AcDbCircle
 62
7
  6
CONTINUOUS
 10
76.4174082603
 20
238.3166736575
 40
0.5
100
AcDbArc
 50
270.0
 51
348.4495445989
  0
ARC
  5
385
100
AcDbEntity
  8
93894203000_BL2
100
AcDbCircle
 62
7
  6
CONTINUOUS
 10
76.4174082603
 20
280.3166736575
 40
0.5
100
AcDbArc
 50
11.5504554011
 51
90.0
  0
SPLINE
  5
386
100
AcDbEntity
  8
93894203000_BL2
100
AcDbSpline
 62
7
  6
CONTINUOUS
 70
0
 71
3
 72
11
 73
7
 74
0
 42
0.0000001
 43
0.0000001
 44
0.0000000001
 40
0.0
 40
0.0
 40
0.0
 40
0.0
 40
0.2881145106
 40
0.5518050307
 40
0.7864717725
 40
1.0
 40
1.0
 40
1.0
 40
1.0
 10
78.660210188
 20
238.2166271035
 30
0.0
 10
78.6523575043
 20
238.1622707883
 30
0.0
 10
78.6248785414
 20
238.0593465946
 30
0.0
 10
78.5473779232
 20
237.9284669222
 30
0.0
 10
78.4409404965
 20
237.8390181905
 30
0.0
 10
78.3545577866
 20
237.8166736575
 30
0.0
 10
78.3138548697
 20
237.8166736575
 30
0.0
  0
SPLINE
  5
387
100
AcDbEntity
  8
93894203000_BL2
100
AcDbSpline
 62
7
  6
CONTINUOUS
 70
0
 71
3
 72
11
 73
7
 74
0
 42
0.0000001
 43
0.0000001
 44
0.0000000001
 40
0.0
 40
0.0
 40
0.0
 40
0.0
 40
0.2135282275
 40
0.4481949693
 40
0.7118854894
 40
1.0
 40
1.0
 40
1.0
 40
1.0
 10
78.3138548697
 20
280.8166736575
 30
0.0
 10
78.3545577866
 20
280.8166736575
 30
0.0
 10
78.4409404965
 20
280.7943291244
 30
0.0
 10
78.5473779232
 20
280.7048803928
 30
0.0
 10
78.6248785414
 20
280.5740007204
 30
0.0
 10
78.6523575043
 20
280.4710765267
 30
0.0
 10
78.660210188
 20
280.4167202114
 30
0.0
  0
ENDBLK
  5
388
100
AcDbEntity
  8
0
  6
BYBLOCK
 62
0
100
AcDbBlockEnd
  0
BLOCK
  5
389
100
AcDbEntity
  8
93780800R00_BL3
100
AcDbBlockBegin
  2
93780800R00_BL3
 70
64
 10
81.4174082603
 20
243.8166736575
  3
93780800R00_BL3
  1

  0
LINE
  5
38A
100
AcDbEntity
  8
93780800R00_BL3
100
AcDbLine
 62
7
  6
CONTINUOUS
 10
80.6261751529
 20
243.9078277749
 11
80.845130509
 21
244.0473177207
  0
LINE
  5
38B
100
AcDbEntity
  8
93780800R00_BL3
100
AcDbLine
 62
7
  6
CONTINUOUS
 10
82.2086413677
 20
243.7255195401
 11
81.9896860116
 21
243.5860295943
  0
LINE
  5
38C
100
AcDbEntity
  8
93780800R00_BL3
100
AcDbLine
 62
7
  6
CONTINUOUS
 10
81.4174082603
 20
244.5729159776
 11
81.5085623777
 21
244.6079067649
  0
LINE
  5
38D
100
AcDbEntity
  8
93780800R00_BL3
100
AcDbLine
 62
7
  6
CONTINUOUS
 10
81.4174082603
 20
243.0604313374
 11
81.3262541429
 21
243.02544055
  0
LINE
  5
38E
100
AcDbEntity
  8
93780800R00_BL3
100
AcDbLine
 62
7
  6
CONTINUOUS
 10
79.7290237496
 20
242.7964920659
 11
80.6261751529
 21
243.7255195401
  0
LINE
  5
38F
100
AcDbEntity
  8
93780800R00_BL3
100
AcDbLine
 62
7
  6
CONTINUOUS
 10
83.105792771
 20
244.8368552491
 11
82.2086413677
 21
243.9078277749
  0
LINE
  5
390
100
AcDbEntity
  8
93780800R00_BL3
100
AcDbLine
 62
7
  6
CONTINUOUS
 10
81.5085623777
 20
244.6079067649
 11
82.4375898519
 21
245.5050581682
  0
LINE
  5
391
100
AcDbEntity
  8
93780800R00_BL3
100
AcDbLine
 62
7
  6
CONTINUOUS
 10
81.3262541429
 20
243.02544055
 11
80.3972266687
 21
242.1282891467
  0
LINE
  5
392
100
AcDbEntity
  8
93780800R00_BL3
100
AcDbLine
 62
7
  6
CONTINUOUS
 10
80.6261751529
 20
243.7255195401
 11
80.6611659402
 21
243.8166736575
  0
LINE
  5
393
100
AcDbEntity
  8
93780800R00_BL3
100
AcDbLine
 62
7
  6
CONTINUOUS
 10
82.2086413677
 20
243.9078277749
 11
82.1736505804
 21
243.8166736575
  0
LINE
  5
394
100
AcDbEntity
  8
93780800R00_BL3
100
AcDbLine
 62
7
  6
CONTINUOUS
 10
81.3262541429
 20
244.6079067649
 11
81.1867641971
 21
244.3889514088
  0
LINE
  5
395
100
AcDbEntity
  8
93780800R00_BL3
100
AcDbLine
 62
7
  6
CONTINUOUS
 10
81.5085623777
 20
243.02544055
 11
81.6480523235
 21
243.2443959062
  0
LINE
  5
396
100
AcDbEntity
  8
93780800R00_BL3
100
AcDbLine
 62
7
  6
CONTINUOUS
 10
81.4174082603
 20
244.5729159776
 11
81.4174082603
 21
244.2903953943
  0
LINE
  5
397
100
AcDbEntity
  8
93780800R00_BL3
100
AcDbLine
 62
7
  6
CONTINUOUS
 10
81.4174082603
 20
243.0604313374
 11
81.4174082603
 21
243.3429519207
  0
LINE
  5
398
100
AcDbEntity
  8
93780800R00_BL3
100
AcDbLine
 62
7
  6
CONTINUOUS
 10
80.6611659402
 20
243.8166736575
 11
80.6261751529
 21
243.9078277749
  0
LINE
  5
399
100
AcDbEntity
  8
93780800R00_BL3
100
AcDbLine
 62
7
  6
CONTINUOUS
 10
82.1736505804
 20
243.8166736575
 11
81.8911299971
 21
243.8166736575
  0
LINE
  5
39A
100
AcDbEntity
  8
93780800R00_BL3
100
AcDbLine
 62
7
  6
CONTINUOUS
 10
80.6611659402
 20
243.8166736575
 11
80.9436865235
 21
243.8166736575
  0
LINE
  5
39B
100
AcDbEntity
  8
93780800R00_BL3
100
AcDbLine
 62
7
  6
CONTINUOUS
 10
80.6261751529
 20
243.7255195401
 11
80.845130509
 21
243.5860295943
  0
LINE
  5
39C
100
AcDbEntity
  8
93780800R00_BL3
100
AcDbLine
 62
7
  6
CONTINUOUS
 10
82.4375898519
 20
242.1282891467
 11
81.5085623777
 21
243.02544055
  0
LINE
  5
39D
100
AcDbEntity
  8
93780800R00_BL3
100
AcDbLine
 62
7
  6
CONTINUOUS
 10
80.3972266687
 20
245.5050581682
 11
81.3262541429
 21
244.6079067649
  0
LINE
  5
39E
100
AcDbEntity
  8
93780800R00_BL3
100
AcDbLine
 62
7
  6
CONTINUOUS
 10
80.6261751529
 20
243.9078277749
 11
79.7290237496
 21
244.8368552491
  0
LINE
  5
39F
100
AcDbEntity
  8
93780800R00_BL3
100
AcDbLine
 62
7
  6
CONTINUOUS
 10
82.2086413677
 20
243.7255195401
 11
83.105792771
 21
242.7964920659
  0
LINE
  5
3A0
100
AcDbEntity
  8
93780800R00_BL3
100
AcDbLine
 62
7
  6
CONTINUOUS
 10
81.3262541429
 20
243.02544055
 11
81.1867641971
 21
243.2443959062
  0
LINE
  5
3A1
100
AcDbEntity
  8
93780800R00_BL3
100
AcDbLine
 62
7
  6
CONTINUOUS
 10
81.5085623777
 20
244.6079067649
 11
81.6480523235
 21
244.3889514088
  0
LINE
  5
3A2
100
AcDbEntity
  8
93780800R00_BL3
100
AcDbLine
 62
7
  6
CONTINUOUS
 10
82.1736505804
 20
243.8166736575
 11
82.2086413677
 21
243.7255195401
  0
LINE
  5
3A3
100
AcDbEntity
  8
93780800R00_BL3
100
AcDbLine
 62
7
  6
CONTINUOUS
 10
81.5085623777
 20
243.02544055
 11
81.4174082603
 21
243.0604313374
  0
LINE
  5
3A4
100
AcDbEntity
  8
93780800R00_BL3
100
AcDbLine
 62
7
  6
CONTINUOUS
 10
81.3262541429
 20
244.6079067649
 11
81.4174082603
 21
244.5729159776
  0
LINE
  5
3A5
100
AcDbEntity
  8
93780800R00_BL3
100
AcDbLine
 62
7
  6
CONTINUOUS
 10
82.2086413677
 20
243.9078277749
 11
81.9896860116
 21
244.0473177207
  0
ARC
  5
3A6
100
AcDbEntity
  8
93780800R00_BL3
100
AcDbCircle
 62
7
  6
CONTINUOUS
 10
-78.0118579363
 20
-11.0571948832
 40
300.5261569621
100
AcDbArc
 50
58.0925201906
 51
58.263163359
  0
CIRCLE
  5
3A7
100
AcDbEntity
  8
93780800R00_BL3
100
AcDbCircle
 62
7
  6
CONTINUOUS
 10
81.4174082603
 20
243.8166736575
 40
2.85
  0
ARC
  5
3A8
100
AcDbEntity
  8
93780800R00_BL3
100
AcDbCircle
 62
9
  6
CONTINUOUS
 10
81.4174082603
 20
243.8166736575
 40
1.9726664026
100
AcDbArc
 50
121.1528667687
 51
148.8529794039
  0
ARC
  5
3A9
100
AcDbEntity
  8
93780800R00_BL3
100
AcDbCircle
 62
9
  6
CONTINUOUS
 10
81.4174082603
 20
243.8166736575
 40
1.9726664026
100
AcDbArc
 50
31.14168669
 51
58.8742098283
  0
ARC
  5
3AA
100
AcDbEntity
  8
93780800R00_BL3
100
AcDbCircle
 62
9
  6
CONTINUOUS
 10
81.4174082603
 20
243.8166736575
 40
1.9726664026
100
AcDbArc
 50
301.1402786404
 51
328.8739772222
  0
ARC
  5
3AB
100
AcDbEntity
  8
93780800R00_BL3
100
AcDbCircle
 62
9
  6
CONTINUOUS
 10
81.4174082603
 20
243.8166736575
 40
1.9726664026
100
AcDbArc
 50
211.1234299516
 51
238.8466423422
  0
ARC
  5
3AC
100
AcDbEntity
  8
93780800R00_BL3
100
AcDbCircle
 62
9
  6
CONTINUOUS
 10
81.4174082603
 20
243.8166736575
 40
1.5251992218
100
AcDbArc
 50
117.9789520644
 51
152.0210479356
  0
ARC
  5
3AD
100
AcDbEntity
  8
93780800R00_BL3
100
AcDbCircle
 62
9
  6
CONTINUOUS
 10
81.4174082603
 20
243.8166736575
 40
1.5251992218
100
AcDbArc
 50
27.9789520644
 51
62.0210479356
  0
ARC
  5
3AE
100
AcDbEntity
  8
93780800R00_BL3
100
AcDbCircle
 62
9
  6
CONTINUOUS
 10
81.4174082603
 20
243.8166736575
 40
1.5251992218
100
AcDbArc
 50
297.9789520644
 51
332.0210479356
  0
ARC
  5
3AF
100
AcDbEntity
  8
93780800R00_BL3
100
AcDbCircle
 62
9
  6
CONTINUOUS
 10
81.4174082603
 20
243.8166736575
 40
1.5251992218
100
AcDbArc
 50
207.9789520644
 51
242.0210479356
  0
ARC
  5
3B0
100
AcDbEntity
  8
93780800R00_BL3
100
AcDbCircle
 62
7
  6
CONTINUOUS
 10
81.4174082603
 20
243.8166736575
 40
0.635
100
AcDbArc
 50
112.5578096573
 51
157.4421903427
  0
ARC
  5
3B1
100
AcDbEntity
  8
93780800R00_BL3
100
AcDbCircle
 62
7
  6
CONTINUOUS
 10
81.4174082603
 20
243.8166736575
 40
0.635
100
AcDbArc
 50
202.5578096573
 51
247.4421903427
  0
ARC
  5
3B2
100
AcDbEntity
  8
93780800R00_BL3
100
AcDbCircle
 62
7
  6
CONTINUOUS
 10
81.4174082603
 20
243.8166736575
 40
0.635
100
AcDbArc
 50
22.5578096573
 51
67.4421903427
  0
ARC
  5
3B3
100
AcDbEntity
  8
93780800R00_BL3
100
AcDbCircle
 62
7
  6
CONTINUOUS
 10
81.4174082603
 20
243.8166736575
 40
0.635
100
AcDbArc
 50
292.5578096573
 51
337.4421903427
  0
ARC
  5
3B4
100
AcDbEntity
  8
93780800R00_BL3
100
AcDbCircle
 62
7
  6
CONTINUOUS
 10
-173.4564602804
 20
403.2459398541
 40
300.5261569621
100
AcDbArc
 50
328.0925201906
 51
328.263163359
  0
ARC
  5
3B5
100
AcDbEntity
  8
93780800R00_BL3
100
AcDbCircle
 62
7
  6
CONTINUOUS
 10
336.2912768938
 20
84.3874074032
 40
300.5261570714
100
AcDbArc
 50
148.0925201906
 51
148.2631633589
  0
ARC
  5
3B6
100
AcDbEntity
  8
93780800R00_BL3
100
AcDbCircle
 62
7
  6
CONTINUOUS
 10
240.8466744986
 20
498.6905422653
 40
300.5261570411
100
AcDbArc
 50
238.0925201906
 51
238.2631633589
  0
LINE
  5
3B7
100
AcDbEntity
  8
93780800R00_BL3
100
AcDbLine
 62
7
  6
CONTINUOUS
 10
81.6480523235
 20
244.3889514088
 11
81.6610040413
 21
244.4030916786
  0
SPLINE
  5
3B8
100
AcDbEntity
  8
93780800R00_BL3
100
AcDbSpline
 62
7
  6
CONTINUOUS
 70
0
 71
3
 72
9
 73
5
 74
0
 42
0.0000001
 43
0.0000001
 44
0.0000000001
 40
0.0
 40
0.0
 40
0.0
 40
0.0
 40
0.2494291971
 40
1.0
 40
1.0
 40
1.0
 40
1.0
 10
82.1329511668
 20
242.4697397263
 30
0.0
 10
82.0937638948
 20
242.5330035103
 30
0.0
 10
81.9366210896
 20
242.7866159575
 30
0.0
 10
81.7794644607
 20
243.0402206688
 30
0.0
 10
81.6610040413
 20
243.2302556363
 30
0.0
  0
LINE
  5
3B9
100
AcDbEntity
  8
93780800R00_BL3
100
AcDbLine
 62
7
  6
CONTINUOUS
 10
81.6610040413
 20
243.2302556363
 11
81.6480523235
 21
243.2443959062
  0
SPLINE
  5
3BA
100
AcDbEntity
  8
93780800R00_BL3
100
AcDbSpline
 62
7
  6
CONTINUOUS
 70
0
 71
3
 72
9
 73
5
 74
0
 42
0.0000001
 43
0.0000001
 44
0.0000000001
 40
0.0
 40
0.0
 40
0.0
 40
0.0
 40
0.2456562051
 40
1.0
 40
1.0
 40
1.0
 40
1.0
 10
81.6480523235
 20
243.2443959062
 30
0.0
 10
81.6292422747
 20
243.2526430318
 30
0.0
 10
81.5526157423
 20
243.2860860217
 30
0.0
 10
81.4757064823
 20
243.318890719
 30
0.0
 10
81.4174082603
 20
243.3429519207
 30
0.0
  0
SPLINE
  5
3BB
100
AcDbEntity
  8
93780800R00_BL3
100
AcDbSpline
 62
7
  6
CONTINUOUS
 70
0
 71
3
 72
9
 73
5
 74
0
 42
0.0000001
 43
0.0000001
 44
0.0000000001
 40
0.0
 40
0.0
 40
0.0
 40
0.0
 40
0.2546871958
 40
1.0
 40
1.0
 40
1.0
 40
1.0
 10
81.4174082603
 20
243.3429519207
 30
0.0
 10
81.3977251128
 20
243.3348281707
 30
0.0
 10
81.3205699478
 20
243.302619689
 30
0.0
 10
81.2438334537
 20
243.2694174963
 30
0.0
 10
81.1867641971
 20
243.2443959062
 30
0.0
  0
LINE
  5
3BC
100
AcDbEntity
  8
93780800R00_BL3
100
AcDbLine
 62
7
  6
CONTINUOUS
 10
81.1867641971
 20
243.2443959062
 11
81.1738124793
 21
243.2302556363
  0
SPLINE
  5
3BD
100
AcDbEntity
  8
93780800R00_BL3
100
AcDbSpline
 62
7
  6
CONTINUOUS
 70
0
 71
3
 72
10
 73
6
 74
0
 42
0.0000001
 43
0.0000001
 44
0.0000000001
 40
0.0
 40
0.0
 40
0.0
 40
0.0
 40
0.1744823037
 40
0.4139756216
 40
1.0
 40
1.0
 40
1.0
 40
1.0
 10
80.0704743291
 20
244.532216564
 30
0.0
 10
80.0478155025
 20
244.5462520444
 30
0.0
 10
79.9972816082
 20
244.5845671795
 30
0.0
 10
79.8812726822
 20
244.6839039182
 30
0.0
 10
79.791209701
 20
244.7724598112
 30
0.0
 10
79.7290237496
 20
244.8368552491
 30
0.0
  0
SPLINE
  5
3BE
100
AcDbEntity
  8
93780800R00_BL3
100
AcDbSpline
 62
7
  6
CONTINUOUS
 70
0
 71
3
 72
10
 73
6
 74
0
 42
0.0000001
 43
0.0000001
 44
0.0000000001
 40
0.0
 40
0.0
 40
0.0
 40
0.0
 40
0.5860290742
 40
0.8255203224
 40
1.0
 40
1.0
 40
1.0
 40
1.0
 10
80.3972266687
 20
245.5050581682
 30
0.0
 10
80.4616226241
 20
245.442871717
 30
0.0
 10
80.5501786325
 20
245.3528083069
 30
0.0
 10
80.6495156492
 20
245.2367995906
 30
0.0
 10
80.6878300842
 20
245.1862660748
 30
0.0
 10
80.7018653538
 20
245.1636075887
 30
0.0
  0
SPLINE
  5
3BF
100
AcDbEntity
  8
93780800R00_BL3
100
AcDbSpline
 62
7
  6
CONTINUOUS
 70
0
 71
3
 72
10
 73
6
 74
0
 42
0.0000001
 43
0.0000001
 44
0.0000000001
 40
0.0
 40
0.0
 40
0.0
 40
0.0
 40
0.1744823037
 40
0.4139756216
 40
1.0
 40
1.0
 40
1.0
 40
1.0
 10
82.1329511668
 20
245.1636075887
 30
0.0
 10
82.1469866473
 20
245.1862664153
 30
0.0
 10
82.1853017823
 20
245.2368003096
 30
0.0
 10
82.284638521
 20
245.3528092355
 30
0.0
 10
82.3731944141
 20
245.4428722168
 30
0.0
 10
82.4375898519
 20
245.5050581682
 30
0.0
  0
SPLINE
  5
3C0
100
AcDbEntity
  8
93780800R00_BL3
100
AcDbSpline
 62
7
  6
CONTINUOUS
 70
0
 71
3
 72
10
 73
6
 74
0
 42
0.0000001
 43
0.0000001
 44
0.0000000001
 40
0.0
 40
0.0
 40
0.0
 40
0.0
 40
0.5860290742
 40
0.8255203224
 40
1.0
 40
1.0
 40
1.0
 40
1.0
 10
83.105792771
 20
244.8368552491
 30
0.0
 10
83.0436063198
 20
244.7724592937
 30
0.0
 10
82.9535429097
 20
244.6839032853
 30
0.0
 10
82.8375341934
 20
244.5845662686
 30
0.0
 10
82.7870006777
 20
244.5462518335
 30
0.0
 10
82.7643421915
 20
244.532216564
 30
0.0
  0
SPLINE
  5
3C1
100
AcDbEntity
  8
93780800R00_BL3
100
AcDbSpline
 62
7
  6
CONTINUOUS
 70
0
 71
3
 72
10
 73
6
 74
0
 42
0.0000001
 43
0.0000001
 44
0.0000000001
 40
0.0
 40
0.0
 40
0.0
 40
0.0
 40
0.1744823037
 40
0.4139756216
 40
1.0
 40
1.0
 40
1.0
 40
1.0
 10
82.7643421915
 20
243.1011307509
 30
0.0
 10
82.7870010181
 20
243.0870952705
 30
0.0
 10
82.8375349124
 20
243.0487801354
 30
0.0
 10
82.9535438384
 20
242.9494433968
 30
0.0
 10
83.0436068196
 20
242.8608875037
 30
0.0
 10
83.105792771
 20
242.7964920659
 30
0.0
  0
SPLINE
  5
3C2
100
AcDbEntity
  8
93780800R00_BL3
100
AcDbSpline
 62
7
  6
CONTINUOUS
 70
0
 71
3
 72
10
 73
6
 74
0
 42
0.0000001
 43
0.0000001
 44
0.0000000001
 40
0.0
 40
0.0
 40
0.0
 40
0.0
 40
0.5860290742
 40
0.8255203224
 40
1.0
 40
1.0
 40
1.0
 40
1.0
 10
82.4375898519
 20
242.1282891467
 30
0.0
 10
82.3731938965
 20
242.190475598
 30
0.0
 10
82.2846378881
 20
242.2805390081
 30
0.0
 10
82.1853008714
 20
242.3965477243
 30
0.0
 10
82.1469864364
 20
242.4470812401
 30
0.0
 10
82.1329511668
 20
242.4697397263
 30
0.0
  0
SPLINE
  5
3C3
100
AcDbEntity
  8
93780800R00_BL3
100
AcDbSpline
 62
7
  6
CONTINUOUS
 70
0
 71
3
 72
10
 73
6
 74
0
 42
0.0000001
 43
0.0000001
 44
0.0000000001
 40
0.0
 40
0.0
 40
0.0
 40
0.0
 40
0.1744823037
 40
0.4139756216
 40
1.0
 40
1.0
 40
1.0
 40
1.0
 10
80.7018653538
 20
242.4697397263
 30
0.0
 10
80.6878298733
 20
242.4470808996
 30
0.0
 10
80.6495147383
 20
242.3965470053
 30
0.0
 10
80.5501779996
 20
242.2805380794
 30
0.0
 10
80.4616221065
 20
242.1904750982
 30
0.0
 10
80.3972266687
 20
242.1282891467
 30
0.0
  0
SPLINE
  5
3C4
100
AcDbEntity
  8
93780800R00_BL3
100
AcDbSpline
 62
7
  6
CONTINUOUS
 70
0
 71
3
 72
10
 73
6
 74
0
 42
0.0000001
 43
0.0000001
 44
0.0000000001
 40
0.0
 40
0.0
 40
0.0
 40
0.0
 40
0.5860290742
 40
0.8255203224
 40
1.0
 40
1.0
 40
1.0
 40
1.0
 10
79.7290237496
 20
242.7964920659
 30
0.0
 10
79.7912102008
 20
242.8608880213
 30
0.0
 10
79.8812736109
 20
242.9494440297
 30
0.0
 10
79.9972823272
 20
243.0487810463
 30
0.0
 10
80.0478158429
 20
243.0870954814
 30
0.0
 10
80.0704743291
 20
243.1011307509
 30
0.0
  0
SPLINE
  5
3C5
100
AcDbEntity
  8
93780800R00_BL3
100
AcDbSpline
 62
7
  6
CONTINUOUS
 70
0
 71
3
 72
9
 73
5
 74
0
 42
0.0000001
 43
0.0000001
 44
0.0000000001
 40
0.0
 40
0.0
 40
0.0
 40
0.0
 40
0.2494291971
 40
1.0
 40
1.0
 40
1.0
 40
1.0
 10
80.7018653538
 20
245.1636075887
 30
0.0
 10
80.7410526258
 20
245.1003438046
 30
0.0
 10
80.898195431
 20
244.8467313574
 30
0.0
 10
81.0553520599
 20
244.5931266462
 30
0.0
 10
81.1738124793
 20
244.4030916786
 30
0.0
  0
LINE
  5
3C6
100
AcDbEntity
  8
93780800R00_BL3
100
AcDbLine
 62
7
  6
CONTINUOUS
 10
81.1738124793
 20
244.4030916786
 11
81.1867641971
 21
244.3889514088
  0
SPLINE
  5
3C7
100
AcDbEntity
  8
93780800R00_BL3
100
AcDbSpline
 62
7
  6
CONTINUOUS
 70
0
 71
3
 72
9
 73
5
 74
0
 42
0.0000001
 43
0.0000001
 44
0.0000000001
 40
0.0
 40
0.0
 40
0.0
 40
0.0
 40
0.2456562051
 40
1.0
 40
1.0
 40
1.0
 40
1.0
 10
81.1867641971
 20
244.3889514088
 30
0.0
 10
81.2055742459
 20
244.3807042831
 30
0.0
 10
81.2822007783
 20
244.3472612933
 30
0.0
 10
81.3591100383
 20
244.3144565959
 30
0.0
 10
81.4174082603
 20
244.2903953943
 30
0.0
  0
SPLINE
  5
3C8
100
AcDbEntity
  8
93780800R00_BL3
100
AcDbSpline
 62
7
  6
CONTINUOUS
 70
0
 71
3
 72
9
 73
5
 74
0
 42
0.0000001
 43
0.0000001
 44
0.0000000001
 40
0.0
 40
0.0
 40
0.0
 40
0.0
 40
0.2546871958
 40
1.0
 40
1.0
 40
1.0
 40
1.0
 10
81.4174082603
 20
244.2903953943
 30
0.0
 10
81.4370914078
 20
244.2985191443
 30
0.0
 10
81.5142465728
 20
244.3307276259
 30
0.0
 10
81.5909830669
 20
244.3639298187
 30
0.0
 10
81.6480523235
 20
244.3889514088
 30
0.0
  0
SPLINE
  5
3C9
100
AcDbEntity
  8
93780800R00_BL3
100
AcDbSpline
 62
7
  6
CONTINUOUS
 70
0
 71
3
 72
9
 73
5
 74
0
 42
0.0000001
 43
0.0000001
 44
0.0000000001
 40
0.0
 40
0.0
 40
0.0
 40
0.0
 40
0.2494291971
 40
1.0
 40
1.0
 40
1.0
 40
1.0
 10
80.0704743291
 20
243.1011307509
 30
0.0
 10
80.1337381132
 20
243.1403180229
 30
0.0
 10
80.3873505604
 20
243.2974608282
 30
0.0
 10
80.6409552716
 20
243.4546174571
 30
0.0
 10
80.8309902392
 20
243.5730778765
 30
0.0
  0
LINE
  5
3CA
100
AcDbEntity
  8
93780800R00_BL3
100
AcDbLine
 62
7
  6
CONTINUOUS
 10
80.8309902392
 20
243.5730778765
 11
80.845130509
 21
243.5860295943
  0
SPLINE
  5
3CB
100
AcDbEntity
  8
93780800R00_BL3
100
AcDbSpline
 62
7
  6
CONTINUOUS
 70
0
 71
3
 72
9
 73
5
 74
0
 42
0.0000001
 43
0.0000001
 44
0.0000000001
 40
0.0
 40
0.0
 40
0.0
 40
0.0
 40
0.2456562058
 40
1.0
 40
1.0
 40
1.0
 40
1.0
 10
80.845130509
 20
243.5860295943
 30
0.0
 10
80.8533776347
 20
243.6048396432
 30
0.0
 10
80.8868206246
 20
243.6814661755
 30
0.0
 10
80.9196253219
 20
243.7583754355
 30
0.0
 10
80.9436865235
 20
243.8166736575
 30
0.0
  0
SPLINE
  5
3CC
100
AcDbEntity
  8
93780800R00_BL3
100
AcDbSpline
 62
7
  6
CONTINUOUS
 70
0
 71
3
 72
9
 73
5
 74
0
 42
0.0000001
 43
0.0000001
 44
0.0000000001
 40
0.0
 40
0.0
 40
0.0
 40
0.0
 40
0.2546871947
 40
1.0
 40
1.0
 40
1.0
 40
1.0
 10
80.9436865235
 20
243.8166736575
 30
0.0
 10
80.9355627735
 20
243.8363568049
 30
0.0
 10
80.9033542918
 20
243.9135119698
 30
0.0
 10
80.8701520991
 20
243.990248464
 30
0.0
 10
80.845130509
 20
244.0473177207
 30
0.0
  0
LINE
  5
3CD
100
AcDbEntity
  8
93780800R00_BL3
100
AcDbLine
 62
7
  6
CONTINUOUS
 10
80.845130509
 20
244.0473177207
 11
80.8309902392
 21
244.0602694384
  0
SPLINE
  5
3CE
100
AcDbEntity
  8
93780800R00_BL3
100
AcDbSpline
 62
7
  6
CONTINUOUS
 70
0
 71
3
 72
9
 73
5
 74
0
 42
0.0000001
 43
0.0000001
 44
0.0000000001
 40
0.0
 40
0.0
 40
0.0
 40
0.0
 40
0.2494291971
 40
1.0
 40
1.0
 40
1.0
 40
1.0
 10
82.7643421915
 20
244.532216564
 30
0.0
 10
82.7010784074
 20
244.493029292
 30
0.0
 10
82.4474659602
 20
244.3358864868
 30
0.0
 10
82.193861249
 20
244.1787298578
 30
0.0
 10
82.0038262814
 20
244.0602694384
 30
0.0
  0
LINE
  5
3CF
100
AcDbEntity
  8
93780800R00_BL3
100
AcDbLine
 62
7
  6
CONTINUOUS
 10
82.0038262814
 20
244.0602694384
 11
81.9896860116
 21
244.0473177207
  0
SPLINE
  5
3D0
100
AcDbEntity
  8
93780800R00_BL3
100
AcDbSpline
 62
7
  6
CONTINUOUS
 70
0
 71
3
 72
9
 73
5
 74
0
 42
0.0000001
 43
0.0000001
 44
0.0000000001
 40
0.0
 40
0.0
 40
0.0
 40
0.0
 40
0.2456562058
 40
1.0
 40
1.0
 40
1.0
 40
1.0
 10
81.9896860116
 20
244.0473177207
 30
0.0
 10
81.9814388859
 20
244.0285076718
 30
0.0
 10
81.947995896
 20
243.9518811394
 30
0.0
 10
81.9151911987
 20
243.8749718794
 30
0.0
 10
81.8911299971
 20
243.8166736575
 30
0.0
  0
SPLINE
  5
3D1
100
AcDbEntity
  8
93780800R00_BL3
100
AcDbSpline
 62
7
  6
CONTINUOUS
 70
0
 71
3
 72
9
 73
5
 74
0
 42
0.0000001
 43
0.0000001
 44
0.0000000001
 40
0.0
 40
0.0
 40
0.0
 40
0.0
 40
0.2546871947
 40
1.0
 40
1.0
 40
1.0
 40
1.0
 10
81.8911299971
 20
243.8166736575
 30
0.0
 10
81.8992537471
 20
243.79699051
 30
0.0
 10
81.9314622288
 20
243.7198353451
 30
0.0
 10
81.9646644215
 20
243.643098851
 30
0.0
 10
81.9896860116
 20
243.5860295943
 30
0.0
  0
LINE
  5
3D2
100
AcDbEntity
  8
93780800R00_BL3
100
AcDbLine
 62
7
  6
CONTINUOUS
 10
81.9896860116
 20
243.5860295943
 11
82.0038262814
 21
243.5730778765
  0
ENDBLK
  5
3D3
100
AcDbEntity
  8
0
  6
BYBLOCK
 62
0
100
AcDbBlockEnd
  0
BLOCK
  5
3D4
100
AcDbEntity
  8
93894102000_BL4
100
AcDbBlockBegin
  2
93894102000_BL4
 70
64
 10
49.6469367678
 20
185.6388967746
  3
93894102000_BL4
  1

  0
LINE
  5
3D5
100
AcDbEntity
  8
93894102000_BL4
100
AcDbLine
 62
7
  6
CONTINUOUS
 10
73.6174082603
 20
237.6166736575
 11
71.9174082603
 21
235.9166736575
  0
LINE
  5
3D6
100
AcDbEntity
  8
93894102000_BL4
100
AcDbLine
 62
7
  6
CONTINUOUS
 10
71.9174082603
 20
235.9166736575
 11
71.3174082603
 21
235.3166736575
  0
LINE
  5
3D7
100
AcDbEntity
  8
93894102000_BL4
100
AcDbLine
 62
7
  6
CONTINUOUS
 10
73.6174082603
 20
237.6166736575
 11
73.9245150415
 21
237.9237804387
  0
LINE
  5
3D8
100
AcDbEntity
  8
93894102000_BL4
100
AcDbLine
 62
7
  6
CONTINUOUS
 10
68.4174082603
 20
235.3166736575
 11
68.4174082603
 21
283.3166736575
  0
LINE
  5
3D9
100
AcDbEntity
  8
93894102000_BL4
100
AcDbLine
 62
9
  6
CONTINUOUS
 10
70.3780041623
 20
278.7891565668
 11
70.3780041623
 21
239.8441907951
  0
LINE
  5
3DA
100
AcDbEntity
  8
93894102000_BL4
100
AcDbLine
 62
9
  6
CONTINUOUS
 10
70.7710217318
 20
278.8166736575
 11
70.7710217318
 21
239.8166736575
  0
LINE
  5
3DB
100
AcDbEntity
  8
93894102000_BL4
100
AcDbLine
 62
9
  6
CONTINUOUS
 10
70.9174082603
 20
283.3166736575
 11
70.9174082603
 21
235.3166736575
  0
LINE
  5
3DC
100
AcDbEntity
  8
93894102000_BL4
100
AcDbLine
 62
7
  6
CONTINUOUS
 10
71.9174082603
 20
282.7166736575
 11
71.9174082603
 21
235.9166736575
  0
LINE
  5
3DD
100
AcDbEntity
  8
93894102000_BL4
100
AcDbLine
 62
9
  6
CONTINUOUS
 10
72.9174082603
 20
236.9166736575
 11
72.9174082603
 21
281.7166736575
  0
LINE
  5
3DE
100
AcDbEntity
  8
93894102000_BL4
100
AcDbLine
 62
7
  6
CONTINUOUS
 10
73.6174082603
 20
281.0166736575
 11
73.6174082603
 21
278.8782264703
  0
LINE
  5
3DF
100
AcDbEntity
  8
93894102000_BL4
100
AcDbLine
 62
7
  6
CONTINUOUS
 10
73.6174082603
 20
278.7569586578
 11
73.6174082603
 21
274.8763886572
  0
LINE
  5
3E0
100
AcDbEntity
  8
93894102000_BL4
100
AcDbLine
 62
7
  6
CONTINUOUS
 10
73.6174082603
 20
274.7551208447
 11
73.6174082603
 21
243.8782264703
  0
LINE
  5
3E1
100
AcDbEntity
  8
93894102000_BL4
100
AcDbLine
 62
7
  6
CONTINUOUS
 10
73.6174082603
 20
239.7551208447
 11
73.6174082603
 21
237.6166736575
  0
LINE
  5
3E2
100
AcDbEntity
  8
93894102000_BL4
100
AcDbLine
 62
7
  6
CONTINUOUS
 10
73.6174082603
 20
239.8763886572
 11
73.6174082603
 21
243.7569586578
  0
LINE
  5
3E3
100
AcDbEntity
  8
93894102000_BL4
100
AcDbLine
 62
7
  6
CONTINUOUS
 10
77.6174082603
 20
238.2166736575
 11
77.6174082603
 21
239.8166736575
  0
LINE
  5
3E4
100
AcDbEntity
  8
93894102000_BL4
100
AcDbLine
 62
7
  6
CONTINUOUS
 10
77.6174082603
 20
239.8166736575
 11
77.6174082603
 21
242.9042592779
  0
LINE
  5
3E5
100
AcDbEntity
  8
93894102000_BL4
100
AcDbLine
 62
7
  6
CONTINUOUS
 10
77.6174082603
 20
244.729088037
 11
77.6174082603
 21
273.9042592779
  0
LINE
  5
3E6
100
AcDbEntity
  8
93894102000_BL4
100
AcDbLine
 62
7
  6
CONTINUOUS
 10
77.6174082603
 20
275.729088037
 11
77.6174082603
 21
278.8166736575
  0
LINE
  5
3E7
100
AcDbEntity
  8
93894102000_BL4
100
AcDbLine
 62
7
  6
CONTINUOUS
 10
77.6174082603
 20
278.8166736575
 11
77.6174082603
 21
280.4166736575
  0
LINE
  5
3E8
100
AcDbEntity
  8
93894102000_BL4
100
AcDbLine
 62
9
  6
CONTINUOUS
 10
80.3174082603
 20
246.6666736575
 11
80.3174082603
 21
246.4185974461
  0
LINE
  5
3E9
100
AcDbEntity
  8
93894102000_BL4
100
AcDbLine
 62
9
  6
CONTINUOUS
 10
80.3174082603
 20
240.9666736575
 11
80.3174082603
 21
241.2147498688
  0
LINE
  5
3EA
100
AcDbEntity
  8
93894102000_BL4
100
AcDbLine
 62
9
  6
CONTINUOUS
 10
80.3174082603
 20
271.9666736575
 11
80.3174082603
 21
272.2147498688
  0
LINE
  5
3EB
100
AcDbEntity
  8
93894102000_BL4
100
AcDbLine
 62
9
  6
CONTINUOUS
 10
80.3174082603
 20
277.4185974461
 11
80.3174082603
 21
277.6666736575
  0
LINE
  5
3EC
100
AcDbEntity
  8
93894102000_BL4
100
AcDbLine
 62
7
  6
CONTINUOUS
 10
83.1684906318
 20
262.2532257755
 11
83.1684906318
 21
261.4974579355
  0
LINE
  5
3ED
100
AcDbEntity
  8
93894102000_BL4
100
AcDbLine
 62
4
  6
CONTINUOUS
 10
83.1684906318
 20
262.2532257755
 11
83.1684906318
 21
261.4974579355
  0
LINE
  5
3EE
100
AcDbEntity
  8
93894102000_BL4
100
AcDbLine
 62
7
  6
CONTINUOUS
 10
83.1684906318
 20
260.8463348733
 11
83.1684906318
 21
260.0905670335
  0
LINE
  5
3EF
100
AcDbEntity
  8
93894102000_BL4
100
AcDbLine
 62
4
  6
CONTINUOUS
 10
83.1684906318
 20
260.8463348733
 11
83.1684906318
 21
260.0905670335
  0
LINE
  5
3F0
100
AcDbEntity
  8
93894102000_BL4
100
AcDbLine
 62
9
  6
CONTINUOUS
 10
83.3174082603
 20
277.6666736575
 11
83.3174082603
 21
276.9154016138
  0
LINE
  5
3F1
100
AcDbEntity
  8
93894102000_BL4
100
AcDbLine
 62
9
  6
CONTINUOUS
 10
83.3174082603
 20
246.6666736575
 11
83.3174082603
 21
245.9154016138
  0
LINE
  5
3F2
100
AcDbEntity
  8
93894102000_BL4
100
AcDbLine
 62
9
  6
CONTINUOUS
 10
83.3174082603
 20
241.7179457011
 11
83.3174082603
 21
240.9666736575
  0
LINE
  5
3F3
100
AcDbEntity
  8
93894102000_BL4
100
AcDbLine
 62
9
  6
CONTINUOUS
 10
83.3174082603
 20
271.9666736575
 11
83.3174082603
 21
272.7179457011
  0
LINE
  5
3F4
100
AcDbEntity
  8
93894102000_BL4
100
AcDbLine
 62
7
  6
CONTINUOUS
 10
84.3166763887
 20
260.0905670335
 11
84.3166763884
 21
259.5793769276
  0
LINE
  5
3F5
100
AcDbEntity
  8
93894102000_BL4
100
AcDbLine
 62
4
  6
CONTINUOUS
 10
84.3166763887
 20
260.0905670335
 11
84.3166763884
 21
259.5793769276
  0
LINE
  5
3F6
100
AcDbEntity
  8
93894102000_BL4
100
AcDbLine
 62
7
  6
CONTINUOUS
 10
84.3166763884
 20
259.4436714629
 11
84.3166763884
 21
257.9686034828
  0
LINE
  5
3F7
100
AcDbEntity
  8
93894102000_BL4
100
AcDbLine
 62
4
  6
CONTINUOUS
 10
84.3166763884
 20
259.4436714629
 11
84.3166763884
 21
257.9686034828
  0
LINE
  5
3F8
100
AcDbEntity
  8
93894102000_BL4
100
AcDbLine
 62
7
  6
CONTINUOUS
 10
84.9271042592
 20
257.9686034828
 11
84.9271042592
 21
258.6562781878
  0
LINE
  5
3F9
100
AcDbEntity
  8
93894102000_BL4
100
AcDbLine
 62
4
  6
CONTINUOUS
 10
84.9271042592
 20
257.9686034828
 11
84.9271042592
 21
258.6562781878
  0
LINE
  5
3FA
100
AcDbEntity
  8
93894102000_BL4
100
AcDbLine
 62
7
  6
CONTINUOUS
 10
84.9271042592
 20
259.5793769276
 11
84.9271042592
 21
260.0905670335
  0
LINE
  5
3FB
100
AcDbEntity
  8
93894102000_BL4
100
AcDbLine
 62
4
  6
CONTINUOUS
 10
84.9271042592
 20
259.5793769276
 11
84.9271042592
 21
260.0905670335
  0
LINE
  5
3FC
100
AcDbEntity
  8
93894102000_BL4
100
AcDbLine
 62
7
  6
CONTINUOUS
 10
86.4174082603
 20
239.2166736575
 11
86.4174082603
 21
279.4166736575
  0
LINE
  5
3FD
100
AcDbEntity
  8
93894102000_BL4
100
AcDbLine
 62
7
  6
CONTINUOUS
 10
68.4174082603
 20
235.3166736575
 11
71.3174082603
 21
235.3166736575
  0
LINE
  5
3FE
100
AcDbEntity
  8
93894102000_BL4
100
AcDbLine
 62
7
  6
CONTINUOUS
 10
85.4174082603
 20
238.2166736575
 11
74.6316218227
 21
238.2166736575
  0
LINE
  5
3FF
100
AcDbEntity
  8
93894102000_BL4
100
AcDbLine
 62
9
  6
CONTINUOUS
 10
73.6174082603
 20
239.7551208447
 11
72.9174082603
 21
239.7551208447
  0
LINE
  5
400
100
AcDbEntity
  8
93894102000_BL4
100
AcDbLine
 62
7
  6
CONTINUOUS
 10
70.7710217318
 20
239.8166736575
 11
70.9174082603
 21
239.8166736575
  0
LINE
  5
401
100
AcDbEntity
  8
93894102000_BL4
100
AcDbLine
 62
9
  6
CONTINUOUS
 10
73.6174082603
 20
239.8763886572
 11
72.9174082603
 21
239.8763886572
  0
LINE
  5
402
100
AcDbEntity
  8
93894102000_BL4
100
AcDbLine
 62
7
  6
CONTINUOUS
 10
83.3174082603
 20
240.9666736575
 11
80.3174082603
 21
240.9666736575
  0
LINE
  5
403
100
AcDbEntity
  8
93894102000_BL4
100
AcDbLine
 62
9
  6
CONTINUOUS
 10
73.6174082603
 20
243.7569586578
 11
72.9174082603
 21
243.7569586578
  0
LINE
  5
404
100
AcDbEntity
  8
93894102000_BL4
100
AcDbLine
 62
9
  6
CONTINUOUS
 10
73.6174082603
 20
243.8782264703
 11
72.9174082603
 21
243.8782264703
  0
LINE
  5
405
100
AcDbEntity
  8
93894102000_BL4
100
AcDbLine
 62
7
  6
CONTINUOUS
 10
80.3174082603
 20
246.6666736575
 11
83.3174082603
 21
246.6666736575
  0
LINE
  5
406
100
AcDbEntity
  8
93894102000_BL4
100
AcDbLine
 62
7
  6
CONTINUOUS
 10
84.1725232249
 20
258.5758882631
 11
83.7229190782
 21
259.1834933958
  0
LINE
  5
407
100
AcDbEntity
  8
93894102000_BL4
100
AcDbLine
 62
4
  6
CONTINUOUS
 10
84.1725232249
 20
258.5758882631
 11
83.7229190782
 21
259.1834933958
  0
LINE
  5
408
100
AcDbEntity
  8
93894102000_BL4
100
AcDbLine
 62
7
  6
CONTINUOUS
 10
83.1684906318
 20
260.0905670335
 11
84.3166763887
 21
260.0905670335
  0
LINE
  5
409
100
AcDbEntity
  8
93894102000_BL4
100
AcDbLine
 62
4
  6
CONTINUOUS
 10
83.1684906318
 20
260.0905670335
 11
84.3166763887
 21
260.0905670335
  0
LINE
  5
40A
100
AcDbEntity
  8
93894102000_BL4
100
AcDbLine
 62
7
  6
CONTINUOUS
 10
84.9271042592
 20
260.0905670335
 11
85.0869782254
 21
260.0905670335
  0
LINE
  5
40B
100
AcDbEntity
  8
93894102000_BL4
100
AcDbLine
 62
4
  6
CONTINUOUS
 10
84.9271042592
 20
260.0905670335
 11
85.0869782254
 21
260.0905670335
  0
LINE
  5
40C
100
AcDbEntity
  8
93894102000_BL4
100
AcDbLine
 62
7
  6
CONTINUOUS
 10
85.0869782254
 20
260.8463348733
 11
83.1684906318
 21
260.8463348733
  0
LINE
  5
40D
100
AcDbEntity
  8
93894102000_BL4
100
AcDbLine
 62
4
  6
CONTINUOUS
 10
85.0869782254
 20
260.8463348733
 11
83.1684906318
 21
260.8463348733
  0
LINE
  5
40E
100
AcDbEntity
  8
93894102000_BL4
100
AcDbLine
 62
7
  6
CONTINUOUS
 10
83.1684906318
 20
261.4974579355
 11
85.0869782254
 21
261.4974579355
  0
LINE
  5
40F
100
AcDbEntity
  8
93894102000_BL4
100
AcDbLine
 62
4
  6
CONTINUOUS
 10
83.1684906318
 20
261.4974579355
 11
85.0869782254
 21
261.4974579355
  0
LINE
  5
410
100
AcDbEntity
  8
93894102000_BL4
100
AcDbLine
 62
7
  6
CONTINUOUS
 10
85.0869782254
 20
262.2532257755
 11
83.1684906318
 21
262.2532257755
  0
LINE
  5
411
100
AcDbEntity
  8
93894102000_BL4
100
AcDbLine
 62
4
  6
CONTINUOUS
 10
85.0869782254
 20
262.2532257755
 11
83.1684906318
 21
262.2532257755
  0
LINE
  5
412
100
AcDbEntity
  8
93894102000_BL4
100
AcDbLine
 62
7
  6
CONTINUOUS
 10
71.3174082603
 20
283.3166736575
 11
71.9174082603
 21
282.7166736575
  0
LINE
  5
413
100
AcDbEntity
  8
93894102000_BL4
100
AcDbLine
 62
7
  6
CONTINUOUS
 10
73.6174082603
 20
281.0166736575
 11
73.9245150415
 21
280.7095668763
  0
LINE
  5
414
100
AcDbEntity
  8
93894102000_BL4
100
AcDbLine
 62
7
  6
CONTINUOUS
 10
73.6174082603
 20
281.0166736575
 11
71.9174082603
 21
282.7166736575
  0
LINE
  5
415
100
AcDbEntity
  8
93894102000_BL4
100
AcDbLine
 62
7
  6
CONTINUOUS
 10
80.3174082603
 20
271.9666736575
 11
83.3174082603
 21
271.9666736575
  0
LINE
  5
416
100
AcDbEntity
  8
93894102000_BL4
100
AcDbLine
 62
9
  6
CONTINUOUS
 10
72.9174082603
 20
274.7551208447
 11
73.6174082603
 21
274.7551208447
  0
LINE
  5
417
100
AcDbEntity
  8
93894102000_BL4
100
AcDbLine
 62
9
  6
CONTINUOUS
 10
72.9174082603
 20
274.8763886572
 11
73.6174082603
 21
274.8763886572
  0
LINE
  5
418
100
AcDbEntity
  8
93894102000_BL4
100
AcDbLine
 62
7
  6
CONTINUOUS
 10
83.3174082603
 20
277.6666736575
 11
80.3174082603
 21
277.6666736575
  0
LINE
  5
419
100
AcDbEntity
  8
93894102000_BL4
100
AcDbLine
 62
9
  6
CONTINUOUS
 10
72.9174082603
 20
278.7569586578
 11
73.6174082603
 21
278.7569586578
  0
LINE
  5
41A
100
AcDbEntity
  8
93894102000_BL4
100
AcDbLine
 62
7
  6
CONTINUOUS
 10
70.7710217318
 20
278.8166736575
 11
70.9174082603
 21
278.8166736575
  0
LINE
  5
41B
100
AcDbEntity
  8
93894102000_BL4
100
AcDbLine
 62
9
  6
CONTINUOUS
 10
72.9174082603
 20
278.8782264703
 11
73.6174082603
 21
278.8782264703
  0
LINE
  5
41C
100
AcDbEntity
  8
93894102000_BL4
100
AcDbLine
 62
7
  6
CONTINUOUS
 10
85.4174082603
 20
280.4166736575
 11
74.6316218227
 21
280.4166736575
  0
LINE
  5
41D
100
AcDbEntity
  8
93894102000_BL4
100
AcDbLine
 62
7
  6
CONTINUOUS
 10
68.4174082603
 20
283.3166736575
 11
71.3174082603
 21
283.3166736575
  0
LINE
  5
41E
100
AcDbEntity
  8
93894102000_BL4
100
AcDbLine
 62
7
  6
CONTINUOUS
 10
13.3732699004
 20
283.3166736575
 11
12.8764652753
 21
278.8166736575
  0
LINE
  5
41F
100
AcDbEntity
  8
93894102000_BL4
100
AcDbLine
 62
7
  6
CONTINUOUS
 10
12.8764652753
 20
278.8166736575
 11
12.8764652753
 21
239.8166736575
  0
LINE
  5
420
100
AcDbEntity
  8
93894102000_BL4
100
AcDbLine
 62
7
  6
CONTINUOUS
 10
12.8764652753
 20
239.8166736575
 11
13.3732699004
 21
235.3166736575
  0
LINE
  5
421
100
AcDbEntity
  8
93894102000_BL4
100
AcDbLine
 62
7
  6
CONTINUOUS
 10
13.3732699004
 20
235.3166736575
 11
13.8764652753
 21
235.3166736575
  0
LINE
  5
422
100
AcDbEntity
  8
93894102000_BL4
100
AcDbLine
 62
7
  6
CONTINUOUS
 10
13.3732699004
 20
283.3166736575
 11
13.8764652753
 21
283.3166736575
  0
LINE
  5
423
100
AcDbEntity
  8
93894102000_BL4
100
AcDbLine
 62
7
  6
CONTINUOUS
 10
12.8764652753
 20
89.1075064202
 11
12.8764652753
 21
88.9611198917
  0
LINE
  5
424
100
AcDbEntity
  8
93894102000_BL4
100
AcDbLine
 62
7
  6
CONTINUOUS
 10
13.3732699004
 20
89.4739804257
 11
13.3732699004
 21
88.9611198917
  0
LINE
  5
425
100
AcDbEntity
  8
93894102000_BL4
100
AcDbLine
 62
7
  6
CONTINUOUS
 10
13.4572619934
 20
88.5611198917
 11
13.8764652753
 21
88.5611198917
  0
LINE
  5
426
100
AcDbEntity
  8
93894102000_BL4
100
AcDbLine
 62
9
  6
CONTINUOUS
 10
13.3732699004
 20
88.9611198917
 11
12.8764652753
 21
88.9611198917
  0
LINE
  5
427
100
AcDbEntity
  8
93894102000_BL4
100
AcDbLine
 62
7
  6
CONTINUOUS
 10
19.8764652753
 20
89.4611198917
 11
19.8764652753
 21
91.4611198917
  0
LINE
  5
428
100
AcDbEntity
  8
93894102000_BL4
100
AcDbLine
 62
7
  6
CONTINUOUS
 10
19.8764652753
 20
91.4611198917
 11
16.8764652753
 21
91.4611198917
  0
ARC
  5
429
100
AcDbEntity
  8
93894102000_BL4
100
AcDbCircle
 62
7
  6
CONTINUOUS
 10
75.1262034477
 20
239.8159916564
 40
1.5097783636
100
AcDbArc
 50
178.1363304323
 51
181.8509167553
  0
ARC
  5
42A
100
AcDbEntity
  8
93894102000_BL4
100
AcDbCircle
 62
7
  6
CONTINUOUS
 10
72.387229675
 20
243.8172305826
 40
1.2312534299
100
AcDbArc
 50
357.9587771715
 51
2.0179194735
  0
ARC
  5
42B
100
AcDbEntity
  8
93894102000_BL4
100
AcDbCircle
 62
7
  6
CONTINUOUS
 10
74.6316218227
 20
237.2166736575
 40
1.0
100
AcDbArc
 50
90.0
 51
135.0
  0
ARC
  5
42C
100
AcDbEntity
  8
93894102000_BL4
100
AcDbCircle
 62
7
  6
CONTINUOUS
 10
74.1174928663
 20
243.8782276945
 40
0.500084606
100
AcDbArc
 50
180.0001402559
 51
182.0219030698
  0
ARC
  5
42D
100
AcDbEntity
  8
93894102000_BL4
100
AcDbCircle
 62
7
  6
CONTINUOUS
 10
74.0787893024
 20
243.7569190001
 40
0.4613810438
100
AcDbArc
 50
177.955988492
 51
179.9950751817
  0
ARC
  5
42E
100
AcDbEntity
  8
93894102000_BL4
100
AcDbCircle
 62
7
  6
CONTINUOUS
 10
80.3174082603
 20
243.8166736575
 40
2.85
100
AcDbArc
 50
90.0
 51
270.0
  0
ARC
  5
42F
100
AcDbEntity
  8
93894102000_BL4
100
AcDbCircle
 62
7
  6
CONTINUOUS
 10
80.3174082603
 20
243.8166736575
 40
1.85
100
AcDbArc
 50
145.4204814865
 51
214.5795185135
  0
ARC
  5
430
100
AcDbEntity
  8
93894102000_BL4
100
AcDbCircle
 62
7
  6
CONTINUOUS
 10
83.3174082603
 20
243.8166736575
 40
2.85
100
AcDbArc
 50
270.0
 51
90.0
  0
ARC
  5
431
100
AcDbEntity
  8
93894102000_BL4
100
AcDbCircle
 62
7
  6
CONTINUOUS
 10
83.3174082603
 20
243.8166736575
 40
1.85
100
AcDbArc
 50
278.0211106043
 51
81.9788893957
  0
ARC
  5
432
100
AcDbEntity
  8
93894102000_BL4
100
AcDbCircle
 62
7
  6
CONTINUOUS
 10
85.4174082603
 20
239.2166736575
 40
1.0
100
AcDbArc
 50
270.0
 51
360.0
  0
ARC
  5
433
100
AcDbEntity
  8
93894102000_BL4
100
AcDbCircle
 62
7
  6
CONTINUOUS
 10
84.6218903238
 20
257.9686034828
 40
1.6394348529
100
AcDbArc
 50
79.2706340045
 51
100.7293659955
  0
ARC
  5
434
100
AcDbEntity
  8
93894102000_BL4
100
AcDbCircle
 62
4
  6
CONTINUOUS
 10
84.6218903238
 20
257.9686034828
 40
1.6394348529
100
AcDbArc
 50
79.2706340045
 51
100.7293659955
  0
ARC
  5
435
100
AcDbEntity
  8
93894102000_BL4
100
AcDbCircle
 62
7
  6
CONTINUOUS
 10
84.6218903238
 20
257.939535489
 40
1.534790075
100
AcDbArc
 50
125.8545159679
 51
101.4705154512
  0
ARC
  5
436
100
AcDbEntity
  8
93894102000_BL4
100
AcDbCircle
 62
4
  6
CONTINUOUS
 10
84.6218903238
 20
257.939535489
 40
1.534790075
100
AcDbArc
 50
125.8545159679
 51
101.4705154512
  0
ARC
  5
437
100
AcDbEntity
  8
93894102000_BL4
100
AcDbCircle
 62
7
  6
CONTINUOUS
 10
84.6218903238
 20
257.9395354889
 40
0.7790222351
100
AcDbArc
 50
125.2282226131
 51
66.9340105685
  0
ARC
  5
438
100
AcDbEntity
  8
93894102000_BL4
100
AcDbCircle
 62
4
  6
CONTINUOUS
 10
84.6218903238
 20
257.9395354889
 40
0.7790222351
100
AcDbArc
 50
125.2282226131
 51
66.9340105685
  0
ARC
  5
439
100
AcDbEntity
  8
93894102000_BL4
100
AcDbCircle
 62
7
  6
CONTINUOUS
 10
84.6218903238
 20
257.9686034828
 40
0.3052139354
100
AcDbArc
 50
180.0
 51
360.0
  0
ARC
  5
43A
100
AcDbEntity
  8
93894102000_BL4
100
AcDbCircle
 62
4
  6
CONTINUOUS
 10
84.6218903238
 20
257.9686034828
 40
0.3052139354
100
AcDbArc
 50
180.0
 51
360.0
  0
ARC
  5
43B
100
AcDbEntity
  8
93894102000_BL4
100
AcDbCircle
 62
7
  6
CONTINUOUS
 10
75.1262034514
 20
278.8173556585
 40
1.5097783673
100
AcDbArc
 50
178.1490832491
 51
181.863669563
  0
ARC
  5
43C
100
AcDbEntity
  8
93894102000_BL4
100
AcDbCircle
 62
7
  6
CONTINUOUS
 10
72.3872295894
 20
274.8161167323
 40
1.2312535154
100
AcDbArc
 50
357.982080667
 51
2.0412226871
  0
ARC
  5
43D
100
AcDbEntity
  8
93894102000_BL4
100
AcDbCircle
 62
7
  6
CONTINUOUS
 10
74.6316218227
 20
281.4166736575
 40
1.0
100
AcDbArc
 50
225.0
 51
270.0
  0
ARC
  5
43E
100
AcDbEntity
  8
93894102000_BL4
100
AcDbCircle
 62
7
  6
CONTINUOUS
 10
74.117492884
 20
274.7551196203
 40
0.5000846238
100
AcDbArc
 50
177.9780969061
 51
179.9998597202
  0
ARC
  5
43F
100
AcDbEntity
  8
93894102000_BL4
100
AcDbCircle
 62
7
  6
CONTINUOUS
 10
74.0787893023
 20
274.8764283149
 40
0.4613810438
100
AcDbArc
 50
180.0049248212
 51
182.0440115106
  0
ARC
  5
440
100
AcDbEntity
  8
93894102000_BL4
100
AcDbCircle
 62
7
  6
CONTINUOUS
 10
80.3174082603
 20
274.8166736575
 40
2.85
100
AcDbArc
 50
90.0
 51
270.0
  0
ARC
  5
441
100
AcDbEntity
  8
93894102000_BL4
100
AcDbCircle
 62
7
  6
CONTINUOUS
 10
80.3174082603
 20
274.8166736575
 40
1.85
100
AcDbArc
 50
145.4204814865
 51
214.5795185135
  0
ARC
  5
442
100
AcDbEntity
  8
93894102000_BL4
100
AcDbCircle
 62
7
  6
CONTINUOUS
 10
83.3174082603
 20
274.8166736575
 40
2.85
100
AcDbArc
 50
270.0
 51
90.0
  0
ARC
  5
443
100
AcDbEntity
  8
93894102000_BL4
100
AcDbCircle
 62
7
  6
CONTINUOUS
 10
83.3174082603
 20
274.8166736575
 40
1.85
100
AcDbArc
 50
278.0211106043
 51
81.9788893957
  0
ARC
  5
444
100
AcDbEntity
  8
93894102000_BL4
100
AcDbCircle
 62
7
  6
CONTINUOUS
 10
85.0869782254
 20
261.1718964045
 40
1.081329371
100
AcDbArc
 50
270.0
 51
90.0
  0
ARC
  5
445
100
AcDbEntity
  8
93894102000_BL4
100
AcDbCircle
 62
4
  6
CONTINUOUS
 10
85.0869782254
 20
261.1718964045
 40
1.081329371
100
AcDbArc
 50
270.0
 51
90.0
  0
ARC
  5
446
100
AcDbEntity
  8
93894102000_BL4
100
AcDbCircle
 62
7
  6
CONTINUOUS
 10
85.0869782254
 20
261.1718964044
 40
0.3255615311
100
AcDbArc
 50
270.0
 51
90.0
  0
ARC
  5
447
100
AcDbEntity
  8
93894102000_BL4
100
AcDbCircle
 62
4
  6
CONTINUOUS
 10
85.0869782254
 20
261.1718964044
 40
0.3255615311
100
AcDbArc
 50
270.0
 51
90.0
  0
ARC
  5
448
100
AcDbEntity
  8
93894102000_BL4
100
AcDbCircle
 62
7
  6
CONTINUOUS
 10
85.4174082603
 20
279.4166736575
 40
1.0
100
AcDbArc
 50
0.0
 51
90.0
  0
ARC
  5
449
100
AcDbEntity
  8
93894102000_BL4
100
AcDbCircle
 62
9
  6
CONTINUOUS
 10
540.4339976888
 20
199.0543000321
 40
471.426232758
100
AcDbArc
 50
175.0396650838
 51
175.5884183883
  0
ARC
  5
44A
100
AcDbEntity
  8
93894102000_BL4
100
AcDbCircle
 62
9
  6
CONTINUOUS
 10
520.3921119414
 20
199.0414979735
 40
451.860119218
100
AcDbArc
 50
174.819168691
 51
175.3953593573
  0
ARC
  5
44B
100
AcDbEntity
  8
93894102000_BL4
100
AcDbCircle
 62
9
  6
CONTINUOUS
 10
540.4316627576
 20
319.5803280848
 40
471.4240159921
100
AcDbArc
 50
184.4117585256
 51
184.9605145504
  0
ARC
  5
44C
100
AcDbEntity
  8
93894102000_BL4
100
AcDbCircle
 62
9
  6
CONTINUOUS
 10
520.3875822702
 20
319.592107978
 40
451.8556311638
100
AcDbArc
 50
184.6047193785
 51
185.1809158251
  0
ARC
  5
44D
100
AcDbEntity
  8
93894102000_BL4
100
AcDbCircle
 62
7
  6
CONTINUOUS
 10
20.1764652753
 20
80.4611198917
 40
11.5
100
AcDbArc
 50
123.2295051982
 51
128.1833931801
  0
ARC
  5
44E
100
AcDbEntity
  8
93894102000_BL4
100
AcDbCircle
 62
9
  6
CONTINUOUS
 10
19.7754939785
 20
80.3334052514
 40
11.1597729891
100
AcDbArc
 50
125.7748516451
 51
128.1851803406
  0
ARC
  5
44F
100
AcDbEntity
  8
93894102000_BL4
100
AcDbCircle
 62
7
  6
CONTINUOUS
 10
13.8764652753
 20
88.9611198917
 40
1.0
100
AcDbArc
 50
180.0
 51
270.0
  0
ARC
  5
450
100
AcDbEntity
  8
93894102000_BL4
100
AcDbCircle
 62
7
  6
CONTINUOUS
 10
13.3764652753
 20
89.1075064202
 40
0.5
100
AcDbArc
 50
128.1834824332
 51
180.0
  0
SPLINE
  5
451
100
AcDbEntity
  8
93894102000_BL4
100
AcDbSpline
 62
9
  6
CONTINUOUS
 70
0
 71
3
 72
17
 73
13
 74
0
 42
0.0000001
 43
0.0000001
 44
0.0000000001
 40
0.0
 40
0.0
 40
0.0
 40
0.0
 40
0.1941213453
 40
0.3808659009
 40
0.5527156347
 40
0.7033380759
 40
0.826995905
 40
0.9191502315
 40
0.9523783272
 40
0.9767136302
 40
0.992203471
 40
1.0
 40
1.0
 40
1.0
 40
1.0
 10
72.9174082603
 20
243.8782264703
 30
0.0
 10
72.8522589629
 20
243.8782264895
 30
0.0
 10
72.7244354792
 20
243.8775086673
 30
0.0
 10
72.5389585057
 20
243.8742950184
 30
0.0
 10
72.3681431486
 20
243.8690302552
 30
0.0
 10
72.2185516061
 20
243.8618859714
 30
0.0
 10
72.0959384117
 20
243.8531820342
 30
0.0
 10
72.0126525325
 20
243.844165573
 30
0.0
 10
71.963252551
 20
243.8360594091
 30
0.0
 10
71.9390756217
 20
243.8299934337
 30
0.0
 10
71.9245836954
 20
243.8252777102
 30
0.0
 10
71.9174140789
 20
243.8192902534
 30
0.0
 10
71.9174082603
 20
243.8166736575
 30
0.0
  0
SPLINE
  5
452
100
AcDbEntity
  8
93894102000_BL4
100
AcDbSpline
 62
9
  6
CONTINUOUS
 70
0
 71
3
 72
8
 73
4
 74
0
 42
0.0000001
 43
0.0000001
 44
0.0000000001
 40
0.0
 40
0.0
 40
0.0
 40
0.0
 40
1.0
 40
1.0
 40
1.0
 40
1.0
 10
77.4674087422
 20
243.8183310969
 30
0.0
 10
76.1841800805
 20
243.8325107332
 30
0.0
 10
74.9009514289
 20
243.8466932685
 30
0.0
 10
73.6177196067
 20
243.8605839384
 30
0.0
  0
SPLINE
  5
453
100
AcDbEntity
  8
93894102000_BL4
100
AcDbSpline
 62
9
  6
CONTINUOUS
 70
0
 71
3
 72
9
 73
5
 74
0
 42
0.0000001
 43
0.0000001
 44
0.0000000001
 40
0.0
 40
0.0
 40
0.0
 40
0.0
 40
0.4996837411
 40
1.0
 40
1.0
 40
1.0
 40
1.0
 10
77.4674106846
 20
243.816673618
 30
0.0
 10
76.8261968506
 20
243.8095876481
 30
0.0
 10
75.5429907224
 20
243.7925047362
 30
0.0
 10
74.2597322879
 20
243.7800298984
 30
0.0
 10
73.6177020225
 20
243.7733795979
 30
0.0
  0
SPLINE
  5
454
100
AcDbEntity
  8
93894102000_BL4
100
AcDbSpline
 62
7
  6
CONTINUOUS
 70
0
 71
3
 72
17
 73
13
 74
0
 42
0.0000001
 43
0.0000001
 44
0.0000000001
 40
0.0
 40
0.0
 40
0.0
 40
0.0
 40
0.0071901371
 40
0.0224674913
 40
0.0466940972
 40
0.0798960505
 40
0.172287844
 40
0.2961118404
 40
0.4469062976
 40
0.6190626822
 40
0.8061987573
 40
1.0
 40
1.0
 40
1.0
 40
1.0
 10
71.9174082603
 20
278.7616403276
 30
0.0
 10
71.9174082603
 20
278.7640498263
 30
0.0
 10
71.909687918
 20
278.7691875275
 30
0.0
 10
71.8956955222
 20
278.7731860042
 30
0.0
 10
71.8713143378
 20
278.7785130023
 30
0.0
 10
71.8219260584
 20
278.7856373489
 30
0.0
 10
71.7384604477
 20
278.7936279451
 30
0.0
 10
71.6158221658
 20
278.8014951142
 30
0.0
 10
71.4661989985
 20
278.8080511181
 30
0.0
 10
71.2953416074
 20
278.8129691741
 30
0.0
 10
71.1100099014
 20
278.815981157
 30
0.0
 10
70.9823533169
 20
278.8166736575
 30
0.0
 10
70.9174082603
 20
278.8166736575
 30
0.0
  0
SPLINE
  5
455
100
AcDbEntity
  8
93894102000_BL4
100
AcDbSpline
 62
7
  6
CONTINUOUS
 70
0
 71
3
 72
10
 73
6
 74
0
 42
0.0000001
 43
0.0000001
 44
0.0000000001
 40
0.0
 40
0.0
 40
0.0
 40
0.0
 40
0.284834527
 40
0.5555773827
 40
1.0
 40
1.0
 40
1.0
 40
1.0
 10
70.7710217318
 20
239.8166736575
 30
0.0
 10
70.7336100201
 20
239.8166736575
 30
0.0
 10
70.6607147724
 20
239.8215199616
 30
0.0
 10
70.5297435871
 20
239.8307843448
 30
0.0
 10
70.436007744
 20
239.837635088
 30
0.0
 10
70.3780041623
 20
239.8441907951
 30
0.0
  0
SPLINE
  5
456
100
AcDbEntity
  8
93894102000_BL4
100
AcDbSpline
 62
7
  6
CONTINUOUS
 70
0
 71
3
 72
17
 73
13
 74
0
 42
0.0000001
 43
0.0000001
 44
0.0000000001
 40
0.0
 40
0.0
 40
0.0
 40
0.0
 40
0.0071901371
 40
0.0224674913
 40
0.0466940972
 40
0.0798960505
 40
0.172287844
 40
0.2961118404
 40
0.4469062976
 40
0.6190626822
 40
0.8061987573
 40
1.0
 40
1.0
 40
1.0
 40
1.0
 10
71.9174082603
 20
239.8717069874
 30
0.0
 10
71.9174082603
 20
239.8692974886
 30
0.0
 10
71.909687918
 20
239.8641597874
 30
0.0
 10
71.8956955222
 20
239.8601613108
 30
0.0
 10
71.8713143378
 20
239.8548343126
 30
0.0
 10
71.8219260584
 20
239.847709966
 30
0.0
 10
71.7384604477
 20
239.8397193698
 30
0.0
 10
71.6158221658
 20
239.8318522008
 30
0.0
 10
71.4661989985
 20
239.8252961969
 30
0.0
 10
71.2953416074
 20
239.8203781408
 30
0.0
 10
71.1100099014
 20
239.817366158
 30
0.0
 10
70.9823533169
 20
239.8166736575
 30
0.0
 10
70.9174082603
 20
239.8166736575
 30
0.0
  0
SPLINE
  5
457
100
AcDbEntity
  8
93894102000_BL4
100
AcDbSpline
 62
7
  6
CONTINUOUS
 70
0
 71
3
 72
8
 73
4
 74
0
 42
0.0000001
 43
0.0000001
 44
0.0000000001
 40
0.0
 40
0.0
 40
0.0
 40
0.0
 40
1.0
 40
1.0
 40
1.0
 40
1.0
 10
73.6172236991
 20
278.7682555001
 30
0.0
 10
73.6173461629
 20
278.7644989493
 30
0.0
 10
73.6174706236
 20
278.7607356417
 30
0.0
 10
73.6173167846
 20
278.756980245
 30
0.0
  0
SPLINE
  5
458
100
AcDbEntity
  8
93894102000_BL4
100
AcDbSpline
 62
9
  6
CONTINUOUS
 70
0
 71
3
 72
9
 73
5
 74
0
 42
0.0000001
 43
0.0000001
 44
0.0000000001
 40
0.0
 40
0.0
 40
0.0
 40
0.0
 40
0.2957300403
 40
1.0
 40
1.0
 40
1.0
 40
1.0
 10
71.9174082402
 20
278.8166732923
 30
0.0
 10
71.9175483539
 20
278.8114198151
 30
0.0
 10
71.9392371414
 20
278.8029199048
 30
0.0
 10
71.9538324469
 20
278.7998831076
 30
0.0
 10
71.9661323961
 20
278.7975708223
 30
0.0
  0
SPLINE
  5
459
100
AcDbEntity
  8
93894102000_BL4
100
AcDbSpline
 62
9
  6
CONTINUOUS
 70
0
 71
3
 72
11
 73
7
 74
0
 42
0.0000001
 43
0.0000001
 44
0.0000000001
 40
0.0
 40
0.0
 40
0.0
 40
0.0
 40
0.1487013667
 40
0.3803144243
 40
0.6736716275
 40
1.0
 40
1.0
 40
1.0
 40
1.0
 10
71.9661323961
 20
278.7975708223
 30
0.0
 10
72.0125463018
 20
278.7888454046
 30
0.0
 10
72.1330918909
 20
278.7776041182
 30
0.0
 10
72.3466153325
 20
278.7657786188
 30
0.0
 10
72.6169703796
 20
278.7586483047
 30
0.0
 10
72.813767725
 20
278.7569447639
 30
0.0
 10
72.9174082613
 20
278.7569424359
 30
0.0
  0
SPLINE
  5
45A
100
AcDbEntity
  8
93894102000_BL4
100
AcDbSpline
 62
9
  6
CONTINUOUS
 70
0
 71
3
 72
10
 73
6
 74
0
 42
0.0000001
 43
0.0000001
 44
0.0000000001
 40
0.0
 40
0.0
 40
0.0
 40
0.0
 40
0.1076182238
 40
0.3008405421
 40
1.0
 40
1.0
 40
1.0
 40
1.0
 10
71.9174082603
 20
278.8166736575
 30
0.0
 10
71.9174616729
 20
278.8186338113
 30
0.0
 10
71.9217720702
 20
278.8232302291
 30
0.0
 10
71.938278803
 20
278.8300327849
 30
0.0
 10
71.9544933623
 20
278.8336231895
 30
0.0
 10
71.9670097182
 20
278.8359954786
 30
0.0
  0
SPLINE
  5
45B
100
AcDbEntity
  8
93894102000_BL4
100
AcDbSpline
 62
9
  6
CONTINUOUS
 70
0
 71
3
 72
11
 73
7
 74
0
 42
0.0000001
 43
0.0000001
 44
0.0000000001
 40
0.0
 40
0.0
 40
0.0
 40
0.0
 40
0.1504439392
 40
0.3831149745
 40
0.6757723127
 40
1.0
 40
1.0
 40
1.0
 40
1.0
 10
71.9670097182
 20
278.8359954786
 30
0.0
 10
72.0139150593
 20
278.8448856882
 30
0.0
 10
72.1352411687
 20
278.8562745518
 30
0.0
 10
72.3492104155
 20
278.8687590541
 30
0.0
 10
72.618776872
 20
278.8763979925
 30
0.0
 10
72.814521011
 20
278.8782263824
 30
0.0
 10
72.9174082603
 20
278.8782264703
 30
0.0
  0
SPLINE
  5
45C
100
AcDbEntity
  8
93894102000_BL4
100
AcDbSpline
 62
9
  6
CONTINUOUS
 70
0
 71
3
 72
8
 73
4
 74
0
 42
0.0000001
 43
0.0000001
 44
0.0000000001
 40
0.0
 40
0.0
 40
0.0
 40
0.0
 40
1.0
 40
1.0
 40
1.0
 40
1.0
 10
73.6172127382
 20
278.866117362
 30
0.0
 10
74.9506154103
 20
278.8499765874
 30
0.0
 10
76.2840120871
 20
278.8333426686
 30
0.0
 10
77.6174082603
 20
278.8166736575
 30
0.0
  0
SPLINE
  5
45D
100
AcDbEntity
  8
93894102000_BL4
100
AcDbSpline
 62
9
  6
CONTINUOUS
 70
0
 71
3
 72
9
 73
5
 74
0
 42
0.0000001
 43
0.0000001
 44
0.0000000001
 40
0.0
 40
0.0
 40
0.0
 40
0.0
 40
0.2497380704
 40
1.0
 40
1.0
 40
1.0
 40
1.0
 10
73.6172234387
 20
278.7682617335
 30
0.0
 10
73.950225782
 20
278.7720490023
 30
0.0
 10
75.2836284501
 20
278.7875448816
 30
0.0
 10
76.6170176672
 20
278.8041674433
 30
0.0
 10
77.6174082603
 20
278.8166736575
 30
0.0
  0
SPLINE
  5
45E
100
AcDbEntity
  8
93894102000_BL4
100
AcDbSpline
 62
7
  6
CONTINUOUS
 70
0
 71
3
 72
8
 73
4
 74
0
 42
0.0000001
 43
0.0000001
 44
0.0000000001
 40
0.0
 40
0.0
 40
0.0
 40
0.0
 40
1.0
 40
1.0
 40
1.0
 40
1.0
 10
73.6172236991
 20
239.8650918149
 30
0.0
 10
73.6173461629
 20
239.8688483657
 30
0.0
 10
73.6174706236
 20
239.8726116732
 30
0.0
 10
73.6173167846
 20
239.87636707
 30
0.0
  0
SPLINE
  5
45F
100
AcDbEntity
  8
93894102000_BL4
100
AcDbSpline
 62
9
  6
CONTINUOUS
 70
0
 71
3
 72
17
 73
13
 74
0
 42
0.0000001
 43
0.0000001
 44
0.0000000001
 40
0.0
 40
0.0
 40
0.0
 40
0.0
 40
0.1937929879
 40
0.3804752205
 40
0.5523509223
 40
0.7030281402
 40
0.8268897236
 40
0.9192055975
 40
0.9524629853
 40
0.9767488672
 40
0.9922172857
 40
1.0
 40
1.0
 40
1.0
 40
1.0
 10
72.9174082603
 20
239.7551208447
 30
0.0
 10
72.8523825211
 20
239.755120916
 30
0.0
 10
72.7247163202
 20
239.7558685721
 30
0.0
 10
72.5394014972
 20
239.7591937096
 30
0.0
 10
72.3686197147
 20
239.7646018405
 30
0.0
 10
72.2189691108
 20
239.7718832891
 30
0.0
 10
72.0962476925
 20
239.7806420054
 30
0.0
 10
72.012836772
 20
239.7896224674
 30
0.0
 10
71.9633953738
 20
239.7976372284
 30
0.0
 10
71.9391945421
 20
239.803576066
 30
0.0
 10
71.9247477355
 20
239.8082621632
 30
0.0
 10
71.9174791379
 20
239.8140642762
 30
0.0
 10
71.9174082603
 20
239.8166747438
 30
0.0
  0
SPLINE
  5
460
100
AcDbEntity
  8
93894102000_BL4
100
AcDbSpline
 62
9
  6
CONTINUOUS
 70
0
 71
3
 72
13
 73
9
 74
0
 42
0.0000001
 43
0.0000001
 44
0.0000000001
 40
0.0
 40
0.0
 40
0.0
 40
0.0
 40
0.3517583994
 40
0.6586066217
 40
0.783058351
 40
0.8831087015
 40
0.9560151064
 40
1.0
 40
1.0
 40
1.0
 40
1.0
 10
72.9174082615
 20
239.8764048329
 30
0.0
 10
72.8013004519
 20
239.8764021002
 30
0.0
 10
72.5839165348
 20
239.8743243155
 30
0.0
 10
72.3254934397
 20
239.8665564504
 30
0.0
 10
72.150434748
 20
239.856380972
 30
0.0
 10
72.0524954606
 20
239.8482609511
 30
0.0
 10
71.981659794
 20
239.8389594266
 30
0.0
 10
71.9434088715
 20
239.8317847103
 30
0.0
 10
71.9298769839
 20
239.8265241353
 30
0.0
  0
SPLINE
  5
461
100
AcDbEntity
  8
93894102000_BL4
100
AcDbSpline
 62
9
  6
CONTINUOUS
 70
0
 71
3
 72
8
 73
4
 74
0
 42
0.0000001
 43
0.0000001
 44
0.0000000001
 40
0.0
 40
0.0
 40
0.0
 40
0.0
 40
1.0
 40
1.0
 40
1.0
 40
1.0
 10
77.6174082603
 20
239.8166736575
 30
0.0
 10
76.2840120871
 20
239.8000046463
 30
0.0
 10
74.9506154103
 20
239.7833707275
 30
0.0
 10
73.6172127382
 20
239.7672299529
 30
0.0
  0
SPLINE
  5
462
100
AcDbEntity
  8
93894102000_BL4
100
AcDbSpline
 62
9
  6
CONTINUOUS
 70
0
 71
3
 72
9
 73
5
 74
0
 42
0.0000001
 43
0.0000001
 44
0.0000000001
 40
0.0
 40
0.0
 40
0.0
 40
0.0
 40
0.2502703117
 40
1.0
 40
1.0
 40
1.0
 40
1.0
 10
77.6174082603
 20
239.8166736575
 30
0.0
 10
77.2837007228
 20
239.8208454459
 30
0.0
 10
75.9503122092
 20
239.8375045452
 30
0.0
 10
74.616917791
 20
239.8537159581
 30
0.0
 10
73.6172234387
 20
239.8650855815
 30
0.0
  0
SPLINE
  5
463
100
AcDbEntity
  8
93894102000_BL4
100
AcDbSpline
 62
7
  6
CONTINUOUS
 70
0
 71
3
 72
8
 73
4
 74
0
 42
0.0000001
 43
0.0000001
 44
0.0000000001
 40
0.0
 40
0.0
 40
0.0
 40
0.0
 40
1.0
 40
1.0
 40
1.0
 40
1.0
 10
73.6172127382
 20
278.866117362
 30
0.0
 10
73.6173429573
 20
278.8701497208
 30
0.0
 10
73.617473099
 20
278.8741891487
 30
0.0
 10
73.6173108732
 20
278.8782203467
 30
0.0
  0
SPLINE
  5
464
100
AcDbEntity
  8
93894102000_BL4
100
AcDbSpline
 62
7
  6
CONTINUOUS
 70
0
 71
3
 72
8
 73
4
 74
0
 42
0.0000001
 43
0.0000001
 44
0.0000000001
 40
0.0
 40
0.0
 40
0.0
 40
0.0
 40
1.0
 40
1.0
 40
1.0
 40
1.0
 10
73.6172127382
 20
239.7672299529
 30
0.0
 10
73.6173429573
 20
239.7631975941
 30
0.0
 10
73.617473099
 20
239.7591581662
 30
0.0
 10
73.6173108732
 20
239.7551269683
 30
0.0
  0
SPLINE
  5
465
100
AcDbEntity
  8
93894102000_BL4
100
AcDbSpline
 62
9
  6
CONTINUOUS
 70
0
 71
3
 72
17
 73
13
 74
0
 42
0.0000001
 43
0.0000001
 44
0.0000000001
 40
0.0
 40
0.0
 40
0.0
 40
0.0
 40
0.0077966084
 40
0.0232864324
 40
0.0476218248
 40
0.080850037
 40
0.1730046261
 40
0.2966627254
 40
0.4472853174
 40
0.6191350713
 40
0.8058789403
 40
1.0
 40
1.0
 40
1.0
 40
1.0
 10
71.9174082603
 20
274.8166736575
 30
0.0
 10
71.9174141457
 20
274.814057035
 30
0.0
 10
71.9245836373
 20
274.8080695385
 30
0.0
 10
71.9390757584
 20
274.8033539005
 30
0.0
 10
71.9632526744
 20
274.7972878504
 30
0.0
 10
72.0126528585
 20
274.7891817122
 30
0.0
 10
72.0959389271
 20
274.7801652352
 30
0.0
 10
72.2185523664
 20
274.7714612955
 30
0.0
 10
72.3681440554
 20
274.7643170401
 30
0.0
 10
72.5389592429
 20
274.7590522789
 30
0.0
 10
72.7244358987
 20
274.7558386237
 30
0.0
 10
72.8522590579
 20
274.7551208346
 30
0.0
 10
72.9174082603
 20
274.7551208447
 30
0.0
  0
SPLINE
  5
466
100
AcDbEntity
  8
93894102000_BL4
100
AcDbSpline
 62
9
  6
CONTINUOUS
 70
0
 71
3
 72
17
 73
13
 74
0
 42
0.0000001
 43
0.0000001
 44
0.0000000001
 40
0.0
 40
0.0
 40
0.0
 40
0.0
 40
0.0078720881
 40
0.0236020993
 40
0.048289348
 40
0.0819609147
 40
0.1750789158
 40
0.2994699964
 40
0.4502890639
 40
0.6216579663
 40
0.8072976896
 40
1.0
 40
1.0
 40
1.0
 40
1.0
 10
71.9174082603
 20
274.8166736575
 30
0.0
 10
71.9174141322
 20
274.8193152862
 30
0.0
 10
71.9247466365
 20
274.8253314478
 30
0.0
 10
71.9394093215
 20
274.8301069999
 30
0.0
 10
71.963974843
 20
274.8361337159
 30
0.0
 10
72.0139577703
 20
274.8442032344
 30
0.0
 10
72.0979907257
 20
274.8530026564
 30
0.0
 10
72.2212458746
 20
274.8613408583
 30
0.0
 10
72.3709925033
 20
274.8680209953
 30
0.0
 10
72.5413321932
 20
274.8728476233
 30
0.0
 10
72.7257826015
 20
274.8757455463
 30
0.0
 10
72.8527431787
 20
274.8763728425
 30
0.0
 10
72.9174082599
 20
274.8763734205
 30
0.0
  0
SPLINE
  5
467
100
AcDbEntity
  8
93894102000_BL4
100
AcDbSpline
 62
9
  6
CONTINUOUS
 70
0
 71
3
 72
9
 73
5
 74
0
 42
0.0000001
 43
0.0000001
 44
0.0000000001
 40
0.0
 40
0.0
 40
0.0
 40
0.0
 40
0.5003162589
 40
1.0
 40
1.0
 40
1.0
 40
1.0
 10
73.6177020226
 20
274.8599677153
 30
0.0
 10
74.2597322879
 20
274.8533174149
 30
0.0
 10
75.5429907225
 20
274.8408425888
 30
0.0
 10
76.8261968506
 20
274.8237596668
 30
0.0
 10
77.4674106846
 20
274.8166736969
 30
0.0
  0
SPLINE
  5
468
100
AcDbEntity
  8
93894102000_BL4
100
AcDbSpline
 62
9
  6
CONTINUOUS
 70
0
 71
3
 72
8
 73
4
 74
0
 42
0.0000001
 43
0.0000001
 44
0.0000000001
 40
0.0
 40
0.0
 40
0.0
 40
0.0
 40
1.0
 40
1.0
 40
1.0
 40
1.0
 10
73.6177196067
 20
274.7727633771
 30
0.0
 10
74.9009514289
 20
274.7866540471
 30
0.0
 10
76.1841800805
 20
274.8008365817
 30
0.0
 10
77.4674087422
 20
274.8150162181
 30
0.0
  0
SPLINE
  5
469
100
AcDbEntity
  8
93894102000_BL4
100
AcDbSpline
 62
7
  6
CONTINUOUS
 70
0
 71
3
 72
10
 73
6
 74
0
 42
0.0000001
 43
0.0000001
 44
0.0000000001
 40
0.0
 40
0.0
 40
0.0
 40
0.0
 40
0.2848394061
 40
0.5555780727
 40
1.0
 40
1.0
 40
1.0
 40
1.0
 10
70.7710217318
 20
278.8166736575
 30
0.0
 10
70.733609364
 20
278.8166736575
 30
0.0
 10
70.6607135837
 20
278.8118359187
 30
0.0
 10
70.5297428919
 20
278.8025623937
 30
0.0
 10
70.4360076776
 20
278.795712266
 30
0.0
 10
70.3780041623
 20
278.7891565668
 30
0.0
  0
SPLINE
  5
46A
100
AcDbEntity
  8
93894102000_BL4
100
AcDbSpline
 62
9
  6
CONTINUOUS
 70
0
 71
3
 72
17
 73
13
 74
0
 42
0.0000001
 43
0.0000001
 44
0.0000000001
 40
0.0
 40
0.0
 40
0.0
 40
0.0
 40
0.1927025312
 40
0.3783429528
 40
0.5497118291
 40
0.7005306998
 40
0.8249215397
 40
0.9180392605
 40
0.9517107191
 40
0.9763978885
 40
0.9921277964
 40
1.0
 40
1.0
 40
1.0
 40
1.0
 10
72.9174082597
 20
243.7569739418
 30
0.0
 10
72.8527430992
 20
243.7569745291
 30
0.0
 10
72.7257822044
 20
243.7576020004
 30
0.0
 10
72.5413314805
 20
243.7604997358
 30
0.0
 10
72.3709916113
 20
243.7653262877
 30
0.0
 10
72.2212451389
 20
243.7720065388
 30
0.0
 10
72.0979901978
 20
243.7803446716
 30
0.0
 10
72.0139574948
 20
243.7891441615
 30
0.0
 10
71.9639746493
 20
243.7972135288
 30
0.0
 10
71.9394093609
 20
243.8032405572
 30
0.0
 10
71.9247464605
 20
243.8080155993
 30
0.0
 10
71.9174140645
 20
243.8140319896
 30
0.0
 10
71.9174082603
 20
243.8166736575
 30
0.0
  0
LINE
  5
46B
100
AcDbEntity
  8
93894102000_BL4
100
AcDbLine
 62
7
  6
CONTINUOUS
 10
13.8764652753
 20
278.7616403276
 11
12.8764652753
 21
278.8166736575
  0
LINE
  5
46C
100
AcDbEntity
  8
93894102000_BL4
100
AcDbLine
 62
7
  6
CONTINUOUS
 10
13.8764652753
 20
239.8717069874
 11
12.8764652753
 21
239.8166736575
  0
LINE
  5
46D
100
AcDbEntity
  8
93894102000_BL4
100
AcDbLine
 62
9
  6
CONTINUOUS
 10
13.3732699004
 20
89.4740456953
 11
13.2514725519
 21
89.3875577569
  0
SPLINE
  5
46E
100
AcDbEntity
  8
93894102000_BL4
100
AcDbSpline
 62
7
  6
CONTINUOUS
 70
0
 71
3
 72
9
 73
5
 74
0
 42
0.0000001
 43
0.0000001
 44
0.0000000001
 40
0.0
 40
0.0
 40
0.0
 40
0.0
 40
0.500038024
 40
1.0
 40
1.0
 40
1.0
 40
1.0
 10
13.5899174082
 20
89.8880646664
 30
0.0
 10
13.5241773495
 20
89.8421330768
 30
0.0
 10
13.4130608613
 20
89.716935238
 30
0.0
 10
13.3732699004
 20
89.5541646519
 30
0.0
 10
13.3732699004
 20
89.4739804257
 30
0.0
  0
ELLIPSE
  5
46F
100
AcDbEntity
  8
93894102000_BL4
100
AcDbEllipse
 62
7
  6
CONTINUOUS
 10
14.4235060478
 20
283.7166736575
 30
0.0
 11
0.7894682909
 21
0.7071067812
 31
0.0
 40
0.8956747084
 41
-3.5154739709
 42
-2.8200811984
  0
ELLIPSE
  5
470
100
AcDbEntity
  8
93894102000_BL4
100
AcDbEllipse
 62
7
  6
CONTINUOUS
 10
14.4235060478
 20
234.9166736575
 30
0.0
 11
-0.7894682909
 21
0.7071067812
 31
0.0
 40
0.8956747084
 41
-0.3215114552
 42
0.3738813173
  0
ELLIPSE
  5
471
100
AcDbEntity
  8
93894102000_BL4
100
AcDbEllipse
 62
7
  6
CONTINUOUS
 10
14.4235060478
 20
88.9611198917
 30
0.0
 11
0.7894682909
 21
0.7071067812
 31
0.0
 40
0.8956747084
 41
-3.5154739709
 42
-2.8200811984
  0
ELLIPSE
  5
472
100
AcDbEntity
  8
93894102000_BL4
100
AcDbEllipse
 62
7
  6
CONTINUOUS
 10
14.3793456366
 20
88.9611198917
 30
0.0
 11
-1.0060757362
 21
-0.0
 31
0.0
 40
0.9939609555
 41
0.0
 42
0.4115168461
  0
ENDBLK
  5
473
100
AcDbEntity
  8
0
  6
BYBLOCK
 62
0
100
AcDbBlockEnd
  0
BLOCK
  5
474
100
AcDbEntity
  8
62890299000_O03_BL5
100
AcDbBlockBegin
  2
62890299000_O03_BL5
 70
64
 10
51.4045680118
 20
259.3166736575
  3
62890299000_O03_BL5
  1

  0
LINE
  5
475
100
AcDbEntity
  8
62890299000_O03_BL5
100
AcDbLine
 62
7
  6
CENTER
 10
92.9326931713
 20
259.3166736575
 11
65.4174082603
 21
259.3166736575
  0
LINE
  5
476
100
AcDbEntity
  8
62890299000_O03_BL5
100
AcDbLine
 62
7
  6
CENTER
 10
9.8764428523
 20
259.3166736575
 11
23.2767166139
 21
259.3166736575
  0
ENDBLK
  5
477
100
AcDbEntity
  8
0
  6
BYBLOCK
 62
0
100
AcDbBlockEnd
  0
BLOCK
  5
478
100
AcDbEntity
  8
91324206R00_BL6
100
AcDbBlockBegin
  2
91324206R00_BL6
 70
64
 10
79.4174082603
 20
233.0666736575
  3
91324206R00_BL6
  1

  0
ARC
  5
479
100
AcDbEntity
  8
91324206R00_BL6
100
AcDbCircle
 62
7
  6
CONTINUOUS
 10
78.5111058777
 20
231.5230687886
 40
0.59
100
AcDbArc
 50
12.9620900983
 51
106.2006509181
  0
ARC
  5
47A
100
AcDbEntity
  8
91324206R00_BL6
100
AcDbCircle
 62
7
  6
CONTINUOUS
 10
78.5111058777
 20
234.6102785264
 40
0.59
100
AcDbArc
 50
253.7993490819
 51
347.0379099017
  0
ARC
  5
47B
100
AcDbEntity
  8
91324206R00_BL6
100
AcDbCircle
 62
7
  6
CONTINUOUS
 10
77.7125149021
 20
233.0666736575
 40
0.5048933582
100
AcDbArc
 50
309.6496393284
 51
50.3503606716
  0
ARC
  5
47C
100
AcDbEntity
  8
91324206R00_BL6
100
AcDbCircle
 62
7
  6
CONTINUOUS
 10
78.2516340032
 20
232.4161389685
 40
0.34
100
AcDbArc
 50
129.6496393284
 51
200.3768601608
  0
ARC
  5
47D
100
AcDbEntity
  8
91324206R00_BL6
100
AcDbCircle
 62
7
  6
CONTINUOUS
 10
78.2516340032
 20
232.4161389685
 40
0.34
100
AcDbArc
 50
224.6349631418
 51
286.2006509181
  0
ARC
  5
47E
100
AcDbEntity
  8
91324206R00_BL6
100
AcDbCircle
 62
7
  6
CONTINUOUS
 10
78.2516340032
 20
233.7172083464
 40
0.34
100
AcDbArc
 50
73.7993490819
 51
135.3499645031
  0
ARC
  5
47F
100
AcDbEntity
  8
91324206R00_BL6
100
AcDbCircle
 62
7
  6
CONTINUOUS
 10
78.2516340032
 20
233.7172083464
 40
0.34
100
AcDbArc
 50
159.9223576597
 51
230.3503606716
  0
ARC
  5
480
100
AcDbEntity
  8
91324206R00_BL6
100
AcDbCircle
 62
7
  6
CONTINUOUS
 10
79.4174082603
 20
231.7316736575
 40
0.34
100
AcDbArc
 50
192.9620900983
 51
256.3581162113
  0
ARC
  5
481
100
AcDbEntity
  8
91324206R00_BL6
100
AcDbCircle
 62
7
  6
CONTINUOUS
 10
79.4174082603
 20
231.7316736575
 40
0.34
100
AcDbArc
 50
283.5069100039
 51
347.0379099017
  0
CIRCLE
  5
482
100
AcDbEntity
  8
91324206R00_BL6
100
AcDbCircle
 62
7
  6
CONTINUOUS
 10
79.4174082603
 20
233.0666736575
 40
3.75
  0
CIRCLE
  5
483
100
AcDbEntity
  8
91324206R00_BL6
100
AcDbCircle
 62
7
  6
CONTINUOUS
 10
79.4174082603
 20
233.0666736575
 40
1.675
  0
ARC
  5
484
100
AcDbEntity
  8
91324206R00_BL6
100
AcDbCircle
 62
7
  6
CONTINUOUS
 10
79.4174082603
 20
234.4016736575
 40
0.34
100
AcDbArc
 50
12.9620900983
 51
76.3581162113
  0
ARC
  5
485
100
AcDbEntity
  8
91324206R00_BL6
100
AcDbCircle
 62
7
  6
CONTINUOUS
 10
79.4174082603
 20
234.4016736575
 40
0.34
100
AcDbArc
 50
103.5069100039
 51
167.0379099017
  0
ARC
  5
486
100
AcDbEntity
  8
91324206R00_BL6
100
AcDbCircle
 62
7
  6
CONTINUOUS
 10
80.3237106429
 20
231.5230687886
 40
0.59
100
AcDbArc
 50
73.7993490819
 51
167.0379099017
  0
ARC
  5
487
100
AcDbEntity
  8
91324206R00_BL6
100
AcDbCircle
 62
7
  6
CONTINUOUS
 10
80.5831825174
 20
232.4161389685
 40
0.34
100
AcDbArc
 50
253.7993490819
 51
315.3499645031
  0
ARC
  5
488
100
AcDbEntity
  8
91324206R00_BL6
100
AcDbCircle
 62
7
  6
CONTINUOUS
 10
80.5831825174
 20
232.4161389685
 40
0.34
100
AcDbArc
 50
339.9223576597
 51
50.3503606716
  0
ARC
  5
489
100
AcDbEntity
  8
91324206R00_BL6
100
AcDbCircle
 62
7
  6
CONTINUOUS
 10
80.3237106429
 20
234.6102785264
 40
0.59
100
AcDbArc
 50
192.9620900983
 51
286.2006509181
  0
ARC
  5
48A
100
AcDbEntity
  8
91324206R00_BL6
100
AcDbCircle
 62
7
  6
CONTINUOUS
 10
80.5831825174
 20
233.7172083464
 40
0.34
100
AcDbArc
 50
309.6496393284
 51
20.3768601608
  0
ARC
  5
48B
100
AcDbEntity
  8
91324206R00_BL6
100
AcDbCircle
 62
7
  6
CONTINUOUS
 10
80.5831825174
 20
233.7172083464
 40
0.34
100
AcDbArc
 50
44.6349631418
 51
106.2006509181
  0
ARC
  5
48C
100
AcDbEntity
  8
91324206R00_BL6
100
AcDbCircle
 62
7
  6
CONTINUOUS
 10
81.1223016185
 20
233.0666736575
 40
0.5048933582
100
AcDbArc
 50
129.6496393284
 51
230.3503606716
  0
ENDBLK
  5
48D
100
AcDbEntity
  8
0
  6
BYBLOCK
 62
0
100
AcDbBlockEnd
  0
BLOCK
  5
48E
100
AcDbEntity
  8
91324206R00_BL7
100
AcDbBlockBegin
  2
91324206R00_BL7
 70
64
 10
79.4174082603
 20
285.5666736575
  3
91324206R00_BL7
  1

  0
ARC
  5
48F
100
AcDbEntity
  8
91324206R00_BL7
100
AcDbCircle
 62
7
  6
CONTINUOUS
 10
78.5111058777
 20
284.0230687886
 40
0.59
100
AcDbArc
 50
12.9620900983
 51
106.2006509181
  0
ARC
  5
490
100
AcDbEntity
  8
91324206R00_BL7
100
AcDbCircle
 62
7
  6
CONTINUOUS
 10
78.5111058777
 20
287.1102785264
 40
0.59
100
AcDbArc
 50
253.7993490819
 51
347.0379099017
  0
ARC
  5
491
100
AcDbEntity
  8
91324206R00_BL7
100
AcDbCircle
 62
7
  6
CONTINUOUS
 10
77.7125149021
 20
285.5666736575
 40
0.5048933582
100
AcDbArc
 50
309.6496393284
 51
50.3503606716
  0
ARC
  5
492
100
AcDbEntity
  8
91324206R00_BL7
100
AcDbCircle
 62
7
  6
CONTINUOUS
 10
78.2516340032
 20
284.9161389685
 40
0.34
100
AcDbArc
 50
129.6496393284
 51
200.3768601608
  0
ARC
  5
493
100
AcDbEntity
  8
91324206R00_BL7
100
AcDbCircle
 62
7
  6
CONTINUOUS
 10
78.2516340032
 20
284.9161389685
 40
0.34
100
AcDbArc
 50
224.6349631418
 51
286.2006509181
  0
ARC
  5
494
100
AcDbEntity
  8
91324206R00_BL7
100
AcDbCircle
 62
7
  6
CONTINUOUS
 10
78.2516340032
 20
286.2172083464
 40
0.34
100
AcDbArc
 50
73.7993490819
 51
135.3499645031
  0
ARC
  5
495
100
AcDbEntity
  8
91324206R00_BL7
100
AcDbCircle
 62
7
  6
CONTINUOUS
 10
78.2516340032
 20
286.2172083464
 40
0.34
100
AcDbArc
 50
159.9223576597
 51
230.3503606716
  0
ARC
  5
496
100
AcDbEntity
  8
91324206R00_BL7
100
AcDbCircle
 62
7
  6
CONTINUOUS
 10
80.3237106429
 20
284.0230687886
 40
0.59
100
AcDbArc
 50
73.7993490819
 51
167.0379099017
  0
ARC
  5
497
100
AcDbEntity
  8
91324206R00_BL7
100
AcDbCircle
 62
7
  6
CONTINUOUS
 10
80.5831825174
 20
284.9161389685
 40
0.34
100
AcDbArc
 50
253.7993490819
 51
315.3499645031
  0
ARC
  5
498
100
AcDbEntity
  8
91324206R00_BL7
100
AcDbCircle
 62
7
  6
CONTINUOUS
 10
80.5831825174
 20
284.9161389685
 40
0.34
100
AcDbArc
 50
339.9223576597
 51
50.3503606716
  0
ARC
  5
499
100
AcDbEntity
  8
91324206R00_BL7
100
AcDbCircle
 62
7
  6
CONTINUOUS
 10
79.4174082603
 20
284.2316736575
 40
0.34
100
AcDbArc
 50
192.9620900983
 51
256.3581162112
  0
ARC
  5
49A
100
AcDbEntity
  8
91324206R00_BL7
100
AcDbCircle
 62
7
  6
CONTINUOUS
 10
79.4174082603
 20
284.2316736575
 40
0.34
100
AcDbArc
 50
283.5069100039
 51
347.0379099017
  0
CIRCLE
  5
49B
100
AcDbEntity
  8
91324206R00_BL7
100
AcDbCircle
 62
7
  6
CONTINUOUS
 10
79.4174082603
 20
285.5666736575
 40
3.75
  0
CIRCLE
  5
49C
100
AcDbEntity
  8
91324206R00_BL7
100
AcDbCircle
 62
7
  6
CONTINUOUS
 10
79.4174082603
 20
285.5666736575
 40
1.675
  0
ARC
  5
49D
100
AcDbEntity
  8
91324206R00_BL7
100
AcDbCircle
 62
7
  6
CONTINUOUS
 10
79.4174082603
 20
286.9016736575
 40
0.34
100
AcDbArc
 50
12.9620900983
 51
76.3581162112
  0
ARC
  5
49E
100
AcDbEntity
  8
91324206R00_BL7
100
AcDbCircle
 62
7
  6
CONTINUOUS
 10
79.4174082603
 20
286.9016736575
 40
0.34
100
AcDbArc
 50
103.5069100039
 51
167.0379099017
  0
ARC
  5
49F
100
AcDbEntity
  8
91324206R00_BL7
100
AcDbCircle
 62
7
  6
CONTINUOUS
 10
80.3237106429
 20
287.1102785264
 40
0.59
100
AcDbArc
 50
192.9620900983
 51
286.2006509181
  0
ARC
  5
4A0
100
AcDbEntity
  8
91324206R00_BL7
100
AcDbCircle
 62
7
  6
CONTINUOUS
 10
80.5831825174
 20
286.2172083464
 40
0.34
100
AcDbArc
 50
309.6496393284
 51
20.3768601608
  0
ARC
  5
4A1
100
AcDbEntity
  8
91324206R00_BL7
100
AcDbCircle
 62
7
  6
CONTINUOUS
 10
80.5831825174
 20
286.2172083464
 40
0.34
100
AcDbArc
 50
44.6349631418
 51
106.2006509181
  0
ARC
  5
4A2
100
AcDbEntity
  8
91324206R00_BL7
100
AcDbCircle
 62
7
  6
CONTINUOUS
 10
81.1223016185
 20
285.5666736575
 40
0.5048933582
100
AcDbArc
 50
129.6496393284
 51
230.3503606716
  0
ENDBLK
  5
4A3
100
AcDbEntity
  8
0
  6
BYBLOCK
 62
0
100
AcDbBlockEnd
  0
BLOCK
  5
4A4
100
AcDbEntity
  8
0
100
AcDbBlockBegin
  2
_FILLED
 70
64
 10
0.0
 20
0.0
  3
_FILLED
  1

  0
SOLID
  5
4A5
100
AcDbEntity
  8
0
  6
BYBLOCK
 62
0
100
AcDbTrace
 10
0.0
 20
0.0
 11
-1.0
 21
0.1428571429
 12
-1.0
 22
-0.1428571429
 13
-1.0
 23
-0.1428571429
  0
ENDBLK
  5
4A6
100
AcDbEntity
  8
0
  6
BYBLOCK
 62
0
100
AcDbBlockEnd
  0
BLOCK
  5
4A7
100
AcDbEntity
  8
0
100
AcDbBlockBegin
 62
2
  6
CONTINUOUS
  2
*D0
 70
65
 10
0.0
 20
0.0
  3
*D0
  1

  0
TEXT
  5
4A8
100
AcDbEntity
  8
0
100
AcDbText
 62
5
  6
CONTINUOUS
 10
74.1138368317
 20
205.1539842709
  7
STANDARD
 40
2.5
  1
12.3
 72
5
 11
80.7209796889
 21
205.1539842709
100
AcDbText
  0
LINE
  5
4A9
100
AcDbEntity
  8
0
100
AcDbLine
 62
2
  6
CONTINUOUS
 10
71.2924082603
 20
197.8166736575
 11
71.2924082603
 21
205.5289842709
  0
LINE
  5
4AA
100
AcDbEntity
  8
0
100
AcDbLine
 62
2
  6
CONTINUOUS
 10
83.5424082603
 20
197.8166736575
 11
83.5424082603
 21
205.5289842709
  0
LINE
  5
4AB
100
AcDbEntity
  8
0
100
AcDbLine
 62
2
  6
CONTINUOUS
 10
71.2924082603
 20
204.5289842709
 11
64.2924082603
 21
204.5289842709
  0
LINE
  5
4AC
100
AcDbEntity
  8
0
100
AcDbLine
 62
2
  6
CONTINUOUS
 10
64.2924082603
 20
204.5289842709
 11
77.4174082603
 21
204.5289842709
  0
LINE
  5
4AD
100
AcDbEntity
  8
0
100
AcDbLine
 62
2
  6
CONTINUOUS
 10
83.5424082603
 20
204.5289842709
 11
90.5424082603
 21
204.5289842709
  0
LINE
  5
4AE
100
AcDbEntity
  8
0
100
AcDbLine
 62
2
  6
CONTINUOUS
 10
90.5424082603
 20
204.5289842709
 11
77.4174082603
 21
204.5289842709
  0
INSERT
  5
4AF
100
AcDbEntity
  8
0
100
AcDbBlockReference
 62
2
  6
CONTINUOUS
  2
_FILLED
 10
71.2924082603
 20
204.5289842709
 41
3.5
 42
3.5
 43
3.5
  0
INSERT
  5
4B0
100
AcDbEntity
  8
0
100
AcDbBlockReference
 62
2
  6
CONTINUOUS
  2
_FILLED
 10
83.5424082603
 20
204.5289842709
 41
3.5
 42
3.5
 43
3.5
 50
180.0
  0
ENDBLK
  5
4B1
100
AcDbEntity
  8
0
  6
BYBLOCK
 62
0
100
AcDbBlockEnd
  0
BLOCK
  5
4B2
100
AcDbEntity
  8
0
100
AcDbBlockBegin
 62
2
  6
CONTINUOUS
  2
*D1
 70
65
 10
0.0
 20
0.0
  3
*D1
  1

  0
TEXT
  5
4B3
100
AcDbEntity
  8
0
100
AcDbText
 62
5
  6
CONTINUOUS
 10
54.7924082603
 20
166.3523879432
  7
STANDARD
 40
2.5
  1
62
 50
90.0
 72
5
 11
54.7924082603
 21
170.2809593718
100
AcDbText
  0
LINE
  5
4B4
100
AcDbEntity
  8
0
100
AcDbLine
 62
2
  6
CONTINUOUS
 10
72.7924082603
 20
199.3166736575
 11
54.4174082603
 21
199.3166736575
  0
LINE
  5
4B5
100
AcDbEntity
  8
0
100
AcDbLine
 62
2
  6
CONTINUOUS
 10
72.7924082603
 20
137.3166736575
 11
54.4174082603
 21
137.3166736575
  0
LINE
  5
4B6
100
AcDbEntity
  8
0
100
AcDbLine
 62
2
  6
CONTINUOUS
 10
55.4174082603
 20
199.3166736575
 11
55.4174082603
 21
168.3166736575
  0
LINE
  5
4B7
100
AcDbEntity
  8
0
100
AcDbLine
 62
2
  6
CONTINUOUS
 10
55.4174082603
 20
137.3166736575
 11
55.4174082603
 21
168.3166736575
  0
INSERT
  5
4B8
100
AcDbEntity
  8
0
100
AcDbBlockReference
 62
2
  6
CONTINUOUS
  2
_FILLED
 10
55.4174082603
 20
199.3166736575
 41
3.5
 42
3.5
 43
3.5
 50
90.0
  0
INSERT
  5
4B9
100
AcDbEntity
  8
0
100
AcDbBlockReference
 62
2
  6
CONTINUOUS
  2
_FILLED
 10
55.4174082603
 20
137.3166736575
 41
3.5
 42
3.5
 43
3.5
 50
270.0
  0
ENDBLK
  5
4BA
100
AcDbEntity
  8
0
  6
BYBLOCK
 62
0
100
AcDbBlockEnd
  0
BLOCK
  5
4BB
100
AcDbEntity
  8
0
100
AcDbBlockBegin
 62
2
  6
CONTINUOUS
  2
*D2
 70
65
 10
0.0
 20
0.0
  3
*D2
  1

  0
TEXT
  5
4BC
100
AcDbEntity
  8
0
100
AcDbText
 62
5
  6
CONTINUOUS
 10
105.7924082603
 20
189.7273879432
  7
STANDARD
 40
2.5
  1
134
 50
90.0
 72
5
 11
105.7924082603
 21
194.9059593718
100
AcDbText
  0
LINE
  5
4BD
100
AcDbEntity
  8
0
100
AcDbLine
 62
2
  6
CONTINUOUS
 10
85.2174082603
 20
125.3166736575
 11
107.4174082603
 21
125.3166736575
  0
LINE
  5
4BE
100
AcDbEntity
  8
0
100
AcDbLine
 62
2
  6
CONTINUOUS
 10
92.9326931713
 20
259.3166736575
 11
107.4174082603
 21
259.3166736575
  0
LINE
  5
4BF
100
AcDbEntity
  8
0
100
AcDbLine
 62
2
  6
CONTINUOUS
 10
106.4174082603
 20
125.3166736575
 11
106.4174082603
 21
192.3166736575
  0
LINE
  5
4C0
100
AcDbEntity
  8
0
100
AcDbLine
 62
2
  6
CONTINUOUS
 10
106.4174082603
 20
259.3166736575
 11
106.4174082603
 21
192.3166736575
  0
INSERT
  5
4C1
100
AcDbEntity
  8
0
100
AcDbBlockReference
 62
2
  6
CONTINUOUS
  2
_FILLED
 10
106.4174082603
 20
125.3166736575
 41
3.5
 42
3.5
 43
3.5
 50
270.0
  0
INSERT
  5
4C2
100
AcDbEntity
  8
0
100
AcDbBlockReference
 62
2
  6
CONTINUOUS
  2
_FILLED
 10
106.4174082603
 20
259.3166736575
 41
3.5
 42
3.5
 43
3.5
 50
90.0
  0
ENDBLK
  5
4C3
100
AcDbEntity
  8
0
  6
BYBLOCK
 62
0
100
AcDbBlockEnd
  0
BLOCK
  5
4C4
100
AcDbEntity
  8
0
100
AcDbBlockBegin
 62
2
  6
CONTINUOUS
  2
*D3
 70
65
 10
0.0
 20
0.0
  3
*D3
  1

  0
TEXT
  5
4C5
100
AcDbEntity
  8
0
100
AcDbText
 62
5
  6
CONTINUOUS
 10
98.7924082603
 20
235.9416736575
  7
STANDARD
 40
2.5
  1
43
 50
90.0
 72
5
 11
98.7924082603
 21
239.6916736575
100
AcDbText
  0
LINE
  5
4C6
100
AcDbEntity
  8
0
100
AcDbLine
 62
2
  6
CONTINUOUS
 10
85.2174082603
 20
216.3166736575
 11
100.4174082603
 21
216.3166736575
  0
LINE
  5
4C7
100
AcDbEntity
  8
0
100
AcDbLine
 62
2
  6
CONTINUOUS
 10
92.9326931713
 20
259.3166736575
 11
100.4174082603
 21
259.3166736575
  0
LINE
  5
4C8
100
AcDbEntity
  8
0
100
AcDbLine
 62
2
  6
CONTINUOUS
 10
99.4174082603
 20
216.3166736575
 11
99.4174082603
 21
237.8166736575
  0
LINE
  5
4C9
100
AcDbEntity
  8
0
100
AcDbLine
 62
2
  6
CONTINUOUS
 10
99.4174082603
 20
259.3166736575
 11
99.4174082603
 21
237.8166736575
  0
INSERT
  5
4CA
100
AcDbEntity
  8
0
100
AcDbBlockReference
 62
2
  6
CONTINUOUS
  2
_FILLED
 10
99.4174082603
 20
216.3166736575
 41
3.5
 42
3.5
 43
3.5
 50
270.0
  0
INSERT
  5
4CB
100
AcDbEntity
  8
0
100
AcDbBlockReference
 62
2
  6
CONTINUOUS
  2
_FILLED
 10
99.4174082603
 20
259.3166736575
 41
3.5
 42
3.5
 43
3.5
 50
90.0
  0
ENDBLK
  5
4CC
100
AcDbEntity
  8
0
  6
BYBLOCK
 62
0
100
AcDbBlockEnd
  0
BLOCK
  5
4CD
100
AcDbEntity
  8
0
100
AcDbBlockBegin
 62
2
  6
CONTINUOUS
  2
*D4
 70
65
 10
0.0
 20
0.0
  3
*D4
  1

  0
TEXT
  5
4CE
100
AcDbEntity
  8
0
100
AcDbText
 62
5
  6
CONTINUOUS
 10
105.7924082603
 20
285.0845308003
  7
STANDARD
 40
2.5
  1
58.5
 50
90.0
 72
5
 11
105.7924082603
 21
292.0488165146
100
AcDbText
  0
LINE
  5
4CF
100
AcDbEntity
  8
0
100
AcDbLine
 62
2
  6
CONTINUOUS
 10
92.9326931713
 20
259.3166736575
 11
107.4174082603
 21
259.3166736575
  0
LINE
  5
4D0
100
AcDbEntity
  8
0
100
AcDbLine
 62
2
  6
CONTINUOUS
 10
85.2174082603
 20
317.8166736575
 11
107.4174082603
 21
317.8166736575
  0
LINE
  5
4D1
100
AcDbEntity
  8
0
100
AcDbLine
 62
2
  6
CONTINUOUS
 10
106.4174082603
 20
259.3166736575
 11
106.4174082603
 21
288.5666736575
  0
LINE
  5
4D2
100
AcDbEntity
  8
0
100
AcDbLine
 62
2
  6
CONTINUOUS
 10
106.4174082603
 20
317.8166736575
 11
106.4174082603
 21
288.5666736575
  0
INSERT
  5
4D3
100
AcDbEntity
  8
0
100
AcDbBlockReference
 62
2
  6
CONTINUOUS
  2
_FILLED
 10
106.4174082603
 20
259.3166736575
 41
3.5
 42
3.5
 43
3.5
 50
270.0
  0
INSERT
  5
4D4
100
AcDbEntity
  8
0
100
AcDbBlockReference
 62
2
  6
CONTINUOUS
  2
_FILLED
 10
106.4174082603
 20
317.8166736575
 41
3.5
 42
3.5
 43
3.5
 50
90.0
  0
ENDBLK
  5
4D5
100
AcDbEntity
  8
0
  6
BYBLOCK
 62
0
100
AcDbBlockEnd
  0
BLOCK
  5
4D6
100
AcDbEntity
  8
0
100
AcDbBlockBegin
 62
2
  6
CONTINUOUS
  2
*D5
 70
65
 10
0.0
 20
0.0
  3
*D5
  1

  0
TEXT
  5
4D7
100
AcDbEntity
  8
0
100
AcDbText
 62
5
  6
CONTINUOUS
 10
75.453122546
 20
338.7901877021
  7
STANDARD
 40
2.5
  1
24
 72
5
 11
79.3816939746
 21
338.7901877021
100
AcDbText
  0
LINE
  5
4D8
100
AcDbEntity
  8
0
100
AcDbLine
 62
2
  6
CONTINUOUS
 10
65.4174082603
 20
329.8166736575
 11
65.4174082603
 21
339.1651877021
  0
LINE
  5
4D9
100
AcDbEntity
  8
0
100
AcDbLine
 62
2
  6
CONTINUOUS
 10
89.4174082603
 20
329.8166736575
 11
89.4174082603
 21
339.1651877021
  0
LINE
  5
4DA
100
AcDbEntity
  8
0
100
AcDbLine
 62
2
  6
CONTINUOUS
 10
65.4174082603
 20
338.1651877021
 11
77.4174082603
 21
338.1651877021
  0
LINE
  5
4DB
100
AcDbEntity
  8
0
100
AcDbLine
 62
2
  6
CONTINUOUS
 10
89.4174082603
 20
338.1651877021
 11
77.4174082603
 21
338.1651877021
  0
INSERT
  5
4DC
100
AcDbEntity
  8
0
100
AcDbBlockReference
 62
2
  6
CONTINUOUS
  2
_FILLED
 10
65.4174082603
 20
338.1651877021
 41
3.5
 42
3.5
 43
3.5
 50
180.0
  0
INSERT
  5
4DD
100
AcDbEntity
  8
0
100
AcDbBlockReference
 62
2
  6
CONTINUOUS
  2
_FILLED
 10
89.4174082603
 20
338.1651877021
 41
3.5
 42
3.5
 43
3.5
  0
ENDBLK
  5
4DE
100
AcDbEntity
  8
0
  6
BYBLOCK
 62
0
100
AcDbBlockEnd
  0
BLOCK
  5
4DF
100
AcDbEntity
  8
0
100
AcDbBlockBegin
 62
2
  6
CONTINUOUS
  2
*D6
 70
65
 10
0.0
 20
0.0
  3
*D6
  1

  0
TEXT
  5
4E0
100
AcDbEntity
  8
0
100
AcDbText
 62
5
  6
CONTINUOUS
 10
47.7924082603
 20
212.120245086
  7
STANDARD
 40
2.5
  1
91
 50
90.0
 72
5
 11
47.7924082603
 21
215.5131022289
100
AcDbText
  0
LINE
  5
4E1
100
AcDbEntity
  8
0
100
AcDbLine
 62
2
  6
CONTINUOUS
 10
68.7660643854
 20
168.3166736575
 11
56.3723625818
 21
168.3166736575
  0
LINE
  5
4E2
100
AcDbEntity
  8
0
100
AcDbLine
 62
2
  6
CONTINUOUS
 10
51.7217259587
 20
168.3166736575
 11
47.4174082603
 21
168.3166736575
  0
LINE
  5
4E3
100
AcDbEntity
  8
0
100
AcDbLine
 62
2
  6
CONTINUOUS
 10
65.4174082603
 20
259.3166736575
 11
47.4174082603
 21
259.3166736575
  0
LINE
  5
4E4
100
AcDbEntity
  8
0
100
AcDbLine
 62
2
  6
CONTINUOUS
 10
48.4174082603
 20
168.3166736575
 11
48.4174082603
 21
213.8166736575
  0
LINE
  5
4E5
100
AcDbEntity
  8
0
100
AcDbLine
 62
2
  6
CONTINUOUS
 10
48.4174082603
 20
259.3166736575
 11
48.4174082603
 21
213.8166736575
  0
INSERT
  5
4E6
100
AcDbEntity
  8
0
100
AcDbBlockReference
 62
2
  6
CONTINUOUS
  2
_FILLED
 10
48.4174082603
 20
168.3166736575
 41
3.5
 42
3.5
 43
3.5
 50
270.0
  0
INSERT
  5
4E7
100
AcDbEntity
  8
0
100
AcDbBlockReference
 62
2
  6
CONTINUOUS
  2
_FILLED
 10
48.4174082603
 20
259.3166736575
 41
3.5
 42
3.5
 43
3.5
 50
90.0
  0
ENDBLK
  5
4E8
100
AcDbEntity
  8
0
  6
BYBLOCK
 62
0
100
AcDbBlockEnd
  0
BLOCK
  5
4E9
100
AcDbEntity
  8
0
100
AcDbBlockBegin
 62
2
  6
CONTINUOUS
  2
*D7
 70
65
 10
0.0
 20
0.0
  3
*D7
  1

  0
TEXT
  5
4EA
100
AcDbEntity
  8
0
100
AcDbText
 62
5
  6
CONTINUOUS
 10
40.7924082603
 20
217.2809593718
  7
STANDARD
 40
2.5
  1
216.5
 50
90.0
 72
5
 11
40.7924082603
 21
225.8523879432
100
AcDbText
  0
LINE
  5
4EB
100
AcDbEntity
  8
0
100
AcDbLine
 62
2
  6
CONTINUOUS
 10
65.4174082603
 20
329.8166736575
 11
40.4174082603
 21
329.8166736575
  0
LINE
  5
4EC
100
AcDbEntity
  8
0
100
AcDbLine
 62
2
  6
CONTINUOUS
 10
65.4174082603
 20
113.3166736575
 11
40.4174082603
 21
113.3166736575
  0
LINE
  5
4ED
100
AcDbEntity
  8
0
100
AcDbLine
 62
2
  6
CONTINUOUS
 10
41.4174082603
 20
329.8166736575
 11
41.4174082603
 21
221.5666736575
  0
LINE
  5
4EE
100
AcDbEntity
  8
0
100
AcDbLine
 62
2
  6
CONTINUOUS
 10
41.4174082603
 20
113.3166736575
 11
41.4174082603
 21
221.5666736575
  0
INSERT
  5
4EF
100
AcDbEntity
  8
0
100
AcDbBlockReference
 62
2
  6
CONTINUOUS
  2
_FILLED
 10
41.4174082603
 20
329.8166736575
 41
3.5
 42
3.5
 43
3.5
 50
90.0
  0
INSERT
  5
4F0
100
AcDbEntity
  8
0
100
AcDbBlockReference
 62
2
  6
CONTINUOUS
  2
_FILLED
 10
41.4174082603
 20
113.3166736575
 41
3.5
 42
3.5
 43
3.5
 50
270.0
  0
ENDBLK
  5
4F1
100
AcDbEntity
  8
0
  6
BYBLOCK
 62
0
100
AcDbBlockEnd
  0
BLOCK
  5
4F2
100
AcDbEntity
  8
0
100
AcDbBlockBegin
 62
2
  6
CONTINUOUS
  2
*D8
 70
65
 10
0.0
 20
0.0
  3
*D8
  1

  0
TEXT
  5
4F3
100
AcDbEntity
  8
0
100
AcDbText
 62
5
  6
CONTINUOUS
 10
14.4836081324
 20
340.4416736575
  7
STANDARD
 40
2.5
  1
3
 72
5
 11
16.2693224181
 21
340.4416736575
100
AcDbText
  0
LINE
  5
4F4
100
AcDbEntity
  8
0
100
AcDbLine
 62
2
  6
CONTINUOUS
 10
13.8764652753
 20
329.8166736575
 11
13.8764652753
 21
340.8166736575
  0
LINE
  5
4F5
100
AcDbEntity
  8
0
100
AcDbLine
 62
2
  6
CONTINUOUS
 10
16.8764652753
 20
329.8166736575
 11
16.8764652753
 21
340.8166736575
  0
LINE
  5
4F6
100
AcDbEntity
  8
0
100
AcDbLine
 62
2
  6
CONTINUOUS
 10
13.8764652753
 20
339.8166736575
 11
6.8764652753
 21
339.8166736575
  0
LINE
  5
4F7
100
AcDbEntity
  8
0
100
AcDbLine
 62
2
  6
CONTINUOUS
 10
6.8764652753
 20
339.8166736575
 11
15.3764652753
 21
339.8166736575
  0
LINE
  5
4F8
100
AcDbEntity
  8
0
100
AcDbLine
 62
2
  6
CONTINUOUS
 10
16.8764652753
 20
339.8166736575
 11
23.8764652753
 21
339.8166736575
  0
LINE
  5
4F9
100
AcDbEntity
  8
0
100
AcDbLine
 62
2
  6
CONTINUOUS
 10
23.8764652753
 20
339.8166736575
 11
15.3764652753
 21
339.8166736575
  0
INSERT
  5
4FA
100
AcDbEntity
  8
0
100
AcDbBlockReference
 62
2
  6
CONTINUOUS
  2
_FILLED
 10
13.8764652753
 20
339.8166736575
 41
3.5
 42
3.5
 43
3.5
  0
INSERT
  5
4FB
100
AcDbEntity
  8
0
100
AcDbBlockReference
 62
2
  6
CONTINUOUS
  2
_FILLED
 10
16.8764652753
 20
339.8166736575
 41
3.5
 42
3.5
 43
3.5
 50
180.0
  0
ENDBLK
  5
4FC
100
AcDbEntity
  8
0
  6
BYBLOCK
 62
0
100
AcDbBlockEnd
  0
BLOCK
  5
4FD
100
AcDbEntity
  8
0
100
AcDbBlockBegin
 62
2
  6
CONTINUOUS
  2
*D9
 70
65
 10
0.0
 20
0.0
  3
*D9
  1

  0
TEXT
  5
4FE
100
AcDbEntity
  8
0
100
AcDbText
 62
5
  6
CONTINUOUS
 10
15.8943224181
 20
347.4416736575
  7
STANDARD
 40
2.5
  1
6
 72
5
 11
17.8586081324
 21
347.4416736575
100
AcDbText
  0
LINE
  5
4FF
100
AcDbEntity
  8
0
100
AcDbLine
 62
2
  6
CONTINUOUS
 10
19.8764652753
 20
290.3166736575
 11
19.8764652753
 21
338.7752889242
  0
LINE
  5
500
100
AcDbEntity
  8
0
100
AcDbLine
 62
2
  6
CONTINUOUS
 10
19.8764652753
 20
340.9294290369
 11
19.8764652753
 21
347.8166736575
  0
LINE
  5
501
100
AcDbEntity
  8
0
100
AcDbLine
 62
2
  6
CONTINUOUS
 10
13.8764652753
 20
329.8166736575
 11
13.8764652753
 21
347.8166736575
  0
LINE
  5
502
100
AcDbEntity
  8
0
100
AcDbLine
 62
2
  6
CONTINUOUS
 10
19.8764652753
 20
346.8166736575
 11
26.8764652753
 21
346.8166736575
  0
LINE
  5
503
100
AcDbEntity
  8
0
100
AcDbLine
 62
2
  6
CONTINUOUS
 10
26.8764652753
 20
346.8166736575
 11
16.8764652753
 21
346.8166736575
  0
LINE
  5
504
100
AcDbEntity
  8
0
100
AcDbLine
 62
2
  6
CONTINUOUS
 10
13.8764652753
 20
346.8166736575
 11
6.8764652753
 21
346.8166736575
  0
LINE
  5
505
100
AcDbEntity
  8
0
100
AcDbLine
 62
2
  6
CONTINUOUS
 10
6.8764652753
 20
346.8166736575
 11
16.8764652753
 21
346.8166736575
  0
INSERT
  5
506
100
AcDbEntity
  8
0
100
AcDbBlockReference
 62
2
  6
CONTINUOUS
  2
_FILLED
 10
19.8764652753
 20
346.8166736575
 41
3.5
 42
3.5
 43
3.5
 50
180.0
  0
INSERT
  5
507
100
AcDbEntity
  8
0
100
AcDbBlockReference
 62
2
  6
CONTINUOUS
  2
_FILLED
 10
13.8764652753
 20
346.8166736575
 41
3.5
 42
3.5
 43
3.5
  0
ENDBLK
  5
508
100
AcDbEntity
  8
0
  6
BYBLOCK
 62
0
100
AcDbBlockEnd
  0
ENDSEC
  0
SECTION
  2
ENTITIES
  0
DIMENSION
  5
509
100
AcDbEntity
  8
0
100
AcDbDimension
 62
2
  6
CONTINUOUS
  2
*D0
 10
83.5424082603
 20
204.5289842709
 11
77.4174082603
 21
204.5289842709
 70
160
 71
2
 42
12.25
  3
DIMSTYLE_1
100
AcDbAlignedDimension
 13
71.2924082603
 23
197.8166736575
 14
83.5424082603
 24
197.8166736575
100
AcDbRotatedDimension
  0
DIMENSION
  5
50A
100
AcDbEntity
  8
0
100
AcDbDimension
 62
2
  6
CONTINUOUS
  2
*D1
 10
55.4174082603
 20
137.3166736575
 11
55.4174082603
 21
168.3166736575
 70
160
 71
2
 42
62.0
  3
DIMSTYLE_2
100
AcDbAlignedDimension
 13
72.7924082603
 23
199.3166736575
 14
72.7924082603
 24
137.3166736575
 50
270.0
100
AcDbRotatedDimension
  0
DIMENSION
  5
50B
100
AcDbEntity
  8
0
100
AcDbDimension
 62
2
  6
CONTINUOUS
  2
*D2
 10
106.4174082603
 20
259.3166736575
 11
106.4174082603
 21
192.3166736575
 70
160
 71
2
 42
134.0
  3
DIMSTYLE_3
100
AcDbAlignedDimension
 13
85.2174082603
 23
125.3166736575
 14
92.9326931713
 24
259.3166736575
 50
90.0
100
AcDbRotatedDimension
  0
DIMENSION
  5
50C
100
AcDbEntity
  8
0
100
AcDbDimension
 62
2
  6
CONTINUOUS
  2
*D3
 10
99.4174082603
 20
259.3166736575
 11
99.4174082603
 21
237.8166736575
 70
160
 71
2
 42
43.0
  3
DIMSTYLE_2
100
AcDbAlignedDimension
 13
85.2174082603
 23
216.3166736575
 14
92.9326931713
 24
259.3166736575
 50
90.0
100
AcDbRotatedDimension
  0
DIMENSION
  5
50D
100
AcDbEntity
  8
0
100
AcDbDimension
 62
2
  6
CONTINUOUS
  2
*D4
 10
106.4174082603
 20
317.8166736575
 11
106.4174082603
 21
288.5666736575
 70
160
 71
2
 42
58.5
  3
DIMSTYLE_2
100
AcDbAlignedDimension
 13
92.9326931713
 23
259.3166736575
 14
85.2174082603
 24
317.8166736575
 50
90.0
100
AcDbRotatedDimension
  0
DIMENSION
  5
50E
100
AcDbEntity
  8
0
100
AcDbDimension
 62
2
  6
CONTINUOUS
  2
*D5
 10
89.4174082603
 20
338.1651877021
 11
77.4174082603
 21
338.1651877021
 70
160
 71
2
 42
24.0
  3
DIMSTYLE_4
100
AcDbAlignedDimension
 13
65.4174082603
 23
329.8166736575
 14
89.4174082603
 24
329.8166736575
100
AcDbRotatedDimension
  0
DIMENSION
  5
50F
100
AcDbEntity
  8
0
100
AcDbDimension
 62
2
  6
CONTINUOUS
  2
*D6
 10
48.4174082603
 20
259.3166736575
 11
48.4174082603
 21
213.8166736575
 70
160
 71
2
 42
91.0
  3
DIMSTYLE_2
100
AcDbAlignedDimension
 13
68.7660643854
 23
168.3166736575
 14
65.4174082603
 24
259.3166736575
 50
90.0
100
AcDbRotatedDimension
  0
DIMENSION
  5
510
100
AcDbEntity
  8
0
100
AcDbDimension
 62
2
  6
CONTINUOUS
  2
*D7
 10
41.4174082603
 20
113.3166736575
 11
41.4174082603
 21
221.5666736575
 70
160
 71
2
 42
216.5
  3
DIMSTYLE_3
100
AcDbAlignedDimension
 13
65.4174082603
 23
329.8166736575
 14
65.4174082603
 24
113.3166736575
 50
270.0
100
AcDbRotatedDimension
  0
DIMENSION
  5
511
100
AcDbEntity
  8
0
100
AcDbDimension
 62
2
  6
CONTINUOUS
  2
*D8
 10
16.8764652753
 20
339.8166736575
 11
15.3764652753
 21
339.8166736575
 70
160
 71
2
 42
3.0
  3
DIMSTYLE_5
100
AcDbAlignedDimension
 13
13.8764652753
 23
329.8166736575
 14
16.8764652753
 24
329.8166736575
100
AcDbRotatedDimension
  0
DIMENSION
  5
512
100
AcDbEntity
  8
0
100
AcDbDimension
 62
2
  6
CONTINUOUS
  2
*D9
 10
13.8764652753
 20
346.8166736575
 11
16.8764652753
 21
346.8166736575
 70
160
 71
2
 42
6.0
  3
DIMSTYLE_5
100
AcDbAlignedDimension
 13
19.8764652753
 23
290.3166736575
 14
13.8764652753
 24
329.8166736575
 50
180.0
100
AcDbRotatedDimension
  0
INSERT
  5
513
100
AcDbEntity
  8
0
100
AcDbBlockReference
 62
2
  6
CONTINUOUS
  2
SYMBOL_0_BL8
 10
31.0000000239
 20
34.9999999785
  0
LINE
  5
514
100
AcDbEntity
  8
S-AXIS
100
AcDbLine
 62
7
  6
CENTER
 10
23.2767166139
 20
82.4611198917
 11
9.8764428523
 21
82.4611198917
  0
INSERT
  5
515
100
AcDbEntity
  8
94862701R00_BL0
100
AcDbBlockReference
  2
94862701R00_BL0
 10
50.1469367678
 20
200.1388967746
  0
INSERT
  5
516
100
AcDbEntity
  8
93780800R00_BL1
100
AcDbBlockReference
  2
93780800R00_BL1
 10
81.4174082603
 20
274.8166736575
  0
INSERT
  5
517
100
AcDbEntity
  8
93894203000_BL2
100
AcDbBlockReference
  2
93894203000_BL2
 10
52.1469367678
 20
181.3888967746
  0
INSERT
  5
518
100
AcDbEntity
  8
93780800R00_BL3
100
AcDbBlockReference
  2
93780800R00_BL3
 10
81.4174082603
 20
243.8166736575
  0
INSERT
  5
519
100
AcDbEntity
  8
93894102000_BL4
100
AcDbBlockReference
  2
93894102000_BL4
 10
49.6469367678
 20
185.6388967746
  0
INSERT
  5
51A
100
AcDbEntity
  8
62890299000_O03_BL5
100
AcDbBlockReference
  2
62890299000_O03_BL5
 10
51.4045680118
 20
259.3166736575
  0
INSERT
  5
51B
100
AcDbEntity
  8
91324206R00_BL6
100
AcDbBlockReference
  2
91324206R00_BL6
 10
79.4174082603
 20
233.0666736575
  0
INSERT
  5
51C
100
AcDbEntity
  8
91324206R00_BL7
100
AcDbBlockReference
  2
91324206R00_BL7
 10
79.4174082603
 20
285.5666736575
  0
ENDSEC
  0
SECTION
  2
OBJECTS
  0
DICTIONARY
  5
C
100
AcDbDictionary
280
0
281
1
  3
ACAD_GROUP
350
D
  3
ACAD_MLINESTYLE
350
17
  3
ACAD_LAYOUT
350
1A
  3
ACAD_PLOTSETTINGS
350
19
  3
ACAD_PLOTSTYLENAME
350
E
  0
DICTIONARY
  5
D
102
{ACAD_REACTORS
330
C
102
}
100
AcDbDictionary
280
0
281
1
  0
ACDBDICTIONARYWDFLT
  5
E
102
{ACAD_REACTORS
330
C
102
}
100
AcDbDictionary
281
1
  3
Normal
350
F
100
AcDbDictionaryWithDefault
340
F
  0
DICTIONARY
  5
17
102
{ACAD_REACTORS
330
C
102
}
100
AcDbDictionary
280
0
281
1
  3
Standard
350
18
  0
DICTIONARY
  5
19
102
{ACAD_REACTORS
330
C
102
}
100
AcDbDictionary
281
1
  0
DICTIONARY
  5
1A
102
{ACAD_REACTORS
330
C
102
}
100
AcDbDictionary
281
1
  3
Model
350
51D
  3
Layout1
350
51E
  0
ACDBPLACEHOLDER
  5
F
102
{ACAD_REACTORS
330
E
102
}
  0
MLINESTYLE
  5
18
102
{ACAD_REACTORS
330
17
102
}
100
AcDbMlineStyle
  2
STANDARD
 70
0
  3

 62
256
 51
90.0
 52
90.0
 71
2
 49
0.5
 62
256
  6
BYLAYER
 49
-0.5
 62
256
  6
BYLAYER
  0
LAYOUT
  5
51D
102
{ACAD_REACTORS
330
1A
102
}
100
AcDbPlotSettings
  1

  2
none_device
  4

  6

 40
0.0
 41
0.0
 42
0.0
 43
0.0
 44
120.0
 45
355.0
 46
0.0
 47
0.0
 48
0.0
 49
0.0
140
0.0
141
0.0
142
1.0
143
1.0
 70
1024
 72
1
 73
0
 74
0
  7

 75
0
147
1.0
148
0.0
149
0.0
100
AcDbLayout
  1
Model
 70
0
 71
0
 10
0.0
 20
0.0
 11
120.0
 21
355.0
 12
0.0
 22
0.0
 32
0.0
 14
0.0
 24
0.0
 34
0.0
 15
0.0
 25
0.0
 35
0.0
146
0.0
 13
0.0
 23
0.0
 33
0.0
 16
1.0
 26
0.0
 36
0.0
 17
0.0
 27
1.0
 37
0.0
 76
0
330
217
345
0
346
0
  0
LAYOUT
  5
51E
102
{ACAD_REACTORS
330
1A
102
}
100
AcDbPlotSettings
  1

  2
none_device
  4

  6

 40
0.0
 41
0.0
 42
0.0
 43
0.0
 44
120.0
 45
355.0
 46
0.0
 47
0.0
 48
0.0
 49
0.0
140
0.0
141
0.0
142
1.0
143
1.0
 70
0
 72
1
 73
0
 74
0
  7

 75
0
147
1.0
148
0.0
149
0.0
100
AcDbLayout
  1
Layout1
 70
0
 71
1
 10
0.0
 20
0.0
 11
120.0
 21
355.0
 12
0.0
 22
0.0
 32
0.0
 14
0.0
 24
0.0
 34
0.0
 15
0.0
 25
0.0
 35
0.0
146
0.0
 13
0.0
 23
0.0
 33
0.0
 16
1.0
 26
0.0
 36
0.0
 17
0.0
 27
1.0
 37
0.0
 76
0
330
218
345
0
346
0
  0
ENDSEC
  0
EOF
