  0
SECTION
  2
HEADER
  9
$ACADVER
  1
AC1021
  9
$DWGCODEPAGE
  3
ANSI_1252
  9
$EXTMAX
 10
120.0
 20
355.0
 30
0.0
  9
$EXTMIN
 10
0.0
 20
0.0
 30
0.0
  9
$LIMMIN
 10
0.0
 20
0.0
  9
$LIMMAX
 10
120.0
 20
355.0
  9
$VIEWCTR
 10
60.0
 20
177.5
  9
$VIEWSIZE
 40
355.0
  9
$CLAYER
  8
0
  9
$LTSCALE
 40
23.1407407407
  9
$CELTYPE
  6
BYLAYER
  9
$DIMSCALE
 40
1.0
  9
$DIMASZ
 40
3.5
  9
$DIMEXO
 40
0.0
  9
$DIMDLI
 40
15.9881481481
  9
$DIMEXE
 40
1.0
  9
$DIMCEN
 40
3.7866666667
  9
$DIMLFAC
 40
1.0
  9
$DIMBLK
  1
_FILLED
  9
$DIMTXT
 40
2.5
  9
$DIMTOL
 70
1
  9
$DIMLIM
 70
0
  9
$DIMTFAC
 40
1.0
  9
$DIMTP
 40
0.001
  9
$DIMTM
 40
0.001
  9
$DIMGAP
 40
0.625
  9
$DIMDSEP
 70
46
  9
$PDMODE
 70
3
  9
$PDSIZE
 40
2.0
  9
$HANDSEED
  5
52F
  9
$TILEMODE
 70
1
  9
$MEASUREMENT
 70
1
  9
$INSUNITS
 70
4
  0
ENDSEC
  0
SECTION
  2
CLASSES
  0
CLASS
  1
ACDBDICTIONARYWDFLT
  2
AcDbDictionaryWithDefault
  3
AutoCAD 2000
 90
0
 91
1
280
0
281
0
  0
CLASS
  1
ACDBPLACEHOLDER
  2
AcDbPlaceHolder
  3
AutoCAD 2000
 90
0
 91
1
280
0
281
0
  0
CLASS
  1
LAYOUT
  2
AcDbLayout
  3
AutoCAD 2000
 90
0
 91
0
280
0
281
0
  0
ENDSEC
  0
SECTION
  2
TABLES
  0
TABLE
  2
VPORT
  5
8
100
AcDbSymbolTable
 70
2
  0
VPORT
  5
1F4
100
AcDbSymbolTableRecord
100
AcDbViewportTableRecord
  2
*ACTIVE
 70
0
 10
0.0
 20
0.0
 11
1.0
 21
1.0
 12
60.0
 22
177.5
 13
0.0
 23
0.0
 14
1.0
 24
1.0
 15
0.0
 25
0.0
 16
0.0
 26
0.0
 36
1.0
 17
0.0
 27
0.0
 37
0.0
 40
355.0
 41
0.338028169
 42
50.0
 43
0.0
 44
0.0
 50
0.0
 51
0.0
 71
0
 72
100
 73
1
 74
1
 75
0
 76
0
 77
0
 78
0
  0
ENDTAB
  0
TABLE
  2
LTYPE
  5
5
100
AcDbSymbolTable
 70
6
  0
LTYPE
  5
14
100
AcDbSymbolTableRecord
100
AcDbLinetypeTableRecord
  2
BYBLOCK
 70
0
  3

 72
65
 73
0
 40
0.0
  0
LTYPE
  5
15
100
AcDbSymbolTableRecord
100
AcDbLinetypeTableRecord
  2
BYLAYER
 70
0
  3

 72
65
 73
0
 40
0.0
  0
LTYPE
  5
16
100
AcDbSymbolTableRecord
100
AcDbLinetypeTableRecord
  2
CONTINUOUS
 70
64
  3
Solid line
 72
65
 73
0
 40
0.0
  0
LTYPE
  5
1F5
100
AcDbSymbolTableRecord
100
AcDbLinetypeTableRecord
  2
CENTER
 70
64
  3
____ _ ____ _ ____ _ ____ _ ____ _ ____ _ ____
 72
65
 73
4
 40
0.6
 49
0.375
 74
0
 49
-0.075
 74
0
 49
0.075
 74
0
 49
-0.075
 74
0
  0
LTYPE
  5
1F6
100
AcDbSymbolTableRecord
100
AcDbLinetypeTableRecord
  2
HIDDEN
 70
64
  3
- - - - - - - - - - - - - - - - - - - -
 72
65
 73
2
 40
0.2
 49
0.1
 74
0
 49
-0.1
 74
0
  0
LTYPE
  5
1F7
100
AcDbSymbolTableRecord
100
AcDbLinetypeTableRecord
  2
PHANTOM
 70
64
  3
_____ _ _ _____ _ _ _____ _ _ _____
 72
65
 73
6
 40
0.8
 49
0.45
 74
0
 49
-0.05
 74
0
 49
0.1
 74
0
 49
-0.05
 74
0
 49
0.1
 74
0
 49
-0.05
 74
0
  0
LTYPE
  5
1F8
100
AcDbSymbolTableRecord
100
AcDbLinetypeTableRecord
  2
DOT
 70
64
  3
. . . . . . . . . . . . . . . . . . . .
 72
65
 73
2
 40
0.2
 49
0.1
 74
0
 49
-0.1
 74
0
  0
LTYPE
  5
1F9
100
AcDbSymbolTableRecord
100
AcDbLinetypeTableRecord
  2
DASHED
 70
64
  3
- - - - - - - - - - - - - - - - - - - -
 72
65
 73
2
 40
0.2
 49
0.1
 74
0
 49
-0.1
 74
0
  0
ENDTAB
  0
TABLE
  2
LAYER
  5
2
100
AcDbSymbolTable
 70
36
  0
LAYER
  5
10
100
AcDbSymbolTableRecord
100
AcDbLayerTableRecord
  2
0
 70
0
 62
7
  6
CONTINUOUS
370
-3
390
F
  0
LAYER
  5
1FA
100
AcDbSymbolTableRecord
100
AcDbLayerTableRecord
  2
DEFAULT_1
 70
0
 62
7
  6
CENTER
370
-3
390
F
  0
LAYER
  5
1FB
100
AcDbSymbolTableRecord
100
AcDbLayerTableRecord
  2
DEFAULT_2
 70
0
 62
8
  6
HIDDEN
370
-3
390
F
  0
LAYER
  5
1FC
100
AcDbSymbolTableRecord
100
AcDbLayerTableRecord
  2
DEFAULT_3
 70
0
 62
7
  6
PHANTOM
370
-3
390
F
  0
LAYER
  5
1FD
100
AcDbSymbolTableRecord
100
AcDbLayerTableRecord
  2
AXIS
 70
0
 62
7
  6
CONTINUOUS
370
-3
390
F
  0
LAYER
  5
1FE
100
AcDbSymbolTableRecord
100
AcDbLayerTableRecord
  2
COORDSYS
 70
0
 62
7
  6
CONTINUOUS
370
-3
390
F
  0
LAYER
  5
1FF
100
AcDbSymbolTableRecord
100
AcDbLayerTableRecord
  2
CURVES
 70
0
 62
7
  6
CONTINUOUS
370
-3
390
F
  0
LAYER
  5
200
100
AcDbSymbolTableRecord
100
AcDbLayerTableRecord
  2
EINBAUREFERENZ
 70
0
 62
7
  6
CONTINUOUS
370
-3
390
F
  0
LAYER
  5
201
100
AcDbSymbolTableRecord
100
AcDbLayerTableRecord
  2
KOSMETIK
 70
0
 62
7
  6
CONTINUOUS
370
-3
390
F
  0
LAYER
  5
202
100
AcDbSymbolTableRecord
100
AcDbLayerTableRecord
  2
KURVE
 70
0
 62
7
  6
CONTINUOUS
370
-3
390
F
  0
LAYER
  5
203
100
AcDbSymbolTableRecord
100
AcDbLayerTableRecord
  2
PLANES
 70
0
 62
7
  6
CONTINUOUS
370
-3
390
F
  0
LAYER
  5
204
100
AcDbSymbolTableRecord
100
AcDbLayerTableRecord
  2
POINTS
 70
0
 62
7
  6
CONTINUOUS
370
-3
390
F
  0
LAYER
  5
205
100
AcDbSymbolTableRecord
100
AcDbLayerTableRecord
  2
PROFIL-EINBAULAGE
 70
0
 62
7
  6
CONTINUOUS
370
-3
390
F
  0
LAYER
  5
206
100
AcDbSymbolTableRecord
100
AcDbLayerTableRecord
  2
S-AXIS
 70
0
 62
7
  6
CONTINUOUS
370
-3
390
F
  0
LAYER
  5
207
100
AcDbSymbolTableRecord
100
AcDbLayerTableRecord
  2
S-COORDSYS
 70
0
 62
7
  6
CONTINUOUS
370
-3
390
F
  0
LAYER
  5
208
100
AcDbSymbolTableRecord
100
AcDbLayerTableRecord
  2
S-PLANES
 70
0
 62
7
  6
CONTINUOUS
370
-3
390
F
  0
LAYER
  5
209
100
AcDbSymbolTableRecord
100
AcDbLayerTableRecord
  2
THREADS
 70
0
 62
7
  6
CONTINUOUS
370
-3
390
F
  0
LAYER
  5
20A
100
AcDbSymbolTableRecord
100
AcDbLayerTableRecord
  2
XSEC_DATUMS
 70
0
 62
7
  6
CONTINUOUS
370
-3
390
F
  0
LAYER
  5
20B
100
AcDbSymbolTableRecord
100
AcDbLayerTableRecord
  2
94862701L00_BL0
 70
0
 62
7
  6
CONTINUOUS
370
-3
390
F
  0
LAYER
  5
20C
100
AcDbSymbolTableRecord
100
AcDbLayerTableRecord
  2
93894203000_BL1
 70
0
 62
7
  6
CONTINUOUS
370
-3
390
F
  0
LAYER
  5
20D
100
AcDbSymbolTableRecord
100
AcDbLayerTableRecord
  2
93780800R00_BL2
 70
0
 62
7
  6
CONTINUOUS
370
-3
390
F
  0
LAYER
  5
20E
100
AcDbSymbolTableRecord
100
AcDbLayerTableRecord
  2
93894102000_BL3
 70
0
 62
7
  6
CONTINUOUS
370
-3
390
F
  0
LAYER
  5
20F
100
AcDbSymbolTableRecord
100
AcDbLayerTableRecord
  2
93780800R00_BL4
 70
0
 62
7
  6
CONTINUOUS
370
-3
390
F
  0
LAYER
  5
210
100
AcDbSymbolTableRecord
100
AcDbLayerTableRecord
  2
62890299000_O03_BL5
 70
0
 62
7
  6
CONTINUOUS
370
-3
390
F
  0
LAYER
  5
211
100
AcDbSymbolTableRecord
100
AcDbLayerTableRecord
  2
91324206R00_BL6
 70
0
 62
7
  6
CONTINUOUS
370
-3
390
F
  0
LAYER
  5
212
100
AcDbSymbolTableRecord
100
AcDbLayerTableRecord
  2
91324206R00_BL7
 70
0
 62
7
  6
CONTINUOUS
370
-3
390
F
  0
ENDTAB
  0
TABLE
  2
STYLE
  5
3
100
AcDbSymbolTable
 70
1
  0
STYLE
  5
11
100
AcDbSymbolTableRecord
100
AcDbTextStyleTableRecord
  2
STANDARD
 70
0
 40
0.0
 41
0.8
 50
0.0
 71
0
 42
0.2
  3
txt
  4

  0
STYLE
  5
213
100
AcDbSymbolTableRecord
100
AcDbTextStyleTableRecord
  2
TEXTSTYLE_1
 70
0
 40
0.0
 41
0.8
 50
0.0
 71
0
 42
0.2
  3
gdt
  4

  0
STYLE
  5
214
100
AcDbSymbolTableRecord
100
AcDbTextStyleTableRecord
  2
TEXTSTYLE_2
 70
0
 40
0.0
 41
1.0
 50
0.0
 71
0
 42
0.2
  3
arialbd.ttf
  4

  0
STYLE
  5
215
100
AcDbSymbolTableRecord
100
AcDbTextStyleTableRecord
  2
TEXTSTYLE_3
 70
0
 40
0.0
 41
1.0
 50
0.0
 71
0
 42
0.2
  3
arial.ttf
  4

  0
ENDTAB
  0
TABLE
  2
VIEW
  5
6
100
AcDbSymbolTable
 70
0
  0
ENDTAB
  0
TABLE
  2
UCS
  5
7
100
AcDbSymbolTable
 70
0
  0
ENDTAB
  0
TABLE
  2
APPID
  5
9
100
AcDbSymbolTable
 70
1
  0
APPID
  5
216
100
AcDbSymbolTableRecord
100
AcDbRegAppTableRecord
  2
ACAD
 70
0
  0
ENDTAB
  0
TABLE
  2
BLOCK_RECORD
  5
1
100
AcDbSymbolTable
 70
0
  0
BLOCK_RECORD
  5
217
100
AcDbSymbolTableRecord
100
AcDbBlockTableRecord
  2
*Model_Space
  0
BLOCK_RECORD
  5
218
100
AcDbSymbolTableRecord
100
AcDbBlockTableRecord
  2
*Paper_Space
  0
BLOCK_RECORD
  5
219
100
AcDbSymbolTableRecord
100
AcDbBlockTableRecord
  2
_FILLED
  0
BLOCK_RECORD
  5
21A
100
AcDbSymbolTableRecord
100
AcDbBlockTableRecord
  2
*D0
  0
BLOCK_RECORD
  5
21B
100
AcDbSymbolTableRecord
100
AcDbBlockTableRecord
  2
*D1
  0
BLOCK_RECORD
  5
21C
100
AcDbSymbolTableRecord
100
AcDbBlockTableRecord
  2
*D2
  0
BLOCK_RECORD
  5
21D
100
AcDbSymbolTableRecord
100
AcDbBlockTableRecord
  2
*D3
  0
BLOCK_RECORD
  5
21E
100
AcDbSymbolTableRecord
100
AcDbBlockTableRecord
  2
*D4
  0
BLOCK_RECORD
  5
21F
100
AcDbSymbolTableRecord
100
AcDbBlockTableRecord
  2
*D5
  0
BLOCK_RECORD
  5
220
100
AcDbSymbolTableRecord
100
AcDbBlockTableRecord
  2
*D6
  0
BLOCK_RECORD
  5
221
100
AcDbSymbolTableRecord
100
AcDbBlockTableRecord
  2
*D7
  0
BLOCK_RECORD
  5
222
100
AcDbSymbolTableRecord
100
AcDbBlockTableRecord
  2
*D8
  0
BLOCK_RECORD
  5
223
100
AcDbSymbolTableRecord
100
AcDbBlockTableRecord
  2
*D9
  0
BLOCK_RECORD
  5
224
100
AcDbSymbolTableRecord
100
AcDbBlockTableRecord
  2
SYMBOL_0_BL8
  0
BLOCK_RECORD
  5
225
100
AcDbSymbolTableRecord
100
AcDbBlockTableRecord
  2
94862701L00_BL0
  0
BLOCK_RECORD
  5
226
100
AcDbSymbolTableRecord
100
AcDbBlockTableRecord
  2
93894203000_BL1
  0
BLOCK_RECORD
  5
227
100
AcDbSymbolTableRecord
100
AcDbBlockTableRecord
  2
93780800R00_BL2
  0
BLOCK_RECORD
  5
228
100
AcDbSymbolTableRecord
100
AcDbBlockTableRecord
  2
93894102000_BL3
  0
BLOCK_RECORD
  5
229
100
AcDbSymbolTableRecord
100
AcDbBlockTableRecord
  2
93780800R00_BL4
  0
BLOCK_RECORD
  5
22A
100
AcDbSymbolTableRecord
100
AcDbBlockTableRecord
  2
62890299000_O03_BL5
  0
BLOCK_RECORD
  5
22B
100
AcDbSymbolTableRecord
100
AcDbBlockTableRecord
  2
91324206R00_BL6
  0
BLOCK_RECORD
  5
22C
100
AcDbSymbolTableRecord
100
AcDbBlockTableRecord
  2
91324206R00_BL7
  0
ENDTAB
  0
TABLE
  2
DIMSTYLE
  5
A
100
AcDbSymbolTable
 70
1
100
AcDbDimStyleTable
 71
0
  0
DIMSTYLE
105
22D
100
AcDbSymbolTableRecord
100
AcDbDimStyleTableRecord
  2
STANDARD
 70
0
  3

  4

 40
1.0
 41
3.5
 42
0.0
 43
0.38
 44
1.0
 45
0.0
 46
0.0
 47
0.001
 48
0.001
140
2.5
141
0.09
142
0.0
143
25.4
144
1.0
145
0.0
146
1.0
147
0.625
 71
1.0
 72
0.0
 73
0
 74
0
 75
0
 76
0
 77
1
 78
8
170
0
171
2
172
0
173
0
174
0
175
0
176
0
177
0
178
5
270
2
271
3
272
3
273
2
274
2
275
0
280
0
281
0
282
0
283
1
284
8
285
0
286
0
287
3
288
0
340
11
278
46
341
219
342
219
343
219
344
219
  0
DIMSTYLE
105
22E
100
AcDbSymbolTableRecord
100
AcDbDimStyleTableRecord
  2
DIMSTYLE_1
 70
0
  3

  4

 40
1.0
 41
3.5
 42
0.0
 43
0.38
 44
1.0
 45
0.0
 46
0.0
 47
0.5
 48
0.5
140
2.5
141
0.09
142
0.0
143
25.4
144
1.0
145
0.0
146
1.0
147
0.625
 71
0.0
 72
0.0
 73
0
 74
0
 75
0
 76
0
 77
1
 78
8
170
0
171
2
172
0
173
0
174
0
175
0
176
0
177
0
178
5
270
2
271
3
272
3
273
2
274
2
275
0
280
0
281
0
282
0
283
1
284
8
285
0
286
0
287
3
288
0
340
11
278
46
341
219
342
219
343
219
344
219
  0
DIMSTYLE
105
22F
100
AcDbSymbolTableRecord
100
AcDbDimStyleTableRecord
  2
DIMSTYLE_2
 70
0
  3

  4

 40
1.0
 41
3.5
 42
0.0
 43
0.38
 44
1.0
 45
0.0
 46
0.0
 47
0.3
 48
0.3
140
2.5
141
0.09
142
0.0
143
25.4
144
1.0
145
0.0
146
1.0
147
0.625
 71
0.0
 72
0.0
 73
0
 74
0
 75
0
 76
0
 77
1
 78
8
170
0
171
2
172
0
173
0
174
0
175
0
176
0
177
0
178
5
270
2
271
3
272
3
273
2
274
2
275
0
280
0
281
0
282
0
283
1
284
8
285
0
286
0
287
3
288
0
340
11
278
46
341
219
342
219
343
219
344
219
  0
DIMSTYLE
105
230
100
AcDbSymbolTableRecord
100
AcDbDimStyleTableRecord
  2
DIMSTYLE_3
 70
0
  3

  4

 40
1.0
 41
3.5
 42
0.0
 43
0.38
 44
1.0
 45
0.0
 46
0.0
 47
0.2
 48
0.2
140
2.5
141
0.09
142
0.0
143
25.4
144
1.0
145
0.0
146
1.0
147
0.625
 71
0.0
 72
0.0
 73
0
 74
0
 75
0
 76
0
 77
1
 78
8
170
0
171
2
172
0
173
0
174
0
175
0
176
0
177
0
178
5
270
2
271
3
272
3
273
2
274
2
275
0
280
0
281
0
282
0
283
1
284
8
285
0
286
0
287
3
288
0
340
11
278
46
341
219
342
219
343
219
344
219
  0
DIMSTYLE
105
231
100
AcDbSymbolTableRecord
100
AcDbDimStyleTableRecord
  2
DIMSTYLE_4
 70
0
  3

  4

 40
1.0
 41
3.5
 42
0.0
 43
0.38
 44
1.0
 45
0.0
 46
0.0
 47
0.2
 48
0.2
140
2.5
141
0.09
142
0.0
143
25.4
144
1.0
145
0.0
146
1.0
147
0.625
 71
0.0
 72
0.0
 73
0
 74
0
 75
0
 76
0
 77
1
 78
8
170
0
171
2
172
0
173
0
174
0
175
0
176
0
177
0
178
5
270
2
271
1
272
1
273
2
274
2
275
0
280
0
281
0
282
0
283
1
284
8
285
0
286
0
287
3
288
0
340
11
278
46
341
219
342
219
343
219
344
219
  0
DIMSTYLE
105
232
100
AcDbSymbolTableRecord
100
AcDbDimStyleTableRecord
  2
DIMSTYLE_5
 70
0
  3

  4

 40
1.0
 41
3.5
 42
0.0
 43
0.38
 44
1.0
 45
0.0
 46
0.0
 47
0.1
 48
0.1
140
2.5
141
0.09
142
0.0
143
25.4
144
1.0
145
0.0
146
1.0
147
0.625
 71
0.0
 72
0.0
 73
0
 74
0
 75
0
 76
0
 77
1
 78
8
170
0
171
2
172
0
173
0
174
0
175
0
176
0
177
0
178
5
270
2
271
3
272
3
273
2
274
2
275
0
280
0
281
0
282
0
283
1
284
8
285
0
286
0
287
3
288
0
340
11
278
46
341
219
342
219
343
219
344
219
  0
ENDTAB
  0
ENDSEC
  0
SECTION
  2
BLOCKS
  0
BLOCK
  5
20
100
AcDbEntity
  8
0
100
AcDbBlockBegin
  2
*Model_Space
 70
0
 10
0.0
 20
0.0
 30
0.0
  3
*Model_Space
  1

  0
ENDBLK
  5
21
100
AcDbEntity
  8
0
100
AcDbBlockEnd
  0
BLOCK
  5
1C
100
AcDbEntity
  8
0
100
AcDbBlockBegin
  2
*Paper_Space
 70
0
 10
0.0
 20
0.0
 30
0.0
  3
*Paper_Space
  1

  0
ENDBLK
  5
1D
100
AcDbEntity
  8
0
100
AcDbBlockEnd
  0
BLOCK
  5
233
100
AcDbEntity
  8
0
100
AcDbBlockBegin
 62
2
  6
CONTINUOUS
  2
SYMBOL_0_BL8
 70
64
 10
31.0000000239
 20
34.9999999785
  3
SYMBOL_0_BL8
  1

  0
TEXT
  5
234
100
AcDbEntity
  8
0
100
AcDbText
 62
5
  6
CONTINUOUS
 10
11.6434778505
 20
32.1908716548
  7
TEXTSTYLE_2
 40
4.0
  1
6-37368-01-L
 72
5
 11
45.4873440215
 21
32.1908716548
100
AcDbText
  0
TEXT
  5
235
100
AcDbEntity
  8
0
100
AcDbText
 62
5
  6
CONTINUOUS
 10
10.9089559916
 20
24.1776342906
  7
TEXTSTYLE_3
 40
2.5
  1
Scale
 72
5
 11
19.6357217908
 21
24.1776342906
100
AcDbText
  0
TEXT
  5
236
100
AcDbEntity
  8
0
100
AcDbText
 62
5
  6
CONTINUOUS
 10
10.9089559916
 20
20.4276342906
  7
TEXTSTYLE_3
 40
2.5
  1
1:1
 72
5
 11
15.7602571068
 21
20.4276342906
100
AcDbText
  0
TEXT
  5
237
100
AcDbEntity
  8
0
100
AcDbText
 62
5
  6
CONTINUOUS
 10
10.9089559916
 20
13.0518233866
  7
TEXTSTYLE_3
 40
2.5
  1
Draft
 72
5
 11
18.4647180733
 21
13.0518233866
100
AcDbText
  0
TEXT
  5
238
100
AcDbEntity
  8
0
100
AcDbText
 62
5
  6
CONTINUOUS
 10
23.3811982505
 20
13.113338109
  7
TEXTSTYLE_3
 40
2.5
  1
23.03.2017
 72
5
 11
40.8533172096
 21
13.113338109
100
AcDbText
  0
TEXT
  5
239
100
AcDbEntity
  8
0
100
AcDbText
 62
5
  6
CONTINUOUS
 10
45.71759366
 20
13.1067461609
  7
TEXTSTYLE_3
 40
2.5
  1
Dr
 72
5
 11
49.435065779
 21
13.1067461609
100
AcDbText
  0
LINE
  5
23A
100
AcDbEntity
  8
0
100
AcDbLine
 62
2
  6
CONTINUOUS
 10
10.0000000239
 20
59.9999999785
 11
52.0000000239
 21
59.9999999785
  0
LINE
  5
23B
100
AcDbEntity
  8
0
100
AcDbLine
 62
2
  6
CONTINUOUS
 10
52.0000000239
 20
59.9999999785
 11
52.0000000239
 21
9.9999999785
  0
LINE
  5
23C
100
AcDbEntity
  8
0
100
AcDbLine
 62
2
  6
CONTINUOUS
 10
10.0000000239
 20
9.9999999785
 11
52.0000000239
 21
9.9999999785
  0
LINE
  5
23D
100
AcDbEntity
  8
0
100
AcDbLine
 62
2
  6
CONTINUOUS
 10
10.0000000239
 20
39.9999999785
 11
21.0000000239
 21
39.9999999785
  0
LINE
  5
23E
100
AcDbEntity
  8
0
100
AcDbLine
 62
2
  6
CONTINUOUS
 10
10.0000000239
 20
27.9999999785
 11
21.0000000239
 21
27.9999999785
  0
LINE
  5
23F
100
AcDbEntity
  8
0
100
AcDbLine
 62
2
  6
CONTINUOUS
 10
10.0000000239
 20
18.9999999785
 11
21.0000000239
 21
18.9999999785
  0
LINE
  5
240
100
AcDbEntity
  8
0
100
AcDbLine
 62
2
  6
CONTINUOUS
 10
21.0000000239
 20
39.9999999785
 11
43.0000000239
 21
39.9999999785
  0
LINE
  5
241
100
AcDbEntity
  8
0
100
AcDbLine
 62
2
  6
CONTINUOUS
 10
43.0000000239
 20
39.9999999785
 11
52.0000000239
 21
39.9999999785
  0
LINE
  5
242
100
AcDbEntity
  8
0
100
AcDbLine
 62
2
  6
CONTINUOUS
 10
21.0000000239
 20
27.9999999785
 11
43.0000000239
 21
27.9999999785
  0
LINE
  5
243
100
AcDbEntity
  8
0
100
AcDbLine
 62
2
  6
CONTINUOUS
 10
43.0000000239
 20
27.9999999785
 11
52.0000000239
 21
27.9999999785
  0
LINE
  5
244
100
AcDbEntity
  8
0
100
AcDbLine
 62
2
  6
CONTINUOUS
 10
21.0000000239
 20
18.9999999785
 11
21.0000000239
 21
9.9999999785
  0
LINE
  5
245
100
AcDbEntity
  8
0
100
AcDbLine
 62
2
  6
CONTINUOUS
 10
21.0000000239
 20
18.9999999785
 11
43.0000000239
 21
18.9999999785
  0
LINE
  5
246
100
AcDbEntity
  8
0
100
AcDbLine
 62
2
  6
CONTINUOUS
 10
43.0000000239
 20
18.9999999785
 11
43.0000000239
 21
9.9999999785
  0
LINE
  5
247
100
AcDbEntity
  8
0
100
AcDbLine
 62
2
  6
CONTINUOUS
 10
43.0000000239
 20
18.9999999785
 11
52.0000000239
 21
18.9999999785
  0
LINE
  5
248
100
AcDbEntity
  8
0
100
AcDbLine
 62
2
  6
CONTINUOUS
 10
10.0000000239
 20
9.9999999785
 11
10.0000000239
 21
59.9999999785
  0
ARC
  5
249
100
AcDbEntity
  8
0
100
AcDbCircle
 62
2
  6
CONTINUOUS
 10
17.6290122978
 20
56.1308274644
 40
1.2679261569
100
AcDbArc
 50
90.0
 51
180.0
  0
LINE
  5
24A
100
AcDbEntity
  8
0
100
AcDbLine
 62
2
  6
CONTINUOUS
 10
17.6290122978
 20
57.3987536213
 11
44.0849627663
 21
57.3987536213
  0
ARC
  5
24B
100
AcDbEntity
  8
0
100
AcDbCircle
 62
2
  6
CONTINUOUS
 10
44.0849627663
 20
56.1308274644
 40
1.2679261569
100
AcDbArc
 50
0.0
 51
90.0
  0
LINE
  5
24C
100
AcDbEntity
  8
0
100
AcDbLine
 62
2
  6
CONTINUOUS
 10
45.3528889231
 20
56.1308274644
 11
45.3528889231
 21
43.6666783678
  0
ARC
  5
24D
100
AcDbEntity
  8
0
100
AcDbCircle
 62
2
  6
CONTINUOUS
 10
44.0849627663
 20
43.6666783678
 40
1.2679261569
100
AcDbArc
 50
270.0
 51
360.0
  0
LINE
  5
24E
100
AcDbEntity
  8
0
100
AcDbLine
 62
2
  6
CONTINUOUS
 10
44.0849627663
 20
42.3987522109
 11
17.6290122978
 21
42.3987522109
  0
ARC
  5
24F
100
AcDbEntity
  8
0
100
AcDbCircle
 62
2
  6
CONTINUOUS
 10
17.6290122978
 20
43.6666783678
 40
1.2679261569
100
AcDbArc
 50
180.0
 51
270.0
  0
LINE
  5
250
100
AcDbEntity
  8
0
100
AcDbLine
 62
2
  6
CONTINUOUS
 10
16.3610861409
 20
43.6666783678
 11
16.3610861409
 21
56.1308274644
  0
ARC
  5
251
100
AcDbEntity
  8
0
100
AcDbCircle
 62
2
  6
CONTINUOUS
 10
25.0981141224
 20
49.7181091975
 40
2.8108394023
100
AcDbArc
 50
35.2282226131
 51
336.934010569
  0
LINE
  5
252
100
AcDbEntity
  8
0
100
AcDbLine
 62
2
  6
CONTINUOUS
 10
27.3941788183
 20
51.3394990511
 11
29.5865173301
 21
52.961744213
  0
ARC
  5
253
100
AcDbEntity
  8
0
100
AcDbCircle
 62
2
  6
CONTINUOUS
 10
25.0981141224
 20
49.7181091975
 40
5.5377731507
100
AcDbArc
 50
35.8545159817
 51
11.4705154501
  0
LINE
  5
254
100
AcDbEntity
  8
0
100
AcDbLine
 62
2
  6
CONTINUOUS
 10
30.5252822719
 20
50.8193709036
 11
25.2029961896
 21
50.8193709036
  0
ARC
  5
255
100
AcDbEntity
  8
0
100
AcDbCircle
 62
2
  6
CONTINUOUS
 10
25.2029961896
 20
49.7181091975
 40
1.1012617061
100
AcDbArc
 50
90.0
 51
270.0
  0
LINE
  5
256
100
AcDbEntity
  8
0
100
AcDbLine
 62
2
  6
CONTINUOUS
 10
25.2029961896
 20
48.6168474914
 11
27.6842387906
 21
48.6168474914
  0
ARC
  5
257
100
AcDbEntity
  8
0
100
AcDbCircle
 62
2
  6
CONTINUOUS
 10
25.2029961896
 20
49.7181091975
 40
5.9153485927
100
AcDbArc
 50
349.2706340045
 51
10.7293659955
  0
LINE
  5
258
100
AcDbEntity
  8
0
100
AcDbLine
 62
2
  6
CONTINUOUS
 10
31.014929743
 20
48.6168474914
 11
32.8593870987
 21
48.6168474914
  0
LINE
  5
259
100
AcDbEntity
  8
0
100
AcDbLine
 62
2
  6
CONTINUOUS
 10
32.8593870987
 20
48.6168474914
 11
32.8593870987
 21
48.0399961216
  0
ARC
  5
25A
100
AcDbEntity
  8
0
100
AcDbCircle
 62
2
  6
CONTINUOUS
 10
36.7610000003
 20
48.0399961216
 40
3.9016129016
100
AcDbArc
 50
180.0
 51
360.0
  0
LINE
  5
25B
100
AcDbEntity
  8
0
100
AcDbLine
 62
2
  6
CONTINUOUS
 10
40.6626129019
 20
48.0399961216
 11
40.6626129019
 21
54.9622125599
  0
LINE
  5
25C
100
AcDbEntity
  8
0
100
AcDbLine
 62
2
  6
CONTINUOUS
 10
40.6626129019
 20
54.9622125599
 11
37.9356791535
 21
54.9622125599
  0
LINE
  5
25D
100
AcDbEntity
  8
0
100
AcDbLine
 62
2
  6
CONTINUOUS
 10
37.9356791535
 20
54.9622125599
 11
37.9356791535
 21
48.0399961216
  0
ARC
  5
25E
100
AcDbEntity
  8
0
100
AcDbCircle
 62
2
  6
CONTINUOUS
 10
36.7610000003
 20
48.0399961216
 40
1.1746791532
100
AcDbArc
 50
180.0
 51
360.0
  0
LINE
  5
25F
100
AcDbEntity
  8
0
100
AcDbLine
 62
2
  6
CONTINUOUS
 10
35.5863208471
 20
48.0399961216
 11
35.5863208471
 21
54.9622125599
  0
LINE
  5
260
100
AcDbEntity
  8
0
100
AcDbLine
 62
2
  6
CONTINUOUS
 10
35.5863208471
 20
54.9622125599
 11
32.8593870987
 21
54.9622125599
  0
LINE
  5
261
100
AcDbEntity
  8
0
100
AcDbLine
 62
2
  6
CONTINUOUS
 10
32.8593870987
 20
54.9622125599
 11
32.8593870987
 21
50.8193709036
  0
LINE
  5
262
100
AcDbEntity
  8
0
100
AcDbLine
 62
2
  6
CONTINUOUS
 10
32.8593870987
 20
50.8193709036
 11
31.014929743
 21
50.8193709036
  0
LINE
  5
263
100
AcDbEntity
  8
0
100
AcDbLine
 62
2
  6
CONTINUOUS
 10
45.1996126437
 20
56.7334185992
 11
45.2185459944
 21
56.6972621935
  0
LWPOLYLINE
  5
264
100
AcDbEntity
  8
0
100
AcDbPolyline
 62
2
  6
CONTINUOUS
 90
42
 70
0
 10
17.4964779251
 20
57.3918123624
 10
17.6290122978
 20
57.398757363
 10
44.0849627663
 20
57.398757363
 10
44.217497139
 20
57.3918123624
 10
44.3485794374
 20
57.3710523604
 10
44.4767734964
 20
57.3367023572
 10
44.600674795
 20
57.2891373527
 10
44.7189258447
 20
57.2288823471
 10
44.8302310623
 20
57.1565973403
 10
44.9333709645
 20
57.0730773324
 10
45.0272155289
 20
56.9792373236
 10
45.1107365748
 20
56.8760973139
 10
45.1830190283
 20
56.7647973034
 10
45.2432709475
 20
56.6465372923
 10
45.2908322
 20
56.5226372807
 10
45.3251816945
 20
56.3944472686
 10
45.345943091
 20
56.2633622563
 10
45.3528889232
 20
56.1308222438
 10
24.5102931399
 20
55.2245960958
 10
23.6929701738
 20
55.0746474408
 10
22.9072856488
 20
54.8040901322
 10
22.1709301607
 20
54.4190160805
 10
21.5004836049
 20
53.9280956735
 10
20.9110418611
 20
53.3423825519
 10
20.4158768919
 20
52.6750647241
 10
20.0261379092
 20
51.9411676226
 10
16.3610861409
 20
43.6666760719
 10
16.3610861409
 20
56.1308222438
 10
16.368031973
 20
56.2633622563
 10
16.3887933695
 20
56.3944472686
 10
16.4231428641
 20
56.5226372807
 10
16.4707041165
 20
56.6465372923
 10
16.5309560358
 20
56.7647973034
 10
16.6032384892
 20
56.8760973139
 10
16.6867595352
 20
56.9792373236
 10
16.7806040996
 20
57.0730773324
 10
16.8837440018
 20
57.1565973403
 10
16.9950492193
 20
57.2288823471
 10
17.113300269
 20
57.2891373527
 10
17.2372015677
 20
57.3367023572
 10
17.3653956267
 20
57.3710523604
 10
17.4964779251
 20
57.3918123624
  0
HATCH
  5
265
100
AcDbEntity
  8
0
100
AcDbHatch
 62
2
  6
CONTINUOUS
 10
0.0
 20
0.0
 30
0.0
210
0.0
220
0.0
230
1.0
  2
SOLID
 70
1
 71
1
 91
1
 92
1
 93
41
 72
1
 10
17.4964779251
 20
57.3918123624
 11
17.6290122978
 21
57.398757363
 72
1
 10
17.6290122978
 20
57.398757363
 11
44.0849627663
 21
57.398757363
 72
1
 10
44.0849627663
 20
57.398757363
 11
44.217497139
 21
57.3918123624
 72
1
 10
44.217497139
 20
57.3918123624
 11
44.3485794374
 21
57.3710523604
 72
1
 10
44.3485794374
 20
57.3710523604
 11
44.4767734964
 21
57.3367023572
 72
1
 10
44.4767734964
 20
57.3367023572
 11
44.600674795
 21
57.2891373527
 72
1
 10
44.600674795
 20
57.2891373527
 11
44.7189258447
 21
57.2288823471
 72
1
 10
44.7189258447
 20
57.2288823471
 11
44.8302310623
 21
57.1565973403
 72
1
 10
44.8302310623
 20
57.1565973403
 11
44.9333709645
 21
57.0730773324
 72
1
 10
44.9333709645
 20
57.0730773324
 11
45.0272155289
 21
56.9792373236
 72
1
 10
45.0272155289
 20
56.9792373236
 11
45.1107365748
 21
56.8760973139
 72
1
 10
45.1107365748
 20
56.8760973139
 11
45.1830190283
 21
56.7647973034
 72
1
 10
45.1830190283
 20
56.7647973034
 11
45.2432709475
 21
56.6465372923
 72
1
 10
45.2432709475
 20
56.6465372923
 11
45.2908322
 21
56.5226372807
 72
1
 10
45.2908322
 20
56.5226372807
 11
45.3251816945
 21
56.3944472686
 72
1
 10
45.3251816945
 20
56.3944472686
 11
45.345943091
 21
56.2633622563
 72
1
 10
45.345943091
 20
56.2633622563
 11
45.3528889232
 21
56.1308222438
 72
1
 10
45.3528889232
 20
56.1308222438
 11
24.5102931399
 21
55.2245960958
 72
1
 10
24.5102931399
 20
55.2245960958
 11
23.6929701738
 21
55.0746474408
 72
1
 10
23.6929701738
 20
55.0746474408
 11
22.9072856488
 21
54.8040901322
 72
1
 10
22.9072856488
 20
54.8040901322
 11
22.1709301607
 21
54.4190160805
 72
1
 10
22.1709301607
 20
54.4190160805
 11
21.5004836049
 21
53.9280956735
 72
1
 10
21.5004836049
 20
53.9280956735
 11
20.9110418611
 21
53.3423825519
 72
1
 10
20.9110418611
 20
53.3423825519
 11
20.4158768919
 21
52.6750647241
 72
1
 10
20.4158768919
 20
52.6750647241
 11
20.0261379092
 21
51.9411676226
 72
1
 10
20.0261379092
 20
51.9411676226
 11
16.3610861409
 21
43.6666760719
 72
1
 10
16.3610861409
 20
43.6666760719
 11
16.3610861409
 21
56.1308222438
 72
1
 10
16.3610861409
 20
56.1308222438
 11
16.368031973
 21
56.2633622563
 72
1
 10
16.368031973
 20
56.2633622563
 11
16.3887933695
 21
56.3944472686
 72
1
 10
16.3887933695
 20
56.3944472686
 11
16.4231428641
 21
56.5226372807
 72
1
 10
16.4231428641
 20
56.5226372807
 11
16.4707041165
 21
56.6465372923
 72
1
 10
16.4707041165
 20
56.6465372923
 11
16.5309560358
 21
56.7647973034
 72
1
 10
16.5309560358
 20
56.7647973034
 11
16.6032384892
 21
56.8760973139
 72
1
 10
16.6032384892
 20
56.8760973139
 11
16.6867595352
 21
56.9792373236
 72
1
 10
16.6867595352
 20
56.9792373236
 11
16.7806040996
 21
57.0730773324
 72
1
 10
16.7806040996
 20
57.0730773324
 11
16.8837440018
 21
57.1565973403
 72
1
 10
16.8837440018
 20
57.1565973403
 11
16.9950492193
 21
57.2288823471
 72
1
 10
16.9950492193
 20
57.2288823471
 11
17.113300269
 21
57.2891373527
 72
1
 10
17.113300269
 20
57.2891373527
 11
17.2372015677
 21
57.3367023572
 72
1
 10
17.2372015677
 20
57.3367023572
 11
17.3653956267
 21
57.3710523604
 72
1
 10
17.3653956267
 20
57.3710523604
 11
17.4964779251
 21
57.3918123624
 97
1
330
264
 75
0
 76
1
 98
1
 10
0.0
 20
0.0
  0
LWPOLYLINE
  5
266
100
AcDbEntity
  8
0
100
AcDbPolyline
 62
2
  6
CONTINUOUS
 90
23
 70
0
 10
26.9669939813
 20
54.9309989471
 10
26.1659444963
 20
55.151954039
 10
45.3528889232
 20
56.1308222438
 10
45.3528889231
 20
43.6666760719
 10
40.1398958888
 20
46.0891912997
 10
40.3656203039
 20
46.5469163427
 10
40.5296686661
 20
47.0301863881
 10
40.6292340626
 20
47.5307364352
 10
40.6626129019
 20
48.0400014831
 10
40.6626129019
 20
54.9622171339
 10
37.9356791535
 20
54.9622171339
 10
35.5863208471
 20
54.9622171339
 10
32.8593870987
 20
54.9622171339
 10
32.8593870987
 20
50.8193667444
 10
31.0149297429
 20
50.8193667444
 10
30.6289655903
 20
49.9949006497
 10
30.5252822719
 20
50.8193667444
 10
27.3941788183
 20
51.3394990511
 10
29.5865173301
 20
52.961744213
 10
29.0506384437
 20
53.5968310176
 10
28.425763901
 20
54.1445839144
 10
27.7259634749
 20
54.5926696135
 10
26.9669939813
 20
54.9309989471
  0
HATCH
  5
267
100
AcDbEntity
  8
0
100
AcDbHatch
 62
2
  6
CONTINUOUS
 10
0.0
 20
0.0
 30
0.0
210
0.0
220
0.0
230
1.0
  2
SOLID
 70
1
 71
1
 91
1
 92
1
 93
22
 72
1
 10
26.9669939813
 20
54.9309989471
 11
26.1659444963
 21
55.151954039
 72
1
 10
26.1659444963
 20
55.151954039
 11
45.3528889232
 21
56.1308222438
 72
1
 10
45.3528889232
 20
56.1308222438
 11
45.3528889231
 21
43.6666760719
 72
1
 10
45.3528889231
 20
43.6666760719
 11
40.1398958888
 21
46.0891912997
 72
1
 10
40.1398958888
 20
46.0891912997
 11
40.3656203039
 21
46.5469163427
 72
1
 10
40.3656203039
 20
46.5469163427
 11
40.5296686661
 21
47.0301863881
 72
1
 10
40.5296686661
 20
47.0301863881
 11
40.6292340626
 21
47.5307364352
 72
1
 10
40.6292340626
 20
47.5307364352
 11
40.6626129019
 21
48.0400014831
 72
1
 10
40.6626129019
 20
48.0400014831
 11
40.6626129019
 21
54.9622171339
 72
1
 10
40.6626129019
 20
54.9622171339
 11
37.9356791535
 21
54.9622171339
 72
1
 10
37.9356791535
 20
54.9622171339
 11
35.5863208471
 21
54.9622171339
 72
1
 10
35.5863208471
 20
54.9622171339
 11
32.8593870987
 21
54.9622171339
 72
1
 10
32.8593870987
 20
54.9622171339
 11
32.8593870987
 21
50.8193667444
 72
1
 10
32.8593870987
 20
50.8193667444
 11
31.0149297429
 21
50.8193667444
 72
1
 10
31.0149297429
 20
50.8193667444
 11
30.6289655903
 21
49.9949006497
 72
1
 10
30.6289655903
 20
49.9949006497
 11
30.5252822719
 21
50.8193667444
 72
1
 10
30.5252822719
 20
50.8193667444
 11
27.3941788183
 21
51.3394990511
 72
1
 10
27.3941788183
 20
51.3394990511
 11
29.5865173301
 21
52.961744213
 72
1
 10
29.5865173301
 20
52.961744213
 11
29.0506384437
 21
53.5968310176
 72
1
 10
29.0506384437
 20
53.5968310176
 11
28.425763901
 21
54.1445839144
 72
1
 10
28.425763901
 20
54.1445839144
 11
27.7259634749
 21
54.5926696135
 72
1
 10
27.7259634749
 20
54.5926696135
 11
26.9669939813
 21
54.9309989471
 97
1
330
266
 75
0
 76
1
 98
1
 10
0.0
 20
0.0
  0
LWPOLYLINE
  5
268
100
AcDbEntity
  8
0
100
AcDbPolyline
 62
2
  6
CONTINUOUS
 90
20
 70
0
 10
24.5005684601
 20
52.4646993247
 10
24.9072650814
 20
52.5224620264
 10
25.3180376874
 20
52.5203318459
 10
25.7241133608
 20
52.4583542776
 10
26.1168194973
 20
52.3378529835
 10
26.4877690273
 20
52.1614015236
 10
26.8290395394
 20
51.9327683916
 10
27.1333424806
 20
51.6568365314
 10
27.3941788183
 20
51.3394990511
 10
30.5252822719
 20
50.8193667444
 10
25.2029961896
 20
50.8193667444
 10
25.0592526925
 20
50.8099494571
 10
22.4413895628
 20
50.6360595011
 10
22.6035508656
 20
51.0134749
 10
22.8189888395
 20
51.3632250264
 10
23.0831023513
 20
51.6778402269
 10
23.3902506985
 20
51.9506012291
 10
23.7338740791
 20
52.175682645
 10
24.1066336894
 20
52.3482773854
 10
24.5005684601
 20
52.4646993247
  0
HATCH
  5
269
100
AcDbEntity
  8
0
100
AcDbHatch
 62
2
  6
CONTINUOUS
 10
0.0
 20
0.0
 30
0.0
210
0.0
220
0.0
230
1.0
  2
SOLID
 70
1
 71
1
 91
1
 92
1
 93
19
 72
1
 10
24.5005684601
 20
52.4646993247
 11
24.9072650814
 21
52.5224620264
 72
1
 10
24.9072650814
 20
52.5224620264
 11
25.3180376874
 21
52.5203318459
 72
1
 10
25.3180376874
 20
52.5203318459
 11
25.7241133608
 21
52.4583542776
 72
1
 10
25.7241133608
 20
52.4583542776
 11
26.1168194973
 21
52.3378529835
 72
1
 10
26.1168194973
 20
52.3378529835
 11
26.4877690273
 21
52.1614015236
 72
1
 10
26.4877690273
 20
52.1614015236
 11
26.8290395394
 21
51.9327683916
 72
1
 10
26.8290395394
 20
51.9327683916
 11
27.1333424806
 21
51.6568365314
 72
1
 10
27.1333424806
 20
51.6568365314
 11
27.3941788183
 21
51.3394990511
 72
1
 10
27.3941788183
 20
51.3394990511
 11
30.5252822719
 21
50.8193667444
 72
1
 10
30.5252822719
 20
50.8193667444
 11
25.2029961896
 21
50.8193667444
 72
1
 10
25.2029961896
 20
50.8193667444
 11
25.0592526925
 21
50.8099494571
 72
1
 10
25.0592526925
 20
50.8099494571
 11
22.4413895628
 21
50.6360595011
 72
1
 10
22.4413895628
 20
50.6360595011
 11
22.6035508656
 21
51.0134749
 72
1
 10
22.6035508656
 20
51.0134749
 11
22.8189888395
 21
51.3632250264
 72
1
 10
22.8189888395
 20
51.3632250264
 11
23.0831023513
 21
51.6778402269
 72
1
 10
23.0831023513
 20
51.6778402269
 11
23.3902506985
 21
51.9506012291
 72
1
 10
23.3902506985
 20
51.9506012291
 11
23.7338740791
 21
52.175682645
 72
1
 10
23.7338740791
 20
52.175682645
 11
24.1066336894
 21
52.3482773854
 72
1
 10
24.1066336894
 20
52.3482773854
 11
24.5005684601
 21
52.4646993247
 97
1
330
268
 75
0
 76
1
 98
1
 10
0.0
 20
0.0
  0
LWPOLYLINE
  5
26A
100
AcDbEntity
  8
0
100
AcDbPolyline
 62
2
  6
CONTINUOUS
 90
8
 70
0
 10
24.6523653366
 20
50.6718298112
 10
24.5325905397
 20
50.5917988506
 10
22.3359682285
 20
50.2390393331
 10
22.4413895628
 20
50.6360595011
 10
25.0592526925
 20
50.8099494571
 10
24.9179686864
 20
50.7818463209
 10
24.78156158
 20
50.7355423477
 10
24.6523653366
 20
50.6718298112
  0
HATCH
  5
26B
100
AcDbEntity
  8
0
100
AcDbHatch
 62
2
  6
CONTINUOUS
 10
0.0
 20
0.0
 30
0.0
210
0.0
220
0.0
230
1.0
  2
SOLID
 70
1
 71
1
 91
1
 92
1
 93
7
 72
1
 10
24.6523653366
 20
50.6718298112
 11
24.5325905397
 21
50.5917988506
 72
1
 10
24.5325905397
 20
50.5917988506
 11
22.3359682285
 21
50.2390393331
 72
1
 10
22.3359682285
 20
50.2390393331
 11
22.4413895628
 21
50.6360595011
 72
1
 10
22.4413895628
 20
50.6360595011
 11
25.0592526925
 21
50.8099494571
 72
1
 10
25.0592526925
 20
50.8099494571
 11
24.9179686864
 21
50.7818463209
 72
1
 10
24.9179686864
 20
50.7818463209
 11
24.78156158
 21
50.7355423477
 72
1
 10
24.78156158
 20
50.7355423477
 11
24.6523653366
 21
50.6718298112
 97
1
330
26A
 75
0
 76
1
 98
1
 10
0.0
 20
0.0
  0
LWPOLYLINE
  5
26C
100
AcDbEntity
  8
0
100
AcDbPolyline
 62
2
  6
CONTINUOUS
 90
8
 70
0
 10
24.2492755759
 20
50.2687400506
 10
24.1855630394
 20
50.1395438071
 10
22.2895383581
 20
49.830893601
 10
22.3359682285
 20
50.2390393331
 10
24.5325905397
 20
50.5917988506
 10
24.4242865694
 20
50.4968188178
 10
24.3293065366
 20
50.3885148474
 10
24.2492755759
 20
50.2687400506
  0
HATCH
  5
26D
100
AcDbEntity
  8
0
100
AcDbHatch
 62
2
  6
CONTINUOUS
 10
0.0
 20
0.0
 30
0.0
210
0.0
220
0.0
230
1.0
  2
SOLID
 70
1
 71
1
 91
1
 92
1
 93
7
 72
1
 10
24.2492755759
 20
50.2687400506
 11
24.1855630394
 21
50.1395438071
 72
1
 10
24.1855630394
 20
50.1395438071
 11
22.2895383581
 21
49.830893601
 72
1
 10
22.2895383581
 20
49.830893601
 11
22.3359682285
 21
50.2390393331
 72
1
 10
22.3359682285
 20
50.2390393331
 11
24.5325905397
 21
50.5917988506
 72
1
 10
24.5325905397
 20
50.5917988506
 11
24.4242865694
 21
50.4968188178
 72
1
 10
24.4242865694
 20
50.4968188178
 11
24.3293065366
 21
50.3885148474
 72
1
 10
24.3293065366
 20
50.3885148474
 11
24.2492755759
 21
50.2687400506
 97
1
330
26C
 75
0
 76
1
 98
1
 10
0.0
 20
0.0
  0
LWPOLYLINE
  5
26E
100
AcDbEntity
  8
0
100
AcDbPolyline
 62
2
  6
CONTINUOUS
 90
7
 70
0
 10
31.0993048012
 20
50.1923388153
 10
31.1162282192
 20
49.8763366836
 10
30.6081153911
 20
49.1641981161
 10
30.6289655903
 20
49.9949006497
 10
31.0149297429
 20
50.8193667444
 10
31.0655063992
 20
50.5069837221
 10
31.0993048012
 20
50.1923388153
  0
HATCH
  5
26F
100
AcDbEntity
  8
0
100
AcDbHatch
 62
2
  6
CONTINUOUS
 10
0.0
 20
0.0
 30
0.0
210
0.0
220
0.0
230
1.0
  2
SOLID
 70
1
 71
1
 91
1
 92
1
 93
6
 72
1
 10
31.0993048012
 20
50.1923388153
 11
31.1162282192
 21
49.8763366836
 72
1
 10
31.1162282192
 20
49.8763366836
 11
30.6081153911
 21
49.1641981161
 72
1
 10
30.6081153911
 20
49.1641981161
 11
30.6289655903
 21
49.9949006497
 72
1
 10
30.6289655903
 20
49.9949006497
 11
31.0149297429
 21
50.8193667444
 72
1
 10
31.0149297429
 20
50.8193667444
 11
31.0655063992
 21
50.5069837221
 72
1
 10
31.0655063992
 20
50.5069837221
 11
31.0993048012
 21
50.1923388153
 97
1
330
26E
 75
0
 76
1
 98
1
 10
0.0
 20
0.0
  0
LWPOLYLINE
  5
270
100
AcDbEntity
  8
0
100
AcDbPolyline
 62
2
  6
CONTINUOUS
 90
7
 70
0
 10
24.1111559301
 20
49.8618526947
 10
24.1017344835
 20
49.7181091975
 10
22.3030915597
 20
49.4203391196
 10
22.2895383581
 20
49.830893601
 10
24.1855630394
 20
50.1395438071
 10
24.1392590662
 20
50.0031367007
 10
24.1111559301
 20
49.8618526947
  0
HATCH
  5
271
100
AcDbEntity
  8
0
100
AcDbHatch
 62
2
  6
CONTINUOUS
 10
0.0
 20
0.0
 30
0.0
210
0.0
220
0.0
230
1.0
  2
SOLID
 70
1
 71
1
 91
1
 92
1
 93
6
 72
1
 10
24.1111559301
 20
49.8618526947
 11
24.1017344835
 21
49.7181091975
 72
1
 10
24.1017344835
 20
49.7181091975
 11
22.3030915597
 21
49.4203391196
 72
1
 10
22.3030915597
 20
49.4203391196
 11
22.2895383581
 21
49.830893601
 72
1
 10
22.2895383581
 20
49.830893601
 11
24.1855630394
 21
50.1395438071
 72
1
 10
24.1855630394
 20
50.1395438071
 11
24.1392590662
 21
50.0031367007
 72
1
 10
24.1392590662
 20
50.0031367007
 11
24.1111559301
 21
49.8618526947
 97
1
330
270
 75
0
 76
1
 98
1
 10
0.0
 20
0.0
  0
LWPOLYLINE
  5
272
100
AcDbEntity
  8
0
100
AcDbPolyline
 62
2
  6
CONTINUOUS
 90
7
 70
0
 10
24.1392590662
 20
49.4330816944
 10
24.1855630394
 20
49.2966745879
 10
22.3763383759
 20
49.0161441476
 10
22.3030915597
 20
49.4203391196
 10
24.1017344835
 20
49.7181091975
 10
24.1111559301
 20
49.5743657004
 10
24.1392590662
 20
49.4330816944
  0
HATCH
  5
273
100
AcDbEntity
  8
0
100
AcDbHatch
 62
2
  6
CONTINUOUS
 10
0.0
 20
0.0
 30
0.0
210
0.0
220
0.0
230
1.0
  2
SOLID
 70
1
 71
1
 91
1
 92
1
 93
6
 72
1
 10
24.1392590662
 20
49.4330816944
 11
24.1855630394
 21
49.2966745879
 72
1
 10
24.1855630394
 20
49.2966745879
 11
22.3763383759
 21
49.0161441476
 72
1
 10
22.3763383759
 20
49.0161441476
 11
22.3030915597
 21
49.4203391196
 72
1
 10
22.3030915597
 20
49.4203391196
 11
24.1017344835
 21
49.7181091975
 72
1
 10
24.1017344835
 20
49.7181091975
 11
24.1111559301
 21
49.5743657004
 72
1
 10
24.1111559301
 20
49.5743657004
 11
24.1392590662
 21
49.4330816944
 97
1
330
272
 75
0
 76
1
 98
1
 10
0.0
 20
0.0
  0
LWPOLYLINE
  5
274
100
AcDbEntity
  8
0
100
AcDbPolyline
 62
2
  6
CONTINUOUS
 90
7
 70
0
 10
31.0993048012
 20
49.2438795798
 10
31.0655063992
 20
48.929234673
 10
30.4632011408
 20
48.3459675312
 10
30.6081153911
 20
49.1641981161
 10
31.1162282192
 20
49.8763366836
 10
31.1162282192
 20
49.5598817115
 10
31.0993048012
 20
49.2438795798
  0
HATCH
  5
275
100
AcDbEntity
  8
0
100
AcDbHatch
 62
2
  6
CONTINUOUS
 10
0.0
 20
0.0
 30
0.0
210
0.0
220
0.0
230
1.0
  2
SOLID
 70
1
 71
1
 91
1
 92
1
 93
6
 72
1
 10
31.0993048012
 20
49.2438795798
 11
31.0655063992
 21
48.929234673
 72
1
 10
31.0655063992
 20
48.929234673
 11
30.4632011408
 21
48.3459675312
 72
1
 10
30.4632011408
 20
48.3459675312
 11
30.6081153911
 21
49.1641981161
 72
1
 10
30.6081153911
 20
49.1641981161
 11
31.1162282192
 21
49.8763366836
 72
1
 10
31.1162282192
 20
49.8763366836
 11
31.1162282192
 21
49.5598817115
 72
1
 10
31.1162282192
 20
49.5598817115
 11
31.0993048012
 21
49.2438795798
 97
1
330
274
 75
0
 76
1
 98
1
 10
0.0
 20
0.0
  0
LWPOLYLINE
  5
276
100
AcDbEntity
  8
0
100
AcDbPolyline
 62
2
  6
CONTINUOUS
 90
7
 70
0
 10
24.3293065366
 20
49.0477035476
 10
24.4242865694
 20
48.9393995773
 10
22.5077144663
 20
48.6269411229
 10
22.3763383759
 20
49.0161441476
 10
24.1855630394
 20
49.2966745879
 10
24.2492755759
 20
49.1674783445
 10
24.3293065366
 20
49.0477035476
  0
HATCH
  5
277
100
AcDbEntity
  8
0
100
AcDbHatch
 62
2
  6
CONTINUOUS
 10
0.0
 20
0.0
 30
0.0
210
0.0
220
0.0
230
1.0
  2
SOLID
 70
1
 71
1
 91
1
 92
1
 93
6
 72
1
 10
24.3293065366
 20
49.0477035476
 11
24.4242865694
 21
48.9393995773
 72
1
 10
24.4242865694
 20
48.9393995773
 11
22.5077144663
 21
48.6269411229
 72
1
 10
22.5077144663
 20
48.6269411229
 11
22.3763383759
 21
49.0161441476
 72
1
 10
22.3763383759
 20
49.0161441476
 11
24.1855630394
 21
49.2966745879
 72
1
 10
24.1855630394
 20
49.2966745879
 11
24.2492755759
 21
49.1674783445
 72
1
 10
24.2492755759
 20
49.1674783445
 11
24.3293065366
 21
49.0477035476
 97
1
330
276
 75
0
 76
1
 98
1
 10
0.0
 20
0.0
  0
LWPOLYLINE
  5
278
100
AcDbEntity
  8
0
100
AcDbPolyline
 62
2
  6
CONTINUOUS
 90
9
 70
0
 10
24.9179686864
 20
48.6543720741
 10
25.0592526925
 20
48.626268938
 10
22.6944140166
 20
48.2610422989
 10
22.5077144663
 20
48.6269411229
 10
24.4242865694
 20
48.9393995773
 10
24.5325905397
 20
48.8444195445
 10
24.6523653366
 20
48.7643885839
 10
24.78156158
 20
48.7006760474
 10
24.9179686864
 20
48.6543720741
  0
HATCH
  5
279
100
AcDbEntity
  8
0
100
AcDbHatch
 62
2
  6
CONTINUOUS
 10
0.0
 20
0.0
 30
0.0
210
0.0
220
0.0
230
1.0
  2
SOLID
 70
1
 71
1
 91
1
 92
1
 93
8
 72
1
 10
24.9179686864
 20
48.6543720741
 11
25.0592526925
 21
48.626268938
 72
1
 10
25.0592526925
 20
48.626268938
 11
22.6944140166
 21
48.2610422989
 72
1
 10
22.6944140166
 20
48.2610422989
 11
22.5077144663
 21
48.6269411229
 72
1
 10
22.5077144663
 20
48.6269411229
 11
24.4242865694
 21
48.9393995773
 72
1
 10
24.4242865694
 20
48.9393995773
 11
24.5325905397
 21
48.8444195445
 72
1
 10
24.5325905397
 20
48.8444195445
 11
24.6523653366
 21
48.7643885839
 72
1
 10
24.6523653366
 20
48.7643885839
 11
24.78156158
 21
48.7006760474
 72
1
 10
24.78156158
 20
48.7006760474
 11
24.9179686864
 21
48.6543720741
 97
1
330
278
 75
0
 76
1
 98
1
 10
0.0
 20
0.0
  0
LWPOLYLINE
  5
27A
100
AcDbEntity
  8
0
100
AcDbPolyline
 62
2
  6
CONTINUOUS
 90
9
 70
0
 10
32.8593870987
 20
48.6168415373
 10
32.8593870987
 20
48.0400014831
 10
32.8927659379
 20
47.5307364352
 10
29.8169521117
 20
46.8199201942
 10
30.1974857512
 20
47.5586323028
 10
30.4632011408
 20
48.3459675312
 10
31.0655063992
 20
48.929234673
 10
31.0149297429
 20
48.6168415373
 10
32.8593870987
 20
48.6168415373
  0
HATCH
  5
27B
100
AcDbEntity
  8
0
100
AcDbHatch
 62
2
  6
CONTINUOUS
 10
0.0
 20
0.0
 30
0.0
210
0.0
220
0.0
230
1.0
  2
SOLID
 70
1
 71
1
 91
1
 92
1
 93
8
 72
1
 10
32.8593870987
 20
48.6168415373
 11
32.8593870987
 21
48.0400014831
 72
1
 10
32.8593870987
 20
48.0400014831
 11
32.8927659379
 21
47.5307364352
 72
1
 10
32.8927659379
 20
47.5307364352
 11
29.8169521117
 21
46.8199201942
 72
1
 10
29.8169521117
 20
46.8199201942
 11
30.1974857512
 21
47.5586323028
 72
1
 10
30.1974857512
 20
47.5586323028
 11
30.4632011408
 21
48.3459675312
 72
1
 10
30.4632011408
 20
48.3459675312
 11
31.0655063992
 21
48.929234673
 72
1
 10
31.0655063992
 20
48.929234673
 11
31.0149297429
 21
48.6168415373
 72
1
 10
31.0149297429
 20
48.6168415373
 11
32.8593870987
 21
48.6168415373
 97
1
330
27A
 75
0
 76
1
 98
1
 10
0.0
 20
0.0
  0
LWPOLYLINE
  5
27C
100
AcDbEntity
  8
0
100
AcDbPolyline
 62
2
  6
CONTINUOUS
 90
19
 70
0
 10
27.6842387906
 20
48.6168415373
 10
27.4961137435
 20
48.2516795326
 10
27.2567743458
 20
47.9178302789
 10
26.9713321963
 20
47.6224297867
 10
26.6458835153
 20
47.3717869581
 10
26.2873789475
 20
47.1712548002
 10
25.9034751155
 20
47.0251161014
 10
25.5023710973
 20
46.9364919623
 10
25.0926333168
 20
46.9072751387
 10
24.6830125906
 20
46.9380896178
 10
24.2822572349
 20
47.0282772912
 10
23.8989262276
 20
47.1759120104
 10
23.5412064125
 20
47.377840724
 10
23.2167376524
 20
47.6297508175
 10
22.9324496635
 20
47.9262622184
 10
22.6944140166
 20
48.2610422989
 10
25.0592526925
 20
48.626268938
 10
25.2029961896
 20
48.6168415373
 10
27.6842387906
 20
48.6168415373
  0
HATCH
  5
27D
100
AcDbEntity
  8
0
100
AcDbHatch
 62
2
  6
CONTINUOUS
 10
0.0
 20
0.0
 30
0.0
210
0.0
220
0.0
230
1.0
  2
SOLID
 70
1
 71
1
 91
1
 92
1
 93
18
 72
1
 10
27.6842387906
 20
48.6168415373
 11
27.4961137435
 21
48.2516795326
 72
1
 10
27.4961137435
 20
48.2516795326
 11
27.2567743458
 21
47.9178302789
 72
1
 10
27.2567743458
 20
47.9178302789
 11
26.9713321963
 21
47.6224297867
 72
1
 10
26.9713321963
 20
47.6224297867
 11
26.6458835153
 21
47.3717869581
 72
1
 10
26.6458835153
 20
47.3717869581
 11
26.2873789475
 21
47.1712548002
 72
1
 10
26.2873789475
 20
47.1712548002
 11
25.9034751155
 21
47.0251161014
 72
1
 10
25.9034751155
 20
47.0251161014
 11
25.5023710973
 21
46.9364919623
 72
1
 10
25.5023710973
 20
46.9364919623
 11
25.0926333168
 21
46.9072751387
 72
1
 10
25.0926333168
 20
46.9072751387
 11
24.6830125906
 21
46.9380896178
 72
1
 10
24.6830125906
 20
46.9380896178
 11
24.2822572349
 21
47.0282772912
 72
1
 10
24.2822572349
 20
47.0282772912
 11
23.8989262276
 21
47.1759120104
 72
1
 10
23.8989262276
 20
47.1759120104
 11
23.5412064125
 21
47.377840724
 72
1
 10
23.5412064125
 20
47.377840724
 11
23.2167376524
 21
47.6297508175
 72
1
 10
23.2167376524
 20
47.6297508175
 11
22.9324496635
 21
47.9262622184
 72
1
 10
22.9324496635
 20
47.9262622184
 11
22.6944140166
 21
48.2610422989
 72
1
 10
22.6944140166
 20
48.2610422989
 11
25.0592526925
 21
48.626268938
 72
1
 10
25.0592526925
 20
48.626268938
 11
25.2029961896
 21
48.6168415373
 72
1
 10
25.2029961896
 20
48.6168415373
 11
27.6842387906
 21
48.6168415373
 97
1
330
27C
 75
0
 76
1
 98
1
 10
0.0
 20
0.0
  0
LWPOLYLINE
  5
27E
100
AcDbEntity
  8
0
100
AcDbPolyline
 62
2
  6
CONTINUOUS
 90
28
 70
0
 10
35.5863208471
 20
48.0400014831
 10
35.5863208471
 20
54.9622171339
 10
37.9356791535
 20
54.9622171339
 10
37.9356791535
 20
48.0400014831
 10
37.9256296104
 20
47.8866714687
 10
37.8956529319
 20
47.7359664545
 10
37.8462620271
 20
47.5904664408
 10
37.7783019882
 20
47.4526614279
 10
37.6929356302
 20
47.3248914159
 10
37.5916235952
 20
47.209376405
 10
37.4760993602
 20
47.1080663955
 10
37.3483395768
 20
47.0227013874
 10
37.2105302505
 20
46.9547363811
 10
37.065029337
 20
46.9053413764
 10
36.9143263972
 20
46.8753713736
 10
36.7610000003
 20
46.8653169684
 10
36.6076736033
 20
46.8753713736
 10
36.4569706635
 20
46.9053413764
 10
36.31146975
 20
46.9547363811
 10
36.1736604237
 20
47.0227013874
 10
36.0459006404
 20
47.1080663955
 10
35.9303764053
 20
47.209376405
 10
35.8290643703
 20
47.3248914159
 10
35.7436980123
 20
47.4526614279
 10
35.6757379734
 20
47.5904664408
 10
35.6263470686
 20
47.7359664545
 10
35.5963703901
 20
47.8866714687
 10
35.5863208471
 20
48.0400014831
  0
HATCH
  5
27F
100
AcDbEntity
  8
0
100
AcDbHatch
 62
2
  6
CONTINUOUS
 10
0.0
 20
0.0
 30
0.0
210
0.0
220
0.0
230
1.0
  2
SOLID
 70
1
 71
1
 91
1
 92
1
 93
27
 72
1
 10
35.5863208471
 20
48.0400014831
 11
35.5863208471
 21
54.9622171339
 72
1
 10
35.5863208471
 20
54.9622171339
 11
37.9356791535
 21
54.9622171339
 72
1
 10
37.9356791535
 20
54.9622171339
 11
37.9356791535
 21
48.0400014831
 72
1
 10
37.9356791535
 20
48.0400014831
 11
37.9256296104
 21
47.8866714687
 72
1
 10
37.9256296104
 20
47.8866714687
 11
37.8956529319
 21
47.7359664545
 72
1
 10
37.8956529319
 20
47.7359664545
 11
37.8462620271
 21
47.5904664408
 72
1
 10
37.8462620271
 20
47.5904664408
 11
37.7783019882
 21
47.4526614279
 72
1
 10
37.7783019882
 20
47.4526614279
 11
37.6929356302
 21
47.3248914159
 72
1
 10
37.6929356302
 20
47.3248914159
 11
37.5916235952
 21
47.209376405
 72
1
 10
37.5916235952
 20
47.209376405
 11
37.4760993602
 21
47.1080663955
 72
1
 10
37.4760993602
 20
47.1080663955
 11
37.3483395768
 21
47.0227013874
 72
1
 10
37.3483395768
 20
47.0227013874
 11
37.2105302505
 21
46.9547363811
 72
1
 10
37.2105302505
 20
46.9547363811
 11
37.065029337
 21
46.9053413764
 72
1
 10
37.065029337
 20
46.9053413764
 11
36.9143263972
 21
46.8753713736
 72
1
 10
36.9143263972
 20
46.8753713736
 11
36.7610000003
 21
46.8653169684
 72
1
 10
36.7610000003
 20
46.8653169684
 11
36.6076736033
 21
46.8753713736
 72
1
 10
36.6076736033
 20
46.8753713736
 11
36.4569706635
 21
46.9053413764
 72
1
 10
36.4569706635
 20
46.9053413764
 11
36.31146975
 21
46.9547363811
 72
1
 10
36.31146975
 20
46.9547363811
 11
36.1736604237
 21
47.0227013874
 72
1
 10
36.1736604237
 20
47.0227013874
 11
36.0459006404
 21
47.1080663955
 72
1
 10
36.0459006404
 20
47.1080663955
 11
35.9303764053
 21
47.209376405
 72
1
 10
35.9303764053
 20
47.209376405
 11
35.8290643703
 21
47.3248914159
 72
1
 10
35.8290643703
 20
47.3248914159
 11
35.7436980123
 21
47.4526614279
 72
1
 10
35.7436980123
 20
47.4526614279
 11
35.6757379734
 21
47.5904664408
 72
1
 10
35.6757379734
 20
47.5904664408
 11
35.6263470686
 21
47.7359664545
 72
1
 10
35.6263470686
 20
47.7359664545
 11
35.5963703901
 21
47.8866714687
 72
1
 10
35.5963703901
 20
47.8866714687
 11
35.5863208471
 21
48.0400014831
 97
1
330
27E
 75
0
 76
1
 98
1
 10
0.0
 20
0.0
  0
LWPOLYLINE
  5
280
100
AcDbEntity
  8
0
100
AcDbPolyline
 62
2
  6
CONTINUOUS
 90
8
 70
0
 10
32.9923313344
 20
47.0301863881
 10
33.1563796967
 20
46.5469163427
 10
33.3821041117
 20
46.0891912997
 10
28.7480950465
 20
45.5534278506
 10
29.3301683772
 20
46.146464163
 10
29.8169521117
 20
46.8199201942
 10
32.8927659379
 20
47.5307364352
 10
32.9923313344
 20
47.0301863881
  0
HATCH
  5
281
100
AcDbEntity
  8
0
100
AcDbHatch
 62
2
  6
CONTINUOUS
 10
0.0
 20
0.0
 30
0.0
210
0.0
220
0.0
230
1.0
  2
SOLID
 70
1
 71
1
 91
1
 92
1
 93
7
 72
1
 10
32.9923313344
 20
47.0301863881
 11
33.1563796967
 21
46.5469163427
 72
1
 10
33.1563796967
 20
46.5469163427
 11
33.3821041117
 21
46.0891912997
 72
1
 10
33.3821041117
 20
46.0891912997
 11
28.7480950465
 21
45.5534278506
 72
1
 10
28.7480950465
 20
45.5534278506
 11
29.3301683772
 21
46.146464163
 72
1
 10
29.3301683772
 20
46.146464163
 11
29.8169521117
 21
46.8199201942
 72
1
 10
29.8169521117
 20
46.8199201942
 11
32.8927659379
 21
47.5307364352
 72
1
 10
32.8927659379
 20
47.5307364352
 11
32.9923313344
 21
47.0301863881
 97
1
330
280
 75
0
 76
1
 98
1
 10
0.0
 20
0.0
  0
LWPOLYLINE
  5
282
100
AcDbEntity
  8
0
100
AcDbPolyline
 62
2
  6
CONTINUOUS
 90
8
 70
0
 10
33.6656423722
 20
45.6648412598
 10
34.00214306
 20
45.2811412237
 10
34.3858485548
 20
44.9446311921
 10
27.3523542712
 20
44.659914577
 10
28.0838381739
 20
45.0541641554
 10
28.7480950465
 20
45.5534278506
 10
33.3821041117
 20
46.0891912997
 10
33.6656423722
 20
45.6648412598
  0
HATCH
  5
283
100
AcDbEntity
  8
0
100
AcDbHatch
 62
2
  6
CONTINUOUS
 10
0.0
 20
0.0
 30
0.0
210
0.0
220
0.0
230
1.0
  2
SOLID
 70
1
 71
1
 91
1
 92
1
 93
7
 72
1
 10
33.6656423722
 20
45.6648412598
 11
34.00214306
 21
45.2811412237
 72
1
 10
34.00214306
 20
45.2811412237
 11
34.3858485548
 21
44.9446311921
 72
1
 10
34.3858485548
 20
44.9446311921
 11
27.3523542712
 21
44.659914577
 72
1
 10
27.3523542712
 20
44.659914577
 11
28.0838381739
 21
45.0541641554
 72
1
 10
28.0838381739
 20
45.0541641554
 11
28.7480950465
 21
45.5534278506
 72
1
 10
28.7480950465
 20
45.5534278506
 11
33.3821041117
 21
46.0891912997
 72
1
 10
33.3821041117
 20
46.0891912997
 11
33.6656423722
 21
45.6648412598
 97
1
330
282
 75
0
 76
1
 98
1
 10
0.0
 20
0.0
  0
LWPOLYLINE
  5
284
100
AcDbEntity
  8
0
100
AcDbPolyline
 62
2
  6
CONTINUOUS
 90
24
 70
0
 10
34.8101935494
 20
44.6611011654
 10
35.2679173833
 20
44.4353811442
 10
35.7511882747
 20
44.2713261287
 10
36.2517373247
 20
44.1717561194
 10
16.3610861409
 20
43.6666760719
 10
20.0261379092
 20
51.9411676226
 10
19.750600337
 20
51.1572157897
 10
19.5954682224
 20
50.3408608074
 10
19.5642345443
 20
49.5104838523
 10
19.6576025652
 20
48.684781822
 10
19.8734699961
 20
47.8823463527
 10
20.2069763321
 20
47.121245207
 10
20.6506122924
 20
46.4186154575
 10
21.1943889001
 20
45.7902776256
 10
21.8260623961
 20
45.2503794643
 10
22.5314099211
 20
44.8110774052
 10
23.2945497596
 20
44.4822628421
 10
24.0982989358
 20
44.2713261287
 10
24.9245601072
 20
44.1830563096
 10
25.754729048
 20
44.2194013213
 10
26.5701135443
 20
44.3795561005
 10
27.3523542712
 20
44.659914577
 10
34.3858485548
 20
44.9446311921
 10
34.8101935494
 20
44.6611011654
  0
HATCH
  5
285
100
AcDbEntity
  8
0
100
AcDbHatch
 62
2
  6
CONTINUOUS
 10
0.0
 20
0.0
 30
0.0
210
0.0
220
0.0
230
1.0
  2
SOLID
 70
1
 71
1
 91
1
 92
1
 93
23
 72
1
 10
34.8101935494
 20
44.6611011654
 11
35.2679173833
 21
44.4353811442
 72
1
 10
35.2679173833
 20
44.4353811442
 11
35.7511882747
 21
44.2713261287
 72
1
 10
35.7511882747
 20
44.2713261287
 11
36.2517373247
 21
44.1717561194
 72
1
 10
36.2517373247
 20
44.1717561194
 11
16.3610861409
 21
43.6666760719
 72
1
 10
16.3610861409
 20
43.6666760719
 11
20.0261379092
 21
51.9411676226
 72
1
 10
20.0261379092
 20
51.9411676226
 11
19.750600337
 21
51.1572157897
 72
1
 10
19.750600337
 20
51.1572157897
 11
19.5954682224
 21
50.3408608074
 72
1
 10
19.5954682224
 20
50.3408608074
 11
19.5642345443
 21
49.5104838523
 72
1
 10
19.5642345443
 20
49.5104838523
 11
19.6576025652
 21
48.684781822
 72
1
 10
19.6576025652
 20
48.684781822
 11
19.8734699961
 21
47.8823463527
 72
1
 10
19.8734699961
 20
47.8823463527
 11
20.2069763321
 21
47.121245207
 72
1
 10
20.2069763321
 20
47.121245207
 11
20.6506122924
 21
46.4186154575
 72
1
 10
20.6506122924
 20
46.4186154575
 11
21.1943889001
 21
45.7902776256
 72
1
 10
21.1943889001
 20
45.7902776256
 11
21.8260623961
 21
45.2503794643
 72
1
 10
21.8260623961
 20
45.2503794643
 11
22.5314099211
 21
44.8110774052
 72
1
 10
22.5314099211
 20
44.8110774052
 11
23.2945497596
 21
44.4822628421
 72
1
 10
23.2945497596
 20
44.4822628421
 11
24.0982989358
 21
44.2713261287
 72
1
 10
24.0982989358
 20
44.2713261287
 11
24.9245601072
 21
44.1830563096
 72
1
 10
24.9245601072
 20
44.1830563096
 11
25.754729048
 21
44.2194013213
 72
1
 10
25.754729048
 20
44.2194013213
 11
26.5701135443
 21
44.3795561005
 72
1
 10
26.5701135443
 20
44.3795561005
 11
27.3523542712
 21
44.659914577
 72
1
 10
27.3523542712
 20
44.659914577
 11
34.3858485548
 21
44.9446311921
 72
1
 10
34.3858485548
 20
44.9446311921
 11
34.8101935494
 21
44.6611011654
 97
1
330
284
 75
0
 76
1
 98
1
 10
0.0
 20
0.0
  0
LWPOLYLINE
  5
286
100
AcDbEntity
  8
0
100
AcDbPolyline
 62
2
  6
CONTINUOUS
 90
43
 70
0
 10
36.7610000003
 20
44.13838322
 10
37.2702626758
 20
44.1717561194
 10
37.7708117258
 20
44.2713261287
 10
38.2540826172
 20
44.4353811442
 10
38.7118064511
 20
44.6611011654
 10
39.1361514457
 20
44.9446311921
 10
39.5198569406
 20
45.2811412237
 10
39.8563576283
 20
45.6648412598
 10
40.1398958888
 20
46.0891912997
 10
45.3528889231
 20
43.6666760719
 10
45.345943091
 20
43.5341510594
 10
45.3251816945
 20
43.4030660471
 10
45.2908322
 20
43.2748610351
 10
45.2432709475
 20
43.1509610234
 10
45.1830190283
 20
43.0327160123
 10
45.1107365748
 20
42.9214160018
 10
45.0272155289
 20
42.8182759921
 10
44.9333709645
 20
42.7244209833
 10
44.8302310623
 20
42.6409009754
 10
44.7189258447
 20
42.5686159687
 10
44.600674795
 20
42.508375963
 10
44.4767734964
 20
42.4608109585
 10
44.3485794374
 20
42.4264609553
 10
44.217497139
 20
42.4057009533
 10
44.0849627663
 20
42.3987559527
 10
17.6290122978
 20
42.3987559527
 10
17.4964779251
 20
42.4057009533
 10
17.3653956267
 20
42.4264609553
 10
17.2372015677
 20
42.4608109585
 10
17.113300269
 20
42.508375963
 10
16.9950492193
 20
42.5686159687
 10
16.8837440018
 20
42.6409009754
 10
16.7806040996
 20
42.7244209833
 10
16.6867595352
 20
42.8182759921
 10
16.6032384892
 20
42.9214160018
 10
16.5309560358
 20
43.0327160123
 10
16.4707041165
 20
43.1509610234
 10
16.4231428641
 20
43.2748610351
 10
16.3887933695
 20
43.4030660471
 10
16.368031973
 20
43.5341510594
 10
16.3610861409
 20
43.6666760719
 10
36.2517373247
 20
44.1717561194
 10
36.7610000003
 20
44.13838322
  0
HATCH
  5
287
100
AcDbEntity
  8
0
100
AcDbHatch
 62
2
  6
CONTINUOUS
 10
0.0
 20
0.0
 30
0.0
210
0.0
220
0.0
230
1.0
  2
SOLID
 70
1
 71
1
 91
1
 92
1
 93
42
 72
1
 10
36.7610000003
 20
44.13838322
 11
37.2702626758
 21
44.1717561194
 72
1
 10
37.2702626758
 20
44.1717561194
 11
37.7708117258
 21
44.2713261287
 72
1
 10
37.7708117258
 20
44.2713261287
 11
38.2540826172
 21
44.4353811442
 72
1
 10
38.2540826172
 20
44.4353811442
 11
38.7118064511
 21
44.6611011654
 72
1
 10
38.7118064511
 20
44.6611011654
 11
39.1361514457
 21
44.9446311921
 72
1
 10
39.1361514457
 20
44.9446311921
 11
39.5198569406
 21
45.2811412237
 72
1
 10
39.5198569406
 20
45.2811412237
 11
39.8563576283
 21
45.6648412598
 72
1
 10
39.8563576283
 20
45.6648412598
 11
40.1398958888
 21
46.0891912997
 72
1
 10
40.1398958888
 20
46.0891912997
 11
45.3528889231
 21
43.6666760719
 72
1
 10
45.3528889231
 20
43.6666760719
 11
45.345943091
 21
43.5341510594
 72
1
 10
45.345943091
 20
43.5341510594
 11
45.3251816945
 21
43.4030660471
 72
1
 10
45.3251816945
 20
43.4030660471
 11
45.2908322
 21
43.2748610351
 72
1
 10
45.2908322
 20
43.2748610351
 11
45.2432709475
 21
43.1509610234
 72
1
 10
45.2432709475
 20
43.1509610234
 11
45.1830190283
 21
43.0327160123
 72
1
 10
45.1830190283
 20
43.0327160123
 11
45.1107365748
 21
42.9214160018
 72
1
 10
45.1107365748
 20
42.9214160018
 11
45.0272155289
 21
42.8182759921
 72
1
 10
45.0272155289
 20
42.8182759921
 11
44.9333709645
 21
42.7244209833
 72
1
 10
44.9333709645
 20
42.7244209833
 11
44.8302310623
 21
42.6409009754
 72
1
 10
44.8302310623
 20
42.6409009754
 11
44.7189258447
 21
42.5686159687
 72
1
 10
44.7189258447
 20
42.5686159687
 11
44.600674795
 21
42.508375963
 72
1
 10
44.600674795
 20
42.508375963
 11
44.4767734964
 21
42.4608109585
 72
1
 10
44.4767734964
 20
42.4608109585
 11
44.3485794374
 21
42.4264609553
 72
1
 10
44.3485794374
 20
42.4264609553
 11
44.217497139
 21
42.4057009533
 72
1
 10
44.217497139
 20
42.4057009533
 11
44.0849627663
 21
42.3987559527
 72
1
 10
44.0849627663
 20
42.3987559527
 11
17.6290122978
 21
42.3987559527
 72
1
 10
17.6290122978
 20
42.3987559527
 11
17.4964779251
 21
42.4057009533
 72
1
 10
17.4964779251
 20
42.4057009533
 11
17.3653956267
 21
42.4264609553
 72
1
 10
17.3653956267
 20
42.4264609553
 11
17.2372015677
 21
42.4608109585
 72
1
 10
17.2372015677
 20
42.4608109585
 11
17.113300269
 21
42.508375963
 72
1
 10
17.113300269
 20
42.508375963
 11
16.9950492193
 21
42.5686159687
 72
1
 10
16.9950492193
 20
42.5686159687
 11
16.8837440018
 21
42.6409009754
 72
1
 10
16.8837440018
 20
42.6409009754
 11
16.7806040996
 21
42.7244209833
 72
1
 10
16.7806040996
 20
42.7244209833
 11
16.6867595352
 21
42.8182759921
 72
1
 10
16.6867595352
 20
42.8182759921
 11
16.6032384892
 21
42.9214160018
 72
1
 10
16.6032384892
 20
42.9214160018
 11
16.5309560358
 21
43.0327160123
 72
1
 10
16.5309560358
 20
43.0327160123
 11
16.4707041165
 21
43.1509610234
 72
1
 10
16.4707041165
 20
43.1509610234
 11
16.4231428641
 21
43.2748610351
 72
1
 10
16.4231428641
 20
43.2748610351
 11
16.3887933695
 21
43.4030660471
 72
1
 10
16.3887933695
 20
43.4030660471
 11
16.368031973
 21
43.5341510594
 72
1
 10
16.368031973
 20
43.5341510594
 11
16.3610861409
 21
43.6666760719
 72
1
 10
16.3610861409
 20
43.6666760719
 11
36.2517373247
 21
44.1717561194
 72
1
 10
36.2517373247
 20
44.1717561194
 11
36.7610000003
 21
44.13838322
 97
1
330
286
 75
0
 76
1
 98
1
 10
0.0
 20
0.0
  0
SOLID
  5
288
100
AcDbEntity
  8
0
100
AcDbTrace
 62
2
  6
CONTINUOUS
 10
25.3408515753
 20
55.2505598297
 11
24.5102931399
 21
55.2245960958
 12
26.1659444963
 22
55.151954039
 13
45.3528889232
 23
56.1308222438
  0
ENDBLK
  5
289
100
AcDbEntity
  8
0
  6
BYBLOCK
 62
0
100
AcDbBlockEnd
  0
BLOCK
  5
28A
100
AcDbEntity
  8
94862701L00_BL0
100
AcDbBlockBegin
  2
94862701L00_BL0
 70
64
 10
52.1257555628
 20
202.4280581558
  3
94862701L00_BL0
  1

  0
LINE
  5
28B
100
AcDbEntity
  8
94862701L00_BL0
100
AcDbLine
 62
7
  6
CONTINUOUS
 10
88.0929069059
 20
112.8359514406
 11
64.0929069059
 21
112.8359514406
  0
LINE
  5
28C
100
AcDbEntity
  8
94862701L00_BL0
100
AcDbLine
 62
7
  6
CENTER
 10
76.0929069059
 20
124.8359514406
 11
68.2929069059
 21
124.8359514406
  0
LINE
  5
28D
100
AcDbEntity
  8
94862701L00_BL0
100
AcDbLine
 62
7
  6
CENTER
 10
76.0929069059
 20
124.8359514406
 11
83.8929069059
 21
124.8359514406
  0
LINE
  5
28E
100
AcDbEntity
  8
94862701L00_BL0
100
AcDbLine
 62
7
  6
CONTINUOUS
 10
71.4679069059
 20
136.8359514406
 11
80.7179069059
 21
136.8359514406
  0
LINE
  5
28F
100
AcDbEntity
  8
94862701L00_BL0
100
AcDbLine
 62
7
  6
CENTER
 10
76.0929069059
 20
167.8359514406
 11
68.0163554608
 21
167.8359514406
  0
LINE
  5
290
100
AcDbEntity
  8
94862701L00_BL0
100
AcDbLine
 62
7
  6
CENTER
 10
76.0929069059
 20
167.8359514406
 11
84.6467693263
 21
167.8359514406
  0
LINE
  5
291
100
AcDbEntity
  8
94862701L00_BL0
100
AcDbLine
 62
7
  6
CONTINUOUS
 10
80.0929069059
 20
282.9859514406
 11
77.9429069059
 21
280.8359514406
  0
LINE
  5
292
100
AcDbEntity
  8
94862701L00_BL0
100
AcDbLine
 62
7
  6
CONTINUOUS
 10
80.7179069059
 20
198.8359514406
 11
71.4679069059
 21
198.8359514406
  0
LINE
  5
293
100
AcDbEntity
  8
94862701L00_BL0
100
AcDbLine
 62
7
  6
CONTINUOUS
 10
64.0929069059
 20
329.3359514406
 11
64.0929069059
 21
112.8359514406
  0
LINE
  5
294
100
AcDbEntity
  8
94862701L00_BL0
100
AcDbLine
 62
7
  6
CONTINUOUS
 10
66.0929069059
 20
280.8359514406
 11
66.0929069059
 21
236.8359514406
  0
LINE
  5
295
100
AcDbEntity
  8
94862701L00_BL0
100
AcDbLine
 62
7
  6
CONTINUOUS
 10
69.9679069059
 20
197.3359514406
 11
69.9679069059
 21
138.3359514406
  0
LINE
  5
296
100
AcDbEntity
  8
94862701L00_BL0
100
AcDbLine
 62
7
  6
CENTER
 10
76.0929069059
 20
317.3359514406
 11
76.0929069059
 21
309.5359514406
  0
LINE
  5
297
100
AcDbEntity
  8
94862701L00_BL0
100
AcDbLine
 62
7
  6
CENTER
 10
76.0929069059
 20
215.8359514406
 11
76.0929069059
 21
208.0359514406
  0
LINE
  5
298
100
AcDbEntity
  8
94862701L00_BL0
100
AcDbLine
 62
7
  6
CENTER
 10
76.0929069059
 20
167.8359514406
 11
76.0929069059
 21
134.9307262853
  0
LINE
  5
299
100
AcDbEntity
  8
94862701L00_BL0
100
AcDbLine
 62
7
  6
CENTER
 10
76.0929069059
 20
124.8359514406
 11
76.0929069059
 21
117.0359514406
  0
LINE
  5
29A
100
AcDbEntity
  8
94862701L00_BL0
100
AcDbLine
 62
7
  6
CENTER
 10
76.0929069059
 20
124.8359514406
 11
76.0929069059
 21
132.6359514406
  0
LINE
  5
29B
100
AcDbEntity
  8
94862701L00_BL0
100
AcDbLine
 62
7
  6
CENTER
 10
76.0929069059
 20
167.8359514406
 11
76.0929069059
 21
200.3931197175
  0
LINE
  5
29C
100
AcDbEntity
  8
94862701L00_BL0
100
AcDbLine
 62
7
  6
CENTER
 10
76.0929069059
 20
215.8359514406
 11
76.0929069059
 21
223.6359514406
  0
LINE
  5
29D
100
AcDbEntity
  8
94862701L00_BL0
100
AcDbLine
 62
7
  6
CENTER
 10
76.0929069059
 20
317.3359514406
 11
76.0929069059
 21
325.1359514406
  0
LINE
  5
29E
100
AcDbEntity
  8
94862701L00_BL0
100
AcDbLine
 62
7
  6
CENTER
 10
76.0929069059
 20
215.8359514406
 11
68.2929069059
 21
215.8359514406
  0
LINE
  5
29F
100
AcDbEntity
  8
94862701L00_BL0
100
AcDbLine
 62
7
  6
CENTER
 10
76.0929069059
 20
215.8359514406
 11
83.8929069059
 21
215.8359514406
  0
LINE
  5
2A0
100
AcDbEntity
  8
94862701L00_BL0
100
AcDbLine
 62
7
  6
CONTINUOUS
 10
82.2179069059
 20
138.3359514406
 11
82.2179069059
 21
197.3359514406
  0
LINE
  5
2A1
100
AcDbEntity
  8
94862701L00_BL0
100
AcDbLine
 62
7
  6
CONTINUOUS
 10
88.0929069059
 20
329.3359514406
 11
88.0929069059
 21
282.9859514406
  0
LINE
  5
2A2
100
AcDbEntity
  8
94862701L00_BL0
100
AcDbLine
 62
7
  6
CONTINUOUS
 10
88.0929069059
 20
234.6859514406
 11
88.0929069059
 21
112.8359514406
  0
LINE
  5
2A3
100
AcDbEntity
  8
94862701L00_BL0
100
AcDbLine
 62
7
  6
CONTINUOUS
 10
88.0929069059
 20
234.6859514406
 11
80.0929069059
 21
234.6859514406
  0
LINE
  5
2A4
100
AcDbEntity
  8
94862701L00_BL0
100
AcDbLine
 62
7
  6
CONTINUOUS
 10
77.9429069059
 20
236.8359514406
 11
80.0929069059
 21
234.6859514406
  0
LINE
  5
2A5
100
AcDbEntity
  8
94862701L00_BL0
100
AcDbLine
 62
7
  6
CONTINUOUS
 10
66.0929069059
 20
236.8359514406
 11
77.9429069059
 21
236.8359514406
  0
LINE
  5
2A6
100
AcDbEntity
  8
94862701L00_BL0
100
AcDbLine
 62
7
  6
CONTINUOUS
 10
77.9429069059
 20
280.8359514406
 11
66.0929069059
 21
280.8359514406
  0
LINE
  5
2A7
100
AcDbEntity
  8
94862701L00_BL0
100
AcDbLine
 62
7
  6
CONTINUOUS
 10
88.0929069059
 20
282.9859514406
 11
80.0929069059
 21
282.9859514406
  0
LINE
  5
2A8
100
AcDbEntity
  8
94862701L00_BL0
100
AcDbLine
 62
7
  6
CENTER
 10
76.0929069059
 20
317.3359514406
 11
68.2929069059
 21
317.3359514406
  0
LINE
  5
2A9
100
AcDbEntity
  8
94862701L00_BL0
100
AcDbLine
 62
7
  6
CENTER
 10
76.0929069059
 20
317.3359514406
 11
83.8929069059
 21
317.3359514406
  0
LINE
  5
2AA
100
AcDbEntity
  8
94862701L00_BL0
100
AcDbLine
 62
7
  6
CONTINUOUS
 10
88.0929069059
 20
329.3359514406
 11
64.0929069059
 21
329.3359514406
  0
LINE
  5
2AB
100
AcDbEntity
  8
94862701L00_BL0
100
AcDbLine
 62
7
  6
CONTINUOUS
 10
22.1586042196
 20
112.8359514406
 11
19.1586042196
 21
112.8359514406
  0
LINE
  5
2AC
100
AcDbEntity
  8
94862701L00_BL0
100
AcDbLine
 62
7
  6
CENTER
 10
16.1586042196
 20
124.8359514406
 11
25.1586042196
 21
124.8359514406
  0
LINE
  5
2AD
100
AcDbEntity
  8
94862701L00_BL0
100
AcDbLine
 62
7
  6
CENTER
 10
25.1586042196
 20
167.8359514406
 11
16.1586042196
 21
167.8359514406
  0
LINE
  5
2AE
100
AcDbEntity
  8
94862701L00_BL0
100
AcDbLine
 62
7
  6
CONTINUOUS
 10
19.1586042196
 20
329.3359514406
 11
19.1586042196
 21
282.8359514406
  0
LINE
  5
2AF
100
AcDbEntity
  8
94862701L00_BL0
100
AcDbLine
 62
7
  6
CONTINUOUS
 10
19.1586042196
 20
234.8359514406
 11
19.1586042196
 21
112.8359514406
  0
LINE
  5
2B0
100
AcDbEntity
  8
94862701L00_BL0
100
AcDbLine
 62
7
  6
CONTINUOUS
 10
22.1586042196
 20
329.3359514406
 11
22.1586042196
 21
282.9859514406
  0
LINE
  5
2B1
100
AcDbEntity
  8
94862701L00_BL0
100
AcDbLine
 62
7
  6
CONTINUOUS
 10
22.1586042196
 20
234.6859514406
 11
22.1586042196
 21
112.8359514406
  0
LINE
  5
2B2
100
AcDbEntity
  8
94862701L00_BL0
100
AcDbLine
 62
7
  6
CENTER
 10
16.1586042196
 20
215.8359514406
 11
25.1586042196
 21
215.8359514406
  0
LINE
  5
2B3
100
AcDbEntity
  8
94862701L00_BL0
100
AcDbLine
 62
7
  6
CONTINUOUS
 10
22.1586042196
 20
234.6859514406
 11
19.1586042196
 21
234.6859514406
  0
LINE
  5
2B4
100
AcDbEntity
  8
94862701L00_BL0
100
AcDbLine
 62
7
  6
CONTINUOUS
 10
22.1586042196
 20
282.9859514406
 11
19.1586042196
 21
282.9859514406
  0
LINE
  5
2B5
100
AcDbEntity
  8
94862701L00_BL0
100
AcDbLine
 62
7
  6
CENTER
 10
16.1586042196
 20
317.3359514406
 11
25.1586042196
 21
317.3359514406
  0
LINE
  5
2B6
100
AcDbEntity
  8
94862701L00_BL0
100
AcDbLine
 62
7
  6
CONTINUOUS
 10
22.1586042196
 20
329.3359514406
 11
19.1586042196
 21
329.3359514406
  0
LINE
  5
2B7
100
AcDbEntity
  8
94862701L00_BL0
100
AcDbLine
 62
7
  6
CONTINUOUS
 10
22.1586042196
 20
75.520164871
 11
19.1586042196
 21
75.520164871
  0
LINE
  5
2B8
100
AcDbEntity
  8
94862701L00_BL0
100
AcDbLine
 62
7
  6
CONTINUOUS
 10
19.1586042196
 20
75.520164871
 11
19.1586042196
 21
99.520164871
  0
LINE
  5
2B9
100
AcDbEntity
  8
94862701L00_BL0
100
AcDbLine
 62
7
  6
CONTINUOUS
 10
22.1586042196
 20
99.520164871
 11
22.1586042196
 21
75.520164871
  0
LINE
  5
2BA
100
AcDbEntity
  8
94862701L00_BL0
100
AcDbLine
 62
7
  6
CONTINUOUS
 10
19.1586042196
 20
99.520164871
 11
22.1586042196
 21
99.520164871
  0
CIRCLE
  5
2BB
100
AcDbEntity
  8
94862701L00_BL0
100
AcDbCircle
 62
7
  6
CONTINUOUS
 10
76.0929069059
 20
124.8359514406
 40
4.8
  0
ARC
  5
2BC
100
AcDbEntity
  8
94862701L00_BL0
100
AcDbCircle
 62
7
  6
CONTINUOUS
 10
78.2441756021
 20
128.5620581232
 40
1.5525373924
100
AcDbArc
 50
178.03273698
 51
301.96726302
  0
ARC
  5
2BD
100
AcDbEntity
  8
94862701L00_BL0
100
AcDbCircle
 62
7
  6
CONTINUOUS
 10
73.9416382097
 20
128.5620581232
 40
1.5525373924
100
AcDbArc
 50
238.03273698
 51
1.96726302
  0
ARC
  5
2BE
100
AcDbEntity
  8
94862701L00_BL0
100
AcDbCircle
 62
7
  6
CONTINUOUS
 10
80.3954442983
 20
124.8359514406
 40
1.5525373924
100
AcDbArc
 50
118.03273698
 51
241.96726302
  0
ARC
  5
2BF
100
AcDbEntity
  8
94862701L00_BL0
100
AcDbCircle
 62
7
  6
CONTINUOUS
 10
78.2441756021
 20
121.1098447581
 40
1.5525373924
100
AcDbArc
 50
58.03273698
 51
181.96726302
  0
ARC
  5
2C0
100
AcDbEntity
  8
94862701L00_BL0
100
AcDbCircle
 62
7
  6
CONTINUOUS
 10
73.9416382097
 20
121.1098447581
 40
1.5525373924
100
AcDbArc
 50
358.03273698
 51
121.96726302
  0
ARC
  5
2C1
100
AcDbEntity
  8
94862701L00_BL0
100
AcDbCircle
 62
7
  6
CONTINUOUS
 10
71.7903695135
 20
124.8359514406
 40
1.5525373924
100
AcDbArc
 50
298.03273698
 51
61.96726302
  0
ARC
  5
2C2
100
AcDbEntity
  8
94862701L00_BL0
100
AcDbCircle
 62
7
  6
CONTINUOUS
 10
71.4679069059
 20
138.3359514406
 40
1.5
100
AcDbArc
 50
180.0
 51
270.0
  0
ARC
  5
2C3
100
AcDbEntity
  8
94862701L00_BL0
100
AcDbCircle
 62
7
  6
CONTINUOUS
 10
80.7179069059
 20
138.3359514406
 40
1.5
100
AcDbArc
 50
270.0
 51
360.0
  0
ARC
  5
2C4
100
AcDbEntity
  8
94862701L00_BL0
100
AcDbCircle
 62
7
  6
CONTINUOUS
 10
79.3838034403
 20
126.7359514406
 40
0.6
100
AcDbArc
 50
298.03273698
 51
121.96726302
  0
ARC
  5
2C5
100
AcDbEntity
  8
94862701L00_BL0
100
AcDbCircle
 62
7
  6
CONTINUOUS
 10
72.8020103715
 20
126.7359514406
 40
0.6
100
AcDbArc
 50
58.03273698
 51
241.96726302
  0
ARC
  5
2C6
100
AcDbEntity
  8
94862701L00_BL0
100
AcDbCircle
 62
7
  6
CONTINUOUS
 10
76.0929069059
 20
128.6359514406
 40
0.6
100
AcDbArc
 50
358.03273698
 51
181.96726302
  0
ARC
  5
2C7
100
AcDbEntity
  8
94862701L00_BL0
100
AcDbCircle
 62
7
  6
CONTINUOUS
 10
79.3838034403
 20
122.9359514406
 40
0.6
100
AcDbArc
 50
238.03273698
 51
61.96726302
  0
ARC
  5
2C8
100
AcDbEntity
  8
94862701L00_BL0
100
AcDbCircle
 62
7
  6
CONTINUOUS
 10
76.0929069059
 20
121.0359514406
 40
0.6
100
AcDbArc
 50
178.03273698
 51
1.96726302
  0
ARC
  5
2C9
100
AcDbEntity
  8
94862701L00_BL0
100
AcDbCircle
 62
7
  6
CONTINUOUS
 10
72.8020103715
 20
122.9359514406
 40
0.6
100
AcDbArc
 50
118.03273698
 51
301.96726302
  0
ARC
  5
2CA
100
AcDbEntity
  8
94862701L00_BL0
100
AcDbCircle
 62
7
  6
CONTINUOUS
 10
73.9416382097
 20
219.5620581232
 40
1.5525373924
100
AcDbArc
 50
238.03273698
 51
1.96726302
  0
ARC
  5
2CB
100
AcDbEntity
  8
94862701L00_BL0
100
AcDbCircle
 62
7
  6
CONTINUOUS
 10
73.9416382097
 20
212.1098447581
 40
1.5525373924
100
AcDbArc
 50
358.03273698
 51
121.96726302
  0
ARC
  5
2CC
100
AcDbEntity
  8
94862701L00_BL0
100
AcDbCircle
 62
7
  6
CONTINUOUS
 10
71.7903695135
 20
215.8359514406
 40
1.5525373924
100
AcDbArc
 50
298.03273698
 51
61.96726302
  0
ARC
  5
2CD
100
AcDbEntity
  8
94862701L00_BL0
100
AcDbCircle
 62
7
  6
CONTINUOUS
 10
71.4679069059
 20
197.3359514406
 40
1.5
100
AcDbArc
 50
90.0
 51
180.0
  0
ARC
  5
2CE
100
AcDbEntity
  8
94862701L00_BL0
100
AcDbCircle
 62
7
  6
CONTINUOUS
 10
72.8020103715
 20
217.7359514406
 40
0.6
100
AcDbArc
 50
58.03273698
 51
241.96726302
  0
ARC
  5
2CF
100
AcDbEntity
  8
94862701L00_BL0
100
AcDbCircle
 62
7
  6
CONTINUOUS
 10
72.8020103715
 20
213.9359514406
 40
0.6
100
AcDbArc
 50
118.03273698
 51
301.96726302
  0
ARC
  5
2D0
100
AcDbEntity
  8
94862701L00_BL0
100
AcDbCircle
 62
7
  6
CONTINUOUS
 10
71.2783243436
 20
230.9609514406
 40
0.6
100
AcDbArc
 50
172.2213079539
 51
249.4668745528
  0
ARC
  5
2D1
100
AcDbEntity
  8
94862701L00_BL0
100
AcDbCircle
 62
7
  6
CONTINUOUS
 10
71.2783243436
 20
234.2109514406
 40
0.6
100
AcDbArc
 50
110.537822144
 51
187.875660707
  0
ARC
  5
2D2
100
AcDbEntity
  8
94862701L00_BL0
100
AcDbCircle
 62
7
  6
CONTINUOUS
 10
74.0929069059
 20
229.3359514406
 40
0.6
100
AcDbArc
 50
229.3102886554
 51
310.6446946108
  0
CIRCLE
  5
2D3
100
AcDbEntity
  8
94862701L00_BL0
100
AcDbCircle
 62
7
  6
CONTINUOUS
 10
74.0929069059
 20
232.5859514406
 40
3.9
  0
ARC
  5
2D4
100
AcDbEntity
  8
94862701L00_BL0
100
AcDbCircle
 62
7
  6
CONTINUOUS
 10
74.0929069059
 20
235.8359514406
 40
0.6
100
AcDbArc
 50
49.3102886554
 51
130.6446946109
  0
CIRCLE
  5
2D5
100
AcDbEntity
  8
94862701L00_BL0
100
AcDbCircle
 62
7
  6
CONTINUOUS
 10
76.0929069059
 20
215.8359514406
 40
4.8
  0
ARC
  5
2D6
100
AcDbEntity
  8
94862701L00_BL0
100
AcDbCircle
 62
7
  6
CONTINUOUS
 10
78.2441756021
 20
219.5620581232
 40
1.5525373924
100
AcDbArc
 50
178.03273698
 51
301.96726302
  0
ARC
  5
2D7
100
AcDbEntity
  8
94862701L00_BL0
100
AcDbCircle
 62
7
  6
CONTINUOUS
 10
80.3954442983
 20
215.8359514406
 40
1.5525373924
100
AcDbArc
 50
118.03273698
 51
241.96726302
  0
ARC
  5
2D8
100
AcDbEntity
  8
94862701L00_BL0
100
AcDbCircle
 62
7
  6
CONTINUOUS
 10
78.2441756021
 20
212.1098447581
 40
1.5525373924
100
AcDbArc
 50
58.03273698
 51
181.96726302
  0
ARC
  5
2D9
100
AcDbEntity
  8
94862701L00_BL0
100
AcDbCircle
 62
7
  6
CONTINUOUS
 10
80.7179069059
 20
197.3359514406
 40
1.5
100
AcDbArc
 50
0.0
 51
90.0
  0
ARC
  5
2DA
100
AcDbEntity
  8
94862701L00_BL0
100
AcDbCircle
 62
7
  6
CONTINUOUS
 10
79.3838034403
 20
217.7359514406
 40
0.6
100
AcDbArc
 50
298.03273698
 51
121.96726302
  0
ARC
  5
2DB
100
AcDbEntity
  8
94862701L00_BL0
100
AcDbCircle
 62
7
  6
CONTINUOUS
 10
76.0929069059
 20
219.6359514406
 40
0.6
100
AcDbArc
 50
358.03273698
 51
181.96726302
  0
ARC
  5
2DC
100
AcDbEntity
  8
94862701L00_BL0
100
AcDbCircle
 62
7
  6
CONTINUOUS
 10
79.3838034403
 20
213.9359514406
 40
0.6
100
AcDbArc
 50
238.03273698
 51
61.96726302
  0
ARC
  5
2DD
100
AcDbEntity
  8
94862701L00_BL0
100
AcDbCircle
 62
7
  6
CONTINUOUS
 10
76.0929069059
 20
212.0359514406
 40
0.6
100
AcDbArc
 50
178.03273698
 51
1.96726302
  0
ARC
  5
2DE
100
AcDbEntity
  8
94862701L00_BL0
100
AcDbCircle
 62
7
  6
CONTINUOUS
 10
76.9074894682
 20
234.2109514406
 40
0.6
100
AcDbArc
 50
352.2213079539
 51
69.4668745529
  0
ARC
  5
2DF
100
AcDbEntity
  8
94862701L00_BL0
100
AcDbCircle
 62
7
  6
CONTINUOUS
 10
76.9074894682
 20
230.9609514406
 40
0.6
100
AcDbArc
 50
290.537822144
 51
7.875660707
  0
ARC
  5
2E0
100
AcDbEntity
  8
94862701L00_BL0
100
AcDbCircle
 62
7
  6
CONTINUOUS
 10
71.2783243436
 20
286.7109514406
 40
0.6
100
AcDbArc
 50
110.537822144
 51
187.875660707
  0
ARC
  5
2E1
100
AcDbEntity
  8
94862701L00_BL0
100
AcDbCircle
 62
7
  6
CONTINUOUS
 10
71.2783243436
 20
283.4609514406
 40
0.6
100
AcDbArc
 50
172.2213079539
 51
249.4668745528
  0
ARC
  5
2E2
100
AcDbEntity
  8
94862701L00_BL0
100
AcDbCircle
 62
7
  6
CONTINUOUS
 10
74.0929069059
 20
281.8359514406
 40
0.6
100
AcDbArc
 50
229.3102886554
 51
310.6446946109
  0
CIRCLE
  5
2E3
100
AcDbEntity
  8
94862701L00_BL0
100
AcDbCircle
 62
7
  6
CONTINUOUS
 10
74.0929069059
 20
285.0859514406
 40
3.9
  0
ARC
  5
2E4
100
AcDbEntity
  8
94862701L00_BL0
100
AcDbCircle
 62
7
  6
CONTINUOUS
 10
74.0929069059
 20
288.3359514406
 40
0.6
100
AcDbArc
 50
49.3102886554
 51
130.6446946109
  0
ARC
  5
2E5
100
AcDbEntity
  8
94862701L00_BL0
100
AcDbCircle
 62
7
  6
CONTINUOUS
 10
73.9416382097
 20
321.0620581232
 40
1.5525373924
100
AcDbArc
 50
238.03273698
 51
1.96726302
  0
ARC
  5
2E6
100
AcDbEntity
  8
94862701L00_BL0
100
AcDbCircle
 62
7
  6
CONTINUOUS
 10
73.9416382097
 20
313.6098447581
 40
1.5525373924
100
AcDbArc
 50
358.03273698
 51
121.96726302
  0
ARC
  5
2E7
100
AcDbEntity
  8
94862701L00_BL0
100
AcDbCircle
 62
7
  6
CONTINUOUS
 10
71.7903695135
 20
317.3359514406
 40
1.5525373924
100
AcDbArc
 50
298.03273698
 51
61.96726302
  0
ARC
  5
2E8
100
AcDbEntity
  8
94862701L00_BL0
100
AcDbCircle
 62
7
  6
CONTINUOUS
 10
72.8020103715
 20
319.2359514406
 40
0.6
100
AcDbArc
 50
58.03273698
 51
241.96726302
  0
ARC
  5
2E9
100
AcDbEntity
  8
94862701L00_BL0
100
AcDbCircle
 62
7
  6
CONTINUOUS
 10
72.8020103715
 20
315.4359514406
 40
0.6
100
AcDbArc
 50
118.03273698
 51
301.96726302
  0
ARC
  5
2EA
100
AcDbEntity
  8
94862701L00_BL0
100
AcDbCircle
 62
7
  6
CONTINUOUS
 10
76.9074894682
 20
286.7109514406
 40
0.6
100
AcDbArc
 50
352.2213079539
 51
69.4668745529
  0
ARC
  5
2EB
100
AcDbEntity
  8
94862701L00_BL0
100
AcDbCircle
 62
7
  6
CONTINUOUS
 10
76.9074894682
 20
283.4609514406
 40
0.6
100
AcDbArc
 50
290.537822144
 51
7.8756607071
  0
CIRCLE
  5
2EC
100
AcDbEntity
  8
94862701L00_BL0
100
AcDbCircle
 62
7
  6
CONTINUOUS
 10
76.0929069059
 20
317.3359514406
 40
4.8
  0
ARC
  5
2ED
100
AcDbEntity
  8
94862701L00_BL0
100
AcDbCircle
 62
7
  6
CONTINUOUS
 10
78.2441756021
 20
321.0620581232
 40
1.5525373924
100
AcDbArc
 50
178.03273698
 51
301.96726302
  0
ARC
  5
2EE
100
AcDbEntity
  8
94862701L00_BL0
100
AcDbCircle
 62
7
  6
CONTINUOUS
 10
80.3954442983
 20
317.3359514406
 40
1.5525373924
100
AcDbArc
 50
118.03273698
 51
241.96726302
  0
ARC
  5
2EF
100
AcDbEntity
  8
94862701L00_BL0
100
AcDbCircle
 62
7
  6
CONTINUOUS
 10
78.2441756021
 20
313.6098447581
 40
1.5525373924
100
AcDbArc
 50
58.03273698
 51
181.96726302
  0
ARC
  5
2F0
100
AcDbEntity
  8
94862701L00_BL0
100
AcDbCircle
 62
7
  6
CONTINUOUS
 10
79.3838034403
 20
319.2359514406
 40
0.6
100
AcDbArc
 50
298.03273698
 51
121.96726302
  0
ARC
  5
2F1
100
AcDbEntity
  8
94862701L00_BL0
100
AcDbCircle
 62
7
  6
CONTINUOUS
 10
76.0929069059
 20
321.1359514406
 40
0.6
100
AcDbArc
 50
358.03273698
 51
181.96726302
  0
ARC
  5
2F2
100
AcDbEntity
  8
94862701L00_BL0
100
AcDbCircle
 62
7
  6
CONTINUOUS
 10
79.3838034403
 20
315.4359514406
 40
0.6
100
AcDbArc
 50
238.03273698
 51
61.96726302
  0
ARC
  5
2F3
100
AcDbEntity
  8
94862701L00_BL0
100
AcDbCircle
 62
7
  6
CONTINUOUS
 10
76.0929069059
 20
313.5359514406
 40
0.6
100
AcDbArc
 50
178.03273698
 51
1.96726302
  0
ENDBLK
  5
2F4
100
AcDbEntity
  8
0
  6
BYBLOCK
 62
0
100
AcDbBlockEnd
  0
BLOCK
  5
2F5
100
AcDbEntity
  8
93894203000_BL1
100
AcDbBlockBegin
  2
93894203000_BL1
 70
64
 10
51.1257555628
 20
185.1780581558
  3
93894203000_BL1
  1

  0
LINE
  5
2F6
100
AcDbEntity
  8
93894203000_BL1
100
AcDbLine
 62
7
  6
CONTINUOUS
 10
66.5929069059
 20
279.8359514406
 11
67.0929069059
 21
280.3359514406
  0
LINE
  5
2F7
100
AcDbEntity
  8
93894203000_BL1
100
AcDbLine
 62
7
  6
CONTINUOUS
 10
67.5929069059
 20
279.8359514406
 11
68.0929069059
 21
280.3359514406
  0
LINE
  5
2F8
100
AcDbEntity
  8
93894203000_BL1
100
AcDbLine
 62
7
  6
CONTINUOUS
 10
68.6929069059
 20
279.9359514406
 11
69.0929069059
 21
280.3359514406
  0
LINE
  5
2F9
100
AcDbEntity
  8
93894203000_BL1
100
AcDbLine
 62
7
  6
CONTINUOUS
 10
69.6929069059
 20
279.9359514406
 11
70.0929069059
 21
280.3359514406
  0
LINE
  5
2FA
100
AcDbEntity
  8
93894203000_BL1
100
AcDbLine
 62
7
  6
CONTINUOUS
 10
70.6929069059
 20
279.9359514406
 11
71.0929069059
 21
280.3359514406
  0
LINE
  5
2FB
100
AcDbEntity
  8
93894203000_BL1
100
AcDbLine
 62
7
  6
CONTINUOUS
 10
71.6929069059
 20
279.9359514406
 11
72.0929069059
 21
280.3359514406
  0
LINE
  5
2FC
100
AcDbEntity
  8
93894203000_BL1
100
AcDbLine
 62
7
  6
CONTINUOUS
 10
72.6929069059
 20
279.9359514406
 11
73.0929069059
 21
280.3359514406
  0
LINE
  5
2FD
100
AcDbEntity
  8
93894203000_BL1
100
AcDbLine
 62
7
  6
CONTINUOUS
 10
73.6929069059
 20
279.9359514406
 11
74.0929069059
 21
280.3359514406
  0
LINE
  5
2FE
100
AcDbEntity
  8
93894203000_BL1
100
AcDbLine
 62
7
  6
CONTINUOUS
 10
81.0929069059
 20
282.9859514406
 11
78.4429069059
 21
280.3359514406
  0
LINE
  5
2FF
100
AcDbEntity
  8
93894203000_BL1
100
AcDbLine
 62
7
  6
CONTINUOUS
 10
66.0929069059
 20
237.3359514406
 11
66.5929069059
 21
237.8359514406
  0
LINE
  5
300
100
AcDbEntity
  8
93894203000_BL1
100
AcDbLine
 62
7
  6
CONTINUOUS
 10
67.0929069059
 20
237.3359514406
 11
67.5929069059
 21
237.8359514406
  0
LINE
  5
301
100
AcDbEntity
  8
93894203000_BL1
100
AcDbLine
 62
7
  6
CONTINUOUS
 10
68.0929069059
 20
237.3359514406
 11
68.4929069059
 21
237.7359514406
  0
LINE
  5
302
100
AcDbEntity
  8
93894203000_BL1
100
AcDbLine
 62
7
  6
CONTINUOUS
 10
69.0929069059
 20
237.3359514406
 11
69.4929069059
 21
237.7359514406
  0
LINE
  5
303
100
AcDbEntity
  8
93894203000_BL1
100
AcDbLine
 62
7
  6
CONTINUOUS
 10
70.0929069059
 20
237.3359514406
 11
70.4929069059
 21
237.7359514406
  0
LINE
  5
304
100
AcDbEntity
  8
93894203000_BL1
100
AcDbLine
 62
7
  6
CONTINUOUS
 10
71.0929069059
 20
237.3359514406
 11
71.4929069059
 21
237.7359514406
  0
LINE
  5
305
100
AcDbEntity
  8
93894203000_BL1
100
AcDbLine
 62
7
  6
CONTINUOUS
 10
72.0929069059
 20
237.3359514406
 11
72.4929069059
 21
237.7359514406
  0
LINE
  5
306
100
AcDbEntity
  8
93894203000_BL1
100
AcDbLine
 62
7
  6
CONTINUOUS
 10
73.0929069059
 20
237.3359514406
 11
73.4929069059
 21
237.7359514406
  0
LINE
  5
307
100
AcDbEntity
  8
93894203000_BL1
100
AcDbLine
 62
7
  6
CONTINUOUS
 10
66.5929069059
 20
237.8359514406
 11
66.5929069059
 21
279.8359514406
  0
LINE
  5
308
100
AcDbEntity
  8
93894203000_BL1
100
AcDbLine
 62
7
  6
CONTINUOUS
 10
67.0929069059
 20
280.3359514406
 11
67.0929069059
 21
278.9359514406
  0
LINE
  5
309
100
AcDbEntity
  8
93894203000_BL1
100
AcDbLine
 62
7
  6
CONTINUOUS
 10
67.0929069059
 20
238.7359514406
 11
67.0929069059
 21
237.3359514406
  0
LINE
  5
30A
100
AcDbEntity
  8
93894203000_BL1
100
AcDbLine
 62
7
  6
CONTINUOUS
 10
67.5929069059
 20
237.8359514406
 11
67.5929069059
 21
237.873838152
  0
LINE
  5
30B
100
AcDbEntity
  8
93894203000_BL1
100
AcDbLine
 62
7
  6
CONTINUOUS
 10
67.5929069059
 20
279.7980647293
 11
67.5929069059
 21
279.8359514406
  0
LINE
  5
30C
100
AcDbEntity
  8
93894203000_BL1
100
AcDbLine
 62
7
  6
CONTINUOUS
 10
68.0929069059
 20
280.3359514406
 11
68.0929069059
 21
279.9359514406
  0
LINE
  5
30D
100
AcDbEntity
  8
93894203000_BL1
100
AcDbLine
 62
7
  6
CONTINUOUS
 10
68.0929069059
 20
237.7359514406
 11
68.0929069059
 21
237.3359514406
  0
LINE
  5
30E
100
AcDbEntity
  8
93894203000_BL1
100
AcDbLine
 62
7
  6
CONTINUOUS
 10
68.5929069059
 20
242.4237310373
 11
68.5929069059
 21
244.2481718439
  0
LINE
  5
30F
100
AcDbEntity
  8
93894203000_BL1
100
AcDbLine
 62
7
  6
CONTINUOUS
 10
68.5929069059
 20
273.4237310373
 11
68.5929069059
 21
275.2481718439
  0
LINE
  5
310
100
AcDbEntity
  8
93894203000_BL1
100
AcDbLine
 62
7
  6
CONTINUOUS
 10
69.0929069059
 20
280.3359514406
 11
69.0929069059
 21
279.9359514406
  0
LINE
  5
311
100
AcDbEntity
  8
93894203000_BL1
100
AcDbLine
 62
7
  6
CONTINUOUS
 10
69.0929069059
 20
275.8149212615
 11
69.0929069059
 21
272.8569816197
  0
LINE
  5
312
100
AcDbEntity
  8
93894203000_BL1
100
AcDbLine
 62
7
  6
CONTINUOUS
 10
69.0929069059
 20
244.8149212615
 11
69.0929069059
 21
241.8569816197
  0
LINE
  5
313
100
AcDbEntity
  8
93894203000_BL1
100
AcDbLine
 62
7
  6
CONTINUOUS
 10
69.0929069059
 20
237.7359514406
 11
69.0929069059
 21
237.3359514406
  0
LINE
  5
314
100
AcDbEntity
  8
93894203000_BL1
100
AcDbLine
 62
7
  6
CONTINUOUS
 10
69.5929069059
 20
241.594023678
 11
69.5929069059
 21
241.9892352935
  0
LINE
  5
315
100
AcDbEntity
  8
93894203000_BL1
100
AcDbLine
 62
7
  6
CONTINUOUS
 10
69.5929069059
 20
244.6826675877
 11
69.5929069059
 21
245.0778792033
  0
LINE
  5
316
100
AcDbEntity
  8
93894203000_BL1
100
AcDbLine
 62
7
  6
CONTINUOUS
 10
69.5929069059
 20
272.594023678
 11
69.5929069059
 21
272.9892352935
  0
LINE
  5
317
100
AcDbEntity
  8
93894203000_BL1
100
AcDbLine
 62
7
  6
CONTINUOUS
 10
69.5929069059
 20
275.6826675877
 11
69.5929069059
 21
276.0778792033
  0
LINE
  5
318
100
AcDbEntity
  8
93894203000_BL1
100
AcDbLine
 62
7
  6
CONTINUOUS
 10
70.0929069059
 20
280.3359514406
 11
70.0929069059
 21
279.9359514406
  0
LINE
  5
319
100
AcDbEntity
  8
93894203000_BL1
100
AcDbLine
 62
7
  6
CONTINUOUS
 10
70.0929069059
 20
237.7359514406
 11
70.0929069059
 21
237.3359514406
  0
LINE
  5
31A
100
AcDbEntity
  8
93894203000_BL1
100
AcDbLine
 62
7
  6
CONTINUOUS
 10
71.0929069059
 20
280.3359514406
 11
71.0929069059
 21
279.9359514406
  0
LINE
  5
31B
100
AcDbEntity
  8
93894203000_BL1
100
AcDbLine
 62
7
  6
CONTINUOUS
 10
71.0929069059
 20
237.7359514406
 11
71.0929069059
 21
237.3359514406
  0
LINE
  5
31C
100
AcDbEntity
  8
93894203000_BL1
100
AcDbLine
 62
7
  6
CONTINUOUS
 10
72.0929069059
 20
280.3359514406
 11
72.0929069059
 21
279.9359514406
  0
LINE
  5
31D
100
AcDbEntity
  8
93894203000_BL1
100
AcDbLine
 62
7
  6
CONTINUOUS
 10
72.0929069059
 20
237.7359514406
 11
72.0929069059
 21
237.3359514406
  0
LINE
  5
31E
100
AcDbEntity
  8
93894203000_BL1
100
AcDbLine
 62
7
  6
CONTINUOUS
 10
73.0929069059
 20
280.3359514406
 11
73.0929069059
 21
279.9359514406
  0
LINE
  5
31F
100
AcDbEntity
  8
93894203000_BL1
100
AcDbLine
 62
7
  6
CONTINUOUS
 10
73.0929069059
 20
237.7359514406
 11
73.0929069059
 21
237.3359514406
  0
LINE
  5
320
100
AcDbEntity
  8
93894203000_BL1
100
AcDbLine
 62
7
  6
CONTINUOUS
 10
74.0929069059
 20
280.3359514406
 11
74.0929069059
 21
279.9359514406
  0
LINE
  5
321
100
AcDbEntity
  8
93894203000_BL1
100
AcDbLine
 62
7
  6
CONTINUOUS
 10
74.0929069059
 20
237.7359514406
 11
74.0929069059
 21
237.3359514406
  0
LINE
  5
322
100
AcDbEntity
  8
93894203000_BL1
100
AcDbLine
 62
7
  6
CONTINUOUS
 10
74.5929069059
 20
237.3359514406
 11
74.5929069059
 21
237.7359514406
  0
LINE
  5
323
100
AcDbEntity
  8
93894203000_BL1
100
AcDbLine
 62
7
  6
CONTINUOUS
 10
74.5929069059
 20
279.9359514406
 11
74.5929069059
 21
280.3359514406
  0
LINE
  5
324
100
AcDbEntity
  8
93894203000_BL1
100
AcDbLine
 62
7
  6
CONTINUOUS
 10
66.5929069059
 20
237.8359514406
 11
67.0929069059
 21
237.3359514406
  0
LINE
  5
325
100
AcDbEntity
  8
93894203000_BL1
100
AcDbLine
 62
7
  6
CONTINUOUS
 10
67.5929069059
 20
237.8359514406
 11
68.0929069059
 21
237.3359514406
  0
LINE
  5
326
100
AcDbEntity
  8
93894203000_BL1
100
AcDbLine
 62
7
  6
CONTINUOUS
 10
68.6929069059
 20
237.7359514406
 11
69.0929069059
 21
237.3359514406
  0
LINE
  5
327
100
AcDbEntity
  8
93894203000_BL1
100
AcDbLine
 62
7
  6
CONTINUOUS
 10
69.6929069059
 20
237.7359514406
 11
70.0929069059
 21
237.3359514406
  0
LINE
  5
328
100
AcDbEntity
  8
93894203000_BL1
100
AcDbLine
 62
7
  6
CONTINUOUS
 10
70.6929069059
 20
237.7359514406
 11
71.0929069059
 21
237.3359514406
  0
LINE
  5
329
100
AcDbEntity
  8
93894203000_BL1
100
AcDbLine
 62
7
  6
CONTINUOUS
 10
71.6929069059
 20
237.7359514406
 11
72.0929069059
 21
237.3359514406
  0
LINE
  5
32A
100
AcDbEntity
  8
93894203000_BL1
100
AcDbLine
 62
7
  6
CONTINUOUS
 10
72.6929069059
 20
237.7359514406
 11
73.0929069059
 21
237.3359514406
  0
LINE
  5
32B
100
AcDbEntity
  8
93894203000_BL1
100
AcDbLine
 62
7
  6
CONTINUOUS
 10
73.6929069059
 20
237.7359514406
 11
74.0929069059
 21
237.3359514406
  0
LINE
  5
32C
100
AcDbEntity
  8
93894203000_BL1
100
AcDbLine
 62
7
  6
CONTINUOUS
 10
78.4429069059
 20
237.3359514406
 11
81.0929069059
 21
234.6859514406
  0
LINE
  5
32D
100
AcDbEntity
  8
93894203000_BL1
100
AcDbLine
 62
7
  6
CONTINUOUS
 10
78.4429069059
 20
237.3359514406
 11
66.0929069059
 21
237.3359514406
  0
LINE
  5
32E
100
AcDbEntity
  8
93894203000_BL1
100
AcDbLine
 62
7
  6
CONTINUOUS
 10
66.0929069059
 20
280.3359514406
 11
66.5929069059
 21
279.8359514406
  0
LINE
  5
32F
100
AcDbEntity
  8
93894203000_BL1
100
AcDbLine
 62
7
  6
CONTINUOUS
 10
67.0929069059
 20
280.3359514406
 11
67.5929069059
 21
279.8359514406
  0
LINE
  5
330
100
AcDbEntity
  8
93894203000_BL1
100
AcDbLine
 62
7
  6
CONTINUOUS
 10
68.0929069059
 20
280.3359514406
 11
68.4929069059
 21
279.9359514406
  0
LINE
  5
331
100
AcDbEntity
  8
93894203000_BL1
100
AcDbLine
 62
7
  6
CONTINUOUS
 10
69.0929069059
 20
280.3359514406
 11
69.4929069059
 21
279.9359514406
  0
LINE
  5
332
100
AcDbEntity
  8
93894203000_BL1
100
AcDbLine
 62
7
  6
CONTINUOUS
 10
70.0929069059
 20
280.3359514406
 11
70.4929069059
 21
279.9359514406
  0
LINE
  5
333
100
AcDbEntity
  8
93894203000_BL1
100
AcDbLine
 62
7
  6
CONTINUOUS
 10
71.0929069059
 20
280.3359514406
 11
71.4929069059
 21
279.9359514406
  0
LINE
  5
334
100
AcDbEntity
  8
93894203000_BL1
100
AcDbLine
 62
7
  6
CONTINUOUS
 10
72.0929069059
 20
280.3359514406
 11
72.4929069059
 21
279.9359514406
  0
LINE
  5
335
100
AcDbEntity
  8
93894203000_BL1
100
AcDbLine
 62
7
  6
CONTINUOUS
 10
73.0929069059
 20
280.3359514406
 11
73.4929069059
 21
279.9359514406
  0
LINE
  5
336
100
AcDbEntity
  8
93894203000_BL1
100
AcDbLine
 62
7
  6
CONTINUOUS
 10
66.0929069059
 20
280.3359514406
 11
78.4429069059
 21
280.3359514406
  0
LINE
  5
337
100
AcDbEntity
  8
93894203000_BL1
100
AcDbLine
 62
7
  6
CONTINUOUS
 10
21.1586042196
 20
282.9859514406
 11
21.1586042196
 21
282.8359514406
  0
LINE
  5
338
100
AcDbEntity
  8
93894203000_BL1
100
AcDbLine
 62
7
  6
CONTINUOUS
 10
21.1586042196
 20
234.8359514406
 11
21.1586042196
 21
234.6859514406
  0
LINE
  5
339
100
AcDbEntity
  8
93894203000_BL1
100
AcDbLine
 62
7
  6
CONTINUOUS
 10
25.1586042196
 20
289.8359514406
 11
25.1586042196
 21
282.8359514406
  0
LINE
  5
33A
100
AcDbEntity
  8
93894203000_BL1
100
AcDbLine
 62
7
  6
CONTINUOUS
 10
25.1586042196
 20
234.8359514406
 11
25.1586042196
 21
227.8359514406
  0
LINE
  5
33B
100
AcDbEntity
  8
93894203000_BL1
100
AcDbLine
 62
7
  6
CONTINUOUS
 10
25.1586042196
 20
227.8359514406
 11
22.1586042196
 21
227.8359514406
  0
LINE
  5
33C
100
AcDbEntity
  8
93894203000_BL1
100
AcDbLine
 62
7
  6
CONTINUOUS
 10
25.1586042196
 20
234.6859514406
 11
22.1586042196
 21
234.6859514406
  0
LINE
  5
33D
100
AcDbEntity
  8
93894203000_BL1
100
AcDbLine
 62
7
  6
CONTINUOUS
 10
25.1586042196
 20
282.9859514406
 11
22.1586042196
 21
282.9859514406
  0
LINE
  5
33E
100
AcDbEntity
  8
93894203000_BL1
100
AcDbLine
 62
7
  6
CONTINUOUS
 10
25.1586042196
 20
289.8359514406
 11
22.1586042196
 21
289.8359514406
  0
LINE
  5
33F
100
AcDbEntity
  8
93894203000_BL1
100
AcDbLine
 62
7
  6
CONTINUOUS
 10
25.1586042196
 20
80.520164871
 11
22.1586042196
 21
80.520164871
  0
LINE
  5
340
100
AcDbEntity
  8
93894203000_BL1
100
AcDbLine
 62
7
  6
CONTINUOUS
 10
25.1586042196
 20
97.520164871
 11
25.1586042196
 21
80.520164871
  0
LINE
  5
341
100
AcDbEntity
  8
93894203000_BL1
100
AcDbLine
 62
7
  6
CONTINUOUS
 10
22.1586042196
 20
97.520164871
 11
25.1586042196
 21
97.520164871
  0
ARC
  5
342
100
AcDbEntity
  8
93894203000_BL1
100
AcDbCircle
 62
7
  6
CONTINUOUS
 10
77.0929069059
 20
237.8359514406
 40
0.5
100
AcDbArc
 50
191.5504554011
 51
270.0
  0
ARC
  5
343
100
AcDbEntity
  8
93894203000_BL1
100
AcDbCircle
 62
7
  6
CONTINUOUS
 10
77.0929069059
 20
279.8359514406
 40
0.5
100
AcDbArc
 50
90.0
 51
168.4495445989
  0
SPLINE
  5
344
100
AcDbEntity
  8
93894203000_BL1
100
AcDbSpline
 62
7
  6
CONTINUOUS
 70
0
 71
3
 72
11
 73
7
 74
0
 42
0.0000001
 43
0.0000001
 44
0.0000000001
 40
0.0
 40
0.0
 40
0.0
 40
0.0
 40
0.2881145106
 40
0.5518050307
 40
0.7864717725
 40
1.0
 40
1.0
 40
1.0
 40
1.0
 10
74.8501049782
 20
279.9359979946
 30
0.0
 10
74.857957662
 20
279.9903543098
 30
0.0
 10
74.8854366248
 20
280.0932785035
 30
0.0
 10
74.962937243
 20
280.2241581759
 30
0.0
 10
75.0693746697
 20
280.3136069076
 30
0.0
 10
75.1557573796
 20
280.3359514406
 30
0.0
 10
75.1964602965
 20
280.3359514406
 30
0.0
  0
SPLINE
  5
345
100
AcDbEntity
  8
93894203000_BL1
100
AcDbSpline
 62
7
  6
CONTINUOUS
 70
0
 71
3
 72
11
 73
7
 74
0
 42
0.0000001
 43
0.0000001
 44
0.0000000001
 40
0.0
 40
0.0
 40
0.0
 40
0.0
 40
0.2135282275
 40
0.4481949693
 40
0.7118854894
 40
1.0
 40
1.0
 40
1.0
 40
1.0
 10
75.1964602965
 20
237.3359514406
 30
0.0
 10
75.1557573796
 20
237.3359514406
 30
0.0
 10
75.0693746697
 20
237.3582959737
 30
0.0
 10
74.962937243
 20
237.4477447053
 30
0.0
 10
74.8854366248
 20
237.5786243777
 30
0.0
 10
74.857957662
 20
237.6815485715
 30
0.0
 10
74.8501049782
 20
237.7359048867
 30
0.0
  0
ENDBLK
  5
346
100
AcDbEntity
  8
0
  6
BYBLOCK
 62
0
100
AcDbBlockEnd
  0
BLOCK
  5
347
100
AcDbEntity
  8
93780800R00_BL2
100
AcDbBlockBegin
  2
93780800R00_BL2
 70
64
 10
72.0929069059
 20
274.3359514406
  3
93780800R00_BL2
  1

  0
LINE
  5
348
100
AcDbEntity
  8
93780800R00_BL2
100
AcDbLine
 62
7
  6
CONTINUOUS
 10
72.0929069059
 20
275.0921937607
 11
72.1840610233
 21
275.1271845481
  0
LINE
  5
349
100
AcDbEntity
  8
93780800R00_BL2
100
AcDbLine
 62
7
  6
CONTINUOUS
 10
72.0929069059
 20
273.5797091205
 11
72.0017527885
 21
273.5447183332
  0
LINE
  5
34A
100
AcDbEntity
  8
93780800R00_BL2
100
AcDbLine
 62
7
  6
CONTINUOUS
 10
70.4045223952
 20
273.315769849
 11
71.3016737985
 21
274.2447973232
  0
LINE
  5
34B
100
AcDbEntity
  8
93780800R00_BL2
100
AcDbLine
 62
7
  6
CONTINUOUS
 10
72.1840610233
 20
275.1271845481
 11
73.1130884975
 21
276.0243359514
  0
LINE
  5
34C
100
AcDbEntity
  8
93780800R00_BL2
100
AcDbLine
 62
7
  6
CONTINUOUS
 10
72.0017527885
 20
273.5447183332
 11
71.0727253143
 21
272.6475669299
  0
LINE
  5
34D
100
AcDbEntity
  8
93780800R00_BL2
100
AcDbLine
 62
7
  6
CONTINUOUS
 10
71.3016737985
 20
274.427105558
 11
71.5206291546
 21
274.5665955039
  0
LINE
  5
34E
100
AcDbEntity
  8
93780800R00_BL2
100
AcDbLine
 62
7
  6
CONTINUOUS
 10
72.8841400133
 20
274.2447973232
 11
72.6651846572
 21
274.1053073774
  0
LINE
  5
34F
100
AcDbEntity
  8
93780800R00_BL2
100
AcDbLine
 62
7
  6
CONTINUOUS
 10
72.0017527885
 20
275.1271845481
 11
71.8622628427
 21
274.908229192
  0
LINE
  5
350
100
AcDbEntity
  8
93780800R00_BL2
100
AcDbLine
 62
7
  6
CONTINUOUS
 10
73.7812914167
 20
275.3561330322
 11
72.8841400133
 21
274.427105558
  0
LINE
  5
351
100
AcDbEntity
  8
93780800R00_BL2
100
AcDbLine
 62
7
  6
CONTINUOUS
 10
72.1840610233
 20
273.5447183332
 11
72.3235509691
 21
273.7636736893
  0
LINE
  5
352
100
AcDbEntity
  8
93780800R00_BL2
100
AcDbLine
 62
7
  6
CONTINUOUS
 10
71.3016737985
 20
274.2447973232
 11
71.3366645858
 21
274.3359514406
  0
LINE
  5
353
100
AcDbEntity
  8
93780800R00_BL2
100
AcDbLine
 62
7
  6
CONTINUOUS
 10
72.8841400133
 20
274.427105558
 11
72.849149226
 21
274.3359514406
  0
LINE
  5
354
100
AcDbEntity
  8
93780800R00_BL2
100
AcDbLine
 62
7
  6
CONTINUOUS
 10
72.0929069059
 20
275.0921937607
 11
72.0929069059
 21
274.8096731774
  0
LINE
  5
355
100
AcDbEntity
  8
93780800R00_BL2
100
AcDbLine
 62
7
  6
CONTINUOUS
 10
72.0929069059
 20
273.5797091205
 11
72.0929069059
 21
273.8622297038
  0
LINE
  5
356
100
AcDbEntity
  8
93780800R00_BL2
100
AcDbLine
 62
7
  6
CONTINUOUS
 10
71.3366645858
 20
274.3359514406
 11
71.3016737985
 21
274.427105558
  0
LINE
  5
357
100
AcDbEntity
  8
93780800R00_BL2
100
AcDbLine
 62
7
  6
CONTINUOUS
 10
72.849149226
 20
274.3359514406
 11
72.8841400133
 21
274.2447973232
  0
LINE
  5
358
100
AcDbEntity
  8
93780800R00_BL2
100
AcDbLine
 62
7
  6
CONTINUOUS
 10
72.0017527885
 20
273.5447183332
 11
71.8622628427
 21
273.7636736893
  0
LINE
  5
359
100
AcDbEntity
  8
93780800R00_BL2
100
AcDbLine
 62
7
  6
CONTINUOUS
 10
72.1840610233
 20
275.1271845481
 11
72.3235509691
 21
274.908229192
  0
LINE
  5
35A
100
AcDbEntity
  8
93780800R00_BL2
100
AcDbLine
 62
7
  6
CONTINUOUS
 10
73.1130884975
 20
272.6475669299
 11
72.1840610233
 21
273.5447183332
  0
LINE
  5
35B
100
AcDbEntity
  8
93780800R00_BL2
100
AcDbLine
 62
7
  6
CONTINUOUS
 10
71.0727253143
 20
276.0243359514
 11
72.0017527885
 21
275.1271845481
  0
LINE
  5
35C
100
AcDbEntity
  8
93780800R00_BL2
100
AcDbLine
 62
7
  6
CONTINUOUS
 10
71.3016737985
 20
274.427105558
 11
70.4045223952
 21
275.3561330322
  0
LINE
  5
35D
100
AcDbEntity
  8
93780800R00_BL2
100
AcDbLine
 62
7
  6
CONTINUOUS
 10
72.8841400133
 20
274.2447973232
 11
73.7812914167
 21
273.315769849
  0
LINE
  5
35E
100
AcDbEntity
  8
93780800R00_BL2
100
AcDbLine
 62
7
  6
CONTINUOUS
 10
71.3016737985
 20
274.2447973232
 11
71.5206291546
 21
274.1053073774
  0
LINE
  5
35F
100
AcDbEntity
  8
93780800R00_BL2
100
AcDbLine
 62
7
  6
CONTINUOUS
 10
72.8841400133
 20
274.427105558
 11
72.6651846572
 21
274.5665955039
  0
LINE
  5
360
100
AcDbEntity
  8
93780800R00_BL2
100
AcDbLine
 62
7
  6
CONTINUOUS
 10
72.1840610233
 20
273.5447183332
 11
72.0929069059
 21
273.5797091205
  0
LINE
  5
361
100
AcDbEntity
  8
93780800R00_BL2
100
AcDbLine
 62
7
  6
CONTINUOUS
 10
72.0017527885
 20
275.1271845481
 11
72.0929069059
 21
275.0921937607
  0
LINE
  5
362
100
AcDbEntity
  8
93780800R00_BL2
100
AcDbLine
 62
7
  6
CONTINUOUS
 10
72.849149226
 20
274.3359514406
 11
72.5666286427
 21
274.3359514406
  0
LINE
  5
363
100
AcDbEntity
  8
93780800R00_BL2
100
AcDbLine
 62
7
  6
CONTINUOUS
 10
71.3366645858
 20
274.3359514406
 11
71.6191851691
 21
274.3359514406
  0
ARC
  5
364
100
AcDbEntity
  8
93780800R00_BL2
100
AcDbCircle
 62
7
  6
CONTINUOUS
 10
-87.3363593323
 20
19.4620828328
 40
300.5261570411
100
AcDbArc
 50
58.0925201906
 51
58.2631633589
  0
ARC
  5
365
100
AcDbEntity
  8
93780800R00_BL2
100
AcDbCircle
 62
7
  6
CONTINUOUS
 10
-182.7809616862
 20
433.7652176692
 40
300.5261570227
100
AcDbArc
 50
328.0925201906
 51
328.2631633589
  0
ARC
  5
366
100
AcDbEntity
  8
93780800R00_BL2
100
AcDbCircle
 62
7
  6
CONTINUOUS
 10
326.9667754723
 20
114.9066852281
 40
300.5261569923
100
AcDbArc
 50
148.0925201906
 51
148.263163359
  0
CIRCLE
  5
367
100
AcDbEntity
  8
93780800R00_BL2
100
AcDbCircle
 62
7
  6
CONTINUOUS
 10
72.0929069059
 20
274.3359514406
 40
2.85
  0
ARC
  5
368
100
AcDbEntity
  8
93780800R00_BL2
100
AcDbCircle
 62
9
  6
CONTINUOUS
 10
72.0929069059
 20
274.3359514406
 40
1.9726664026
100
AcDbArc
 50
301.1528667687
 51
328.8529794039
  0
ARC
  5
369
100
AcDbEntity
  8
93780800R00_BL2
100
AcDbCircle
 62
9
  6
CONTINUOUS
 10
72.0929069059
 20
274.3359514406
 40
1.9726664026
100
AcDbArc
 50
211.14168669
 51
238.8742098283
  0
ARC
  5
36A
100
AcDbEntity
  8
93780800R00_BL2
100
AcDbCircle
 62
9
  6
CONTINUOUS
 10
72.0929069059
 20
274.3359514406
 40
1.9726664026
100
AcDbArc
 50
121.1402786404
 51
148.8739772222
  0
ARC
  5
36B
100
AcDbEntity
  8
93780800R00_BL2
100
AcDbCircle
 62
9
  6
CONTINUOUS
 10
72.0929069059
 20
274.3359514406
 40
1.9726664026
100
AcDbArc
 50
31.1234299516
 51
58.8466423422
  0
ARC
  5
36C
100
AcDbEntity
  8
93780800R00_BL2
100
AcDbCircle
 62
9
  6
CONTINUOUS
 10
72.0929069059
 20
274.3359514406
 40
1.5251992218
100
AcDbArc
 50
297.9789520644
 51
332.0210479356
  0
ARC
  5
36D
100
AcDbEntity
  8
93780800R00_BL2
100
AcDbCircle
 62
9
  6
CONTINUOUS
 10
72.0929069059
 20
274.3359514406
 40
1.5251992218
100
AcDbArc
 50
207.9789520644
 51
242.0210479356
  0
ARC
  5
36E
100
AcDbEntity
  8
93780800R00_BL2
100
AcDbCircle
 62
9
  6
CONTINUOUS
 10
72.0929069059
 20
274.3359514406
 40
1.5251992218
100
AcDbArc
 50
117.9789520644
 51
152.0210479356
  0
ARC
  5
36F
100
AcDbEntity
  8
93780800R00_BL2
100
AcDbCircle
 62
9
  6
CONTINUOUS
 10
72.0929069059
 20
274.3359514406
 40
1.5251992218
100
AcDbArc
 50
27.9789520644
 51
62.0210479356
  0
ARC
  5
370
100
AcDbEntity
  8
93780800R00_BL2
100
AcDbCircle
 62
7
  6
CONTINUOUS
 10
72.0929069059
 20
274.3359514406
 40
0.635
100
AcDbArc
 50
292.5578096573
 51
337.4421903427
  0
ARC
  5
371
100
AcDbEntity
  8
93780800R00_BL2
100
AcDbCircle
 62
7
  6
CONTINUOUS
 10
72.0929069059
 20
274.3359514406
 40
0.635
100
AcDbArc
 50
22.5578096573
 51
67.4421903427
  0
ARC
  5
372
100
AcDbEntity
  8
93780800R00_BL2
100
AcDbCircle
 62
7
  6
CONTINUOUS
 10
72.0929069059
 20
274.3359514406
 40
0.635
100
AcDbArc
 50
202.5578096573
 51
247.4421903427
  0
ARC
  5
373
100
AcDbEntity
  8
93780800R00_BL2
100
AcDbCircle
 62
7
  6
CONTINUOUS
 10
72.0929069059
 20
274.3359514406
 40
0.635
100
AcDbArc
 50
112.5578096573
 51
157.4421903427
  0
ARC
  5
374
100
AcDbEntity
  8
93780800R00_BL2
100
AcDbCircle
 62
7
  6
CONTINUOUS
 10
231.5221731345
 20
529.2098200328
 40
300.5261570227
100
AcDbArc
 50
238.0925201906
 51
238.2631633589
  0
SPLINE
  5
375
100
AcDbEntity
  8
93780800R00_BL2
100
AcDbSpline
 62
7
  6
CONTINUOUS
 70
0
 71
3
 72
9
 73
5
 74
0
 42
0.0000001
 43
0.0000001
 44
0.0000000001
 40
0.0
 40
0.0
 40
0.0
 40
0.0
 40
0.2494291971
 40
1.0
 40
1.0
 40
1.0
 40
1.0
 10
73.4398408371
 20
275.0514943472
 30
0.0
 10
73.376577053
 20
275.0123070752
 30
0.0
 10
73.1229646058
 20
274.8551642699
 30
0.0
 10
72.8693598946
 20
274.698007641
 30
0.0
 10
72.679324927
 20
274.5795472216
 30
0.0
  0
LINE
  5
376
100
AcDbEntity
  8
93780800R00_BL2
100
AcDbLine
 62
7
  6
CONTINUOUS
 10
72.679324927
 20
274.5795472216
 11
72.6651846572
 21
274.5665955039
  0
SPLINE
  5
377
100
AcDbEntity
  8
93780800R00_BL2
100
AcDbSpline
 62
7
  6
CONTINUOUS
 70
0
 71
3
 72
9
 73
5
 74
0
 42
0.0000001
 43
0.0000001
 44
0.0000000001
 40
0.0
 40
0.0
 40
0.0
 40
0.0
 40
0.2456562058
 40
1.0
 40
1.0
 40
1.0
 40
1.0
 10
72.6651846572
 20
274.5665955039
 30
0.0
 10
72.6569375315
 20
274.547785455
 30
0.0
 10
72.6234945416
 20
274.4711589226
 30
0.0
 10
72.5906898443
 20
274.3942496626
 30
0.0
 10
72.5666286427
 20
274.3359514406
 30
0.0
  0
SPLINE
  5
378
100
AcDbEntity
  8
93780800R00_BL2
100
AcDbSpline
 62
7
  6
CONTINUOUS
 70
0
 71
3
 72
9
 73
5
 74
0
 42
0.0000001
 43
0.0000001
 44
0.0000000001
 40
0.0
 40
0.0
 40
0.0
 40
0.0
 40
0.2546871947
 40
1.0
 40
1.0
 40
1.0
 40
1.0
 10
72.5666286427
 20
274.3359514406
 30
0.0
 10
72.5747523927
 20
274.3162682932
 30
0.0
 10
72.6069608744
 20
274.2391131283
 30
0.0
 10
72.6401630671
 20
274.1623766341
 30
0.0
 10
72.6651846572
 20
274.1053073774
 30
0.0
  0
LINE
  5
379
100
AcDbEntity
  8
93780800R00_BL2
100
AcDbLine
 62
7
  6
CONTINUOUS
 10
72.6651846572
 20
274.1053073774
 11
72.679324927
 21
274.0923556597
  0
SPLINE
  5
37A
100
AcDbEntity
  8
93780800R00_BL2
100
AcDbSpline
 62
7
  6
CONTINUOUS
 70
0
 71
3
 72
9
 73
5
 74
0
 42
0.0000001
 43
0.0000001
 44
0.0000000001
 40
0.0
 40
0.0
 40
0.0
 40
0.0
 40
0.2494291971
 40
1.0
 40
1.0
 40
1.0
 40
1.0
 10
70.7459729747
 20
273.6204085341
 30
0.0
 10
70.8092367588
 20
273.6595958061
 30
0.0
 10
71.062849206
 20
273.8167386113
 30
0.0
 10
71.3164539172
 20
273.9738952403
 30
0.0
 10
71.5064888848
 20
274.0923556597
 30
0.0
  0
LINE
  5
37B
100
AcDbEntity
  8
93780800R00_BL2
100
AcDbLine
 62
7
  6
CONTINUOUS
 10
71.5064888848
 20
274.0923556597
 11
71.5206291546
 21
274.1053073774
  0
SPLINE
  5
37C
100
AcDbEntity
  8
93780800R00_BL2
100
AcDbSpline
 62
7
  6
CONTINUOUS
 70
0
 71
3
 72
9
 73
5
 74
0
 42
0.0000001
 43
0.0000001
 44
0.0000000001
 40
0.0
 40
0.0
 40
0.0
 40
0.0
 40
0.2456562058
 40
1.0
 40
1.0
 40
1.0
 40
1.0
 10
71.5206291546
 20
274.1053073774
 30
0.0
 10
71.5288762803
 20
274.1241174263
 30
0.0
 10
71.5623192702
 20
274.2007439587
 30
0.0
 10
71.5951239675
 20
274.2776532187
 30
0.0
 10
71.6191851691
 20
274.3359514406
 30
0.0
  0
SPLINE
  5
37D
100
AcDbEntity
  8
93780800R00_BL2
100
AcDbSpline
 62
7
  6
CONTINUOUS
 70
0
 71
3
 72
9
 73
5
 74
0
 42
0.0000001
 43
0.0000001
 44
0.0000000001
 40
0.0
 40
0.0
 40
0.0
 40
0.0
 40
0.2546871947
 40
1.0
 40
1.0
 40
1.0
 40
1.0
 10
71.6191851691
 20
274.3359514406
 30
0.0
 10
71.6110614192
 20
274.3556345881
 30
0.0
 10
71.5788529375
 20
274.432789753
 30
0.0
 10
71.5456507448
 20
274.5095262472
 30
0.0
 10
71.5206291546
 20
274.5665955039
 30
0.0
  0
LINE
  5
37E
100
AcDbEntity
  8
93780800R00_BL2
100
AcDbLine
 62
7
  6
CONTINUOUS
 10
71.5206291546
 20
274.5665955039
 11
71.5064888848
 21
274.5795472216
  0
SPLINE
  5
37F
100
AcDbEntity
  8
93780800R00_BL2
100
AcDbSpline
 62
7
  6
CONTINUOUS
 70
0
 71
3
 72
9
 73
5
 74
0
 42
0.0000001
 43
0.0000001
 44
0.0000000001
 40
0.0
 40
0.0
 40
0.0
 40
0.0
 40
0.2494291971
 40
1.0
 40
1.0
 40
1.0
 40
1.0
 10
72.8084498125
 20
272.9890175094
 30
0.0
 10
72.7692625405
 20
273.0522812935
 30
0.0
 10
72.6121197352
 20
273.3058937407
 30
0.0
 10
72.4549631063
 20
273.5594984519
 30
0.0
 10
72.3365026869
 20
273.7495334195
 30
0.0
  0
LINE
  5
380
100
AcDbEntity
  8
93780800R00_BL2
100
AcDbLine
 62
7
  6
CONTINUOUS
 10
72.3365026869
 20
273.7495334195
 11
72.3235509691
 21
273.7636736893
  0
SPLINE
  5
381
100
AcDbEntity
  8
93780800R00_BL2
100
AcDbSpline
 62
7
  6
CONTINUOUS
 70
0
 71
3
 72
9
 73
5
 74
0
 42
0.0000001
 43
0.0000001
 44
0.0000000001
 40
0.0
 40
0.0
 40
0.0
 40
0.0
 40
0.2456562051
 40
1.0
 40
1.0
 40
1.0
 40
1.0
 10
72.3235509691
 20
273.7636736893
 30
0.0
 10
72.3047409203
 20
273.771920815
 30
0.0
 10
72.2281143879
 20
273.8053638048
 30
0.0
 10
72.1512051279
 20
273.8381685022
 30
0.0
 10
72.0929069059
 20
273.8622297038
 30
0.0
  0
SPLINE
  5
382
100
AcDbEntity
  8
93780800R00_BL2
100
AcDbSpline
 62
7
  6
CONTINUOUS
 70
0
 71
3
 72
9
 73
5
 74
0
 42
0.0000001
 43
0.0000001
 44
0.0000000001
 40
0.0
 40
0.0
 40
0.0
 40
0.0
 40
0.2546871958
 40
1.0
 40
1.0
 40
1.0
 40
1.0
 10
72.0929069059
 20
273.8622297038
 30
0.0
 10
72.0732237584
 20
273.8541059538
 30
0.0
 10
71.9960685935
 20
273.8218974722
 30
0.0
 10
71.9193320993
 20
273.7886952794
 30
0.0
 10
71.8622628427
 20
273.7636736893
 30
0.0
  0
LINE
  5
383
100
AcDbEntity
  8
93780800R00_BL2
100
AcDbLine
 62
7
  6
CONTINUOUS
 10
71.8622628427
 20
273.7636736893
 11
71.849311125
 21
273.7495334195
  0
SPLINE
  5
384
100
AcDbEntity
  8
93780800R00_BL2
100
AcDbSpline
 62
7
  6
CONTINUOUS
 70
0
 71
3
 72
9
 73
5
 74
0
 42
0.0000001
 43
0.0000001
 44
0.0000000001
 40
0.0
 40
0.0
 40
0.0
 40
0.0
 40
0.2494291971
 40
1.0
 40
1.0
 40
1.0
 40
1.0
 10
71.3773639994
 20
275.6828853718
 30
0.0
 10
71.4165512714
 20
275.6196215878
 30
0.0
 10
71.5736940766
 20
275.3660091406
 30
0.0
 10
71.7308507056
 20
275.1124044293
 30
0.0
 10
71.849311125
 20
274.9223694618
 30
0.0
  0
LINE
  5
385
100
AcDbEntity
  8
93780800R00_BL2
100
AcDbLine
 62
7
  6
CONTINUOUS
 10
71.849311125
 20
274.9223694618
 11
71.8622628427
 21
274.908229192
  0
SPLINE
  5
386
100
AcDbEntity
  8
93780800R00_BL2
100
AcDbSpline
 62
7
  6
CONTINUOUS
 70
0
 71
3
 72
9
 73
5
 74
0
 42
0.0000001
 43
0.0000001
 44
0.0000000001
 40
0.0
 40
0.0
 40
0.0
 40
0.0
 40
0.2456562051
 40
1.0
 40
1.0
 40
1.0
 40
1.0
 10
71.8622628427
 20
274.908229192
 30
0.0
 10
71.8810728916
 20
274.8999820663
 30
0.0
 10
71.9576994239
 20
274.8665390764
 30
0.0
 10
72.0346086839
 20
274.8337343791
 30
0.0
 10
72.0929069059
 20
274.8096731774
 30
0.0
  0
SPLINE
  5
387
100
AcDbEntity
  8
93780800R00_BL2
100
AcDbSpline
 62
7
  6
CONTINUOUS
 70
0
 71
3
 72
9
 73
5
 74
0
 42
0.0000001
 43
0.0000001
 44
0.0000000001
 40
0.0
 40
0.0
 40
0.0
 40
0.0
 40
0.2546871958
 40
1.0
 40
1.0
 40
1.0
 40
1.0
 10
72.0929069059
 20
274.8096731774
 30
0.0
 10
72.1125900534
 20
274.8177969274
 30
0.0
 10
72.1897452184
 20
274.8500054091
 30
0.0
 10
72.2664817125
 20
274.8832076018
 30
0.0
 10
72.3235509691
 20
274.908229192
 30
0.0
  0
LINE
  5
388
100
AcDbEntity
  8
93780800R00_BL2
100
AcDbLine
 62
7
  6
CONTINUOUS
 10
72.3235509691
 20
274.908229192
 11
72.3365026869
 21
274.9223694618
  0
SPLINE
  5
389
100
AcDbEntity
  8
93780800R00_BL2
100
AcDbSpline
 62
7
  6
CONTINUOUS
 70
0
 71
3
 72
10
 73
6
 74
0
 42
0.0000001
 43
0.0000001
 44
0.0000000001
 40
0.0
 40
0.0
 40
0.0
 40
0.0
 40
0.1744823037
 40
0.4139756216
 40
1.0
 40
1.0
 40
1.0
 40
1.0
 10
73.4398408371
 20
273.6204085341
 30
0.0
 10
73.4624996638
 20
273.6063730537
 30
0.0
 10
73.5130335581
 20
273.5680579186
 30
0.0
 10
73.629042484
 20
273.4687211799
 30
0.0
 10
73.7191054652
 20
273.3801652869
 30
0.0
 10
73.7812914167
 20
273.315769849
 30
0.0
  0
SPLINE
  5
38A
100
AcDbEntity
  8
93780800R00_BL2
100
AcDbSpline
 62
7
  6
CONTINUOUS
 70
0
 71
3
 72
10
 73
6
 74
0
 42
0.0000001
 43
0.0000001
 44
0.0000000001
 40
0.0
 40
0.0
 40
0.0
 40
0.0
 40
0.5860290742
 40
0.8255203224
 40
1.0
 40
1.0
 40
1.0
 40
1.0
 10
73.1130884975
 20
272.6475669299
 30
0.0
 10
73.0486925421
 20
272.7097533811
 30
0.0
 10
72.9601365337
 20
272.7998167913
 30
0.0
 10
72.860799517
 20
272.9158255075
 30
0.0
 10
72.822485082
 20
272.9663590233
 30
0.0
 10
72.8084498125
 20
272.9890175094
 30
0.0
  0
SPLINE
  5
38B
100
AcDbEntity
  8
93780800R00_BL2
100
AcDbSpline
 62
7
  6
CONTINUOUS
 70
0
 71
3
 72
10
 73
6
 74
0
 42
0.0000001
 43
0.0000001
 44
0.0000000001
 40
0.0
 40
0.0
 40
0.0
 40
0.0
 40
0.1744823037
 40
0.4139756216
 40
1.0
 40
1.0
 40
1.0
 40
1.0
 10
71.3773639994
 20
272.9890175094
 30
0.0
 10
71.363328519
 20
272.9663586828
 30
0.0
 10
71.3250133839
 20
272.9158247885
 30
0.0
 10
71.2256766452
 20
272.7998158626
 30
0.0
 10
71.1371207521
 20
272.7097528813
 30
0.0
 10
71.0727253143
 20
272.6475669299
 30
0.0
  0
SPLINE
  5
38C
100
AcDbEntity
  8
93780800R00_BL2
100
AcDbSpline
 62
7
  6
CONTINUOUS
 70
0
 71
3
 72
10
 73
6
 74
0
 42
0.0000001
 43
0.0000001
 44
0.0000000001
 40
0.0
 40
0.0
 40
0.0
 40
0.0
 40
0.5860290742
 40
0.8255203224
 40
1.0
 40
1.0
 40
1.0
 40
1.0
 10
70.4045223952
 20
273.315769849
 30
0.0
 10
70.4667088464
 20
273.3801658044
 30
0.0
 10
70.5567722565
 20
273.4687218129
 30
0.0
 10
70.6727809728
 20
273.5680588295
 30
0.0
 10
70.7233144886
 20
273.6063732646
 30
0.0
 10
70.7459729747
 20
273.6204085341
 30
0.0
  0
SPLINE
  5
38D
100
AcDbEntity
  8
93780800R00_BL2
100
AcDbSpline
 62
7
  6
CONTINUOUS
 70
0
 71
3
 72
10
 73
6
 74
0
 42
0.0000001
 43
0.0000001
 44
0.0000000001
 40
0.0
 40
0.0
 40
0.0
 40
0.0
 40
0.1744823037
 40
0.4139756216
 40
1.0
 40
1.0
 40
1.0
 40
1.0
 10
70.7459729747
 20
275.0514943472
 30
0.0
 10
70.7233141481
 20
275.0655298276
 30
0.0
 10
70.6727802538
 20
275.1038449627
 30
0.0
 10
70.5567713278
 20
275.2031817013
 30
0.0
 10
70.4667083466
 20
275.2917375944
 30
0.0
 10
70.4045223952
 20
275.3561330322
 30
0.0
  0
SPLINE
  5
38E
100
AcDbEntity
  8
93780800R00_BL2
100
AcDbSpline
 62
7
  6
CONTINUOUS
 70
0
 71
3
 72
10
 73
6
 74
0
 42
0.0000001
 43
0.0000001
 44
0.0000000001
 40
0.0
 40
0.0
 40
0.0
 40
0.0
 40
0.5860290742
 40
0.8255203224
 40
1.0
 40
1.0
 40
1.0
 40
1.0
 10
71.0727253143
 20
276.0243359514
 30
0.0
 10
71.1371212697
 20
275.9621495001
 30
0.0
 10
71.2256772781
 20
275.87208609
 30
0.0
 10
71.3250142948
 20
275.7560773738
 30
0.0
 10
71.3633287299
 20
275.705543858
 30
0.0
 10
71.3773639994
 20
275.6828853718
 30
0.0
  0
SPLINE
  5
38F
100
AcDbEntity
  8
93780800R00_BL2
100
AcDbSpline
 62
7
  6
CONTINUOUS
 70
0
 71
3
 72
10
 73
6
 74
0
 42
0.0000001
 43
0.0000001
 44
0.0000000001
 40
0.0
 40
0.0
 40
0.0
 40
0.0
 40
0.1744823037
 40
0.4139756216
 40
1.0
 40
1.0
 40
1.0
 40
1.0
 10
72.8084498125
 20
275.6828853718
 30
0.0
 10
72.8224852929
 20
275.7055441985
 30
0.0
 10
72.860800428
 20
275.7560780928
 30
0.0
 10
72.9601371666
 20
275.8720870187
 30
0.0
 10
73.0486930597
 20
275.9621499999
 30
0.0
 10
73.1130884975
 20
276.0243359514
 30
0.0
  0
SPLINE
  5
390
100
AcDbEntity
  8
93780800R00_BL2
100
AcDbSpline
 62
7
  6
CONTINUOUS
 70
0
 71
3
 72
10
 73
6
 74
0
 42
0.0000001
 43
0.0000001
 44
0.0000000001
 40
0.0
 40
0.0
 40
0.0
 40
0.0
 40
0.5860290742
 40
0.8255203224
 40
1.0
 40
1.0
 40
1.0
 40
1.0
 10
73.7812914167
 20
275.3561330322
 30
0.0
 10
73.7191049654
 20
275.2917370769
 30
0.0
 10
73.6290415553
 20
275.2031810684
 30
0.0
 10
73.5130328391
 20
275.1038440518
 30
0.0
 10
73.4624993233
 20
275.0655296167
 30
0.0
 10
73.4398408371
 20
275.0514943472
 30
0.0
  0
ENDBLK
  5
391
100
AcDbEntity
  8
0
  6
BYBLOCK
 62
0
100
AcDbBlockEnd
  0
BLOCK
  5
392
100
AcDbEntity
  8
93894102000_BL3
100
AcDbBlockBegin
  2
93894102000_BL3
 70
64
 10
51.6257555628
 20
180.6780581558
  3
93894102000_BL3
  1

  0
LINE
  5
393
100
AcDbEntity
  8
93894102000_BL3
100
AcDbLine
 62
7
  6
CONTINUOUS
 10
79.8929069059
 20
280.5359514406
 11
79.5858001247
 21
280.2288446595
  0
LINE
  5
394
100
AcDbEntity
  8
93894102000_BL3
100
AcDbLine
 62
7
  6
CONTINUOUS
 10
79.8929069059
 20
280.5359514406
 11
81.5929069059
 21
282.2359514406
  0
LINE
  5
395
100
AcDbEntity
  8
93894102000_BL3
100
AcDbLine
 62
7
  6
CONTINUOUS
 10
81.5929069059
 20
282.2359514406
 11
82.1929069059
 21
282.8359514406
  0
LINE
  5
396
100
AcDbEntity
  8
93894102000_BL3
100
AcDbLine
 62
7
  6
CONTINUOUS
 10
67.0929069059
 20
278.9359514406
 11
67.0929069059
 21
238.7359514406
  0
LINE
  5
397
100
AcDbEntity
  8
93894102000_BL3
100
AcDbLine
 62
7
  6
CONTINUOUS
 10
68.583210907
 20
260.1840216153
 11
68.583210907
 21
259.4963469103
  0
LINE
  5
398
100
AcDbEntity
  8
93894102000_BL3
100
AcDbLine
 62
4
  6
CONTINUOUS
 10
68.583210907
 20
260.1840216153
 11
68.583210907
 21
259.4963469103
  0
LINE
  5
399
100
AcDbEntity
  8
93894102000_BL3
100
AcDbLine
 62
7
  6
CONTINUOUS
 10
68.583210907
 20
258.5732481705
 11
68.583210907
 21
258.0620580646
  0
LINE
  5
39A
100
AcDbEntity
  8
93894102000_BL3
100
AcDbLine
 62
4
  6
CONTINUOUS
 10
68.583210907
 20
258.5732481705
 11
68.583210907
 21
258.0620580646
  0
LINE
  5
39B
100
AcDbEntity
  8
93894102000_BL3
100
AcDbLine
 62
7
  6
CONTINUOUS
 10
69.1936387775
 20
258.0620580646
 11
69.1936387778
 21
258.5732481705
  0
LINE
  5
39C
100
AcDbEntity
  8
93894102000_BL3
100
AcDbLine
 62
4
  6
CONTINUOUS
 10
69.1936387775
 20
258.0620580646
 11
69.1936387778
 21
258.5732481705
  0
LINE
  5
39D
100
AcDbEntity
  8
93894102000_BL3
100
AcDbLine
 62
7
  6
CONTINUOUS
 10
69.1936387778
 20
258.7089536352
 11
69.1936387778
 21
260.1840216153
  0
LINE
  5
39E
100
AcDbEntity
  8
93894102000_BL3
100
AcDbLine
 62
4
  6
CONTINUOUS
 10
69.1936387778
 20
258.7089536352
 11
69.1936387778
 21
260.1840216153
  0
LINE
  5
39F
100
AcDbEntity
  8
93894102000_BL3
100
AcDbLine
 62
9
  6
CONTINUOUS
 10
70.1929069059
 20
246.1859514406
 11
70.1929069059
 21
245.434679397
  0
LINE
  5
3A0
100
AcDbEntity
  8
93894102000_BL3
100
AcDbLine
 62
9
  6
CONTINUOUS
 10
70.1929069059
 20
240.4859514406
 11
70.1929069059
 21
241.2372234843
  0
LINE
  5
3A1
100
AcDbEntity
  8
93894102000_BL3
100
AcDbLine
 62
9
  6
CONTINUOUS
 10
70.1929069059
 20
271.4859514406
 11
70.1929069059
 21
272.2372234843
  0
LINE
  5
3A2
100
AcDbEntity
  8
93894102000_BL3
100
AcDbLine
 62
9
  6
CONTINUOUS
 10
70.1929069059
 20
276.434679397
 11
70.1929069059
 21
277.1859514406
  0
LINE
  5
3A3
100
AcDbEntity
  8
93894102000_BL3
100
AcDbLine
 62
7
  6
CONTINUOUS
 10
70.3418245344
 20
255.8993993226
 11
70.3418245344
 21
256.6551671626
  0
LINE
  5
3A4
100
AcDbEntity
  8
93894102000_BL3
100
AcDbLine
 62
4
  6
CONTINUOUS
 10
70.3418245344
 20
255.8993993226
 11
70.3418245344
 21
256.6551671626
  0
LINE
  5
3A5
100
AcDbEntity
  8
93894102000_BL3
100
AcDbLine
 62
7
  6
CONTINUOUS
 10
70.3418245344
 20
257.3062902248
 11
70.3418245344
 21
258.0620580646
  0
LINE
  5
3A6
100
AcDbEntity
  8
93894102000_BL3
100
AcDbLine
 62
4
  6
CONTINUOUS
 10
70.3418245344
 20
257.3062902248
 11
70.3418245344
 21
258.0620580646
  0
LINE
  5
3A7
100
AcDbEntity
  8
93894102000_BL3
100
AcDbLine
 62
9
  6
CONTINUOUS
 10
73.1929069059
 20
277.1859514406
 11
73.1929069059
 21
276.9378752293
  0
LINE
  5
3A8
100
AcDbEntity
  8
93894102000_BL3
100
AcDbLine
 62
9
  6
CONTINUOUS
 10
73.1929069059
 20
246.1859514406
 11
73.1929069059
 21
245.9378752293
  0
LINE
  5
3A9
100
AcDbEntity
  8
93894102000_BL3
100
AcDbLine
 62
9
  6
CONTINUOUS
 10
73.1929069059
 20
240.734027652
 11
73.1929069059
 21
240.4859514406
  0
LINE
  5
3AA
100
AcDbEntity
  8
93894102000_BL3
100
AcDbLine
 62
9
  6
CONTINUOUS
 10
73.1929069059
 20
271.4859514406
 11
73.1929069059
 21
271.734027652
  0
LINE
  5
3AB
100
AcDbEntity
  8
93894102000_BL3
100
AcDbLine
 62
7
  6
CONTINUOUS
 10
75.8929069059
 20
279.9359514406
 11
75.8929069059
 21
278.3359514406
  0
LINE
  5
3AC
100
AcDbEntity
  8
93894102000_BL3
100
AcDbLine
 62
7
  6
CONTINUOUS
 10
75.8929069059
 20
278.3359514406
 11
75.8929069059
 21
275.2483658202
  0
LINE
  5
3AD
100
AcDbEntity
  8
93894102000_BL3
100
AcDbLine
 62
7
  6
CONTINUOUS
 10
75.8929069059
 20
273.4235370611
 11
75.8929069059
 21
244.2483658202
  0
LINE
  5
3AE
100
AcDbEntity
  8
93894102000_BL3
100
AcDbLine
 62
7
  6
CONTINUOUS
 10
75.8929069059
 20
242.4235370611
 11
75.8929069059
 21
239.3359514406
  0
LINE
  5
3AF
100
AcDbEntity
  8
93894102000_BL3
100
AcDbLine
 62
7
  6
CONTINUOUS
 10
75.8929069059
 20
239.3359514406
 11
75.8929069059
 21
237.7359514406
  0
LINE
  5
3B0
100
AcDbEntity
  8
93894102000_BL3
100
AcDbLine
 62
7
  6
CONTINUOUS
 10
79.8929069059
 20
278.2762364409
 11
79.8929069059
 21
274.3956664403
  0
LINE
  5
3B1
100
AcDbEntity
  8
93894102000_BL3
100
AcDbLine
 62
7
  6
CONTINUOUS
 10
79.8929069059
 20
237.1359514406
 11
79.8929069059
 21
239.2743986278
  0
LINE
  5
3B2
100
AcDbEntity
  8
93894102000_BL3
100
AcDbLine
 62
7
  6
CONTINUOUS
 10
79.8929069059
 20
239.3956664403
 11
79.8929069059
 21
243.2762364409
  0
LINE
  5
3B3
100
AcDbEntity
  8
93894102000_BL3
100
AcDbLine
 62
7
  6
CONTINUOUS
 10
79.8929069059
 20
243.3975042534
 11
79.8929069059
 21
274.2743986278
  0
LINE
  5
3B4
100
AcDbEntity
  8
93894102000_BL3
100
AcDbLine
 62
7
  6
CONTINUOUS
 10
79.8929069059
 20
278.3975042534
 11
79.8929069059
 21
280.5359514406
  0
LINE
  5
3B5
100
AcDbEntity
  8
93894102000_BL3
100
AcDbLine
 62
9
  6
CONTINUOUS
 10
80.5929069059
 20
236.4359514406
 11
80.5929069059
 21
281.2359514406
  0
LINE
  5
3B6
100
AcDbEntity
  8
93894102000_BL3
100
AcDbLine
 62
7
  6
CONTINUOUS
 10
81.5929069059
 20
235.4359514406
 11
81.5929069059
 21
282.2359514406
  0
LINE
  5
3B7
100
AcDbEntity
  8
93894102000_BL3
100
AcDbLine
 62
9
  6
CONTINUOUS
 10
82.5929069059
 20
234.8359514406
 11
82.5929069059
 21
282.8359514406
  0
LINE
  5
3B8
100
AcDbEntity
  8
93894102000_BL3
100
AcDbLine
 62
9
  6
CONTINUOUS
 10
82.7392934344
 20
239.3359514406
 11
82.7392934344
 21
278.3359514406
  0
LINE
  5
3B9
100
AcDbEntity
  8
93894102000_BL3
100
AcDbLine
 62
9
  6
CONTINUOUS
 10
83.1323110039
 20
239.3634685313
 11
83.1323110039
 21
278.308434303
  0
LINE
  5
3BA
100
AcDbEntity
  8
93894102000_BL3
100
AcDbLine
 62
7
  6
CONTINUOUS
 10
85.0929069059
 20
282.8359514406
 11
85.0929069059
 21
234.8359514406
  0
LINE
  5
3BB
100
AcDbEntity
  8
93894102000_BL3
100
AcDbLine
 62
7
  6
CONTINUOUS
 10
85.0929069059
 20
234.8359514406
 11
82.1929069059
 21
234.8359514406
  0
LINE
  5
3BC
100
AcDbEntity
  8
93894102000_BL3
100
AcDbLine
 62
7
  6
CONTINUOUS
 10
79.8929069059
 20
237.1359514406
 11
81.5929069059
 21
235.4359514406
  0
LINE
  5
3BD
100
AcDbEntity
  8
93894102000_BL3
100
AcDbLine
 62
7
  6
CONTINUOUS
 10
82.1929069059
 20
234.8359514406
 11
81.5929069059
 21
235.4359514406
  0
LINE
  5
3BE
100
AcDbEntity
  8
93894102000_BL3
100
AcDbLine
 62
7
  6
CONTINUOUS
 10
79.8929069059
 20
237.1359514406
 11
79.5858001247
 21
237.4430582218
  0
LINE
  5
3BF
100
AcDbEntity
  8
93894102000_BL3
100
AcDbLine
 62
7
  6
CONTINUOUS
 10
69.3377919413
 20
259.576736835
 11
69.787396088
 21
258.9691317023
  0
LINE
  5
3C0
100
AcDbEntity
  8
93894102000_BL3
100
AcDbLine
 62
4
  6
CONTINUOUS
 10
69.3377919413
 20
259.576736835
 11
69.787396088
 21
258.9691317023
  0
LINE
  5
3C1
100
AcDbEntity
  8
93894102000_BL3
100
AcDbLine
 62
7
  6
CONTINUOUS
 10
68.0929069059
 20
237.7359514406
 11
78.8786933435
 21
237.7359514406
  0
LINE
  5
3C2
100
AcDbEntity
  8
93894102000_BL3
100
AcDbLine
 62
9
  6
CONTINUOUS
 10
80.5929069059
 20
239.2743986278
 11
79.8929069059
 21
239.2743986278
  0
LINE
  5
3C3
100
AcDbEntity
  8
93894102000_BL3
100
AcDbLine
 62
7
  6
CONTINUOUS
 10
82.7392934344
 20
239.3359514406
 11
82.5929069059
 21
239.3359514406
  0
LINE
  5
3C4
100
AcDbEntity
  8
93894102000_BL3
100
AcDbLine
 62
9
  6
CONTINUOUS
 10
80.5929069059
 20
239.3956664403
 11
79.8929069059
 21
239.3956664403
  0
LINE
  5
3C5
100
AcDbEntity
  8
93894102000_BL3
100
AcDbLine
 62
7
  6
CONTINUOUS
 10
70.1929069059
 20
240.4859514406
 11
73.1929069059
 21
240.4859514406
  0
LINE
  5
3C6
100
AcDbEntity
  8
93894102000_BL3
100
AcDbLine
 62
9
  6
CONTINUOUS
 10
80.5929069059
 20
243.2762364409
 11
79.8929069059
 21
243.2762364409
  0
LINE
  5
3C7
100
AcDbEntity
  8
93894102000_BL3
100
AcDbLine
 62
9
  6
CONTINUOUS
 10
80.5929069059
 20
243.3975042534
 11
79.8929069059
 21
243.3975042534
  0
LINE
  5
3C8
100
AcDbEntity
  8
93894102000_BL3
100
AcDbLine
 62
7
  6
CONTINUOUS
 10
73.1929069059
 20
246.1859514406
 11
70.1929069059
 21
246.1859514406
  0
LINE
  5
3C9
100
AcDbEntity
  8
93894102000_BL3
100
AcDbLine
 62
7
  6
CONTINUOUS
 10
68.4233369408
 20
255.8993993226
 11
70.3418245344
 21
255.8993993226
  0
LINE
  5
3CA
100
AcDbEntity
  8
93894102000_BL3
100
AcDbLine
 62
4
  6
CONTINUOUS
 10
68.4233369408
 20
255.8993993226
 11
70.3418245344
 21
255.8993993226
  0
LINE
  5
3CB
100
AcDbEntity
  8
93894102000_BL3
100
AcDbLine
 62
7
  6
CONTINUOUS
 10
70.3418245344
 20
256.6551671626
 11
68.4233369408
 21
256.6551671626
  0
LINE
  5
3CC
100
AcDbEntity
  8
93894102000_BL3
100
AcDbLine
 62
4
  6
CONTINUOUS
 10
70.3418245344
 20
256.6551671626
 11
68.4233369408
 21
256.6551671626
  0
LINE
  5
3CD
100
AcDbEntity
  8
93894102000_BL3
100
AcDbLine
 62
7
  6
CONTINUOUS
 10
68.4233369408
 20
257.3062902248
 11
70.3418245344
 21
257.3062902248
  0
LINE
  5
3CE
100
AcDbEntity
  8
93894102000_BL3
100
AcDbLine
 62
4
  6
CONTINUOUS
 10
68.4233369408
 20
257.3062902248
 11
70.3418245344
 21
257.3062902248
  0
LINE
  5
3CF
100
AcDbEntity
  8
93894102000_BL3
100
AcDbLine
 62
7
  6
CONTINUOUS
 10
70.3418245344
 20
258.0620580646
 11
69.1936387775
 21
258.0620580646
  0
LINE
  5
3D0
100
AcDbEntity
  8
93894102000_BL3
100
AcDbLine
 62
4
  6
CONTINUOUS
 10
70.3418245344
 20
258.0620580646
 11
69.1936387775
 21
258.0620580646
  0
LINE
  5
3D1
100
AcDbEntity
  8
93894102000_BL3
100
AcDbLine
 62
7
  6
CONTINUOUS
 10
68.583210907
 20
258.0620580646
 11
68.4233369408
 21
258.0620580646
  0
LINE
  5
3D2
100
AcDbEntity
  8
93894102000_BL3
100
AcDbLine
 62
4
  6
CONTINUOUS
 10
68.583210907
 20
258.0620580646
 11
68.4233369408
 21
258.0620580646
  0
LINE
  5
3D3
100
AcDbEntity
  8
93894102000_BL3
100
AcDbLine
 62
7
  6
CONTINUOUS
 10
73.1929069059
 20
271.4859514406
 11
70.1929069059
 21
271.4859514406
  0
LINE
  5
3D4
100
AcDbEntity
  8
93894102000_BL3
100
AcDbLine
 62
9
  6
CONTINUOUS
 10
79.8929069059
 20
274.2743986278
 11
80.5929069059
 21
274.2743986278
  0
LINE
  5
3D5
100
AcDbEntity
  8
93894102000_BL3
100
AcDbLine
 62
9
  6
CONTINUOUS
 10
79.8929069059
 20
274.3956664403
 11
80.5929069059
 21
274.3956664403
  0
LINE
  5
3D6
100
AcDbEntity
  8
93894102000_BL3
100
AcDbLine
 62
7
  6
CONTINUOUS
 10
70.1929069059
 20
277.1859514406
 11
73.1929069059
 21
277.1859514406
  0
LINE
  5
3D7
100
AcDbEntity
  8
93894102000_BL3
100
AcDbLine
 62
9
  6
CONTINUOUS
 10
79.8929069059
 20
278.2762364409
 11
80.5929069059
 21
278.2762364409
  0
LINE
  5
3D8
100
AcDbEntity
  8
93894102000_BL3
100
AcDbLine
 62
7
  6
CONTINUOUS
 10
82.7392934344
 20
278.3359514406
 11
82.5929069059
 21
278.3359514406
  0
LINE
  5
3D9
100
AcDbEntity
  8
93894102000_BL3
100
AcDbLine
 62
9
  6
CONTINUOUS
 10
79.8929069059
 20
278.3975042534
 11
80.5929069059
 21
278.3975042534
  0
LINE
  5
3DA
100
AcDbEntity
  8
93894102000_BL3
100
AcDbLine
 62
7
  6
CONTINUOUS
 10
68.0929069059
 20
279.9359514406
 11
78.8786933435
 21
279.9359514406
  0
LINE
  5
3DB
100
AcDbEntity
  8
93894102000_BL3
100
AcDbLine
 62
7
  6
CONTINUOUS
 10
82.1929069059
 20
282.8359514406
 11
85.0929069059
 21
282.8359514406
  0
LINE
  5
3DC
100
AcDbEntity
  8
93894102000_BL3
100
AcDbLine
 62
7
  6
CONTINUOUS
 10
18.1586042196
 20
278.3359514406
 11
18.6554088448
 21
282.8359514406
  0
LINE
  5
3DD
100
AcDbEntity
  8
93894102000_BL3
100
AcDbLine
 62
7
  6
CONTINUOUS
 10
18.1586042196
 20
239.3359514406
 11
18.1586042196
 21
278.3359514406
  0
LINE
  5
3DE
100
AcDbEntity
  8
93894102000_BL3
100
AcDbLine
 62
9
  6
CONTINUOUS
 10
18.3495133106
 20
239.3634685313
 11
18.3495133106
 21
278.308434303
  0
LINE
  5
3DF
100
AcDbEntity
  8
93894102000_BL3
100
AcDbLine
 62
7
  6
CONTINUOUS
 10
22.1045022534
 20
282.8359514406
 11
22.1045022534
 21
234.8359514406
  0
LINE
  5
3E0
100
AcDbEntity
  8
93894102000_BL3
100
AcDbLine
 62
7
  6
CONTINUOUS
 10
18.6554088448
 20
234.8359514406
 11
18.1586042196
 21
239.3359514406
  0
LINE
  5
3E1
100
AcDbEntity
  8
93894102000_BL3
100
AcDbLine
 62
7
  6
CONTINUOUS
 10
25.1586042196
 20
282.8359514406
 11
25.1586042196
 21
234.8359514406
  0
LINE
  5
3E2
100
AcDbEntity
  8
93894102000_BL3
100
AcDbLine
 62
7
  6
CONTINUOUS
 10
25.1586042196
 20
234.8359514406
 11
22.1045022534
 21
234.8359514406
  0
LINE
  5
3E3
100
AcDbEntity
  8
93894102000_BL3
100
AcDbLine
 62
7
  6
CONTINUOUS
 10
22.1045022534
 20
234.8359514406
 11
18.6554088448
 21
234.8359514406
  0
LINE
  5
3E4
100
AcDbEntity
  8
93894102000_BL3
100
AcDbLine
 62
7
  6
CONTINUOUS
 10
25.1586042196
 20
282.8359514406
 11
22.1045022534
 21
282.8359514406
  0
LINE
  5
3E5
100
AcDbEntity
  8
93894102000_BL3
100
AcDbLine
 62
7
  6
CONTINUOUS
 10
18.6554088448
 20
282.8359514406
 11
22.1045022534
 21
282.8359514406
  0
LINE
  5
3E6
100
AcDbEntity
  8
93894102000_BL3
100
AcDbLine
 62
7
  6
CONTINUOUS
 10
25.1586042196
 20
78.520164871
 11
22.1586042196
 21
78.520164871
  0
LINE
  5
3E7
100
AcDbEntity
  8
93894102000_BL3
100
AcDbLine
 62
7
  6
CONTINUOUS
 10
18.1586042196
 20
80.8737783425
 11
18.1586042196
 21
81.020164871
  0
LINE
  5
3E8
100
AcDbEntity
  8
93894102000_BL3
100
AcDbLine
 62
7
  6
CONTINUOUS
 10
18.6554088448
 20
80.5073043647
 11
18.6554088448
 21
81.020164871
  0
LINE
  5
3E9
100
AcDbEntity
  8
93894102000_BL3
100
AcDbLine
 62
9
  6
CONTINUOUS
 10
18.1586042196
 20
81.020164871
 11
18.6554088448
 21
81.020164871
  0
LINE
  5
3EA
100
AcDbEntity
  8
93894102000_BL3
100
AcDbLine
 62
7
  6
CONTINUOUS
 10
18.7394009378
 20
81.420164871
 11
19.1586042196
 21
81.420164871
  0
LINE
  5
3EB
100
AcDbEntity
  8
93894102000_BL3
100
AcDbLine
 62
7
  6
CONTINUOUS
 10
25.1586042196
 20
80.520164871
 11
25.1586042196
 21
78.520164871
  0
ARC
  5
3EC
100
AcDbEntity
  8
93894102000_BL3
100
AcDbCircle
 62
9
  6
CONTINUOUS
 10
-386.9213475873
 20
198.5722970137
 40
471.4240159879
100
AcDbArc
 50
4.4117585256
 51
4.9605145504
  0
ARC
  5
3ED
100
AcDbEntity
  8
93894102000_BL3
100
AcDbCircle
 62
9
  6
CONTINUOUS
 10
-366.8772671039
 20
198.5605171201
 40
451.8556311638
100
AcDbArc
 50
4.6047193785
 51
5.1809158251
  0
ARC
  5
3EE
100
AcDbEntity
  8
93894102000_BL3
100
AcDbCircle
 62
9
  6
CONTINUOUS
 10
-386.9236825267
 20
319.0983250663
 40
471.4262327622
100
AcDbArc
 50
355.0396650838
 51
355.5884183883
  0
ARC
  5
3EF
100
AcDbEntity
  8
93894102000_BL3
100
AcDbCircle
 62
9
  6
CONTINUOUS
 10
-366.8817967755
 20
319.1111271247
 40
451.8601192183
100
AcDbArc
 50
354.819168691
 51
355.3953593573
  0
ARC
  5
3F0
100
AcDbEntity
  8
93894102000_BL3
100
AcDbCircle
 62
7
  6
CONTINUOUS
 10
68.0929069059
 20
238.7359514406
 40
1.0
100
AcDbArc
 50
180.0
 51
270.0
  0
ARC
  5
3F1
100
AcDbEntity
  8
93894102000_BL3
100
AcDbCircle
 62
7
  6
CONTINUOUS
 10
70.1929069059
 20
243.3359514406
 40
2.85
100
AcDbArc
 50
90.0
 51
270.0
  0
ARC
  5
3F2
100
AcDbEntity
  8
93894102000_BL3
100
AcDbCircle
 62
7
  6
CONTINUOUS
 10
70.1929069059
 20
243.3359514406
 40
1.85
100
AcDbArc
 50
98.0211106043
 51
261.9788893957
  0
ARC
  5
3F3
100
AcDbEntity
  8
93894102000_BL3
100
AcDbCircle
 62
7
  6
CONTINUOUS
 10
68.4233369408
 20
256.9807286936
 40
1.081329371
100
AcDbArc
 50
90.0
 51
270.0
  0
ARC
  5
3F4
100
AcDbEntity
  8
93894102000_BL3
100
AcDbCircle
 62
4
  6
CONTINUOUS
 10
68.4233369408
 20
256.9807286936
 40
1.081329371
100
AcDbArc
 50
90.0
 51
270.0
  0
ARC
  5
3F5
100
AcDbEntity
  8
93894102000_BL3
100
AcDbCircle
 62
7
  6
CONTINUOUS
 10
68.4233369408
 20
256.9807286937
 40
0.3255615311
100
AcDbArc
 50
90.0
 51
270.0
  0
ARC
  5
3F6
100
AcDbEntity
  8
93894102000_BL3
100
AcDbCircle
 62
4
  6
CONTINUOUS
 10
68.4233369408
 20
256.9807286937
 40
0.3255615311
100
AcDbArc
 50
90.0
 51
270.0
  0
ARC
  5
3F7
100
AcDbEntity
  8
93894102000_BL3
100
AcDbCircle
 62
7
  6
CONTINUOUS
 10
73.1929069059
 20
243.3359514406
 40
2.85
100
AcDbArc
 50
270.0
 51
90.0
  0
ARC
  5
3F8
100
AcDbEntity
  8
93894102000_BL3
100
AcDbCircle
 62
7
  6
CONTINUOUS
 10
73.1929069059
 20
243.3359514406
 40
1.85
100
AcDbArc
 50
325.4204814865
 51
34.5795185135
  0
ARC
  5
3F9
100
AcDbEntity
  8
93894102000_BL3
100
AcDbCircle
 62
7
  6
CONTINUOUS
 10
78.3841117148
 20
239.3352694396
 40
1.5097783673
100
AcDbArc
 50
358.1490832491
 51
1.863669563
  0
ARC
  5
3FA
100
AcDbEntity
  8
93894102000_BL3
100
AcDbCircle
 62
7
  6
CONTINUOUS
 10
81.1230855768
 20
243.3365083658
 40
1.2312535154
100
AcDbArc
 50
177.982080667
 51
182.0412226871
  0
ARC
  5
3FB
100
AcDbEntity
  8
93894102000_BL3
100
AcDbCircle
 62
7
  6
CONTINUOUS
 10
78.8786933435
 20
236.7359514406
 40
1.0
100
AcDbArc
 50
45.0
 51
90.0
  0
ARC
  5
3FC
100
AcDbEntity
  8
93894102000_BL3
100
AcDbCircle
 62
7
  6
CONTINUOUS
 10
79.3928222822
 20
243.3975054778
 40
0.5000846238
100
AcDbArc
 50
357.9780969061
 51
359.9998597202
  0
ARC
  5
3FD
100
AcDbEntity
  8
93894102000_BL3
100
AcDbCircle
 62
7
  6
CONTINUOUS
 10
79.4315258636
 20
243.2761967832
 40
0.4613810441
100
AcDbArc
 50
0.0049248218
 51
2.0440115099
  0
ARC
  5
3FE
100
AcDbEntity
  8
93894102000_BL3
100
AcDbCircle
 62
7
  6
CONTINUOUS
 10
68.8884248424
 20
260.1840216153
 40
1.6394348529
100
AcDbArc
 50
259.2706340045
 51
280.7293659955
  0
ARC
  5
3FF
100
AcDbEntity
  8
93894102000_BL3
100
AcDbCircle
 62
4
  6
CONTINUOUS
 10
68.8884248424
 20
260.1840216153
 40
1.6394348529
100
AcDbArc
 50
259.2706340045
 51
280.7293659955
  0
ARC
  5
400
100
AcDbEntity
  8
93894102000_BL3
100
AcDbCircle
 62
7
  6
CONTINUOUS
 10
68.8884248424
 20
260.2130896091
 40
1.534790075
100
AcDbArc
 50
305.8545159679
 51
281.4705154512
  0
ARC
  5
401
100
AcDbEntity
  8
93894102000_BL3
100
AcDbCircle
 62
4
  6
CONTINUOUS
 10
68.8884248424
 20
260.2130896091
 40
1.534790075
100
AcDbArc
 50
305.8545159679
 51
281.4705154512
  0
ARC
  5
402
100
AcDbEntity
  8
93894102000_BL3
100
AcDbCircle
 62
7
  6
CONTINUOUS
 10
68.8884248424
 20
260.2130896092
 40
0.7790222351
100
AcDbArc
 50
305.2282226131
 51
246.9340105685
  0
ARC
  5
403
100
AcDbEntity
  8
93894102000_BL3
100
AcDbCircle
 62
4
  6
CONTINUOUS
 10
68.8884248424
 20
260.2130896092
 40
0.7790222351
100
AcDbArc
 50
305.2282226131
 51
246.9340105685
  0
ARC
  5
404
100
AcDbEntity
  8
93894102000_BL3
100
AcDbCircle
 62
7
  6
CONTINUOUS
 10
68.8884248424
 20
260.1840216153
 40
0.3052139354
100
AcDbArc
 50
0.0
 51
180.0
  0
ARC
  5
405
100
AcDbEntity
  8
93894102000_BL3
100
AcDbCircle
 62
4
  6
CONTINUOUS
 10
68.8884248424
 20
260.1840216153
 40
0.3052139354
100
AcDbArc
 50
0.0
 51
180.0
  0
ARC
  5
406
100
AcDbEntity
  8
93894102000_BL3
100
AcDbCircle
 62
7
  6
CONTINUOUS
 10
70.1929069059
 20
274.3359514406
 40
2.85
100
AcDbArc
 50
90.0
 51
270.0
  0
ARC
  5
407
100
AcDbEntity
  8
93894102000_BL3
100
AcDbCircle
 62
7
  6
CONTINUOUS
 10
70.1929069059
 20
274.3359514406
 40
1.85
100
AcDbArc
 50
98.0211106043
 51
261.9788893957
  0
ARC
  5
408
100
AcDbEntity
  8
93894102000_BL3
100
AcDbCircle
 62
7
  6
CONTINUOUS
 10
68.0929069059
 20
278.9359514406
 40
1.0
100
AcDbArc
 50
90.0
 51
180.0
  0
ARC
  5
409
100
AcDbEntity
  8
93894102000_BL3
100
AcDbCircle
 62
7
  6
CONTINUOUS
 10
73.1929069059
 20
274.3359514406
 40
2.85
100
AcDbArc
 50
270.0
 51
90.0
  0
ARC
  5
40A
100
AcDbEntity
  8
93894102000_BL3
100
AcDbCircle
 62
7
  6
CONTINUOUS
 10
73.1929069059
 20
274.3359514406
 40
1.85
100
AcDbArc
 50
325.4204814865
 51
34.5795185135
  0
ARC
  5
40B
100
AcDbEntity
  8
93894102000_BL3
100
AcDbCircle
 62
7
  6
CONTINUOUS
 10
78.3841117184
 20
278.3366334417
 40
1.5097783637
100
AcDbArc
 50
358.1363304325
 51
1.8509167552
  0
ARC
  5
40C
100
AcDbEntity
  8
93894102000_BL3
100
AcDbCircle
 62
7
  6
CONTINUOUS
 10
81.1230854912
 20
274.3353945155
 40
1.2312534298
100
AcDbArc
 50
177.9587771714
 51
182.0179194736
  0
ARC
  5
40D
100
AcDbEntity
  8
93894102000_BL3
100
AcDbCircle
 62
7
  6
CONTINUOUS
 10
78.8786933435
 20
280.9359514406
 40
1.0
100
AcDbArc
 50
270.0
 51
315.0
  0
ARC
  5
40E
100
AcDbEntity
  8
93894102000_BL3
100
AcDbCircle
 62
7
  6
CONTINUOUS
 10
79.3928222999
 20
274.2743974037
 40
0.500084606
100
AcDbArc
 50
0.0001402559
 51
2.0219030698
  0
ARC
  5
40F
100
AcDbEntity
  8
93894102000_BL3
100
AcDbCircle
 62
7
  6
CONTINUOUS
 10
79.4315258638
 20
274.395706098
 40
0.4613810438
100
AcDbArc
 50
357.955988492
 51
359.9950751817
  0
ARC
  5
410
100
AcDbEntity
  8
93894102000_BL3
100
AcDbCircle
 62
7
  6
CONTINUOUS
 10
25.4586042196
 20
89.520164871
 40
11.5
100
AcDbArc
 50
231.8166087147
 51
236.7704990765
  0
ARC
  5
411
100
AcDbEntity
  8
93894102000_BL3
100
AcDbCircle
 62
9
  6
CONTINUOUS
 10
24.9887561367
 20
89.5566983526
 40
11.0455243563
100
AcDbArc
 50
231.8032545949
 51
234.2393512155
  0
ARC
  5
412
100
AcDbEntity
  8
93894102000_BL3
100
AcDbCircle
 62
7
  6
CONTINUOUS
 10
19.1586042196
 20
81.020164871
 40
1.0
100
AcDbArc
 50
90.0
 51
180.0
  0
ARC
  5
413
100
AcDbEntity
  8
93894102000_BL3
100
AcDbCircle
 62
7
  6
CONTINUOUS
 10
18.6586042196
 20
80.8737783425
 40
0.5
100
AcDbArc
 50
180.0
 51
231.8165175668
  0
SPLINE
  5
414
100
AcDbEntity
  8
93894102000_BL3
100
AcDbSpline
 62
9
  6
CONTINUOUS
 70
0
 71
3
 72
17
 73
13
 74
0
 42
0.0000001
 43
0.0000001
 44
0.0000000001
 40
0.0
 40
0.0
 40
0.0
 40
0.0
 40
0.1941213453
 40
0.3808659009
 40
0.5527156347
 40
0.7033380759
 40
0.826995905
 40
0.9191502315
 40
0.9523783272
 40
0.9767136302
 40
0.992203471
 40
1.0
 40
1.0
 40
1.0
 40
1.0
 10
80.5929069059
 20
274.2743986278
 30
0.0
 10
80.6580562033
 20
274.2743986086
 30
0.0
 10
80.785879687
 20
274.2751164308
 30
0.0
 10
80.9713566605
 20
274.2783300797
 30
0.0
 10
81.1421720176
 20
274.2835948429
 30
0.0
 10
81.2917635602
 20
274.2907391267
 30
0.0
 10
81.4143767545
 20
274.299443064
 30
0.0
 10
81.4976626337
 20
274.3084595251
 30
0.0
 10
81.5470626152
 20
274.316565689
 30
0.0
 10
81.5712395445
 20
274.3226316645
 30
0.0
 10
81.5857314709
 20
274.3273473879
 30
0.0
 10
81.5929010873
 20
274.3333348447
 30
0.0
 10
81.5929069059
 20
274.3359514406
 30
0.0
  0
SPLINE
  5
415
100
AcDbEntity
  8
93894102000_BL3
100
AcDbSpline
 62
9
  6
CONTINUOUS
 70
0
 71
3
 72
8
 73
4
 74
0
 42
0.0000001
 43
0.0000001
 44
0.0000000001
 40
0.0
 40
0.0
 40
0.0
 40
0.0
 40
1.0
 40
1.0
 40
1.0
 40
1.0
 10
76.042906424
 20
274.3342940012
 30
0.0
 10
77.3261350857
 20
274.3201143649
 30
0.0
 10
78.6093637373
 20
274.3059318296
 30
0.0
 10
79.8925955595
 20
274.2920411597
 30
0.0
  0
SPLINE
  5
416
100
AcDbEntity
  8
93894102000_BL3
100
AcDbSpline
 62
9
  6
CONTINUOUS
 70
0
 71
3
 72
9
 73
5
 74
0
 42
0.0000001
 43
0.0000001
 44
0.0000000001
 40
0.0
 40
0.0
 40
0.0
 40
0.0
 40
0.4996837411
 40
1.0
 40
1.0
 40
1.0
 40
1.0
 10
76.0429044816
 20
274.3359514801
 30
0.0
 10
76.6841183156
 20
274.34303745
 30
0.0
 10
77.9673244438
 20
274.3601203619
 30
0.0
 10
79.2505828784
 20
274.3725951997
 30
0.0
 10
79.8926131437
 20
274.3792455002
 30
0.0
  0
SPLINE
  5
417
100
AcDbEntity
  8
93894102000_BL3
100
AcDbSpline
 62
7
  6
CONTINUOUS
 70
0
 71
3
 72
17
 73
13
 74
0
 42
0.0000001
 43
0.0000001
 44
0.0000000001
 40
0.0
 40
0.0
 40
0.0
 40
0.0
 40
0.0071901371
 40
0.0224674913
 40
0.0466940972
 40
0.0798960505
 40
0.172287844
 40
0.2961118404
 40
0.4469062976
 40
0.6190626822
 40
0.8061987573
 40
1.0
 40
1.0
 40
1.0
 40
1.0
 10
81.5929069059
 20
239.3909847705
 30
0.0
 10
81.5929069059
 20
239.3885752718
 30
0.0
 10
81.6006272482
 20
239.3834375706
 30
0.0
 10
81.614619644
 20
239.3794390939
 30
0.0
 10
81.6390008284
 20
239.3741120958
 30
0.0
 10
81.6883891078
 20
239.3669877492
 30
0.0
 10
81.7718547185
 20
239.358997153
 30
0.0
 10
81.8944930004
 20
239.351129984
 30
0.0
 10
82.0441161678
 20
239.34457398
 30
0.0
 10
82.2149735588
 20
239.339655924
 30
0.0
 10
82.4003052649
 20
239.3366439411
 30
0.0
 10
82.5279618493
 20
239.3359514406
 30
0.0
 10
82.5929069059
 20
239.3359514406
 30
0.0
  0
SPLINE
  5
418
100
AcDbEntity
  8
93894102000_BL3
100
AcDbSpline
 62
7
  6
CONTINUOUS
 70
0
 71
3
 72
10
 73
6
 74
0
 42
0.0000001
 43
0.0000001
 44
0.0000000001
 40
0.0
 40
0.0
 40
0.0
 40
0.0
 40
0.284834527
 40
0.5555773827
 40
1.0
 40
1.0
 40
1.0
 40
1.0
 10
82.7392934344
 20
278.3359514406
 30
0.0
 10
82.7767051461
 20
278.3359514406
 30
0.0
 10
82.8496003938
 20
278.3311051365
 30
0.0
 10
82.9805715791
 20
278.3218407533
 30
0.0
 10
83.0743074222
 20
278.3149900101
 30
0.0
 10
83.1323110039
 20
278.308434303
 30
0.0
  0
SPLINE
  5
419
100
AcDbEntity
  8
93894102000_BL3
100
AcDbSpline
 62
7
  6
CONTINUOUS
 70
0
 71
3
 72
17
 73
13
 74
0
 42
0.0000001
 43
0.0000001
 44
0.0000000001
 40
0.0
 40
0.0
 40
0.0
 40
0.0
 40
0.0071901371
 40
0.0224674913
 40
0.0466940972
 40
0.0798960505
 40
0.172287844
 40
0.2961118404
 40
0.4469062976
 40
0.6190626822
 40
0.8061987573
 40
1.0
 40
1.0
 40
1.0
 40
1.0
 10
81.5929069059
 20
278.2809181107
 30
0.0
 10
81.5929069059
 20
278.2833276095
 30
0.0
 10
81.6006272482
 20
278.2884653107
 30
0.0
 10
81.614619644
 20
278.2924637873
 30
0.0
 10
81.6390008284
 20
278.2977907855
 30
0.0
 10
81.6883891078
 20
278.3049151321
 30
0.0
 10
81.7718547185
 20
278.3129057283
 30
0.0
 10
81.8944930004
 20
278.3207728973
 30
0.0
 10
82.0441161678
 20
278.3273289012
 30
0.0
 10
82.2149735588
 20
278.3322469573
 30
0.0
 10
82.4003052649
 20
278.3352589401
 30
0.0
 10
82.5279618493
 20
278.3359514406
 30
0.0
 10
82.5929069059
 20
278.3359514406
 30
0.0
  0
SPLINE
  5
41A
100
AcDbEntity
  8
93894102000_BL3
100
AcDbSpline
 62
7
  6
CONTINUOUS
 70
0
 71
3
 72
8
 73
4
 74
0
 42
0.0000001
 43
0.0000001
 44
0.0000000001
 40
0.0
 40
0.0
 40
0.0
 40
0.0
 40
1.0
 40
1.0
 40
1.0
 40
1.0
 10
79.8930914671
 20
239.384369598
 30
0.0
 10
79.8929690033
 20
239.3881261489
 30
0.0
 10
79.8928445426
 20
239.3918894564
 30
0.0
 10
79.8929983816
 20
239.3956448531
 30
0.0
  0
SPLINE
  5
41B
100
AcDbEntity
  8
93894102000_BL3
100
AcDbSpline
 62
9
  6
CONTINUOUS
 70
0
 71
3
 72
9
 73
5
 74
0
 42
0.0000001
 43
0.0000001
 44
0.0000000001
 40
0.0
 40
0.0
 40
0.0
 40
0.0
 40
0.2957300403
 40
1.0
 40
1.0
 40
1.0
 40
1.0
 10
81.592906926
 20
239.3359518058
 30
0.0
 10
81.5927668123
 20
239.341205283
 30
0.0
 10
81.5710780249
 20
239.3497051933
 30
0.0
 10
81.5564827193
 20
239.3527419905
 30
0.0
 10
81.5441827701
 20
239.3550542758
 30
0.0
  0
SPLINE
  5
41C
100
AcDbEntity
  8
93894102000_BL3
100
AcDbSpline
 62
9
  6
CONTINUOUS
 70
0
 71
3
 72
11
 73
7
 74
0
 42
0.0000001
 43
0.0000001
 44
0.0000000001
 40
0.0
 40
0.0
 40
0.0
 40
0.0
 40
0.1487013667
 40
0.3803144243
 40
0.6736716275
 40
1.0
 40
1.0
 40
1.0
 40
1.0
 10
81.5441827701
 20
239.3550542758
 30
0.0
 10
81.4977688644
 20
239.3637796935
 30
0.0
 10
81.3772232753
 20
239.3750209799
 30
0.0
 10
81.1636998338
 20
239.3868464793
 30
0.0
 10
80.8933447866
 20
239.3939767934
 30
0.0
 10
80.6965474413
 20
239.3956803342
 30
0.0
 10
80.592906905
 20
239.3956826622
 30
0.0
  0
SPLINE
  5
41D
100
AcDbEntity
  8
93894102000_BL3
100
AcDbSpline
 62
9
  6
CONTINUOUS
 70
0
 71
3
 72
10
 73
6
 74
0
 42
0.0000001
 43
0.0000001
 44
0.0000000001
 40
0.0
 40
0.0
 40
0.0
 40
0.0
 40
0.1076182238
 40
0.3008405421
 40
1.0
 40
1.0
 40
1.0
 40
1.0
 10
81.5929069059
 20
239.3359514406
 30
0.0
 10
81.5928534933
 20
239.3339912868
 30
0.0
 10
81.588543096
 20
239.329394869
 30
0.0
 10
81.5720363632
 20
239.3225923132
 30
0.0
 10
81.555821804
 20
239.3190019086
 30
0.0
 10
81.5433054481
 20
239.3166296195
 30
0.0
  0
SPLINE
  5
41E
100
AcDbEntity
  8
93894102000_BL3
100
AcDbSpline
 62
9
  6
CONTINUOUS
 70
0
 71
3
 72
11
 73
7
 74
0
 42
0.0000001
 43
0.0000001
 44
0.0000000001
 40
0.0
 40
0.0
 40
0.0
 40
0.0
 40
0.1504439392
 40
0.3831149745
 40
0.6757723127
 40
1.0
 40
1.0
 40
1.0
 40
1.0
 10
81.5433054481
 20
239.3166296195
 30
0.0
 10
81.496400107
 20
239.3077394099
 30
0.0
 10
81.3750739975
 20
239.2963505463
 30
0.0
 10
81.1611047507
 20
239.283866044
 30
0.0
 10
80.8915382942
 20
239.2762271056
 30
0.0
 10
80.6957941552
 20
239.2743987157
 30
0.0
 10
80.5929069059
 20
239.2743986278
 30
0.0
  0
SPLINE
  5
41F
100
AcDbEntity
  8
93894102000_BL3
100
AcDbSpline
 62
9
  6
CONTINUOUS
 70
0
 71
3
 72
8
 73
4
 74
0
 42
0.0000001
 43
0.0000001
 44
0.0000000001
 40
0.0
 40
0.0
 40
0.0
 40
0.0
 40
1.0
 40
1.0
 40
1.0
 40
1.0
 10
79.893102428
 20
239.2865077361
 30
0.0
 10
78.5596997559
 20
239.3026485107
 30
0.0
 10
77.2263030791
 20
239.3192824295
 30
0.0
 10
75.8929069059
 20
239.3359514406
 30
0.0
  0
SPLINE
  5
420
100
AcDbEntity
  8
93894102000_BL3
100
AcDbSpline
 62
9
  6
CONTINUOUS
 70
0
 71
3
 72
9
 73
5
 74
0
 42
0.0000001
 43
0.0000001
 44
0.0000000001
 40
0.0
 40
0.0
 40
0.0
 40
0.0
 40
0.2497380704
 40
1.0
 40
1.0
 40
1.0
 40
1.0
 10
79.8930917275
 20
239.3843633646
 30
0.0
 10
79.5600893842
 20
239.3805760958
 30
0.0
 10
78.2266867161
 20
239.3650802165
 30
0.0
 10
76.893297499
 20
239.3484576548
 30
0.0
 10
75.8929069059
 20
239.3359514406
 30
0.0
  0
SPLINE
  5
421
100
AcDbEntity
  8
93894102000_BL3
100
AcDbSpline
 62
7
  6
CONTINUOUS
 70
0
 71
3
 72
8
 73
4
 74
0
 42
0.0000001
 43
0.0000001
 44
0.0000000001
 40
0.0
 40
0.0
 40
0.0
 40
0.0
 40
1.0
 40
1.0
 40
1.0
 40
1.0
 10
79.8930914671
 20
278.2875332832
 30
0.0
 10
79.8929690033
 20
278.2837767324
 30
0.0
 10
79.8928445426
 20
278.2800134249
 30
0.0
 10
79.8929983816
 20
278.2762580281
 30
0.0
  0
SPLINE
  5
422
100
AcDbEntity
  8
93894102000_BL3
100
AcDbSpline
 62
9
  6
CONTINUOUS
 70
0
 71
3
 72
17
 73
13
 74
0
 42
0.0000001
 43
0.0000001
 44
0.0000000001
 40
0.0
 40
0.0
 40
0.0
 40
0.0
 40
0.1937929879
 40
0.3804752205
 40
0.5523509223
 40
0.7030281402
 40
0.8268897236
 40
0.9192055975
 40
0.9524629853
 40
0.9767488672
 40
0.9922172857
 40
1.0
 40
1.0
 40
1.0
 40
1.0
 10
80.5929069059
 20
278.3975042534
 30
0.0
 10
80.6579326451
 20
278.3975041821
 30
0.0
 10
80.785598846
 20
278.396756526
 30
0.0
 10
80.970913669
 20
278.3934313885
 30
0.0
 10
81.1416954515
 20
278.3880232576
 30
0.0
 10
81.2913460554
 20
278.380741809
 30
0.0
 10
81.4140674738
 20
278.3719830927
 30
0.0
 10
81.4974783942
 20
278.3630026307
 30
0.0
 10
81.5469197924
 20
278.3549878697
 30
0.0
 10
81.5711206241
 20
278.3490490321
 30
0.0
 10
81.5855674307
 20
278.3443629349
 30
0.0
 10
81.5928360283
 20
278.3385608219
 30
0.0
 10
81.5929069059
 20
278.3359503543
 30
0.0
  0
SPLINE
  5
423
100
AcDbEntity
  8
93894102000_BL3
100
AcDbSpline
 62
9
  6
CONTINUOUS
 70
0
 71
3
 72
13
 73
9
 74
0
 42
0.0000001
 43
0.0000001
 44
0.0000000001
 40
0.0
 40
0.0
 40
0.0
 40
0.0
 40
0.3517583994
 40
0.6586066217
 40
0.783058351
 40
0.8831087015
 40
0.9560151064
 40
1.0
 40
1.0
 40
1.0
 40
1.0
 10
80.5929069047
 20
278.2762202652
 30
0.0
 10
80.7090147143
 20
278.2762229979
 30
0.0
 10
80.9263986314
 20
278.2783007826
 30
0.0
 10
81.1848217265
 20
278.2860686478
 30
0.0
 10
81.3598804182
 20
278.2962441262
 30
0.0
 10
81.4578197056
 20
278.304364147
 30
0.0
 10
81.5286553722
 20
278.3136656715
 30
0.0
 10
81.5669062947
 20
278.3208403878
 30
0.0
 10
81.5804381823
 20
278.3261009628
 30
0.0
  0
SPLINE
  5
424
100
AcDbEntity
  8
93894102000_BL3
100
AcDbSpline
 62
9
  6
CONTINUOUS
 70
0
 71
3
 72
8
 73
4
 74
0
 42
0.0000001
 43
0.0000001
 44
0.0000000001
 40
0.0
 40
0.0
 40
0.0
 40
0.0
 40
1.0
 40
1.0
 40
1.0
 40
1.0
 10
75.8929069059
 20
278.3359514406
 30
0.0
 10
77.2263030791
 20
278.3526204518
 30
0.0
 10
78.5596997559
 20
278.3692543706
 30
0.0
 10
79.893102428
 20
278.3853951452
 30
0.0
  0
SPLINE
  5
425
100
AcDbEntity
  8
93894102000_BL3
100
AcDbSpline
 62
9
  6
CONTINUOUS
 70
0
 71
3
 72
9
 73
5
 74
0
 42
0.0000001
 43
0.0000001
 44
0.0000000001
 40
0.0
 40
0.0
 40
0.0
 40
0.0
 40
0.2502703117
 40
1.0
 40
1.0
 40
1.0
 40
1.0
 10
75.8929069059
 20
278.3359514406
 30
0.0
 10
76.2266144434
 20
278.3317796522
 30
0.0
 10
77.5600029571
 20
278.3151205529
 30
0.0
 10
78.8933973752
 20
278.29890914
 30
0.0
 10
79.8930917275
 20
278.2875395166
 30
0.0
  0
SPLINE
  5
426
100
AcDbEntity
  8
93894102000_BL3
100
AcDbSpline
 62
7
  6
CONTINUOUS
 70
0
 71
3
 72
8
 73
4
 74
0
 42
0.0000001
 43
0.0000001
 44
0.0000000001
 40
0.0
 40
0.0
 40
0.0
 40
0.0
 40
1.0
 40
1.0
 40
1.0
 40
1.0
 10
79.893102428
 20
239.2865077361
 30
0.0
 10
79.8929722089
 20
239.2824753773
 30
0.0
 10
79.8928420672
 20
239.2784359494
 30
0.0
 10
79.893004293
 20
239.2744047514
 30
0.0
  0
SPLINE
  5
427
100
AcDbEntity
  8
93894102000_BL3
100
AcDbSpline
 62
7
  6
CONTINUOUS
 70
0
 71
3
 72
8
 73
4
 74
0
 42
0.0000001
 43
0.0000001
 44
0.0000000001
 40
0.0
 40
0.0
 40
0.0
 40
0.0
 40
1.0
 40
1.0
 40
1.0
 40
1.0
 10
79.893102428
 20
278.3853951452
 30
0.0
 10
79.8929722089
 20
278.389427504
 30
0.0
 10
79.8928420672
 20
278.3934669319
 30
0.0
 10
79.893004293
 20
278.3974981298
 30
0.0
  0
SPLINE
  5
428
100
AcDbEntity
  8
93894102000_BL3
100
AcDbSpline
 62
9
  6
CONTINUOUS
 70
0
 71
3
 72
17
 73
13
 74
0
 42
0.0000001
 43
0.0000001
 44
0.0000000001
 40
0.0
 40
0.0
 40
0.0
 40
0.0
 40
0.0077966084
 40
0.0232864324
 40
0.0476218248
 40
0.080850037
 40
0.1730046261
 40
0.2966627254
 40
0.4472853174
 40
0.6191350713
 40
0.8058789403
 40
1.0
 40
1.0
 40
1.0
 40
1.0
 10
81.5929069059
 20
243.3359514406
 30
0.0
 10
81.5929010206
 20
243.3385680632
 30
0.0
 10
81.585731529
 20
243.3445555596
 30
0.0
 10
81.5712394078
 20
243.3492711976
 30
0.0
 10
81.5470624918
 20
243.3553372477
 30
0.0
 10
81.4976623078
 20
243.363443386
 30
0.0
 10
81.4143762391
 20
243.372459863
 30
0.0
 10
81.2917627998
 20
243.3811638026
 30
0.0
 10
81.1421711108
 20
243.388308058
 30
0.0
 10
80.9713559233
 20
243.3935728192
 30
0.0
 10
80.7858792675
 20
243.3967864744
 30
0.0
 10
80.6580561083
 20
243.3975042635
 30
0.0
 10
80.5929069059
 20
243.3975042534
 30
0.0
  0
SPLINE
  5
429
100
AcDbEntity
  8
93894102000_BL3
100
AcDbSpline
 62
9
  6
CONTINUOUS
 70
0
 71
3
 72
17
 73
13
 74
0
 42
0.0000001
 43
0.0000001
 44
0.0000000001
 40
0.0
 40
0.0
 40
0.0
 40
0.0
 40
0.0078720881
 40
0.0236020993
 40
0.048289348
 40
0.0819609147
 40
0.1750789158
 40
0.2994699964
 40
0.4502890639
 40
0.6216579663
 40
0.8072976896
 40
1.0
 40
1.0
 40
1.0
 40
1.0
 10
81.5929069059
 20
243.3359514406
 30
0.0
 10
81.5929010341
 20
243.3333098119
 30
0.0
 10
81.5855685297
 20
243.3272936503
 30
0.0
 10
81.5709058447
 20
243.3225180982
 30
0.0
 10
81.5463403232
 20
243.3164913822
 30
0.0
 10
81.4963573959
 20
243.3084218637
 30
0.0
 10
81.4123244405
 20
243.2996224417
 30
0.0
 10
81.2890692916
 20
243.2912842398
 30
0.0
 10
81.1393226629
 20
243.2846041028
 30
0.0
 10
80.968982973
 20
243.2797774749
 30
0.0
 10
80.7845325647
 20
243.2768795518
 30
0.0
 10
80.6575719875
 20
243.2762522556
 30
0.0
 10
80.5929069063
 20
243.2762516776
 30
0.0
  0
SPLINE
  5
42A
100
AcDbEntity
  8
93894102000_BL3
100
AcDbSpline
 62
9
  6
CONTINUOUS
 70
0
 71
3
 72
9
 73
5
 74
0
 42
0.0000001
 43
0.0000001
 44
0.0000000001
 40
0.0
 40
0.0
 40
0.0
 40
0.0
 40
0.5003162589
 40
1.0
 40
1.0
 40
1.0
 40
1.0
 10
79.8926131436
 20
243.2926573828
 30
0.0
 10
79.2505828783
 20
243.2993076832
 30
0.0
 10
77.9673244437
 20
243.3117825093
 30
0.0
 10
76.6841183157
 20
243.3288654313
 30
0.0
 10
76.0429044816
 20
243.3359514012
 30
0.0
  0
SPLINE
  5
42B
100
AcDbEntity
  8
93894102000_BL3
100
AcDbSpline
 62
9
  6
CONTINUOUS
 70
0
 71
3
 72
8
 73
4
 74
0
 42
0.0000001
 43
0.0000001
 44
0.0000000001
 40
0.0
 40
0.0
 40
0.0
 40
0.0
 40
1.0
 40
1.0
 40
1.0
 40
1.0
 10
79.8925955595
 20
243.379861721
 30
0.0
 10
78.6093637373
 20
243.365971051
 30
0.0
 10
77.3261350857
 20
243.3517885164
 30
0.0
 10
76.042906424
 20
243.33760888
 30
0.0
  0
SPLINE
  5
42C
100
AcDbEntity
  8
93894102000_BL3
100
AcDbSpline
 62
7
  6
CONTINUOUS
 70
0
 71
3
 72
10
 73
6
 74
0
 42
0.0000001
 43
0.0000001
 44
0.0000000001
 40
0.0
 40
0.0
 40
0.0
 40
0.0
 40
0.2848394061
 40
0.5555780727
 40
1.0
 40
1.0
 40
1.0
 40
1.0
 10
82.7392934344
 20
239.3359514406
 30
0.0
 10
82.7767058022
 20
239.3359514406
 30
0.0
 10
82.8496015825
 20
239.3407891794
 30
0.0
 10
82.9805722743
 20
239.3500627044
 30
0.0
 10
83.0743074886
 20
239.3569128321
 30
0.0
 10
83.1323110039
 20
239.3634685313
 30
0.0
  0
SPLINE
  5
42D
100
AcDbEntity
  8
93894102000_BL3
100
AcDbSpline
 62
9
  6
CONTINUOUS
 70
0
 71
3
 72
17
 73
13
 74
0
 42
0.0000001
 43
0.0000001
 44
0.0000000001
 40
0.0
 40
0.0
 40
0.0
 40
0.0
 40
0.1927025312
 40
0.3783429528
 40
0.5497118291
 40
0.7005306998
 40
0.8249215397
 40
0.9180392605
 40
0.9517107191
 40
0.9763978885
 40
0.9921277964
 40
1.0
 40
1.0
 40
1.0
 40
1.0
 10
80.5929069065
 20
274.3956511563
 30
0.0
 10
80.6575720671
 20
274.395650569
 30
0.0
 10
80.7845329618
 20
274.3950230977
 30
0.0
 10
80.9689836857
 20
274.3921253623
 30
0.0
 10
81.1393235549
 20
274.3872988104
 30
0.0
 10
81.2890700273
 20
274.3806185593
 30
0.0
 10
81.4123249685
 20
274.3722804266
 30
0.0
 10
81.4963576714
 20
274.3634809366
 30
0.0
 10
81.5463405169
 20
274.3554115693
 30
0.0
 10
81.5709058054
 20
274.3493845409
 30
0.0
 10
81.5855687057
 20
274.3446094988
 30
0.0
 10
81.5929011017
 20
274.3385931085
 30
0.0
 10
81.5929069059
 20
274.3359514406
 30
0.0
  0
LINE
  5
42E
100
AcDbEntity
  8
93894102000_BL3
100
AcDbLine
 62
9
  6
CONTINUOUS
 10
18.8721118366
 20
234.8359514406
 11
18.8692634814
 21
234.8606296662
  0
LINE
  5
42F
100
AcDbEntity
  8
93894102000_BL3
100
AcDbLine
 62
9
  6
CONTINUOUS
 10
18.8692634814
 20
234.8606296662
 11
18.3495273918
 21
239.3634711625
  0
LINE
  5
430
100
AcDbEntity
  8
93894102000_BL3
100
AcDbLine
 62
9
  6
CONTINUOUS
 10
18.3495276907
 20
278.3084316161
 11
18.8692548088
 21
282.8112755954
  0
LINE
  5
431
100
AcDbEntity
  8
93894102000_BL3
100
AcDbLine
 62
9
  6
CONTINUOUS
 10
18.8692548088
 20
282.8112755954
 11
18.8721028863
 21
282.8359514406
  0
SPLINE
  5
432
100
AcDbEntity
  8
93894102000_BL3
100
AcDbSpline
 62
7
  6
CONTINUOUS
 70
0
 71
3
 72
11
 73
7
 74
0
 42
0.0000001
 43
0.0000001
 44
0.0000000001
 40
0.0
 40
0.0
 40
0.0
 40
0.0
 40
0.0709012083
 40
0.2687748755
 40
0.5835572493
 40
1.0
 40
1.0
 40
1.0
 40
1.0
 10
18.1586042196
 20
278.3359514406
 30
0.0
 10
18.1627551652
 20
278.3339544248
 30
0.0
 10
18.1789042145
 20
278.327681557
 30
0.0
 10
18.2164382185
 20
278.3221188113
 30
0.0
 10
18.275806645
 20
278.3155039229
 30
0.0
 10
18.3227702214
 20
278.3108114127
 30
0.0
 10
18.3495133106
 20
278.308434303
 30
0.0
  0
SPLINE
  5
433
100
AcDbEntity
  8
93894102000_BL3
100
AcDbSpline
 62
7
  6
CONTINUOUS
 70
0
 71
3
 72
11
 73
7
 74
0
 42
0.0000001
 43
0.0000001
 44
0.0000000001
 40
0.0
 40
0.0
 40
0.0
 40
0.0
 40
0.0708974464
 40
0.2687655107
 40
0.5835498983
 40
1.0
 40
1.0
 40
1.0
 40
1.0
 10
18.1586042196
 20
239.3359514406
 30
0.0
 10
18.1627558943
 20
239.3379457777
 30
0.0
 10
18.1789065483
 20
239.3442127313
 30
0.0
 10
18.216436731
 20
239.3497857469
 30
0.0
 10
18.2758064602
 20
239.3563976013
 30
0.0
 10
18.3227699019
 20
239.3610913932
 30
0.0
 10
18.3495133106
 20
239.3634685313
 30
0.0
  0
SPLINE
  5
434
100
AcDbEntity
  8
93894102000_BL3
100
AcDbSpline
 62
7
  6
CONTINUOUS
 70
0
 71
3
 72
9
 73
5
 74
0
 42
0.0000001
 43
0.0000001
 44
0.0000000001
 40
0.0
 40
0.0
 40
0.0
 40
0.0
 40
0.4999618087
 40
1.0
 40
1.0
 40
1.0
 40
1.0
 10
18.6554088448
 20
80.5073043647
 30
0.0
 10
18.6554088448
 20
80.4271190151
 30
0.0
 10
18.6952011397
 20
80.2643459475
 30
0.0
 10
18.8063203438
 20
80.139147602
 30
0.0
 10
18.8720613262
 20
80.0932152792
 30
0.0
  0
LINE
  5
435
100
AcDbEntity
  8
93894102000_BL3
100
AcDbLine
 62
9
  6
CONTINUOUS
 10
18.5337462716
 20
80.5936377177
 11
18.6554088448
 21
80.5072518302
  0
ELLIPSE
  5
436
100
AcDbEntity
  8
93894102000_BL3
100
AcDbEllipse
 62
7
  6
CONTINUOUS
 10
19.7056449921
 20
81.020164871
 30
0.0
 11
-0.7894682909
 21
0.7071067812
 31
0.0
 40
0.8956747084
 41
-0.3215114552
 42
0.3738813173
  0
ELLIPSE
  5
437
100
AcDbEntity
  8
93894102000_BL3
100
AcDbEllipse
 62
7
  6
CONTINUOUS
 10
19.661484581
 20
81.020164871
 30
0.0
 11
-1.0060757362
 21
-0.0
 31
0.0
 40
0.9939609555
 41
-0.4115168461
 42
0.0
  0
ENDBLK
  5
438
100
AcDbEntity
  8
0
  6
BYBLOCK
 62
0
100
AcDbBlockEnd
  0
BLOCK
  5
439
100
AcDbEntity
  8
93780800R00_BL4
100
AcDbBlockBegin
  2
93780800R00_BL4
 70
64
 10
72.0929069059
 20
243.3359514406
  3
93780800R00_BL4
  1

  0
LINE
  5
43A
100
AcDbEntity
  8
93780800R00_BL4
100
AcDbLine
 62
7
  6
CONTINUOUS
 10
70.4045223952
 20
242.315769849
 11
71.3016737985
 21
243.2447973232
  0
LINE
  5
43B
100
AcDbEntity
  8
93780800R00_BL4
100
AcDbLine
 62
7
  6
CONTINUOUS
 10
72.1840610233
 20
244.1271845481
 11
73.1130884975
 21
245.0243359514
  0
LINE
  5
43C
100
AcDbEntity
  8
93780800R00_BL4
100
AcDbLine
 62
7
  6
CONTINUOUS
 10
72.0017527885
 20
242.5447183332
 11
71.0727253143
 21
241.6475669299
  0
LINE
  5
43D
100
AcDbEntity
  8
93780800R00_BL4
100
AcDbLine
 62
7
  6
CONTINUOUS
 10
71.3016737985
 20
243.427105558
 11
71.5206291546
 21
243.5665955039
  0
LINE
  5
43E
100
AcDbEntity
  8
93780800R00_BL4
100
AcDbLine
 62
7
  6
CONTINUOUS
 10
72.8841400133
 20
243.2447973232
 11
72.6651846572
 21
243.1053073774
  0
LINE
  5
43F
100
AcDbEntity
  8
93780800R00_BL4
100
AcDbLine
 62
7
  6
CONTINUOUS
 10
72.0929069059
 20
244.0921937607
 11
72.1840610233
 21
244.1271845481
  0
LINE
  5
440
100
AcDbEntity
  8
93780800R00_BL4
100
AcDbLine
 62
7
  6
CONTINUOUS
 10
72.0929069059
 20
242.5797091205
 11
72.0017527885
 21
242.5447183332
  0
LINE
  5
441
100
AcDbEntity
  8
93780800R00_BL4
100
AcDbLine
 62
7
  6
CONTINUOUS
 10
71.3016737985
 20
243.2447973232
 11
71.3366645858
 21
243.3359514406
  0
LINE
  5
442
100
AcDbEntity
  8
93780800R00_BL4
100
AcDbLine
 62
7
  6
CONTINUOUS
 10
72.8841400133
 20
243.427105558
 11
72.849149226
 21
243.3359514406
  0
LINE
  5
443
100
AcDbEntity
  8
93780800R00_BL4
100
AcDbLine
 62
7
  6
CONTINUOUS
 10
72.0017527885
 20
244.1271845481
 11
71.8622628427
 21
243.908229192
  0
LINE
  5
444
100
AcDbEntity
  8
93780800R00_BL4
100
AcDbLine
 62
7
  6
CONTINUOUS
 10
72.1840610233
 20
242.5447183332
 11
72.3235509691
 21
242.7636736893
  0
LINE
  5
445
100
AcDbEntity
  8
93780800R00_BL4
100
AcDbLine
 62
7
  6
CONTINUOUS
 10
73.7812914167
 20
244.3561330322
 11
72.8841400133
 21
243.427105558
  0
LINE
  5
446
100
AcDbEntity
  8
93780800R00_BL4
100
AcDbLine
 62
7
  6
CONTINUOUS
 10
72.0929069059
 20
244.0921937607
 11
72.0929069059
 21
243.8096731774
  0
LINE
  5
447
100
AcDbEntity
  8
93780800R00_BL4
100
AcDbLine
 62
7
  6
CONTINUOUS
 10
72.0929069059
 20
242.5797091205
 11
72.0929069059
 21
242.8622297038
  0
LINE
  5
448
100
AcDbEntity
  8
93780800R00_BL4
100
AcDbLine
 62
7
  6
CONTINUOUS
 10
71.3366645858
 20
243.3359514406
 11
71.3016737985
 21
243.427105558
  0
LINE
  5
449
100
AcDbEntity
  8
93780800R00_BL4
100
AcDbLine
 62
7
  6
CONTINUOUS
 10
72.0017527885
 20
242.5447183332
 11
71.8622628427
 21
242.7636736893
  0
LINE
  5
44A
100
AcDbEntity
  8
93780800R00_BL4
100
AcDbLine
 62
7
  6
CONTINUOUS
 10
72.1840610233
 20
244.1271845481
 11
72.3235509691
 21
243.908229192
  0
LINE
  5
44B
100
AcDbEntity
  8
93780800R00_BL4
100
AcDbLine
 62
7
  6
CONTINUOUS
 10
72.849149226
 20
243.3359514406
 11
72.8841400133
 21
243.2447973232
  0
LINE
  5
44C
100
AcDbEntity
  8
93780800R00_BL4
100
AcDbLine
 62
7
  6
CONTINUOUS
 10
71.3016737985
 20
243.2447973232
 11
71.5206291546
 21
243.1053073774
  0
LINE
  5
44D
100
AcDbEntity
  8
93780800R00_BL4
100
AcDbLine
 62
7
  6
CONTINUOUS
 10
72.8841400133
 20
243.427105558
 11
72.6651846572
 21
243.5665955039
  0
LINE
  5
44E
100
AcDbEntity
  8
93780800R00_BL4
100
AcDbLine
 62
7
  6
CONTINUOUS
 10
73.1130884975
 20
241.6475669299
 11
72.1840610233
 21
242.5447183332
  0
LINE
  5
44F
100
AcDbEntity
  8
93780800R00_BL4
100
AcDbLine
 62
7
  6
CONTINUOUS
 10
71.0727253143
 20
245.0243359514
 11
72.0017527885
 21
244.1271845481
  0
LINE
  5
450
100
AcDbEntity
  8
93780800R00_BL4
100
AcDbLine
 62
7
  6
CONTINUOUS
 10
71.3016737985
 20
243.427105558
 11
70.4045223952
 21
244.3561330322
  0
LINE
  5
451
100
AcDbEntity
  8
93780800R00_BL4
100
AcDbLine
 62
7
  6
CONTINUOUS
 10
72.8841400133
 20
243.2447973232
 11
73.7812914167
 21
242.315769849
  0
LINE
  5
452
100
AcDbEntity
  8
93780800R00_BL4
100
AcDbLine
 62
7
  6
CONTINUOUS
 10
72.849149226
 20
243.3359514406
 11
72.5666286427
 21
243.3359514406
  0
LINE
  5
453
100
AcDbEntity
  8
93780800R00_BL4
100
AcDbLine
 62
7
  6
CONTINUOUS
 10
71.3366645858
 20
243.3359514406
 11
71.6191851691
 21
243.3359514406
  0
LINE
  5
454
100
AcDbEntity
  8
93780800R00_BL4
100
AcDbLine
 62
7
  6
CONTINUOUS
 10
72.1840610233
 20
242.5447183332
 11
72.0929069059
 21
242.5797091205
  0
LINE
  5
455
100
AcDbEntity
  8
93780800R00_BL4
100
AcDbLine
 62
7
  6
CONTINUOUS
 10
72.0017527885
 20
244.1271845481
 11
72.0929069059
 21
244.0921937607
  0
ARC
  5
456
100
AcDbEntity
  8
93780800R00_BL4
100
AcDbCircle
 62
7
  6
CONTINUOUS
 10
-87.3363593226
 20
-11.5379171515
 40
300.5261570227
100
AcDbArc
 50
58.0925201906
 51
58.2631633589
  0
ARC
  5
457
100
AcDbEntity
  8
93780800R00_BL4
100
AcDbCircle
 62
7
  6
CONTINUOUS
 10
-182.7809617019
 20
402.7652176789
 40
300.5261570411
100
AcDbArc
 50
328.0925201906
 51
328.2631633589
  0
CIRCLE
  5
458
100
AcDbEntity
  8
93780800R00_BL4
100
AcDbCircle
 62
7
  6
CONTINUOUS
 10
72.0929069059
 20
243.3359514406
 40
2.85
  0
ARC
  5
459
100
AcDbEntity
  8
93780800R00_BL4
100
AcDbCircle
 62
9
  6
CONTINUOUS
 10
72.0929069059
 20
243.3359514406
 40
1.9726664026
100
AcDbArc
 50
121.1528667687
 51
148.8529794039
  0
ARC
  5
45A
100
AcDbEntity
  8
93780800R00_BL4
100
AcDbCircle
 62
9
  6
CONTINUOUS
 10
72.0929069059
 20
243.3359514406
 40
1.9726664026
100
AcDbArc
 50
31.14168669
 51
58.8742098283
  0
ARC
  5
45B
100
AcDbEntity
  8
93780800R00_BL4
100
AcDbCircle
 62
9
  6
CONTINUOUS
 10
72.0929069059
 20
243.3359514406
 40
1.9726664026
100
AcDbArc
 50
301.1402786404
 51
328.8739772222
  0
ARC
  5
45C
100
AcDbEntity
  8
93780800R00_BL4
100
AcDbCircle
 62
9
  6
CONTINUOUS
 10
72.0929069059
 20
243.3359514406
 40
1.9726664026
100
AcDbArc
 50
211.1234299516
 51
238.8466423422
  0
ARC
  5
45D
100
AcDbEntity
  8
93780800R00_BL4
100
AcDbCircle
 62
9
  6
CONTINUOUS
 10
72.0929069059
 20
243.3359514406
 40
1.5251992218
100
AcDbArc
 50
117.9789520644
 51
152.0210479356
  0
ARC
  5
45E
100
AcDbEntity
  8
93780800R00_BL4
100
AcDbCircle
 62
9
  6
CONTINUOUS
 10
72.0929069059
 20
243.3359514406
 40
1.5251992218
100
AcDbArc
 50
27.9789520644
 51
62.0210479356
  0
ARC
  5
45F
100
AcDbEntity
  8
93780800R00_BL4
100
AcDbCircle
 62
9
  6
CONTINUOUS
 10
72.0929069059
 20
243.3359514406
 40
1.5251992218
100
AcDbArc
 50
297.9789520644
 51
332.0210479356
  0
ARC
  5
460
100
AcDbEntity
  8
93780800R00_BL4
100
AcDbCircle
 62
9
  6
CONTINUOUS
 10
72.0929069059
 20
243.3359514406
 40
1.5251992218
100
AcDbArc
 50
207.9789520644
 51
242.0210479356
  0
ARC
  5
461
100
AcDbEntity
  8
93780800R00_BL4
100
AcDbCircle
 62
7
  6
CONTINUOUS
 10
72.0929069059
 20
243.3359514406
 40
0.635
100
AcDbArc
 50
112.5578096573
 51
157.4421903427
  0
ARC
  5
462
100
AcDbEntity
  8
93780800R00_BL4
100
AcDbCircle
 62
7
  6
CONTINUOUS
 10
72.0929069059
 20
243.3359514406
 40
0.635
100
AcDbArc
 50
202.5578096573
 51
247.4421903427
  0
ARC
  5
463
100
AcDbEntity
  8
93780800R00_BL4
100
AcDbCircle
 62
7
  6
CONTINUOUS
 10
72.0929069059
 20
243.3359514406
 40
0.635
100
AcDbArc
 50
22.5578096573
 51
67.4421903427
  0
ARC
  5
464
100
AcDbEntity
  8
93780800R00_BL4
100
AcDbCircle
 62
7
  6
CONTINUOUS
 10
72.0929069059
 20
243.3359514406
 40
0.635
100
AcDbArc
 50
292.5578096573
 51
337.4421903427
  0
ARC
  5
465
100
AcDbEntity
  8
93780800R00_BL4
100
AcDbCircle
 62
7
  6
CONTINUOUS
 10
326.9667754723
 20
83.9066852281
 40
300.5261569923
100
AcDbArc
 50
148.0925201906
 51
148.263163359
  0
ARC
  5
466
100
AcDbEntity
  8
93780800R00_BL4
100
AcDbCircle
 62
7
  6
CONTINUOUS
 10
231.5221731185
 20
498.209820007
 40
300.5261569924
100
AcDbArc
 50
238.0925201906
 51
238.263163359
  0
SPLINE
  5
467
100
AcDbEntity
  8
93780800R00_BL4
100
AcDbSpline
 62
7
  6
CONTINUOUS
 70
0
 71
3
 72
9
 73
5
 74
0
 42
0.0000001
 43
0.0000001
 44
0.0000000001
 40
0.0
 40
0.0
 40
0.0
 40
0.0
 40
0.2494291971
 40
1.0
 40
1.0
 40
1.0
 40
1.0
 10
70.7459729747
 20
242.6204085341
 30
0.0
 10
70.8092367588
 20
242.6595958061
 30
0.0
 10
71.062849206
 20
242.8167386113
 30
0.0
 10
71.3164539172
 20
242.9738952403
 30
0.0
 10
71.5064888848
 20
243.0923556597
 30
0.0
  0
LINE
  5
468
100
AcDbEntity
  8
93780800R00_BL4
100
AcDbLine
 62
7
  6
CONTINUOUS
 10
71.5064888848
 20
243.0923556597
 11
71.5206291546
 21
243.1053073774
  0
SPLINE
  5
469
100
AcDbEntity
  8
93780800R00_BL4
100
AcDbSpline
 62
7
  6
CONTINUOUS
 70
0
 71
3
 72
9
 73
5
 74
0
 42
0.0000001
 43
0.0000001
 44
0.0000000001
 40
0.0
 40
0.0
 40
0.0
 40
0.0
 40
0.2456562058
 40
1.0
 40
1.0
 40
1.0
 40
1.0
 10
71.5206291546
 20
243.1053073774
 30
0.0
 10
71.5288762803
 20
243.1241174263
 30
0.0
 10
71.5623192702
 20
243.2007439587
 30
0.0
 10
71.5951239675
 20
243.2776532187
 30
0.0
 10
71.6191851691
 20
243.3359514406
 30
0.0
  0
SPLINE
  5
46A
100
AcDbEntity
  8
93780800R00_BL4
100
AcDbSpline
 62
7
  6
CONTINUOUS
 70
0
 71
3
 72
9
 73
5
 74
0
 42
0.0000001
 43
0.0000001
 44
0.0000000001
 40
0.0
 40
0.0
 40
0.0
 40
0.0
 40
0.2546871947
 40
1.0
 40
1.0
 40
1.0
 40
1.0
 10
71.6191851691
 20
243.3359514406
 30
0.0
 10
71.6110614192
 20
243.3556345881
 30
0.0
 10
71.5788529375
 20
243.432789753
 30
0.0
 10
71.5456507448
 20
243.5095262472
 30
0.0
 10
71.5206291546
 20
243.5665955039
 30
0.0
  0
LINE
  5
46B
100
AcDbEntity
  8
93780800R00_BL4
100
AcDbLine
 62
7
  6
CONTINUOUS
 10
71.5206291546
 20
243.5665955039
 11
71.5064888848
 21
243.5795472216
  0
SPLINE
  5
46C
100
AcDbEntity
  8
93780800R00_BL4
100
AcDbSpline
 62
7
  6
CONTINUOUS
 70
0
 71
3
 72
9
 73
5
 74
0
 42
0.0000001
 43
0.0000001
 44
0.0000000001
 40
0.0
 40
0.0
 40
0.0
 40
0.0
 40
0.2494291971
 40
1.0
 40
1.0
 40
1.0
 40
1.0
 10
73.4398408371
 20
244.0514943472
 30
0.0
 10
73.376577053
 20
244.0123070752
 30
0.0
 10
73.1229646058
 20
243.8551642699
 30
0.0
 10
72.8693598946
 20
243.698007641
 30
0.0
 10
72.679324927
 20
243.5795472216
 30
0.0
  0
LINE
  5
46D
100
AcDbEntity
  8
93780800R00_BL4
100
AcDbLine
 62
7
  6
CONTINUOUS
 10
72.679324927
 20
243.5795472216
 11
72.6651846572
 21
243.5665955039
  0
SPLINE
  5
46E
100
AcDbEntity
  8
93780800R00_BL4
100
AcDbSpline
 62
7
  6
CONTINUOUS
 70
0
 71
3
 72
9
 73
5
 74
0
 42
0.0000001
 43
0.0000001
 44
0.0000000001
 40
0.0
 40
0.0
 40
0.0
 40
0.0
 40
0.2456562058
 40
1.0
 40
1.0
 40
1.0
 40
1.0
 10
72.6651846572
 20
243.5665955039
 30
0.0
 10
72.6569375315
 20
243.547785455
 30
0.0
 10
72.6234945416
 20
243.4711589226
 30
0.0
 10
72.5906898443
 20
243.3942496626
 30
0.0
 10
72.5666286427
 20
243.3359514406
 30
0.0
  0
SPLINE
  5
46F
100
AcDbEntity
  8
93780800R00_BL4
100
AcDbSpline
 62
7
  6
CONTINUOUS
 70
0
 71
3
 72
9
 73
5
 74
0
 42
0.0000001
 43
0.0000001
 44
0.0000000001
 40
0.0
 40
0.0
 40
0.0
 40
0.0
 40
0.2546871947
 40
1.0
 40
1.0
 40
1.0
 40
1.0
 10
72.5666286427
 20
243.3359514406
 30
0.0
 10
72.5747523927
 20
243.3162682932
 30
0.0
 10
72.6069608744
 20
243.2391131283
 30
0.0
 10
72.6401630671
 20
243.1623766341
 30
0.0
 10
72.6651846572
 20
243.1053073774
 30
0.0
  0
LINE
  5
470
100
AcDbEntity
  8
93780800R00_BL4
100
AcDbLine
 62
7
  6
CONTINUOUS
 10
72.6651846572
 20
243.1053073774
 11
72.679324927
 21
243.0923556597
  0
SPLINE
  5
471
100
AcDbEntity
  8
93780800R00_BL4
100
AcDbSpline
 62
7
  6
CONTINUOUS
 70
0
 71
3
 72
9
 73
5
 74
0
 42
0.0000001
 43
0.0000001
 44
0.0000000001
 40
0.0
 40
0.0
 40
0.0
 40
0.0
 40
0.2494291971
 40
1.0
 40
1.0
 40
1.0
 40
1.0
 10
71.3773639994
 20
244.6828853718
 30
0.0
 10
71.4165512714
 20
244.6196215878
 30
0.0
 10
71.5736940766
 20
244.3660091406
 30
0.0
 10
71.7308507056
 20
244.1124044293
 30
0.0
 10
71.849311125
 20
243.9223694618
 30
0.0
  0
LINE
  5
472
100
AcDbEntity
  8
93780800R00_BL4
100
AcDbLine
 62
7
  6
CONTINUOUS
 10
71.849311125
 20
243.9223694618
 11
71.8622628427
 21
243.908229192
  0
SPLINE
  5
473
100
AcDbEntity
  8
93780800R00_BL4
100
AcDbSpline
 62
7
  6
CONTINUOUS
 70
0
 71
3
 72
9
 73
5
 74
0
 42
0.0000001
 43
0.0000001
 44
0.0000000001
 40
0.0
 40
0.0
 40
0.0
 40
0.0
 40
0.2456562051
 40
1.0
 40
1.0
 40
1.0
 40
1.0
 10
71.8622628427
 20
243.908229192
 30
0.0
 10
71.8810728916
 20
243.8999820663
 30
0.0
 10
71.9576994239
 20
243.8665390764
 30
0.0
 10
72.0346086839
 20
243.8337343791
 30
0.0
 10
72.0929069059
 20
243.8096731774
 30
0.0
  0
SPLINE
  5
474
100
AcDbEntity
  8
93780800R00_BL4
100
AcDbSpline
 62
7
  6
CONTINUOUS
 70
0
 71
3
 72
9
 73
5
 74
0
 42
0.0000001
 43
0.0000001
 44
0.0000000001
 40
0.0
 40
0.0
 40
0.0
 40
0.0
 40
0.2546871958
 40
1.0
 40
1.0
 40
1.0
 40
1.0
 10
72.0929069059
 20
243.8096731774
 30
0.0
 10
72.1125900534
 20
243.8177969274
 30
0.0
 10
72.1897452184
 20
243.8500054091
 30
0.0
 10
72.2664817125
 20
243.8832076018
 30
0.0
 10
72.3235509691
 20
243.908229192
 30
0.0
  0
LINE
  5
475
100
AcDbEntity
  8
93780800R00_BL4
100
AcDbLine
 62
7
  6
CONTINUOUS
 10
72.3235509691
 20
243.908229192
 11
72.3365026869
 21
243.9223694618
  0
SPLINE
  5
476
100
AcDbEntity
  8
93780800R00_BL4
100
AcDbSpline
 62
7
  6
CONTINUOUS
 70
0
 71
3
 72
9
 73
5
 74
0
 42
0.0000001
 43
0.0000001
 44
0.0000000001
 40
0.0
 40
0.0
 40
0.0
 40
0.0
 40
0.2494291971
 40
1.0
 40
1.0
 40
1.0
 40
1.0
 10
72.8084498125
 20
241.9890175094
 30
0.0
 10
72.7692625405
 20
242.0522812935
 30
0.0
 10
72.6121197352
 20
242.3058937407
 30
0.0
 10
72.4549631063
 20
242.5594984519
 30
0.0
 10
72.3365026869
 20
242.7495334195
 30
0.0
  0
LINE
  5
477
100
AcDbEntity
  8
93780800R00_BL4
100
AcDbLine
 62
7
  6
CONTINUOUS
 10
72.3365026869
 20
242.7495334195
 11
72.3235509691
 21
242.7636736893
  0
SPLINE
  5
478
100
AcDbEntity
  8
93780800R00_BL4
100
AcDbSpline
 62
7
  6
CONTINUOUS
 70
0
 71
3
 72
9
 73
5
 74
0
 42
0.0000001
 43
0.0000001
 44
0.0000000001
 40
0.0
 40
0.0
 40
0.0
 40
0.0
 40
0.2456562051
 40
1.0
 40
1.0
 40
1.0
 40
1.0
 10
72.3235509691
 20
242.7636736893
 30
0.0
 10
72.3047409203
 20
242.771920815
 30
0.0
 10
72.2281143879
 20
242.8053638048
 30
0.0
 10
72.1512051279
 20
242.8381685022
 30
0.0
 10
72.0929069059
 20
242.8622297038
 30
0.0
  0
SPLINE
  5
479
100
AcDbEntity
  8
93780800R00_BL4
100
AcDbSpline
 62
7
  6
CONTINUOUS
 70
0
 71
3
 72
9
 73
5
 74
0
 42
0.0000001
 43
0.0000001
 44
0.0000000001
 40
0.0
 40
0.0
 40
0.0
 40
0.0
 40
0.2546871958
 40
1.0
 40
1.0
 40
1.0
 40
1.0
 10
72.0929069059
 20
242.8622297038
 30
0.0
 10
72.0732237584
 20
242.8541059538
 30
0.0
 10
71.9960685935
 20
242.8218974722
 30
0.0
 10
71.9193320993
 20
242.7886952794
 30
0.0
 10
71.8622628427
 20
242.7636736893
 30
0.0
  0
LINE
  5
47A
100
AcDbEntity
  8
93780800R00_BL4
100
AcDbLine
 62
7
  6
CONTINUOUS
 10
71.8622628427
 20
242.7636736893
 11
71.849311125
 21
242.7495334195
  0
SPLINE
  5
47B
100
AcDbEntity
  8
93780800R00_BL4
100
AcDbSpline
 62
7
  6
CONTINUOUS
 70
0
 71
3
 72
10
 73
6
 74
0
 42
0.0000001
 43
0.0000001
 44
0.0000000001
 40
0.0
 40
0.0
 40
0.0
 40
0.0
 40
0.1744823037
 40
0.4139756216
 40
1.0
 40
1.0
 40
1.0
 40
1.0
 10
70.7459729747
 20
244.0514943472
 30
0.0
 10
70.7233141481
 20
244.0655298276
 30
0.0
 10
70.6727802538
 20
244.1038449627
 30
0.0
 10
70.5567713278
 20
244.2031817013
 30
0.0
 10
70.4667083466
 20
244.2917375944
 30
0.0
 10
70.4045223952
 20
244.3561330322
 30
0.0
  0
SPLINE
  5
47C
100
AcDbEntity
  8
93780800R00_BL4
100
AcDbSpline
 62
7
  6
CONTINUOUS
 70
0
 71
3
 72
10
 73
6
 74
0
 42
0.0000001
 43
0.0000001
 44
0.0000000001
 40
0.0
 40
0.0
 40
0.0
 40
0.0
 40
0.5860290742
 40
0.8255203224
 40
1.0
 40
1.0
 40
1.0
 40
1.0
 10
71.0727253143
 20
245.0243359514
 30
0.0
 10
71.1371212697
 20
244.9621495001
 30
0.0
 10
71.2256772781
 20
244.87208609
 30
0.0
 10
71.3250142948
 20
244.7560773738
 30
0.0
 10
71.3633287299
 20
244.705543858
 30
0.0
 10
71.3773639994
 20
244.6828853718
 30
0.0
  0
SPLINE
  5
47D
100
AcDbEntity
  8
93780800R00_BL4
100
AcDbSpline
 62
7
  6
CONTINUOUS
 70
0
 71
3
 72
10
 73
6
 74
0
 42
0.0000001
 43
0.0000001
 44
0.0000000001
 40
0.0
 40
0.0
 40
0.0
 40
0.0
 40
0.1744823037
 40
0.4139756216
 40
1.0
 40
1.0
 40
1.0
 40
1.0
 10
72.8084498125
 20
244.6828853718
 30
0.0
 10
72.8224852929
 20
244.7055441985
 30
0.0
 10
72.860800428
 20
244.7560780928
 30
0.0
 10
72.9601371666
 20
244.8720870187
 30
0.0
 10
73.0486930597
 20
244.9621499999
 30
0.0
 10
73.1130884975
 20
245.0243359514
 30
0.0
  0
SPLINE
  5
47E
100
AcDbEntity
  8
93780800R00_BL4
100
AcDbSpline
 62
7
  6
CONTINUOUS
 70
0
 71
3
 72
10
 73
6
 74
0
 42
0.0000001
 43
0.0000001
 44
0.0000000001
 40
0.0
 40
0.0
 40
0.0
 40
0.0
 40
0.5860290742
 40
0.8255203224
 40
1.0
 40
1.0
 40
1.0
 40
1.0
 10
73.7812914167
 20
244.3561330322
 30
0.0
 10
73.7191049654
 20
244.2917370769
 30
0.0
 10
73.6290415553
 20
244.2031810684
 30
0.0
 10
73.5130328391
 20
244.1038440518
 30
0.0
 10
73.4624993233
 20
244.0655296167
 30
0.0
 10
73.4398408371
 20
244.0514943472
 30
0.0
  0
SPLINE
  5
47F
100
AcDbEntity
  8
93780800R00_BL4
100
AcDbSpline
 62
7
  6
CONTINUOUS
 70
0
 71
3
 72
10
 73
6
 74
0
 42
0.0000001
 43
0.0000001
 44
0.0000000001
 40
0.0
 40
0.0
 40
0.0
 40
0.0
 40
0.1744823037
 40
0.4139756216
 40
1.0
 40
1.0
 40
1.0
 40
1.0
 10
73.4398408371
 20
242.6204085341
 30
0.0
 10
73.4624996638
 20
242.6063730537
 30
0.0
 10
73.5130335581
 20
242.5680579186
 30
0.0
 10
73.629042484
 20
242.4687211799
 30
0.0
 10
73.7191054652
 20
242.3801652869
 30
0.0
 10
73.7812914167
 20
242.315769849
 30
0.0
  0
SPLINE
  5
480
100
AcDbEntity
  8
93780800R00_BL4
100
AcDbSpline
 62
7
  6
CONTINUOUS
 70
0
 71
3
 72
10
 73
6
 74
0
 42
0.0000001
 43
0.0000001
 44
0.0000000001
 40
0.0
 40
0.0
 40
0.0
 40
0.0
 40
0.5860290742
 40
0.8255203224
 40
1.0
 40
1.0
 40
1.0
 40
1.0
 10
73.1130884975
 20
241.6475669299
 30
0.0
 10
73.0486925421
 20
241.7097533811
 30
0.0
 10
72.9601365337
 20
241.7998167913
 30
0.0
 10
72.860799517
 20
241.9158255075
 30
0.0
 10
72.822485082
 20
241.9663590233
 30
0.0
 10
72.8084498125
 20
241.9890175094
 30
0.0
  0
SPLINE
  5
481
100
AcDbEntity
  8
93780800R00_BL4
100
AcDbSpline
 62
7
  6
CONTINUOUS
 70
0
 71
3
 72
10
 73
6
 74
0
 42
0.0000001
 43
0.0000001
 44
0.0000000001
 40
0.0
 40
0.0
 40
0.0
 40
0.0
 40
0.1744823037
 40
0.4139756216
 40
1.0
 40
1.0
 40
1.0
 40
1.0
 10
71.3773639994
 20
241.9890175094
 30
0.0
 10
71.363328519
 20
241.9663586828
 30
0.0
 10
71.3250133839
 20
241.9158247885
 30
0.0
 10
71.2256766452
 20
241.7998158626
 30
0.0
 10
71.1371207521
 20
241.7097528813
 30
0.0
 10
71.0727253143
 20
241.6475669299
 30
0.0
  0
SPLINE
  5
482
100
AcDbEntity
  8
93780800R00_BL4
100
AcDbSpline
 62
7
  6
CONTINUOUS
 70
0
 71
3
 72
10
 73
6
 74
0
 42
0.0000001
 43
0.0000001
 44
0.0000000001
 40
0.0
 40
0.0
 40
0.0
 40
0.0
 40
0.5860290742
 40
0.8255203224
 40
1.0
 40
1.0
 40
1.0
 40
1.0
 10
70.4045223952
 20
242.315769849
 30
0.0
 10
70.4667088464
 20
242.3801658044
 30
0.0
 10
70.5567722565
 20
242.4687218129
 30
0.0
 10
70.6727809728
 20
242.5680588295
 30
0.0
 10
70.7233144886
 20
242.6063732646
 30
0.0
 10
70.7459729747
 20
242.6204085341
 30
0.0
  0
ENDBLK
  5
483
100
AcDbEntity
  8
0
  6
BYBLOCK
 62
0
100
AcDbBlockEnd
  0
BLOCK
  5
484
100
AcDbEntity
  8
62890299000_O03_BL5
100
AcDbBlockBegin
  2
62890299000_O03_BL5
 70
64
 10
51.6257443513
 20
258.8359514406
  3
62890299000_O03_BL5
  1

  0
LINE
  5
485
100
AcDbEntity
  8
62890299000_O03_BL5
100
AcDbLine
 62
7
  6
CENTER
 10
63.0929069059
 20
258.8359514406
 11
88.0929069059
 21
258.8359514406
  0
LINE
  5
486
100
AcDbEntity
  8
62890299000_O03_BL5
100
AcDbLine
 62
7
  6
CENTER
 10
15.1585817967
 20
258.8359514406
 11
28.5588555583
 21
258.8359514406
  0
ENDBLK
  5
487
100
AcDbEntity
  8
0
  6
BYBLOCK
 62
0
100
AcDbBlockEnd
  0
BLOCK
  5
488
100
AcDbEntity
  8
91324206R00_BL6
100
AcDbBlockBegin
  2
91324206R00_BL6
 70
64
 10
74.0929069059
 20
232.5859514406
  3
91324206R00_BL6
  1

  0
ARC
  5
489
100
AcDbEntity
  8
91324206R00_BL6
100
AcDbCircle
 62
7
  6
CONTINUOUS
 10
72.3880135477
 20
232.5859514406
 40
0.5048933582
100
AcDbArc
 50
309.6496393284
 51
50.3503606716
  0
ARC
  5
48A
100
AcDbEntity
  8
91324206R00_BL6
100
AcDbCircle
 62
7
  6
CONTINUOUS
 10
73.1866045233
 20
231.0423465717
 40
0.59
100
AcDbArc
 50
12.9620900983
 51
106.2006509181
  0
ARC
  5
48B
100
AcDbEntity
  8
91324206R00_BL6
100
AcDbCircle
 62
7
  6
CONTINUOUS
 10
72.9271326488
 20
231.9354167517
 40
0.34
100
AcDbArc
 50
129.6496393284
 51
200.3768601608
  0
ARC
  5
48C
100
AcDbEntity
  8
91324206R00_BL6
100
AcDbCircle
 62
7
  6
CONTINUOUS
 10
72.9271326488
 20
231.9354167517
 40
0.34
100
AcDbArc
 50
224.6349631418
 51
286.2006509181
  0
ARC
  5
48D
100
AcDbEntity
  8
91324206R00_BL6
100
AcDbCircle
 62
7
  6
CONTINUOUS
 10
74.0929069059
 20
231.2509514406
 40
0.34
100
AcDbArc
 50
192.9620900983
 51
256.3581162113
  0
ARC
  5
48E
100
AcDbEntity
  8
91324206R00_BL6
100
AcDbCircle
 62
7
  6
CONTINUOUS
 10
74.0929069059
 20
231.2509514406
 40
0.34
100
AcDbArc
 50
283.5069100039
 51
347.0379099017
  0
ARC
  5
48F
100
AcDbEntity
  8
91324206R00_BL6
100
AcDbCircle
 62
7
  6
CONTINUOUS
 10
73.1866045233
 20
234.1295563096
 40
0.59
100
AcDbArc
 50
253.7993490819
 51
347.0379099017
  0
ARC
  5
490
100
AcDbEntity
  8
91324206R00_BL6
100
AcDbCircle
 62
7
  6
CONTINUOUS
 10
72.9271326488
 20
233.2364861296
 40
0.34
100
AcDbArc
 50
73.7993490819
 51
135.3499645031
  0
ARC
  5
491
100
AcDbEntity
  8
91324206R00_BL6
100
AcDbCircle
 62
7
  6
CONTINUOUS
 10
72.9271326488
 20
233.2364861296
 40
0.34
100
AcDbArc
 50
159.9223576597
 51
230.3503606716
  0
CIRCLE
  5
492
100
AcDbEntity
  8
91324206R00_BL6
100
AcDbCircle
 62
7
  6
CONTINUOUS
 10
74.0929069059
 20
232.5859514406
 40
3.75
  0
CIRCLE
  5
493
100
AcDbEntity
  8
91324206R00_BL6
100
AcDbCircle
 62
7
  6
CONTINUOUS
 10
74.0929069059
 20
232.5859514406
 40
1.675
  0
ARC
  5
494
100
AcDbEntity
  8
91324206R00_BL6
100
AcDbCircle
 62
7
  6
CONTINUOUS
 10
74.0929069059
 20
233.9209514406
 40
0.34
100
AcDbArc
 50
12.9620900983
 51
76.3581162113
  0
ARC
  5
495
100
AcDbEntity
  8
91324206R00_BL6
100
AcDbCircle
 62
7
  6
CONTINUOUS
 10
74.0929069059
 20
233.9209514406
 40
0.34
100
AcDbArc
 50
103.5069100039
 51
167.0379099017
  0
ARC
  5
496
100
AcDbEntity
  8
91324206R00_BL6
100
AcDbCircle
 62
7
  6
CONTINUOUS
 10
74.9992092885
 20
234.1295563096
 40
0.59
100
AcDbArc
 50
192.9620900983
 51
286.2006509181
  0
ARC
  5
497
100
AcDbEntity
  8
91324206R00_BL6
100
AcDbCircle
 62
7
  6
CONTINUOUS
 10
74.9992092885
 20
231.0423465717
 40
0.59
100
AcDbArc
 50
73.7993490819
 51
167.0379099017
  0
ARC
  5
498
100
AcDbEntity
  8
91324206R00_BL6
100
AcDbCircle
 62
7
  6
CONTINUOUS
 10
75.7978002641
 20
232.5859514406
 40
0.5048933582
100
AcDbArc
 50
129.6496393284
 51
230.3503606716
  0
ARC
  5
499
100
AcDbEntity
  8
91324206R00_BL6
100
AcDbCircle
 62
7
  6
CONTINUOUS
 10
75.258681163
 20
233.2364861296
 40
0.34
100
AcDbArc
 50
309.6496393284
 51
20.3768601608
  0
ARC
  5
49A
100
AcDbEntity
  8
91324206R00_BL6
100
AcDbCircle
 62
7
  6
CONTINUOUS
 10
75.258681163
 20
233.2364861296
 40
0.34
100
AcDbArc
 50
44.6349631418
 51
106.2006509181
  0
ARC
  5
49B
100
AcDbEntity
  8
91324206R00_BL6
100
AcDbCircle
 62
7
  6
CONTINUOUS
 10
75.258681163
 20
231.9354167517
 40
0.34
100
AcDbArc
 50
253.7993490819
 51
315.3499645031
  0
ARC
  5
49C
100
AcDbEntity
  8
91324206R00_BL6
100
AcDbCircle
 62
7
  6
CONTINUOUS
 10
75.258681163
 20
231.9354167517
 40
0.34
100
AcDbArc
 50
339.9223576597
 51
50.3503606716
  0
ENDBLK
  5
49D
100
AcDbEntity
  8
0
  6
BYBLOCK
 62
0
100
AcDbBlockEnd
  0
BLOCK
  5
49E
100
AcDbEntity
  8
91324206R00_BL7
100
AcDbBlockBegin
  2
91324206R00_BL7
 70
64
 10
74.0929069059
 20
285.0859514406
  3
91324206R00_BL7
  1

  0
ARC
  5
49F
100
AcDbEntity
  8
91324206R00_BL7
100
AcDbCircle
 62
7
  6
CONTINUOUS
 10
72.3880135477
 20
285.0859514406
 40
0.5048933582
100
AcDbArc
 50
309.6496393284
 51
50.3503606716
  0
ARC
  5
4A0
100
AcDbEntity
  8
91324206R00_BL7
100
AcDbCircle
 62
7
  6
CONTINUOUS
 10
73.1866045233
 20
283.5423465717
 40
0.59
100
AcDbArc
 50
12.9620900983
 51
106.2006509181
  0
ARC
  5
4A1
100
AcDbEntity
  8
91324206R00_BL7
100
AcDbCircle
 62
7
  6
CONTINUOUS
 10
72.9271326488
 20
284.4354167517
 40
0.34
100
AcDbArc
 50
129.6496393284
 51
200.3768601608
  0
ARC
  5
4A2
100
AcDbEntity
  8
91324206R00_BL7
100
AcDbCircle
 62
7
  6
CONTINUOUS
 10
72.9271326488
 20
284.4354167517
 40
0.34
100
AcDbArc
 50
224.6349631418
 51
286.2006509181
  0
ARC
  5
4A3
100
AcDbEntity
  8
91324206R00_BL7
100
AcDbCircle
 62
7
  6
CONTINUOUS
 10
73.1866045233
 20
286.6295563096
 40
0.59
100
AcDbArc
 50
253.7993490819
 51
347.0379099017
  0
ARC
  5
4A4
100
AcDbEntity
  8
91324206R00_BL7
100
AcDbCircle
 62
7
  6
CONTINUOUS
 10
72.9271326488
 20
285.7364861296
 40
0.34
100
AcDbArc
 50
73.7993490819
 51
135.3499645031
  0
ARC
  5
4A5
100
AcDbEntity
  8
91324206R00_BL7
100
AcDbCircle
 62
7
  6
CONTINUOUS
 10
72.9271326488
 20
285.7364861296
 40
0.34
100
AcDbArc
 50
159.9223576597
 51
230.3503606716
  0
ARC
  5
4A6
100
AcDbEntity
  8
91324206R00_BL7
100
AcDbCircle
 62
7
  6
CONTINUOUS
 10
74.0929069059
 20
283.7509514406
 40
0.34
100
AcDbArc
 50
192.9620900983
 51
256.3581162112
  0
ARC
  5
4A7
100
AcDbEntity
  8
91324206R00_BL7
100
AcDbCircle
 62
7
  6
CONTINUOUS
 10
74.0929069059
 20
283.7509514406
 40
0.34
100
AcDbArc
 50
283.5069100039
 51
347.0379099017
  0
CIRCLE
  5
4A8
100
AcDbEntity
  8
91324206R00_BL7
100
AcDbCircle
 62
7
  6
CONTINUOUS
 10
74.0929069059
 20
285.0859514406
 40
3.75
  0
CIRCLE
  5
4A9
100
AcDbEntity
  8
91324206R00_BL7
100
AcDbCircle
 62
7
  6
CONTINUOUS
 10
74.0929069059
 20
285.0859514406
 40
1.675
  0
ARC
  5
4AA
100
AcDbEntity
  8
91324206R00_BL7
100
AcDbCircle
 62
7
  6
CONTINUOUS
 10
74.0929069059
 20
286.4209514406
 40
0.34
100
AcDbArc
 50
12.9620900983
 51
76.3581162112
  0
ARC
  5
4AB
100
AcDbEntity
  8
91324206R00_BL7
100
AcDbCircle
 62
7
  6
CONTINUOUS
 10
74.0929069059
 20
286.4209514406
 40
0.34
100
AcDbArc
 50
103.5069100039
 51
167.0379099017
  0
ARC
  5
4AC
100
AcDbEntity
  8
91324206R00_BL7
100
AcDbCircle
 62
7
  6
CONTINUOUS
 10
74.9992092885
 20
286.6295563096
 40
0.59
100
AcDbArc
 50
192.9620900983
 51
286.2006509181
  0
ARC
  5
4AD
100
AcDbEntity
  8
91324206R00_BL7
100
AcDbCircle
 62
7
  6
CONTINUOUS
 10
74.9992092885
 20
283.5423465717
 40
0.59
100
AcDbArc
 50
73.7993490819
 51
167.0379099017
  0
ARC
  5
4AE
100
AcDbEntity
  8
91324206R00_BL7
100
AcDbCircle
 62
7
  6
CONTINUOUS
 10
75.7978002641
 20
285.0859514406
 40
0.5048933582
100
AcDbArc
 50
129.6496393284
 51
230.3503606716
  0
ARC
  5
4AF
100
AcDbEntity
  8
91324206R00_BL7
100
AcDbCircle
 62
7
  6
CONTINUOUS
 10
75.258681163
 20
285.7364861296
 40
0.34
100
AcDbArc
 50
309.6496393284
 51
20.3768601608
  0
ARC
  5
4B0
100
AcDbEntity
  8
91324206R00_BL7
100
AcDbCircle
 62
7
  6
CONTINUOUS
 10
75.258681163
 20
285.7364861296
 40
0.34
100
AcDbArc
 50
44.6349631418
 51
106.2006509181
  0
ARC
  5
4B1
100
AcDbEntity
  8
91324206R00_BL7
100
AcDbCircle
 62
7
  6
CONTINUOUS
 10
75.258681163
 20
284.4354167517
 40
0.34
100
AcDbArc
 50
253.7993490819
 51
315.3499645031
  0
ARC
  5
4B2
100
AcDbEntity
  8
91324206R00_BL7
100
AcDbCircle
 62
7
  6
CONTINUOUS
 10
75.258681163
 20
284.4354167517
 40
0.34
100
AcDbArc
 50
339.9223576597
 51
50.3503606716
  0
ENDBLK
  5
4B3
100
AcDbEntity
  8
0
  6
BYBLOCK
 62
0
100
AcDbBlockEnd
  0
BLOCK
  5
4B4
100
AcDbEntity
  8
0
100
AcDbBlockBegin
  2
_FILLED
 70
64
 10
0.0
 20
0.0
  3
_FILLED
  1

  0
SOLID
  5
4B5
100
AcDbEntity
  8
0
  6
BYBLOCK
 62
0
100
AcDbTrace
 10
0.0
 20
0.0
 11
-1.0
 21
0.1428571429
 12
-1.0
 22
-0.1428571429
 13
-1.0
 23
-0.1428571429
  0
ENDBLK
  5
4B6
100
AcDbEntity
  8
0
  6
BYBLOCK
 62
0
100
AcDbBlockEnd
  0
BLOCK
  5
4B7
100
AcDbEntity
  8
0
100
AcDbBlockBegin
 62
2
  6
CONTINUOUS
  2
*D0
 70
65
 10
0.0
 20
0.0
  3
*D0
  1

  0
TEXT
  5
4B8
100
AcDbEntity
  8
0
100
AcDbText
 62
5
  6
CONTINUOUS
 10
39.4679069059
 20
216.8002371549
  7
STANDARD
 40
2.5
  1
216.5
 50
90.0
 72
5
 11
39.4679069059
 21
225.3716657264
100
AcDbText
  0
LINE
  5
4B9
100
AcDbEntity
  8
0
100
AcDbLine
 62
2
  6
CONTINUOUS
 10
64.0929069059
 20
329.3359514406
 11
39.0929069059
 21
329.3359514406
  0
LINE
  5
4BA
100
AcDbEntity
  8
0
100
AcDbLine
 62
2
  6
CONTINUOUS
 10
64.0929069059
 20
112.8359514406
 11
39.0929069059
 21
112.8359514406
  0
LINE
  5
4BB
100
AcDbEntity
  8
0
100
AcDbLine
 62
2
  6
CONTINUOUS
 10
40.0929069059
 20
329.3359514406
 11
40.0929069059
 21
221.0859514406
  0
LINE
  5
4BC
100
AcDbEntity
  8
0
100
AcDbLine
 62
2
  6
CONTINUOUS
 10
40.0929069059
 20
112.8359514406
 11
40.0929069059
 21
221.0859514406
  0
INSERT
  5
4BD
100
AcDbEntity
  8
0
100
AcDbBlockReference
 62
2
  6
CONTINUOUS
  2
_FILLED
 10
40.0929069059
 20
329.3359514406
 41
3.5
 42
3.5
 43
3.5
 50
90.0
  0
INSERT
  5
4BE
100
AcDbEntity
  8
0
100
AcDbBlockReference
 62
2
  6
CONTINUOUS
  2
_FILLED
 10
40.0929069059
 20
112.8359514406
 41
3.5
 42
3.5
 43
3.5
 50
270.0
  0
ENDBLK
  5
4BF
100
AcDbEntity
  8
0
  6
BYBLOCK
 62
0
100
AcDbBlockEnd
  0
BLOCK
  5
4C0
100
AcDbEntity
  8
0
100
AcDbBlockBegin
 62
2
  6
CONTINUOUS
  2
*D1
 70
65
 10
0.0
 20
0.0
  3
*D1
  1

  0
TEXT
  5
4C1
100
AcDbEntity
  8
0
100
AcDbText
 62
5
  6
CONTINUOUS
 10
97.4679069059
 20
235.4609514406
  7
STANDARD
 40
2.5
  1
43
 50
90.0
 72
5
 11
97.4679069059
 21
239.2109514406
100
AcDbText
  0
LINE
  5
4C2
100
AcDbEntity
  8
0
100
AcDbLine
 62
2
  6
CONTINUOUS
 10
83.8929069059
 20
215.8359514406
 11
99.0929069059
 21
215.8359514406
  0
LINE
  5
4C3
100
AcDbEntity
  8
0
100
AcDbLine
 62
2
  6
CONTINUOUS
 10
88.0929069059
 20
258.8359514406
 11
99.0929069059
 21
258.8359514406
  0
LINE
  5
4C4
100
AcDbEntity
  8
0
100
AcDbLine
 62
2
  6
CONTINUOUS
 10
98.0929069059
 20
215.8359514406
 11
98.0929069059
 21
237.3359514406
  0
LINE
  5
4C5
100
AcDbEntity
  8
0
100
AcDbLine
 62
2
  6
CONTINUOUS
 10
98.0929069059
 20
258.8359514406
 11
98.0929069059
 21
237.3359514406
  0
INSERT
  5
4C6
100
AcDbEntity
  8
0
100
AcDbBlockReference
 62
2
  6
CONTINUOUS
  2
_FILLED
 10
98.0929069059
 20
215.8359514406
 41
3.5
 42
3.5
 43
3.5
 50
270.0
  0
INSERT
  5
4C7
100
AcDbEntity
  8
0
100
AcDbBlockReference
 62
2
  6
CONTINUOUS
  2
_FILLED
 10
98.0929069059
 20
258.8359514406
 41
3.5
 42
3.5
 43
3.5
 50
90.0
  0
ENDBLK
  5
4C8
100
AcDbEntity
  8
0
  6
BYBLOCK
 62
0
100
AcDbBlockEnd
  0
BLOCK
  5
4C9
100
AcDbEntity
  8
0
100
AcDbBlockBegin
 62
2
  6
CONTINUOUS
  2
*D2
 70
65
 10
0.0
 20
0.0
  3
*D2
  1

  0
TEXT
  5
4CA
100
AcDbEntity
  8
0
100
AcDbText
 62
5
  6
CONTINUOUS
 10
104.4679069059
 20
284.6038085835
  7
STANDARD
 40
2.5
  1
58.5
 50
90.0
 72
5
 11
104.4679069059
 21
291.5680942978
100
AcDbText
  0
LINE
  5
4CB
100
AcDbEntity
  8
0
100
AcDbLine
 62
2
  6
CONTINUOUS
 10
88.0929069059
 20
258.8359514406
 11
106.0929069059
 21
258.8359514406
  0
LINE
  5
4CC
100
AcDbEntity
  8
0
100
AcDbLine
 62
2
  6
CONTINUOUS
 10
83.2640868155
 20
317.3359514406
 11
106.0929069059
 21
317.3359514406
  0
LINE
  5
4CD
100
AcDbEntity
  8
0
100
AcDbLine
 62
2
  6
CONTINUOUS
 10
105.0929069059
 20
258.8359514406
 11
105.0929069059
 21
288.0859514406
  0
LINE
  5
4CE
100
AcDbEntity
  8
0
100
AcDbLine
 62
2
  6
CONTINUOUS
 10
105.0929069059
 20
317.3359514406
 11
105.0929069059
 21
288.0859514406
  0
INSERT
  5
4CF
100
AcDbEntity
  8
0
100
AcDbBlockReference
 62
2
  6
CONTINUOUS
  2
_FILLED
 10
105.0929069059
 20
258.8359514406
 41
3.5
 42
3.5
 43
3.5
 50
270.0
  0
INSERT
  5
4D0
100
AcDbEntity
  8
0
100
AcDbBlockReference
 62
2
  6
CONTINUOUS
  2
_FILLED
 10
105.0929069059
 20
317.3359514406
 41
3.5
 42
3.5
 43
3.5
 50
90.0
  0
ENDBLK
  5
4D1
100
AcDbEntity
  8
0
  6
BYBLOCK
 62
0
100
AcDbBlockEnd
  0
BLOCK
  5
4D2
100
AcDbEntity
  8
0
100
AcDbBlockBegin
 62
2
  6
CONTINUOUS
  2
*D3
 70
65
 10
0.0
 20
0.0
  3
*D3
  1

  0
TEXT
  5
4D3
100
AcDbEntity
  8
0
100
AcDbText
 62
5
  6
CONTINUOUS
 10
104.4679069059
 20
189.2466657264
  7
STANDARD
 40
2.5
  1
134
 50
90.0
 72
5
 11
104.4679069059
 21
194.4252371549
100
AcDbText
  0
LINE
  5
4D4
100
AcDbEntity
  8
0
100
AcDbLine
 62
2
  6
CONTINUOUS
 10
88.0929069059
 20
258.8359514406
 11
106.0929069059
 21
258.8359514406
  0
LINE
  5
4D5
100
AcDbEntity
  8
0
100
AcDbLine
 62
2
  6
CONTINUOUS
 10
83.8929069059
 20
124.8359514406
 11
106.0929069059
 21
124.8359514406
  0
LINE
  5
4D6
100
AcDbEntity
  8
0
100
AcDbLine
 62
2
  6
CONTINUOUS
 10
105.0929069059
 20
258.8359514406
 11
105.0929069059
 21
191.8359514406
  0
LINE
  5
4D7
100
AcDbEntity
  8
0
100
AcDbLine
 62
2
  6
CONTINUOUS
 10
105.0929069059
 20
124.8359514406
 11
105.0929069059
 21
191.8359514406
  0
INSERT
  5
4D8
100
AcDbEntity
  8
0
100
AcDbBlockReference
 62
2
  6
CONTINUOUS
  2
_FILLED
 10
105.0929069059
 20
258.8359514406
 41
3.5
 42
3.5
 43
3.5
 50
90.0
  0
INSERT
  5
4D9
100
AcDbEntity
  8
0
100
AcDbBlockReference
 62
2
  6
CONTINUOUS
  2
_FILLED
 10
105.0929069059
 20
124.8359514406
 41
3.5
 42
3.5
 43
3.5
 50
270.0
  0
ENDBLK
  5
4DA
100
AcDbEntity
  8
0
  6
BYBLOCK
 62
0
100
AcDbBlockEnd
  0
BLOCK
  5
4DB
100
AcDbEntity
  8
0
100
AcDbBlockBegin
 62
2
  6
CONTINUOUS
  2
*D4
 70
65
 10
0.0
 20
0.0
  3
*D4
  1

  0
TEXT
  5
4DC
100
AcDbEntity
  8
0
100
AcDbText
 62
5
  6
CONTINUOUS
 10
74.1286211916
 20
339.9609514406
  7
STANDARD
 40
2.5
  1
24
 72
5
 11
78.0571926202
 21
339.9609514406
100
AcDbText
  0
LINE
  5
4DD
100
AcDbEntity
  8
0
100
AcDbLine
 62
2
  6
CONTINUOUS
 10
64.0929069059
 20
329.3359514406
 11
64.0929069059
 21
340.3359514406
  0
LINE
  5
4DE
100
AcDbEntity
  8
0
100
AcDbLine
 62
2
  6
CONTINUOUS
 10
88.0929069059
 20
329.3359514406
 11
88.0929069059
 21
340.3359514406
  0
LINE
  5
4DF
100
AcDbEntity
  8
0
100
AcDbLine
 62
2
  6
CONTINUOUS
 10
64.0929069059
 20
339.3359514406
 11
76.0929069059
 21
339.3359514406
  0
LINE
  5
4E0
100
AcDbEntity
  8
0
100
AcDbLine
 62
2
  6
CONTINUOUS
 10
88.0929069059
 20
339.3359514406
 11
76.0929069059
 21
339.3359514406
  0
INSERT
  5
4E1
100
AcDbEntity
  8
0
100
AcDbBlockReference
 62
2
  6
CONTINUOUS
  2
_FILLED
 10
64.0929069059
 20
339.3359514406
 41
3.5
 42
3.5
 43
3.5
 50
180.0
  0
INSERT
  5
4E2
100
AcDbEntity
  8
0
100
AcDbBlockReference
 62
2
  6
CONTINUOUS
  2
_FILLED
 10
88.0929069059
 20
339.3359514406
 41
3.5
 42
3.5
 43
3.5
  0
ENDBLK
  5
4E3
100
AcDbEntity
  8
0
  6
BYBLOCK
 62
0
100
AcDbBlockEnd
  0
BLOCK
  5
4E4
100
AcDbEntity
  8
0
100
AcDbBlockBegin
 62
2
  6
CONTINUOUS
  2
*D5
 70
65
 10
0.0
 20
0.0
  3
*D5
  1

  0
TEXT
  5
4E5
100
AcDbEntity
  8
0
100
AcDbText
 62
5
  6
CONTINUOUS
 10
72.7893354773
 20
204.6986588245
  7
STANDARD
 40
2.5
  1
12.3
 72
5
 11
79.3964783345
 21
204.6986588245
100
AcDbText
  0
LINE
  5
4E6
100
AcDbEntity
  8
0
100
AcDbLine
 62
2
  6
CONTINUOUS
 10
69.9679069059
 20
197.3359514406
 11
69.9679069059
 21
205.0736588245
  0
LINE
  5
4E7
100
AcDbEntity
  8
0
100
AcDbLine
 62
2
  6
CONTINUOUS
 10
82.2179069059
 20
197.3359514406
 11
82.2179069059
 21
205.0736588245
  0
LINE
  5
4E8
100
AcDbEntity
  8
0
100
AcDbLine
 62
2
  6
CONTINUOUS
 10
69.9679069059
 20
204.0736588245
 11
62.9679069059
 21
204.0736588245
  0
LINE
  5
4E9
100
AcDbEntity
  8
0
100
AcDbLine
 62
2
  6
CONTINUOUS
 10
62.9679069059
 20
204.0736588245
 11
76.0929069059
 21
204.0736588245
  0
LINE
  5
4EA
100
AcDbEntity
  8
0
100
AcDbLine
 62
2
  6
CONTINUOUS
 10
82.2179069059
 20
204.0736588245
 11
89.2179069059
 21
204.0736588245
  0
LINE
  5
4EB
100
AcDbEntity
  8
0
100
AcDbLine
 62
2
  6
CONTINUOUS
 10
89.2179069059
 20
204.0736588245
 11
76.0929069059
 21
204.0736588245
  0
INSERT
  5
4EC
100
AcDbEntity
  8
0
100
AcDbBlockReference
 62
2
  6
CONTINUOUS
  2
_FILLED
 10
69.9679069059
 20
204.0736588245
 41
3.5
 42
3.5
 43
3.5
  0
INSERT
  5
4ED
100
AcDbEntity
  8
0
100
AcDbBlockReference
 62
2
  6
CONTINUOUS
  2
_FILLED
 10
82.2179069059
 20
204.0736588245
 41
3.5
 42
3.5
 43
3.5
 50
180.0
  0
ENDBLK
  5
4EE
100
AcDbEntity
  8
0
  6
BYBLOCK
 62
0
100
AcDbBlockEnd
  0
BLOCK
  5
4EF
100
AcDbEntity
  8
0
100
AcDbBlockBegin
 62
2
  6
CONTINUOUS
  2
*D6
 70
65
 10
0.0
 20
0.0
  3
*D6
  1

  0
TEXT
  5
4F0
100
AcDbEntity
  8
0
100
AcDbText
 62
5
  6
CONTINUOUS
 10
53.4679069059
 20
165.8716657264
  7
STANDARD
 40
2.5
  1
62
 50
90.0
 72
5
 11
53.4679069059
 21
169.8002371549
100
AcDbText
  0
LINE
  5
4F1
100
AcDbEntity
  8
0
100
AcDbLine
 62
2
  6
CONTINUOUS
 10
71.4679069059
 20
198.8359514406
 11
53.0929069059
 21
198.8359514406
  0
LINE
  5
4F2
100
AcDbEntity
  8
0
100
AcDbLine
 62
2
  6
CONTINUOUS
 10
71.4679069059
 20
136.8359514406
 11
53.0929069059
 21
136.8359514406
  0
LINE
  5
4F3
100
AcDbEntity
  8
0
100
AcDbLine
 62
2
  6
CONTINUOUS
 10
54.0929069059
 20
198.8359514406
 11
54.0929069059
 21
167.8359514406
  0
LINE
  5
4F4
100
AcDbEntity
  8
0
100
AcDbLine
 62
2
  6
CONTINUOUS
 10
54.0929069059
 20
136.8359514406
 11
54.0929069059
 21
167.8359514406
  0
INSERT
  5
4F5
100
AcDbEntity
  8
0
100
AcDbBlockReference
 62
2
  6
CONTINUOUS
  2
_FILLED
 10
54.0929069059
 20
198.8359514406
 41
3.5
 42
3.5
 43
3.5
 50
90.0
  0
INSERT
  5
4F6
100
AcDbEntity
  8
0
100
AcDbBlockReference
 62
2
  6
CONTINUOUS
  2
_FILLED
 10
54.0929069059
 20
136.8359514406
 41
3.5
 42
3.5
 43
3.5
 50
270.0
  0
ENDBLK
  5
4F7
100
AcDbEntity
  8
0
  6
BYBLOCK
 62
0
100
AcDbBlockEnd
  0
BLOCK
  5
4F8
100
AcDbEntity
  8
0
100
AcDbBlockBegin
 62
2
  6
CONTINUOUS
  2
*D7
 70
65
 10
0.0
 20
0.0
  3
*D7
  1

  0
TEXT
  5
4F9
100
AcDbEntity
  8
0
100
AcDbText
 62
5
  6
CONTINUOUS
 10
46.4679069059
 20
211.6395228692
  7
STANDARD
 40
2.5
  1
91
 50
90.0
 72
5
 11
46.4679069059
 21
215.0323800121
100
AcDbText
  0
LINE
  5
4FA
100
AcDbEntity
  8
0
100
AcDbLine
 62
2
  6
CONTINUOUS
 10
68.2196112269
 20
167.8359514406
 11
54.5266518814
 21
167.8359514406
  0
LINE
  5
4FB
100
AcDbEntity
  8
0
100
AcDbLine
 62
2
  6
CONTINUOUS
 10
50.3384717564
 20
167.8359514406
 11
46.0929069059
 21
167.8359514406
  0
LINE
  5
4FC
100
AcDbEntity
  8
0
100
AcDbLine
 62
2
  6
CONTINUOUS
 10
63.0929069059
 20
258.8359514406
 11
46.0929069059
 21
258.8359514406
  0
LINE
  5
4FD
100
AcDbEntity
  8
0
100
AcDbLine
 62
2
  6
CONTINUOUS
 10
47.0929069059
 20
167.8359514406
 11
47.0929069059
 21
213.3359514406
  0
LINE
  5
4FE
100
AcDbEntity
  8
0
100
AcDbLine
 62
2
  6
CONTINUOUS
 10
47.0929069059
 20
258.8359514406
 11
47.0929069059
 21
213.3359514406
  0
INSERT
  5
4FF
100
AcDbEntity
  8
0
100
AcDbBlockReference
 62
2
  6
CONTINUOUS
  2
_FILLED
 10
47.0929069059
 20
167.8359514406
 41
3.5
 42
3.5
 43
3.5
 50
270.0
  0
INSERT
  5
500
100
AcDbEntity
  8
0
100
AcDbBlockReference
 62
2
  6
CONTINUOUS
  2
_FILLED
 10
47.0929069059
 20
258.8359514406
 41
3.5
 42
3.5
 43
3.5
 50
90.0
  0
ENDBLK
  5
501
100
AcDbEntity
  8
0
  6
BYBLOCK
 62
0
100
AcDbBlockEnd
  0
BLOCK
  5
502
100
AcDbEntity
  8
0
100
AcDbBlockBegin
 62
2
  6
CONTINUOUS
  2
*D8
 70
65
 10
0.0
 20
0.0
  3
*D8
  1

  0
TEXT
  5
503
100
AcDbEntity
  8
0
100
AcDbText
 62
5
  6
CONTINUOUS
 10
19.7657470768
 20
339.9609514406
  7
STANDARD
 40
2.5
  1
3
 72
5
 11
21.5514613625
 21
339.9609514406
100
AcDbText
  0
LINE
  5
504
100
AcDbEntity
  8
0
100
AcDbLine
 62
2
  6
CONTINUOUS
 10
19.1586042196
 20
329.3359514406
 11
19.1586042196
 21
340.3359514406
  0
LINE
  5
505
100
AcDbEntity
  8
0
100
AcDbLine
 62
2
  6
CONTINUOUS
 10
22.1586042196
 20
329.3359514406
 11
22.1586042196
 21
340.3359514406
  0
LINE
  5
506
100
AcDbEntity
  8
0
100
AcDbLine
 62
2
  6
CONTINUOUS
 10
19.1586042196
 20
339.3359514406
 11
12.1586042196
 21
339.3359514406
  0
LINE
  5
507
100
AcDbEntity
  8
0
100
AcDbLine
 62
2
  6
CONTINUOUS
 10
12.1586042196
 20
339.3359514406
 11
20.6586042196
 21
339.3359514406
  0
LINE
  5
508
100
AcDbEntity
  8
0
100
AcDbLine
 62
2
  6
CONTINUOUS
 10
22.1586042196
 20
339.3359514406
 11
29.1586042196
 21
339.3359514406
  0
LINE
  5
509
100
AcDbEntity
  8
0
100
AcDbLine
 62
2
  6
CONTINUOUS
 10
29.1586042196
 20
339.3359514406
 11
20.6586042196
 21
339.3359514406
  0
INSERT
  5
50A
100
AcDbEntity
  8
0
100
AcDbBlockReference
 62
2
  6
CONTINUOUS
  2
_FILLED
 10
19.1586042196
 20
339.3359514406
 41
3.5
 42
3.5
 43
3.5
  0
INSERT
  5
50B
100
AcDbEntity
  8
0
100
AcDbBlockReference
 62
2
  6
CONTINUOUS
  2
_FILLED
 10
22.1586042196
 20
339.3359514406
 41
3.5
 42
3.5
 43
3.5
 50
180.0
  0
ENDBLK
  5
50C
100
AcDbEntity
  8
0
  6
BYBLOCK
 62
0
100
AcDbBlockEnd
  0
BLOCK
  5
50D
100
AcDbEntity
  8
0
100
AcDbBlockBegin
 62
2
  6
CONTINUOUS
  2
*D9
 70
65
 10
0.0
 20
0.0
  3
*D9
  1

  0
TEXT
  5
50E
100
AcDbEntity
  8
0
100
AcDbText
 62
5
  6
CONTINUOUS
 10
21.1764613625
 20
346.9609514406
  7
STANDARD
 40
2.5
  1
6
 72
5
 11
23.1407470768
 21
346.9609514406
100
AcDbText
  0
LINE
  5
50F
100
AcDbEntity
  8
0
100
AcDbLine
 62
2
  6
CONTINUOUS
 10
19.1586042196
 20
329.3359514406
 11
19.1586042196
 21
347.3359514406
  0
LINE
  5
510
100
AcDbEntity
  8
0
100
AcDbLine
 62
2
  6
CONTINUOUS
 10
25.1586042196
 20
289.8359514406
 11
25.1586042196
 21
338.1336606205
  0
LINE
  5
511
100
AcDbEntity
  8
0
100
AcDbLine
 62
2
  6
CONTINUOUS
 10
25.1586042196
 20
340.5051869816
 11
25.1586042196
 21
347.3359514406
  0
LINE
  5
512
100
AcDbEntity
  8
0
100
AcDbLine
 62
2
  6
CONTINUOUS
 10
19.1586042196
 20
346.3359514406
 11
12.1586042196
 21
346.3359514406
  0
LINE
  5
513
100
AcDbEntity
  8
0
100
AcDbLine
 62
2
  6
CONTINUOUS
 10
12.1586042196
 20
346.3359514406
 11
22.1586042196
 21
346.3359514406
  0
LINE
  5
514
100
AcDbEntity
  8
0
100
AcDbLine
 62
2
  6
CONTINUOUS
 10
25.1586042196
 20
346.3359514406
 11
32.1586042196
 21
346.3359514406
  0
LINE
  5
515
100
AcDbEntity
  8
0
100
AcDbLine
 62
2
  6
CONTINUOUS
 10
32.1586042196
 20
346.3359514406
 11
22.1586042196
 21
346.3359514406
  0
INSERT
  5
516
100
AcDbEntity
  8
0
100
AcDbBlockReference
 62
2
  6
CONTINUOUS
  2
_FILLED
 10
19.1586042196
 20
346.3359514406
 41
3.5
 42
3.5
 43
3.5
  0
INSERT
  5
517
100
AcDbEntity
  8
0
100
AcDbBlockReference
 62
2
  6
CONTINUOUS
  2
_FILLED
 10
25.1586042196
 20
346.3359514406
 41
3.5
 42
3.5
 43
3.5
 50
180.0
  0
ENDBLK
  5
518
100
AcDbEntity
  8
0
  6
BYBLOCK
 62
0
100
AcDbBlockEnd
  0
ENDSEC
  0
SECTION
  2
ENTITIES
  0
DIMENSION
  5
519
100
AcDbEntity
  8
0
100
AcDbDimension
 62
2
  6
CONTINUOUS
  2
*D0
 10
40.0929069059
 20
112.8359514406
 11
40.0929069059
 21
221.0859514406
 70
160
 71
2
 42
216.5
  3
DIMSTYLE_1
100
AcDbAlignedDimension
 13
64.0929069059
 23
329.3359514406
 14
64.0929069059
 24
112.8359514406
 50
270.0
100
AcDbRotatedDimension
  0
DIMENSION
  5
51A
100
AcDbEntity
  8
0
100
AcDbDimension
 62
2
  6
CONTINUOUS
  2
*D1
 10
98.0929069059
 20
258.8359514406
 11
98.0929069059
 21
237.3359514406
 70
160
 71
2
 42
43.0
  3
DIMSTYLE_2
100
AcDbAlignedDimension
 13
83.8929069059
 23
215.8359514406
 14
88.0929069059
 24
258.8359514406
 50
90.0
100
AcDbRotatedDimension
  0
DIMENSION
  5
51B
100
AcDbEntity
  8
0
100
AcDbDimension
 62
2
  6
CONTINUOUS
  2
*D2
 10
105.0929069059
 20
317.3359514406
 11
105.0929069059
 21
288.0859514406
 70
160
 71
2
 42
58.5
  3
DIMSTYLE_2
100
AcDbAlignedDimension
 13
88.0929069059
 23
258.8359514406
 14
83.2640868155
 24
317.3359514406
 50
90.0
100
AcDbRotatedDimension
  0
DIMENSION
  5
51C
100
AcDbEntity
  8
0
100
AcDbDimension
 62
2
  6
CONTINUOUS
  2
*D3
 10
105.0929069059
 20
124.8359514406
 11
105.0929069059
 21
191.8359514406
 70
160
 71
2
 42
134.0
  3
DIMSTYLE_1
100
AcDbAlignedDimension
 13
88.0929069059
 23
258.8359514406
 14
83.8929069059
 24
124.8359514406
 50
270.0
100
AcDbRotatedDimension
  0
DIMENSION
  5
51D
100
AcDbEntity
  8
0
100
AcDbDimension
 62
2
  6
CONTINUOUS
  2
*D4
 10
88.0929069059
 20
339.3359514406
 11
76.0929069059
 21
339.3359514406
 70
160
 71
2
 42
24.0
  3
DIMSTYLE_3
100
AcDbAlignedDimension
 13
64.0929069059
 23
329.3359514406
 14
88.0929069059
 24
329.3359514406
100
AcDbRotatedDimension
  0
DIMENSION
  5
51E
100
AcDbEntity
  8
0
100
AcDbDimension
 62
2
  6
CONTINUOUS
  2
*D5
 10
82.2179069059
 20
204.0736588245
 11
76.0929069059
 21
204.0736588245
 70
160
 71
2
 42
12.25
  3
DIMSTYLE_4
100
AcDbAlignedDimension
 13
69.9679069059
 23
197.3359514406
 14
82.2179069059
 24
197.3359514406
100
AcDbRotatedDimension
  0
DIMENSION
  5
51F
100
AcDbEntity
  8
0
100
AcDbDimension
 62
2
  6
CONTINUOUS
  2
*D6
 10
54.0929069059
 20
136.8359514406
 11
54.0929069059
 21
167.8359514406
 70
160
 71
2
 42
62.0
  3
DIMSTYLE_2
100
AcDbAlignedDimension
 13
71.4679069059
 23
198.8359514406
 14
71.4679069059
 24
136.8359514406
 50
270.0
100
AcDbRotatedDimension
  0
DIMENSION
  5
520
100
AcDbEntity
  8
0
100
AcDbDimension
 62
2
  6
CONTINUOUS
  2
*D7
 10
47.0929069059
 20
258.8359514406
 11
47.0929069059
 21
213.3359514406
 70
160
 71
2
 42
91.0
  3
DIMSTYLE_2
100
AcDbAlignedDimension
 13
68.2196112269
 23
167.8359514406
 14
63.0929069059
 24
258.8359514406
 50
90.0
100
AcDbRotatedDimension
  0
DIMENSION
  5
521
100
AcDbEntity
  8
0
100
AcDbDimension
 62
2
  6
CONTINUOUS
  2
*D8
 10
22.1586042196
 20
339.3359514406
 11
20.6586042196
 21
339.3359514406
 70
160
 71
2
 42
3.0
  3
DIMSTYLE_5
100
AcDbAlignedDimension
 13
19.1586042196
 23
329.3359514406
 14
22.1586042196
 24
329.3359514406
100
AcDbRotatedDimension
  0
DIMENSION
  5
522
100
AcDbEntity
  8
0
100
AcDbDimension
 62
2
  6
CONTINUOUS
  2
*D9
 10
25.1586042196
 20
346.3359514406
 11
22.1586042196
 21
346.3359514406
 70
160
 71
2
 42
6.0
  3
DIMSTYLE_5
100
AcDbAlignedDimension
 13
19.1586042196
 23
329.3359514406
 14
25.1586042196
 24
289.8359514406
100
AcDbRotatedDimension
  0
INSERT
  5
523
100
AcDbEntity
  8
0
100
AcDbBlockReference
 62
2
  6
CONTINUOUS
  2
SYMBOL_0_BL8
 10
31.0000000239
 20
34.9999999785
  0
LINE
  5
524
100
AcDbEntity
  8
S-AXIS
100
AcDbLine
 62
7
  6
CENTER
 10
28.5588555583
 20
87.520164871
 11
15.1585817967
 21
87.520164871
  0
INSERT
  5
525
100
AcDbEntity
  8
94862701L00_BL0
100
AcDbBlockReference
  2
94862701L00_BL0
 10
52.1257555628
 20
202.4280581558
  0
INSERT
  5
526
100
AcDbEntity
  8
93894203000_BL1
100
AcDbBlockReference
  2
93894203000_BL1
 10
51.1257555628
 20
185.1780581558
  0
INSERT
  5
527
100
AcDbEntity
  8
93780800R00_BL2
100
AcDbBlockReference
  2
93780800R00_BL2
 10
72.0929069059
 20
274.3359514406
  0
INSERT
  5
528
100
AcDbEntity
  8
93894102000_BL3
100
AcDbBlockReference
  2
93894102000_BL3
 10
51.6257555628
 20
180.6780581558
  0
INSERT
  5
529
100
AcDbEntity
  8
93780800R00_BL4
100
AcDbBlockReference
  2
93780800R00_BL4
 10
72.0929069059
 20
243.3359514406
  0
INSERT
  5
52A
100
AcDbEntity
  8
62890299000_O03_BL5
100
AcDbBlockReference
  2
62890299000_O03_BL5
 10
51.6257443513
 20
258.8359514406
  0
INSERT
  5
52B
100
AcDbEntity
  8
91324206R00_BL6
100
AcDbBlockReference
  2
91324206R00_BL6
 10
74.0929069059
 20
232.5859514406
  0
INSERT
  5
52C
100
AcDbEntity
  8
91324206R00_BL7
100
AcDbBlockReference
  2
91324206R00_BL7
 10
74.0929069059
 20
285.0859514406
  0
ENDSEC
  0
SECTION
  2
OBJECTS
  0
DICTIONARY
  5
C
100
AcDbDictionary
280
0
281
1
  3
ACAD_GROUP
350
D
  3
ACAD_MLINESTYLE
350
17
  3
ACAD_LAYOUT
350
1A
  3
ACAD_PLOTSETTINGS
350
19
  3
ACAD_PLOTSTYLENAME
350
E
  0
DICTIONARY
  5
D
102
{ACAD_REACTORS
330
C
102
}
100
AcDbDictionary
280
0
281
1
  0
ACDBDICTIONARYWDFLT
  5
E
102
{ACAD_REACTORS
330
C
102
}
100
AcDbDictionary
281
1
  3
Normal
350
F
100
AcDbDictionaryWithDefault
340
F
  0
DICTIONARY
  5
17
102
{ACAD_REACTORS
330
C
102
}
100
AcDbDictionary
280
0
281
1
  3
Standard
350
18
  0
DICTIONARY
  5
19
102
{ACAD_REACTORS
330
C
102
}
100
AcDbDictionary
281
1
  0
DICTIONARY
  5
1A
102
{ACAD_REACTORS
330
C
102
}
100
AcDbDictionary
281
1
  3
Model
350
52D
  3
Layout1
350
52E
  0
ACDBPLACEHOLDER
  5
F
102
{ACAD_REACTORS
330
E
102
}
  0
MLINESTYLE
  5
18
102
{ACAD_REACTORS
330
17
102
}
100
AcDbMlineStyle
  2
STANDARD
 70
0
  3

 62
256
 51
90.0
 52
90.0
 71
2
 49
0.5
 62
256
  6
BYLAYER
 49
-0.5
 62
256
  6
BYLAYER
  0
LAYOUT
  5
52D
102
{ACAD_REACTORS
330
1A
102
}
100
AcDbPlotSettings
  1

  2
none_device
  4

  6

 40
0.0
 41
0.0
 42
0.0
 43
0.0
 44
120.0
 45
355.0
 46
0.0
 47
0.0
 48
0.0
 49
0.0
140
0.0
141
0.0
142
1.0
143
1.0
 70
1024
 72
1
 73
0
 74
0
  7

 75
0
147
1.0
148
0.0
149
0.0
100
AcDbLayout
  1
Model
 70
0
 71
0
 10
0.0
 20
0.0
 11
120.0
 21
355.0
 12
0.0
 22
0.0
 32
0.0
 14
0.0
 24
0.0
 34
0.0
 15
0.0
 25
0.0
 35
0.0
146
0.0
 13
0.0
 23
0.0
 33
0.0
 16
1.0
 26
0.0
 36
0.0
 17
0.0
 27
1.0
 37
0.0
 76
0
330
217
345
0
346
0
  0
LAYOUT
  5
52E
102
{ACAD_REACTORS
330
1A
102
}
100
AcDbPlotSettings
  1

  2
none_device
  4

  6

 40
0.0
 41
0.0
 42
0.0
 43
0.0
 44
120.0
 45
355.0
 46
0.0
 47
0.0
 48
0.0
 49
0.0
140
0.0
141
0.0
142
1.0
143
1.0
 70
0
 72
1
 73
0
 74
0
  7

 75
0
147
1.0
148
0.0
149
0.0
100
AcDbLayout
  1
Layout1
 70
0
 71
1
 10
0.0
 20
0.0
 11
120.0
 21
355.0
 12
0.0
 22
0.0
 32
0.0
 14
0.0
 24
0.0
 34
0.0
 15
0.0
 25
0.0
 35
0.0
146
0.0
 13
0.0
 23
0.0
 33
0.0
 16
1.0
 26
0.0
 36
0.0
 17
0.0
 27
1.0
 37
0.0
 76
0
330
218
345
0
346
0
  0
ENDSEC
  0
EOF
