  0
SECTION
  2
HEADER
  9
$ACADVER
  1
AC1021
  9
$DWGCODEPAGE
  3
ANSI_1252
  9
$EXTMAX
 10
420.0
 20
297.0
 30
0.0
  9
$EXTMIN
 10
0.0
 20
0.0
 30
0.0
  9
$LIMMIN
 10
0.0
 20
0.0
  9
$LIMMAX
 10
420.0
 20
297.0
  9
$VIEWCTR
 10
210.0
 20
148.5
  9
$VIEWSIZE
 40
297.0
  9
$CLAYER
  8
0
  9
$LTSCALE
 40
23.1
  9
$CELTYPE
  6
BYLAYER
  9
$DIMSCALE
 40
1.0
  9
$DIMASZ
 40
3.5
  9
$DIMEXO
 40
0.0
  9
$DIMDLI
 40
15.96
  9
$DIMEXE
 40
1.0
  9
$DIMCEN
 40
3.78
  9
$DIMLFAC
 40
1.0
  9
$DIMBLK
  1
_FILLED
  9
$DIMTXT
 40
2.5
  9
$DIMTOL
 70
1
  9
$DIMLIM
 70
0
  9
$DIMTFAC
 40
1.0
  9
$DIMTP
 40
0.001
  9
$DIMTM
 40
0.001
  9
$DIMGAP
 40
0.625
  9
$DIMDSEP
 70
46
  9
$PDMODE
 70
3
  9
$PDSIZE
 40
2.0
  9
$HANDSEED
  5
5AB
  9
$TILEMODE
 70
1
  9
$MEASUREMENT
 70
1
  9
$INSUNITS
 70
4
  0
ENDSEC
  0
SECTION
  2
CLASSES
  0
CLASS
  1
ACDBDICTIONARYWDFLT
  2
AcDbDictionaryWithDefault
  3
AutoCAD 2000
 90
0
 91
1
280
0
281
0
  0
CLASS
  1
ACDBPLACEHOLDER
  2
AcDbPlaceHolder
  3
AutoCAD 2000
 90
0
 91
1
280
0
281
0
  0
CLASS
  1
LAYOUT
  2
AcDbLayout
  3
AutoCAD 2000
 90
0
 91
0
280
0
281
0
  0
CLASS
  1
TABLESTYLE
  2
AcDbTableStyle
  3
ObjectDBX Classes
 90
2047
 91
1
280
0
281
0
  0
CLASS
  1
ACAD_TABLE
  2
AcDbTable
  3
ObjectDBX Classes
 90
1025
 91
2
280
0
281
1
  0
ENDSEC
  0
SECTION
  2
TABLES
  0
TABLE
  2
VPORT
  5
8
100
AcDbSymbolTable
 70
2
  0
VPORT
  5
1F4
100
AcDbSymbolTableRecord
100
AcDbViewportTableRecord
  2
*ACTIVE
 70
0
 10
0.0
 20
0.0
 11
1.0
 21
1.0
 12
210.0
 22
148.5
 13
0.0
 23
0.0
 14
1.0
 24
1.0
 15
0.0
 25
0.0
 16
0.0
 26
0.0
 36
1.0
 17
0.0
 27
0.0
 37
0.0
 40
297.0
 41
1.4141414141
 42
50.0
 43
0.0
 44
0.0
 50
0.0
 51
0.0
 71
0
 72
100
 73
1
 74
1
 75
0
 76
0
 77
0
 78
0
  0
ENDTAB
  0
TABLE
  2
LTYPE
  5
5
100
AcDbSymbolTable
 70
6
  0
LTYPE
  5
14
100
AcDbSymbolTableRecord
100
AcDbLinetypeTableRecord
  2
BYBLOCK
 70
0
  3

 72
65
 73
0
 40
0.0
  0
LTYPE
  5
15
100
AcDbSymbolTableRecord
100
AcDbLinetypeTableRecord
  2
BYLAYER
 70
0
  3

 72
65
 73
0
 40
0.0
  0
LTYPE
  5
16
100
AcDbSymbolTableRecord
100
AcDbLinetypeTableRecord
  2
CONTINUOUS
 70
64
  3
Solid line
 72
65
 73
0
 40
0.0
  0
LTYPE
  5
1F5
100
AcDbSymbolTableRecord
100
AcDbLinetypeTableRecord
  2
CENTER
 70
64
  3
____ _ ____ _ ____ _ ____ _ ____ _ ____ _ ____
 72
65
 73
4
 40
0.6
 49
0.375
 74
0
 49
-0.075
 74
0
 49
0.075
 74
0
 49
-0.075
 74
0
  0
LTYPE
  5
1F6
100
AcDbSymbolTableRecord
100
AcDbLinetypeTableRecord
  2
HIDDEN
 70
64
  3
- - - - - - - - - - - - - - - - - - - -
 72
65
 73
2
 40
0.2
 49
0.1
 74
0
 49
-0.1
 74
0
  0
LTYPE
  5
1F7
100
AcDbSymbolTableRecord
100
AcDbLinetypeTableRecord
  2
PHANTOM
 70
64
  3
_____ _ _ _____ _ _ _____ _ _ _____
 72
65
 73
6
 40
0.8
 49
0.45
 74
0
 49
-0.05
 74
0
 49
0.1
 74
0
 49
-0.05
 74
0
 49
0.1
 74
0
 49
-0.05
 74
0
  0
LTYPE
  5
1F8
100
AcDbSymbolTableRecord
100
AcDbLinetypeTableRecord
  2
DOT
 70
64
  3
. . . . . . . . . . . . . . . . . . . .
 72
65
 73
2
 40
0.2
 49
0.1
 74
0
 49
-0.1
 74
0
  0
LTYPE
  5
1F9
100
AcDbSymbolTableRecord
100
AcDbLinetypeTableRecord
  2
DASHED
 70
64
  3
- - - - - - - - - - - - - - - - - - - -
 72
65
 73
2
 40
0.2
 49
0.1
 74
0
 49
-0.1
 74
0
  0
ENDTAB
  0
TABLE
  2
LAYER
  5
2
100
AcDbSymbolTable
 70
36
  0
LAYER
  5
10
100
AcDbSymbolTableRecord
100
AcDbLayerTableRecord
  2
0
 70
0
 62
7
  6
CONTINUOUS
370
-3
390
F
  0
LAYER
  5
1FA
100
AcDbSymbolTableRecord
100
AcDbLayerTableRecord
  2
DEFAULT_1
 70
0
 62
7
  6
CENTER
370
-3
390
F
  0
LAYER
  5
1FB
100
AcDbSymbolTableRecord
100
AcDbLayerTableRecord
  2
DEFAULT_2
 70
0
 62
8
  6
HIDDEN
370
-3
390
F
  0
LAYER
  5
1FC
100
AcDbSymbolTableRecord
100
AcDbLayerTableRecord
  2
DEFAULT_3
 70
0
 62
7
  6
PHANTOM
370
-3
390
F
  0
LAYER
  5
1FD
100
AcDbSymbolTableRecord
100
AcDbLayerTableRecord
  2
AXIS
 70
0
 62
7
  6
CONTINUOUS
370
-3
390
F
  0
LAYER
  5
1FE
100
AcDbSymbolTableRecord
100
AcDbLayerTableRecord
  2
COORDSYS
 70
0
 62
7
  6
CONTINUOUS
370
-3
390
F
  0
LAYER
  5
1FF
100
AcDbSymbolTableRecord
100
AcDbLayerTableRecord
  2
CURVES
 70
0
 62
7
  6
CONTINUOUS
370
-3
390
F
  0
LAYER
  5
200
100
AcDbSymbolTableRecord
100
AcDbLayerTableRecord
  2
EINBAUREFERENZ
 70
0
 62
7
  6
CONTINUOUS
370
-3
390
F
  0
LAYER
  5
201
100
AcDbSymbolTableRecord
100
AcDbLayerTableRecord
  2
KOSMETIK
 70
0
 62
7
  6
CONTINUOUS
370
-3
390
F
  0
LAYER
  5
202
100
AcDbSymbolTableRecord
100
AcDbLayerTableRecord
  2
KURVE
 70
0
 62
7
  6
CONTINUOUS
370
-3
390
F
  0
LAYER
  5
203
100
AcDbSymbolTableRecord
100
AcDbLayerTableRecord
  2
PLANES
 70
0
 62
7
  6
CONTINUOUS
370
-3
390
F
  0
LAYER
  5
204
100
AcDbSymbolTableRecord
100
AcDbLayerTableRecord
  2
POINTS
 70
0
 62
7
  6
CONTINUOUS
370
-3
390
F
  0
LAYER
  5
205
100
AcDbSymbolTableRecord
100
AcDbLayerTableRecord
  2
PROFIL-EINBAULAGE
 70
0
 62
7
  6
CONTINUOUS
370
-3
390
F
  0
LAYER
  5
206
100
AcDbSymbolTableRecord
100
AcDbLayerTableRecord
  2
S-AXIS
 70
0
 62
7
  6
CONTINUOUS
370
-3
390
F
  0
LAYER
  5
207
100
AcDbSymbolTableRecord
100
AcDbLayerTableRecord
  2
S-COORDSYS
 70
0
 62
7
  6
CONTINUOUS
370
-3
390
F
  0
LAYER
  5
208
100
AcDbSymbolTableRecord
100
AcDbLayerTableRecord
  2
S-PLANES
 70
0
 62
7
  6
CONTINUOUS
370
-3
390
F
  0
LAYER
  5
209
100
AcDbSymbolTableRecord
100
AcDbLayerTableRecord
  2
THREADS
 70
0
 62
7
  6
CONTINUOUS
370
-3
390
F
  0
LAYER
  5
20A
100
AcDbSymbolTableRecord
100
AcDbLayerTableRecord
  2
XSEC_DATUMS
 70
0
 62
7
  6
CONTINUOUS
370
-3
390
F
  0
LAYER
  5
20B
100
AcDbSymbolTableRecord
100
AcDbLayerTableRecord
  2
93773508000_BL0
 70
0
 62
7
  6
CONTINUOUS
370
-3
390
F
  0
LAYER
  5
20C
100
AcDbSymbolTableRecord
100
AcDbLayerTableRecord
  2
94862601R00_BL1
 70
0
 62
7
  6
CONTINUOUS
370
-3
390
F
  0
LAYER
  5
20D
100
AcDbSymbolTableRecord
100
AcDbLayerTableRecord
  2
93780800R00_BL2
 70
0
 62
7
  6
CONTINUOUS
370
-3
390
F
  0
LAYER
  5
20E
100
AcDbSymbolTableRecord
100
AcDbLayerTableRecord
  2
93894203000_BL3
 70
0
 62
7
  6
CONTINUOUS
370
-3
390
F
  0
LAYER
  5
20F
100
AcDbSymbolTableRecord
100
AcDbLayerTableRecord
  2
93780800R00_BL4
 70
0
 62
7
  6
CONTINUOUS
370
-3
390
F
  0
LAYER
  5
210
100
AcDbSymbolTableRecord
100
AcDbLayerTableRecord
  2
93773508000_BL5
 70
0
 62
7
  6
CONTINUOUS
370
-3
390
F
  0
LAYER
  5
211
100
AcDbSymbolTableRecord
100
AcDbLayerTableRecord
  2
93894102000_BL6
 70
0
 62
7
  6
CONTINUOUS
370
-3
390
F
  0
LAYER
  5
212
100
AcDbSymbolTableRecord
100
AcDbLayerTableRecord
  2
62890203000_STELLUNG_1_BL7
 70
0
 62
7
  6
CONTINUOUS
370
-3
390
F
  0
LAYER
  5
213
100
AcDbSymbolTableRecord
100
AcDbLayerTableRecord
  2
91324206R00_BL8
 70
0
 62
7
  6
CONTINUOUS
370
-3
390
F
  0
ENDTAB
  0
TABLE
  2
STYLE
  5
3
100
AcDbSymbolTable
 70
1
  0
STYLE
  5
11
100
AcDbSymbolTableRecord
100
AcDbTextStyleTableRecord
  2
STANDARD
 70
0
 40
0.0
 41
0.8
 50
0.0
 71
0
 42
0.2
  3
txt
  4

  0
STYLE
  5
214
100
AcDbSymbolTableRecord
100
AcDbTextStyleTableRecord
  2
TEXTSTYLE_1
 70
0
 40
0.0
 41
0.8
 50
0.0
 71
0
 42
0.2
  3
gdt
  4

  0
STYLE
  5
215
100
AcDbSymbolTableRecord
100
AcDbTextStyleTableRecord
  2
TEXTSTYLE_2
 70
0
 40
0.0
 41
1.0
 50
0.0
 71
0
 42
0.2
  3
txt
  4

  0
STYLE
  5
216
100
AcDbSymbolTableRecord
100
AcDbTextStyleTableRecord
  2
TEXTSTYLE_3
 70
0
 40
0.0
 41
0.8
 50
0.0
 71
0
 42
0.2
  3
txt
  4

  0
STYLE
  5
217
100
AcDbSymbolTableRecord
100
AcDbTextStyleTableRecord
  2
TEXTSTYLE_4
 70
0
 40
0.0
 41
0.8
 50
0.0
 71
0
 42
0.2
  3
txt
  4

  0
ENDTAB
  0
TABLE
  2
VIEW
  5
6
100
AcDbSymbolTable
 70
0
  0
ENDTAB
  0
TABLE
  2
UCS
  5
7
100
AcDbSymbolTable
 70
0
  0
ENDTAB
  0
TABLE
  2
APPID
  5
9
100
AcDbSymbolTable
 70
1
  0
APPID
  5
218
100
AcDbSymbolTableRecord
100
AcDbRegAppTableRecord
  2
ACAD
 70
0
  0
ENDTAB
  0
TABLE
  2
BLOCK_RECORD
  5
1
100
AcDbSymbolTable
 70
0
  0
BLOCK_RECORD
  5
219
100
AcDbSymbolTableRecord
100
AcDbBlockTableRecord
  2
*Model_Space
  0
BLOCK_RECORD
  5
21A
100
AcDbSymbolTableRecord
100
AcDbBlockTableRecord
  2
*Paper_Space
  0
BLOCK_RECORD
  5
21B
100
AcDbSymbolTableRecord
100
AcDbBlockTableRecord
  2
_FILLED
  0
BLOCK_RECORD
  5
21C
100
AcDbSymbolTableRecord
100
AcDbBlockTableRecord
  2
*D0
  0
BLOCK_RECORD
  5
21D
100
AcDbSymbolTableRecord
100
AcDbBlockTableRecord
  2
*D1
  0
BLOCK_RECORD
  5
21E
100
AcDbSymbolTableRecord
100
AcDbBlockTableRecord
  2
*D2
  0
BLOCK_RECORD
  5
21F
100
AcDbSymbolTableRecord
100
AcDbBlockTableRecord
  2
*D3
  0
BLOCK_RECORD
  5
220
100
AcDbSymbolTableRecord
100
AcDbBlockTableRecord
  2
*D4
  0
BLOCK_RECORD
  5
221
100
AcDbSymbolTableRecord
100
AcDbBlockTableRecord
  2
*D5
  0
BLOCK_RECORD
  5
222
100
AcDbSymbolTableRecord
100
AcDbBlockTableRecord
  2
*D6
  0
BLOCK_RECORD
  5
223
100
AcDbSymbolTableRecord
100
AcDbBlockTableRecord
  2
*D7
  0
BLOCK_RECORD
  5
224
100
AcDbSymbolTableRecord
100
AcDbBlockTableRecord
  2
*D8
  0
BLOCK_RECORD
  5
225
100
AcDbSymbolTableRecord
100
AcDbBlockTableRecord
  2
*D9
  0
BLOCK_RECORD
  5
226
100
AcDbSymbolTableRecord
100
AcDbBlockTableRecord
  2
*D10
  0
BLOCK_RECORD
  5
227
100
AcDbSymbolTableRecord
100
AcDbBlockTableRecord
  2
SYMBOL_5_BL10
  0
BLOCK_RECORD
  5
228
100
AcDbSymbolTableRecord
100
AcDbBlockTableRecord
  2
SYMBOL_2_BL9
  0
BLOCK_RECORD
  5
229
100
AcDbSymbolTableRecord
100
AcDbBlockTableRecord
  2
93773508000_BL0
  0
BLOCK_RECORD
  5
22A
100
AcDbSymbolTableRecord
100
AcDbBlockTableRecord
  2
94862601R00_BL1
  0
BLOCK_RECORD
  5
22B
100
AcDbSymbolTableRecord
100
AcDbBlockTableRecord
  2
93780800R00_BL2
  0
BLOCK_RECORD
  5
22C
100
AcDbSymbolTableRecord
100
AcDbBlockTableRecord
  2
93894203000_BL3
  0
BLOCK_RECORD
  5
22D
100
AcDbSymbolTableRecord
100
AcDbBlockTableRecord
  2
93780800R00_BL4
  0
BLOCK_RECORD
  5
22E
100
AcDbSymbolTableRecord
100
AcDbBlockTableRecord
  2
93773508000_BL5
  0
BLOCK_RECORD
  5
22F
100
AcDbSymbolTableRecord
100
AcDbBlockTableRecord
  2
93894102000_BL6
  0
BLOCK_RECORD
  5
230
100
AcDbSymbolTableRecord
100
AcDbBlockTableRecord
  2
62890203000_STELLUNG_1_BL7
  0
BLOCK_RECORD
  5
231
100
AcDbSymbolTableRecord
100
AcDbBlockTableRecord
  2
91324206R00_BL8
  0
BLOCK_RECORD
  5
232
100
AcDbSymbolTableRecord
100
AcDbBlockTableRecord
  2
*T1
  0
BLOCK_RECORD
  5
233
100
AcDbSymbolTableRecord
100
AcDbBlockTableRecord
  2
*T2
  0
ENDTAB
  0
TABLE
  2
DIMSTYLE
  5
A
100
AcDbSymbolTable
 70
1
100
AcDbDimStyleTable
 71
0
  0
DIMSTYLE
105
234
100
AcDbSymbolTableRecord
100
AcDbDimStyleTableRecord
  2
STANDARD
 70
0
  3

  4

 40
1.0
 41
3.5
 42
0.0
 43
0.38
 44
1.0
 45
0.0
 46
0.0
 47
0.001
 48
0.001
140
2.5
141
0.09
142
0.0
143
25.4
144
1.0
145
0.0
146
1.0
147
0.625
 71
1.0
 72
0.0
 73
0
 74
0
 75
0
 76
0
 77
1
 78
8
170
0
171
2
172
0
173
0
174
0
175
0
176
0
177
0
178
5
270
2
271
3
272
3
273
2
274
2
275
0
280
0
281
0
282
0
283
1
284
8
285
0
286
0
287
3
288
0
340
11
278
46
341
21B
342
21B
343
21B
344
21B
  0
DIMSTYLE
105
235
100
AcDbSymbolTableRecord
100
AcDbDimStyleTableRecord
  2
DIMSTYLE_1
 70
0
  3

  4

 40
1.0
 41
3.5
 42
0.0
 43
0.38
 44
1.0
 45
0.0
 46
0.0
 47
0.5
 48
0.5
140
2.5
141
0.09
142
0.0
143
25.4
144
1.0
145
0.0
146
1.0
147
0.625
 71
0.0
 72
0.0
 73
0
 74
0
 75
0
 76
0
 77
1
 78
8
170
0
171
2
172
0
173
0
174
0
175
0
176
0
177
0
178
5
270
2
271
3
272
3
273
2
274
2
275
0
280
0
281
0
282
0
283
1
284
8
285
0
286
0
287
3
288
0
340
11
278
46
341
21B
342
21B
343
21B
344
21B
  0
DIMSTYLE
105
236
100
AcDbSymbolTableRecord
100
AcDbDimStyleTableRecord
  2
DIMSTYLE_2
 70
0
  3

  4

 40
1.0
 41
3.5
 42
0.0
 43
0.38
 44
1.0
 45
0.0
 46
0.0
 47
0.3
 48
0.3
140
2.5
141
0.09
142
0.0
143
25.4
144
1.0
145
0.0
146
1.0
147
0.625
 71
0.0
 72
0.0
 73
0
 74
0
 75
0
 76
0
 77
1
 78
8
170
0
171
2
172
0
173
0
174
0
175
0
176
0
177
0
178
5
270
2
271
0
272
0
273
2
274
2
275
0
280
0
281
0
282
0
283
1
284
8
285
0
286
0
287
3
288
0
340
11
278
46
341
21B
342
21B
343
21B
344
21B
  0
DIMSTYLE
105
237
100
AcDbSymbolTableRecord
100
AcDbDimStyleTableRecord
  2
DIMSTYLE_3
 70
0
  3

  4

 40
1.0
 41
3.5
 42
0.0
 43
0.38
 44
1.0
 45
0.0
 46
0.0
 47
0.3
 48
0.3
140
2.5
141
0.09
142
0.0
143
25.4
144
1.0
145
0.0
146
1.0
147
0.625
 71
0.0
 72
0.0
 73
0
 74
0
 75
0
 76
0
 77
1
 78
8
170
0
171
2
172
0
173
0
174
0
175
0
176
0
177
0
178
5
270
2
271
3
272
3
273
2
274
2
275
0
280
0
281
0
282
0
283
1
284
8
285
0
286
0
287
3
288
0
340
11
278
46
341
21B
342
21B
343
21B
344
21B
  0
DIMSTYLE
105
238
100
AcDbSymbolTableRecord
100
AcDbDimStyleTableRecord
  2
DIMSTYLE_4
 70
0
  3

  4

 40
1.0
 41
3.5
 42
0.0
 43
0.38
 44
1.0
 45
0.0
 46
0.0
 47
0.5
 48
0.5
140
2.5
141
0.09
142
0.0
143
25.4
144
1.0
145
0.0
146
1.0
147
0.625
 71
0.0
 72
0.0
 73
0
 74
0
 75
0
 76
0
 77
1
 78
8
170
0
171
2
172
0
173
0
174
0
175
0
176
0
177
0
178
5
270
2
271
0
272
0
273
2
274
2
275
0
280
0
281
0
282
0
283
1
284
8
285
0
286
0
287
3
288
0
340
11
278
46
341
21B
342
21B
343
21B
344
21B
  0
DIMSTYLE
105
239
100
AcDbSymbolTableRecord
100
AcDbDimStyleTableRecord
  2
DIMSTYLE_5
 70
0
  3

  4

 40
1.0
 41
3.5
 42
0.0
 43
0.38
 44
1.0
 45
0.0
 46
0.0
 47
0.3
 48
0.3
140
2.5
141
0.09
142
0.0
143
25.4
144
1.0
145
0.0
146
1.0
147
0.625
 71
0.0
 72
0.0
 73
0
 74
0
 75
0
 76
0
 77
1
 78
8
170
0
171
2
172
0
173
0
174
0
175
0
176
0
177
0
178
5
270
2
271
1
272
1
273
2
274
2
275
0
280
0
281
0
282
0
283
1
284
8
285
0
286
0
287
3
288
0
340
11
278
46
341
21B
342
21B
343
21B
344
21B
  0
DIMSTYLE
105
23A
100
AcDbSymbolTableRecord
100
AcDbDimStyleTableRecord
  2
DIMSTYLE_6
 70
0
  3

  4

 40
1.0
 41
3.5
 42
0.0
 43
0.38
 44
1.0
 45
0.0
 46
0.0
 47
0.2
 48
0.2
140
2.5
141
0.09
142
0.0
143
25.4
144
1.0
145
0.0
146
1.0
147
0.625
 71
0.0
 72
0.0
 73
0
 74
0
 75
0
 76
0
 77
1
 78
8
170
0
171
2
172
0
173
0
174
0
175
0
176
0
177
0
178
5
270
2
271
3
272
3
273
2
274
2
275
0
280
0
281
0
282
0
283
1
284
8
285
0
286
0
287
3
288
0
340
11
278
46
341
21B
342
21B
343
21B
344
21B
  0
DIMSTYLE
105
23B
100
AcDbSymbolTableRecord
100
AcDbDimStyleTableRecord
  2
DIMSTYLE_7
 70
0
  3

  4

 40
1.0
 41
3.5
 42
0.0
 43
0.38
 44
1.0
 45
0.0
 46
0.0
 47
0.1
 48
0.1
140
2.5
141
0.09
142
0.0
143
25.4
144
1.0
145
0.0
146
1.0
147
0.625
 71
0.0
 72
0.0
 73
0
 74
0
 75
0
 76
0
 77
1
 78
8
170
0
171
2
172
0
173
0
174
0
175
0
176
0
177
0
178
5
270
2
271
3
272
3
273
2
274
2
275
0
280
0
281
0
282
0
283
1
284
8
285
0
286
0
287
3
288
0
340
11
278
46
341
21B
342
21B
343
21B
344
21B
  0
DIMSTYLE
105
23C
100
AcDbSymbolTableRecord
100
AcDbDimStyleTableRecord
  2
DIMSTYLE_8
 70
0
  3

  4

 40
1.0
 41
3.5
 42
0.0
 43
0.38
 44
1.0
 45
0.0
 46
0.0
 47
0.2
 48
0.2
140
2.5
141
0.09
142
0.0
143
25.4
144
1.0
145
0.0
146
1.0
147
0.625
 71
0.0
 72
0.0
 73
0
 74
0
 75
0
 76
0
 77
1
 78
8
170
0
171
2
172
0
173
0
174
0
175
0
176
0
177
0
178
5
270
2
271
1
272
1
273
2
274
2
275
0
280
0
281
0
282
0
283
1
284
8
285
0
286
0
287
3
288
0
340
11
278
46
341
21B
342
21B
343
21B
344
21B
  0
ENDTAB
  0
ENDSEC
  0
SECTION
  2
BLOCKS
  0
BLOCK
  5
20
100
AcDbEntity
  8
0
100
AcDbBlockBegin
  2
*Model_Space
 70
0
 10
0.0
 20
0.0
 30
0.0
  3
*Model_Space
  1

  0
ENDBLK
  5
21
100
AcDbEntity
  8
0
100
AcDbBlockEnd
  0
BLOCK
  5
1C
100
AcDbEntity
  8
0
100
AcDbBlockBegin
  2
*Paper_Space
 70
0
 10
0.0
 20
0.0
 30
0.0
  3
*Paper_Space
  1

  0
ENDBLK
  5
1D
100
AcDbEntity
  8
0
100
AcDbBlockEnd
  0
BLOCK
  5
23D
100
AcDbEntity
  8
0
100
AcDbBlockBegin
 62
2
  6
CONTINUOUS
  2
SYMBOL_5_BL10
 70
64
 10
14.6760682863
 20
285.9565270313
  3
SYMBOL_5_BL10
  1

  0
TEXT
  5
23E
100
AcDbEntity
  8
0
100
AcDbText
 62
5
  6
CONTINUOUS
 10
6.0250051001
 20
279.9582916417
  7
STANDARD
 40
1.5763325545
  1
GRETSCH-UNITAS
 72
5
 11
23.3271314725
 21
279.9582916417
100
AcDbText
  0
SPLINE
  5
23F
100
AcDbEntity
  8
0
100
AcDbSpline
 62
2
  6
CONTINUOUS
 70
0
 71
3
 72
22
 73
18
 74
0
 42
0.0000001
 43
0.0000001
 44
0.0000000001
 40
0.0
 40
0.0
 40
0.0
 40
0.0
 40
0.012997001
 40
0.0685257445
 40
0.124054488
 40
0.235111975
 40
0.3461694621
 40
0.5682844361
 40
0.6793419231
 40
0.7903994101
 40
0.8459281536
 40
0.9014568971
 40
0.9292212689
 40
0.9569856406
 40
0.9847500124
 40
0.9887308104
 40
1.0
 40
1.0
 40
1.0
 40
1.0
 10
15.4801156353
 20
286.7085698414
 30
0.0
 10
15.4810241934
 20
286.7160556825
 30
0.0
 10
15.4857439912
 20
286.7555135418
 30
0.0
 10
15.4936523307
 20
286.8269871937
 30
0.0
 10
15.505912165
 20
286.9548379269
 30
0.0
 10
15.517682724
 20
287.1145416616
 30
0.0
 10
15.528837276
 20
287.3686580301
 30
0.0
 10
15.5285310708
 20
287.6264882096
 30
0.0
 10
15.5167815446
 20
287.8851209532
 30
0.0
 10
15.5046937915
 20
288.0471327101
 30
0.0
 10
15.4921853722
 20
288.1767706018
 30
0.0
 10
15.4831828527
 20
288.2578106668
 30
0.0
 10
15.4752803543
 20
288.3225694289
 30
0.0
 10
15.4689789575
 20
288.3712649965
 30
0.0
 10
15.4642806989
 20
288.4056567057
 30
0.0
 10
15.4606931447
 20
288.4311042458
 30
0.0
 10
15.4594161574
 20
288.4400384015
 30
0.0
 10
15.4585123173
 20
288.4463017026
 30
0.0
  0
LINE
  5
240
100
AcDbEntity
  8
0
100
AcDbLine
 62
2
  6
CONTINUOUS
 10
16.6257546957
 20
291.7417996716
 11
18.7756543471
 21
291.7417996716
  0
LINE
  5
241
100
AcDbEntity
  8
0
100
AcDbLine
 62
2
  6
CONTINUOUS
 10
18.7756543471
 20
291.7417996716
 11
18.7675001076
 21
286.1887625424
  0
LINE
  5
242
100
AcDbEntity
  8
0
100
AcDbLine
 62
2
  6
CONTINUOUS
 10
20.7328380589
 20
291.7408943502
 11
20.7246809285
 21
286.1858885617
  0
LINE
  5
243
100
AcDbEntity
  8
0
100
AcDbLine
 62
2
  6
CONTINUOUS
 10
20.7328380589
 20
291.7408943502
 11
22.8560234527
 21
291.7377766037
  0
LINE
  5
244
100
AcDbEntity
  8
0
100
AcDbLine
 62
2
  6
CONTINUOUS
 10
16.6257546957
 20
291.7417996716
 11
16.6257546957
 21
288.4463017026
  0
LINE
  5
245
100
AcDbEntity
  8
0
100
AcDbLine
 62
2
  6
CONTINUOUS
 10
22.8464682804
 20
286.2121871597
 11
22.8560234527
 21
291.7377766037
  0
LINE
  5
246
100
AcDbEntity
  8
0
100
AcDbLine
 62
2
  6
CONTINUOUS
 10
16.5962635235
 20
286.7097707
 11
16.5962635235
 21
286.206571522
  0
ARC
  5
247
100
AcDbEntity
  8
0
100
AcDbCircle
 62
2
  6
CONTINUOUS
 10
19.7460905181
 20
286.187325552
 40
0.9785914655
100
AcDbArc
 50
179.9158652888
 51
359.9158652888
  0
ARC
  5
248
100
AcDbEntity
  8
0
100
AcDbCircle
 62
2
  6
CONTINUOUS
 10
19.7213585238
 20
286.2175912822
 40
3.1251144292
100
AcDbArc
 50
180.2020364601
 51
359.9009208878
  0
LINE
  5
249
100
AcDbEntity
  8
0
100
AcDbLine
 62
2
  6
CONTINUOUS
 10
10.6219179927
 20
288.4396050427
 11
14.7006991753
 21
288.4396050427
  0
LINE
  5
24A
100
AcDbEntity
  8
0
100
AcDbLine
 62
2
  6
CONTINUOUS
 10
12.2217882659
 20
288.8789329709
 11
13.9483889974
 21
290.1646806597
  0
ARC
  5
24B
100
AcDbEntity
  8
0
100
AcDbCircle
 62
2
  6
CONTINUOUS
 10
10.4114667665
 20
287.5821675482
 40
4.3761240935
100
AcDbArc
 50
36.126840858
 51
11.344332349
  0
ARC
  5
24C
100
AcDbEntity
  8
0
100
AcDbCircle
 62
2
  6
CONTINUOUS
 10
10.3470540354
 20
287.5511016176
 40
2.3065617406
100
AcDbArc
 50
34.9390168225
 51
338.4896426737
  0
ARC
  5
24D
100
AcDbEntity
  8
0
100
AcDbCircle
 62
2
  6
CONTINUOUS
 10
10.6219179927
 20
287.5714742336
 40
0.8681308092
100
AcDbArc
 50
90.0
 51
270.0681567641
  0
LINE
  5
24E
100
AcDbEntity
  8
0
100
AcDbLine
 62
2
  6
CONTINUOUS
 10
15.4585123173
 20
288.4463017026
 11
16.6257546957
 21
288.4463017026
  0
LINE
  5
24F
100
AcDbEntity
  8
0
100
AcDbLine
 62
2
  6
CONTINUOUS
 10
10.6229506861
 20
286.7033440387
 11
12.4929667506
 21
286.7053559808
  0
LINE
  5
250
100
AcDbEntity
  8
0
100
AcDbLine
 62
2
  6
CONTINUOUS
 10
15.4801156353
 20
286.7085698414
 11
16.5962635235
 21
286.7097707
  0
LWPOLYLINE
  5
251
100
AcDbEntity
  8
0
100
AcDbPolyline
 62
2
  6
CONTINUOUS
 90
23
 70
0
 10
10.5871829024
 20
291.954762421
 10
11.2387137148
 20
291.8793904384
 10
11.8716622299
 20
291.7074907222
 10
12.4718106408
 20
291.4429246243
 10
13.0256779232
 20
291.0916350448
 10
13.5208226575
 20
290.6615129372
 10
13.9461224977
 20
290.162220056
 10
12.2217882659
 20
288.8789329709
 10
12.0237458929
 20
289.1350623109
 10
11.7733581523
 20
289.3638022628
 10
11.4921356799
 20
289.5533541218
 10
11.1861581185
 20
289.6996200375
 10
10.8620402817
 20
289.7994379423
 10
10.5267891511
 20
289.8506499105
 10
10.1876523947
 20
289.8521488096
 10
6.7057365377
 20
289.9098328062
 10
7.0952373539
 20
290.4375282198
 10
7.5592300262
 20
290.9010841876
 10
8.0872919719
 20
291.2900879365
 10
8.667561432
 20
291.5958013464
 10
9.2870039194
 20
291.8113572327
 10
9.9317050105
 20
291.9319136028
 10
10.5871829024
 20
291.954762421
  0
HATCH
  5
252
100
AcDbEntity
  8
0
100
AcDbHatch
 62
2
  6
CONTINUOUS
 10
0.0
 20
0.0
 30
0.0
210
0.0
220
0.0
230
1.0
  2
SOLID
 70
1
 71
1
 91
1
 92
1
 93
22
 72
1
 10
10.5871829024
 20
291.954762421
 11
11.2387137148
 21
291.8793904384
 72
1
 10
11.2387137148
 20
291.8793904384
 11
11.8716622299
 21
291.7074907222
 72
1
 10
11.8716622299
 20
291.7074907222
 11
12.4718106408
 21
291.4429246243
 72
1
 10
12.4718106408
 20
291.4429246243
 11
13.0256779232
 21
291.0916350448
 72
1
 10
13.0256779232
 20
291.0916350448
 11
13.5208226575
 21
290.6615129372
 72
1
 10
13.5208226575
 20
290.6615129372
 11
13.9461224977
 21
290.162220056
 72
1
 10
13.9461224977
 20
290.162220056
 11
12.2217882659
 21
288.8789329709
 72
1
 10
12.2217882659
 20
288.8789329709
 11
12.0237458929
 21
289.1350623109
 72
1
 10
12.0237458929
 20
289.1350623109
 11
11.7733581523
 21
289.3638022628
 72
1
 10
11.7733581523
 20
289.3638022628
 11
11.4921356799
 21
289.5533541218
 72
1
 10
11.4921356799
 20
289.5533541218
 11
11.1861581185
 21
289.6996200375
 72
1
 10
11.1861581185
 20
289.6996200375
 11
10.8620402817
 21
289.7994379423
 72
1
 10
10.8620402817
 20
289.7994379423
 11
10.5267891511
 21
289.8506499105
 72
1
 10
10.5267891511
 20
289.8506499105
 11
10.1876523947
 21
289.8521488096
 72
1
 10
10.1876523947
 20
289.8521488096
 11
6.7057365377
 21
289.9098328062
 72
1
 10
6.7057365377
 20
289.9098328062
 11
7.0952373539
 21
290.4375282198
 72
1
 10
7.0952373539
 20
290.4375282198
 11
7.5592300262
 21
290.9010841876
 72
1
 10
7.5592300262
 20
290.9010841876
 11
8.0872919719
 21
291.2900879365
 72
1
 10
8.0872919719
 20
291.2900879365
 11
8.667561432
 21
291.5958013464
 72
1
 10
8.667561432
 20
291.5958013464
 11
9.2870039194
 21
291.8113572327
 72
1
 10
9.2870039194
 20
291.8113572327
 11
9.9317050105
 21
291.9319136028
 72
1
 10
9.9317050105
 20
291.9319136028
 11
10.5871829024
 21
291.954762421
 97
1
330
251
 75
0
 76
1
 98
1
 10
0.0
 20
0.0
  0
LWPOLYLINE
  5
253
100
AcDbEntity
  8
0
100
AcDbPolyline
 62
2
  6
CONTINUOUS
 90
10
 70
0
 10
8.9368286897
 20
289.3763390097
 10
8.6844288245
 20
289.1498212526
 10
6.1833377863
 20
288.7106122342
 10
6.3994768635
 20
289.3298514727
 10
6.7057365377
 20
289.9098328062
 10
10.1876523947
 20
289.8521488096
 10
9.8519616824
 20
289.8039022357
 10
9.5269741853
 20
289.7069532133
 10
9.2197156858
 20
289.5633976467
 10
8.9368286897
 20
289.3763390097
  0
HATCH
  5
254
100
AcDbEntity
  8
0
100
AcDbHatch
 62
2
  6
CONTINUOUS
 10
0.0
 20
0.0
 30
0.0
210
0.0
220
0.0
230
1.0
  2
SOLID
 70
1
 71
1
 91
1
 92
1
 93
9
 72
1
 10
8.9368286897
 20
289.3763390097
 11
8.6844288245
 21
289.1498212526
 72
1
 10
8.6844288245
 20
289.1498212526
 11
6.1833377863
 21
288.7106122342
 72
1
 10
6.1833377863
 20
288.7106122342
 11
6.3994768635
 21
289.3298514727
 72
1
 10
6.3994768635
 20
289.3298514727
 11
6.7057365377
 21
289.9098328062
 72
1
 10
6.7057365377
 20
289.9098328062
 11
10.1876523947
 21
289.8521488096
 72
1
 10
10.1876523947
 20
289.8521488096
 11
9.8519616824
 21
289.8039022357
 72
1
 10
9.8519616824
 20
289.8039022357
 11
9.5269741853
 21
289.7069532133
 72
1
 10
9.5269741853
 20
289.7069532133
 11
9.2197156858
 21
289.5633976467
 72
1
 10
9.2197156858
 20
289.5633976467
 11
8.9368286897
 21
289.3763390097
 97
1
330
253
 75
0
 76
1
 98
1
 10
0.0
 20
0.0
  0
LWPOLYLINE
  5
255
100
AcDbEntity
  8
0
100
AcDbPolyline
 62
2
  6
CONTINUOUS
 90
6
 70
0
 10
8.4679726279
 20
288.8887413775
 10
8.2921395849
 20
288.5987435719
 10
6.062174399
 20
288.0660249485
 10
6.1833377863
 20
288.7106122342
 10
8.6844288245
 20
289.1498212526
 10
8.4679726279
 20
288.8887413775
  0
HATCH
  5
256
100
AcDbEntity
  8
0
100
AcDbHatch
 62
2
  6
CONTINUOUS
 10
0.0
 20
0.0
 30
0.0
210
0.0
220
0.0
230
1.0
  2
SOLID
 70
1
 71
1
 91
1
 92
1
 93
5
 72
1
 10
8.4679726279
 20
288.8887413775
 11
8.2921395849
 21
288.5987435719
 72
1
 10
8.2921395849
 20
288.5987435719
 11
6.062174399
 21
288.0660249485
 72
1
 10
6.062174399
 20
288.0660249485
 11
6.1833377863
 21
288.7106122342
 72
1
 10
6.1833377863
 20
288.7106122342
 11
8.6844288245
 21
289.1498212526
 72
1
 10
8.6844288245
 20
289.1498212526
 11
8.4679726279
 21
288.8887413775
 97
1
330
255
 75
0
 76
1
 98
1
 10
0.0
 20
0.0
  0
LWPOLYLINE
  5
257
100
AcDbEntity
  8
0
100
AcDbPolyline
 62
2
  6
CONTINUOUS
 90
50
 70
0
 10
10.5085615232
 20
288.4321724459
 10
10.6219179927
 20
288.4396084532
 10
14.7006991753
 20
288.4396084532
 10
14.7825548759
 20
287.7920504222
 10
14.7648293565
 20
287.1364139823
 10
14.6493150475
 20
286.4907904235
 10
14.438606726
 20
285.8696822699
 10
14.1374374943
 20
285.2870413606
 10
13.7525724621
 20
284.7559554521
 10
13.2926567823
 20
284.2883542302
 10
12.768021457
 20
283.8947413358
 10
12.1904512736
 20
283.5839584235
 10
11.5729200859
 20
283.3629865532
 10
8.987451348
 20
283.4442161022
 10
8.3850092311
 20
283.7035167597
 10
7.82808706
 20
284.0499428422
 10
7.3291948758
 20
284.4757126437
 10
6.8995392027
 20
284.9712621748
 10
10.3886755226
 20
285.2449154336
 10
10.7263929127
 20
285.2759468801
 10
11.0559095183
 20
285.3561640404
 10
11.3701016442
 20
285.48383273
 10
11.6621768888
 20
285.6561929275
 10
11.9258209876
 20
285.8695184427
 10
12.1553343179
 20
286.1191974716
 10
12.3457551174
 20
286.3998322972
 10
12.4929667506
 20
286.7053559808
 10
10.5095854553
 20
286.710641786
 10
10.398143719
 20
286.7326797556
 10
10.2905337187
 20
286.7690805866
 10
10.1885980837
 20
286.8192209795
 10
10.0940822803
 20
286.8822423694
 10
10.0086047233
 20
286.9570656274
 10
9.9336290636
 20
287.0424095382
 10
9.8704391257
 20
287.1368127396
 10
9.8201169249
 20
287.2386587449
 10
9.7835241392
 20
287.3462036225
 10
9.7612873548
 20
287.4576058581
 10
9.7537873371
 20
287.5709578868
 10
9.7611525105
 20
287.684318757
 10
9.7832567595
 20
287.7957473658
 10
9.8197215883
 20
287.9033356966
 10
9.8699226017
 20
288.0052414911
 10
9.9330001965
 20
288.0997197939
 10
10.0078742816
 20
288.1851528324
 10
10.0932627714
 20
288.260077718
 10
10.1877035402
 20
288.3232114955
 10
10.289579458
 20
288.3734731115
 10
10.3971460813
 20
288.4100019252
 10
10.5085615232
 20
288.4321724459
  0
HATCH
  5
258
100
AcDbEntity
  8
0
100
AcDbHatch
 62
2
  6
CONTINUOUS
 10
0.0
 20
0.0
 30
0.0
210
0.0
220
0.0
230
1.0
  2
SOLID
 70
1
 71
1
 91
1
 92
1
 93
49
 72
1
 10
10.5085615232
 20
288.4321724459
 11
10.6219179927
 21
288.4396084532
 72
1
 10
10.6219179927
 20
288.4396084532
 11
14.7006991753
 21
288.4396084532
 72
1
 10
14.7006991753
 20
288.4396084532
 11
14.7825548759
 21
287.7920504222
 72
1
 10
14.7825548759
 20
287.7920504222
 11
14.7648293565
 21
287.1364139823
 72
1
 10
14.7648293565
 20
287.1364139823
 11
14.6493150475
 21
286.4907904235
 72
1
 10
14.6493150475
 20
286.4907904235
 11
14.438606726
 21
285.8696822699
 72
1
 10
14.438606726
 20
285.8696822699
 11
14.1374374943
 21
285.2870413606
 72
1
 10
14.1374374943
 20
285.2870413606
 11
13.7525724621
 21
284.7559554521
 72
1
 10
13.7525724621
 20
284.7559554521
 11
13.2926567823
 21
284.2883542302
 72
1
 10
13.2926567823
 20
284.2883542302
 11
12.768021457
 21
283.8947413358
 72
1
 10
12.768021457
 20
283.8947413358
 11
12.1904512736
 21
283.5839584235
 72
1
 10
12.1904512736
 20
283.5839584235
 11
11.5729200859
 21
283.3629865532
 72
1
 10
11.5729200859
 20
283.3629865532
 11
8.987451348
 21
283.4442161022
 72
1
 10
8.987451348
 20
283.4442161022
 11
8.3850092311
 21
283.7035167597
 72
1
 10
8.3850092311
 20
283.7035167597
 11
7.82808706
 21
284.0499428422
 72
1
 10
7.82808706
 20
284.0499428422
 11
7.3291948758
 21
284.4757126437
 72
1
 10
7.3291948758
 20
284.4757126437
 11
6.8995392027
 21
284.9712621748
 72
1
 10
6.8995392027
 20
284.9712621748
 11
10.3886755226
 21
285.2449154336
 72
1
 10
10.3886755226
 20
285.2449154336
 11
10.7263929127
 21
285.2759468801
 72
1
 10
10.7263929127
 20
285.2759468801
 11
11.0559095183
 21
285.3561640404
 72
1
 10
11.0559095183
 20
285.3561640404
 11
11.3701016442
 21
285.48383273
 72
1
 10
11.3701016442
 20
285.48383273
 11
11.6621768888
 21
285.6561929275
 72
1
 10
11.6621768888
 20
285.6561929275
 11
11.9258209876
 21
285.8695184427
 72
1
 10
11.9258209876
 20
285.8695184427
 11
12.1553343179
 21
286.1191974716
 72
1
 10
12.1553343179
 20
286.1191974716
 11
12.3457551174
 21
286.3998322972
 72
1
 10
12.3457551174
 20
286.3998322972
 11
12.4929667506
 21
286.7053559808
 72
1
 10
12.4929667506
 20
286.7053559808
 11
10.5095854553
 21
286.710641786
 72
1
 10
10.5095854553
 20
286.710641786
 11
10.398143719
 21
286.7326797556
 72
1
 10
10.398143719
 20
286.7326797556
 11
10.2905337187
 21
286.7690805866
 72
1
 10
10.2905337187
 20
286.7690805866
 11
10.1885980837
 21
286.8192209795
 72
1
 10
10.1885980837
 20
286.8192209795
 11
10.0940822803
 21
286.8822423694
 72
1
 10
10.0940822803
 20
286.8822423694
 11
10.0086047233
 21
286.9570656274
 72
1
 10
10.0086047233
 20
286.9570656274
 11
9.9336290636
 21
287.0424095382
 72
1
 10
9.9336290636
 20
287.0424095382
 11
9.8704391257
 21
287.1368127396
 72
1
 10
9.8704391257
 20
287.1368127396
 11
9.8201169249
 21
287.2386587449
 72
1
 10
9.8201169249
 20
287.2386587449
 11
9.7835241392
 21
287.3462036225
 72
1
 10
9.7835241392
 20
287.3462036225
 11
9.7612873548
 21
287.4576058581
 72
1
 10
9.7612873548
 20
287.4576058581
 11
9.7537873371
 21
287.5709578868
 72
1
 10
9.7537873371
 20
287.5709578868
 11
9.7611525105
 21
287.684318757
 72
1
 10
9.7611525105
 20
287.684318757
 11
9.7832567595
 21
287.7957473658
 72
1
 10
9.7832567595
 20
287.7957473658
 11
9.8197215883
 21
287.9033356966
 72
1
 10
9.8197215883
 20
287.9033356966
 11
9.8699226017
 21
288.0052414911
 72
1
 10
9.8699226017
 20
288.0052414911
 11
9.9330001965
 21
288.0997197939
 72
1
 10
9.9330001965
 20
288.0997197939
 11
10.0078742816
 21
288.1851528324
 72
1
 10
10.0078742816
 20
288.1851528324
 11
10.0932627714
 21
288.260077718
 72
1
 10
10.0932627714
 20
288.260077718
 11
10.1877035402
 21
288.3232114955
 72
1
 10
10.1877035402
 20
288.3232114955
 11
10.289579458
 21
288.3734731115
 72
1
 10
10.289579458
 20
288.3734731115
 11
10.3971460813
 21
288.4100019252
 72
1
 10
10.3971460813
 20
288.4100019252
 11
10.5085615232
 21
288.4321724459
 97
1
330
257
 75
0
 76
1
 98
1
 10
0.0
 20
0.0
  0
LWPOLYLINE
  5
259
100
AcDbEntity
  8
0
100
AcDbPolyline
 62
2
  6
CONTINUOUS
 90
6
 70
0
 10
8.1607309639
 20
288.2860971893
 10
8.0765876384
 20
287.9575612141
 10
6.0387083724
 20
287.4105688624
 10
6.062174399
 20
288.0660249485
 10
8.2921395849
 20
288.5987435719
 10
8.1607309639
 20
288.2860971893
  0
HATCH
  5
25A
100
AcDbEntity
  8
0
100
AcDbHatch
 62
2
  6
CONTINUOUS
 10
0.0
 20
0.0
 30
0.0
210
0.0
220
0.0
230
1.0
  2
SOLID
 70
1
 71
1
 91
1
 92
1
 93
5
 72
1
 10
8.1607309639
 20
288.2860971893
 11
8.0765876384
 21
287.9575612141
 72
1
 10
8.0765876384
 20
287.9575612141
 11
6.0387083724
 21
287.4105688624
 72
1
 10
6.0387083724
 20
287.4105688624
 11
6.062174399
 21
288.0660249485
 72
1
 10
6.062174399
 20
288.0660249485
 11
8.2921395849
 21
288.5987435719
 72
1
 10
8.2921395849
 20
288.5987435719
 11
8.1607309639
 21
288.2860971893
 97
1
330
259
 75
0
 76
1
 98
1
 10
0.0
 20
0.0
  0
LWPOLYLINE
  5
25B
100
AcDbEntity
  8
0
100
AcDbPolyline
 62
2
  6
CONTINUOUS
 90
6
 70
0
 10
8.0415286713
 20
287.6202381419
 10
8.0563119892
 20
287.2814204332
 10
6.1134668197
 20
286.7589673662
 10
6.0387083724
 20
287.4105688624
 10
8.0765876384
 20
287.9575612141
 10
8.0415286713
 20
287.6202381419
  0
HATCH
  5
25C
100
AcDbEntity
  8
0
100
AcDbHatch
 62
2
  6
CONTINUOUS
 10
0.0
 20
0.0
 30
0.0
210
0.0
220
0.0
230
1.0
  2
SOLID
 70
1
 71
1
 91
1
 92
1
 93
5
 72
1
 10
8.0415286713
 20
287.6202381419
 11
8.0563119892
 21
287.2814204332
 72
1
 10
8.0563119892
 20
287.2814204332
 11
6.1134668197
 21
286.7589673662
 72
1
 10
6.1134668197
 20
286.7589673662
 11
6.0387083724
 21
287.4105688624
 72
1
 10
6.0387083724
 20
287.4105688624
 11
8.0765876384
 21
287.9575612141
 72
1
 10
8.0765876384
 20
287.9575612141
 11
8.0415286713
 21
287.6202381419
 97
1
330
25B
 75
0
 76
1
 98
1
 10
0.0
 20
0.0
  0
LWPOLYLINE
  5
25D
100
AcDbEntity
  8
0
100
AcDbPolyline
 62
2
  6
CONTINUOUS
 90
6
 70
0
 10
8.1206179971
 20
286.9484328604
 10
8.2330564876
 20
286.6284741567
 10
6.2847704556
 20
286.1258572655
 10
6.1134668197
 20
286.7589673662
 10
8.0563119892
 20
287.2814204332
 10
8.1206179971
 20
286.9484328604
  0
HATCH
  5
25E
100
AcDbEntity
  8
0
100
AcDbHatch
 62
2
  6
CONTINUOUS
 10
0.0
 20
0.0
 30
0.0
210
0.0
220
0.0
230
1.0
  2
SOLID
 70
1
 71
1
 91
1
 92
1
 93
5
 72
1
 10
8.1206179971
 20
286.9484328604
 11
8.2330564876
 21
286.6284741567
 72
1
 10
8.2330564876
 20
286.6284741567
 11
6.2847704556
 21
286.1258572655
 72
1
 10
6.2847704556
 20
286.1258572655
 11
6.1134668197
 21
286.7589673662
 72
1
 10
6.1134668197
 20
286.7589673662
 11
8.0563119892
 21
287.2814204332
 72
1
 10
8.0563119892
 20
287.2814204332
 11
8.1206179971
 21
286.9484328604
 97
1
330
25D
 75
0
 76
1
 98
1
 10
0.0
 20
0.0
  0
SOLID
  5
25F
100
AcDbEntity
  8
0
100
AcDbTrace
 62
2
  6
CONTINUOUS
 10
10.6229506861
 20
286.7033440387
 11
10.5095854553
 21
286.710641786
 12
12.4929667506
 22
286.7053559808
 13
12.4929667506
 23
286.7053559808
  0
LWPOLYLINE
  5
260
100
AcDbEntity
  8
0
100
AcDbPolyline
 62
2
  6
CONTINUOUS
 90
6
 70
0
 10
8.3911966954
 20
286.3284613888
 10
8.5916198468
 20
286.0548804198
 10
6.5487713176
 20
285.5254599969
 10
6.2847704556
 20
286.1258572655
 10
8.2330564876
 20
286.6284741567
 10
8.3911966954
 20
286.3284613888
  0
HATCH
  5
261
100
AcDbEntity
  8
0
100
AcDbHatch
 62
2
  6
CONTINUOUS
 10
0.0
 20
0.0
 30
0.0
210
0.0
220
0.0
230
1.0
  2
SOLID
 70
1
 71
1
 91
1
 92
1
 93
5
 72
1
 10
8.3911966954
 20
286.3284613888
 11
8.5916198468
 21
286.0548804198
 72
1
 10
8.5916198468
 20
286.0548804198
 11
6.5487713176
 21
285.5254599969
 72
1
 10
6.5487713176
 20
285.5254599969
 11
6.2847704556
 21
286.1258572655
 72
1
 10
6.2847704556
 20
286.1258572655
 11
8.2330564876
 21
286.6284741567
 72
1
 10
8.2330564876
 20
286.6284741567
 11
8.3911966954
 21
286.3284613888
 97
1
330
260
 75
0
 76
1
 98
1
 10
0.0
 20
0.0
  0
LWPOLYLINE
  5
262
100
AcDbEntity
  8
0
100
AcDbPolyline
 62
2
  6
CONTINUOUS
 90
7
 70
0
 10
9.1011630614
 20
285.609972373
 10
9.3992675016
 20
285.4482635949
 10
6.8995392027
 20
284.9712621748
 10
6.5487713176
 20
285.5254599969
 10
8.5916198468
 20
286.0548804198
 10
8.8299930691
 20
285.8136456936
 10
9.1011630614
 20
285.609972373
  0
HATCH
  5
263
100
AcDbEntity
  8
0
100
AcDbHatch
 62
2
  6
CONTINUOUS
 10
0.0
 20
0.0
 30
0.0
210
0.0
220
0.0
230
1.0
  2
SOLID
 70
1
 71
1
 91
1
 92
1
 93
6
 72
1
 10
9.1011630614
 20
285.609972373
 11
9.3992675016
 21
285.4482635949
 72
1
 10
9.3992675016
 20
285.4482635949
 11
6.8995392027
 21
284.9712621748
 72
1
 10
6.8995392027
 20
284.9712621748
 11
6.5487713176
 21
285.5254599969
 72
1
 10
6.5487713176
 20
285.5254599969
 11
8.5916198468
 21
286.0548804198
 72
1
 10
8.5916198468
 20
286.0548804198
 11
8.8299930691
 21
285.8136456936
 72
1
 10
8.8299930691
 20
285.8136456936
 11
9.1011630614
 21
285.609972373
 97
1
330
262
 75
0
 76
1
 98
1
 10
0.0
 20
0.0
  0
LWPOLYLINE
  5
264
100
AcDbEntity
  8
0
100
AcDbPolyline
 62
2
  6
CONTINUOUS
 90
6
 70
0
 10
10.3886755226
 20
285.2449154336
 10
6.8995392027
 20
284.9712621748
 10
9.3992675016
 20
285.4482635949
 10
9.7178617822
 20
285.3320152804
 10
10.0500583332
 20
285.2637405581
 10
10.3886755226
 20
285.2449154336
  0
HATCH
  5
265
100
AcDbEntity
  8
0
100
AcDbHatch
 62
2
  6
CONTINUOUS
 10
0.0
 20
0.0
 30
0.0
210
0.0
220
0.0
230
1.0
  2
SOLID
 70
1
 71
1
 91
1
 92
1
 93
5
 72
1
 10
10.3886755226
 20
285.2449154336
 11
6.8995392027
 21
284.9712621748
 72
1
 10
6.8995392027
 20
284.9712621748
 11
9.3992675016
 21
285.4482635949
 72
1
 10
9.3992675016
 20
285.4482635949
 11
9.7178617822
 21
285.3320152804
 72
1
 10
9.7178617822
 20
285.3320152804
 11
10.0500583332
 21
285.2637405581
 72
1
 10
10.0500583332
 20
285.2637405581
 11
10.3886755226
 21
285.2449154336
 97
1
330
264
 75
0
 76
1
 98
1
 10
0.0
 20
0.0
  0
LWPOLYLINE
  5
266
100
AcDbEntity
  8
0
100
AcDbPolyline
 62
2
  6
CONTINUOUS
 90
6
 70
0
 10
9.6218808634
 20
283.2778654929
 10
8.987451348
 20
283.4442161022
 10
11.5729200859
 20
283.3629865532
 10
10.9292993842
 20
283.2367893757
 10
10.2740467029
 20
283.2082016352
 10
9.6218808634
 20
283.2778654929
  0
HATCH
  5
267
100
AcDbEntity
  8
0
100
AcDbHatch
 62
2
  6
CONTINUOUS
 10
0.0
 20
0.0
 30
0.0
210
0.0
220
0.0
230
1.0
  2
SOLID
 70
1
 71
1
 91
1
 92
1
 93
5
 72
1
 10
9.6218808634
 20
283.2778654929
 11
8.987451348
 21
283.4442161022
 72
1
 10
8.987451348
 20
283.4442161022
 11
11.5729200859
 21
283.3629865532
 72
1
 10
11.5729200859
 20
283.3629865532
 11
10.9292993842
 21
283.2367893757
 72
1
 10
10.9292993842
 20
283.2367893757
 11
10.2740467029
 21
283.2082016352
 72
1
 10
10.2740467029
 20
283.2082016352
 11
9.6218808634
 21
283.2778654929
 97
1
330
266
 75
0
 76
1
 98
1
 10
0.0
 20
0.0
  0
LWPOLYLINE
  5
268
100
AcDbEntity
  8
0
100
AcDbPolyline
 62
2
  6
CONTINUOUS
 90
8
 70
0
 10
16.6257546957
 20
288.4462983908
 10
16.6257546957
 20
291.7418023453
 10
18.7756543471
 20
291.7418023453
 10
18.7675001076
 20
286.1887625424
 10
16.6243458713
 20
285.7994372127
 10
16.5962635235
 20
286.206571522
 10
16.5962635235
 20
286.7097707
 10
16.6257546957
 20
288.4462983908
  0
HATCH
  5
269
100
AcDbEntity
  8
0
100
AcDbHatch
 62
2
  6
CONTINUOUS
 10
0.0
 20
0.0
 30
0.0
210
0.0
220
0.0
230
1.0
  2
SOLID
 70
1
 71
1
 91
1
 92
1
 93
7
 72
1
 10
16.6257546957
 20
288.4462983908
 11
16.6257546957
 21
291.7418023453
 72
1
 10
16.6257546957
 20
291.7418023453
 11
18.7756543471
 21
291.7418023453
 72
1
 10
18.7756543471
 20
291.7418023453
 11
18.7675001076
 21
286.1887625424
 72
1
 10
18.7675001076
 20
286.1887625424
 11
16.6243458713
 21
285.7994372127
 72
1
 10
16.6243458713
 20
285.7994372127
 11
16.5962635235
 21
286.206571522
 72
1
 10
16.5962635235
 20
286.206571522
 11
16.5962635235
 21
286.7097707
 72
1
 10
16.5962635235
 20
286.7097707
 11
16.6257546957
 21
288.4462983908
 97
1
330
268
 75
0
 76
1
 98
1
 10
0.0
 20
0.0
  0
LWPOLYLINE
  5
26A
100
AcDbEntity
  8
0
100
AcDbPolyline
 62
2
  6
CONTINUOUS
 90
19
 70
0
 10
15.4613006768
 20
288.4267864074
 10
15.4585123173
 20
288.4462983908
 10
16.6257546957
 20
288.4462983908
 10
16.5962635235
 20
286.7097707
 10
15.4828019239
 20
286.7310241374
 10
15.4934148613
 20
286.8269721689
 10
15.5026102575
 20
286.9228679315
 10
15.5167229312
 20
287.1143654607
 10
15.5250935749
 20
287.3054384223
 10
15.5277298368
 20
287.4977613022
 10
15.5246400792
 20
287.6912132758
 10
15.5158326847
 20
287.8851942116
 10
15.5013301686
 20
288.0795445568
 10
15.4919484207
 20
288.1767738783
 10
15.4811488546
 20
288.2739942498
 10
15.4752179338
 20
288.3225905116
 10
15.4689331963
 20
288.3711718509
 10
15.4622948389
 20
288.4197340355
 10
15.4613006768
 20
288.4267864074
  0
HATCH
  5
26B
100
AcDbEntity
  8
0
100
AcDbHatch
 62
2
  6
CONTINUOUS
 10
0.0
 20
0.0
 30
0.0
210
0.0
220
0.0
230
1.0
  2
SOLID
 70
1
 71
1
 91
1
 92
1
 93
18
 72
1
 10
15.4613006768
 20
288.4267864074
 11
15.4585123173
 21
288.4462983908
 72
1
 10
15.4585123173
 20
288.4462983908
 11
16.6257546957
 21
288.4462983908
 72
1
 10
16.6257546957
 20
288.4462983908
 11
16.5962635235
 21
286.7097707
 72
1
 10
16.5962635235
 20
286.7097707
 11
15.4828019239
 21
286.7310241374
 72
1
 10
15.4828019239
 20
286.7310241374
 11
15.4934148613
 21
286.8269721689
 72
1
 10
15.4934148613
 20
286.8269721689
 11
15.5026102575
 21
286.9228679315
 72
1
 10
15.5026102575
 20
286.9228679315
 11
15.5167229312
 21
287.1143654607
 72
1
 10
15.5167229312
 20
287.1143654607
 11
15.5250935749
 21
287.3054384223
 72
1
 10
15.5250935749
 20
287.3054384223
 11
15.5277298368
 21
287.4977613022
 72
1
 10
15.5277298368
 20
287.4977613022
 11
15.5246400792
 21
287.6912132758
 72
1
 10
15.5246400792
 20
287.6912132758
 11
15.5158326847
 21
287.8851942116
 72
1
 10
15.5158326847
 20
287.8851942116
 11
15.5013301686
 21
288.0795445568
 72
1
 10
15.5013301686
 20
288.0795445568
 11
15.4919484207
 21
288.1767738783
 72
1
 10
15.4919484207
 20
288.1767738783
 11
15.4811488546
 21
288.2739942498
 72
1
 10
15.4811488546
 20
288.2739942498
 11
15.4752179338
 21
288.3225905116
 72
1
 10
15.4752179338
 20
288.3225905116
 11
15.4689331963
 21
288.3711718509
 72
1
 10
15.4689331963
 20
288.3711718509
 11
15.4622948389
 21
288.4197340355
 72
1
 10
15.4622948389
 20
288.4197340355
 11
15.4613006768
 21
288.4267864074
 97
1
330
26A
 75
0
 76
1
 98
1
 10
0.0
 20
0.0
  0
SOLID
  5
26C
100
AcDbEntity
  8
0
100
AcDbTrace
 62
2
  6
CONTINUOUS
 10
15.4801156353
 20
286.7085698414
 11
15.4828019239
 21
286.7310241374
 12
16.5962635235
 22
286.7097707
 13
16.5962635235
 23
286.7097707
  0
LWPOLYLINE
  5
26D
100
AcDbEntity
  8
0
100
AcDbPolyline
 62
2
  6
CONTINUOUS
 90
19
 70
0
 10
22.8464682804
 20
286.2121871597
 10
22.8191175755
 20
285.8050030454
 10
22.7389402891
 20
285.4048548643
 10
22.6073036975
 20
285.0185664075
 10
19.8723975014
 20
285.2169195533
 10
19.9979803276
 20
285.2417078807
 10
20.1192532493
 20
285.2826759887
 10
20.2341412532
 20
285.3391229015
 10
20.3406785737
 20
285.4100827968
 10
20.4370423277
 20
285.4943415312
 10
20.5215837047
 20
285.5904574143
 10
20.5928561783
 20
285.6967858767
 10
20.6496402566
 20
285.8115076089
 10
20.6909643484
 20
285.9326596904
 10
20.716121387
 20
286.0581691753
 10
20.7246809285
 20
286.1858885617
 10
20.7328380589
 20
291.7408943502
 10
22.8560234527
 20
291.7377766037
 10
22.8464682804
 20
286.2121871597
  0
HATCH
  5
26E
100
AcDbEntity
  8
0
100
AcDbHatch
 62
2
  6
CONTINUOUS
 10
0.0
 20
0.0
 30
0.0
210
0.0
220
0.0
230
1.0
  2
SOLID
 70
1
 71
1
 91
1
 92
1
 93
18
 72
1
 10
22.8464682804
 20
286.2121871597
 11
22.8191175755
 21
285.8050030454
 72
1
 10
22.8191175755
 20
285.8050030454
 11
22.7389402891
 21
285.4048548643
 72
1
 10
22.7389402891
 20
285.4048548643
 11
22.6073036975
 21
285.0185664075
 72
1
 10
22.6073036975
 20
285.0185664075
 11
19.8723975014
 21
285.2169195533
 72
1
 10
19.8723975014
 20
285.2169195533
 11
19.9979803276
 21
285.2417078807
 72
1
 10
19.9979803276
 20
285.2417078807
 11
20.1192532493
 21
285.2826759887
 72
1
 10
20.1192532493
 20
285.2826759887
 11
20.2341412532
 21
285.3391229015
 72
1
 10
20.2341412532
 20
285.3391229015
 11
20.3406785737
 21
285.4100827968
 72
1
 10
20.3406785737
 20
285.4100827968
 11
20.4370423277
 21
285.4943415312
 72
1
 10
20.4370423277
 20
285.4943415312
 11
20.5215837047
 21
285.5904574143
 72
1
 10
20.5215837047
 20
285.5904574143
 11
20.5928561783
 21
285.6967858767
 72
1
 10
20.5928561783
 20
285.6967858767
 11
20.6496402566
 21
285.8115076089
 72
1
 10
20.6496402566
 20
285.8115076089
 11
20.6909643484
 21
285.9326596904
 72
1
 10
20.6909643484
 20
285.9326596904
 11
20.716121387
 21
286.0581691753
 72
1
 10
20.716121387
 20
286.0581691753
 11
20.7246809285
 21
286.1858885617
 72
1
 10
20.7246809285
 20
286.1858885617
 11
20.7328380589
 21
291.7408943502
 72
1
 10
20.7328380589
 20
291.7408943502
 11
22.8560234527
 21
291.7377766037
 72
1
 10
22.8560234527
 20
291.7377766037
 11
22.8464682804
 21
286.2121871597
 97
1
330
26D
 75
0
 76
1
 98
1
 10
0.0
 20
0.0
  0
LWPOLYLINE
  5
26F
100
AcDbEntity
  8
0
100
AcDbPolyline
 62
2
  6
CONTINUOUS
 90
8
 70
0
 10
18.8414409547
 20
285.8141628208
 10
18.8978878675
 20
285.6992748169
 10
16.7052420719
 20
285.3994337518
 10
16.6243458713
 20
285.7994372127
 10
18.7675001076
 20
286.1887625424
 10
18.7756845193
 20
286.0610185687
 10
18.8004728468
 20
285.9354357425
 10
18.8414409547
 20
285.8141628208
  0
HATCH
  5
270
100
AcDbEntity
  8
0
100
AcDbHatch
 62
2
  6
CONTINUOUS
 10
0.0
 20
0.0
 30
0.0
210
0.0
220
0.0
230
1.0
  2
SOLID
 70
1
 71
1
 91
1
 92
1
 93
7
 72
1
 10
18.8414409547
 20
285.8141628208
 11
18.8978878675
 21
285.6992748169
 72
1
 10
18.8978878675
 20
285.6992748169
 11
16.7052420719
 21
285.3994337518
 72
1
 10
16.7052420719
 20
285.3994337518
 11
16.6243458713
 21
285.7994372127
 72
1
 10
16.6243458713
 20
285.7994372127
 11
18.7675001076
 21
286.1887625424
 72
1
 10
18.7675001076
 20
286.1887625424
 11
18.7756845193
 21
286.0610185687
 72
1
 10
18.7756845193
 20
286.0610185687
 11
18.8004728468
 21
285.9354357425
 72
1
 10
18.8004728468
 20
285.9354357425
 11
18.8414409547
 21
285.8141628208
 97
1
330
26F
 75
0
 76
1
 98
1
 10
0.0
 20
0.0
  0
LWPOLYLINE
  5
271
100
AcDbEntity
  8
0
100
AcDbPolyline
 62
2
  6
CONTINUOUS
 90
8
 70
0
 10
19.1492223803
 20
285.4118323654
 10
19.2555508427
 20
285.3405598918
 10
16.8375725897
 20
285.0133824622
 10
16.7052420719
 20
285.3994337518
 10
18.8978878675
 20
285.6992748169
 10
18.9688477629
 20
285.5927374964
 10
19.0531064972
 20
285.4963737424
 10
19.1492223803
 20
285.4118323654
  0
HATCH
  5
272
100
AcDbEntity
  8
0
100
AcDbHatch
 62
2
  6
CONTINUOUS
 10
0.0
 20
0.0
 30
0.0
210
0.0
220
0.0
230
1.0
  2
SOLID
 70
1
 71
1
 91
1
 92
1
 93
7
 72
1
 10
19.1492223803
 20
285.4118323654
 11
19.2555508427
 21
285.3405598918
 72
1
 10
19.2555508427
 20
285.3405598918
 11
16.8375725897
 21
285.0133824622
 72
1
 10
16.8375725897
 20
285.0133824622
 11
16.7052420719
 21
285.3994337518
 72
1
 10
16.7052420719
 20
285.3994337518
 11
18.8978878675
 21
285.6992748169
 72
1
 10
18.8978878675
 20
285.6992748169
 11
18.9688477629
 21
285.5927374964
 72
1
 10
18.9688477629
 20
285.5927374964
 11
19.0531064972
 21
285.4963737424
 72
1
 10
19.0531064972
 20
285.4963737424
 11
19.1492223803
 21
285.4118323654
 97
1
330
271
 75
0
 76
1
 98
1
 10
0.0
 20
0.0
  0
LWPOLYLINE
  5
273
100
AcDbEntity
  8
0
100
AcDbPolyline
 62
2
  6
CONTINUOUS
 90
26
 70
0
 10
19.7446535277
 20
285.2087351416
 10
19.8723975014
 20
285.2169195533
 10
22.6073036975
 20
285.0185664075
 10
22.4264526204
 20
284.6527251141
 10
22.1994711403
 20
284.3135697341
 10
21.9302300087
 20
284.0068839387
 10
21.6233206378
 20
283.7378976897
 10
21.2839768022
 20
283.5111980529
 10
20.9179853868
 20
283.3306509734
 10
20.5315877017
 20
283.1993353496
 10
20.1313730487
 20
283.1194905277
 10
19.7241663523
 20
283.0924781144
 10
19.3169117736
 20
283.1187587566
 10
18.91655429
 20
283.1978842863
 10
18.529921262
 20
283.3285053633
 10
18.1636060046
 20
283.5083944853
 10
17.8238553504
 20
283.7344839743
 10
17.5164631218
 20
284.0029182901
 10
17.2466713278
 20
284.3091197792
 10
17.019080771
 20
284.6478667387
 10
16.8375725897
 20
285.0133824622
 10
19.2555508427
 20
285.3405598918
 10
19.370272575
 20
285.2837758135
 10
19.4914246564
 20
285.2424517217
 10
19.6169341414
 20
285.2172946831
 10
19.7446535277
 20
285.2087351416
  0
HATCH
  5
274
100
AcDbEntity
  8
0
100
AcDbHatch
 62
2
  6
CONTINUOUS
 10
0.0
 20
0.0
 30
0.0
210
0.0
220
0.0
230
1.0
  2
SOLID
 70
1
 71
1
 91
1
 92
1
 93
25
 72
1
 10
19.7446535277
 20
285.2087351416
 11
19.8723975014
 21
285.2169195533
 72
1
 10
19.8723975014
 20
285.2169195533
 11
22.6073036975
 21
285.0185664075
 72
1
 10
22.6073036975
 20
285.0185664075
 11
22.4264526204
 21
284.6527251141
 72
1
 10
22.4264526204
 20
284.6527251141
 11
22.1994711403
 21
284.3135697341
 72
1
 10
22.1994711403
 20
284.3135697341
 11
21.9302300087
 21
284.0068839387
 72
1
 10
21.9302300087
 20
284.0068839387
 11
21.6233206378
 21
283.7378976897
 72
1
 10
21.6233206378
 20
283.7378976897
 11
21.2839768022
 21
283.5111980529
 72
1
 10
21.2839768022
 20
283.5111980529
 11
20.9179853868
 21
283.3306509734
 72
1
 10
20.9179853868
 20
283.3306509734
 11
20.5315877017
 21
283.1993353496
 72
1
 10
20.5315877017
 20
283.1993353496
 11
20.1313730487
 21
283.1194905277
 72
1
 10
20.1313730487
 20
283.1194905277
 11
19.7241663523
 21
283.0924781144
 72
1
 10
19.7241663523
 20
283.0924781144
 11
19.3169117736
 21
283.1187587566
 72
1
 10
19.3169117736
 20
283.1187587566
 11
18.91655429
 21
283.1978842863
 72
1
 10
18.91655429
 20
283.1978842863
 11
18.529921262
 21
283.3285053633
 72
1
 10
18.529921262
 20
283.3285053633
 11
18.1636060046
 21
283.5083944853
 72
1
 10
18.1636060046
 20
283.5083944853
 11
17.8238553504
 21
283.7344839743
 72
1
 10
17.8238553504
 20
283.7344839743
 11
17.5164631218
 21
284.0029182901
 72
1
 10
17.5164631218
 20
284.0029182901
 11
17.2466713278
 21
284.3091197792
 72
1
 10
17.2466713278
 20
284.3091197792
 11
17.019080771
 21
284.6478667387
 72
1
 10
17.019080771
 20
284.6478667387
 11
16.8375725897
 21
285.0133824622
 72
1
 10
16.8375725897
 20
285.0133824622
 11
19.2555508427
 21
285.3405598918
 72
1
 10
19.2555508427
 20
285.3405598918
 11
19.370272575
 21
285.2837758135
 72
1
 10
19.370272575
 20
285.2837758135
 11
19.4914246564
 21
285.2424517217
 72
1
 10
19.4914246564
 20
285.2424517217
 11
19.6169341414
 21
285.2172946831
 72
1
 10
19.6169341414
 20
285.2172946831
 11
19.7446535277
 21
285.2087351416
 97
1
330
273
 75
0
 76
1
 98
1
 10
0.0
 20
0.0
  0
ENDBLK
  5
275
100
AcDbEntity
  8
0
  6
BYBLOCK
 62
0
100
AcDbBlockEnd
  0
BLOCK
  5
276
100
AcDbEntity
  8
0
100
AcDbBlockBegin
 62
2
  6
CONTINUOUS
  2
SYMBOL_2_BL9
 70
64
 10
252.0051336987
 20
17.0063304868
  3
SYMBOL_2_BL9
  1

  0
LINE
  5
277
100
AcDbEntity
  8
0
100
AcDbLine
 62
2
  6
CONTINUOUS
 10
245.0471016852
 20
14.0149327834
 11
245.0471016852
 21
19.9977281901
  0
LINE
  5
278
100
AcDbEntity
  8
0
100
AcDbLine
 62
2
  6
CONTINUOUS
 10
258.3545634155
 20
13.4063304868
 11
245.6557039818
 21
13.4063304868
  0
LINE
  5
279
100
AcDbEntity
  8
0
100
AcDbLine
 62
2
  6
CONTINUOUS
 10
245.6557039818
 20
20.6063304868
 11
258.3545634155
 21
20.6063304868
  0
LINE
  5
27A
100
AcDbEntity
  8
0
100
AcDbLine
 62
2
  6
CONTINUOUS
 10
258.9631657122
 20
19.9977281901
 11
258.9631657122
 21
14.0149327834
  0
SPLINE
  5
27B
100
AcDbEntity
  8
0
100
AcDbSpline
 62
2
  6
CONTINUOUS
 70
2
 71
3
 72
62
 73
58
 74
0
 42
0.0000001
 43
0.0000001
 44
0.0000000001
 40
0.0
 40
0.0
 40
0.0
 40
0.0
 40
1.0
 40
1.0
 40
1.0
 40
2.0
 40
2.0
 40
2.0
 40
3.0
 40
3.0
 40
3.0
 40
4.0
 40
4.0
 40
4.0
 40
5.0
 40
5.0
 40
5.0
 40
6.0
 40
6.0
 40
6.0
 40
7.0
 40
7.0
 40
7.0
 40
8.0
 40
8.0
 40
8.0
 40
9.0
 40
9.0
 40
9.0
 40
10.0
 40
10.0
 40
10.0
 40
11.0
 40
11.0
 40
11.0
 40
12.0
 40
12.0
 40
12.0
 40
13.0
 40
13.0
 40
13.0
 40
14.0
 40
14.0
 40
14.0
 40
15.0
 40
15.0
 40
15.0
 40
16.0
 40
16.0
 40
16.0
 40
17.0
 40
17.0
 40
17.0
 40
18.0
 40
18.0
 40
18.0
 40
19.0
 40
19.0
 40
19.0
 40
19.0
 10
255.4248786001
 20
19.4367908873
 30
0.0
 10
255.4248786001
 20
19.4367908873
 30
0.0
 10
255.4248786001
 20
16.2760496648
 30
0.0
 10
255.4248786001
 20
16.2760496648
 30
0.0
 10
255.4248786001
 20
16.2760496648
 30
0.0
 10
255.4290021113
 20
16.1446564266
 30
0.0
 10
255.4290021113
 20
16.1446564266
 30
0.0
 10
255.4290021113
 20
15.8401456082
 30
0.0
 10
255.1623017939
 20
15.5932591116
 30
0.0
 10
254.8577210855
 20
15.5932591116
 30
0.0
 10
254.5532102671
 20
15.5932591116
 30
0.0
 10
254.2963644425
 20
15.8401456082
 30
0.0
 10
254.2963644425
 20
16.1446564266
 30
0.0
 10
254.2963644425
 20
16.1446564266
 30
0.0
 10
254.28776797
 20
16.2760496648
 30
0.0
 10
254.28776797
 20
16.2760496648
 30
0.0
 10
254.28776797
 20
16.2760496648
 30
0.0
 10
254.28776797
 20
19.4367908873
 30
0.0
 10
254.28776797
 20
19.4367908873
 30
0.0
 10
254.28776797
 20
19.4367908873
 30
0.0
 10
253.0008131365
 20
19.4367908873
 30
0.0
 10
253.0008131365
 20
19.4367908873
 30
0.0
 10
253.0008131365
 20
19.4367908873
 30
0.0
 10
253.0008131365
 20
17.4753274679
 30
0.0
 10
253.0008131365
 20
17.4753274679
 30
0.0
 10
253.0008131365
 20
17.4753274679
 30
0.0
 10
252.160403115
 20
17.4753274679
 30
0.0
 10
252.160403115
 20
17.4753274679
 30
0.0
 10
252.191189669
 20
17.3044813133
 30
0.0
 10
252.2080506363
 20
17.1286729673
 30
0.0
 10
252.2080506363
 20
16.948636275
 30
0.0
 10
252.2080506363
 20
16.7697178231
 30
0.0
 10
252.191364394
 20
16.5948180473
 30
0.0
 10
252.1609272902
 20
16.424915408
 30
0.0
 10
252.1609272902
 20
16.424915408
 30
0.0
 10
253.0008131365
 20
16.424915408
 30
0.0
 10
253.0008131365
 20
16.424915408
 30
0.0
 10
253.0008131365
 20
16.424915408
 30
0.0
 10
253.0008131365
 20
16.2760496648
 30
0.0
 10
253.0008131365
 20
16.2760496648
 30
0.0
 10
253.0008131365
 20
16.2760496648
 30
0.0
 10
253.0008131365
 20
16.1446564266
 30
0.0
 10
253.0008131365
 20
16.1446564266
 30
0.0
 10
253.0008131365
 20
15.1281410266
 30
0.0
 10
253.8348107486
 20
14.3041027424
 30
0.0
 10
254.8513261486
 20
14.3041027424
 30
0.0
 10
255.8678764937
 20
14.3041027424
 30
0.0
 10
256.7118334337
 20
15.1281410266
 30
0.0
 10
256.7118334337
 20
16.1446564266
 30
0.0
 10
256.7118334337
 20
16.1446564266
 30
0.0
 10
256.7118334337
 20
16.2760496648
 30
0.0
 10
256.7118334337
 20
16.2760496648
 30
0.0
 10
256.7118334337
 20
16.2760496648
 30
0.0
 10
256.7118334337
 20
19.4367908873
 30
0.0
 10
256.7118334337
 20
19.4367908873
 30
0.0
 10
256.7118334337
 20
19.4367908873
 30
0.0
 10
255.4248786001
 20
19.4367908873
 30
0.0
 10
255.4248786001
 20
19.4367908873
 30
0.0
  0
SPLINE
  5
27C
100
AcDbEntity
  8
0
100
AcDbSpline
 62
2
  6
CONTINUOUS
 70
2
 71
3
 72
59
 73
55
 74
0
 42
0.0000001
 43
0.0000001
 44
0.0000000001
 40
0.0
 40
0.0
 40
0.0
 40
0.0
 40
1.0
 40
1.0
 40
1.0
 40
2.0
 40
2.0
 40
2.0
 40
3.0
 40
3.0
 40
3.0
 40
4.0
 40
4.0
 40
4.0
 40
5.0
 40
5.0
 40
5.0
 40
6.0
 40
6.0
 40
6.0
 40
7.0
 40
7.0
 40
7.0
 40
8.0
 40
8.0
 40
8.0
 40
9.0
 40
9.0
 40
9.0
 40
10.0
 40
10.0
 40
10.0
 40
11.0
 40
11.0
 40
11.0
 40
12.0
 40
12.0
 40
12.0
 40
13.0
 40
13.0
 40
13.0
 40
14.0
 40
14.0
 40
14.0
 40
15.0
 40
15.0
 40
15.0
 40
16.0
 40
16.0
 40
16.0
 40
17.0
 40
17.0
 40
17.0
 40
18.0
 40
18.0
 40
18.0
 40
18.0
 10
251.8823281968
 20
17.4753274679
 30
0.0
 10
251.8823281968
 20
17.4753274679
 30
0.0
 10
251.0738928596
 20
17.4753274679
 30
0.0
 10
251.0738928596
 20
17.4753274679
 30
0.0
 10
251.0738928596
 20
17.4753274679
 30
0.0
 10
250.5255008154
 20
17.4753274679
 30
0.0
 10
250.5255008154
 20
17.4753274679
 30
0.0
 10
250.5255008154
 20
17.4753274679
 30
0.0
 10
249.3703760326
 20
17.4753274679
 30
0.0
 10
249.3703760326
 20
17.4753274679
 30
0.0
 10
249.3703760326
 20
17.4753274679
 30
0.0
 10
249.3703760326
 20
17.4736151624
 30
0.0
 10
249.3703760326
 20
17.4736151624
 30
0.0
 10
249.0824466216
 20
17.4711690117
 30
0.0
 10
248.849747799
 20
17.2371772238
 30
0.0
 10
248.849747799
 20
16.948636275
 30
0.0
 10
248.849747799
 20
16.6585926908
 30
0.0
 10
249.0848927723
 20
16.4234477176
 30
0.0
 10
249.3749713015
 20
16.4234477176
 30
0.0
 10
249.3849131569
 20
16.4234477176
 30
0.0
 10
249.3946453422
 20
16.4243912328
 30
0.0
 10
249.4044823625
 20
16.424915408
 30
0.0
 10
249.4044823625
 20
16.424915408
 30
0.0
 10
250.5265841108
 20
16.424915408
 30
0.0
 10
250.5265841108
 20
16.424915408
 30
0.0
 10
250.3383877586
 20
15.935929881
 30
0.0
 10
249.8889774557
 20
15.5922806513
 30
0.0
 10
249.325209607
 20
15.5922806513
 30
0.0
 10
248.5766175997
 20
15.5922806513
 30
0.0
 10
248.0189301828
 20
16.1996249276
 30
0.0
 10
248.0189301828
 20
16.948636275
 30
0.0
 10
248.0189301828
 20
17.6976126774
 30
0.0
 10
248.5766175997
 20
18.3049918987
 30
0.0
 10
249.325209607
 20
18.3049918987
 30
0.0
 10
249.7912187898
 20
18.3049918987
 30
0.0
 10
250.1790559849
 20
18.0701264856
 30
0.0
 10
250.4058840457
 20
17.7124643067
 30
0.0
 10
250.4058840457
 20
17.7124643067
 30
0.0
 10
251.4479617207
 20
18.4876494667
 30
0.0
 10
251.4479617207
 20
18.4876494667
 30
0.0
 10
250.9776018842
 20
19.1531771849
 30
0.0
 10
250.2077283657
 20
19.5869845409
 30
0.0
 10
249.325209607
 20
19.5869845409
 30
0.0
 10
247.8681249916
 20
19.5869845409
 30
0.0
 10
246.7166869073
 20
18.405773308
 30
0.0
 10
246.7166869073
 20
16.948636275
 30
0.0
 10
246.7166869073
 20
15.4916040771
 30
0.0
 10
247.8681249916
 20
14.3103229542
 30
0.0
 10
249.325209607
 20
14.3103229542
 30
0.0
 10
250.7822592775
 20
14.3103229542
 30
0.0
 10
251.9337672517
 20
15.4916040771
 30
0.0
 10
251.9337672517
 20
16.948636275
 30
0.0
 10
251.9337672517
 20
17.1290224174
 30
0.0
 10
251.9159977141
 20
17.3051103235
 30
0.0
 10
251.8823281968
 20
17.4753274679
 30
0.0
  0
LWPOLYLINE
  5
27D
100
AcDbEntity
  8
0
100
AcDbPolyline
 62
2
  6
CONTINUOUS
 90
7
 70
0
 10
258.3545634155
 20
20.6063304868
 10
258.6135025194
 20
20.5481472868
 10
245.1833440306
 20
20.3804003931
 10
245.396764878
 20
20.5481472868
 10
245.6557039818
 20
20.6063304868
 10
246.976385363
 20
20.6063304868
 10
258.3545634155
 20
20.6063304868
  0
HATCH
  5
27E
100
AcDbEntity
  8
0
100
AcDbHatch
 62
2
  6
CONTINUOUS
 10
0.0
 20
0.0
 30
0.0
210
0.0
220
0.0
230
1.0
  2
SOLID
 70
1
 71
1
 91
1
 92
1
 93
6
 72
1
 10
258.3545634155
 20
20.6063304868
 11
258.6135025194
 21
20.5481472868
 72
1
 10
258.6135025194
 20
20.5481472868
 11
245.1833440306
 21
20.3804003931
 72
1
 10
245.1833440306
 20
20.3804003931
 11
245.396764878
 21
20.5481472868
 72
1
 10
245.396764878
 20
20.5481472868
 11
245.6557039818
 21
20.6063304868
 72
1
 10
245.6557039818
 20
20.6063304868
 11
246.976385363
 21
20.6063304868
 72
1
 10
246.976385363
 20
20.6063304868
 11
258.3545634155
 21
20.6063304868
 97
1
330
27D
 75
0
 76
1
 98
1
 10
0.0
 20
0.0
  0
LWPOLYLINE
  5
27F
100
AcDbEntity
  8
0
100
AcDbPolyline
 62
2
  6
CONTINUOUS
 90
18
 70
0
 10
258.7372356185
 20
20.4700881413
 10
258.9049797998
 20
20.2566696868
 10
258.9631657122
 20
19.9977288868
 10
249.325209607
 20
19.5869845409
 10
248.9334803387
 20
19.5579960868
 10
248.5550040651
 20
19.471971883
 10
248.1947230793
 20
19.3304912714
 10
247.8586654322
 20
19.1358046711
 10
247.5537188479
 20
18.8913367601
 10
247.4119396722
 20
18.7483930295
 10
247.1682265858
 20
18.4393007054
 10
246.9735692326
 20
18.0976677811
 10
245.0471016852
 20
14.6371435057
 10
245.0471016852
 20
19.9977288868
 10
245.1052875976
 20
20.2566696868
 10
245.1833440306
 20
20.3804003931
 10
258.6135025194
 20
20.5481472868
 10
258.7372356185
 20
20.4700881413
  0
HATCH
  5
280
100
AcDbEntity
  8
0
100
AcDbHatch
 62
2
  6
CONTINUOUS
 10
0.0
 20
0.0
 30
0.0
210
0.0
220
0.0
230
1.0
  2
SOLID
 70
1
 71
1
 91
1
 92
1
 93
17
 72
1
 10
258.7372356185
 20
20.4700881413
 11
258.9049797998
 21
20.2566696868
 72
1
 10
258.9049797998
 20
20.2566696868
 11
258.9631657122
 21
19.9977288868
 72
1
 10
258.9631657122
 20
19.9977288868
 11
249.325209607
 21
19.5869845409
 72
1
 10
249.325209607
 20
19.5869845409
 11
248.9334803387
 21
19.5579960868
 72
1
 10
248.9334803387
 20
19.5579960868
 11
248.5550040651
 21
19.471971883
 72
1
 10
248.5550040651
 20
19.471971883
 11
248.1947230793
 21
19.3304912714
 72
1
 10
248.1947230793
 20
19.3304912714
 11
247.8586654322
 21
19.1358046711
 72
1
 10
247.8586654322
 20
19.1358046711
 11
247.5537188479
 21
18.8913367601
 72
1
 10
247.5537188479
 20
18.8913367601
 11
247.4119396722
 21
18.7483930295
 72
1
 10
247.4119396722
 20
18.7483930295
 11
247.1682265858
 21
18.4393007054
 72
1
 10
247.1682265858
 20
18.4393007054
 11
246.9735692326
 21
18.0976677811
 72
1
 10
246.9735692326
 20
18.0976677811
 11
245.0471016852
 21
14.6371435057
 72
1
 10
245.0471016852
 20
14.6371435057
 11
245.0471016852
 21
19.9977288868
 72
1
 10
245.0471016852
 20
19.9977288868
 11
245.1052875976
 21
20.2566696868
 72
1
 10
245.1052875976
 20
20.2566696868
 11
245.1833440306
 21
20.3804003931
 72
1
 10
245.1833440306
 20
20.3804003931
 11
258.6135025194
 21
20.5481472868
 72
1
 10
258.6135025194
 20
20.5481472868
 11
258.7372356185
 21
20.4700881413
 97
1
330
27F
 75
0
 76
1
 98
1
 10
0.0
 20
0.0
  0
LWPOLYLINE
  5
281
100
AcDbEntity
  8
0
100
AcDbPolyline
 62
2
  6
CONTINUOUS
 90
37
 70
0
 10
249.325209607
 20
19.5869845409
 10
258.9631657122
 20
19.9977288868
 10
258.9631657122
 20
19.3755174678
 10
258.9631657122
 20
14.0149320868
 10
256.4752842789
 20
15.2498839876
 10
256.6058234665
 20
15.5339693186
 10
256.6851487731
 20
15.8341419967
 10
256.7118334337
 20
16.1446560868
 10
256.7118334337
 20
16.2760488868
 10
256.7118334337
 20
19.4367912868
 10
255.4248786001
 20
19.4367912868
 10
255.4248786001
 20
16.2760488868
 10
255.4290021113
 20
16.1446560868
 10
254.322400757
 20
15.9796854106
 10
254.2963644425
 20
16.1446560868
 10
254.28776797
 20
16.2760488868
 10
254.28776797
 20
19.4367912868
 10
253.0008131365
 20
19.4367912868
 10
253.0008131365
 20
17.4753240868
 10
252.160403115
 20
17.4753240868
 10
252.1817813755
 20
17.3392843749
 10
252.2080506363
 20
16.9486368868
 10
251.9047597321
 20
16.551295021
 10
251.9337672517
 20
16.9486368868
 10
251.9048627125
 20
17.3446039815
 10
251.8823281968
 20
17.4753240868
 10
251.0738928596
 20
17.4753240868
 10
250.5255008154
 20
17.4753240868
 10
250.4058840457
 20
17.7124643067
 10
251.4479617207
 20
18.4876494667
 10
251.1970647502
 20
18.7914885541
 10
251.0958813666
 20
18.8912338875
 10
250.790930515
 20
19.1357894408
 10
250.4549870227
 20
19.3305032225
 10
250.0949125483
 20
19.4719814385
 10
249.7166905268
 20
19.5579960868
 10
249.325209607
 20
19.5869845409
  0
HATCH
  5
282
100
AcDbEntity
  8
0
100
AcDbHatch
 62
2
  6
CONTINUOUS
 10
0.0
 20
0.0
 30
0.0
210
0.0
220
0.0
230
1.0
  2
SOLID
 70
1
 71
1
 91
1
 92
1
 93
36
 72
1
 10
249.325209607
 20
19.5869845409
 11
258.9631657122
 21
19.9977288868
 72
1
 10
258.9631657122
 20
19.9977288868
 11
258.9631657122
 21
19.3755174678
 72
1
 10
258.9631657122
 20
19.3755174678
 11
258.9631657122
 21
14.0149320868
 72
1
 10
258.9631657122
 20
14.0149320868
 11
256.4752842789
 21
15.2498839876
 72
1
 10
256.4752842789
 20
15.2498839876
 11
256.6058234665
 21
15.5339693186
 72
1
 10
256.6058234665
 20
15.5339693186
 11
256.6851487731
 21
15.8341419967
 72
1
 10
256.6851487731
 20
15.8341419967
 11
256.7118334337
 21
16.1446560868
 72
1
 10
256.7118334337
 20
16.1446560868
 11
256.7118334337
 21
16.2760488868
 72
1
 10
256.7118334337
 20
16.2760488868
 11
256.7118334337
 21
19.4367912868
 72
1
 10
256.7118334337
 20
19.4367912868
 11
255.4248786001
 21
19.4367912868
 72
1
 10
255.4248786001
 20
19.4367912868
 11
255.4248786001
 21
16.2760488868
 72
1
 10
255.4248786001
 20
16.2760488868
 11
255.4290021113
 21
16.1446560868
 72
1
 10
255.4290021113
 20
16.1446560868
 11
254.322400757
 21
15.9796854106
 72
1
 10
254.322400757
 20
15.9796854106
 11
254.2963644425
 21
16.1446560868
 72
1
 10
254.2963644425
 20
16.1446560868
 11
254.28776797
 21
16.2760488868
 72
1
 10
254.28776797
 20
16.2760488868
 11
254.28776797
 21
19.4367912868
 72
1
 10
254.28776797
 20
19.4367912868
 11
253.0008131365
 21
19.4367912868
 72
1
 10
253.0008131365
 20
19.4367912868
 11
253.0008131365
 21
17.4753240868
 72
1
 10
253.0008131365
 20
17.4753240868
 11
252.160403115
 21
17.4753240868
 72
1
 10
252.160403115
 20
17.4753240868
 11
252.1817813755
 21
17.3392843749
 72
1
 10
252.1817813755
 20
17.3392843749
 11
252.2080506363
 21
16.9486368868
 72
1
 10
252.2080506363
 20
16.9486368868
 11
251.9047597321
 21
16.551295021
 72
1
 10
251.9047597321
 20
16.551295021
 11
251.9337672517
 21
16.9486368868
 72
1
 10
251.9337672517
 20
16.9486368868
 11
251.9048627125
 21
17.3446039815
 72
1
 10
251.9048627125
 20
17.3446039815
 11
251.8823281968
 21
17.4753240868
 72
1
 10
251.8823281968
 20
17.4753240868
 11
251.0738928596
 21
17.4753240868
 72
1
 10
251.0738928596
 20
17.4753240868
 11
250.5255008154
 21
17.4753240868
 72
1
 10
250.5255008154
 20
17.4753240868
 11
250.4058840457
 21
17.7124643067
 72
1
 10
250.4058840457
 20
17.7124643067
 11
251.4479617207
 21
18.4876494667
 72
1
 10
251.4479617207
 20
18.4876494667
 11
251.1970647502
 21
18.7914885541
 72
1
 10
251.1970647502
 20
18.7914885541
 11
251.0958813666
 21
18.8912338875
 72
1
 10
251.0958813666
 20
18.8912338875
 11
250.790930515
 21
19.1357894408
 72
1
 10
250.790930515
 20
19.1357894408
 11
250.4549870227
 21
19.3305032225
 72
1
 10
250.4549870227
 20
19.3305032225
 11
250.0949125483
 21
19.4719814385
 72
1
 10
250.0949125483
 20
19.4719814385
 11
249.7166905268
 21
19.5579960868
 72
1
 10
249.7166905268
 20
19.5579960868
 11
249.325209607
 21
19.5869845409
 97
1
330
281
 75
0
 76
1
 98
1
 10
0.0
 20
0.0
  0
SOLID
  5
283
100
AcDbEntity
  8
0
100
AcDbTrace
 62
2
  6
CONTINUOUS
 10
249.325209607
 20
18.3049918987
 11
249.6015515005
 21
18.2762808868
 12
249.0486742656
 22
18.2762808868
 13
248.7909051555
 23
18.1920110388
  0
LWPOLYLINE
  5
284
100
AcDbEntity
  8
0
100
AcDbPolyline
 62
2
  6
CONTINUOUS
 90
14
 70
0
 10
249.8579130326
 20
18.1921822192
 10
250.0891502471
 20
18.0556253582
 10
250.2884401432
 20
17.8702844777
 10
250.4058840457
 20
17.7124643067
 10
250.5255008154
 20
17.4753240868
 10
249.3703760326
 20
17.4753240868
 10
248.0477447543
 20
17.2392773781
 10
248.1325818034
 20
17.5126161474
 10
248.1953316196
 20
17.6405558557
 10
248.3562755347
 20
17.8692181101
 10
248.5576291346
 20
18.055033615
 10
248.7909051555
 20
18.1920110388
 10
249.6015515005
 20
18.2762808868
 10
249.8579130326
 20
18.1921822192
  0
HATCH
  5
285
100
AcDbEntity
  8
0
100
AcDbHatch
 62
2
  6
CONTINUOUS
 10
0.0
 20
0.0
 30
0.0
210
0.0
220
0.0
230
1.0
  2
SOLID
 70
1
 71
1
 91
1
 92
1
 93
13
 72
1
 10
249.8579130326
 20
18.1921822192
 11
250.0891502471
 21
18.0556253582
 72
1
 10
250.0891502471
 20
18.0556253582
 11
250.2884401432
 21
17.8702844777
 72
1
 10
250.2884401432
 20
17.8702844777
 11
250.4058840457
 21
17.7124643067
 72
1
 10
250.4058840457
 20
17.7124643067
 11
250.5255008154
 21
17.4753240868
 72
1
 10
250.5255008154
 20
17.4753240868
 11
249.3703760326
 21
17.4753240868
 72
1
 10
249.3703760326
 20
17.4753240868
 11
248.0477447543
 21
17.2392773781
 72
1
 10
248.0477447543
 20
17.2392773781
 11
248.1325818034
 21
17.5126161474
 72
1
 10
248.1325818034
 20
17.5126161474
 11
248.1953316196
 21
17.6405558557
 72
1
 10
248.1953316196
 20
17.6405558557
 11
248.3562755347
 21
17.8692181101
 72
1
 10
248.3562755347
 20
17.8692181101
 11
248.5576291346
 21
18.055033615
 72
1
 10
248.5576291346
 20
18.055033615
 11
248.7909051555
 21
18.1920110388
 72
1
 10
248.7909051555
 20
18.1920110388
 11
249.6015515005
 21
18.2762808868
 72
1
 10
249.6015515005
 20
18.2762808868
 11
249.8579130326
 21
18.1921822192
 97
1
330
284
 75
0
 76
1
 98
1
 10
0.0
 20
0.0
  0
LWPOLYLINE
  5
286
100
AcDbEntity
  8
0
100
AcDbPolyline
 62
2
  6
CONTINUOUS
 90
10
 70
0
 10
248.9600917894
 20
17.2706650389
 10
248.8778731999
 20
17.1186159758
 10
248.849747799
 20
16.9486368868
 10
248.0477447543
 20
16.6579846804
 10
248.0189301828
 20
16.9486368868
 10
248.0477447543
 20
17.2392773781
 10
249.3703760326
 20
17.4753240868
 10
249.2006281149
 20
17.4440361074
 10
249.0491376174
 20
17.360461771
 10
248.9600917894
 20
17.2706650389
  0
HATCH
  5
287
100
AcDbEntity
  8
0
100
AcDbHatch
 62
2
  6
CONTINUOUS
 10
0.0
 20
0.0
 30
0.0
210
0.0
220
0.0
230
1.0
  2
SOLID
 70
1
 71
1
 91
1
 92
1
 93
9
 72
1
 10
248.9600917894
 20
17.2706650389
 11
248.8778731999
 21
17.1186159758
 72
1
 10
248.8778731999
 20
17.1186159758
 11
248.849747799
 21
16.9486368868
 72
1
 10
248.849747799
 20
16.9486368868
 11
248.0477447543
 21
16.6579846804
 72
1
 10
248.0477447543
 20
16.6579846804
 11
248.0189301828
 21
16.9486368868
 72
1
 10
248.0189301828
 20
16.9486368868
 11
248.0477447543
 21
17.2392773781
 72
1
 10
248.0477447543
 20
17.2392773781
 11
249.3703760326
 21
17.4753240868
 72
1
 10
249.3703760326
 20
17.4753240868
 11
249.2006281149
 21
17.4440361074
 72
1
 10
249.2006281149
 20
17.4440361074
 11
249.0491376174
 21
17.360461771
 72
1
 10
249.0491376174
 20
17.360461771
 11
248.9600917894
 21
17.2706650389
 97
1
330
286
 75
0
 76
1
 98
1
 10
0.0
 20
0.0
  0
SOLID
  5
288
100
AcDbEntity
  8
0
100
AcDbTrace
 62
2
  6
CONTINUOUS
 10
249.3703760326
 20
17.4736151624
 11
249.2006281149
 21
17.4440361074
 12
249.3703760326
 22
17.4753240868
 13
249.3703760326
 23
17.4753240868
  0
LWPOLYLINE
  5
289
100
AcDbEntity
  8
0
100
AcDbPolyline
 62
2
  6
CONTINUOUS
 90
6
 70
0
 10
248.8778737393
 20
16.7786383446
 10
248.9601041265
 20
16.6265254914
 10
248.1325807139
 20
16.3846438879
 10
248.0477447543
 20
16.6579846804
 10
248.849747799
 20
16.9486368868
 10
248.8778737393
 20
16.7786383446
  0
HATCH
  5
28A
100
AcDbEntity
  8
0
100
AcDbHatch
 62
2
  6
CONTINUOUS
 10
0.0
 20
0.0
 30
0.0
210
0.0
220
0.0
230
1.0
  2
SOLID
 70
1
 71
1
 91
1
 92
1
 93
5
 72
1
 10
248.8778737393
 20
16.7786383446
 11
248.9601041265
 21
16.6265254914
 72
1
 10
248.9601041265
 20
16.6265254914
 11
248.1325807139
 21
16.3846438879
 72
1
 10
248.1325807139
 20
16.3846438879
 11
248.0477447543
 21
16.6579846804
 72
1
 10
248.0477447543
 20
16.6579846804
 11
248.849747799
 21
16.9486368868
 72
1
 10
248.849747799
 20
16.9486368868
 11
248.8778737393
 21
16.7786383446
 97
1
330
289
 75
0
 76
1
 98
1
 10
0.0
 20
0.0
  0
LWPOLYLINE
  5
28B
100
AcDbEntity
  8
0
100
AcDbPolyline
 62
2
  6
CONTINUOUS
 90
6
 70
0
 10
252.1817998473
 20
16.5582257528
 10
252.1609272902
 20
16.4249160868
 10
251.8185823915
 20
16.1663693064
 10
251.9047597321
 20
16.551295021
 10
252.2080506363
 20
16.9486368868
 10
252.1817998473
 20
16.5582257528
  0
HATCH
  5
28C
100
AcDbEntity
  8
0
100
AcDbHatch
 62
2
  6
CONTINUOUS
 10
0.0
 20
0.0
 30
0.0
210
0.0
220
0.0
230
1.0
  2
SOLID
 70
1
 71
1
 91
1
 92
1
 93
5
 72
1
 10
252.1817998473
 20
16.5582257528
 11
252.1609272902
 21
16.4249160868
 72
1
 10
252.1609272902
 20
16.4249160868
 11
251.8185823915
 21
16.1663693064
 72
1
 10
251.8185823915
 20
16.1663693064
 11
251.9047597321
 21
16.551295021
 72
1
 10
251.9047597321
 20
16.551295021
 11
252.2080506363
 21
16.9486368868
 72
1
 10
252.2080506363
 20
16.9486368868
 11
252.1817998473
 21
16.5582257528
 97
1
330
28B
 75
0
 76
1
 98
1
 10
0.0
 20
0.0
  0
LWPOLYLINE
  5
28D
100
AcDbEntity
  8
0
100
AcDbPolyline
 62
2
  6
CONTINUOUS
 90
16
 70
0
 10
249.3749713015
 20
16.4234477176
 10
249.4044823625
 20
16.4249160868
 10
250.5265841108
 20
16.4249160868
 10
250.4477844956
 20
16.255468722
 10
250.2885110803
 20
16.0269603376
 10
250.0892358138
 20
15.8416414042
 10
249.8579848288
 20
15.7050904278
 10
249.6015902951
 20
15.6209928868
 10
249.325209607
 20
15.5922806513
 10
249.0486666225
 20
15.6209928868
 10
248.7908934768
 20
15.7052616083
 10
248.5576172154
 20
15.8422380361
 10
248.3562663537
 20
16.0280511814
 10
248.1953264356
 20
16.2567104668
 10
248.1325807139
 20
16.3846438879
 10
249.3749713015
 20
16.4234477176
  0
HATCH
  5
28E
100
AcDbEntity
  8
0
100
AcDbHatch
 62
2
  6
CONTINUOUS
 10
0.0
 20
0.0
 30
0.0
210
0.0
220
0.0
230
1.0
  2
SOLID
 70
1
 71
1
 91
1
 92
1
 93
15
 72
1
 10
249.3749713015
 20
16.4234477176
 11
249.4044823625
 21
16.4249160868
 72
1
 10
249.4044823625
 20
16.4249160868
 11
250.5265841108
 21
16.4249160868
 72
1
 10
250.5265841108
 20
16.4249160868
 11
250.4477844956
 21
16.255468722
 72
1
 10
250.4477844956
 20
16.255468722
 11
250.2885110803
 21
16.0269603376
 72
1
 10
250.2885110803
 20
16.0269603376
 11
250.0892358138
 21
15.8416414042
 72
1
 10
250.0892358138
 20
15.8416414042
 11
249.8579848288
 21
15.7050904278
 72
1
 10
249.8579848288
 20
15.7050904278
 11
249.6015902951
 21
15.6209928868
 72
1
 10
249.6015902951
 20
15.6209928868
 11
249.325209607
 21
15.5922806513
 72
1
 10
249.325209607
 20
15.5922806513
 11
249.0486666225
 21
15.6209928868
 72
1
 10
249.0486666225
 20
15.6209928868
 11
248.7908934768
 21
15.7052616083
 72
1
 10
248.7908934768
 20
15.7052616083
 11
248.5576172154
 21
15.8422380361
 72
1
 10
248.5576172154
 20
15.8422380361
 11
248.3562663537
 21
16.0280511814
 72
1
 10
248.3562663537
 20
16.0280511814
 11
248.1953264356
 21
16.2567104668
 72
1
 10
248.1953264356
 20
16.2567104668
 11
248.1325807139
 21
16.3846438879
 72
1
 10
248.1325807139
 20
16.3846438879
 11
249.3749713015
 21
16.4234477176
 97
1
330
28D
 75
0
 76
1
 98
1
 10
0.0
 20
0.0
  0
LWPOLYLINE
  5
28F
100
AcDbEntity
  8
0
100
AcDbPolyline
 62
2
  6
CONTINUOUS
 90
6
 70
0
 10
249.3749713015
 20
16.4234477176
 10
248.1325807139
 20
16.3846438879
 10
248.9601041265
 20
16.6265254914
 10
249.0528329113
 20
16.533801119
 10
249.2049559764
 20
16.4515733563
 10
249.3749713015
 20
16.4234477176
  0
HATCH
  5
290
100
AcDbEntity
  8
0
100
AcDbHatch
 62
2
  6
CONTINUOUS
 10
0.0
 20
0.0
 30
0.0
210
0.0
220
0.0
230
1.0
  2
SOLID
 70
1
 71
1
 91
1
 92
1
 93
5
 72
1
 10
249.3749713015
 20
16.4234477176
 11
248.1325807139
 21
16.3846438879
 72
1
 10
248.1325807139
 20
16.3846438879
 11
248.9601041265
 21
16.6265254914
 72
1
 10
248.9601041265
 20
16.6265254914
 11
249.0528329113
 21
16.533801119
 72
1
 10
249.0528329113
 20
16.533801119
 11
249.2049559764
 21
16.4515733563
 72
1
 10
249.2049559764
 20
16.4515733563
 11
249.3749713015
 21
16.4234477176
 97
1
330
28F
 75
0
 76
1
 98
1
 10
0.0
 20
0.0
  0
LWPOLYLINE
  5
291
100
AcDbEntity
  8
0
100
AcDbPolyline
 62
2
  6
CONTINUOUS
 90
7
 70
0
 10
253.0008131365
 20
16.2760488868
 10
253.0008131365
 20
16.1446560868
 10
251.6768798735
 20
15.7996736415
 10
251.8185823915
 20
16.1663693064
 10
252.1609272902
 20
16.4249160868
 10
253.0008131365
 20
16.4249160868
 10
253.0008131365
 20
16.2760488868
  0
HATCH
  5
292
100
AcDbEntity
  8
0
100
AcDbHatch
 62
2
  6
CONTINUOUS
 10
0.0
 20
0.0
 30
0.0
210
0.0
220
0.0
230
1.0
  2
SOLID
 70
1
 71
1
 91
1
 92
1
 93
6
 72
1
 10
253.0008131365
 20
16.2760488868
 11
253.0008131365
 21
16.1446560868
 72
1
 10
253.0008131365
 20
16.1446560868
 11
251.6768798735
 21
15.7996736415
 72
1
 10
251.6768798735
 20
15.7996736415
 11
251.8185823915
 21
16.1663693064
 72
1
 10
251.8185823915
 20
16.1663693064
 11
252.1609272902
 21
16.4249160868
 72
1
 10
252.1609272902
 20
16.4249160868
 11
253.0008131365
 21
16.4249160868
 72
1
 10
253.0008131365
 20
16.4249160868
 11
253.0008131365
 21
16.2760488868
 97
1
330
291
 75
0
 76
1
 98
1
 10
0.0
 20
0.0
  0
LWPOLYLINE
  5
293
100
AcDbEntity
  8
0
100
AcDbPolyline
 62
2
  6
CONTINUOUS
 90
13
 70
0
 10
255.4030133467
 20
15.9826031108
 10
255.3262264998
 20
15.8331418082
 10
255.2025553488
 20
15.7084443367
 10
255.186082282
 20
15.6966487652
 10
255.0277617393
 20
15.6193512868
 10
254.8577210855
 20
15.5932591116
 10
254.6886683179
 20
15.6193512868
 10
254.5333788168
 20
15.6962400335
 10
254.5216408071
 20
15.7047097411
 10
254.3990292504
 20
15.828830204
 10
254.322400757
 20
15.9796854106
 10
255.4290021113
 20
16.1446560868
 10
255.4030133467
 20
15.9826031108
  0
HATCH
  5
294
100
AcDbEntity
  8
0
100
AcDbHatch
 62
2
  6
CONTINUOUS
 10
0.0
 20
0.0
 30
0.0
210
0.0
220
0.0
230
1.0
  2
SOLID
 70
1
 71
1
 91
1
 92
1
 93
12
 72
1
 10
255.4030133467
 20
15.9826031108
 11
255.3262264998
 21
15.8331418082
 72
1
 10
255.3262264998
 20
15.8331418082
 11
255.2025553488
 21
15.7084443367
 72
1
 10
255.2025553488
 20
15.7084443367
 11
255.186082282
 21
15.6966487652
 72
1
 10
255.186082282
 20
15.6966487652
 11
255.0277617393
 21
15.6193512868
 72
1
 10
255.0277617393
 20
15.6193512868
 11
254.8577210855
 21
15.5932591116
 72
1
 10
254.8577210855
 20
15.5932591116
 11
254.6886683179
 21
15.6193512868
 72
1
 10
254.6886683179
 20
15.6193512868
 11
254.5333788168
 21
15.6962400335
 72
1
 10
254.5333788168
 20
15.6962400335
 11
254.5216408071
 21
15.7047097411
 72
1
 10
254.5216408071
 20
15.7047097411
 11
254.3990292504
 21
15.828830204
 72
1
 10
254.3990292504
 20
15.828830204
 11
254.322400757
 21
15.9796854106
 72
1
 10
254.322400757
 20
15.9796854106
 11
255.4290021113
 21
16.1446560868
 72
1
 10
255.4290021113
 20
16.1446560868
 11
255.4030133467
 21
15.9826031108
 97
1
330
293
 75
0
 76
1
 98
1
 10
0.0
 20
0.0
  0
LWPOLYLINE
  5
295
100
AcDbEntity
  8
0
100
AcDbPolyline
 62
2
  6
CONTINUOUS
 90
13
 70
0
 10
253.0275070267
 20
15.8323395089
 10
253.1068139436
 20
15.5307973706
 10
253.237192875
 20
15.2459281004
 10
253.4159117633
 20
14.9850893018
 10
253.6383386229
 20
14.7565471656
 10
250.4556712576
 20
14.5668192868
 10
250.7917377552
 20
14.7615072868
 10
251.096697622
 20
15.0059870805
 10
251.2384895038
 20
15.1489409451
 10
251.4822144736
 20
15.4580403019
 10
251.6768798735
 20
15.7996736415
 10
253.0008131365
 20
16.1446560868
 10
253.0275070267
 20
15.8323395089
  0
HATCH
  5
296
100
AcDbEntity
  8
0
100
AcDbHatch
 62
2
  6
CONTINUOUS
 10
0.0
 20
0.0
 30
0.0
210
0.0
220
0.0
230
1.0
  2
SOLID
 70
1
 71
1
 91
1
 92
1
 93
12
 72
1
 10
253.0275070267
 20
15.8323395089
 11
253.1068139436
 21
15.5307973706
 72
1
 10
253.1068139436
 20
15.5307973706
 11
253.237192875
 21
15.2459281004
 72
1
 10
253.237192875
 20
15.2459281004
 11
253.4159117633
 21
14.9850893018
 72
1
 10
253.4159117633
 20
14.9850893018
 11
253.6383386229
 21
14.7565471656
 72
1
 10
253.6383386229
 20
14.7565471656
 11
250.4556712576
 21
14.5668192868
 72
1
 10
250.4556712576
 20
14.5668192868
 11
250.7917377552
 21
14.7615072868
 72
1
 10
250.7917377552
 20
14.7615072868
 11
251.096697622
 21
15.0059870805
 72
1
 10
251.096697622
 20
15.0059870805
 11
251.2384895038
 21
15.1489409451
 72
1
 10
251.2384895038
 20
15.1489409451
 11
251.4822144736
 21
15.4580403019
 72
1
 10
251.4822144736
 20
15.4580403019
 11
251.6768798735
 21
15.7996736415
 72
1
 10
251.6768798735
 20
15.7996736415
 11
253.0008131365
 21
16.1446560868
 72
1
 10
253.0008131365
 20
16.1446560868
 11
253.0275070267
 21
15.8323395089
 97
1
330
295
 75
0
 76
1
 98
1
 10
0.0
 20
0.0
  0
LWPOLYLINE
  5
297
100
AcDbEntity
  8
0
100
AcDbPolyline
 62
2
  6
CONTINUOUS
 90
15
 70
0
 10
247.858685702
 20
14.7615072868
 10
248.194744671
 20
14.5668192868
 10
245.0471016852
 20
14.0149320868
 10
245.0471016852
 20
14.6371435057
 10
246.9735692326
 20
18.0976677811
 10
246.8318707549
 20
17.7309623756
 10
246.7456945048
 20
17.3460141724
 10
246.7166869073
 20
16.9486368868
 10
246.7456945048
 20
16.5512832218
 10
246.8318718054
 20
16.1663487824
 10
246.9735735794
 20
15.7996481549
 10
247.1682368871
 20
15.4580137829
 10
247.4119580123
 20
15.1489168423
 10
247.5537345207
 20
15.0059771128
 10
247.858685702
 20
14.7615072868
  0
HATCH
  5
298
100
AcDbEntity
  8
0
100
AcDbHatch
 62
2
  6
CONTINUOUS
 10
0.0
 20
0.0
 30
0.0
210
0.0
220
0.0
230
1.0
  2
SOLID
 70
1
 71
1
 91
1
 92
1
 93
14
 72
1
 10
247.858685702
 20
14.7615072868
 11
248.194744671
 21
14.5668192868
 72
1
 10
248.194744671
 20
14.5668192868
 11
245.0471016852
 21
14.0149320868
 72
1
 10
245.0471016852
 20
14.0149320868
 11
245.0471016852
 21
14.6371435057
 72
1
 10
245.0471016852
 20
14.6371435057
 11
246.9735692326
 21
18.0976677811
 72
1
 10
246.9735692326
 20
18.0976677811
 11
246.8318707549
 21
17.7309623756
 72
1
 10
246.8318707549
 20
17.7309623756
 11
246.7456945048
 21
17.3460141724
 72
1
 10
246.7456945048
 20
17.3460141724
 11
246.7166869073
 21
16.9486368868
 72
1
 10
246.7166869073
 20
16.9486368868
 11
246.7456945048
 21
16.5512832218
 72
1
 10
246.7456945048
 20
16.5512832218
 11
246.8318718054
 21
16.1663487824
 72
1
 10
246.8318718054
 20
16.1663487824
 11
246.9735735794
 21
15.7996481549
 72
1
 10
246.9735735794
 20
15.7996481549
 11
247.1682368871
 21
15.4580137829
 72
1
 10
247.1682368871
 20
15.4580137829
 11
247.4119580123
 21
15.1489168423
 72
1
 10
247.4119580123
 20
15.1489168423
 11
247.5537345207
 21
15.0059771128
 72
1
 10
247.5537345207
 20
15.0059771128
 11
247.858685702
 21
14.7615072868
 97
1
330
297
 75
0
 76
1
 98
1
 10
0.0
 20
0.0
  0
LWPOLYLINE
  5
299
100
AcDbEntity
  8
0
100
AcDbPolyline
 62
2
  6
CONTINUOUS
 90
26
 70
0
 10
253.6827887378
 20
14.7192695815
 10
253.9455555599
 20
14.5406473663
 10
254.2328304965
 20
14.4101853011
 10
254.5368664055
 20
14.3308032868
 10
254.8513261486
 20
14.3041027424
 10
255.1661041849
 20
14.3308032868
 10
255.4712575782
 20
14.4102752514
 10
255.7601639271
 20
14.5409814672
 10
256.0247418269
 20
14.7199485541
 10
256.07288731
 20
14.760197212
 10
256.2961255639
 20
14.9891822828
 10
256.4752842789
 20
15.2498839876
 10
258.9631657122
 20
14.0149320868
 10
258.9049797998
 20
13.7559912868
 10
245.2730317789
 20
13.5425728322
 10
245.1052875976
 20
13.7559912868
 10
245.0471016852
 20
14.0149320868
 10
248.194744671
 20
14.5668192868
 10
248.5550227396
 20
14.4253392868
 10
248.9334916615
 20
14.3393136868
 10
249.325209607
 20
14.3103229542
 10
249.7169204585
 20
14.3393136868
 10
250.0953887898
 20
14.4253392868
 10
250.4556712576
 20
14.5668192868
 10
253.6383386229
 20
14.7565471656
 10
253.6827887378
 20
14.7192695815
  0
HATCH
  5
29A
100
AcDbEntity
  8
0
100
AcDbHatch
 62
2
  6
CONTINUOUS
 10
0.0
 20
0.0
 30
0.0
210
0.0
220
0.0
230
1.0
  2
SOLID
 70
1
 71
1
 91
1
 92
1
 93
25
 72
1
 10
253.6827887378
 20
14.7192695815
 11
253.9455555599
 21
14.5406473663
 72
1
 10
253.9455555599
 20
14.5406473663
 11
254.2328304965
 21
14.4101853011
 72
1
 10
254.2328304965
 20
14.4101853011
 11
254.5368664055
 21
14.3308032868
 72
1
 10
254.5368664055
 20
14.3308032868
 11
254.8513261486
 21
14.3041027424
 72
1
 10
254.8513261486
 20
14.3041027424
 11
255.1661041849
 21
14.3308032868
 72
1
 10
255.1661041849
 20
14.3308032868
 11
255.4712575782
 21
14.4102752514
 72
1
 10
255.4712575782
 20
14.4102752514
 11
255.7601639271
 21
14.5409814672
 72
1
 10
255.7601639271
 20
14.5409814672
 11
256.0247418269
 21
14.7199485541
 72
1
 10
256.0247418269
 20
14.7199485541
 11
256.07288731
 21
14.760197212
 72
1
 10
256.07288731
 20
14.760197212
 11
256.2961255639
 21
14.9891822828
 72
1
 10
256.2961255639
 20
14.9891822828
 11
256.4752842789
 21
15.2498839876
 72
1
 10
256.4752842789
 20
15.2498839876
 11
258.9631657122
 21
14.0149320868
 72
1
 10
258.9631657122
 20
14.0149320868
 11
258.9049797998
 21
13.7559912868
 72
1
 10
258.9049797998
 20
13.7559912868
 11
245.2730317789
 21
13.5425728322
 72
1
 10
245.2730317789
 20
13.5425728322
 11
245.1052875976
 21
13.7559912868
 72
1
 10
245.1052875976
 20
13.7559912868
 11
245.0471016852
 21
14.0149320868
 72
1
 10
245.0471016852
 20
14.0149320868
 11
248.194744671
 21
14.5668192868
 72
1
 10
248.194744671
 20
14.5668192868
 11
248.5550227396
 21
14.4253392868
 72
1
 10
248.5550227396
 20
14.4253392868
 11
248.9334916615
 21
14.3393136868
 72
1
 10
248.9334916615
 20
14.3393136868
 11
249.325209607
 21
14.3103229542
 72
1
 10
249.325209607
 20
14.3103229542
 11
249.7169204585
 21
14.3393136868
 72
1
 10
249.7169204585
 20
14.3393136868
 11
250.0953887898
 21
14.4253392868
 72
1
 10
250.0953887898
 20
14.4253392868
 11
250.4556712576
 21
14.5668192868
 72
1
 10
250.4556712576
 20
14.5668192868
 11
253.6383386229
 21
14.7565471656
 72
1
 10
253.6383386229
 20
14.7565471656
 11
253.6827887378
 21
14.7192695815
 97
1
330
299
 75
0
 76
1
 98
1
 10
0.0
 20
0.0
  0
LWPOLYLINE
  5
29B
100
AcDbEntity
  8
0
100
AcDbPolyline
 62
2
  6
CONTINUOUS
 90
9
 70
0
 10
258.8269233668
 20
13.6322605804
 10
258.6135025194
 20
13.4645136868
 10
258.3545634155
 20
13.4063304868
 10
257.0338820344
 20
13.4063304868
 10
245.6557039818
 20
13.4063304868
 10
245.396764878
 20
13.4645136868
 10
245.2730317789
 20
13.5425728322
 10
258.9049797998
 20
13.7559912868
 10
258.8269233668
 20
13.6322605804
  0
HATCH
  5
29C
100
AcDbEntity
  8
0
100
AcDbHatch
 62
2
  6
CONTINUOUS
 10
0.0
 20
0.0
 30
0.0
210
0.0
220
0.0
230
1.0
  2
SOLID
 70
1
 71
1
 91
1
 92
1
 93
8
 72
1
 10
258.8269233668
 20
13.6322605804
 11
258.6135025194
 21
13.4645136868
 72
1
 10
258.6135025194
 20
13.4645136868
 11
258.3545634155
 21
13.4063304868
 72
1
 10
258.3545634155
 20
13.4063304868
 11
257.0338820344
 21
13.4063304868
 72
1
 10
257.0338820344
 20
13.4063304868
 11
245.6557039818
 21
13.4063304868
 72
1
 10
245.6557039818
 20
13.4063304868
 11
245.396764878
 21
13.4645136868
 72
1
 10
245.396764878
 20
13.4645136868
 11
245.2730317789
 21
13.5425728322
 72
1
 10
245.2730317789
 20
13.5425728322
 11
258.9049797998
 21
13.7559912868
 72
1
 10
258.9049797998
 20
13.7559912868
 11
258.8269233668
 21
13.6322605804
 97
1
330
29B
 75
0
 76
1
 98
1
 10
0.0
 20
0.0
  0
ENDBLK
  5
29D
100
AcDbEntity
  8
0
  6
BYBLOCK
 62
0
100
AcDbBlockEnd
  0
BLOCK
  5
29E
100
AcDbEntity
  8
93773508000_BL0
100
AcDbBlockBegin
  2
93773508000_BL0
 70
64
 10
147.3717565398
 20
45.3296079076
  3
93773508000_BL0
  1

  0
LINE
  5
29F
100
AcDbEntity
  8
93773508000_BL0
100
AcDbLine
 62
7
  6
CONTINUOUS
 10
176.6301174019
 20
43.7542148586
 11
200.6301174019
 21
43.7542148586
  0
LINE
  5
2A0
100
AcDbEntity
  8
93773508000_BL0
100
AcDbLine
 62
9
  6
CONTINUOUS
 10
179.1301174019
 20
48.2542148586
 11
198.1301174019
 21
48.2542148586
  0
LINE
  5
2A1
100
AcDbEntity
  8
93773508000_BL0
100
AcDbLine
 62
7
  6
CONTINUOUS
 10
176.6301174019
 20
51.7542148586
 11
200.6301174019
 21
51.7542148586
  0
LINE
  5
2A2
100
AcDbEntity
  8
93773508000_BL0
100
AcDbLine
 62
7
  6
CENTER
 10
188.6301174019
 20
63.7542148586
 11
179.6301174019
 21
63.7542148586
  0
LINE
  5
2A3
100
AcDbEntity
  8
93773508000_BL0
100
AcDbLine
 62
7
  6
CENTER
 10
188.6301174019
 20
63.7542148586
 11
197.6301174019
 21
63.7542148586
  0
LINE
  5
2A4
100
AcDbEntity
  8
93773508000_BL0
100
AcDbLine
 62
7
  6
CONTINUOUS
 10
176.6301174019
 20
44.2230859844
 11
176.6301174019
 21
51.7542148586
  0
LINE
  5
2A5
100
AcDbEntity
  8
93773508000_BL0
100
AcDbLine
 62
7
  6
CONTINUOUS
 10
176.6301174019
 20
43.7542148586
 11
176.6301174019
 21
51.7542148586
  0
LINE
  5
2A6
100
AcDbEntity
  8
93773508000_BL0
100
AcDbLine
 62
9
  6
CONTINUOUS
 10
179.1301174019
 20
48.2542148586
 11
179.1301174019
 21
51.7542148586
  0
LINE
  5
2A7
100
AcDbEntity
  8
93773508000_BL0
100
AcDbLine
 62
7
  6
CENTER
 10
188.6301174019
 20
63.7542148586
 11
188.6301174019
 21
54.7542148586
  0
LINE
  5
2A8
100
AcDbEntity
  8
93773508000_BL0
100
AcDbLine
 62
7
  6
CENTER
 10
188.6301174019
 20
63.7542148586
 11
188.6301174019
 21
72.7542148586
  0
LINE
  5
2A9
100
AcDbEntity
  8
93773508000_BL0
100
AcDbLine
 62
9
  6
CONTINUOUS
 10
198.1301174019
 20
48.2542148586
 11
198.1301174019
 21
51.7542148586
  0
LINE
  5
2AA
100
AcDbEntity
  8
93773508000_BL0
100
AcDbLine
 62
7
  6
CONTINUOUS
 10
200.6301174019
 20
43.7542148586
 11
200.6301174019
 21
51.7542148586
  0
LINE
  5
2AB
100
AcDbEntity
  8
93773508000_BL0
100
AcDbLine
 62
7
  6
CONTINUOUS
 10
99.5133956778
 20
43.7542148586
 11
101.0133956778
 21
43.7542148586
  0
LINE
  5
2AC
100
AcDbEntity
  8
93773508000_BL0
100
AcDbLine
 62
7
  6
CONTINUOUS
 10
95.0133956778
 20
51.7542148586
 11
101.0133956778
 21
51.7542148586
  0
LINE
  5
2AD
100
AcDbEntity
  8
93773508000_BL0
100
AcDbLine
 62
7
  6
CENTER
 10
94.1133956778
 20
63.7542148586
 11
101.8906896702
 21
63.7542148586
  0
LINE
  5
2AE
100
AcDbEntity
  8
93773508000_BL0
100
AcDbLine
 62
7
  6
CONTINUOUS
 10
95.0133956778
 20
48.2542148586
 11
95.0133956778
 21
51.7542148586
  0
LINE
  5
2AF
100
AcDbEntity
  8
93773508000_BL0
100
AcDbLine
 62
7
  6
CONTINUOUS
 10
95.0133956778
 20
48.2542148586
 11
95.0133956778
 21
51.7542148586
  0
LINE
  5
2B0
100
AcDbEntity
  8
93773508000_BL0
100
AcDbLine
 62
9
  6
CONTINUOUS
 10
97.5133956778
 20
44.2230859844
 11
97.5133956778
 21
51.7542148586
  0
LINE
  5
2B1
100
AcDbEntity
  8
93773508000_BL0
100
AcDbLine
 62
7
  6
CONTINUOUS
 10
101.0133956778
 20
43.7542148586
 11
101.0133956778
 21
51.7542148586
  0
LINE
  5
2B2
100
AcDbEntity
  8
93773508000_BL0
100
AcDbLine
 62
7
  6
CONTINUOUS
 10
176.6301174019
 20
20.9050009566
 11
176.6301174019
 21
20.4050009566
  0
LINE
  5
2B3
100
AcDbEntity
  8
93773508000_BL0
100
AcDbLine
 62
7
  6
CONTINUOUS
 10
179.5301174019
 20
20.5050009566
 11
179.5301174019
 21
23.9050009566
  0
LINE
  5
2B4
100
AcDbEntity
  8
93773508000_BL0
100
AcDbLine
 62
7
  6
CONTINUOUS
 10
178.6301174019
 20
21.4050009566
 11
180.0301174019
 21
20.0050009566
  0
LINE
  5
2B5
100
AcDbEntity
  8
93773508000_BL0
100
AcDbLine
 62
7
  6
CONTINUOUS
 10
179.1301174019
 20
17.9050009566
 11
179.6301174019
 21
17.9050009566
  0
LINE
  5
2B6
100
AcDbEntity
  8
93773508000_BL0
100
AcDbLine
 62
7
  6
CONTINUOUS
 10
180.9287582848
 20
20.0050009566
 11
180.0301174019
 21
20.0050009566
  0
LINE
  5
2B7
100
AcDbEntity
  8
93773508000_BL0
100
AcDbLine
 62
7
  6
CONTINUOUS
 10
178.6301174019
 20
23.9050009566
 11
180.6301174019
 21
23.9050009566
  0
LINE
  5
2B8
100
AcDbEntity
  8
93773508000_BL0
100
AcDbLine
 62
7
  6
CONTINUOUS
 10
200.6301174019
 20
20.4050009566
 11
200.6301174019
 21
20.9050009566
  0
ARC
  5
2B9
100
AcDbEntity
  8
93773508000_BL0
100
AcDbCircle
 62
7
  6
CONTINUOUS
 10
99.5133956778
 20
48.2542148586
 40
4.5
100
AcDbArc
 50
180.0
 51
270.0
  0
ARC
  5
2BA
100
AcDbEntity
  8
93773508000_BL0
100
AcDbCircle
 62
7
  6
CONTINUOUS
 10
198.1301174019
 20
20.4050009566
 40
2.5
100
AcDbArc
 50
281.5828161353
 51
360.0
  0
ARC
  5
2BB
100
AcDbEntity
  8
93773508000_BL0
100
AcDbCircle
 62
7
  6
CONTINUOUS
 10
179.1301174019
 20
20.4050009566
 40
2.5
100
AcDbArc
 50
180.0
 51
270.0
  0
SPLINE
  5
2BC
100
AcDbEntity
  8
93773508000_BL0
100
AcDbSpline
 62
7
  6
CONTINUOUS
 70
0
 71
3
 72
15
 73
11
 74
0
 42
0.0000001
 43
0.0000001
 44
0.0000000001
 40
0.0
 40
0.0
 40
0.0
 40
0.0
 40
0.2949059487
 40
0.4382402744
 40
0.5760880077
 40
0.7055877919
 40
0.8228100893
 40
0.9225680099
 40
0.9642475189
 40
1.0
 40
1.0
 40
1.0
 40
1.0
 10
198.1301174019
 20
48.2542148586
 30
0.0
 10
198.4108876271
 20
47.8775220728
 30
0.0
 10
198.8283038278
 20
47.3178605369
 30
0.0
 10
199.365947636
 20
46.5740068277
 30
0.0
 10
199.7398368505
 20
46.037081101
 30
0.0
 10
200.0754756744
 20
45.5242398828
 30
0.0
 10
200.3544340118
 20
45.0479275071
 30
0.0
 10
200.5321071894
 20
44.6741901917
 30
0.0
 10
200.6134807489
 20
44.4033470852
 30
0.0
 10
200.6301174019
 20
44.2800437206
 30
0.0
 10
200.6301174019
 20
44.2230859844
 30
0.0
  0
SPLINE
  5
2BD
100
AcDbEntity
  8
93773508000_BL0
100
AcDbSpline
 62
7
  6
CONTINUOUS
 70
0
 71
3
 72
15
 73
11
 74
0
 42
0.0000001
 43
0.0000001
 44
0.0000000001
 40
0.0
 40
0.0
 40
0.0
 40
0.0
 40
0.035754175
 40
0.0774524355
 40
0.1772379426
 40
0.2944879652
 40
0.4240003305
 40
0.5618483148
 40
0.7051632096
 40
1.0
 40
1.0
 40
1.0
 40
1.0
 10
176.6301174019
 20
44.2230859844
 30
0.0
 10
176.6301174019
 20
44.280046432
 30
0.0
 10
176.6467821541
 20
44.4033785798
 30
0.0
 10
176.7281302378
 20
44.67430756
 30
0.0
 10
176.905915864
 20
45.0481302015
 30
0.0
 10
177.184925892
 20
45.5245327302
 30
0.0
 10
177.5206189394
 20
46.0374177362
 30
0.0
 10
177.8945084069
 20
46.5743299794
 30
0.0
 10
178.4320804066
 20
47.3180624259
 30
0.0
 10
178.849412956
 20
47.8776103251
 30
0.0
 10
179.1301174019
 20
48.2542148586
 30
0.0
  0
ENDBLK
  5
2BE
100
AcDbEntity
  8
0
  6
BYBLOCK
 62
0
100
AcDbBlockEnd
  0
BLOCK
  5
2BF
100
AcDbEntity
  8
94862601R00_BL1
100
AcDbBlockBegin
  2
94862601R00_BL1
 70
64
 10
146.3217565398
 20
143.0796079076
  3
94862601R00_BL1
  1

  0
LINE
  5
2C0
100
AcDbEntity
  8
94862601R00_BL1
100
AcDbLine
 62
7
  6
CONTINUOUS
 10
198.1301174019
 20
51.7542148586
 11
179.1301174019
 21
51.7542148586
  0
LINE
  5
2C1
100
AcDbEntity
  8
94862601R00_BL1
100
AcDbLine
 62
7
  6
CONTINUOUS
 10
184.0051174019
 20
75.7542148586
 11
193.2551174019
 21
75.7542148586
  0
LINE
  5
2C2
100
AcDbEntity
  8
94862601R00_BL1
100
AcDbLine
 62
7
  6
CENTER
 10
188.6301174019
 20
106.7542148586
 11
178.4432827687
 21
106.7542148586
  0
LINE
  5
2C3
100
AcDbEntity
  8
94862601R00_BL1
100
AcDbLine
 62
7
  6
CENTER
 10
188.6301174019
 20
106.7542148586
 11
198.8265694483
 21
106.7542148586
  0
LINE
  5
2C4
100
AcDbEntity
  8
94862601R00_BL1
100
AcDbLine
 62
7
  6
CONTINUOUS
 10
193.2551174019
 20
137.7542148586
 11
184.0051174019
 21
137.7542148586
  0
LINE
  5
2C5
100
AcDbEntity
  8
94862601R00_BL1
100
AcDbLine
 62
7
  6
CONTINUOUS
 10
176.6301174019
 20
268.2542148586
 11
176.6301174019
 21
221.9042148586
  0
LINE
  5
2C6
100
AcDbEntity
  8
94862601R00_BL1
100
AcDbLine
 62
7
  6
CONTINUOUS
 10
176.6301174019
 20
173.6042148586
 11
176.6301174019
 21
51.7542148586
  0
LINE
  5
2C7
100
AcDbEntity
  8
94862601R00_BL1
100
AcDbLine
 62
7
  6
CONTINUOUS
 10
184.6301174019
 20
173.6042148586
 11
186.7801174019
 21
175.7542148586
  0
LINE
  5
2C8
100
AcDbEntity
  8
94862601R00_BL1
100
AcDbLine
 62
9
  6
CONTINUOUS
 10
179.6301174019
 20
268.2542148586
 11
179.6301174019
 21
221.9042148586
  0
LINE
  5
2C9
100
AcDbEntity
  8
94862601R00_BL1
100
AcDbLine
 62
9
  6
CONTINUOUS
 10
179.6301174019
 20
173.6042148586
 11
179.6301174019
 21
51.7542148586
  0
LINE
  5
2CA
100
AcDbEntity
  8
94862601R00_BL1
100
AcDbLine
 62
7
  6
CONTINUOUS
 10
182.5051174019
 20
136.2542148586
 11
182.5051174019
 21
77.2542148586
  0
LINE
  5
2CB
100
AcDbEntity
  8
94862601R00_BL1
100
AcDbLine
 62
7
  6
CENTER
 10
188.6301174019
 20
154.7542148586
 11
180.2301174019
 21
154.7542148586
  0
LINE
  5
2CC
100
AcDbEntity
  8
94862601R00_BL1
100
AcDbLine
 62
7
  6
CENTER
 10
188.6301174019
 20
154.7542148586
 11
197.0301174019
 21
154.7542148586
  0
LINE
  5
2CD
100
AcDbEntity
  8
94862601R00_BL1
100
AcDbLine
 62
7
  6
CENTER
 10
188.6301174019
 20
154.7542148586
 11
188.6301174019
 21
146.3542148586
  0
LINE
  5
2CE
100
AcDbEntity
  8
94862601R00_BL1
100
AcDbLine
 62
7
  6
CENTER
 10
188.6301174019
 20
106.7542148586
 11
188.6301174019
 21
74.3747597292
  0
LINE
  5
2CF
100
AcDbEntity
  8
94862601R00_BL1
100
AcDbLine
 62
7
  6
CENTER
 10
188.6301174019
 20
106.7542148586
 11
188.6301174019
 21
139.7636218651
  0
LINE
  5
2D0
100
AcDbEntity
  8
94862601R00_BL1
100
AcDbLine
 62
7
  6
CENTER
 10
188.6301174019
 20
154.7542148586
 11
188.6301174019
 21
163.1542148586
  0
LINE
  5
2D1
100
AcDbEntity
  8
94862601R00_BL1
100
AcDbLine
 62
7
  6
CONTINUOUS
 10
194.7551174019
 20
77.2542148586
 11
194.7551174019
 21
136.2542148586
  0
LINE
  5
2D2
100
AcDbEntity
  8
94862601R00_BL1
100
AcDbLine
 62
9
  6
CONTINUOUS
 10
197.6301174019
 20
268.2542148586
 11
197.6301174019
 21
219.7542148586
  0
LINE
  5
2D3
100
AcDbEntity
  8
94862601R00_BL1
100
AcDbLine
 62
9
  6
CONTINUOUS
 10
197.6301174019
 20
175.7542148586
 11
197.6301174019
 21
51.7542148586
  0
LINE
  5
2D4
100
AcDbEntity
  8
94862601R00_BL1
100
AcDbLine
 62
7
  6
CONTINUOUS
 10
198.6301174019
 20
219.7542148586
 11
198.6301174019
 21
217.9892148586
  0
LINE
  5
2D5
100
AcDbEntity
  8
94862601R00_BL1
100
AcDbLine
 62
7
  6
CONTINUOUS
 10
198.6301174019
 20
177.7892148586
 11
198.6301174019
 21
175.7542148586
  0
LINE
  5
2D6
100
AcDbEntity
  8
94862601R00_BL1
100
AcDbLine
 62
7
  6
CONTINUOUS
 10
200.6301174019
 20
268.2542148586
 11
200.6301174019
 21
51.7542148586
  0
LINE
  5
2D7
100
AcDbEntity
  8
94862601R00_BL1
100
AcDbLine
 62
7
  6
CONTINUOUS
 10
176.6301174019
 20
173.6042148586
 11
184.6301174019
 21
173.6042148586
  0
LINE
  5
2D8
100
AcDbEntity
  8
94862601R00_BL1
100
AcDbLine
 62
7
  6
CONTINUOUS
 10
198.6301174019
 20
175.7542148586
 11
186.7801174019
 21
175.7542148586
  0
LINE
  5
2D9
100
AcDbEntity
  8
94862601R00_BL1
100
AcDbLine
 62
7
  6
CONTINUOUS
 10
186.7801174019
 20
219.7542148586
 11
184.6301174019
 21
221.9042148586
  0
LINE
  5
2DA
100
AcDbEntity
  8
94862601R00_BL1
100
AcDbLine
 62
7
  6
CONTINUOUS
 10
198.6301174019
 20
219.7542148586
 11
186.7801174019
 21
219.7542148586
  0
LINE
  5
2DB
100
AcDbEntity
  8
94862601R00_BL1
100
AcDbLine
 62
7
  6
CONTINUOUS
 10
176.6301174019
 20
221.9042148586
 11
184.6301174019
 21
221.9042148586
  0
LINE
  5
2DC
100
AcDbEntity
  8
94862601R00_BL1
100
AcDbLine
 62
7
  6
CONTINUOUS
 10
198.1301174019
 20
268.2542148586
 11
179.1301174019
 21
268.2542148586
  0
LINE
  5
2DD
100
AcDbEntity
  8
94862601R00_BL1
100
AcDbLine
 62
7
  6
CONTINUOUS
 10
101.0133956778
 20
51.7542148586
 11
97.5133956778
 21
51.7542148586
  0
LINE
  5
2DE
100
AcDbEntity
  8
94862601R00_BL1
100
AcDbLine
 62
7
  6
CENTER
 10
104.0133956778
 20
106.7542148586
 11
92.0133956778
 21
106.7542148586
  0
LINE
  5
2DF
100
AcDbEntity
  8
94862601R00_BL1
100
AcDbLine
 62
7
  6
CONTINUOUS
 10
95.0133956778
 20
268.2542148586
 11
95.0133956778
 21
219.7542148586
  0
LINE
  5
2E0
100
AcDbEntity
  8
94862601R00_BL1
100
AcDbLine
 62
7
  6
CONTINUOUS
 10
95.0133956778
 20
175.7542148586
 11
95.0133956778
 21
51.7542148586
  0
LINE
  5
2E1
100
AcDbEntity
  8
94862601R00_BL1
100
AcDbLine
 62
7
  6
CONTINUOUS
 10
95.1849685531
 20
219.7542148586
 11
95.1849685531
 21
175.7542148586
  0
LINE
  5
2E2
100
AcDbEntity
  8
94862601R00_BL1
100
AcDbLine
 62
9
  6
CONTINUOUS
 10
98.0133956778
 20
268.2542148586
 11
98.0133956778
 21
51.7542148586
  0
LINE
  5
2E3
100
AcDbEntity
  8
94862601R00_BL1
100
AcDbLine
 62
7
  6
CENTER
 10
102.0133956778
 20
154.7542148586
 11
94.0133956778
 21
154.7542148586
  0
LINE
  5
2E4
100
AcDbEntity
  8
94862601R00_BL1
100
AcDbLine
 62
7
  6
CONTINUOUS
 10
101.0133956778
 20
268.2542148586
 11
101.0133956778
 21
51.7542148586
  0
LINE
  5
2E5
100
AcDbEntity
  8
94862601R00_BL1
100
AcDbLine
 62
7
  6
CONTINUOUS
 10
95.1849685531
 20
175.7542148586
 11
95.0133956778
 21
175.7542148586
  0
LINE
  5
2E6
100
AcDbEntity
  8
94862601R00_BL1
100
AcDbLine
 62
7
  6
CONTINUOUS
 10
95.1849685531
 20
219.7542148586
 11
95.0133956778
 21
219.7542148586
  0
LINE
  5
2E7
100
AcDbEntity
  8
94862601R00_BL1
100
AcDbLine
 62
7
  6
CONTINUOUS
 10
101.0133956778
 20
268.2542148586
 11
97.5133956778
 21
268.2542148586
  0
LINE
  5
2E8
100
AcDbEntity
  8
94862601R00_BL1
100
AcDbLine
 62
7
  6
CONTINUOUS
 10
176.6301174019
 20
20.9050009566
 11
176.6301174019
 21
23.9050009566
  0
LINE
  5
2E9
100
AcDbEntity
  8
94862601R00_BL1
100
AcDbLine
 62
7
  6
CONTINUOUS
 10
178.6301174019
 20
23.9050009566
 11
178.6301174019
 21
20.4050009566
  0
LINE
  5
2EA
100
AcDbEntity
  8
94862601R00_BL1
100
AcDbLine
 62
7
  6
CONTINUOUS
 10
197.6301174019
 20
17.9050009566
 11
179.6301174019
 21
17.9050009566
  0
LINE
  5
2EB
100
AcDbEntity
  8
94862601R00_BL1
100
AcDbLine
 62
7
  6
CONTINUOUS
 10
179.1301174019
 20
19.9050009566
 11
198.1301174019
 21
19.9050009566
  0
LINE
  5
2EC
100
AcDbEntity
  8
94862601R00_BL1
100
AcDbLine
 62
7
  6
CONTINUOUS
 10
176.6301174019
 20
23.9050009566
 11
178.6301174019
 21
23.9050009566
  0
LINE
  5
2ED
100
AcDbEntity
  8
94862601R00_BL1
100
AcDbLine
 62
7
  6
CONTINUOUS
 10
198.6301174019
 20
23.9050009566
 11
200.6301174019
 21
23.9050009566
  0
LINE
  5
2EE
100
AcDbEntity
  8
94862601R00_BL1
100
AcDbLine
 62
7
  6
CONTINUOUS
 10
198.6301174019
 20
20.4050009566
 11
198.6301174019
 21
23.9050009566
  0
LINE
  5
2EF
100
AcDbEntity
  8
94862601R00_BL1
100
AcDbLine
 62
7
  6
CONTINUOUS
 10
200.6301174019
 20
23.9050009566
 11
200.6301174019
 21
20.9050009566
  0
CIRCLE
  5
2F0
100
AcDbEntity
  8
94862601R00_BL1
100
AcDbCircle
 62
7
  6
CONTINUOUS
 10
188.6301174019
 20
63.7542148586
 40
4.15
  0
CIRCLE
  5
2F1
100
AcDbEntity
  8
94862601R00_BL1
100
AcDbCircle
 62
7
  6
CONTINUOUS
 10
188.6301174019
 20
63.7542148586
 40
2.6
  0
ARC
  5
2F2
100
AcDbEntity
  8
94862601R00_BL1
100
AcDbCircle
 62
7
  6
CONTINUOUS
 10
184.0051174019
 20
77.2542148586
 40
1.5
100
AcDbArc
 50
180.0
 51
270.0
  0
CIRCLE
  5
2F3
100
AcDbEntity
  8
94862601R00_BL1
100
AcDbCircle
 62
7
  6
CONTINUOUS
 10
188.6301174019
 20
154.7542148586
 40
4.15
  0
CIRCLE
  5
2F4
100
AcDbEntity
  8
94862601R00_BL1
100
AcDbCircle
 62
7
  6
CONTINUOUS
 10
190.6301174019
 20
171.5042148586
 40
3.9
  0
ARC
  5
2F5
100
AcDbEntity
  8
94862601R00_BL1
100
AcDbCircle
 62
7
  6
CONTINUOUS
 10
187.7341321165
 20
176.5202085109
 40
2.7919705708
100
AcDbArc
 50
271.375153525
 51
328.624846475
  0
ARC
  5
2F6
100
AcDbEntity
  8
94862601R00_BL1
100
AcDbCircle
 62
7
  6
CONTINUOUS
 10
184.8381468311
 20
171.5042148586
 40
2.7919705708
100
AcDbArc
 50
331.375153525
 51
28.624846475
  0
ARC
  5
2F7
100
AcDbEntity
  8
94862601R00_BL1
100
AcDbCircle
 62
7
  6
CONTINUOUS
 10
187.7341321165
 20
166.4882212063
 40
2.7919705708
100
AcDbArc
 50
31.375153525
 51
88.624846475
  0
CIRCLE
  5
2F8
100
AcDbEntity
  8
94862601R00_BL1
100
AcDbCircle
 62
7
  6
CONTINUOUS
 10
188.6301174019
 20
154.7542148586
 40
2.6
  0
ARC
  5
2F9
100
AcDbEntity
  8
94862601R00_BL1
100
AcDbCircle
 62
7
  6
CONTINUOUS
 10
184.0051174019
 20
136.2542148586
 40
1.5
100
AcDbArc
 50
90.0
 51
180.0
  0
ARC
  5
2FA
100
AcDbEntity
  8
94862601R00_BL1
100
AcDbCircle
 62
7
  6
CONTINUOUS
 10
187.8155348396
 20
173.1292148586
 40
0.6
100
AcDbArc
 50
91.375153525
 51
208.624846475
  0
ARC
  5
2FB
100
AcDbEntity
  8
94862601R00_BL1
100
AcDbCircle
 62
7
  6
CONTINUOUS
 10
190.6301174019
 20
174.7542148586
 40
0.6
100
AcDbArc
 50
31.375153525
 51
148.624846475
  0
ARC
  5
2FC
100
AcDbEntity
  8
94862601R00_BL1
100
AcDbCircle
 62
7
  6
CONTINUOUS
 10
187.8155348396
 20
169.8792148586
 40
0.6
100
AcDbArc
 50
151.375153525
 51
268.624846475
  0
ARC
  5
2FD
100
AcDbEntity
  8
94862601R00_BL1
100
AcDbCircle
 62
7
  6
CONTINUOUS
 10
190.6301174019
 20
168.2542148586
 40
0.6
100
AcDbArc
 50
211.375153525
 51
328.624846475
  0
ARC
  5
2FE
100
AcDbEntity
  8
94862601R00_BL1
100
AcDbCircle
 62
7
  6
CONTINUOUS
 10
193.2551174019
 20
77.2542148586
 40
1.5
100
AcDbArc
 50
270.0
 51
360.0
  0
ARC
  5
2FF
100
AcDbEntity
  8
94862601R00_BL1
100
AcDbCircle
 62
7
  6
CONTINUOUS
 10
193.2551174019
 20
136.2542148586
 40
1.5
100
AcDbArc
 50
0.0
 51
90.0
  0
ARC
  5
300
100
AcDbEntity
  8
94862601R00_BL1
100
AcDbCircle
 62
7
  6
CONTINUOUS
 10
193.5261026873
 20
176.5202085109
 40
2.7919705708
100
AcDbArc
 50
211.375153525
 51
268.624846475
  0
ARC
  5
301
100
AcDbEntity
  8
94862601R00_BL1
100
AcDbCircle
 62
7
  6
CONTINUOUS
 10
193.5261026873
 20
166.4882212063
 40
2.7919705708
100
AcDbArc
 50
91.375153525
 51
148.624846475
  0
ARC
  5
302
100
AcDbEntity
  8
94862601R00_BL1
100
AcDbCircle
 62
7
  6
CONTINUOUS
 10
193.4446999642
 20
173.1292148586
 40
0.6
100
AcDbArc
 50
331.375153525
 51
88.624846475
  0
ARC
  5
303
100
AcDbEntity
  8
94862601R00_BL1
100
AcDbCircle
 62
7
  6
CONTINUOUS
 10
193.4446999642
 20
169.8792148586
 40
0.6
100
AcDbArc
 50
271.375153525
 51
28.624846475
  0
ARC
  5
304
100
AcDbEntity
  8
94862601R00_BL1
100
AcDbCircle
 62
7
  6
CONTINUOUS
 10
196.4220879726
 20
171.5042148586
 40
2.7919705708
100
AcDbArc
 50
151.375153525
 51
208.624846475
  0
ARC
  5
305
100
AcDbEntity
  8
94862601R00_BL1
100
AcDbCircle
 62
7
  6
CONTINUOUS
 10
187.8155348396
 20
222.3792148586
 40
0.6
100
AcDbArc
 50
172.2213108203
 51
249.4668721243
  0
ARC
  5
306
100
AcDbEntity
  8
94862601R00_BL1
100
AcDbCircle
 62
7
  6
CONTINUOUS
 10
187.8155348396
 20
225.6292148586
 40
0.6
100
AcDbArc
 50
110.5378211489
 51
187.8756557814
  0
ARC
  5
307
100
AcDbEntity
  8
94862601R00_BL1
100
AcDbCircle
 62
7
  6
CONTINUOUS
 10
190.6301174019
 20
220.7542148586
 40
0.6
100
AcDbArc
 50
229.3102853808
 51
310.6446941035
  0
CIRCLE
  5
308
100
AcDbEntity
  8
94862601R00_BL1
100
AcDbCircle
 62
7
  6
CONTINUOUS
 10
190.6301174019
 20
224.0042148586
 40
3.9
  0
ARC
  5
309
100
AcDbEntity
  8
94862601R00_BL1
100
AcDbCircle
 62
7
  6
CONTINUOUS
 10
190.6301174019
 20
227.2542148586
 40
0.6
100
AcDbArc
 50
49.3102853808
 51
130.6446941035
  0
CIRCLE
  5
30A
100
AcDbEntity
  8
94862601R00_BL1
100
AcDbCircle
 62
7
  6
CONTINUOUS
 10
188.6301174019
 20
256.2542148586
 40
4.15
  0
CIRCLE
  5
30B
100
AcDbEntity
  8
94862601R00_BL1
100
AcDbCircle
 62
7
  6
CONTINUOUS
 10
188.6301174019
 20
256.2542148586
 40
2.6
  0
ARC
  5
30C
100
AcDbEntity
  8
94862601R00_BL1
100
AcDbCircle
 62
7
  6
CONTINUOUS
 10
193.4446999642
 20
225.6292148586
 40
0.6
100
AcDbArc
 50
352.2213108203
 51
69.4668721243
  0
ARC
  5
30D
100
AcDbEntity
  8
94862601R00_BL1
100
AcDbCircle
 62
7
  6
CONTINUOUS
 10
193.4446999642
 20
222.3792148586
 40
0.6
100
AcDbArc
 50
290.5378211489
 51
7.8756557814
  0
ARC
  5
30E
100
AcDbEntity
  8
94862601R00_BL1
100
AcDbCircle
 62
7
  6
CONTINUOUS
 10
179.6301174019
 20
20.9050009566
 40
3.0
100
AcDbArc
 50
180.0
 51
270.0
  0
ARC
  5
30F
100
AcDbEntity
  8
94862601R00_BL1
100
AcDbCircle
 62
7
  6
CONTINUOUS
 10
197.6301174019
 20
20.9050009566
 40
3.0
100
AcDbArc
 50
270.0
 51
360.0
  0
ARC
  5
310
100
AcDbEntity
  8
94862601R00_BL1
100
AcDbCircle
 62
7
  6
CONTINUOUS
 10
179.1301174019
 20
20.4050009566
 40
0.5
100
AcDbArc
 50
180.0
 51
270.0
  0
ARC
  5
311
100
AcDbEntity
  8
94862601R00_BL1
100
AcDbCircle
 62
7
  6
CONTINUOUS
 10
198.1301174019
 20
20.4050009566
 40
0.5
100
AcDbArc
 50
270.0
 51
360.0
  0
ENDBLK
  5
312
100
AcDbEntity
  8
0
  6
BYBLOCK
 62
0
100
AcDbBlockEnd
  0
BLOCK
  5
313
100
AcDbEntity
  8
93780800R00_BL2
100
AcDbBlockBegin
  2
93780800R00_BL2
 70
64
 10
192.6301174019
 20
213.3892148586
  3
93780800R00_BL2
  1

  0
LINE
  5
314
100
AcDbEntity
  8
93780800R00_BL2
100
AcDbLine
 62
7
  6
CONTINUOUS
 10
192.6301174019
 20
214.1454571787
 11
192.7212715193
 21
214.180447966
  0
LINE
  5
315
100
AcDbEntity
  8
93780800R00_BL2
100
AcDbLine
 62
7
  6
CONTINUOUS
 10
192.6301174019
 20
212.6329725385
 11
192.5389632845
 21
212.5979817512
  0
LINE
  5
316
100
AcDbEntity
  8
93780800R00_BL2
100
AcDbLine
 62
7
  6
CONTINUOUS
 10
191.8388842944
 20
213.480368976
 11
192.0578396505
 21
213.6198589218
  0
LINE
  5
317
100
AcDbEntity
  8
93780800R00_BL2
100
AcDbLine
 62
7
  6
CONTINUOUS
 10
193.4213505093
 20
213.2980607412
 11
193.2023951532
 21
213.1585707954
  0
LINE
  5
318
100
AcDbEntity
  8
93780800R00_BL2
100
AcDbLine
 62
7
  6
CONTINUOUS
 10
190.9417328911
 20
212.369033267
 11
191.8388842944
 21
213.2980607412
  0
LINE
  5
319
100
AcDbEntity
  8
93780800R00_BL2
100
AcDbLine
 62
7
  6
CONTINUOUS
 10
194.3185019126
 20
214.4093964502
 11
193.4213505093
 21
213.480368976
  0
LINE
  5
31A
100
AcDbEntity
  8
93780800R00_BL2
100
AcDbLine
 62
7
  6
CONTINUOUS
 10
192.7212715193
 20
214.180447966
 11
193.6502989934
 21
215.0775993693
  0
LINE
  5
31B
100
AcDbEntity
  8
93780800R00_BL2
100
AcDbLine
 62
7
  6
CONTINUOUS
 10
192.5389632845
 20
212.5979817512
 11
191.6099358103
 21
211.7008303479
  0
LINE
  5
31C
100
AcDbEntity
  8
93780800R00_BL2
100
AcDbLine
 62
7
  6
CONTINUOUS
 10
192.5389632845
 20
214.180447966
 11
192.3994733386
 21
213.9614926099
  0
LINE
  5
31D
100
AcDbEntity
  8
93780800R00_BL2
100
AcDbLine
 62
7
  6
CONTINUOUS
 10
192.7212715193
 20
212.5979817512
 11
192.8607614651
 21
212.8169371073
  0
LINE
  5
31E
100
AcDbEntity
  8
93780800R00_BL2
100
AcDbLine
 62
7
  6
CONTINUOUS
 10
191.8388842944
 20
213.2980607412
 11
191.8738750817
 21
213.3892148586
  0
LINE
  5
31F
100
AcDbEntity
  8
93780800R00_BL2
100
AcDbLine
 62
7
  6
CONTINUOUS
 10
193.4213505093
 20
213.480368976
 11
193.386359722
 21
213.3892148586
  0
LINE
  5
320
100
AcDbEntity
  8
93780800R00_BL2
100
AcDbLine
 62
7
  6
CONTINUOUS
 10
192.6301174019
 20
214.1454571787
 11
192.6301174019
 21
213.8629365954
  0
LINE
  5
321
100
AcDbEntity
  8
93780800R00_BL2
100
AcDbLine
 62
7
  6
CONTINUOUS
 10
192.6301174019
 20
212.6329725385
 11
192.6301174019
 21
212.9154931218
  0
LINE
  5
322
100
AcDbEntity
  8
93780800R00_BL2
100
AcDbLine
 62
7
  6
CONTINUOUS
 10
191.8738750817
 20
213.3892148586
 11
191.8388842944
 21
213.480368976
  0
LINE
  5
323
100
AcDbEntity
  8
93780800R00_BL2
100
AcDbLine
 62
7
  6
CONTINUOUS
 10
193.386359722
 20
213.3892148586
 11
193.4213505093
 21
213.2980607412
  0
LINE
  5
324
100
AcDbEntity
  8
93780800R00_BL2
100
AcDbLine
 62
7
  6
CONTINUOUS
 10
192.5389632845
 20
212.5979817512
 11
192.3994733386
 21
212.8169371073
  0
LINE
  5
325
100
AcDbEntity
  8
93780800R00_BL2
100
AcDbLine
 62
7
  6
CONTINUOUS
 10
192.7212715193
 20
214.180447966
 11
192.8607614651
 21
213.9614926099
  0
LINE
  5
326
100
AcDbEntity
  8
93780800R00_BL2
100
AcDbLine
 62
7
  6
CONTINUOUS
 10
193.6502989934
 20
211.7008303479
 11
192.7212715193
 21
212.5979817512
  0
LINE
  5
327
100
AcDbEntity
  8
93780800R00_BL2
100
AcDbLine
 62
7
  6
CONTINUOUS
 10
191.6099358103
 20
215.0775993693
 11
192.5389632845
 21
214.180447966
  0
LINE
  5
328
100
AcDbEntity
  8
93780800R00_BL2
100
AcDbLine
 62
7
  6
CONTINUOUS
 10
191.8388842944
 20
213.480368976
 11
190.9417328911
 21
214.4093964502
  0
LINE
  5
329
100
AcDbEntity
  8
93780800R00_BL2
100
AcDbLine
 62
7
  6
CONTINUOUS
 10
193.4213505093
 20
213.2980607412
 11
194.3185019126
 21
212.369033267
  0
LINE
  5
32A
100
AcDbEntity
  8
93780800R00_BL2
100
AcDbLine
 62
7
  6
CONTINUOUS
 10
193.386359722
 20
213.3892148586
 11
193.1038391387
 21
213.3892148586
  0
LINE
  5
32B
100
AcDbEntity
  8
93780800R00_BL2
100
AcDbLine
 62
7
  6
CONTINUOUS
 10
191.8738750817
 20
213.3892148586
 11
192.1563956651
 21
213.3892148586
  0
LINE
  5
32C
100
AcDbEntity
  8
93780800R00_BL2
100
AcDbLine
 62
7
  6
CONTINUOUS
 10
192.7212715193
 20
212.5979817512
 11
192.6301174019
 21
212.6329725385
  0
LINE
  5
32D
100
AcDbEntity
  8
93780800R00_BL2
100
AcDbLine
 62
7
  6
CONTINUOUS
 10
192.5389632845
 20
214.180447966
 11
192.6301174019
 21
214.1454571787
  0
LINE
  5
32E
100
AcDbEntity
  8
93780800R00_BL2
100
AcDbLine
 62
7
  6
CONTINUOUS
 10
191.8388842944
 20
213.2980607412
 11
192.0578396505
 21
213.1585707954
  0
LINE
  5
32F
100
AcDbEntity
  8
93780800R00_BL2
100
AcDbLine
 62
7
  6
CONTINUOUS
 10
193.4213505093
 20
213.480368976
 11
193.2023951532
 21
213.6198589218
  0
ARC
  5
330
100
AcDbEntity
  8
93780800R00_BL2
100
AcDbCircle
 62
7
  6
CONTINUOUS
 10
33.2008511601
 20
-41.4846537549
 40
300.5261570477
100
AcDbArc
 50
58.0925201906
 51
58.2631633589
  0
ARC
  5
331
100
AcDbEntity
  8
93780800R00_BL2
100
AcDbCircle
 62
7
  6
CONTINUOUS
 10
-62.2437511877
 20
372.8184810855
 40
300.5261570196
100
AcDbArc
 50
328.0925201906
 51
328.2631633589
  0
CIRCLE
  5
332
100
AcDbEntity
  8
93780800R00_BL2
100
AcDbCircle
 62
7
  6
CONTINUOUS
 10
192.6301174019
 20
213.3892148586
 40
2.85
  0
ARC
  5
333
100
AcDbEntity
  8
93780800R00_BL2
100
AcDbCircle
 62
9
  6
CONTINUOUS
 10
192.6301174019
 20
213.3892148586
 40
1.9726664026
100
AcDbArc
 50
301.1528667687
 51
328.8529794039
  0
ARC
  5
334
100
AcDbEntity
  8
93780800R00_BL2
100
AcDbCircle
 62
9
  6
CONTINUOUS
 10
192.6301174019
 20
213.3892148586
 40
1.9726664026
100
AcDbArc
 50
211.14168669
 51
238.8742098283
  0
ARC
  5
335
100
AcDbEntity
  8
93780800R00_BL2
100
AcDbCircle
 62
9
  6
CONTINUOUS
 10
192.6301174019
 20
213.3892148586
 40
1.9726664026
100
AcDbArc
 50
121.1402786404
 51
148.8739772222
  0
ARC
  5
336
100
AcDbEntity
  8
93780800R00_BL2
100
AcDbCircle
 62
9
  6
CONTINUOUS
 10
192.6301174019
 20
213.3892148586
 40
1.9726664026
100
AcDbArc
 50
31.1234299516
 51
58.8466423422
  0
ARC
  5
337
100
AcDbEntity
  8
93780800R00_BL2
100
AcDbCircle
 62
9
  6
CONTINUOUS
 10
192.6301174019
 20
213.3892148586
 40
1.5251992218
100
AcDbArc
 50
297.9789520644
 51
332.0210479356
  0
ARC
  5
338
100
AcDbEntity
  8
93780800R00_BL2
100
AcDbCircle
 62
9
  6
CONTINUOUS
 10
192.6301174019
 20
213.3892148586
 40
1.5251992218
100
AcDbArc
 50
207.9789520644
 51
242.0210479356
  0
ARC
  5
339
100
AcDbEntity
  8
93780800R00_BL2
100
AcDbCircle
 62
9
  6
CONTINUOUS
 10
192.6301174019
 20
213.3892148586
 40
1.5251992218
100
AcDbArc
 50
117.9789520644
 51
152.0210479356
  0
ARC
  5
33A
100
AcDbEntity
  8
93780800R00_BL2
100
AcDbCircle
 62
9
  6
CONTINUOUS
 10
192.6301174019
 20
213.3892148586
 40
1.5251992218
100
AcDbArc
 50
27.9789520644
 51
62.0210479356
  0
ARC
  5
33B
100
AcDbEntity
  8
93780800R00_BL2
100
AcDbCircle
 62
7
  6
CONTINUOUS
 10
192.6301174019
 20
213.3892148586
 40
0.635
100
AcDbArc
 50
292.5578096573
 51
337.4421903427
  0
ARC
  5
33C
100
AcDbEntity
  8
93780800R00_BL2
100
AcDbCircle
 62
7
  6
CONTINUOUS
 10
192.6301174019
 20
213.3892148586
 40
0.635
100
AcDbArc
 50
22.5578096573
 51
67.4421903427
  0
ARC
  5
33D
100
AcDbEntity
  8
93780800R00_BL2
100
AcDbCircle
 62
7
  6
CONTINUOUS
 10
192.6301174019
 20
213.3892148586
 40
0.635
100
AcDbArc
 50
202.5578096573
 51
247.4421903427
  0
ARC
  5
33E
100
AcDbEntity
  8
93780800R00_BL2
100
AcDbCircle
 62
7
  6
CONTINUOUS
 10
192.6301174019
 20
213.3892148586
 40
0.635
100
AcDbArc
 50
112.5578096573
 51
157.4421903427
  0
ARC
  5
33F
100
AcDbEntity
  8
93780800R00_BL2
100
AcDbCircle
 62
7
  6
CONTINUOUS
 10
447.5039859914
 20
53.9599486316
 40
300.5261570196
100
AcDbArc
 50
148.0925201906
 51
148.2631633589
  0
ARC
  5
340
100
AcDbEntity
  8
93780800R00_BL2
100
AcDbCircle
 62
7
  6
CONTINUOUS
 10
352.059383626
 20
468.2630834436
 40
300.5261570142
100
AcDbArc
 50
238.0925201906
 51
238.263163359
  0
SPLINE
  5
341
100
AcDbEntity
  8
93780800R00_BL2
100
AcDbSpline
 62
7
  6
CONTINUOUS
 70
0
 71
3
 72
9
 73
5
 74
0
 42
0.0000001
 43
0.0000001
 44
0.0000000001
 40
0.0
 40
0.0
 40
0.0
 40
0.0
 40
0.2494291971
 40
1.0
 40
1.0
 40
1.0
 40
1.0
 10
193.9770513331
 20
214.1047577651
 30
0.0
 10
193.913787549
 20
214.0655704931
 30
0.0
 10
193.6601751018
 20
213.9084276879
 30
0.0
 10
193.4065703906
 20
213.7512710589
 30
0.0
 10
193.216535423
 20
213.6328106396
 30
0.0
  0
LINE
  5
342
100
AcDbEntity
  8
93780800R00_BL2
100
AcDbLine
 62
7
  6
CONTINUOUS
 10
193.216535423
 20
213.6328106396
 11
193.2023951532
 21
213.6198589218
  0
SPLINE
  5
343
100
AcDbEntity
  8
93780800R00_BL2
100
AcDbSpline
 62
7
  6
CONTINUOUS
 70
0
 71
3
 72
9
 73
5
 74
0
 42
0.0000001
 43
0.0000001
 44
0.0000000001
 40
0.0
 40
0.0
 40
0.0
 40
0.0
 40
0.2456562058
 40
1.0
 40
1.0
 40
1.0
 40
1.0
 10
193.2023951532
 20
213.6198589218
 30
0.0
 10
193.1941480275
 20
213.6010488729
 30
0.0
 10
193.1607050376
 20
213.5244223405
 30
0.0
 10
193.1279003403
 20
213.4475130805
 30
0.0
 10
193.1038391387
 20
213.3892148586
 30
0.0
  0
SPLINE
  5
344
100
AcDbEntity
  8
93780800R00_BL2
100
AcDbSpline
 62
7
  6
CONTINUOUS
 70
0
 71
3
 72
9
 73
5
 74
0
 42
0.0000001
 43
0.0000001
 44
0.0000000001
 40
0.0
 40
0.0
 40
0.0
 40
0.0
 40
0.2546871947
 40
1.0
 40
1.0
 40
1.0
 40
1.0
 10
193.1038391387
 20
213.3892148586
 30
0.0
 10
193.1119628886
 20
213.3695317112
 30
0.0
 10
193.1441713703
 20
213.2923765462
 30
0.0
 10
193.177373563
 20
213.2156400521
 30
0.0
 10
193.2023951532
 20
213.1585707954
 30
0.0
  0
LINE
  5
345
100
AcDbEntity
  8
93780800R00_BL2
100
AcDbLine
 62
7
  6
CONTINUOUS
 10
193.2023951532
 20
213.1585707954
 11
193.216535423
 21
213.1456190776
  0
SPLINE
  5
346
100
AcDbEntity
  8
93780800R00_BL2
100
AcDbSpline
 62
7
  6
CONTINUOUS
 70
0
 71
3
 72
9
 73
5
 74
0
 42
0.0000001
 43
0.0000001
 44
0.0000000001
 40
0.0
 40
0.0
 40
0.0
 40
0.0
 40
0.2494291971
 40
1.0
 40
1.0
 40
1.0
 40
1.0
 10
191.2831834706
 20
212.673671952
 30
0.0
 10
191.3464472547
 20
212.712859224
 30
0.0
 10
191.6000597019
 20
212.8700020293
 30
0.0
 10
191.8536644132
 20
213.0271586582
 30
0.0
 10
192.0436993807
 20
213.1456190776
 30
0.0
  0
LINE
  5
347
100
AcDbEntity
  8
93780800R00_BL2
100
AcDbLine
 62
7
  6
CONTINUOUS
 10
192.0436993807
 20
213.1456190776
 11
192.0578396505
 21
213.1585707954
  0
SPLINE
  5
348
100
AcDbEntity
  8
93780800R00_BL2
100
AcDbSpline
 62
7
  6
CONTINUOUS
 70
0
 71
3
 72
9
 73
5
 74
0
 42
0.0000001
 43
0.0000001
 44
0.0000000001
 40
0.0
 40
0.0
 40
0.0
 40
0.0
 40
0.2456562058
 40
1.0
 40
1.0
 40
1.0
 40
1.0
 10
192.0578396505
 20
213.1585707954
 30
0.0
 10
192.0660867763
 20
213.1773808443
 30
0.0
 10
192.0995297661
 20
213.2540073766
 30
0.0
 10
192.1323344635
 20
213.3309166367
 30
0.0
 10
192.1563956651
 20
213.3892148586
 30
0.0
  0
SPLINE
  5
349
100
AcDbEntity
  8
93780800R00_BL2
100
AcDbSpline
 62
7
  6
CONTINUOUS
 70
0
 71
3
 72
9
 73
5
 74
0
 42
0.0000001
 43
0.0000001
 44
0.0000000001
 40
0.0
 40
0.0
 40
0.0
 40
0.0
 40
0.2546871947
 40
1.0
 40
1.0
 40
1.0
 40
1.0
 10
192.1563956651
 20
213.3892148586
 30
0.0
 10
192.1482719151
 20
213.408898006
 30
0.0
 10
192.1160634334
 20
213.486053171
 30
0.0
 10
192.0828612407
 20
213.5627896651
 30
0.0
 10
192.0578396505
 20
213.6198589218
 30
0.0
  0
LINE
  5
34A
100
AcDbEntity
  8
93780800R00_BL2
100
AcDbLine
 62
7
  6
CONTINUOUS
 10
192.0578396505
 20
213.6198589218
 11
192.0436993807
 21
213.6328106396
  0
SPLINE
  5
34B
100
AcDbEntity
  8
93780800R00_BL2
100
AcDbSpline
 62
7
  6
CONTINUOUS
 70
0
 71
3
 72
9
 73
5
 74
0
 42
0.0000001
 43
0.0000001
 44
0.0000000001
 40
0.0
 40
0.0
 40
0.0
 40
0.0
 40
0.2494291971
 40
1.0
 40
1.0
 40
1.0
 40
1.0
 10
193.3456603084
 20
212.0422809274
 30
0.0
 10
193.3064730364
 20
212.1055447115
 30
0.0
 10
193.1493302311
 20
212.3591571587
 30
0.0
 10
192.9921736022
 20
212.6127618699
 30
0.0
 10
192.8737131828
 20
212.8027968375
 30
0.0
  0
LINE
  5
34C
100
AcDbEntity
  8
93780800R00_BL2
100
AcDbLine
 62
7
  6
CONTINUOUS
 10
192.8737131828
 20
212.8027968375
 11
192.8607614651
 21
212.8169371073
  0
SPLINE
  5
34D
100
AcDbEntity
  8
93780800R00_BL2
100
AcDbSpline
 62
7
  6
CONTINUOUS
 70
0
 71
3
 72
9
 73
5
 74
0
 42
0.0000001
 43
0.0000001
 44
0.0000000001
 40
0.0
 40
0.0
 40
0.0
 40
0.0
 40
0.2456562051
 40
1.0
 40
1.0
 40
1.0
 40
1.0
 10
192.8607614651
 20
212.8169371073
 30
0.0
 10
192.8419514162
 20
212.825184233
 30
0.0
 10
192.7653248838
 20
212.8586272228
 30
0.0
 10
192.6884156238
 20
212.8914319202
 30
0.0
 10
192.6301174019
 20
212.9154931218
 30
0.0
  0
SPLINE
  5
34E
100
AcDbEntity
  8
93780800R00_BL2
100
AcDbSpline
 62
7
  6
CONTINUOUS
 70
0
 71
3
 72
9
 73
5
 74
0
 42
0.0000001
 43
0.0000001
 44
0.0000000001
 40
0.0
 40
0.0
 40
0.0
 40
0.0
 40
0.2546871958
 40
1.0
 40
1.0
 40
1.0
 40
1.0
 10
192.6301174019
 20
212.9154931218
 30
0.0
 10
192.6104342543
 20
212.9073693718
 30
0.0
 10
192.5332790894
 20
212.8751608901
 30
0.0
 10
192.4565425953
 20
212.8419586974
 30
0.0
 10
192.3994733386
 20
212.8169371073
 30
0.0
  0
LINE
  5
34F
100
AcDbEntity
  8
93780800R00_BL2
100
AcDbLine
 62
7
  6
CONTINUOUS
 10
192.3994733386
 20
212.8169371073
 11
192.3865216209
 21
212.8027968375
  0
SPLINE
  5
350
100
AcDbEntity
  8
93780800R00_BL2
100
AcDbSpline
 62
7
  6
CONTINUOUS
 70
0
 71
3
 72
9
 73
5
 74
0
 42
0.0000001
 43
0.0000001
 44
0.0000000001
 40
0.0
 40
0.0
 40
0.0
 40
0.0
 40
0.2494291971
 40
1.0
 40
1.0
 40
1.0
 40
1.0
 10
191.9145744953
 20
214.7361487898
 30
0.0
 10
191.9537617673
 20
214.6728850057
 30
0.0
 10
192.1109045726
 20
214.4192725585
 30
0.0
 10
192.2680612015
 20
214.1656678473
 30
0.0
 10
192.3865216209
 20
213.9756328797
 30
0.0
  0
LINE
  5
351
100
AcDbEntity
  8
93780800R00_BL2
100
AcDbLine
 62
7
  6
CONTINUOUS
 10
192.3865216209
 20
213.9756328797
 11
192.3994733386
 21
213.9614926099
  0
SPLINE
  5
352
100
AcDbEntity
  8
93780800R00_BL2
100
AcDbSpline
 62
7
  6
CONTINUOUS
 70
0
 71
3
 72
9
 73
5
 74
0
 42
0.0000001
 43
0.0000001
 44
0.0000000001
 40
0.0
 40
0.0
 40
0.0
 40
0.0
 40
0.2456562051
 40
1.0
 40
1.0
 40
1.0
 40
1.0
 10
192.3994733386
 20
213.9614926099
 30
0.0
 10
192.4182833875
 20
213.9532454842
 30
0.0
 10
192.4949099199
 20
213.9198024944
 30
0.0
 10
192.5718191799
 20
213.886997797
 30
0.0
 10
192.6301174019
 20
213.8629365954
 30
0.0
  0
SPLINE
  5
353
100
AcDbEntity
  8
93780800R00_BL2
100
AcDbSpline
 62
7
  6
CONTINUOUS
 70
0
 71
3
 72
9
 73
5
 74
0
 42
0.0000001
 43
0.0000001
 44
0.0000000001
 40
0.0
 40
0.0
 40
0.0
 40
0.0
 40
0.2546871958
 40
1.0
 40
1.0
 40
1.0
 40
1.0
 10
192.6301174019
 20
213.8629365954
 30
0.0
 10
192.6498005494
 20
213.8710603454
 30
0.0
 10
192.7269557143
 20
213.9032688271
 30
0.0
 10
192.8036922085
 20
213.9364710198
 30
0.0
 10
192.8607614651
 20
213.9614926099
 30
0.0
  0
LINE
  5
354
100
AcDbEntity
  8
93780800R00_BL2
100
AcDbLine
 62
7
  6
CONTINUOUS
 10
192.8607614651
 20
213.9614926099
 11
192.8737131828
 21
213.9756328797
  0
SPLINE
  5
355
100
AcDbEntity
  8
93780800R00_BL2
100
AcDbSpline
 62
7
  6
CONTINUOUS
 70
0
 71
3
 72
10
 73
6
 74
0
 42
0.0000001
 43
0.0000001
 44
0.0000000001
 40
0.0
 40
0.0
 40
0.0
 40
0.0
 40
0.1744823037
 40
0.4139756216
 40
1.0
 40
1.0
 40
1.0
 40
1.0
 10
193.9770513331
 20
212.673671952
 30
0.0
 10
193.9997101597
 20
212.6596364716
 30
0.0
 10
194.050244054
 20
212.6213213366
 30
0.0
 10
194.1662529799
 20
212.5219845979
 30
0.0
 10
194.2563159611
 20
212.4334287048
 30
0.0
 10
194.3185019126
 20
212.369033267
 30
0.0
  0
SPLINE
  5
356
100
AcDbEntity
  8
93780800R00_BL2
100
AcDbSpline
 62
7
  6
CONTINUOUS
 70
0
 71
3
 72
10
 73
6
 74
0
 42
0.0000001
 43
0.0000001
 44
0.0000000001
 40
0.0
 40
0.0
 40
0.0
 40
0.0
 40
0.5860290742
 40
0.8255203224
 40
1.0
 40
1.0
 40
1.0
 40
1.0
 10
193.6502989934
 20
211.7008303479
 30
0.0
 10
193.5859030381
 20
211.7630167991
 30
0.0
 10
193.4973470296
 20
211.8530802092
 30
0.0
 10
193.398010013
 20
211.9690889255
 30
0.0
 10
193.3596955779
 20
212.0196224412
 30
0.0
 10
193.3456603084
 20
212.0422809274
 30
0.0
  0
SPLINE
  5
357
100
AcDbEntity
  8
93780800R00_BL2
100
AcDbSpline
 62
7
  6
CONTINUOUS
 70
0
 71
3
 72
10
 73
6
 74
0
 42
0.0000001
 43
0.0000001
 44
0.0000000001
 40
0.0
 40
0.0
 40
0.0
 40
0.0
 40
0.1744823037
 40
0.4139756216
 40
1.0
 40
1.0
 40
1.0
 40
1.0
 10
191.9145744953
 20
212.0422809274
 30
0.0
 10
191.9005390149
 20
212.0196221007
 30
0.0
 10
191.8622238798
 20
211.9690882064
 30
0.0
 10
191.7628871412
 20
211.8530792805
 30
0.0
 10
191.6743312481
 20
211.7630162993
 30
0.0
 10
191.6099358103
 20
211.7008303479
 30
0.0
  0
SPLINE
  5
358
100
AcDbEntity
  8
93780800R00_BL2
100
AcDbSpline
 62
7
  6
CONTINUOUS
 70
0
 71
3
 72
10
 73
6
 74
0
 42
0.0000001
 43
0.0000001
 44
0.0000000001
 40
0.0
 40
0.0
 40
0.0
 40
0.0
 40
0.5860290742
 40
0.8255203224
 40
1.0
 40
1.0
 40
1.0
 40
1.0
 10
190.9417328911
 20
212.369033267
 30
0.0
 10
191.0039193424
 20
212.4334292224
 30
0.0
 10
191.0939827525
 20
212.5219852308
 30
0.0
 10
191.2099914687
 20
212.6213222475
 30
0.0
 10
191.2605249845
 20
212.6596366825
 30
0.0
 10
191.2831834706
 20
212.673671952
 30
0.0
  0
SPLINE
  5
359
100
AcDbEntity
  8
93780800R00_BL2
100
AcDbSpline
 62
7
  6
CONTINUOUS
 70
0
 71
3
 72
10
 73
6
 74
0
 42
0.0000001
 43
0.0000001
 44
0.0000000001
 40
0.0
 40
0.0
 40
0.0
 40
0.0
 40
0.1744823037
 40
0.4139756216
 40
1.0
 40
1.0
 40
1.0
 40
1.0
 10
191.2831834706
 20
214.1047577651
 30
0.0
 10
191.260524644
 20
214.1187932456
 30
0.0
 10
191.2099907497
 20
214.1571083806
 30
0.0
 10
191.0939818238
 20
214.2564451193
 30
0.0
 10
191.0039188426
 20
214.3450010124
 30
0.0
 10
190.9417328911
 20
214.4093964502
 30
0.0
  0
SPLINE
  5
35A
100
AcDbEntity
  8
93780800R00_BL2
100
AcDbSpline
 62
7
  6
CONTINUOUS
 70
0
 71
3
 72
10
 73
6
 74
0
 42
0.0000001
 43
0.0000001
 44
0.0000000001
 40
0.0
 40
0.0
 40
0.0
 40
0.0
 40
0.5860290742
 40
0.8255203224
 40
1.0
 40
1.0
 40
1.0
 40
1.0
 10
191.6099358103
 20
215.0775993693
 30
0.0
 10
191.6743317656
 20
215.0154129181
 30
0.0
 10
191.7628877741
 20
214.925349508
 30
0.0
 10
191.8622247907
 20
214.8093407917
 30
0.0
 10
191.9005392258
 20
214.758807276
 30
0.0
 10
191.9145744953
 20
214.7361487898
 30
0.0
  0
SPLINE
  5
35B
100
AcDbEntity
  8
93780800R00_BL2
100
AcDbSpline
 62
7
  6
CONTINUOUS
 70
0
 71
3
 72
10
 73
6
 74
0
 42
0.0000001
 43
0.0000001
 44
0.0000000001
 40
0.0
 40
0.0
 40
0.0
 40
0.0
 40
0.1744823037
 40
0.4139756216
 40
1.0
 40
1.0
 40
1.0
 40
1.0
 10
193.3456603084
 20
214.7361487898
 30
0.0
 10
193.3596957888
 20
214.7588076164
 30
0.0
 10
193.3980109239
 20
214.8093415107
 30
0.0
 10
193.4973476626
 20
214.9253504367
 30
0.0
 10
193.5859035556
 20
215.0154134179
 30
0.0
 10
193.6502989934
 20
215.0775993693
 30
0.0
  0
SPLINE
  5
35C
100
AcDbEntity
  8
93780800R00_BL2
100
AcDbSpline
 62
7
  6
CONTINUOUS
 70
0
 71
3
 72
10
 73
6
 74
0
 42
0.0000001
 43
0.0000001
 44
0.0000000001
 40
0.0
 40
0.0
 40
0.0
 40
0.0
 40
0.5860290742
 40
0.8255203224
 40
1.0
 40
1.0
 40
1.0
 40
1.0
 10
194.3185019126
 20
214.4093964502
 30
0.0
 10
194.2563154613
 20
214.3450004948
 30
0.0
 10
194.1662520512
 20
214.2564444864
 30
0.0
 10
194.050243335
 20
214.1571074697
 30
0.0
 10
193.9997098192
 20
214.1187930346
 30
0.0
 10
193.9770513331
 20
214.1047577651
 30
0.0
  0
ENDBLK
  5
35D
100
AcDbEntity
  8
0
  6
BYBLOCK
 62
0
100
AcDbBlockEnd
  0
BLOCK
  5
35E
100
AcDbEntity
  8
93894203000_BL3
100
AcDbBlockBegin
  2
93894203000_BL3
 70
64
 10
190.1301174019
 20
120.9046079076
  3
93894203000_BL3
  1

  0
LINE
  5
35F
100
AcDbEntity
  8
93894203000_BL3
100
AcDbLine
 62
7
  6
CONTINUOUS
 10
191.6301174019
 20
219.3892148586
 11
191.2301174019
 21
218.9892148586
  0
LINE
  5
360
100
AcDbEntity
  8
93894203000_BL3
100
AcDbLine
 62
7
  6
CONTINUOUS
 10
192.6301174019
 20
219.3892148586
 11
192.2301174019
 21
218.9892148586
  0
LINE
  5
361
100
AcDbEntity
  8
93894203000_BL3
100
AcDbLine
 62
7
  6
CONTINUOUS
 10
193.6301174019
 20
219.3892148586
 11
193.2301174019
 21
218.9892148586
  0
LINE
  5
362
100
AcDbEntity
  8
93894203000_BL3
100
AcDbLine
 62
7
  6
CONTINUOUS
 10
194.6301174019
 20
219.3892148586
 11
194.2301174019
 21
218.9892148586
  0
LINE
  5
363
100
AcDbEntity
  8
93894203000_BL3
100
AcDbLine
 62
7
  6
CONTINUOUS
 10
195.6301174019
 20
219.3892148586
 11
195.2301174019
 21
218.9892148586
  0
LINE
  5
364
100
AcDbEntity
  8
93894203000_BL3
100
AcDbLine
 62
7
  6
CONTINUOUS
 10
196.6301174019
 20
219.3892148586
 11
196.2301174019
 21
218.9892148586
  0
LINE
  5
365
100
AcDbEntity
  8
93894203000_BL3
100
AcDbLine
 62
7
  6
CONTINUOUS
 10
197.6301174019
 20
219.3892148586
 11
197.2301174019
 21
218.9892148586
  0
LINE
  5
366
100
AcDbEntity
  8
93894203000_BL3
100
AcDbLine
 62
7
  6
CONTINUOUS
 10
198.6301174019
 20
219.3892148586
 11
198.1301174019
 21
218.8892148586
  0
LINE
  5
367
100
AcDbEntity
  8
93894203000_BL3
100
AcDbLine
 62
7
  6
CONTINUOUS
 10
183.6301174019
 20
173.7392148586
 11
186.2801174019
 21
176.3892148586
  0
LINE
  5
368
100
AcDbEntity
  8
93894203000_BL3
100
AcDbLine
 62
7
  6
CONTINUOUS
 10
191.0301174019
 20
176.7892148586
 11
190.6301174019
 21
176.3892148586
  0
LINE
  5
369
100
AcDbEntity
  8
93894203000_BL3
100
AcDbLine
 62
7
  6
CONTINUOUS
 10
181.6301174019
 20
173.7392148586
 11
181.6301174019
 21
173.6042148586
  0
LINE
  5
36A
100
AcDbEntity
  8
93894203000_BL3
100
AcDbLine
 62
9
  6
CONTINUOUS
 10
182.6301174019
 20
173.7392148586
 11
182.6301174019
 21
173.6042148586
  0
LINE
  5
36B
100
AcDbEntity
  8
93894203000_BL3
100
AcDbLine
 62
7
  6
CONTINUOUS
 10
192.0301174019
 20
176.7892148586
 11
191.6301174019
 21
176.3892148586
  0
LINE
  5
36C
100
AcDbEntity
  8
93894203000_BL3
100
AcDbLine
 62
7
  6
CONTINUOUS
 10
193.0301174019
 20
176.7892148586
 11
192.6301174019
 21
176.3892148586
  0
LINE
  5
36D
100
AcDbEntity
  8
93894203000_BL3
100
AcDbLine
 62
7
  6
CONTINUOUS
 10
194.0301174019
 20
176.7892148586
 11
193.6301174019
 21
176.3892148586
  0
LINE
  5
36E
100
AcDbEntity
  8
93894203000_BL3
100
AcDbLine
 62
7
  6
CONTINUOUS
 10
195.0301174019
 20
176.7892148586
 11
194.6301174019
 21
176.3892148586
  0
LINE
  5
36F
100
AcDbEntity
  8
93894203000_BL3
100
AcDbLine
 62
7
  6
CONTINUOUS
 10
196.0301174019
 20
176.7892148586
 11
195.6301174019
 21
176.3892148586
  0
LINE
  5
370
100
AcDbEntity
  8
93894203000_BL3
100
AcDbLine
 62
7
  6
CONTINUOUS
 10
197.0301174019
 20
176.7892148586
 11
196.6301174019
 21
176.3892148586
  0
LINE
  5
371
100
AcDbEntity
  8
93894203000_BL3
100
AcDbLine
 62
7
  6
CONTINUOUS
 10
198.1301174019
 20
176.8892148586
 11
197.6301174019
 21
176.3892148586
  0
LINE
  5
372
100
AcDbEntity
  8
93894203000_BL3
100
AcDbLine
 62
7
  6
CONTINUOUS
 10
190.1301174019
 20
219.3892148586
 11
190.1301174019
 21
218.9892148586
  0
LINE
  5
373
100
AcDbEntity
  8
93894203000_BL3
100
AcDbLine
 62
7
  6
CONTINUOUS
 10
190.1301174019
 20
176.7892148586
 11
190.1301174019
 21
176.3892148586
  0
LINE
  5
374
100
AcDbEntity
  8
93894203000_BL3
100
AcDbLine
 62
7
  6
CONTINUOUS
 10
190.6301174019
 20
176.3892148586
 11
190.6301174019
 21
176.7892148586
  0
LINE
  5
375
100
AcDbEntity
  8
93894203000_BL3
100
AcDbLine
 62
7
  6
CONTINUOUS
 10
190.6301174019
 20
218.9892148586
 11
190.6301174019
 21
219.3892148586
  0
LINE
  5
376
100
AcDbEntity
  8
93894203000_BL3
100
AcDbLine
 62
7
  6
CONTINUOUS
 10
191.6301174019
 20
176.3892148586
 11
191.6301174019
 21
176.7892148586
  0
LINE
  5
377
100
AcDbEntity
  8
93894203000_BL3
100
AcDbLine
 62
7
  6
CONTINUOUS
 10
191.6301174019
 20
218.9892148586
 11
191.6301174019
 21
219.3892148586
  0
LINE
  5
378
100
AcDbEntity
  8
93894203000_BL3
100
AcDbLine
 62
7
  6
CONTINUOUS
 10
192.6301174019
 20
176.3892148586
 11
192.6301174019
 21
176.7892148586
  0
LINE
  5
379
100
AcDbEntity
  8
93894203000_BL3
100
AcDbLine
 62
7
  6
CONTINUOUS
 10
192.6301174019
 20
218.9892148586
 11
192.6301174019
 21
219.3892148586
  0
LINE
  5
37A
100
AcDbEntity
  8
93894203000_BL3
100
AcDbLine
 62
7
  6
CONTINUOUS
 10
193.6301174019
 20
176.3892148586
 11
193.6301174019
 21
176.7892148586
  0
LINE
  5
37B
100
AcDbEntity
  8
93894203000_BL3
100
AcDbLine
 62
7
  6
CONTINUOUS
 10
193.6301174019
 20
218.9892148586
 11
193.6301174019
 21
219.3892148586
  0
LINE
  5
37C
100
AcDbEntity
  8
93894203000_BL3
100
AcDbLine
 62
7
  6
CONTINUOUS
 10
194.6301174019
 20
176.3892148586
 11
194.6301174019
 21
176.7892148586
  0
LINE
  5
37D
100
AcDbEntity
  8
93894203000_BL3
100
AcDbLine
 62
7
  6
CONTINUOUS
 10
194.6301174019
 20
218.9892148586
 11
194.6301174019
 21
219.3892148586
  0
LINE
  5
37E
100
AcDbEntity
  8
93894203000_BL3
100
AcDbLine
 62
7
  6
CONTINUOUS
 10
195.1301174019
 20
215.2392148586
 11
195.1301174019
 21
214.7359310057
  0
LINE
  5
37F
100
AcDbEntity
  8
93894203000_BL3
100
AcDbLine
 62
7
  6
CONTINUOUS
 10
195.1301174019
 20
212.0424987115
 11
195.1301174019
 21
211.5392148586
  0
LINE
  5
380
100
AcDbEntity
  8
93894203000_BL3
100
AcDbLine
 62
7
  6
CONTINUOUS
 10
195.1301174019
 20
184.2392148586
 11
195.1301174019
 21
183.7359310057
  0
LINE
  5
381
100
AcDbEntity
  8
93894203000_BL3
100
AcDbLine
 62
7
  6
CONTINUOUS
 10
195.1301174019
 20
181.0424987115
 11
195.1301174019
 21
180.5392148586
  0
LINE
  5
382
100
AcDbEntity
  8
93894203000_BL3
100
AcDbLine
 62
7
  6
CONTINUOUS
 10
195.6301174019
 20
176.3892148586
 11
195.6301174019
 21
176.7892148586
  0
LINE
  5
383
100
AcDbEntity
  8
93894203000_BL3
100
AcDbLine
 62
7
  6
CONTINUOUS
 10
195.6301174019
 20
180.5392148586
 11
195.6301174019
 21
184.2392148586
  0
LINE
  5
384
100
AcDbEntity
  8
93894203000_BL3
100
AcDbLine
 62
7
  6
CONTINUOUS
 10
195.6301174019
 20
211.5392148586
 11
195.6301174019
 21
215.2392148586
  0
LINE
  5
385
100
AcDbEntity
  8
93894203000_BL3
100
AcDbLine
 62
7
  6
CONTINUOUS
 10
195.6301174019
 20
218.9892148586
 11
195.6301174019
 21
219.3892148586
  0
LINE
  5
386
100
AcDbEntity
  8
93894203000_BL3
100
AcDbLine
 62
7
  6
CONTINUOUS
 10
196.1301174019
 20
215.1311426212
 11
196.1301174019
 21
211.647287096
  0
LINE
  5
387
100
AcDbEntity
  8
93894203000_BL3
100
AcDbLine
 62
7
  6
CONTINUOUS
 10
196.1301174019
 20
184.1311426212
 11
196.1301174019
 21
180.647287096
  0
LINE
  5
388
100
AcDbEntity
  8
93894203000_BL3
100
AcDbLine
 62
7
  6
CONTINUOUS
 10
196.6301174019
 20
176.3892148586
 11
196.6301174019
 21
176.7892148586
  0
LINE
  5
389
100
AcDbEntity
  8
93894203000_BL3
100
AcDbLine
 62
7
  6
CONTINUOUS
 10
196.6301174019
 20
180.9102450377
 11
196.6301174019
 21
183.8681846795
  0
LINE
  5
38A
100
AcDbEntity
  8
93894203000_BL3
100
AcDbLine
 62
7
  6
CONTINUOUS
 10
196.6301174019
 20
211.9102450377
 11
196.6301174019
 21
214.8681846795
  0
LINE
  5
38B
100
AcDbEntity
  8
93894203000_BL3
100
AcDbLine
 62
7
  6
CONTINUOUS
 10
196.6301174019
 20
218.9892148586
 11
196.6301174019
 21
219.3892148586
  0
LINE
  5
38C
100
AcDbEntity
  8
93894203000_BL3
100
AcDbLine
 62
7
  6
CONTINUOUS
 10
197.1301174019
 20
214.3014352619
 11
197.1301174019
 21
212.4769944553
  0
LINE
  5
38D
100
AcDbEntity
  8
93894203000_BL3
100
AcDbLine
 62
7
  6
CONTINUOUS
 10
197.1301174019
 20
183.3014352619
 11
197.1301174019
 21
181.4769944553
  0
LINE
  5
38E
100
AcDbEntity
  8
93894203000_BL3
100
AcDbLine
 62
7
  6
CONTINUOUS
 10
197.6301174019
 20
176.3892148586
 11
197.6301174019
 21
176.7892148586
  0
LINE
  5
38F
100
AcDbEntity
  8
93894203000_BL3
100
AcDbLine
 62
7
  6
CONTINUOUS
 10
197.6301174019
 20
218.9892148586
 11
197.6301174019
 21
219.3892148586
  0
LINE
  5
390
100
AcDbEntity
  8
93894203000_BL3
100
AcDbLine
 62
7
  6
CONTINUOUS
 10
198.1301174019
 20
218.8892148586
 11
198.1301174019
 21
218.8513281473
  0
LINE
  5
391
100
AcDbEntity
  8
93894203000_BL3
100
AcDbLine
 62
7
  6
CONTINUOUS
 10
198.1301174019
 20
176.9271015699
 11
198.1301174019
 21
176.8892148586
  0
LINE
  5
392
100
AcDbEntity
  8
93894203000_BL3
100
AcDbLine
 62
7
  6
CONTINUOUS
 10
181.6301174019
 20
173.7392148586
 11
183.6301174019
 21
173.7392148586
  0
LINE
  5
393
100
AcDbEntity
  8
93894203000_BL3
100
AcDbLine
 62
7
  6
CONTINUOUS
 10
198.6301174019
 20
176.3892148586
 11
186.2801174019
 21
176.3892148586
  0
LINE
  5
394
100
AcDbEntity
  8
93894203000_BL3
100
AcDbLine
 62
7
  6
CONTINUOUS
 10
191.6301174019
 20
176.3892148586
 11
191.2301174019
 21
176.7892148586
  0
LINE
  5
395
100
AcDbEntity
  8
93894203000_BL3
100
AcDbLine
 62
7
  6
CONTINUOUS
 10
192.6301174019
 20
176.3892148586
 11
192.2301174019
 21
176.7892148586
  0
LINE
  5
396
100
AcDbEntity
  8
93894203000_BL3
100
AcDbLine
 62
7
  6
CONTINUOUS
 10
193.6301174019
 20
176.3892148586
 11
193.2301174019
 21
176.7892148586
  0
LINE
  5
397
100
AcDbEntity
  8
93894203000_BL3
100
AcDbLine
 62
7
  6
CONTINUOUS
 10
194.6301174019
 20
176.3892148586
 11
194.2301174019
 21
176.7892148586
  0
LINE
  5
398
100
AcDbEntity
  8
93894203000_BL3
100
AcDbLine
 62
7
  6
CONTINUOUS
 10
195.6301174019
 20
176.3892148586
 11
195.2301174019
 21
176.7892148586
  0
LINE
  5
399
100
AcDbEntity
  8
93894203000_BL3
100
AcDbLine
 62
7
  6
CONTINUOUS
 10
196.6301174019
 20
176.3892148586
 11
196.2301174019
 21
176.7892148586
  0
LINE
  5
39A
100
AcDbEntity
  8
93894203000_BL3
100
AcDbLine
 62
7
  6
CONTINUOUS
 10
197.6301174019
 20
176.3892148586
 11
197.2301174019
 21
176.7892148586
  0
LINE
  5
39B
100
AcDbEntity
  8
93894203000_BL3
100
AcDbLine
 62
7
  6
CONTINUOUS
 10
198.6301174019
 20
176.3892148586
 11
198.1301174019
 21
176.8892148586
  0
LINE
  5
39C
100
AcDbEntity
  8
93894203000_BL3
100
AcDbLine
 62
7
  6
CONTINUOUS
 10
186.2801174019
 20
219.3892148586
 11
183.7651174019
 21
221.9042148586
  0
LINE
  5
39D
100
AcDbEntity
  8
93894203000_BL3
100
AcDbLine
 62
7
  6
CONTINUOUS
 10
191.0301174019
 20
218.9892148586
 11
190.6301174019
 21
219.3892148586
  0
LINE
  5
39E
100
AcDbEntity
  8
93894203000_BL3
100
AcDbLine
 62
7
  6
CONTINUOUS
 10
192.0301174019
 20
218.9892148586
 11
191.6301174019
 21
219.3892148586
  0
LINE
  5
39F
100
AcDbEntity
  8
93894203000_BL3
100
AcDbLine
 62
7
  6
CONTINUOUS
 10
193.0301174019
 20
218.9892148586
 11
192.6301174019
 21
219.3892148586
  0
LINE
  5
3A0
100
AcDbEntity
  8
93894203000_BL3
100
AcDbLine
 62
7
  6
CONTINUOUS
 10
194.0301174019
 20
218.9892148586
 11
193.6301174019
 21
219.3892148586
  0
LINE
  5
3A1
100
AcDbEntity
  8
93894203000_BL3
100
AcDbLine
 62
7
  6
CONTINUOUS
 10
195.0301174019
 20
218.9892148586
 11
194.6301174019
 21
219.3892148586
  0
LINE
  5
3A2
100
AcDbEntity
  8
93894203000_BL3
100
AcDbLine
 62
7
  6
CONTINUOUS
 10
196.0301174019
 20
218.9892148586
 11
195.6301174019
 21
219.3892148586
  0
LINE
  5
3A3
100
AcDbEntity
  8
93894203000_BL3
100
AcDbLine
 62
7
  6
CONTINUOUS
 10
197.0301174019
 20
218.9892148586
 11
196.6301174019
 21
219.3892148586
  0
LINE
  5
3A4
100
AcDbEntity
  8
93894203000_BL3
100
AcDbLine
 62
7
  6
CONTINUOUS
 10
198.1301174019
 20
218.8892148586
 11
197.6301174019
 21
219.3892148586
  0
LINE
  5
3A5
100
AcDbEntity
  8
93894203000_BL3
100
AcDbLine
 62
7
  6
CONTINUOUS
 10
186.2801174019
 20
219.3892148586
 11
198.6301174019
 21
219.3892148586
  0
LINE
  5
3A6
100
AcDbEntity
  8
93894203000_BL3
100
AcDbLine
 62
7
  6
CONTINUOUS
 10
181.6301174019
 20
23.9050009566
 11
181.6301174019
 21
20.9050009566
  0
LINE
  5
3A7
100
AcDbEntity
  8
93894203000_BL3
100
AcDbLine
 62
7
  6
CONTINUOUS
 10
198.6301174019
 20
23.9050009566
 11
181.6301174019
 21
23.9050009566
  0
CIRCLE
  5
3A8
100
AcDbEntity
  8
93894203000_BL3
100
AcDbCircle
 62
7
  6
CONTINUOUS
 10
190.6301174019
 20
171.6392148586
 40
2.85
  0
ARC
  5
3A9
100
AcDbEntity
  8
93894203000_BL3
100
AcDbCircle
 62
2
  6
CONTINUOUS
 10
190.6301174019
 20
171.6392148586
 40
2.0
100
AcDbArc
 50
255.0
 51
195.0
  0
CIRCLE
  5
3AA
100
AcDbEntity
  8
93894203000_BL3
100
AcDbCircle
 62
7
  6
CONTINUOUS
 10
190.6301174019
 20
171.6392148586
 40
1.65
  0
ARC
  5
3AB
100
AcDbEntity
  8
93894203000_BL3
100
AcDbCircle
 62
7
  6
CONTINUOUS
 10
187.6301174019
 20
176.8892148586
 40
0.5
100
AcDbArc
 50
270.0
 51
348.4495445989
  0
ARC
  5
3AC
100
AcDbEntity
  8
93894203000_BL3
100
AcDbCircle
 62
7
  6
CONTINUOUS
 10
187.6301174019
 20
218.8892148586
 40
0.5
100
AcDbArc
 50
11.5504554011
 51
90.0
  0
ARC
  5
3AD
100
AcDbEntity
  8
93894203000_BL3
100
AcDbCircle
 62
7
  6
CONTINUOUS
 10
182.6301174019
 20
20.9050009566
 40
1.0
100
AcDbArc
 50
180.0
 51
270.0
  0
SPLINE
  5
3AE
100
AcDbEntity
  8
93894203000_BL3
100
AcDbSpline
 62
7
  6
CONTINUOUS
 70
0
 71
3
 72
8
 73
4
 74
0
 42
0.0000001
 43
0.0000001
 44
0.0000000001
 40
0.0
 40
0.0
 40
0.0
 40
0.0
 40
1.0
 40
1.0
 40
1.0
 40
1.0
 10
189.8729193296
 20
176.7891683047
 30
0.0
 10
189.8684868716
 20
176.7584868092
 30
0.0
 10
189.8620001757
 20
176.7280167036
 30
0.0
 10
189.8533172116
 20
176.6982575541
 30
0.0
  0
SPLINE
  5
3AF
100
AcDbEntity
  8
93894203000_BL3
100
AcDbSpline
 62
7
  6
CONTINUOUS
 70
0
 71
3
 72
11
 73
7
 74
0
 42
0.0000001
 43
0.0000001
 44
0.0000000001
 40
0.0
 40
0.0
 40
0.0
 40
0.0
 40
0.285237154
 40
0.5458190645
 40
0.781408194
 40
1.0
 40
1.0
 40
1.0
 40
1.0
 10
189.8533172116
 20
176.6982575541
 30
0.0
 10
189.8405408951
 20
176.6544692454
 30
0.0
 10
189.8068694031
 20
176.5729108106
 30
0.0
 10
189.7305262956
 20
176.4719322741
 30
0.0
 10
189.6348288737
 20
176.4053176458
 30
0.0
 10
189.5615204614
 20
176.3892148586
 30
0.0
 10
189.5265640113
 20
176.3892148586
 30
0.0
  0
SPLINE
  5
3B0
100
AcDbEntity
  8
93894203000_BL3
100
AcDbSpline
 62
7
  6
CONTINUOUS
 70
0
 71
3
 72
11
 73
7
 74
0
 42
0.0000001
 43
0.0000001
 44
0.0000000001
 40
0.0
 40
0.0
 40
0.0
 40
0.0
 40
0.2134794794
 40
0.4481431783
 40
0.7118689424
 40
1.0
 40
1.0
 40
1.0
 40
1.0
 10
189.5265640113
 20
219.3892148586
 30
0.0
 10
189.5673291886
 20
219.3892148586
 30
0.0
 10
189.6538550324
 20
219.3667959185
 30
0.0
 10
189.7603959499
 20
219.2770857082
 30
0.0
 10
189.8378863652
 20
219.1458755905
 30
0.0
 10
189.8652767677
 20
219.042721257
 30
0.0
 10
189.8730640022
 20
218.9882547824
 30
0.0
  0
ENDBLK
  5
3B1
100
AcDbEntity
  8
0
  6
BYBLOCK
 62
0
100
AcDbBlockEnd
  0
BLOCK
  5
3B2
100
AcDbEntity
  8
93780800R00_BL4
100
AcDbBlockBegin
  2
93780800R00_BL4
 70
64
 10
192.6301174019
 20
182.3892148586
  3
93780800R00_BL4
  1

  0
LINE
  5
3B3
100
AcDbEntity
  8
93780800R00_BL4
100
AcDbLine
 62
7
  6
CONTINUOUS
 10
191.8388842944
 20
182.480368976
 11
192.0578396505
 21
182.6198589218
  0
LINE
  5
3B4
100
AcDbEntity
  8
93780800R00_BL4
100
AcDbLine
 62
7
  6
CONTINUOUS
 10
192.6301174019
 20
183.1454571787
 11
192.7212715193
 21
183.180447966
  0
LINE
  5
3B5
100
AcDbEntity
  8
93780800R00_BL4
100
AcDbLine
 62
7
  6
CONTINUOUS
 10
192.6301174019
 20
181.6329725385
 11
192.5389632845
 21
181.5979817512
  0
LINE
  5
3B6
100
AcDbEntity
  8
93780800R00_BL4
100
AcDbLine
 62
7
  6
CONTINUOUS
 10
190.9417328911
 20
181.369033267
 11
191.8388842944
 21
182.2980607412
  0
LINE
  5
3B7
100
AcDbEntity
  8
93780800R00_BL4
100
AcDbLine
 62
7
  6
CONTINUOUS
 10
194.3185019126
 20
183.4093964502
 11
193.4213505093
 21
182.480368976
  0
LINE
  5
3B8
100
AcDbEntity
  8
93780800R00_BL4
100
AcDbLine
 62
7
  6
CONTINUOUS
 10
192.7212715193
 20
183.180447966
 11
193.6502989934
 21
184.0775993693
  0
LINE
  5
3B9
100
AcDbEntity
  8
93780800R00_BL4
100
AcDbLine
 62
7
  6
CONTINUOUS
 10
192.5389632845
 20
181.5979817512
 11
191.6099358103
 21
180.7008303479
  0
LINE
  5
3BA
100
AcDbEntity
  8
93780800R00_BL4
100
AcDbLine
 62
7
  6
CONTINUOUS
 10
193.4213505093
 20
182.2980607412
 11
193.2023951532
 21
182.1585707954
  0
LINE
  5
3BB
100
AcDbEntity
  8
93780800R00_BL4
100
AcDbLine
 62
7
  6
CONTINUOUS
 10
191.8388842944
 20
182.2980607412
 11
191.8738750817
 21
182.3892148586
  0
LINE
  5
3BC
100
AcDbEntity
  8
93780800R00_BL4
100
AcDbLine
 62
7
  6
CONTINUOUS
 10
193.4213505093
 20
182.480368976
 11
193.386359722
 21
182.3892148586
  0
LINE
  5
3BD
100
AcDbEntity
  8
93780800R00_BL4
100
AcDbLine
 62
7
  6
CONTINUOUS
 10
192.5389632845
 20
183.180447966
 11
192.3994733386
 21
182.9614926099
  0
LINE
  5
3BE
100
AcDbEntity
  8
93780800R00_BL4
100
AcDbLine
 62
7
  6
CONTINUOUS
 10
192.7212715193
 20
181.5979817512
 11
192.8607614651
 21
181.8169371073
  0
LINE
  5
3BF
100
AcDbEntity
  8
93780800R00_BL4
100
AcDbLine
 62
7
  6
CONTINUOUS
 10
192.6301174019
 20
183.1454571787
 11
192.6301174019
 21
182.8629365954
  0
LINE
  5
3C0
100
AcDbEntity
  8
93780800R00_BL4
100
AcDbLine
 62
7
  6
CONTINUOUS
 10
192.6301174019
 20
181.6329725385
 11
192.6301174019
 21
181.9154931218
  0
LINE
  5
3C1
100
AcDbEntity
  8
93780800R00_BL4
100
AcDbLine
 62
7
  6
CONTINUOUS
 10
191.8738750817
 20
182.3892148586
 11
191.8388842944
 21
182.480368976
  0
LINE
  5
3C2
100
AcDbEntity
  8
93780800R00_BL4
100
AcDbLine
 62
7
  6
CONTINUOUS
 10
193.386359722
 20
182.3892148586
 11
193.4213505093
 21
182.2980607412
  0
LINE
  5
3C3
100
AcDbEntity
  8
93780800R00_BL4
100
AcDbLine
 62
7
  6
CONTINUOUS
 10
193.386359722
 20
182.3892148586
 11
193.1038391387
 21
182.3892148586
  0
LINE
  5
3C4
100
AcDbEntity
  8
93780800R00_BL4
100
AcDbLine
 62
7
  6
CONTINUOUS
 10
191.8738750817
 20
182.3892148586
 11
192.1563956651
 21
182.3892148586
  0
LINE
  5
3C5
100
AcDbEntity
  8
93780800R00_BL4
100
AcDbLine
 62
7
  6
CONTINUOUS
 10
192.7212715193
 20
181.5979817512
 11
192.6301174019
 21
181.6329725385
  0
LINE
  5
3C6
100
AcDbEntity
  8
93780800R00_BL4
100
AcDbLine
 62
7
  6
CONTINUOUS
 10
192.5389632845
 20
183.180447966
 11
192.6301174019
 21
183.1454571787
  0
LINE
  5
3C7
100
AcDbEntity
  8
93780800R00_BL4
100
AcDbLine
 62
7
  6
CONTINUOUS
 10
191.8388842944
 20
182.2980607412
 11
192.0578396505
 21
182.1585707954
  0
LINE
  5
3C8
100
AcDbEntity
  8
93780800R00_BL4
100
AcDbLine
 62
7
  6
CONTINUOUS
 10
193.4213505093
 20
182.480368976
 11
193.2023951532
 21
182.6198589218
  0
LINE
  5
3C9
100
AcDbEntity
  8
93780800R00_BL4
100
AcDbLine
 62
7
  6
CONTINUOUS
 10
193.6502989934
 20
180.7008303479
 11
192.7212715193
 21
181.5979817512
  0
LINE
  5
3CA
100
AcDbEntity
  8
93780800R00_BL4
100
AcDbLine
 62
7
  6
CONTINUOUS
 10
191.6099358103
 20
184.0775993693
 11
192.5389632845
 21
183.180447966
  0
LINE
  5
3CB
100
AcDbEntity
  8
93780800R00_BL4
100
AcDbLine
 62
7
  6
CONTINUOUS
 10
191.8388842944
 20
182.480368976
 11
190.9417328911
 21
183.4093964502
  0
LINE
  5
3CC
100
AcDbEntity
  8
93780800R00_BL4
100
AcDbLine
 62
7
  6
CONTINUOUS
 10
193.4213505093
 20
182.2980607412
 11
194.3185019126
 21
181.369033267
  0
LINE
  5
3CD
100
AcDbEntity
  8
93780800R00_BL4
100
AcDbLine
 62
7
  6
CONTINUOUS
 10
192.5389632845
 20
181.5979817512
 11
192.3994733386
 21
181.8169371073
  0
LINE
  5
3CE
100
AcDbEntity
  8
93780800R00_BL4
100
AcDbLine
 62
7
  6
CONTINUOUS
 10
192.7212715193
 20
183.180447966
 11
192.8607614651
 21
182.9614926099
  0
ARC
  5
3CF
100
AcDbEntity
  8
93780800R00_BL4
100
AcDbCircle
 62
7
  6
CONTINUOUS
 10
33.2008511649
 20
-72.484653747
 40
300.5261570386
100
AcDbArc
 50
58.0925201906
 51
58.2631633589
  0
CIRCLE
  5
3D0
100
AcDbEntity
  8
93780800R00_BL4
100
AcDbCircle
 62
7
  6
CONTINUOUS
 10
192.6301174019
 20
182.3892148586
 40
2.85
  0
ARC
  5
3D1
100
AcDbEntity
  8
93780800R00_BL4
100
AcDbCircle
 62
9
  6
CONTINUOUS
 10
192.6301174019
 20
182.3892148586
 40
1.9726664026
100
AcDbArc
 50
121.1528667687
 51
148.8529794039
  0
ARC
  5
3D2
100
AcDbEntity
  8
93780800R00_BL4
100
AcDbCircle
 62
9
  6
CONTINUOUS
 10
192.6301174019
 20
182.3892148586
 40
1.9726664026
100
AcDbArc
 50
31.14168669
 51
58.8742098283
  0
ARC
  5
3D3
100
AcDbEntity
  8
93780800R00_BL4
100
AcDbCircle
 62
9
  6
CONTINUOUS
 10
192.6301174019
 20
182.3892148586
 40
1.9726664026
100
AcDbArc
 50
301.1402786404
 51
328.8739772222
  0
ARC
  5
3D4
100
AcDbEntity
  8
93780800R00_BL4
100
AcDbCircle
 62
9
  6
CONTINUOUS
 10
192.6301174019
 20
182.3892148586
 40
1.9726664026
100
AcDbArc
 50
211.1234299516
 51
238.8466423422
  0
ARC
  5
3D5
100
AcDbEntity
  8
93780800R00_BL4
100
AcDbCircle
 62
9
  6
CONTINUOUS
 10
192.6301174019
 20
182.3892148586
 40
1.5251992218
100
AcDbArc
 50
117.9789520644
 51
152.0210479356
  0
ARC
  5
3D6
100
AcDbEntity
  8
93780800R00_BL4
100
AcDbCircle
 62
9
  6
CONTINUOUS
 10
192.6301174019
 20
182.3892148586
 40
1.5251992218
100
AcDbArc
 50
27.9789520644
 51
62.0210479356
  0
ARC
  5
3D7
100
AcDbEntity
  8
93780800R00_BL4
100
AcDbCircle
 62
9
  6
CONTINUOUS
 10
192.6301174019
 20
182.3892148586
 40
1.5251992218
100
AcDbArc
 50
297.9789520644
 51
332.0210479356
  0
ARC
  5
3D8
100
AcDbEntity
  8
93780800R00_BL4
100
AcDbCircle
 62
9
  6
CONTINUOUS
 10
192.6301174019
 20
182.3892148586
 40
1.5251992218
100
AcDbArc
 50
207.9789520644
 51
242.0210479356
  0
ARC
  5
3D9
100
AcDbEntity
  8
93780800R00_BL4
100
AcDbCircle
 62
7
  6
CONTINUOUS
 10
192.6301174019
 20
182.3892148586
 40
0.635
100
AcDbArc
 50
112.5578096573
 51
157.4421903427
  0
ARC
  5
3DA
100
AcDbEntity
  8
93780800R00_BL4
100
AcDbCircle
 62
7
  6
CONTINUOUS
 10
192.6301174019
 20
182.3892148586
 40
0.635
100
AcDbArc
 50
202.5578096573
 51
247.4421903427
  0
ARC
  5
3DB
100
AcDbEntity
  8
93780800R00_BL4
100
AcDbCircle
 62
7
  6
CONTINUOUS
 10
192.6301174019
 20
182.3892148586
 40
0.635
100
AcDbArc
 50
22.5578096573
 51
67.4421903427
  0
ARC
  5
3DC
100
AcDbEntity
  8
93780800R00_BL4
100
AcDbCircle
 62
7
  6
CONTINUOUS
 10
192.6301174019
 20
182.3892148586
 40
0.635
100
AcDbArc
 50
292.5578096573
 51
337.4421903427
  0
ARC
  5
3DD
100
AcDbEntity
  8
93780800R00_BL4
100
AcDbCircle
 62
7
  6
CONTINUOUS
 10
-62.2437511877
 20
341.8184810856
 40
300.5261570197
100
AcDbArc
 50
328.0925201906
 51
328.2631633589
  0
ARC
  5
3DE
100
AcDbEntity
  8
93780800R00_BL4
100
AcDbCircle
 62
7
  6
CONTINUOUS
 10
447.5039860075
 20
22.9599486217
 40
300.5261570386
100
AcDbArc
 50
148.0925201906
 51
148.2631633589
  0
ARC
  5
3DF
100
AcDbEntity
  8
93780800R00_BL4
100
AcDbCircle
 62
7
  6
CONTINUOUS
 10
352.059383618
 20
437.2630834307
 40
300.5261569991
100
AcDbArc
 50
238.0925201906
 51
238.263163359
  0
SPLINE
  5
3E0
100
AcDbEntity
  8
93780800R00_BL4
100
AcDbSpline
 62
7
  6
CONTINUOUS
 70
0
 71
3
 72
9
 73
5
 74
0
 42
0.0000001
 43
0.0000001
 44
0.0000000001
 40
0.0
 40
0.0
 40
0.0
 40
0.0
 40
0.2494291971
 40
1.0
 40
1.0
 40
1.0
 40
1.0
 10
191.2831834706
 20
181.673671952
 30
0.0
 10
191.3464472547
 20
181.712859224
 30
0.0
 10
191.6000597019
 20
181.8700020293
 30
0.0
 10
191.8536644132
 20
182.0271586582
 30
0.0
 10
192.0436993807
 20
182.1456190776
 30
0.0
  0
LINE
  5
3E1
100
AcDbEntity
  8
93780800R00_BL4
100
AcDbLine
 62
7
  6
CONTINUOUS
 10
192.0436993807
 20
182.1456190776
 11
192.0578396505
 21
182.1585707954
  0
SPLINE
  5
3E2
100
AcDbEntity
  8
93780800R00_BL4
100
AcDbSpline
 62
7
  6
CONTINUOUS
 70
0
 71
3
 72
9
 73
5
 74
0
 42
0.0000001
 43
0.0000001
 44
0.0000000001
 40
0.0
 40
0.0
 40
0.0
 40
0.0
 40
0.2456562058
 40
1.0
 40
1.0
 40
1.0
 40
1.0
 10
192.0578396505
 20
182.1585707954
 30
0.0
 10
192.0660867763
 20
182.1773808443
 30
0.0
 10
192.0995297661
 20
182.2540073766
 30
0.0
 10
192.1323344635
 20
182.3309166367
 30
0.0
 10
192.1563956651
 20
182.3892148586
 30
0.0
  0
SPLINE
  5
3E3
100
AcDbEntity
  8
93780800R00_BL4
100
AcDbSpline
 62
7
  6
CONTINUOUS
 70
0
 71
3
 72
9
 73
5
 74
0
 42
0.0000001
 43
0.0000001
 44
0.0000000001
 40
0.0
 40
0.0
 40
0.0
 40
0.0
 40
0.2546871947
 40
1.0
 40
1.0
 40
1.0
 40
1.0
 10
192.1563956651
 20
182.3892148586
 30
0.0
 10
192.1482719151
 20
182.408898006
 30
0.0
 10
192.1160634334
 20
182.486053171
 30
0.0
 10
192.0828612407
 20
182.5627896651
 30
0.0
 10
192.0578396505
 20
182.6198589218
 30
0.0
  0
LINE
  5
3E4
100
AcDbEntity
  8
93780800R00_BL4
100
AcDbLine
 62
7
  6
CONTINUOUS
 10
192.0578396505
 20
182.6198589218
 11
192.0436993807
 21
182.6328106396
  0
SPLINE
  5
3E5
100
AcDbEntity
  8
93780800R00_BL4
100
AcDbSpline
 62
7
  6
CONTINUOUS
 70
0
 71
3
 72
9
 73
5
 74
0
 42
0.0000001
 43
0.0000001
 44
0.0000000001
 40
0.0
 40
0.0
 40
0.0
 40
0.0
 40
0.2494291971
 40
1.0
 40
1.0
 40
1.0
 40
1.0
 10
193.9770513331
 20
183.1047577651
 30
0.0
 10
193.913787549
 20
183.0655704931
 30
0.0
 10
193.6601751018
 20
182.9084276879
 30
0.0
 10
193.4065703906
 20
182.7512710589
 30
0.0
 10
193.216535423
 20
182.6328106396
 30
0.0
  0
LINE
  5
3E6
100
AcDbEntity
  8
93780800R00_BL4
100
AcDbLine
 62
7
  6
CONTINUOUS
 10
193.216535423
 20
182.6328106396
 11
193.2023951532
 21
182.6198589218
  0
SPLINE
  5
3E7
100
AcDbEntity
  8
93780800R00_BL4
100
AcDbSpline
 62
7
  6
CONTINUOUS
 70
0
 71
3
 72
9
 73
5
 74
0
 42
0.0000001
 43
0.0000001
 44
0.0000000001
 40
0.0
 40
0.0
 40
0.0
 40
0.0
 40
0.2456562058
 40
1.0
 40
1.0
 40
1.0
 40
1.0
 10
193.2023951532
 20
182.6198589218
 30
0.0
 10
193.1941480275
 20
182.6010488729
 30
0.0
 10
193.1607050376
 20
182.5244223405
 30
0.0
 10
193.1279003403
 20
182.4475130805
 30
0.0
 10
193.1038391387
 20
182.3892148586
 30
0.0
  0
SPLINE
  5
3E8
100
AcDbEntity
  8
93780800R00_BL4
100
AcDbSpline
 62
7
  6
CONTINUOUS
 70
0
 71
3
 72
9
 73
5
 74
0
 42
0.0000001
 43
0.0000001
 44
0.0000000001
 40
0.0
 40
0.0
 40
0.0
 40
0.0
 40
0.2546871947
 40
1.0
 40
1.0
 40
1.0
 40
1.0
 10
193.1038391387
 20
182.3892148586
 30
0.0
 10
193.1119628886
 20
182.3695317112
 30
0.0
 10
193.1441713703
 20
182.2923765462
 30
0.0
 10
193.177373563
 20
182.2156400521
 30
0.0
 10
193.2023951532
 20
182.1585707954
 30
0.0
  0
LINE
  5
3E9
100
AcDbEntity
  8
93780800R00_BL4
100
AcDbLine
 62
7
  6
CONTINUOUS
 10
193.2023951532
 20
182.1585707954
 11
193.216535423
 21
182.1456190776
  0
SPLINE
  5
3EA
100
AcDbEntity
  8
93780800R00_BL4
100
AcDbSpline
 62
7
  6
CONTINUOUS
 70
0
 71
3
 72
9
 73
5
 74
0
 42
0.0000001
 43
0.0000001
 44
0.0000000001
 40
0.0
 40
0.0
 40
0.0
 40
0.0
 40
0.2494291971
 40
1.0
 40
1.0
 40
1.0
 40
1.0
 10
191.9145744953
 20
183.7361487898
 30
0.0
 10
191.9537617673
 20
183.6728850057
 30
0.0
 10
192.1109045726
 20
183.4192725585
 30
0.0
 10
192.2680612015
 20
183.1656678473
 30
0.0
 10
192.3865216209
 20
182.9756328797
 30
0.0
  0
LINE
  5
3EB
100
AcDbEntity
  8
93780800R00_BL4
100
AcDbLine
 62
7
  6
CONTINUOUS
 10
192.3865216209
 20
182.9756328797
 11
192.3994733386
 21
182.9614926099
  0
SPLINE
  5
3EC
100
AcDbEntity
  8
93780800R00_BL4
100
AcDbSpline
 62
7
  6
CONTINUOUS
 70
0
 71
3
 72
9
 73
5
 74
0
 42
0.0000001
 43
0.0000001
 44
0.0000000001
 40
0.0
 40
0.0
 40
0.0
 40
0.0
 40
0.2456562051
 40
1.0
 40
1.0
 40
1.0
 40
1.0
 10
192.3994733386
 20
182.9614926099
 30
0.0
 10
192.4182833875
 20
182.9532454842
 30
0.0
 10
192.4949099199
 20
182.9198024944
 30
0.0
 10
192.5718191799
 20
182.886997797
 30
0.0
 10
192.6301174019
 20
182.8629365954
 30
0.0
  0
SPLINE
  5
3ED
100
AcDbEntity
  8
93780800R00_BL4
100
AcDbSpline
 62
7
  6
CONTINUOUS
 70
0
 71
3
 72
9
 73
5
 74
0
 42
0.0000001
 43
0.0000001
 44
0.0000000001
 40
0.0
 40
0.0
 40
0.0
 40
0.0
 40
0.2546871958
 40
1.0
 40
1.0
 40
1.0
 40
1.0
 10
192.6301174019
 20
182.8629365954
 30
0.0
 10
192.6498005494
 20
182.8710603454
 30
0.0
 10
192.7269557143
 20
182.9032688271
 30
0.0
 10
192.8036922085
 20
182.9364710198
 30
0.0
 10
192.8607614651
 20
182.9614926099
 30
0.0
  0
LINE
  5
3EE
100
AcDbEntity
  8
93780800R00_BL4
100
AcDbLine
 62
7
  6
CONTINUOUS
 10
192.8607614651
 20
182.9614926099
 11
192.8737131828
 21
182.9756328797
  0
SPLINE
  5
3EF
100
AcDbEntity
  8
93780800R00_BL4
100
AcDbSpline
 62
7
  6
CONTINUOUS
 70
0
 71
3
 72
9
 73
5
 74
0
 42
0.0000001
 43
0.0000001
 44
0.0000000001
 40
0.0
 40
0.0
 40
0.0
 40
0.0
 40
0.2494291971
 40
1.0
 40
1.0
 40
1.0
 40
1.0
 10
193.3456603084
 20
181.0422809274
 30
0.0
 10
193.3064730364
 20
181.1055447115
 30
0.0
 10
193.1493302311
 20
181.3591571587
 30
0.0
 10
192.9921736022
 20
181.6127618699
 30
0.0
 10
192.8737131828
 20
181.8027968375
 30
0.0
  0
LINE
  5
3F0
100
AcDbEntity
  8
93780800R00_BL4
100
AcDbLine
 62
7
  6
CONTINUOUS
 10
192.8737131828
 20
181.8027968375
 11
192.8607614651
 21
181.8169371073
  0
SPLINE
  5
3F1
100
AcDbEntity
  8
93780800R00_BL4
100
AcDbSpline
 62
7
  6
CONTINUOUS
 70
0
 71
3
 72
9
 73
5
 74
0
 42
0.0000001
 43
0.0000001
 44
0.0000000001
 40
0.0
 40
0.0
 40
0.0
 40
0.0
 40
0.2456562051
 40
1.0
 40
1.0
 40
1.0
 40
1.0
 10
192.8607614651
 20
181.8169371073
 30
0.0
 10
192.8419514162
 20
181.825184233
 30
0.0
 10
192.7653248838
 20
181.8586272228
 30
0.0
 10
192.6884156238
 20
181.8914319202
 30
0.0
 10
192.6301174019
 20
181.9154931218
 30
0.0
  0
SPLINE
  5
3F2
100
AcDbEntity
  8
93780800R00_BL4
100
AcDbSpline
 62
7
  6
CONTINUOUS
 70
0
 71
3
 72
9
 73
5
 74
0
 42
0.0000001
 43
0.0000001
 44
0.0000000001
 40
0.0
 40
0.0
 40
0.0
 40
0.0
 40
0.2546871958
 40
1.0
 40
1.0
 40
1.0
 40
1.0
 10
192.6301174019
 20
181.9154931218
 30
0.0
 10
192.6104342543
 20
181.9073693718
 30
0.0
 10
192.5332790894
 20
181.8751608901
 30
0.0
 10
192.4565425953
 20
181.8419586974
 30
0.0
 10
192.3994733386
 20
181.8169371073
 30
0.0
  0
LINE
  5
3F3
100
AcDbEntity
  8
93780800R00_BL4
100
AcDbLine
 62
7
  6
CONTINUOUS
 10
192.3994733386
 20
181.8169371073
 11
192.3865216209
 21
181.8027968375
  0
SPLINE
  5
3F4
100
AcDbEntity
  8
93780800R00_BL4
100
AcDbSpline
 62
7
  6
CONTINUOUS
 70
0
 71
3
 72
10
 73
6
 74
0
 42
0.0000001
 43
0.0000001
 44
0.0000000001
 40
0.0
 40
0.0
 40
0.0
 40
0.0
 40
0.1744823037
 40
0.4139756216
 40
1.0
 40
1.0
 40
1.0
 40
1.0
 10
191.2831834706
 20
183.1047577651
 30
0.0
 10
191.260524644
 20
183.1187932456
 30
0.0
 10
191.2099907497
 20
183.1571083806
 30
0.0
 10
191.0939818238
 20
183.2564451193
 30
0.0
 10
191.0039188426
 20
183.3450010124
 30
0.0
 10
190.9417328911
 20
183.4093964502
 30
0.0
  0
SPLINE
  5
3F5
100
AcDbEntity
  8
93780800R00_BL4
100
AcDbSpline
 62
7
  6
CONTINUOUS
 70
0
 71
3
 72
10
 73
6
 74
0
 42
0.0000001
 43
0.0000001
 44
0.0000000001
 40
0.0
 40
0.0
 40
0.0
 40
0.0
 40
0.5860290742
 40
0.8255203224
 40
1.0
 40
1.0
 40
1.0
 40
1.0
 10
191.6099358103
 20
184.0775993693
 30
0.0
 10
191.6743317656
 20
184.0154129181
 30
0.0
 10
191.7628877741
 20
183.925349508
 30
0.0
 10
191.8622247907
 20
183.8093407917
 30
0.0
 10
191.9005392258
 20
183.758807276
 30
0.0
 10
191.9145744953
 20
183.7361487898
 30
0.0
  0
SPLINE
  5
3F6
100
AcDbEntity
  8
93780800R00_BL4
100
AcDbSpline
 62
7
  6
CONTINUOUS
 70
0
 71
3
 72
10
 73
6
 74
0
 42
0.0000001
 43
0.0000001
 44
0.0000000001
 40
0.0
 40
0.0
 40
0.0
 40
0.0
 40
0.1744823037
 40
0.4139756216
 40
1.0
 40
1.0
 40
1.0
 40
1.0
 10
193.3456603084
 20
183.7361487898
 30
0.0
 10
193.3596957888
 20
183.7588076164
 30
0.0
 10
193.3980109239
 20
183.8093415107
 30
0.0
 10
193.4973476626
 20
183.9253504367
 30
0.0
 10
193.5859035556
 20
184.0154134179
 30
0.0
 10
193.6502989934
 20
184.0775993693
 30
0.0
  0
SPLINE
  5
3F7
100
AcDbEntity
  8
93780800R00_BL4
100
AcDbSpline
 62
7
  6
CONTINUOUS
 70
0
 71
3
 72
10
 73
6
 74
0
 42
0.0000001
 43
0.0000001
 44
0.0000000001
 40
0.0
 40
0.0
 40
0.0
 40
0.0
 40
0.5860290742
 40
0.8255203224
 40
1.0
 40
1.0
 40
1.0
 40
1.0
 10
194.3185019126
 20
183.4093964502
 30
0.0
 10
194.2563154613
 20
183.3450004948
 30
0.0
 10
194.1662520512
 20
183.2564444864
 30
0.0
 10
194.050243335
 20
183.1571074697
 30
0.0
 10
193.9997098192
 20
183.1187930346
 30
0.0
 10
193.9770513331
 20
183.1047577651
 30
0.0
  0
SPLINE
  5
3F8
100
AcDbEntity
  8
93780800R00_BL4
100
AcDbSpline
 62
7
  6
CONTINUOUS
 70
0
 71
3
 72
10
 73
6
 74
0
 42
0.0000001
 43
0.0000001
 44
0.0000000001
 40
0.0
 40
0.0
 40
0.0
 40
0.0
 40
0.1744823037
 40
0.4139756216
 40
1.0
 40
1.0
 40
1.0
 40
1.0
 10
193.9770513331
 20
181.673671952
 30
0.0
 10
193.9997101597
 20
181.6596364716
 30
0.0
 10
194.050244054
 20
181.6213213366
 30
0.0
 10
194.1662529799
 20
181.5219845979
 30
0.0
 10
194.2563159611
 20
181.4334287048
 30
0.0
 10
194.3185019126
 20
181.369033267
 30
0.0
  0
SPLINE
  5
3F9
100
AcDbEntity
  8
93780800R00_BL4
100
AcDbSpline
 62
7
  6
CONTINUOUS
 70
0
 71
3
 72
10
 73
6
 74
0
 42
0.0000001
 43
0.0000001
 44
0.0000000001
 40
0.0
 40
0.0
 40
0.0
 40
0.0
 40
0.5860290742
 40
0.8255203224
 40
1.0
 40
1.0
 40
1.0
 40
1.0
 10
193.6502989934
 20
180.7008303479
 30
0.0
 10
193.5859030381
 20
180.7630167991
 30
0.0
 10
193.4973470296
 20
180.8530802092
 30
0.0
 10
193.398010013
 20
180.9690889255
 30
0.0
 10
193.3596955779
 20
181.0196224412
 30
0.0
 10
193.3456603084
 20
181.0422809274
 30
0.0
  0
SPLINE
  5
3FA
100
AcDbEntity
  8
93780800R00_BL4
100
AcDbSpline
 62
7
  6
CONTINUOUS
 70
0
 71
3
 72
10
 73
6
 74
0
 42
0.0000001
 43
0.0000001
 44
0.0000000001
 40
0.0
 40
0.0
 40
0.0
 40
0.0
 40
0.1744823037
 40
0.4139756216
 40
1.0
 40
1.0
 40
1.0
 40
1.0
 10
191.9145744953
 20
181.0422809274
 30
0.0
 10
191.9005390149
 20
181.0196221007
 30
0.0
 10
191.8622238798
 20
180.9690882064
 30
0.0
 10
191.7628871412
 20
180.8530792805
 30
0.0
 10
191.6743312481
 20
180.7630162993
 30
0.0
 10
191.6099358103
 20
180.7008303479
 30
0.0
  0
SPLINE
  5
3FB
100
AcDbEntity
  8
93780800R00_BL4
100
AcDbSpline
 62
7
  6
CONTINUOUS
 70
0
 71
3
 72
10
 73
6
 74
0
 42
0.0000001
 43
0.0000001
 44
0.0000000001
 40
0.0
 40
0.0
 40
0.0
 40
0.0
 40
0.5860290742
 40
0.8255203224
 40
1.0
 40
1.0
 40
1.0
 40
1.0
 10
190.9417328911
 20
181.369033267
 30
0.0
 10
191.0039193424
 20
181.4334292224
 30
0.0
 10
191.0939827525
 20
181.5219852308
 30
0.0
 10
191.2099914687
 20
181.6213222475
 30
0.0
 10
191.2605249845
 20
181.6596366825
 30
0.0
 10
191.2831834706
 20
181.673671952
 30
0.0
  0
ENDBLK
  5
3FC
100
AcDbEntity
  8
0
  6
BYBLOCK
 62
0
100
AcDbBlockEnd
  0
BLOCK
  5
3FD
100
AcDbEntity
  8
93773508000_BL5
100
AcDbBlockBegin
  2
93773508000_BL5
 70
64
 10
147.0951811833
 20
261.7542148586
  3
93773508000_BL5
  1

  0
LINE
  5
3FE
100
AcDbEntity
  8
93773508000_BL5
100
AcDbLine
 62
7
  6
CONTINUOUS
 10
176.6301174019
 20
268.2542148586
 11
176.6301174019
 21
276.2542148586
  0
LINE
  5
3FF
100
AcDbEntity
  8
93773508000_BL5
100
AcDbLine
 62
9
  6
CONTINUOUS
 10
179.1301174019
 20
271.7542148586
 11
179.1301174019
 21
268.2542148586
  0
LINE
  5
400
100
AcDbEntity
  8
93773508000_BL5
100
AcDbLine
 62
7
  6
CENTER
 10
188.6301174019
 20
256.2542148586
 11
188.6301174019
 21
247.2542148586
  0
LINE
  5
401
100
AcDbEntity
  8
93773508000_BL5
100
AcDbLine
 62
7
  6
CENTER
 10
188.6301174019
 20
256.2542148586
 11
188.6301174019
 21
265.2542148586
  0
LINE
  5
402
100
AcDbEntity
  8
93773508000_BL5
100
AcDbLine
 62
9
  6
CONTINUOUS
 10
198.1301174019
 20
271.7542148586
 11
198.1301174019
 21
268.2542148586
  0
LINE
  5
403
100
AcDbEntity
  8
93773508000_BL5
100
AcDbLine
 62
7
  6
CONTINUOUS
 10
200.6301174019
 20
275.7853437327
 11
200.6301174019
 21
268.2542148586
  0
LINE
  5
404
100
AcDbEntity
  8
93773508000_BL5
100
AcDbLine
 62
7
  6
CONTINUOUS
 10
200.6301174019
 20
276.2542148586
 11
200.6301174019
 21
268.2542148586
  0
LINE
  5
405
100
AcDbEntity
  8
93773508000_BL5
100
AcDbLine
 62
7
  6
CENTER
 10
188.6301174019
 20
256.2542148586
 11
179.6301174019
 21
256.2542148586
  0
LINE
  5
406
100
AcDbEntity
  8
93773508000_BL5
100
AcDbLine
 62
7
  6
CENTER
 10
188.6301174019
 20
256.2542148586
 11
197.6301174019
 21
256.2542148586
  0
LINE
  5
407
100
AcDbEntity
  8
93773508000_BL5
100
AcDbLine
 62
7
  6
CONTINUOUS
 10
200.6301174019
 20
268.2542148586
 11
176.6301174019
 21
268.2542148586
  0
LINE
  5
408
100
AcDbEntity
  8
93773508000_BL5
100
AcDbLine
 62
9
  6
CONTINUOUS
 10
198.1301174019
 20
271.7542148586
 11
179.1301174019
 21
271.7542148586
  0
LINE
  5
409
100
AcDbEntity
  8
93773508000_BL5
100
AcDbLine
 62
7
  6
CONTINUOUS
 10
200.6301174019
 20
276.2542148586
 11
176.6301174019
 21
276.2542148586
  0
LINE
  5
40A
100
AcDbEntity
  8
93773508000_BL5
100
AcDbLine
 62
7
  6
CONTINUOUS
 10
95.0133956778
 20
271.7542148586
 11
95.0133956778
 21
268.2542148586
  0
LINE
  5
40B
100
AcDbEntity
  8
93773508000_BL5
100
AcDbLine
 62
9
  6
CONTINUOUS
 10
97.5133956778
 20
275.7853437327
 11
97.5133956778
 21
268.2542148586
  0
LINE
  5
40C
100
AcDbEntity
  8
93773508000_BL5
100
AcDbLine
 62
7
  6
CONTINUOUS
 10
101.0133956778
 20
276.2542148586
 11
101.0133956778
 21
268.2542148586
  0
LINE
  5
40D
100
AcDbEntity
  8
93773508000_BL5
100
AcDbLine
 62
7
  6
CENTER
 10
104.0133956778
 20
256.2542148586
 11
93.5602449647
 21
256.2542148586
  0
LINE
  5
40E
100
AcDbEntity
  8
93773508000_BL5
100
AcDbLine
 62
7
  6
CONTINUOUS
 10
101.0133956778
 20
268.2542148586
 11
95.0133956778
 21
268.2542148586
  0
LINE
  5
40F
100
AcDbEntity
  8
93773508000_BL5
100
AcDbLine
 62
7
  6
CONTINUOUS
 10
101.0133956778
 20
276.2542148586
 11
99.5133956778
 21
276.2542148586
  0
ARC
  5
410
100
AcDbEntity
  8
93773508000_BL5
100
AcDbCircle
 62
7
  6
CONTINUOUS
 10
99.5133956778
 20
271.7542148586
 40
4.5
100
AcDbArc
 50
90.0
 51
180.0
  0
SPLINE
  5
411
100
AcDbEntity
  8
93773508000_BL5
100
AcDbSpline
 62
7
  6
CONTINUOUS
 70
0
 71
3
 72
15
 73
11
 74
0
 42
0.0000001
 43
0.0000001
 44
0.0000000001
 40
0.0
 40
0.0
 40
0.0
 40
0.0
 40
0.2949059487
 40
0.4382402744
 40
0.5760880077
 40
0.7055877919
 40
0.8228100893
 40
0.9225680099
 40
0.9642475189
 40
1.0
 40
1.0
 40
1.0
 40
1.0
 10
179.1301174019
 20
271.7542148586
 30
0.0
 10
178.8493471766
 20
272.1309076444
 30
0.0
 10
178.4319309759
 20
272.6905691803
 30
0.0
 10
177.8942871677
 20
273.4344228895
 30
0.0
 10
177.5203979532
 20
273.9713486162
 30
0.0
 10
177.1847591294
 20
274.4841898344
 30
0.0
 10
176.9058007919
 20
274.96050221
 30
0.0
 10
176.7281276144
 20
275.3342395255
 30
0.0
 10
176.6467540548
 20
275.6050826319
 30
0.0
 10
176.6301174019
 20
275.7283859966
 30
0.0
 10
176.6301174019
 20
275.7853437327
 30
0.0
  0
SPLINE
  5
412
100
AcDbEntity
  8
93773508000_BL5
100
AcDbSpline
 62
7
  6
CONTINUOUS
 70
0
 71
3
 72
15
 73
11
 74
0
 42
0.0000001
 43
0.0000001
 44
0.0000000001
 40
0.0
 40
0.0
 40
0.0
 40
0.0
 40
0.035754175
 40
0.0774524355
 40
0.1772379426
 40
0.2944879652
 40
0.4240003305
 40
0.5618483148
 40
0.7051632096
 40
1.0
 40
1.0
 40
1.0
 40
1.0
 10
200.6301174019
 20
275.7853437327
 30
0.0
 10
200.6301174019
 20
275.7283832852
 30
0.0
 10
200.6134526497
 20
275.6050511374
 30
0.0
 10
200.5321045659
 20
275.3341221572
 30
0.0
 10
200.3543189397
 20
274.9602995157
 30
0.0
 10
200.0753089118
 20
274.483896987
 30
0.0
 10
199.7396158643
 20
273.971011981
 30
0.0
 10
199.3657263968
 20
273.4340997377
 30
0.0
 10
198.8281543971
 20
272.6903672913
 30
0.0
 10
198.4108218477
 20
272.1308193921
 30
0.0
 10
198.1301174019
 20
271.7542148586
 30
0.0
  0
ENDBLK
  5
413
100
AcDbEntity
  8
0
  6
BYBLOCK
 62
0
100
AcDbBlockEnd
  0
BLOCK
  5
414
100
AcDbEntity
  8
93894102000_BL6
100
AcDbBlockBegin
  2
93894102000_BL6
 70
64
 10
146.3217565398
 20
119.3971079076
  3
93894102000_BL6
  1

  0
LINE
  5
415
100
AcDbEntity
  8
93894102000_BL6
100
AcDbLine
 62
7
  6
CONTINUOUS
 10
185.8301174019
 20
176.1892148586
 11
184.1301174019
 21
174.4892148586
  0
LINE
  5
416
100
AcDbEntity
  8
93894102000_BL6
100
AcDbLine
 62
7
  6
CONTINUOUS
 10
184.1301174019
 20
174.4892148586
 11
183.5301174019
 21
173.8892148586
  0
LINE
  5
417
100
AcDbEntity
  8
93894102000_BL6
100
AcDbLine
 62
7
  6
CONTINUOUS
 10
185.8301174019
 20
176.1892148586
 11
186.137224183
 21
176.4963216398
  0
LINE
  5
418
100
AcDbEntity
  8
93894102000_BL6
100
AcDbLine
 62
7
  6
CONTINUOUS
 10
180.6301174019
 20
173.8892148586
 11
180.6301174019
 21
221.8892148586
  0
LINE
  5
419
100
AcDbEntity
  8
93894102000_BL6
100
AcDbLine
 62
9
  6
CONTINUOUS
 10
182.5907133039
 20
217.3616977679
 11
182.5907133039
 21
178.4167319962
  0
LINE
  5
41A
100
AcDbEntity
  8
93894102000_BL6
100
AcDbLine
 62
9
  6
CONTINUOUS
 10
182.9837308734
 20
217.3892148586
 11
182.9837308734
 21
178.3892148586
  0
LINE
  5
41B
100
AcDbEntity
  8
93894102000_BL6
100
AcDbLine
 62
9
  6
CONTINUOUS
 10
183.1301174019
 20
221.8892148586
 11
183.1301174019
 21
173.8892148586
  0
LINE
  5
41C
100
AcDbEntity
  8
93894102000_BL6
100
AcDbLine
 62
7
  6
CONTINUOUS
 10
184.1301174019
 20
221.2892148586
 11
184.1301174019
 21
174.4892148586
  0
LINE
  5
41D
100
AcDbEntity
  8
93894102000_BL6
100
AcDbLine
 62
9
  6
CONTINUOUS
 10
185.1301174019
 20
175.4892148586
 11
185.1301174019
 21
220.2892148586
  0
LINE
  5
41E
100
AcDbEntity
  8
93894102000_BL6
100
AcDbLine
 62
7
  6
CONTINUOUS
 10
185.8301174019
 20
219.5892148586
 11
185.8301174019
 21
217.4507676714
  0
LINE
  5
41F
100
AcDbEntity
  8
93894102000_BL6
100
AcDbLine
 62
7
  6
CONTINUOUS
 10
185.8301174019
 20
217.3294998589
 11
185.8301174019
 21
213.4489298583
  0
LINE
  5
420
100
AcDbEntity
  8
93894102000_BL6
100
AcDbLine
 62
7
  6
CONTINUOUS
 10
185.8301174019
 20
213.3276620458
 11
185.8301174019
 21
182.4507676714
  0
LINE
  5
421
100
AcDbEntity
  8
93894102000_BL6
100
AcDbLine
 62
7
  6
CONTINUOUS
 10
185.8301174019
 20
178.3276620458
 11
185.8301174019
 21
176.1892148586
  0
LINE
  5
422
100
AcDbEntity
  8
93894102000_BL6
100
AcDbLine
 62
7
  6
CONTINUOUS
 10
185.8301174019
 20
178.4489298583
 11
185.8301174019
 21
182.3294998589
  0
LINE
  5
423
100
AcDbEntity
  8
93894102000_BL6
100
AcDbLine
 62
7
  6
CONTINUOUS
 10
189.8301174019
 20
176.7892148586
 11
189.8301174019
 21
178.3892148586
  0
LINE
  5
424
100
AcDbEntity
  8
93894102000_BL6
100
AcDbLine
 62
7
  6
CONTINUOUS
 10
189.8301174019
 20
178.3892148586
 11
189.8301174019
 21
181.476800479
  0
LINE
  5
425
100
AcDbEntity
  8
93894102000_BL6
100
AcDbLine
 62
7
  6
CONTINUOUS
 10
189.8301174019
 20
183.3016292381
 11
189.8301174019
 21
212.476800479
  0
LINE
  5
426
100
AcDbEntity
  8
93894102000_BL6
100
AcDbLine
 62
7
  6
CONTINUOUS
 10
189.8301174019
 20
214.3016292381
 11
189.8301174019
 21
217.3892148586
  0
LINE
  5
427
100
AcDbEntity
  8
93894102000_BL6
100
AcDbLine
 62
7
  6
CONTINUOUS
 10
189.8301174019
 20
217.3892148586
 11
189.8301174019
 21
218.9892148586
  0
LINE
  5
428
100
AcDbEntity
  8
93894102000_BL6
100
AcDbLine
 62
7
  6
CONTINUOUS
 10
195.3811997733
 20
200.8257669766
 11
195.3811997733
 21
200.0699991366
  0
LINE
  5
429
100
AcDbEntity
  8
93894102000_BL6
100
AcDbLine
 62
4
  6
CONTINUOUS
 10
195.3811997733
 20
200.8257669766
 11
195.3811997733
 21
200.0699991366
  0
LINE
  5
42A
100
AcDbEntity
  8
93894102000_BL6
100
AcDbLine
 62
7
  6
CONTINUOUS
 10
195.3811997733
 20
199.4188760744
 11
195.3811997733
 21
198.6631082346
  0
LINE
  5
42B
100
AcDbEntity
  8
93894102000_BL6
100
AcDbLine
 62
4
  6
CONTINUOUS
 10
195.3811997733
 20
199.4188760744
 11
195.3811997733
 21
198.6631082346
  0
LINE
  5
42C
100
AcDbEntity
  8
93894102000_BL6
100
AcDbLine
 62
9
  6
CONTINUOUS
 10
195.5301174019
 20
216.2392148586
 11
195.5301174019
 21
215.2392148586
  0
LINE
  5
42D
100
AcDbEntity
  8
93894102000_BL6
100
AcDbLine
 62
9
  6
CONTINUOUS
 10
195.5301174019
 20
185.2392148586
 11
195.5301174019
 21
184.2392148586
  0
LINE
  5
42E
100
AcDbEntity
  8
93894102000_BL6
100
AcDbLine
 62
9
  6
CONTINUOUS
 10
195.5301174019
 20
180.5392148586
 11
195.5301174019
 21
179.5392148586
  0
LINE
  5
42F
100
AcDbEntity
  8
93894102000_BL6
100
AcDbLine
 62
9
  6
CONTINUOUS
 10
195.5301174019
 20
210.5392148586
 11
195.5301174019
 21
211.5392148586
  0
LINE
  5
430
100
AcDbEntity
  8
93894102000_BL6
100
AcDbLine
 62
7
  6
CONTINUOUS
 10
196.5293855302
 20
198.6631082346
 11
196.52938553
 21
198.1519181287
  0
LINE
  5
431
100
AcDbEntity
  8
93894102000_BL6
100
AcDbLine
 62
4
  6
CONTINUOUS
 10
196.5293855302
 20
198.6631082346
 11
196.52938553
 21
198.1519181287
  0
LINE
  5
432
100
AcDbEntity
  8
93894102000_BL6
100
AcDbLine
 62
7
  6
CONTINUOUS
 10
196.52938553
 20
198.016212664
 11
196.52938553
 21
196.5411446839
  0
LINE
  5
433
100
AcDbEntity
  8
93894102000_BL6
100
AcDbLine
 62
4
  6
CONTINUOUS
 10
196.52938553
 20
198.016212664
 11
196.52938553
 21
196.5411446839
  0
LINE
  5
434
100
AcDbEntity
  8
93894102000_BL6
100
AcDbLine
 62
7
  6
CONTINUOUS
 10
197.1398134008
 20
196.5411446839
 11
197.1398134008
 21
197.2288193889
  0
LINE
  5
435
100
AcDbEntity
  8
93894102000_BL6
100
AcDbLine
 62
4
  6
CONTINUOUS
 10
197.1398134008
 20
196.5411446839
 11
197.1398134008
 21
197.2288193889
  0
LINE
  5
436
100
AcDbEntity
  8
93894102000_BL6
100
AcDbLine
 62
7
  6
CONTINUOUS
 10
197.1398134007
 20
198.1519181287
 11
197.1398134007
 21
198.6631082346
  0
LINE
  5
437
100
AcDbEntity
  8
93894102000_BL6
100
AcDbLine
 62
4
  6
CONTINUOUS
 10
197.1398134007
 20
198.1519181287
 11
197.1398134007
 21
198.6631082346
  0
LINE
  5
438
100
AcDbEntity
  8
93894102000_BL6
100
AcDbLine
 62
7
  6
CONTINUOUS
 10
198.6301174019
 20
177.7892148586
 11
198.6301174019
 21
217.9892148586
  0
LINE
  5
439
100
AcDbEntity
  8
93894102000_BL6
100
AcDbLine
 62
7
  6
CONTINUOUS
 10
180.6301174019
 20
173.8892148586
 11
183.5301174019
 21
173.8892148586
  0
LINE
  5
43A
100
AcDbEntity
  8
93894102000_BL6
100
AcDbLine
 62
7
  6
CONTINUOUS
 10
197.6301174019
 20
176.7892148586
 11
186.8443309642
 21
176.7892148586
  0
LINE
  5
43B
100
AcDbEntity
  8
93894102000_BL6
100
AcDbLine
 62
9
  6
CONTINUOUS
 10
185.8301174019
 20
178.3276620458
 11
185.1301174019
 21
178.3276620458
  0
LINE
  5
43C
100
AcDbEntity
  8
93894102000_BL6
100
AcDbLine
 62
7
  6
CONTINUOUS
 10
182.9837308734
 20
178.3892148586
 11
183.1301174019
 21
178.3892148586
  0
LINE
  5
43D
100
AcDbEntity
  8
93894102000_BL6
100
AcDbLine
 62
9
  6
CONTINUOUS
 10
185.8301174019
 20
178.4489298583
 11
185.1301174019
 21
178.4489298583
  0
LINE
  5
43E
100
AcDbEntity
  8
93894102000_BL6
100
AcDbLine
 62
7
  6
CONTINUOUS
 10
195.5301174019
 20
179.5392148586
 11
192.5301174019
 21
179.5392148586
  0
LINE
  5
43F
100
AcDbEntity
  8
93894102000_BL6
100
AcDbLine
 62
7
  6
CONTINUOUS
 10
194.7677342471
 20
180.5392148586
 11
195.5301174019
 21
180.5392148586
  0
LINE
  5
440
100
AcDbEntity
  8
93894102000_BL6
100
AcDbLine
 62
9
  6
CONTINUOUS
 10
185.8301174019
 20
182.3294998589
 11
185.1301174019
 21
182.3294998589
  0
LINE
  5
441
100
AcDbEntity
  8
93894102000_BL6
100
AcDbLine
 62
9
  6
CONTINUOUS
 10
185.8301174019
 20
182.4507676714
 11
185.1301174019
 21
182.4507676714
  0
LINE
  5
442
100
AcDbEntity
  8
93894102000_BL6
100
AcDbLine
 62
7
  6
CONTINUOUS
 10
195.5301174019
 20
184.2392148586
 11
194.7677342471
 21
184.2392148586
  0
LINE
  5
443
100
AcDbEntity
  8
93894102000_BL6
100
AcDbLine
 62
7
  6
CONTINUOUS
 10
192.5301174019
 20
185.2392148586
 11
195.5301174019
 21
185.2392148586
  0
LINE
  5
444
100
AcDbEntity
  8
93894102000_BL6
100
AcDbLine
 62
7
  6
CONTINUOUS
 10
196.3852323665
 20
197.1484294642
 11
195.9356282198
 21
197.7560345969
  0
LINE
  5
445
100
AcDbEntity
  8
93894102000_BL6
100
AcDbLine
 62
4
  6
CONTINUOUS
 10
196.3852323665
 20
197.1484294642
 11
195.9356282198
 21
197.7560345969
  0
LINE
  5
446
100
AcDbEntity
  8
93894102000_BL6
100
AcDbLine
 62
7
  6
CONTINUOUS
 10
195.3811997733
 20
198.6631082346
 11
196.5293855302
 21
198.6631082346
  0
LINE
  5
447
100
AcDbEntity
  8
93894102000_BL6
100
AcDbLine
 62
4
  6
CONTINUOUS
 10
195.3811997733
 20
198.6631082346
 11
196.5293855302
 21
198.6631082346
  0
LINE
  5
448
100
AcDbEntity
  8
93894102000_BL6
100
AcDbLine
 62
7
  6
CONTINUOUS
 10
197.1398134007
 20
198.6631082346
 11
197.2996873669
 21
198.6631082346
  0
LINE
  5
449
100
AcDbEntity
  8
93894102000_BL6
100
AcDbLine
 62
4
  6
CONTINUOUS
 10
197.1398134007
 20
198.6631082346
 11
197.2996873669
 21
198.6631082346
  0
LINE
  5
44A
100
AcDbEntity
  8
93894102000_BL6
100
AcDbLine
 62
7
  6
CONTINUOUS
 10
197.2996873669
 20
199.4188760744
 11
195.3811997733
 21
199.4188760744
  0
LINE
  5
44B
100
AcDbEntity
  8
93894102000_BL6
100
AcDbLine
 62
4
  6
CONTINUOUS
 10
197.2996873669
 20
199.4188760744
 11
195.3811997733
 21
199.4188760744
  0
LINE
  5
44C
100
AcDbEntity
  8
93894102000_BL6
100
AcDbLine
 62
7
  6
CONTINUOUS
 10
195.3811997733
 20
200.0699991366
 11
197.2996873669
 21
200.0699991366
  0
LINE
  5
44D
100
AcDbEntity
  8
93894102000_BL6
100
AcDbLine
 62
4
  6
CONTINUOUS
 10
195.3811997733
 20
200.0699991366
 11
197.2996873669
 21
200.0699991366
  0
LINE
  5
44E
100
AcDbEntity
  8
93894102000_BL6
100
AcDbLine
 62
7
  6
CONTINUOUS
 10
197.2996873669
 20
200.8257669766
 11
195.3811997733
 21
200.8257669766
  0
LINE
  5
44F
100
AcDbEntity
  8
93894102000_BL6
100
AcDbLine
 62
4
  6
CONTINUOUS
 10
197.2996873669
 20
200.8257669766
 11
195.3811997733
 21
200.8257669766
  0
LINE
  5
450
100
AcDbEntity
  8
93894102000_BL6
100
AcDbLine
 62
7
  6
CONTINUOUS
 10
183.5301174019
 20
221.8892148586
 11
184.1301174019
 21
221.2892148586
  0
LINE
  5
451
100
AcDbEntity
  8
93894102000_BL6
100
AcDbLine
 62
7
  6
CONTINUOUS
 10
185.8301174019
 20
219.5892148586
 11
186.137224183
 21
219.2821080774
  0
LINE
  5
452
100
AcDbEntity
  8
93894102000_BL6
100
AcDbLine
 62
7
  6
CONTINUOUS
 10
185.8301174019
 20
219.5892148586
 11
184.1301174019
 21
221.2892148586
  0
LINE
  5
453
100
AcDbEntity
  8
93894102000_BL6
100
AcDbLine
 62
7
  6
CONTINUOUS
 10
192.5301174019
 20
210.5392148586
 11
195.5301174019
 21
210.5392148586
  0
LINE
  5
454
100
AcDbEntity
  8
93894102000_BL6
100
AcDbLine
 62
7
  6
CONTINUOUS
 10
194.7677342471
 20
211.5392148586
 11
195.5301174019
 21
211.5392148586
  0
LINE
  5
455
100
AcDbEntity
  8
93894102000_BL6
100
AcDbLine
 62
9
  6
CONTINUOUS
 10
185.1301174019
 20
213.3276620458
 11
185.8301174019
 21
213.3276620458
  0
LINE
  5
456
100
AcDbEntity
  8
93894102000_BL6
100
AcDbLine
 62
9
  6
CONTINUOUS
 10
185.1301174019
 20
213.4489298583
 11
185.8301174019
 21
213.4489298583
  0
LINE
  5
457
100
AcDbEntity
  8
93894102000_BL6
100
AcDbLine
 62
7
  6
CONTINUOUS
 10
195.5301174019
 20
215.2392148586
 11
194.7677342471
 21
215.2392148586
  0
LINE
  5
458
100
AcDbEntity
  8
93894102000_BL6
100
AcDbLine
 62
7
  6
CONTINUOUS
 10
195.5301174019
 20
216.2392148586
 11
192.5301174019
 21
216.2392148586
  0
LINE
  5
459
100
AcDbEntity
  8
93894102000_BL6
100
AcDbLine
 62
9
  6
CONTINUOUS
 10
185.1301174019
 20
217.3294998589
 11
185.8301174019
 21
217.3294998589
  0
LINE
  5
45A
100
AcDbEntity
  8
93894102000_BL6
100
AcDbLine
 62
7
  6
CONTINUOUS
 10
182.9837308734
 20
217.3892148586
 11
183.1301174019
 21
217.3892148586
  0
LINE
  5
45B
100
AcDbEntity
  8
93894102000_BL6
100
AcDbLine
 62
9
  6
CONTINUOUS
 10
185.1301174019
 20
217.4507676714
 11
185.8301174019
 21
217.4507676714
  0
LINE
  5
45C
100
AcDbEntity
  8
93894102000_BL6
100
AcDbLine
 62
7
  6
CONTINUOUS
 10
197.6301174019
 20
218.9892148586
 11
186.8443309642
 21
218.9892148586
  0
LINE
  5
45D
100
AcDbEntity
  8
93894102000_BL6
100
AcDbLine
 62
7
  6
CONTINUOUS
 10
180.6301174019
 20
221.8892148586
 11
183.5301174019
 21
221.8892148586
  0
LINE
  5
45E
100
AcDbEntity
  8
93894102000_BL6
100
AcDbLine
 62
7
  6
CONTINUOUS
 10
94.510200303
 20
221.8892148586
 11
94.0133956778
 21
217.3892148586
  0
LINE
  5
45F
100
AcDbEntity
  8
93894102000_BL6
100
AcDbLine
 62
7
  6
CONTINUOUS
 10
94.0133956778
 20
217.3892148586
 11
94.0133956778
 21
178.3892148586
  0
LINE
  5
460
100
AcDbEntity
  8
93894102000_BL6
100
AcDbLine
 62
7
  6
CONTINUOUS
 10
95.0133956778
 20
176.7892148586
 11
95.0133956778
 21
218.9892148586
  0
LINE
  5
461
100
AcDbEntity
  8
93894102000_BL6
100
AcDbLine
 62
7
  6
CONTINUOUS
 10
94.0133956778
 20
178.3892148586
 11
94.510200303
 21
173.8892148586
  0
LINE
  5
462
100
AcDbEntity
  8
93894102000_BL6
100
AcDbLine
 62
7
  6
CONTINUOUS
 10
94.510200303
 20
173.8892148586
 11
95.0133956778
 21
173.8892148586
  0
LINE
  5
463
100
AcDbEntity
  8
93894102000_BL6
100
AcDbLine
 62
7
  6
CONTINUOUS
 10
95.0133956778
 20
176.7892148586
 11
95.1849685531
 21
176.7892148586
  0
LINE
  5
464
100
AcDbEntity
  8
93894102000_BL6
100
AcDbLine
 62
9
  6
CONTINUOUS
 10
95.0133956778
 20
177.7892148586
 11
95.1849685531
 21
177.7892148586
  0
LINE
  5
465
100
AcDbEntity
  8
93894102000_BL6
100
AcDbLine
 62
9
  6
CONTINUOUS
 10
95.1849685531
 20
217.9892148586
 11
95.0133956778
 21
217.9892148586
  0
LINE
  5
466
100
AcDbEntity
  8
93894102000_BL6
100
AcDbLine
 62
7
  6
CONTINUOUS
 10
95.1849685531
 20
218.9892148586
 11
95.0133956778
 21
218.9892148586
  0
LINE
  5
467
100
AcDbEntity
  8
93894102000_BL6
100
AcDbLine
 62
7
  6
CONTINUOUS
 10
94.510200303
 20
221.8892148586
 11
95.0133956778
 21
221.8892148586
  0
LINE
  5
468
100
AcDbEntity
  8
93894102000_BL6
100
AcDbLine
 62
7
  6
CONTINUOUS
 10
180.6301174019
 20
23.9050009566
 11
180.6301174019
 21
20.8508989904
  0
LINE
  5
469
100
AcDbEntity
  8
93894102000_BL6
100
AcDbLine
 62
7
  6
CONTINUOUS
 10
182.9837308734
 20
16.9050009566
 11
183.1301174019
 21
16.9050009566
  0
LINE
  5
46A
100
AcDbEntity
  8
93894102000_BL6
100
AcDbLine
 62
7
  6
CONTINUOUS
 10
182.6172568679
 20
17.4018055818
 11
183.1301174019
 21
17.4018055818
  0
LINE
  5
46B
100
AcDbEntity
  8
93894102000_BL6
100
AcDbLine
 62
7
  6
CONTINUOUS
 10
198.6301174019
 20
17.9050009566
 11
197.6301174019
 21
17.9050009566
  0
LINE
  5
46C
100
AcDbEntity
  8
93894102000_BL6
100
AcDbLine
 62
9
  6
CONTINUOUS
 10
183.1301174019
 20
17.4018055818
 11
183.1301174019
 21
16.9050009566
  0
LINE
  5
46D
100
AcDbEntity
  8
93894102000_BL6
100
AcDbLine
 62
7
  6
CONTINUOUS
 10
183.5301174019
 20
17.4857976748
 11
183.5301174019
 21
17.9050009566
  0
LINE
  5
46E
100
AcDbEntity
  8
93894102000_BL6
100
AcDbLine
 62
7
  6
CONTINUOUS
 10
181.6301174019
 20
23.9050009566
 11
180.6301174019
 21
23.9050009566
  0
LINE
  5
46F
100
AcDbEntity
  8
93894102000_BL6
100
AcDbLine
 62
7
  6
CONTINUOUS
 10
198.6301174019
 20
18.0804481314
 11
198.6301174019
 21
17.9050009566
  0
ARC
  5
470
100
AcDbEntity
  8
93894102000_BL6
100
AcDbCircle
 62
7
  6
CONTINUOUS
 10
187.3389125893
 20
178.3885328575
 40
1.5097783636
100
AcDbArc
 50
178.1363304323
 51
181.8509167553
  0
ARC
  5
471
100
AcDbEntity
  8
93894102000_BL6
100
AcDbCircle
 62
7
  6
CONTINUOUS
 10
184.5999388166
 20
182.3897717837
 40
1.2312534298
100
AcDbArc
 50
357.9587771714
 51
2.0179194736
  0
ARC
  5
472
100
AcDbEntity
  8
93894102000_BL6
100
AcDbCircle
 62
7
  6
CONTINUOUS
 10
186.8443309642
 20
175.7892148586
 40
1.0
100
AcDbArc
 50
90.0
 51
135.0
  0
ARC
  5
473
100
AcDbEntity
  8
93894102000_BL6
100
AcDbCircle
 62
7
  6
CONTINUOUS
 10
186.3302020077
 20
182.4507688956
 40
0.5000846058
100
AcDbArc
 50
180.0001402555
 51
182.0219030702
  0
ARC
  5
474
100
AcDbEntity
  8
93894102000_BL6
100
AcDbCircle
 62
7
  6
CONTINUOUS
 10
186.2914984439
 20
182.3294602012
 40
0.4613810437
100
AcDbArc
 50
177.9559884918
 51
179.9950751819
  0
ARC
  5
475
100
AcDbEntity
  8
93894102000_BL6
100
AcDbCircle
 62
7
  6
CONTINUOUS
 10
192.5301174019
 20
182.3892148586
 40
2.85
100
AcDbArc
 50
90.0
 51
270.0
  0
ARC
  5
476
100
AcDbEntity
  8
93894102000_BL6
100
AcDbCircle
 62
7
  6
CONTINUOUS
 10
195.5301174019
 20
182.3892148586
 40
2.85
100
AcDbArc
 50
270.0
 51
90.0
  0
ARC
  5
477
100
AcDbEntity
  8
93894102000_BL6
100
AcDbCircle
 62
7
  6
CONTINUOUS
 10
195.5301174019
 20
182.3892148586
 40
1.85
100
AcDbArc
 50
270.0
 51
90.0
  0
ARC
  5
478
100
AcDbEntity
  8
93894102000_BL6
100
AcDbCircle
 62
7
  6
CONTINUOUS
 10
197.6301174019
 20
177.7892148586
 40
1.0
100
AcDbArc
 50
270.0
 51
360.0
  0
ARC
  5
479
100
AcDbEntity
  8
93894102000_BL6
100
AcDbCircle
 62
7
  6
CONTINUOUS
 10
196.8345994654
 20
196.5411446839
 40
1.6394348529
100
AcDbArc
 50
79.2706340045
 51
100.7293659955
  0
ARC
  5
47A
100
AcDbEntity
  8
93894102000_BL6
100
AcDbCircle
 62
4
  6
CONTINUOUS
 10
196.8345994654
 20
196.5411446839
 40
1.6394348529
100
AcDbArc
 50
79.2706340045
 51
100.7293659955
  0
ARC
  5
47B
100
AcDbEntity
  8
93894102000_BL6
100
AcDbCircle
 62
7
  6
CONTINUOUS
 10
196.8345994654
 20
196.5120766901
 40
1.534790075
100
AcDbArc
 50
125.8545159679
 51
101.4705154512
  0
ARC
  5
47C
100
AcDbEntity
  8
93894102000_BL6
100
AcDbCircle
 62
4
  6
CONTINUOUS
 10
196.8345994654
 20
196.5120766901
 40
1.534790075
100
AcDbArc
 50
125.8545159679
 51
101.4705154512
  0
ARC
  5
47D
100
AcDbEntity
  8
93894102000_BL6
100
AcDbCircle
 62
7
  6
CONTINUOUS
 10
196.8345994654
 20
196.51207669
 40
0.7790222351
100
AcDbArc
 50
125.2282226131
 51
66.9340105685
  0
ARC
  5
47E
100
AcDbEntity
  8
93894102000_BL6
100
AcDbCircle
 62
4
  6
CONTINUOUS
 10
196.8345994654
 20
196.51207669
 40
0.7790222351
100
AcDbArc
 50
125.2282226131
 51
66.9340105685
  0
ARC
  5
47F
100
AcDbEntity
  8
93894102000_BL6
100
AcDbCircle
 62
7
  6
CONTINUOUS
 10
196.8345994654
 20
196.5411446839
 40
0.3052139354
100
AcDbArc
 50
180.0
 51
360.0
  0
ARC
  5
480
100
AcDbEntity
  8
93894102000_BL6
100
AcDbCircle
 62
4
  6
CONTINUOUS
 10
196.8345994654
 20
196.5411446839
 40
0.3052139354
100
AcDbArc
 50
180.0
 51
360.0
  0
ARC
  5
481
100
AcDbEntity
  8
93894102000_BL6
100
AcDbCircle
 62
7
  6
CONTINUOUS
 10
187.338912593
 20
217.3898968597
 40
1.5097783673
100
AcDbArc
 50
178.1490832491
 51
181.863669563
  0
ARC
  5
482
100
AcDbEntity
  8
93894102000_BL6
100
AcDbCircle
 62
7
  6
CONTINUOUS
 10
184.5999387309
 20
213.3886579335
 40
1.2312535154
100
AcDbArc
 50
357.9820806671
 51
2.041222687
  0
ARC
  5
483
100
AcDbEntity
  8
93894102000_BL6
100
AcDbCircle
 62
7
  6
CONTINUOUS
 10
186.8443309642
 20
219.9892148586
 40
1.0
100
AcDbArc
 50
225.0
 51
270.0
  0
ARC
  5
484
100
AcDbEntity
  8
93894102000_BL6
100
AcDbCircle
 62
7
  6
CONTINUOUS
 10
186.3302020256
 20
213.3276608214
 40
0.5000846238
100
AcDbArc
 50
177.978096906
 51
179.9998597201
  0
ARC
  5
485
100
AcDbEntity
  8
93894102000_BL6
100
AcDbCircle
 62
7
  6
CONTINUOUS
 10
186.291498444
 20
213.448969516
 40
0.4613810438
100
AcDbArc
 50
180.0049248212
 51
182.0440115105
  0
ARC
  5
486
100
AcDbEntity
  8
93894102000_BL6
100
AcDbCircle
 62
7
  6
CONTINUOUS
 10
192.5301174019
 20
213.3892148586
 40
2.85
100
AcDbArc
 50
90.0
 51
270.0
  0
ARC
  5
487
100
AcDbEntity
  8
93894102000_BL6
100
AcDbCircle
 62
7
  6
CONTINUOUS
 10
197.2996873669
 20
199.7444376056
 40
1.081329371
100
AcDbArc
 50
270.0
 51
90.0
  0
ARC
  5
488
100
AcDbEntity
  8
93894102000_BL6
100
AcDbCircle
 62
4
  6
CONTINUOUS
 10
197.2996873669
 20
199.7444376056
 40
1.081329371
100
AcDbArc
 50
270.0
 51
90.0
  0
ARC
  5
489
100
AcDbEntity
  8
93894102000_BL6
100
AcDbCircle
 62
7
  6
CONTINUOUS
 10
197.2996873669
 20
199.7444376055
 40
0.3255615311
100
AcDbArc
 50
270.0
 51
90.0
  0
ARC
  5
48A
100
AcDbEntity
  8
93894102000_BL6
100
AcDbCircle
 62
4
  6
CONTINUOUS
 10
197.2996873669
 20
199.7444376055
 40
0.3255615311
100
AcDbArc
 50
270.0
 51
90.0
  0
ARC
  5
48B
100
AcDbEntity
  8
93894102000_BL6
100
AcDbCircle
 62
7
  6
CONTINUOUS
 10
195.5301174019
 20
213.3892148586
 40
2.85
100
AcDbArc
 50
270.0
 51
90.0
  0
ARC
  5
48C
100
AcDbEntity
  8
93894102000_BL6
100
AcDbCircle
 62
7
  6
CONTINUOUS
 10
195.5301174019
 20
213.3892148586
 40
1.85
100
AcDbArc
 50
270.0
 51
90.0
  0
ARC
  5
48D
100
AcDbEntity
  8
93894102000_BL6
100
AcDbCircle
 62
7
  6
CONTINUOUS
 10
197.6301174019
 20
217.9892148586
 40
1.0
100
AcDbArc
 50
0.0
 51
90.0
  0
ARC
  5
48E
100
AcDbEntity
  8
93894102000_BL6
100
AcDbCircle
 62
9
  6
CONTINUOUS
 10
652.6467068333
 20
137.626841233
 40
471.4262327609
100
AcDbArc
 50
175.0396650838
 51
175.5884183883
  0
ARC
  5
48F
100
AcDbEntity
  8
93894102000_BL6
100
AcDbCircle
 62
9
  6
CONTINUOUS
 10
632.6048210822
 20
137.6140391747
 40
451.8601192172
100
AcDbArc
 50
174.819168691
 51
175.3953593573
  0
ARC
  5
490
100
AcDbEntity
  8
93894102000_BL6
100
AcDbCircle
 62
9
  6
CONTINUOUS
 10
652.6443718964
 20
258.1528692857
 40
471.4240159892
100
AcDbArc
 50
184.4117585256
 51
184.9605145504
  0
ARC
  5
491
100
AcDbEntity
  8
93894102000_BL6
100
AcDbCircle
 62
9
  6
CONTINUOUS
 10
632.6002914114
 20
258.1646491791
 40
451.8556311635
100
AcDbArc
 50
184.6047193785
 51
185.1809158251
  0
ARC
  5
492
100
AcDbEntity
  8
93894102000_BL6
100
AcDbCircle
 62
7
  6
CONTINUOUS
 10
191.6301174019
 20
24.2050009566
 40
11.5
100
AcDbArc
 50
196.9574262942
 51
201.9645953318
  0
ARC
  5
493
100
AcDbEntity
  8
93894102000_BL6
100
AcDbCircle
 62
7
  6
CONTINUOUS
 10
191.6301174019
 20
24.2050009566
 40
11.5
100
AcDbArc
 50
213.2295051982
 51
218.1833931801
  0
ARC
  5
494
100
AcDbEntity
  8
93894102000_BL6
100
AcDbCircle
 62
9
  6
CONTINUOUS
 10
191.7578320422
 20
23.8040296599
 40
11.1597729892
100
AcDbArc
 50
215.7748516451
 51
218.1851803406
  0
ARC
  5
495
100
AcDbEntity
  8
93894102000_BL6
100
AcDbCircle
 62
7
  6
CONTINUOUS
 10
183.1301174019
 20
17.9050009566
 40
1.0
100
AcDbArc
 50
270.0
 51
360.0
  0
ARC
  5
496
100
AcDbEntity
  8
93894102000_BL6
100
AcDbCircle
 62
7
  6
CONTINUOUS
 10
182.9837308734
 20
17.4050009566
 40
0.5
100
AcDbArc
 50
218.1834824332
 51
270.0
  0
SPLINE
  5
497
100
AcDbEntity
  8
93894102000_BL6
100
AcDbSpline
 62
9
  6
CONTINUOUS
 70
0
 71
3
 72
17
 73
13
 74
0
 42
0.0000001
 43
0.0000001
 44
0.0000000001
 40
0.0
 40
0.0
 40
0.0
 40
0.0
 40
0.1941213453
 40
0.3808659009
 40
0.5527156347
 40
0.7033380759
 40
0.826995905
 40
0.9191502315
 40
0.9523783272
 40
0.9767136302
 40
0.992203471
 40
1.0
 40
1.0
 40
1.0
 40
1.0
 10
185.1301174019
 20
182.4507676714
 30
0.0
 10
185.0649681045
 20
182.4507676906
 30
0.0
 10
184.9371446208
 20
182.4500498685
 30
0.0
 10
184.7516676473
 20
182.4468362195
 30
0.0
 10
184.5808522902
 20
182.4415714563
 30
0.0
 10
184.4312607476
 20
182.4344271725
 30
0.0
 10
184.3086475532
 20
182.4257232353
 30
0.0
 10
184.2253616741
 20
182.4167067742
 30
0.0
 10
184.1759616925
 20
182.4086006102
 30
0.0
 10
184.1517847633
 20
182.4025346348
 30
0.0
 10
184.1372928369
 20
182.3978189113
 30
0.0
 10
184.1301232205
 20
182.3918314546
 30
0.0
 10
184.1301174019
 20
182.3892148586
 30
0.0
  0
SPLINE
  5
498
100
AcDbEntity
  8
93894102000_BL6
100
AcDbSpline
 62
9
  6
CONTINUOUS
 70
0
 71
3
 72
8
 73
4
 74
0
 42
0.0000001
 43
0.0000001
 44
0.0000000001
 40
0.0
 40
0.0
 40
0.0
 40
0.0
 40
1.0
 40
1.0
 40
1.0
 40
1.0
 10
189.6801178838
 20
182.390872298
 30
0.0
 10
188.3968892221
 20
182.4050519343
 30
0.0
 10
187.1136605705
 20
182.4192344697
 30
0.0
 10
185.8304287482
 20
182.4331251396
 30
0.0
  0
SPLINE
  5
499
100
AcDbEntity
  8
93894102000_BL6
100
AcDbSpline
 62
9
  6
CONTINUOUS
 70
0
 71
3
 72
10
 73
6
 74
0
 42
0.0000001
 43
0.0000001
 44
0.0000000001
 40
0.0
 40
0.0
 40
0.0
 40
0.0
 40
0.2497595163
 40
0.4996837539
 40
1.0
 40
1.0
 40
1.0
 40
1.0
 10
189.6801198261
 20
182.3892148192
 30
0.0
 10
189.3596185811
 20
182.3856730019
 30
0.0
 10
188.7184221656
 20
182.3770984663
 30
0.0
 10
187.435188441
 20
182.3623890648
 30
0.0
 10
186.4724414294
 20
182.3525710995
 30
0.0
 10
185.8304111641
 20
182.3459207991
 30
0.0
  0
SPLINE
  5
49A
100
AcDbEntity
  8
93894102000_BL6
100
AcDbSpline
 62
7
  6
CONTINUOUS
 70
0
 71
3
 72
17
 73
13
 74
0
 42
0.0000001
 43
0.0000001
 44
0.0000000001
 40
0.0
 40
0.0
 40
0.0
 40
0.0
 40
0.0071901371
 40
0.0224674913
 40
0.0466940972
 40
0.0798960505
 40
0.172287844
 40
0.2961118404
 40
0.4469062976
 40
0.6190626822
 40
0.8061987573
 40
1.0
 40
1.0
 40
1.0
 40
1.0
 10
184.1301174019
 20
217.3341815287
 30
0.0
 10
184.1301174019
 20
217.3365910275
 30
0.0
 10
184.1223970595
 20
217.3417287287
 30
0.0
 10
184.1084046637
 20
217.3457272053
 30
0.0
 10
184.0840234793
 20
217.3510542034
 30
0.0
 10
184.0346352
 20
217.3581785501
 30
0.0
 10
183.9511695893
 20
217.3661691462
 30
0.0
 10
183.8285313074
 20
217.3740363153
 30
0.0
 10
183.67890814
 20
217.3805923192
 30
0.0
 10
183.5080507489
 20
217.3855103753
 30
0.0
 10
183.3227190429
 20
217.3885223581
 30
0.0
 10
183.1950624585
 20
217.3892148586
 30
0.0
 10
183.1301174019
 20
217.3892148586
 30
0.0
  0
SPLINE
  5
49B
100
AcDbEntity
  8
93894102000_BL6
100
AcDbSpline
 62
7
  6
CONTINUOUS
 70
0
 71
3
 72
10
 73
6
 74
0
 42
0.0000001
 43
0.0000001
 44
0.0000000001
 40
0.0
 40
0.0
 40
0.0
 40
0.0
 40
0.284834527
 40
0.5555773827
 40
1.0
 40
1.0
 40
1.0
 40
1.0
 10
182.9837308734
 20
178.3892148586
 30
0.0
 10
182.9463191617
 20
178.3892148586
 30
0.0
 10
182.873423914
 20
178.3940611627
 30
0.0
 10
182.7424527287
 20
178.4033255459
 30
0.0
 10
182.6487168856
 20
178.4101762891
 30
0.0
 10
182.5907133039
 20
178.4167319962
 30
0.0
  0
SPLINE
  5
49C
100
AcDbEntity
  8
93894102000_BL6
100
AcDbSpline
 62
7
  6
CONTINUOUS
 70
0
 71
3
 72
17
 73
13
 74
0
 42
0.0000001
 43
0.0000001
 44
0.0000000001
 40
0.0
 40
0.0
 40
0.0
 40
0.0
 40
0.0071901371
 40
0.0224674913
 40
0.0466940972
 40
0.0798960505
 40
0.172287844
 40
0.2961118404
 40
0.4469062976
 40
0.6190626822
 40
0.8061987573
 40
1.0
 40
1.0
 40
1.0
 40
1.0
 10
184.1301174019
 20
178.4442481885
 30
0.0
 10
184.1301174019
 20
178.4418386897
 30
0.0
 10
184.1223970595
 20
178.4367009885
 30
0.0
 10
184.1084046637
 20
178.4327025119
 30
0.0
 10
184.0840234793
 20
178.4273755137
 30
0.0
 10
184.0346352
 20
178.4202511671
 30
0.0
 10
183.9511695893
 20
178.4122605709
 30
0.0
 10
183.8285313074
 20
178.4043934019
 30
0.0
 10
183.67890814
 20
178.397837398
 30
0.0
 10
183.5080507489
 20
178.3929193419
 30
0.0
 10
183.3227190429
 20
178.3899073591
 30
0.0
 10
183.1950624585
 20
178.3892148586
 30
0.0
 10
183.1301174019
 20
178.3892148586
 30
0.0
  0
SPLINE
  5
49D
100
AcDbEntity
  8
93894102000_BL6
100
AcDbSpline
 62
7
  6
CONTINUOUS
 70
0
 71
3
 72
8
 73
4
 74
0
 42
0.0000001
 43
0.0000001
 44
0.0000000001
 40
0.0
 40
0.0
 40
0.0
 40
0.0
 40
1.0
 40
1.0
 40
1.0
 40
1.0
 10
185.8299328407
 20
217.3407967012
 30
0.0
 10
185.8300553045
 20
217.3370401504
 30
0.0
 10
185.8301797652
 20
217.3332768429
 30
0.0
 10
185.8300259262
 20
217.3295214461
 30
0.0
  0
SPLINE
  5
49E
100
AcDbEntity
  8
93894102000_BL6
100
AcDbSpline
 62
9
  6
CONTINUOUS
 70
0
 71
3
 72
9
 73
5
 74
0
 42
0.0000001
 43
0.0000001
 44
0.0000000001
 40
0.0
 40
0.0
 40
0.0
 40
0.0
 40
0.2957300404
 40
1.0
 40
1.0
 40
1.0
 40
1.0
 10
184.1301173818
 20
217.3892144934
 30
0.0
 10
184.1302574954
 20
217.3839610162
 30
0.0
 10
184.1519462829
 20
217.3754611059
 30
0.0
 10
184.1665415885
 20
217.3724243087
 30
0.0
 10
184.1788415377
 20
217.3701120234
 30
0.0
  0
SPLINE
  5
49F
100
AcDbEntity
  8
93894102000_BL6
100
AcDbSpline
 62
9
  6
CONTINUOUS
 70
0
 71
3
 72
11
 73
7
 74
0
 42
0.0000001
 43
0.0000001
 44
0.0000000001
 40
0.0
 40
0.0
 40
0.0
 40
0.0
 40
0.1487013667
 40
0.3803144243
 40
0.6736716275
 40
1.0
 40
1.0
 40
1.0
 40
1.0
 10
184.1788415377
 20
217.3701120234
 30
0.0
 10
184.2252554434
 20
217.3613866057
 30
0.0
 10
184.3458010324
 20
217.3501453193
 30
0.0
 10
184.559324474
 20
217.3383198199
 30
0.0
 10
184.8296795211
 20
217.3311895058
 30
0.0
 10
185.0264768665
 20
217.3294859651
 30
0.0
 10
185.1301174028
 20
217.329483637
 30
0.0
  0
SPLINE
  5
4A0
100
AcDbEntity
  8
93894102000_BL6
100
AcDbSpline
 62
9
  6
CONTINUOUS
 70
0
 71
3
 72
10
 73
6
 74
0
 42
0.0000001
 43
0.0000001
 44
0.0000000001
 40
0.0
 40
0.0
 40
0.0
 40
0.0
 40
0.1076182238
 40
0.3008405421
 40
1.0
 40
1.0
 40
1.0
 40
1.0
 10
184.1301174019
 20
217.3892148586
 30
0.0
 10
184.1301708145
 20
217.3911750125
 30
0.0
 10
184.1344812117
 20
217.3957714302
 30
0.0
 10
184.1509879446
 20
217.402573986
 30
0.0
 10
184.1672025038
 20
217.4061643906
 30
0.0
 10
184.1797188597
 20
217.4085366797
 30
0.0
  0
SPLINE
  5
4A1
100
AcDbEntity
  8
93894102000_BL6
100
AcDbSpline
 62
9
  6
CONTINUOUS
 70
0
 71
3
 72
11
 73
7
 74
0
 42
0.0000001
 43
0.0000001
 44
0.0000000001
 40
0.0
 40
0.0
 40
0.0
 40
0.0
 40
0.1504439392
 40
0.3831149745
 40
0.6757723127
 40
1.0
 40
1.0
 40
1.0
 40
1.0
 10
184.1797188597
 20
217.4085366797
 30
0.0
 10
184.2266242008
 20
217.4174268893
 30
0.0
 10
184.3479503103
 20
217.4288157529
 30
0.0
 10
184.561919557
 20
217.4413002552
 30
0.0
 10
184.8314860136
 20
217.4489391936
 30
0.0
 10
185.0272301526
 20
217.4507675835
 30
0.0
 10
185.1301174019
 20
217.4507676714
 30
0.0
  0
SPLINE
  5
4A2
100
AcDbEntity
  8
93894102000_BL6
100
AcDbSpline
 62
9
  6
CONTINUOUS
 70
0
 71
3
 72
8
 73
4
 74
0
 42
0.0000001
 43
0.0000001
 44
0.0000000001
 40
0.0
 40
0.0
 40
0.0
 40
0.0
 40
1.0
 40
1.0
 40
1.0
 40
1.0
 10
185.8299218798
 20
217.4386585632
 30
0.0
 10
187.1633245519
 20
217.4225177885
 30
0.0
 10
188.4967212287
 20
217.4058838698
 30
0.0
 10
189.8301174019
 20
217.3892148586
 30
0.0
  0
SPLINE
  5
4A3
100
AcDbEntity
  8
93894102000_BL6
100
AcDbSpline
 62
9
  6
CONTINUOUS
 70
0
 71
3
 72
9
 73
5
 74
0
 42
0.0000001
 43
0.0000001
 44
0.0000000001
 40
0.0
 40
0.0
 40
0.0
 40
0.0
 40
0.2497380704
 40
1.0
 40
1.0
 40
1.0
 40
1.0
 10
185.8299325803
 20
217.3408029346
 30
0.0
 10
186.1629349236
 20
217.3445902034
 30
0.0
 10
187.4963375917
 20
217.3600860827
 30
0.0
 10
188.8297268088
 20
217.3767086444
 30
0.0
 10
189.8301174019
 20
217.3892148586
 30
0.0
  0
SPLINE
  5
4A4
100
AcDbEntity
  8
93894102000_BL6
100
AcDbSpline
 62
7
  6
CONTINUOUS
 70
0
 71
3
 72
8
 73
4
 74
0
 42
0.0000001
 43
0.0000001
 44
0.0000000001
 40
0.0
 40
0.0
 40
0.0
 40
0.0
 40
1.0
 40
1.0
 40
1.0
 40
1.0
 10
185.8299328407
 20
178.437633016
 30
0.0
 10
185.8300553045
 20
178.4413895668
 30
0.0
 10
185.8301797652
 20
178.4451528743
 30
0.0
 10
185.8300259262
 20
178.4489082711
 30
0.0
  0
SPLINE
  5
4A5
100
AcDbEntity
  8
93894102000_BL6
100
AcDbSpline
 62
9
  6
CONTINUOUS
 70
0
 71
3
 72
17
 73
13
 74
0
 42
0.0000001
 43
0.0000001
 44
0.0000000001
 40
0.0
 40
0.0
 40
0.0
 40
0.0
 40
0.1937929879
 40
0.3804752205
 40
0.5523509223
 40
0.7030281402
 40
0.8268897236
 40
0.9192055975
 40
0.9524629853
 40
0.9767488672
 40
0.9922172857
 40
1.0
 40
1.0
 40
1.0
 40
1.0
 10
185.1301174019
 20
178.3276620458
 30
0.0
 10
185.0650916626
 20
178.3276621171
 30
0.0
 10
184.9374254618
 20
178.3284097732
 30
0.0
 10
184.7521106388
 20
178.3317349107
 30
0.0
 10
184.5813288563
 20
178.3371430416
 30
0.0
 10
184.4316782524
 20
178.3444244902
 30
0.0
 10
184.308956834
 20
178.3531832066
 30
0.0
 10
184.2255459136
 20
178.3621636686
 30
0.0
 10
184.1761045154
 20
178.3701784296
 30
0.0
 10
184.1519036837
 20
178.3761172672
 30
0.0
 10
184.1374568771
 20
178.3808033643
 30
0.0
 10
184.1301882794
 20
178.3866054774
 30
0.0
 10
184.1301174019
 20
178.3892159449
 30
0.0
  0
SPLINE
  5
4A6
100
AcDbEntity
  8
93894102000_BL6
100
AcDbSpline
 62
9
  6
CONTINUOUS
 70
0
 71
3
 72
13
 73
9
 74
0
 42
0.0000001
 43
0.0000001
 44
0.0000000001
 40
0.0
 40
0.0
 40
0.0
 40
0.0
 40
0.3517583994
 40
0.6586066217
 40
0.783058351
 40
0.8831087015
 40
0.9560151064
 40
1.0
 40
1.0
 40
1.0
 40
1.0
 10
185.130117403
 20
178.4489460341
 30
0.0
 10
185.0140095935
 20
178.4489433013
 30
0.0
 10
184.7966256764
 20
178.4468655166
 30
0.0
 10
184.5382025813
 20
178.4390976515
 30
0.0
 10
184.3631438896
 20
178.4289221731
 30
0.0
 10
184.2652046022
 20
178.4208021522
 30
0.0
 10
184.1943689356
 20
178.4115006278
 30
0.0
 10
184.1561180131
 20
178.4043259114
 30
0.0
 10
184.1425861255
 20
178.3990653364
 30
0.0
  0
SPLINE
  5
4A7
100
AcDbEntity
  8
93894102000_BL6
100
AcDbSpline
 62
9
  6
CONTINUOUS
 70
0
 71
3
 72
8
 73
4
 74
0
 42
0.0000001
 43
0.0000001
 44
0.0000000001
 40
0.0
 40
0.0
 40
0.0
 40
0.0
 40
1.0
 40
1.0
 40
1.0
 40
1.0
 10
189.8301174019
 20
178.3892148586
 30
0.0
 10
188.4967212287
 20
178.3725458474
 30
0.0
 10
187.1633245519
 20
178.3559119287
 30
0.0
 10
185.8299218798
 20
178.339771154
 30
0.0
  0
SPLINE
  5
4A8
100
AcDbEntity
  8
93894102000_BL6
100
AcDbSpline
 62
9
  6
CONTINUOUS
 70
0
 71
3
 72
9
 73
5
 74
0
 42
0.0000001
 43
0.0000001
 44
0.0000000001
 40
0.0
 40
0.0
 40
0.0
 40
0.0
 40
0.2502703117
 40
1.0
 40
1.0
 40
1.0
 40
1.0
 10
189.8301174019
 20
178.3892148586
 30
0.0
 10
189.4964098644
 20
178.3933866471
 30
0.0
 10
188.1630213507
 20
178.4100457463
 30
0.0
 10
186.8296269326
 20
178.4262571592
 30
0.0
 10
185.8299325803
 20
178.4376267826
 30
0.0
  0
SPLINE
  5
4A9
100
AcDbEntity
  8
93894102000_BL6
100
AcDbSpline
 62
7
  6
CONTINUOUS
 70
0
 71
3
 72
8
 73
4
 74
0
 42
0.0000001
 43
0.0000001
 44
0.0000000001
 40
0.0
 40
0.0
 40
0.0
 40
0.0
 40
1.0
 40
1.0
 40
1.0
 40
1.0
 10
185.8299218798
 20
217.4386585632
 30
0.0
 10
185.8300520989
 20
217.4426909219
 30
0.0
 10
185.8301822405
 20
217.4467303498
 30
0.0
 10
185.8300200148
 20
217.4507615478
 30
0.0
  0
SPLINE
  5
4AA
100
AcDbEntity
  8
93894102000_BL6
100
AcDbSpline
 62
7
  6
CONTINUOUS
 70
0
 71
3
 72
8
 73
4
 74
0
 42
0.0000001
 43
0.0000001
 44
0.0000000001
 40
0.0
 40
0.0
 40
0.0
 40
0.0
 40
1.0
 40
1.0
 40
1.0
 40
1.0
 10
185.8299218798
 20
178.339771154
 30
0.0
 10
185.8300520989
 20
178.3357387952
 30
0.0
 10
185.8301822405
 20
178.3316993673
 30
0.0
 10
185.8300200148
 20
178.3276681694
 30
0.0
  0
SPLINE
  5
4AB
100
AcDbEntity
  8
93894102000_BL6
100
AcDbSpline
 62
9
  6
CONTINUOUS
 70
0
 71
3
 72
17
 73
13
 74
0
 42
0.0000001
 43
0.0000001
 44
0.0000000001
 40
0.0
 40
0.0
 40
0.0
 40
0.0
 40
0.0077966084
 40
0.0232864324
 40
0.0476218248
 40
0.080850037
 40
0.1730046261
 40
0.2966627254
 40
0.4472853174
 40
0.6191350713
 40
0.8058789403
 40
1.0
 40
1.0
 40
1.0
 40
1.0
 10
184.1301174019
 20
213.3892148586
 30
0.0
 10
184.1301232872
 20
213.3865982361
 30
0.0
 10
184.1372927788
 20
213.3806107396
 30
0.0
 10
184.1517849
 20
213.3758951016
 30
0.0
 10
184.175961816
 20
213.3698290515
 30
0.0
 10
184.225362
 20
213.3617229133
 30
0.0
 10
184.3086480687
 20
213.3527064363
 30
0.0
 10
184.431261508
 20
213.3440024966
 30
0.0
 10
184.580853197
 20
213.3368582412
 30
0.0
 10
184.7516683845
 20
213.33159348
 30
0.0
 10
184.9371450402
 20
213.3283798248
 30
0.0
 10
185.0649681995
 20
213.3276620358
 30
0.0
 10
185.1301174019
 20
213.3276620458
 30
0.0
  0
SPLINE
  5
4AC
100
AcDbEntity
  8
93894102000_BL6
100
AcDbSpline
 62
9
  6
CONTINUOUS
 70
0
 71
3
 72
17
 73
13
 74
0
 42
0.0000001
 43
0.0000001
 44
0.0000000001
 40
0.0
 40
0.0
 40
0.0
 40
0.0
 40
0.0078720881
 40
0.0236020993
 40
0.048289348
 40
0.0819609147
 40
0.1750789158
 40
0.2994699964
 40
0.4502890639
 40
0.6216579663
 40
0.8072976896
 40
1.0
 40
1.0
 40
1.0
 40
1.0
 10
184.1301174019
 20
213.3892148586
 30
0.0
 10
184.1301232737
 20
213.3918564873
 30
0.0
 10
184.1374557781
 20
213.3978726489
 30
0.0
 10
184.1521184631
 20
213.402648201
 30
0.0
 10
184.1766839846
 20
213.408674917
 30
0.0
 10
184.2266669119
 20
213.4167444355
 30
0.0
 10
184.3106998673
 20
213.4255438575
 30
0.0
 10
184.4339550162
 20
213.4338820594
 30
0.0
 10
184.5837016448
 20
213.4405621964
 30
0.0
 10
184.7540413348
 20
213.4453888244
 30
0.0
 10
184.9384917431
 20
213.4482867475
 30
0.0
 10
185.0654523203
 20
213.4489140436
 30
0.0
 10
185.1301174015
 20
213.4489146216
 30
0.0
  0
SPLINE
  5
4AD
100
AcDbEntity
  8
93894102000_BL6
100
AcDbSpline
 62
9
  6
CONTINUOUS
 70
0
 71
3
 72
10
 73
6
 74
0
 42
0.0000001
 43
0.0000001
 44
0.0000000001
 40
0.0
 40
0.0
 40
0.0
 40
0.0
 40
0.5003162461
 40
0.7502404834
 40
1.0
 40
1.0
 40
1.0
 40
1.0
 10
185.8304111642
 20
213.4325089164
 30
0.0
 10
186.4724414294
 20
213.425858616
 30
0.0
 10
187.4351884399
 20
213.4160405908
 30
0.0
 10
188.7184221666
 20
213.4013313678
 30
0.0
 10
189.3596185808
 20
213.3927567152
 30
0.0
 10
189.6801198261
 20
213.389214898
 30
0.0
  0
SPLINE
  5
4AE
100
AcDbEntity
  8
93894102000_BL6
100
AcDbSpline
 62
9
  6
CONTINUOUS
 70
0
 71
3
 72
8
 73
4
 74
0
 42
0.0000001
 43
0.0000001
 44
0.0000000001
 40
0.0
 40
0.0
 40
0.0
 40
0.0
 40
1.0
 40
1.0
 40
1.0
 40
1.0
 10
185.8304287483
 20
213.3453045782
 30
0.0
 10
187.1136605705
 20
213.3591952482
 30
0.0
 10
188.3968892221
 20
213.3733777829
 30
0.0
 10
189.6801178838
 20
213.3875574192
 30
0.0
  0
SPLINE
  5
4AF
100
AcDbEntity
  8
93894102000_BL6
100
AcDbSpline
 62
7
  6
CONTINUOUS
 70
0
 71
3
 72
10
 73
6
 74
0
 42
0.0000001
 43
0.0000001
 44
0.0000000001
 40
0.0
 40
0.0
 40
0.0
 40
0.0
 40
0.2848394061
 40
0.5555780727
 40
1.0
 40
1.0
 40
1.0
 40
1.0
 10
182.9837308734
 20
217.3892148586
 30
0.0
 10
182.9463185056
 20
217.3892148586
 30
0.0
 10
182.8734227253
 20
217.3843771198
 30
0.0
 10
182.7424520335
 20
217.3751035948
 30
0.0
 10
182.6487168191
 20
217.3682534671
 30
0.0
 10
182.5907133039
 20
217.3616977679
 30
0.0
  0
SPLINE
  5
4B0
100
AcDbEntity
  8
93894102000_BL6
100
AcDbSpline
 62
9
  6
CONTINUOUS
 70
0
 71
3
 72
17
 73
13
 74
0
 42
0.0000001
 43
0.0000001
 44
0.0000000001
 40
0.0
 40
0.0
 40
0.0
 40
0.0
 40
0.1927025312
 40
0.3783429528
 40
0.5497118291
 40
0.7005306998
 40
0.8249215397
 40
0.9180392605
 40
0.9517107191
 40
0.9763978885
 40
0.9921277964
 40
1.0
 40
1.0
 40
1.0
 40
1.0
 10
185.1301174012
 20
182.3295151429
 30
0.0
 10
185.0654522407
 20
182.3295157303
 30
0.0
 10
184.9384913459
 20
182.3301432015
 30
0.0
 10
184.7540406221
 20
182.3330409369
 30
0.0
 10
184.5837007529
 20
182.3378674888
 30
0.0
 10
184.4339542804
 20
182.34454774
 30
0.0
 10
184.3106993393
 20
182.3528858727
 30
0.0
 10
184.2266666364
 20
182.3616853626
 30
0.0
 10
184.1766837908
 20
182.3697547299
 30
0.0
 10
184.1521185024
 20
182.3757817583
 30
0.0
 10
184.137455602
 20
182.3805568005
 30
0.0
 10
184.1301232061
 20
182.3865731908
 30
0.0
 10
184.1301174019
 20
182.3892148586
 30
0.0
  0
LINE
  5
4B1
100
AcDbEntity
  8
93894102000_BL6
100
AcDbLine
 62
7
  6
CONTINUOUS
 10
95.0133956778
 20
217.3341815287
 11
94.0133956778
 21
217.3892148586
  0
LINE
  5
4B2
100
AcDbEntity
  8
93894102000_BL6
100
AcDbLine
 62
7
  6
CONTINUOUS
 10
95.0133956778
 20
178.4442481885
 11
94.0133956778
 21
178.3892148586
  0
LINE
  5
4B3
100
AcDbEntity
  8
93894102000_BL6
100
AcDbLine
 62
9
  6
CONTINUOUS
 10
182.6171915983
 20
17.4018055818
 11
182.7036795366
 21
17.2800082332
  0
SPLINE
  5
4B4
100
AcDbEntity
  8
93894102000_BL6
100
AcDbSpline
 62
7
  6
CONTINUOUS
 70
0
 71
3
 72
9
 73
5
 74
0
 42
0.0000001
 43
0.0000001
 44
0.0000000001
 40
0.0
 40
0.0
 40
0.0
 40
0.0
 40
0.500038024
 40
1.0
 40
1.0
 40
1.0
 40
1.0
 10
182.2031726271
 20
17.6184530896
 30
0.0
 10
182.2491042167
 20
17.5527130309
 30
0.0
 10
182.3743020555
 20
17.4415965427
 30
0.0
 10
182.5370726416
 20
17.4018055818
 30
0.0
 10
182.6172568679
 20
17.4018055818
 30
0.0
  0
ELLIPSE
  5
4B5
100
AcDbEntity
  8
93894102000_BL6
100
AcDbEllipse
 62
7
  6
CONTINUOUS
 10
95.5604364503
 20
222.2892148586
 30
0.0
 11
0.7894682909
 21
0.7071067812
 31
0.0
 40
0.8956747084
 41
-3.5154739709
 42
-2.8200811984
  0
ELLIPSE
  5
4B6
100
AcDbEntity
  8
93894102000_BL6
100
AcDbEllipse
 62
7
  6
CONTINUOUS
 10
95.5604364503
 20
173.4892148586
 30
0.0
 11
-0.7894682909
 21
0.7071067812
 31
0.0
 40
0.8956747084
 41
-0.3215114552
 42
0.3738813173
  0
ELLIPSE
  5
4B7
100
AcDbEntity
  8
93894102000_BL6
100
AcDbEllipse
 62
7
  6
CONTINUOUS
 10
183.1301174019
 20
18.407881318
 30
0.0
 11
0.0
 21
-1.0060757362
 31
0.0
 40
0.9939609555
 41
0.0
 42
0.4115168461
  0
ELLIPSE
  5
4B8
100
AcDbEntity
  8
93894102000_BL6
100
AcDbEllipse
 62
7
  6
CONTINUOUS
 10
183.1301174019
 20
18.4520417291
 30
0.0
 11
0.7071067812
 21
-0.7894682909
 31
0.0
 40
0.8956747084
 41
-0.3738813173
 42
0.3215114552
  0
ENDBLK
  5
4B9
100
AcDbEntity
  8
0
  6
BYBLOCK
 62
0
100
AcDbBlockEnd
  0
BLOCK
  5
4BA
100
AcDbEntity
  8
62890203000_STELLUNG_1_BL7
100
AcDbBlockBegin
  2
62890203000_STELLUNG_1_BL7
 70
64
 10
146.3217453286
 20
197.8892148586
  3
62890203000_STELLUNG_1_BL7
  1

  0
LINE
  5
4BB
100
AcDbEntity
  8
62890203000_STELLUNG_1_BL7
100
AcDbLine
 62
7
  6
CENTER
 10
201.6301174019
 20
197.8892148586
 11
177.6301174019
 21
197.8892148586
  0
LINE
  5
4BC
100
AcDbEntity
  8
62890203000_STELLUNG_1_BL7
100
AcDbLine
 62
7
  6
CENTER
 10
91.0133732554
 20
197.8892148586
 11
104.4136482609
 21
197.8892148586
  0
ENDBLK
  5
4BD
100
AcDbEntity
  8
0
  6
BYBLOCK
 62
0
100
AcDbBlockEnd
  0
BLOCK
  5
4BE
100
AcDbEntity
  8
91324206R00_BL8
100
AcDbBlockBegin
  2
91324206R00_BL8
 70
64
 10
190.6301174019
 20
224.0042148586
  3
91324206R00_BL8
  1

  0
ARC
  5
4BF
100
AcDbEntity
  8
91324206R00_BL8
100
AcDbCircle
 62
7
  6
CONTINUOUS
 10
188.9252240437
 20
224.0042148586
 40
0.5048933582
100
AcDbArc
 50
309.6496393284
 51
50.3503606716
  0
ARC
  5
4C0
100
AcDbEntity
  8
91324206R00_BL8
100
AcDbCircle
 62
7
  6
CONTINUOUS
 10
189.7238150193
 20
222.4606099897
 40
0.59
100
AcDbArc
 50
12.9620900983
 51
106.2006509181
  0
ARC
  5
4C1
100
AcDbEntity
  8
91324206R00_BL8
100
AcDbCircle
 62
7
  6
CONTINUOUS
 10
190.6301174019
 20
222.6692148586
 40
0.34
100
AcDbArc
 50
283.5069100039
 51
347.0379099017
  0
ARC
  5
4C2
100
AcDbEntity
  8
91324206R00_BL8
100
AcDbCircle
 62
7
  6
CONTINUOUS
 10
190.6301174019
 20
222.6692148586
 40
0.34
100
AcDbArc
 50
192.9620900983
 51
256.3581162113
  0
ARC
  5
4C3
100
AcDbEntity
  8
91324206R00_BL8
100
AcDbCircle
 62
7
  6
CONTINUOUS
 10
189.4643431448
 20
223.3536801696
 40
0.34
100
AcDbArc
 50
224.6349631418
 51
286.2006509181
  0
ARC
  5
4C4
100
AcDbEntity
  8
91324206R00_BL8
100
AcDbCircle
 62
7
  6
CONTINUOUS
 10
189.4643431448
 20
223.3536801696
 40
0.34
100
AcDbArc
 50
129.6496393284
 51
200.3768601609
  0
ARC
  5
4C5
100
AcDbEntity
  8
91324206R00_BL8
100
AcDbCircle
 62
7
  6
CONTINUOUS
 10
189.7238150193
 20
225.5478197275
 40
0.59
100
AcDbArc
 50
253.7993490819
 51
347.0379099017
  0
ARC
  5
4C6
100
AcDbEntity
  8
91324206R00_BL8
100
AcDbCircle
 62
7
  6
CONTINUOUS
 10
189.4643431448
 20
224.6547495475
 40
0.34
100
AcDbArc
 50
159.9223576597
 51
230.3503606716
  0
ARC
  5
4C7
100
AcDbEntity
  8
91324206R00_BL8
100
AcDbCircle
 62
7
  6
CONTINUOUS
 10
189.4643431448
 20
224.6547495475
 40
0.34
100
AcDbArc
 50
73.7993490819
 51
135.3499645031
  0
CIRCLE
  5
4C8
100
AcDbEntity
  8
91324206R00_BL8
100
AcDbCircle
 62
7
  6
CONTINUOUS
 10
190.6301174019
 20
224.0042148586
 40
3.75
  0
CIRCLE
  5
4C9
100
AcDbEntity
  8
91324206R00_BL8
100
AcDbCircle
 62
7
  6
CONTINUOUS
 10
190.6301174019
 20
224.0042148586
 40
1.675
  0
ARC
  5
4CA
100
AcDbEntity
  8
91324206R00_BL8
100
AcDbCircle
 62
7
  6
CONTINUOUS
 10
190.6301174019
 20
225.3392148586
 40
0.34
100
AcDbArc
 50
103.5069100039
 51
167.0379099017
  0
ARC
  5
4CB
100
AcDbEntity
  8
91324206R00_BL8
100
AcDbCircle
 62
7
  6
CONTINUOUS
 10
190.6301174019
 20
225.3392148586
 40
0.34
100
AcDbArc
 50
12.9620900983
 51
76.3581162113
  0
ARC
  5
4CC
100
AcDbEntity
  8
91324206R00_BL8
100
AcDbCircle
 62
7
  6
CONTINUOUS
 10
191.5364197844
 20
222.4606099897
 40
0.59
100
AcDbArc
 50
73.7993490819
 51
167.0379099017
  0
ARC
  5
4CD
100
AcDbEntity
  8
91324206R00_BL8
100
AcDbCircle
 62
7
  6
CONTINUOUS
 10
191.5364197844
 20
225.5478197275
 40
0.59
100
AcDbArc
 50
192.9620900983
 51
286.2006509181
  0
ARC
  5
4CE
100
AcDbEntity
  8
91324206R00_BL8
100
AcDbCircle
 62
7
  6
CONTINUOUS
 10
192.33501076
 20
224.0042148586
 40
0.5048933582
100
AcDbArc
 50
129.6496393284
 51
230.3503606716
  0
ARC
  5
4CF
100
AcDbEntity
  8
91324206R00_BL8
100
AcDbCircle
 62
7
  6
CONTINUOUS
 10
191.7958916589
 20
223.3536801696
 40
0.34
100
AcDbArc
 50
339.9223576597
 51
50.3503606716
  0
ARC
  5
4D0
100
AcDbEntity
  8
91324206R00_BL8
100
AcDbCircle
 62
7
  6
CONTINUOUS
 10
191.7958916589
 20
223.3536801696
 40
0.34
100
AcDbArc
 50
253.7993490819
 51
315.3499645031
  0
ARC
  5
4D1
100
AcDbEntity
  8
91324206R00_BL8
100
AcDbCircle
 62
7
  6
CONTINUOUS
 10
191.7958916589
 20
224.6547495475
 40
0.34
100
AcDbArc
 50
44.6349631418
 51
106.2006509181
  0
ARC
  5
4D2
100
AcDbEntity
  8
91324206R00_BL8
100
AcDbCircle
 62
7
  6
CONTINUOUS
 10
191.7958916589
 20
224.6547495475
 40
0.34
100
AcDbArc
 50
309.6496393284
 51
20.3768601609
  0
ENDBLK
  5
4D3
100
AcDbEntity
  8
0
  6
BYBLOCK
 62
0
100
AcDbBlockEnd
  0
BLOCK
  5
4D4
100
AcDbEntity
  8
0
100
AcDbBlockBegin
  2
_FILLED
 70
64
 10
0.0
 20
0.0
  3
_FILLED
  1

  0
SOLID
  5
4D5
100
AcDbEntity
  8
0
  6
BYBLOCK
 62
0
100
AcDbTrace
 10
0.0
 20
0.0
 11
-1.0
 21
0.1428571429
 12
-1.0
 22
-0.1428571429
 13
-1.0
 23
-0.1428571429
  0
ENDBLK
  5
4D6
100
AcDbEntity
  8
0
  6
BYBLOCK
 62
0
100
AcDbBlockEnd
  0
BLOCK
  5
4D7
100
AcDbEntity
  8
0
100
AcDbBlockBegin
 62
2
  6
CONTINUOUS
  2
*D0
 70
65
 10
0.0
 20
0.0
  3
*D0
  1

  0
TEXT
  5
4D8
100
AcDbEntity
  8
0
100
AcDbText
 62
5
  6
CONTINUOUS
 10
152.0051174019
 20
155.7185005729
  7
STANDARD
 40
2.5
  1
216.5
 50
90.0
 72
5
 11
152.0051174019
 21
164.2899291443
100
AcDbText
  0
LINE
  5
4D9
100
AcDbEntity
  8
0
100
AcDbLine
 62
2
  6
CONTINUOUS
 10
179.6301174019
 20
51.7542148586
 11
151.6301174019
 21
51.7542148586
  0
LINE
  5
4DA
100
AcDbEntity
  8
0
100
AcDbLine
 62
2
  6
CONTINUOUS
 10
179.6301174019
 20
268.2542148586
 11
151.6301174019
 21
268.2542148586
  0
LINE
  5
4DB
100
AcDbEntity
  8
0
100
AcDbLine
 62
2
  6
CONTINUOUS
 10
152.6301174019
 20
51.7542148586
 11
152.6301174019
 21
160.0042148586
  0
LINE
  5
4DC
100
AcDbEntity
  8
0
100
AcDbLine
 62
2
  6
CONTINUOUS
 10
152.6301174019
 20
268.2542148586
 11
152.6301174019
 21
160.0042148586
  0
INSERT
  5
4DD
100
AcDbEntity
  8
0
100
AcDbBlockReference
 62
2
  6
CONTINUOUS
  2
_FILLED
 10
152.6301174019
 20
51.7542148586
 41
3.5
 42
3.5
 43
3.5
 50
270.0
  0
INSERT
  5
4DE
100
AcDbEntity
  8
0
100
AcDbBlockReference
 62
2
  6
CONTINUOUS
  2
_FILLED
 10
152.6301174019
 20
268.2542148586
 41
3.5
 42
3.5
 43
3.5
 50
90.0
  0
ENDBLK
  5
4DF
100
AcDbEntity
  8
0
  6
BYBLOCK
 62
0
100
AcDbBlockEnd
  0
BLOCK
  5
4E0
100
AcDbEntity
  8
0
100
AcDbBlockBegin
 62
2
  6
CONTINUOUS
  2
*D1
 70
65
 10
0.0
 20
0.0
  3
*D1
  1

  0
TEXT
  5
4E1
100
AcDbEntity
  8
0
100
AcDbText
 62
5
  6
CONTINUOUS
 10
145.0051174019
 20
155.5399291443
  7
STANDARD
 40
2.5
  1
232.5
 50
90.0
 72
5
 11
145.0051174019
 21
164.4685005729
100
AcDbText
  0
LINE
  5
4E2
100
AcDbEntity
  8
0
100
AcDbLine
 62
2
  6
CONTINUOUS
 10
176.6301174019
 20
276.2542148586
 11
144.6301174019
 21
276.2542148586
  0
LINE
  5
4E3
100
AcDbEntity
  8
0
100
AcDbLine
 62
2
  6
CONTINUOUS
 10
176.6301174019
 20
43.7542148586
 11
144.6301174019
 21
43.7542148586
  0
LINE
  5
4E4
100
AcDbEntity
  8
0
100
AcDbLine
 62
2
  6
CONTINUOUS
 10
145.6301174019
 20
276.2542148586
 11
145.6301174019
 21
160.0042148586
  0
LINE
  5
4E5
100
AcDbEntity
  8
0
100
AcDbLine
 62
2
  6
CONTINUOUS
 10
145.6301174019
 20
43.7542148586
 11
145.6301174019
 21
160.0042148586
  0
INSERT
  5
4E6
100
AcDbEntity
  8
0
100
AcDbBlockReference
 62
2
  6
CONTINUOUS
  2
_FILLED
 10
145.6301174019
 20
276.2542148586
 41
3.5
 42
3.5
 43
3.5
 50
90.0
  0
INSERT
  5
4E7
100
AcDbEntity
  8
0
100
AcDbBlockReference
 62
2
  6
CONTINUOUS
  2
_FILLED
 10
145.6301174019
 20
43.7542148586
 41
3.5
 42
3.5
 43
3.5
 50
270.0
  0
ENDBLK
  5
4E8
100
AcDbEntity
  8
0
  6
BYBLOCK
 62
0
100
AcDbBlockEnd
  0
BLOCK
  5
4E9
100
AcDbEntity
  8
0
100
AcDbBlockBegin
 62
2
  6
CONTINUOUS
  2
*D2
 70
65
 10
0.0
 20
0.0
  3
*D2
  1

  0
TEXT
  5
4EA
100
AcDbEntity
  8
0
100
AcDbText
 62
5
  6
CONTINUOUS
 10
159.0051174019
 20
150.6252862872
  7
STANDARD
 40
2.5
  1
91
 50
90.0
 72
5
 11
159.0051174019
 21
154.01814343
100
AcDbText
  0
LINE
  5
4EB
100
AcDbEntity
  8
0
100
AcDbLine
 62
2
  6
CONTINUOUS
 10
178.4432827687
 20
106.7542148586
 11
167.7644327067
 21
106.7542148586
  0
LINE
  5
4EC
100
AcDbEntity
  8
0
100
AcDbLine
 62
2
  6
CONTINUOUS
 10
162.6663742868
 20
106.7542148586
 11
158.6301174019
 21
106.7542148586
  0
LINE
  5
4ED
100
AcDbEntity
  8
0
100
AcDbLine
 62
2
  6
CONTINUOUS
 10
177.6301174019
 20
197.8892148586
 11
158.6301174019
 21
197.8892148586
  0
LINE
  5
4EE
100
AcDbEntity
  8
0
100
AcDbLine
 62
2
  6
CONTINUOUS
 10
159.6301174019
 20
106.7542148586
 11
159.6301174019
 21
152.3217148586
  0
LINE
  5
4EF
100
AcDbEntity
  8
0
100
AcDbLine
 62
2
  6
CONTINUOUS
 10
159.6301174019
 20
197.8892148586
 11
159.6301174019
 21
152.3217148586
  0
INSERT
  5
4F0
100
AcDbEntity
  8
0
100
AcDbBlockReference
 62
2
  6
CONTINUOUS
  2
_FILLED
 10
159.6301174019
 20
106.7542148586
 41
3.5
 42
3.5
 43
3.5
 50
270.0
  0
INSERT
  5
4F1
100
AcDbEntity
  8
0
100
AcDbBlockReference
 62
2
  6
CONTINUOUS
  2
_FILLED
 10
159.6301174019
 20
197.8892148586
 41
3.5
 42
3.5
 43
3.5
 50
90.0
  0
ENDBLK
  5
4F2
100
AcDbEntity
  8
0
  6
BYBLOCK
 62
0
100
AcDbBlockEnd
  0
BLOCK
  5
4F3
100
AcDbEntity
  8
0
100
AcDbBlockBegin
 62
2
  6
CONTINUOUS
  2
*D3
 70
65
 10
0.0
 20
0.0
  3
*D3
  1

  0
TEXT
  5
4F4
100
AcDbEntity
  8
0
100
AcDbText
 62
5
  6
CONTINUOUS
 10
166.0051174019
 20
104.7899291443
  7
STANDARD
 40
2.5
  1
62
 50
90.0
 72
5
 11
166.0051174019
 21
108.7185005729
100
AcDbText
  0
LINE
  5
4F5
100
AcDbEntity
  8
0
100
AcDbLine
 62
2
  6
CONTINUOUS
 10
184.0051174019
 20
75.7542148586
 11
165.6301174019
 21
75.7542148586
  0
LINE
  5
4F6
100
AcDbEntity
  8
0
100
AcDbLine
 62
2
  6
CONTINUOUS
 10
184.0051174019
 20
137.7542148586
 11
165.6301174019
 21
137.7542148586
  0
LINE
  5
4F7
100
AcDbEntity
  8
0
100
AcDbLine
 62
2
  6
CONTINUOUS
 10
166.6301174019
 20
75.7542148586
 11
166.6301174019
 21
106.7542148586
  0
LINE
  5
4F8
100
AcDbEntity
  8
0
100
AcDbLine
 62
2
  6
CONTINUOUS
 10
166.6301174019
 20
137.7542148586
 11
166.6301174019
 21
106.7542148586
  0
INSERT
  5
4F9
100
AcDbEntity
  8
0
100
AcDbBlockReference
 62
2
  6
CONTINUOUS
  2
_FILLED
 10
166.6301174019
 20
75.7542148586
 41
3.5
 42
3.5
 43
3.5
 50
270.0
  0
INSERT
  5
4FA
100
AcDbEntity
  8
0
100
AcDbBlockReference
 62
2
  6
CONTINUOUS
  2
_FILLED
 10
166.6301174019
 20
137.7542148586
 41
3.5
 42
3.5
 43
3.5
 50
90.0
  0
ENDBLK
  5
4FB
100
AcDbEntity
  8
0
  6
BYBLOCK
 62
0
100
AcDbBlockEnd
  0
BLOCK
  5
4FC
100
AcDbEntity
  8
0
100
AcDbBlockBegin
 62
2
  6
CONTINUOUS
  2
*D4
 70
65
 10
0.0
 20
0.0
  3
*D4
  1

  0
TEXT
  5
4FD
100
AcDbEntity
  8
0
100
AcDbText
 62
5
  6
CONTINUOUS
 10
217.0051174019
 20
128.2324291443
  7
STANDARD
 40
2.5
  1
134
 50
90.0
 72
5
 11
217.0051174019
 21
133.4110005729
100
AcDbText
  0
LINE
  5
4FE
100
AcDbEntity
  8
0
100
AcDbLine
 62
2
  6
CONTINUOUS
 10
197.6301174019
 20
63.7542148586
 11
218.6301174019
 21
63.7542148586
  0
LINE
  5
4FF
100
AcDbEntity
  8
0
100
AcDbLine
 62
2
  6
CONTINUOUS
 10
201.6301174019
 20
197.8892148586
 11
218.6301174019
 21
197.8892148586
  0
LINE
  5
500
100
AcDbEntity
  8
0
100
AcDbLine
 62
2
  6
CONTINUOUS
 10
217.6301174019
 20
63.7542148586
 11
217.6301174019
 21
130.8217148586
  0
LINE
  5
501
100
AcDbEntity
  8
0
100
AcDbLine
 62
2
  6
CONTINUOUS
 10
217.6301174019
 20
197.8892148586
 11
217.6301174019
 21
130.8217148586
  0
INSERT
  5
502
100
AcDbEntity
  8
0
100
AcDbBlockReference
 62
2
  6
CONTINUOUS
  2
_FILLED
 10
217.6301174019
 20
63.7542148586
 41
3.5
 42
3.5
 43
3.5
 50
270.0
  0
INSERT
  5
503
100
AcDbEntity
  8
0
100
AcDbBlockReference
 62
2
  6
CONTINUOUS
  2
_FILLED
 10
217.6301174019
 20
197.8892148586
 41
3.5
 42
3.5
 43
3.5
 50
90.0
  0
ENDBLK
  5
504
100
AcDbEntity
  8
0
  6
BYBLOCK
 62
0
100
AcDbBlockEnd
  0
BLOCK
  5
505
100
AcDbEntity
  8
0
100
AcDbBlockBegin
 62
2
  6
CONTINUOUS
  2
*D5
 70
65
 10
0.0
 20
0.0
  3
*D5
  1

  0
TEXT
  5
506
100
AcDbEntity
  8
0
100
AcDbText
 62
5
  6
CONTINUOUS
 10
210.0051174019
 20
174.4467148586
  7
STANDARD
 40
2.5
  1
43
 50
90.0
 72
5
 11
210.0051174019
 21
178.1967148586
100
AcDbText
  0
LINE
  5
507
100
AcDbEntity
  8
0
100
AcDbLine
 62
2
  6
CONTINUOUS
 10
197.0301174019
 20
154.7542148586
 11
211.6301174019
 21
154.7542148586
  0
LINE
  5
508
100
AcDbEntity
  8
0
100
AcDbLine
 62
2
  6
CONTINUOUS
 10
201.6301174019
 20
197.8892148586
 11
211.6301174019
 21
197.8892148586
  0
LINE
  5
509
100
AcDbEntity
  8
0
100
AcDbLine
 62
2
  6
CONTINUOUS
 10
210.6301174019
 20
154.7542148586
 11
210.6301174019
 21
176.3217148586
  0
LINE
  5
50A
100
AcDbEntity
  8
0
100
AcDbLine
 62
2
  6
CONTINUOUS
 10
210.6301174019
 20
197.8892148586
 11
210.6301174019
 21
176.3217148586
  0
INSERT
  5
50B
100
AcDbEntity
  8
0
100
AcDbBlockReference
 62
2
  6
CONTINUOUS
  2
_FILLED
 10
210.6301174019
 20
154.7542148586
 41
3.5
 42
3.5
 43
3.5
 50
270.0
  0
INSERT
  5
50C
100
AcDbEntity
  8
0
100
AcDbBlockReference
 62
2
  6
CONTINUOUS
  2
_FILLED
 10
210.6301174019
 20
197.8892148586
 41
3.5
 42
3.5
 43
3.5
 50
90.0
  0
ENDBLK
  5
50D
100
AcDbEntity
  8
0
  6
BYBLOCK
 62
0
100
AcDbBlockEnd
  0
BLOCK
  5
50E
100
AcDbEntity
  8
0
100
AcDbBlockBegin
 62
2
  6
CONTINUOUS
  2
*D6
 70
65
 10
0.0
 20
0.0
  3
*D6
  1

  0
TEXT
  5
50F
100
AcDbEntity
  8
0
100
AcDbText
 62
5
  6
CONTINUOUS
 10
217.0051174019
 20
223.5002862872
  7
STANDARD
 40
2.5
  1
58.4
 50
90.0
 72
5
 11
217.0051174019
 21
230.64314343
100
AcDbText
  0
LINE
  5
510
100
AcDbEntity
  8
0
100
AcDbLine
 62
2
  6
CONTINUOUS
 10
197.6301174019
 20
256.2542148586
 11
218.6301174019
 21
256.2542148586
  0
LINE
  5
511
100
AcDbEntity
  8
0
100
AcDbLine
 62
2
  6
CONTINUOUS
 10
201.6301174019
 20
197.8892148586
 11
218.6301174019
 21
197.8892148586
  0
LINE
  5
512
100
AcDbEntity
  8
0
100
AcDbLine
 62
2
  6
CONTINUOUS
 10
217.6301174019
 20
256.2542148586
 11
217.6301174019
 21
227.0717148586
  0
LINE
  5
513
100
AcDbEntity
  8
0
100
AcDbLine
 62
2
  6
CONTINUOUS
 10
217.6301174019
 20
197.8892148586
 11
217.6301174019
 21
227.0717148586
  0
INSERT
  5
514
100
AcDbEntity
  8
0
100
AcDbBlockReference
 62
2
  6
CONTINUOUS
  2
_FILLED
 10
217.6301174019
 20
256.2542148586
 41
3.5
 42
3.5
 43
3.5
 50
90.0
  0
INSERT
  5
515
100
AcDbEntity
  8
0
100
AcDbBlockReference
 62
2
  6
CONTINUOUS
  2
_FILLED
 10
217.6301174019
 20
197.8892148586
 41
3.5
 42
3.5
 43
3.5
 50
270.0
  0
ENDBLK
  5
516
100
AcDbEntity
  8
0
  6
BYBLOCK
 62
0
100
AcDbBlockEnd
  0
BLOCK
  5
517
100
AcDbEntity
  8
0
100
AcDbBlockBegin
 62
2
  6
CONTINUOUS
  2
*D7
 70
65
 10
0.0
 20
0.0
  3
*D7
  1

  0
TEXT
  5
518
100
AcDbEntity
  8
0
100
AcDbText
 62
5
  6
CONTINUOUS
 10
186.6658316876
 20
286.8792148586
  7
STANDARD
 40
2.5
  1
24
 72
5
 11
190.5944031161
 21
286.8792148586
100
AcDbText
  0
LINE
  5
519
100
AcDbEntity
  8
0
100
AcDbLine
 62
2
  6
CONTINUOUS
 10
176.6301174019
 20
268.2542148586
 11
176.6301174019
 21
287.2542148586
  0
LINE
  5
51A
100
AcDbEntity
  8
0
100
AcDbLine
 62
2
  6
CONTINUOUS
 10
200.6301174019
 20
268.2542148586
 11
200.6301174019
 21
287.2542148586
  0
LINE
  5
51B
100
AcDbEntity
  8
0
100
AcDbLine
 62
2
  6
CONTINUOUS
 10
176.6301174019
 20
286.2542148586
 11
188.6301174019
 21
286.2542148586
  0
LINE
  5
51C
100
AcDbEntity
  8
0
100
AcDbLine
 62
2
  6
CONTINUOUS
 10
200.6301174019
 20
286.2542148586
 11
188.6301174019
 21
286.2542148586
  0
INSERT
  5
51D
100
AcDbEntity
  8
0
100
AcDbBlockReference
 62
2
  6
CONTINUOUS
  2
_FILLED
 10
176.6301174019
 20
286.2542148586
 41
3.5
 42
3.5
 43
3.5
 50
180.0
  0
INSERT
  5
51E
100
AcDbEntity
  8
0
100
AcDbBlockReference
 62
2
  6
CONTINUOUS
  2
_FILLED
 10
200.6301174019
 20
286.2542148586
 41
3.5
 42
3.5
 43
3.5
  0
ENDBLK
  5
51F
100
AcDbEntity
  8
0
  6
BYBLOCK
 62
0
100
AcDbBlockEnd
  0
BLOCK
  5
520
100
AcDbEntity
  8
0
100
AcDbBlockBegin
 62
2
  6
CONTINUOUS
  2
*D8
 70
65
 10
0.0
 20
0.0
  3
*D8
  1

  0
TEXT
  5
521
100
AcDbEntity
  8
0
100
AcDbText
 62
5
  6
CONTINUOUS
 10
89.0069549903
 20
286.8792148586
  7
STANDARD
 40
2.5
  1
6
 72
5
 11
90.9712407046
 21
286.8792148586
100
AcDbText
  0
LINE
  5
522
100
AcDbEntity
  8
0
100
AcDbLine
 62
2
  6
CONTINUOUS
 10
95.0133956778
 20
268.2542148586
 11
95.0133956778
 21
287.2542148586
  0
LINE
  5
523
100
AcDbEntity
  8
0
100
AcDbLine
 62
2
  6
CONTINUOUS
 10
101.0133956778
 20
268.2542148586
 11
101.0133956778
 21
287.2542148586
  0
LINE
  5
524
100
AcDbEntity
  8
0
100
AcDbLine
 62
2
  6
CONTINUOUS
 10
95.0133956778
 20
286.2542148586
 11
89.0069549903
 21
286.2542148586
  0
LINE
  5
525
100
AcDbEntity
  8
0
100
AcDbLine
 62
2
  6
CONTINUOUS
 10
89.0069549903
 20
286.2542148586
 11
98.0133956778
 21
286.2542148586
  0
LINE
  5
526
100
AcDbEntity
  8
0
100
AcDbLine
 62
2
  6
CONTINUOUS
 10
101.0133956778
 20
286.2542148586
 11
108.0133956778
 21
286.2542148586
  0
LINE
  5
527
100
AcDbEntity
  8
0
100
AcDbLine
 62
2
  6
CONTINUOUS
 10
108.0133956778
 20
286.2542148586
 11
98.0133956778
 21
286.2542148586
  0
INSERT
  5
528
100
AcDbEntity
  8
0
100
AcDbBlockReference
 62
2
  6
CONTINUOUS
  2
_FILLED
 10
95.0133956778
 20
286.2542148586
 41
3.5
 42
3.5
 43
3.5
  0
INSERT
  5
529
100
AcDbEntity
  8
0
100
AcDbBlockReference
 62
2
  6
CONTINUOUS
  2
_FILLED
 10
101.0133956778
 20
286.2542148586
 41
3.5
 42
3.5
 43
3.5
 50
180.0
  0
ENDBLK
  5
52A
100
AcDbEntity
  8
0
  6
BYBLOCK
 62
0
100
AcDbBlockEnd
  0
BLOCK
  5
52B
100
AcDbEntity
  8
0
100
AcDbBlockBegin
 62
2
  6
CONTINUOUS
  2
*D9
 70
65
 10
0.0
 20
0.0
  3
*D9
  1

  0
TEXT
  5
52C
100
AcDbEntity
  8
0
100
AcDbText
 62
5
  6
CONTINUOUS
 10
171.0849676001
 20
34.5300009566
  7
STANDARD
 40
2.5
  1
2
 72
5
 11
173.0492533144
 21
34.5300009566
100
AcDbText
  0
LINE
  5
52D
100
AcDbEntity
  8
0
100
AcDbLine
 62
2
  6
CONTINUOUS
 10
178.6301174019
 20
23.9050009566
 11
178.6301174019
 21
34.9050009566
  0
LINE
  5
52E
100
AcDbEntity
  8
0
100
AcDbLine
 62
2
  6
CONTINUOUS
 10
176.6301174019
 20
23.9050009566
 11
176.6301174019
 21
34.9050009566
  0
LINE
  5
52F
100
AcDbEntity
  8
0
100
AcDbLine
 62
2
  6
CONTINUOUS
 10
178.6301174019
 20
33.9050009566
 11
185.6301174019
 21
33.9050009566
  0
LINE
  5
530
100
AcDbEntity
  8
0
100
AcDbLine
 62
2
  6
CONTINUOUS
 10
185.6301174019
 20
33.9050009566
 11
177.6301174019
 21
33.9050009566
  0
LINE
  5
531
100
AcDbEntity
  8
0
100
AcDbLine
 62
2
  6
CONTINUOUS
 10
176.6301174019
 20
33.9050009566
 11
171.0849676001
 21
33.9050009566
  0
LINE
  5
532
100
AcDbEntity
  8
0
100
AcDbLine
 62
2
  6
CONTINUOUS
 10
171.0849676001
 20
33.9050009566
 11
177.6301174019
 21
33.9050009566
  0
INSERT
  5
533
100
AcDbEntity
  8
0
100
AcDbBlockReference
 62
2
  6
CONTINUOUS
  2
_FILLED
 10
178.6301174019
 20
33.9050009566
 41
3.5
 42
3.5
 43
3.5
 50
180.0
  0
INSERT
  5
534
100
AcDbEntity
  8
0
100
AcDbBlockReference
 62
2
  6
CONTINUOUS
  2
_FILLED
 10
176.6301174019
 20
33.9050009566
 41
3.5
 42
3.5
 43
3.5
  0
ENDBLK
  5
535
100
AcDbEntity
  8
0
  6
BYBLOCK
 62
0
100
AcDbBlockEnd
  0
BLOCK
  5
536
100
AcDbEntity
  8
0
100
AcDbBlockBegin
 62
2
  6
CONTINUOUS
  2
*D10
 70
65
 10
0.0
 20
0.0
  3
*D10
  1

  0
TEXT
  5
537
100
AcDbEntity
  8
0
100
AcDbText
 62
5
  6
CONTINUOUS
 10
185.3265459733
 20
142.1338766925
  7
STANDARD
 40
2.5
  1
12.3
 72
5
 11
191.9336888304
 21
142.1338766925
100
AcDbText
  0
LINE
  5
538
100
AcDbEntity
  8
0
100
AcDbLine
 62
2
  6
CONTINUOUS
 10
182.5051174019
 20
136.2542148586
 11
182.5051174019
 21
142.5088766925
  0
LINE
  5
539
100
AcDbEntity
  8
0
100
AcDbLine
 62
2
  6
CONTINUOUS
 10
194.7551174019
 20
136.2542148586
 11
194.7551174019
 21
142.5088766925
  0
LINE
  5
53A
100
AcDbEntity
  8
0
100
AcDbLine
 62
2
  6
CONTINUOUS
 10
182.5051174019
 20
141.5088766925
 11
175.5051174019
 21
141.5088766925
  0
LINE
  5
53B
100
AcDbEntity
  8
0
100
AcDbLine
 62
2
  6
CONTINUOUS
 10
175.5051174019
 20
141.5088766925
 11
188.6301174019
 21
141.5088766925
  0
LINE
  5
53C
100
AcDbEntity
  8
0
100
AcDbLine
 62
2
  6
CONTINUOUS
 10
194.7551174019
 20
141.5088766925
 11
201.7551174019
 21
141.5088766925
  0
LINE
  5
53D
100
AcDbEntity
  8
0
100
AcDbLine
 62
2
  6
CONTINUOUS
 10
201.7551174019
 20
141.5088766925
 11
188.6301174019
 21
141.5088766925
  0
INSERT
  5
53E
100
AcDbEntity
  8
0
100
AcDbBlockReference
 62
2
  6
CONTINUOUS
  2
_FILLED
 10
182.5051174019
 20
141.5088766925
 41
3.5
 42
3.5
 43
3.5
  0
INSERT
  5
53F
100
AcDbEntity
  8
0
100
AcDbBlockReference
 62
2
  6
CONTINUOUS
  2
_FILLED
 10
194.7551174019
 20
141.5088766925
 41
3.5
 42
3.5
 43
3.5
 50
180.0
  0
ENDBLK
  5
540
100
AcDbEntity
  8
0
  6
BYBLOCK
 62
0
100
AcDbBlockEnd
  0
BLOCK
  5
541
100
AcDbEntity
  8
0
100
AcDbBlockBegin
  2
*T1
 70
1
 10
0.0
 20
0.0
  3
*T1
  1

  0
LINE
  5
542
100
AcDbEntity
  8
0
100
AcDbLine
 62
2
  6
CONTINUOUS
 10
0.0
 20
0.0
 11
180.0
 21
0.0
  0
LINE
  5
543
100
AcDbEntity
  8
0
100
AcDbLine
 62
2
  6
CONTINUOUS
 10
0.0
 20
0.0
 11
0.0
 21
-45.875
  0
LINE
  5
544
100
AcDbEntity
  8
0
100
AcDbLine
 62
2
  6
CONTINUOUS
 10
0.0
 20
-21.875
 11
180.0
 21
-21.875
  0
LINE
  5
545
100
AcDbEntity
  8
0
100
AcDbLine
 62
2
  6
CONTINUOUS
 10
64.0
 20
-27.875
 11
109.0
 21
-27.875
  0
LINE
  5
546
100
AcDbEntity
  8
0
100
AcDbLine
 62
2
  6
CONTINUOUS
 10
64.0
 20
-33.875
 11
109.0
 21
-33.875
  0
LINE
  5
547
100
AcDbEntity
  8
0
100
AcDbLine
 62
2
  6
CONTINUOUS
 10
119.0
 20
-33.875
 11
180.0
 21
-33.875
  0
LINE
  5
548
100
AcDbEntity
  8
0
100
AcDbLine
 62
2
  6
CONTINUOUS
 10
34.0
 20
-39.875
 11
119.0
 21
-39.875
  0
LINE
  5
549
100
AcDbEntity
  8
0
100
AcDbLine
 62
2
  6
CONTINUOUS
 10
0.0
 20
-45.875
 11
180.0
 21
-45.875
  0
LINE
  5
54A
100
AcDbEntity
  8
0
100
AcDbLine
 62
2
  6
CONTINUOUS
 10
34.0
 20
-21.875
 11
34.0
 21
-45.875
  0
LINE
  5
54B
100
AcDbEntity
  8
0
100
AcDbLine
 62
2
  6
CONTINUOUS
 10
64.0
 20
-21.875
 11
64.0
 21
-39.875
  0
LINE
  5
54C
100
AcDbEntity
  8
0
100
AcDbLine
 62
2
  6
CONTINUOUS
 10
76.0
 20
-21.875
 11
76.0
 21
-39.875
  0
LINE
  5
54D
100
AcDbEntity
  8
0
100
AcDbLine
 62
2
  6
CONTINUOUS
 10
96.0
 20
-27.875
 11
96.0
 21
-39.875
  0
LINE
  5
54E
100
AcDbEntity
  8
0
100
AcDbLine
 62
2
  6
CONTINUOUS
 10
109.0
 20
-21.875
 11
109.0
 21
-39.875
  0
LINE
  5
54F
100
AcDbEntity
  8
0
100
AcDbLine
 62
2
  6
CONTINUOUS
 10
119.0
 20
-21.875
 11
119.0
 21
-45.875
  0
LINE
  5
550
100
AcDbEntity
  8
0
100
AcDbLine
 62
2
  6
CONTINUOUS
 10
170.0
 20
-21.875
 11
170.0
 21
-45.875
  0
LINE
  5
551
100
AcDbEntity
  8
0
100
AcDbLine
 62
2
  6
CONTINUOUS
 10
180.0
 20
0.0
 11
180.0
 21
-45.875
  0
TEXT
  5
552
100
AcDbEntity
  8
0
100
AcDbText
 62
5
  6
CONTINUOUS
 10
1.0
 20
-4.509375
  7
TEXTSTYLE_3
 40
1.3
  1
Description
 72
5
 11
13.9
 21
-4.509375
100
AcDbText
  0
TEXT
  5
553
100
AcDbEntity
  8
0
100
AcDbText
 62
5
  6
CONTINUOUS
 10
1.0
 20
-9.265625
  7
TEXTSTYLE_4
 40
2.9
  1
Sbl/U24x6/216/NL12/AT/Est
 72
5
 11
52.203125
 21
-9.265625
100
AcDbText
  0
TEXT
  5
554
100
AcDbEntity
  8
0
100
AcDbText
 62
5
  6
CONTINUOUS
 10
1.0
 20
-14.340625
  7
TEXTSTYLE_4
 40
2.9
  1
--
 72
5
 11
3.35625
 21
-14.340625
100
AcDbText
  0
TEXT
  5
555
100
AcDbEntity
  8
0
100
AcDbText
 62
5
  6
CONTINUOUS
 10
1.0
 20
-19.415625
  7
TEXTSTYLE_4
 40
2.9
  1
striker/U24x6/216/axis 12/interchangeable latch piece/end piece
 72
5
 11
117.917578125
 21
-19.415625
100
AcDbText
  0
TEXT
  5
556
100
AcDbEntity
  8
0
100
AcDbText
 62
5
  6
CONTINUOUS
 10
35.0
 20
-26.7649038462
  7
TEXTSTYLE_3
 40
1.3
  1
Release No. 
 72
5
 11
51.5
 21
-26.7649038462
100
AcDbText
  0
TEXT
  5
557
100
AcDbEntity
  8
0
100
AcDbText
 62
5
  6
CONTINUOUS
 10
35.0
 20
-29.7774038462
  7
STANDARD
 40
2.0
  1
--
 72
5
 11
37.8571428571
 21
-29.7774038462
100
AcDbText
  0
TEXT
  5
558
100
AcDbEntity
  8
0
100
AcDbText
 62
5
  6
CONTINUOUS
 10
35.0
 20
-31.2629807692
  7
TEXTSTYLE_3
 40
0.5
  1
 
 72
5
 11
35.6153846154
 21
-31.2629807692
100
AcDbText
  0
TEXT
  5
559
100
AcDbEntity
  8
0
100
AcDbText
 62
5
  6
CONTINUOUS
 10
35.0
 20
-34.0225961538
  7
TEXTSTYLE_3
 40
1.3
  1
Mod. No.
 72
5
 11
46.7
 21
-34.0225961538
100
AcDbText
  0
TEXT
  5
55A
100
AcDbEntity
  8
0
100
AcDbText
 62
5
  6
CONTINUOUS
 10
35.0
 20
-37.0350961538
  7
STANDARD
 40
2.0
  1
--
 72
5
 11
37.8571428571
 21
-37.0350961538
100
AcDbText
  0
TEXT
  5
55B
100
AcDbEntity
  8
0
100
AcDbText
 62
5
  6
CONTINUOUS
 10
65.0
 20
-25.9
  7
TEXTSTYLE_3
 40
1.3
  1
Level
 72
5
 11
71.4
 21
-25.9
100
AcDbText
  0
TEXT
  5
55C
100
AcDbEntity
  8
0
100
AcDbText
 62
5
  6
CONTINUOUS
 10
77.0
 20
-25.875
  7
STANDARD
 40
2.0
  1
Released
 72
5
 11
88.1428571429
 21
-25.875
100
AcDbText
  0
TEXT
  5
55D
100
AcDbEntity
  8
0
100
AcDbText
 62
5
  6
CONTINUOUS
 10
110.8
 20
-25.175
  7
TEXTSTYLE_3
 40
1.3
  1
Scale
 72
5
 11
117.2
 21
-25.175
100
AcDbText
  0
TEXT
  5
55E
100
AcDbEntity
  8
0
100
AcDbText
 62
5
  6
CONTINUOUS
 10
113.0178571429
 20
-28.8125
  7
STANDARD
 40
2.5
  1
 
 72
5
 11
114.9821428571
 21
-28.8125
100
AcDbText
  0
TEXT
  5
55F
100
AcDbEntity
  8
0
100
AcDbText
 62
5
  6
CONTINUOUS
 10
112.125
 20
-32.5625
  7
STANDARD
 40
2.5
  1
1:1
 72
5
 11
115.875
 21
-32.5625
100
AcDbText
  0
TEXT
  5
560
100
AcDbEntity
  8
0
100
AcDbText
 62
5
  6
CONTINUOUS
 10
120.0
 20
-25.175
  7
TEXTSTYLE_3
 40
1.3
  1
Modification 
 72
5
 11
135.6
 21
-25.175
100
AcDbText
  0
TEXT
  5
561
100
AcDbEntity
  8
0
100
AcDbText
 62
5
  6
CONTINUOUS
 10
120.0
 20
-32.8375
  7
STANDARD
 40
3.5
  1
1
 72
5
 11
122.0
 21
-32.8375
100
AcDbText
  0
TEXT
  5
562
100
AcDbEntity
  8
0
100
AcDbText
 62
5
  6
CONTINUOUS
 10
172.55
 20
-25.175
  7
TEXTSTYLE_3
 40
1.3
  1
Size
 72
5
 11
177.45
 21
-25.175
100
AcDbText
  0
TEXT
  5
563
100
AcDbEntity
  8
0
100
AcDbText
 62
5
  6
CONTINUOUS
 10
172.375
 20
-32.8375
  7
STANDARD
 40
3.5
  1
 3
 72
5
 11
177.625
 21
-32.8375
100
AcDbText
  0
TEXT
  5
564
100
AcDbEntity
  8
0
100
AcDbText
 62
5
  6
CONTINUOUS
 10
65.0
 20
-31.9
  7
TEXTSTYLE_3
 40
1.3
  1
Ver.
 72
5
 11
70.4
 21
-31.9
100
AcDbText
  0
TEXT
  5
565
100
AcDbEntity
  8
0
100
AcDbText
 62
5
  6
CONTINUOUS
 10
77.0
 20
-31.875
  7
STANDARD
 40
2.0
  1
--
 72
5
 11
79.8571428571
 21
-31.875
100
AcDbText
  0
TEXT
  5
566
100
AcDbEntity
  8
0
100
AcDbText
 62
5
  6
CONTINUOUS
 10
97.0
 20
-31.875
  7
STANDARD
 40
2.0
  1
--
 72
5
 11
99.8571428571
 21
-31.875
100
AcDbText
  0
TEXT
  5
567
100
AcDbEntity
  8
0
100
AcDbText
 62
5
  6
CONTINUOUS
 10
65.0
 20
-37.9
  7
TEXTSTYLE_3
 40
1.3
  1
Draft
 72
5
 11
71.0
 21
-37.9
100
AcDbText
  0
TEXT
  5
568
100
AcDbEntity
  8
0
100
AcDbText
 62
5
  6
CONTINUOUS
 10
77.0
 20
-37.875
  7
STANDARD
 40
2.0
  1
11.06.2015
 72
5
 11
90.4285714286
 21
-37.875
100
AcDbText
  0
TEXT
  5
569
100
AcDbEntity
  8
0
100
AcDbText
 62
5
  6
CONTINUOUS
 10
97.0
 20
-37.875
  7
STANDARD
 40
2.0
  1
Dr
 72
5
 11
100.0952380952
 21
-37.875
100
AcDbText
  0
TEXT
  5
56A
100
AcDbEntity
  8
0
100
AcDbText
 62
5
  6
CONTINUOUS
 10
120.0
 20
-37.175
  7
TEXTSTYLE_3
 40
1.3
  1
Drawing No.
 72
5
 11
135.0
 21
-37.175
100
AcDbText
  0
TEXT
  5
56B
100
AcDbEntity
  8
0
100
AcDbText
 62
5
  6
CONTINUOUS
 10
120.0
 20
-42.6875
  7
TEXTSTYLE_4
 40
4.0
  1
6-37367-01-R
 72
5
 11
154.3125
 21
-42.6875
100
AcDbText
  0
TEXT
  5
56C
100
AcDbEntity
  8
0
100
AcDbText
 62
5
  6
CONTINUOUS
 10
171.7
 20
-37.175
  7
TEXTSTYLE_3
 40
1.3
  1
Sheet
 72
5
 11
178.3
 21
-37.175
100
AcDbText
  0
TEXT
  5
56D
100
AcDbEntity
  8
0
100
AcDbText
 62
5
  6
CONTINUOUS
 10
172.619047619
 20
-43.0875
  7
STANDARD
 40
2.5
  1
1
 72
5
 11
174.0476190476
 21
-43.0875
100
AcDbText
  0
TEXT
  5
56E
100
AcDbEntity
  8
0
100
AcDbText
 62
5
  6
CONTINUOUS
 10
174.0476190476
 20
-43.0875
  7
STANDARD
 40
2.5
  1
/
 72
5
 11
175.9523809524
 21
-43.0875
100
AcDbText
  0
TEXT
  5
56F
100
AcDbEntity
  8
0
100
AcDbText
 62
5
  6
CONTINUOUS
 10
175.9523809524
 20
-43.0875
  7
STANDARD
 40
2.5
  1
1
 72
5
 11
177.380952381
 21
-43.0875
100
AcDbText
  0
TEXT
  5
570
100
AcDbEntity
  8
0
100
AcDbText
 62
5
  6
CONTINUOUS
 10
35.0
 20
-43.9
  7
TEXTSTYLE_3
 40
1.3
  1
Replacement for 
 72
5
 11
56.6
 21
-43.9
100
AcDbText
  0
TEXT
  5
571
100
AcDbEntity
  8
0
100
AcDbText
 62
5
  6
CONTINUOUS
 10
56.6
 20
-43.9
  7
STANDARD
 40
2.0
  1
--
 72
5
 11
59.4571428571
 21
-43.9
100
AcDbText
  0
ENDBLK
  5
572
100
AcDbEntity
  8
0
  6
BYBLOCK
 62
0
100
AcDbBlockEnd
  0
BLOCK
  5
573
100
AcDbEntity
  8
0
100
AcDbBlockBegin
  2
*T2
 70
1
 10
0.0
 20
0.0
  3
*T2
  1

  0
LINE
  5
574
100
AcDbEntity
  8
0
100
AcDbLine
 62
2
  6
CONTINUOUS
 10
0.0
 20
0.0
 11
11.2
 21
0.0
  0
LINE
  5
575
100
AcDbEntity
  8
0
100
AcDbLine
 62
2
  6
CONTINUOUS
 10
0.0
 20
0.0
 11
0.0
 21
-45.0
  0
LINE
  5
576
100
AcDbEntity
  8
0
100
AcDbLine
 62
2
  6
CONTINUOUS
 10
0.0
 20
-9.0
 11
11.2
 21
-9.0
  0
LINE
  5
577
100
AcDbEntity
  8
0
100
AcDbLine
 62
2
  6
CONTINUOUS
 10
0.0
 20
-18.0
 11
11.2
 21
-18.0
  0
LINE
  5
578
100
AcDbEntity
  8
0
100
AcDbLine
 62
2
  6
CONTINUOUS
 10
0.0
 20
-27.0
 11
11.2
 21
-27.0
  0
LINE
  5
579
100
AcDbEntity
  8
0
100
AcDbLine
 62
2
  6
CONTINUOUS
 10
0.0
 20
-36.0
 11
11.2
 21
-36.0
  0
LINE
  5
57A
100
AcDbEntity
  8
0
100
AcDbLine
 62
2
  6
CONTINUOUS
 10
0.0
 20
-45.0
 11
11.2
 21
-45.0
  0
LINE
  5
57B
100
AcDbEntity
  8
0
100
AcDbLine
 62
2
  6
CONTINUOUS
 10
11.2
 20
0.0
 11
11.2
 21
-45.0
  0
TEXT
  5
57C
100
AcDbEntity
  8
0
100
AcDbText
 62
5
  6
CONTINUOUS
 10
4.35
 20
-6.25
  7
STANDARD
 40
3.5
  1
-
 72
5
 11
6.85
 21
-6.25
100
AcDbText
  0
TEXT
  5
57D
100
AcDbEntity
  8
0
100
AcDbText
 62
5
  6
CONTINUOUS
 10
4.35
 20
-15.25
  7
STANDARD
 40
3.5
  1
-
 72
5
 11
6.85
 21
-15.25
100
AcDbText
  0
TEXT
  5
57E
100
AcDbEntity
  8
0
100
AcDbText
 62
5
  6
CONTINUOUS
 10
4.35
 20
-24.25
  7
STANDARD
 40
3.5
  1
-
 72
5
 11
6.85
 21
-24.25
100
AcDbText
  0
TEXT
  5
57F
100
AcDbEntity
  8
0
100
AcDbText
 62
5
  6
CONTINUOUS
 10
4.35
 20
-33.25
  7
STANDARD
 40
3.5
  1
-
 72
5
 11
6.85
 21
-33.25
100
AcDbText
  0
TEXT
  5
580
100
AcDbEntity
  8
0
100
AcDbText
 62
5
  6
CONTINUOUS
 10
4.35
 20
-42.25
  7
STANDARD
 40
3.5
  1
-
 72
5
 11
6.85
 21
-42.25
100
AcDbText
  0
ENDBLK
  5
581
100
AcDbEntity
  8
0
  6
BYBLOCK
 62
0
100
AcDbBlockEnd
  0
ENDSEC
  0
SECTION
  2
ENTITIES
  0
TEXT
  5
582
100
AcDbEntity
  8
0
100
AcDbText
 62
5
  6
CONTINUOUS
 10
22.5735775821
 20
117.9209551035
  7
TEXTSTYLE_2
 40
1.5
  1
Proprietary rights apply in accordance with ISO 16016.
 50
90.0
 72
5
 11
22.5735775821
 21
173.5995265321
100
AcDbText
  0
TEXT
  5
583
100
AcDbEntity
  8
0
100
AcDbText
 62
5
  6
CONTINUOUS
 10
24.0389181064
 20
5.9968186418
  7
STANDARD
 40
2.0
  1
V4
 50
90.0
 72
5
 11
24.0389181064
 21
9.6158662609
100
AcDbText
  0
INSERT
  5
584
100
AcDbEntity
  8
0
100
AcDbBlockReference
 62
2
  6
CONTINUOUS
  2
SYMBOL_2_BL9
 10
252.0051336987
 20
17.0063304868
  0
INSERT
  5
585
100
AcDbEntity
  8
0
100
AcDbBlockReference
 62
2
  6
CONTINUOUS
  2
SYMBOL_5_BL10
 10
14.6760682863
 20
285.9565270313
  0
DIMENSION
  5
586
100
AcDbEntity
  8
0
100
AcDbDimension
 62
2
  6
CONTINUOUS
  2
*D0
 10
152.6301174019
 20
268.2542148586
 11
152.6301174019
 21
160.0042148586
 70
160
 71
2
 42
216.5
  3
DIMSTYLE_1
100
AcDbAlignedDimension
 13
179.6301174019
 23
51.7542148586
 14
179.6301174019
 24
268.2542148586
 50
90.0
100
AcDbRotatedDimension
  0
DIMENSION
  5
587
100
AcDbEntity
  8
0
100
AcDbDimension
 62
2
  6
CONTINUOUS
  2
*D1
 10
145.6301174019
 20
43.7542148586
 11
145.6301174019
 21
160.0042148586
 70
160
 71
2
 42
232.5
  3
DIMSTYLE_1
100
AcDbAlignedDimension
 13
176.6301174019
 23
276.2542148586
 14
176.6301174019
 24
43.7542148586
 50
270.0
100
AcDbRotatedDimension
  0
DIMENSION
  5
588
100
AcDbEntity
  8
0
100
AcDbDimension
 62
2
  6
CONTINUOUS
  2
*D2
 10
159.6301174019
 20
197.8892148586
 11
159.6301174019
 21
152.3217148586
 70
160
 71
2
 42
91.135
  3
DIMSTYLE_2
100
AcDbAlignedDimension
 13
178.4432827687
 23
106.7542148586
 14
177.6301174019
 24
197.8892148586
 50
90.0
100
AcDbRotatedDimension
  0
DIMENSION
  5
589
100
AcDbEntity
  8
0
100
AcDbDimension
 62
2
  6
CONTINUOUS
  2
*D3
 10
166.6301174019
 20
137.7542148586
 11
166.6301174019
 21
106.7542148586
 70
160
 71
2
 42
62.0
  3
DIMSTYLE_3
100
AcDbAlignedDimension
 13
184.0051174019
 23
75.7542148586
 14
184.0051174019
 24
137.7542148586
 50
90.0
100
AcDbRotatedDimension
  0
DIMENSION
  5
58A
100
AcDbEntity
  8
0
100
AcDbDimension
 62
2
  6
CONTINUOUS
  2
*D4
 10
217.6301174019
 20
197.8892148586
 11
217.6301174019
 21
130.8217148586
 70
160
 71
2
 42
134.135
  3
DIMSTYLE_4
100
AcDbAlignedDimension
 13
197.6301174019
 23
63.7542148586
 14
201.6301174019
 24
197.8892148586
 50
90.0
100
AcDbRotatedDimension
  0
DIMENSION
  5
58B
100
AcDbEntity
  8
0
100
AcDbDimension
 62
2
  6
CONTINUOUS
  2
*D5
 10
210.6301174019
 20
197.8892148586
 11
210.6301174019
 21
176.3217148586
 70
160
 71
2
 42
43.135
  3
DIMSTYLE_2
100
AcDbAlignedDimension
 13
197.0301174019
 23
154.7542148586
 14
201.6301174019
 24
197.8892148586
 50
90.0
100
AcDbRotatedDimension
  0
DIMENSION
  5
58C
100
AcDbEntity
  8
0
100
AcDbDimension
 62
2
  6
CONTINUOUS
  2
*D6
 10
217.6301174019
 20
197.8892148586
 11
217.6301174019
 21
227.0717148586
 70
160
 71
2
 42
58.365
  3
DIMSTYLE_5
100
AcDbAlignedDimension
 13
197.6301174019
 23
256.2542148586
 14
201.6301174019
 24
197.8892148586
 50
270.0
100
AcDbRotatedDimension
  0
DIMENSION
  5
58D
100
AcDbEntity
  8
0
100
AcDbDimension
 62
2
  6
CONTINUOUS
  2
*D7
 10
200.6301174019
 20
286.2542148586
 11
188.6301174019
 21
286.2542148586
 70
160
 71
2
 42
24.0
  3
DIMSTYLE_6
100
AcDbAlignedDimension
 13
176.6301174019
 23
268.2542148586
 14
200.6301174019
 24
268.2542148586
100
AcDbRotatedDimension
  0
DIMENSION
  5
58E
100
AcDbEntity
  8
0
100
AcDbDimension
 62
2
  6
CONTINUOUS
  2
*D8
 10
101.0133956778
 20
286.2542148586
 11
89.9890978475
 21
286.2542148586
 70
160
 71
3
 42
6.0
  3
DIMSTYLE_7
100
AcDbAlignedDimension
 13
95.0133956778
 23
268.2542148586
 14
101.0133956778
 24
268.2542148586
100
AcDbRotatedDimension
  0
DIMENSION
  5
58F
100
AcDbEntity
  8
0
100
AcDbDimension
 62
2
  6
CONTINUOUS
  2
*D9
 10
176.6301174019
 20
33.9050009566
 11
172.0671104572
 21
33.9050009566
 70
160
 71
3
 42
2.0
  3
DIMSTYLE_7
100
AcDbAlignedDimension
 13
178.6301174019
 23
23.9050009566
 14
176.6301174019
 24
23.9050009566
 50
180.0
100
AcDbRotatedDimension
  0
DIMENSION
  5
590
100
AcDbEntity
  8
0
100
AcDbDimension
 62
2
  6
CONTINUOUS
  2
*D10
 10
194.7551174019
 20
141.5088766925
 11
188.6301174019
 21
141.5088766925
 70
160
 71
2
 42
12.25
  3
DIMSTYLE_8
100
AcDbAlignedDimension
 13
182.5051174019
 23
136.2542148586
 14
194.7551174019
 24
136.2542148586
100
AcDbRotatedDimension
  0
ACAD_TABLE
  5
591
100
AcDbEntity
  8
0
 62
2
  6
CONTINUOUS
100
AcDbBlockReference
  2
*T1
 10
235.0
 20
50.875
 30
0.0
100
AcDbTable
342
       5A9
343
232
 11
1.0
 21
0.0
 31
0.0
 90
22
 91
5
 92
9
 93
0
 94
0
 95
0
 96
0
141
21.875
141
6.0
141
6.0
141
6.0
141
6.0
142
34.0
142
30.0
142
12.0
142
20.0
142
13.0
142
10.0
142
41.0
142
10.0
142
10.0
171
1
172
0
173
0
174
0
175
9
176
1
 91
41
178
0
145
0.0
301
CELL_VALUE
 90
4
  1
Description\P\H2.9;Sbl/U24x6/216/NL12/AT/Est\P--\Pstriker/U24x6/216/axis 12/interchangeable latch piece/end piece
304
ACVALUE_END
170
4
140
1.3
 64
5
171
1
172
0
173
1
174
0
175
1
176
1
 91
1
178
0
145
0.0
170
1
171
1
172
0
173
1
174
0
175
1
176
1
 91
1
178
0
145
0.0
170
1
171
1
172
0
173
1
174
0
175
1
176
1
 91
1
178
0
145
0.0
170
1
171
1
172
0
173
1
174
0
175
1
176
1
 91
1
178
0
145
0.0
170
1
171
1
172
0
173
1
174
0
175
1
176
1
 91
1
178
0
145
0.0
170
1
171
1
172
0
173
1
174
0
175
1
176
1
 91
1
178
0
145
0.0
170
1
171
1
172
0
173
1
174
0
175
1
176
1
 91
1
178
0
145
0.0
170
1
171
1
172
0
173
1
174
0
175
1
176
1
 91
1
178
0
145
0.0
170
1
171
1
172
0
173
0
174
0
175
1
176
4
 91
1
178
0
145
0.0
170
1
171
1
172
0
173
0
174
0
175
1
176
3
 91
41
178
0
145
0.0
301
CELL_VALUE
 90
4
  1
Release No. \P\H2.0;--\P\H0.5; \P\H1.3;Mod. No.\P\H2.0;--
304
ACVALUE_END
170
4
140
1.3
 64
5
171
1
172
0
173
0
174
0
175
1
176
1
 91
41
178
0
145
0.0
301
CELL_VALUE
 90
4
  1
Level
304
ACVALUE_END
170
4
140
1.3
 64
5
171
1
172
0
173
0
174
0
175
2
176
1
 91
41
178
0
145
0.0
301
CELL_VALUE
 90
4
  1
Released
304
ACVALUE_END
170
4
140
2.0
 64
5
171
1
172
0
173
1
174
0
175
1
176
1
 91
1
178
0
145
0.0
170
1
171
1
172
0
173
0
174
0
175
1
176
3
 91
41
178
0
145
0.0
301
CELL_VALUE
 90
4
  1
Scale\P\H2.5; \P1:1
304
ACVALUE_END
170
2
140
1.3
 64
5
171
1
172
0
173
0
174
0
175
2
176
2
 91
41
178
0
145
0.0
301
CELL_VALUE
 90
4
  1
Modification \P\H3.5;1
304
ACVALUE_END
170
1
140
1.3
 64
5
171
1
172
0
173
1
174
0
175
1
176
1
 91
1
178
0
145
0.0
170
1
171
1
172
0
173
0
174
0
175
1
176
2
 91
41
178
0
145
0.0
301
CELL_VALUE
 90
4
  1
Size\P\H3.5; 3
304
ACVALUE_END
170
2
140
1.3
 64
5
171
1
172
0
173
1
174
0
175
1
176
1
 91
1
178
0
145
0.0
170
1
171
1
172
0
173
1
174
0
175
1
176
1
 91
1
178
0
145
0.0
170
1
171
1
172
0
173
0
174
0
175
1
176
1
 91
41
178
0
145
0.0
301
CELL_VALUE
 90
4
  1
Ver.
304
ACVALUE_END
170
4
140
1.3
 64
5
171
1
172
0
173
0
174
0
175
1
176
1
 91
41
178
0
145
0.0
301
CELL_VALUE
 90
4
  1
--
304
ACVALUE_END
170
4
140
2.0
 64
5
171
1
172
0
173
0
174
0
175
1
176
1
 91
41
178
0
145
0.0
301
CELL_VALUE
 90
4
  1
--
304
ACVALUE_END
170
4
140
2.0
 64
5
171
1
172
0
173
1
174
0
175
1
176
1
 91
1
178
0
145
0.0
170
1
171
1
172
0
173
1
174
0
175
1
176
1
 91
1
178
0
145
0.0
170
1
171
1
172
0
173
1
174
0
175
1
176
1
 91
1
178
0
145
0.0
170
1
171
1
172
0
173
1
174
0
175
1
176
1
 91
1
178
0
145
0.0
170
1
171
1
172
0
173
1
174
0
175
1
176
1
 91
1
178
0
145
0.0
170
1
171
1
172
0
173
1
174
0
175
1
176
1
 91
1
178
0
145
0.0
170
1
171
1
172
0
173
0
174
0
175
1
176
1
 91
41
178
0
145
0.0
301
CELL_VALUE
 90
4
  1
Draft
304
ACVALUE_END
170
4
140
1.3
 64
5
171
1
172
0
173
0
174
0
175
1
176
1
 91
41
178
0
145
0.0
301
CELL_VALUE
 90
4
  1
11.06.2015
304
ACVALUE_END
170
4
140
2.0
 64
5
171
1
172
0
173
0
174
0
175
1
176
1
 91
41
178
0
145
0.0
301
CELL_VALUE
 90
4
  1
Dr
304
ACVALUE_END
170
4
140
2.0
 64
5
171
1
172
0
173
1
174
0
175
1
176
1
 91
1
178
0
145
0.0
170
1
171
1
172
0
173
0
174
0
175
2
176
2
 91
41
178
0
145
0.0
301
CELL_VALUE
 90
4
  1
Drawing No.\P\H4.0;6-37367-01-R
304
ACVALUE_END
170
1
140
1.3
 64
5
171
1
172
0
173
1
174
0
175
1
176
1
 91
1
178
0
145
0.0
170
1
171
1
172
0
173
0
174
0
175
1
176
2
 91
41
178
0
145
0.0
301
CELL_VALUE
 90
4
  1
Sheet\P\H2.5;1/1
304
ACVALUE_END
170
2
140
1.3
 64
5
171
1
172
0
173
1
174
0
175
1
176
1
 91
1
178
0
145
0.0
170
1
171
1
172
0
173
0
174
0
175
5
176
1
 91
41
178
0
145
0.0
301
CELL_VALUE
 90
4
  1
Replacement for \H2.0;--
304
ACVALUE_END
170
4
140
1.3
 64
5
171
1
172
0
173
1
174
0
175
1
176
1
 91
1
178
0
145
0.0
170
1
171
1
172
0
173
1
174
0
175
1
176
1
 91
1
178
0
145
0.0
170
1
171
1
172
0
173
1
174
0
175
1
176
1
 91
1
178
0
145
0.0
170
1
171
1
172
0
173
1
174
0
175
1
176
1
 91
1
178
0
145
0.0
170
1
171
1
172
0
173
1
174
0
175
1
176
1
 91
1
178
0
145
0.0
170
1
171
1
172
0
173
1
174
0
175
1
176
1
 91
1
178
0
145
0.0
170
1
171
1
172
0
173
1
174
0
175
1
176
1
 91
1
178
0
145
0.0
170
1
  0
ACAD_TABLE
  5
592
100
AcDbEntity
  8
0
 62
2
  6
CONTINUOUS
100
AcDbBlockReference
  2
*T2
 10
13.8
 20
104.9999999999
 30
0.0
100
AcDbTable
342
       5A9
343
233
 11
1.0
 21
0.0
 31
0.0
 90
22
 91
5
 92
1
 93
0
 94
0
 95
0
 96
0
141
9.0
141
9.0
141
9.0
141
9.0
141
9.0
142
11.2
171
1
172
0
173
0
174
0
175
1
176
1
 91
41
178
0
145
0.0
301
CELL_VALUE
 90
4
  1
-
304
ACVALUE_END
170
5
140
3.5
 64
5
171
1
172
0
173
0
174
0
175
1
176
1
 91
41
178
0
145
0.0
301
CELL_VALUE
 90
4
  1
-
304
ACVALUE_END
170
5
140
3.5
 64
5
171
1
172
0
173
0
174
0
175
1
176
1
 91
41
178
0
145
0.0
301
CELL_VALUE
 90
4
  1
-
304
ACVALUE_END
170
5
140
3.5
 64
5
171
1
172
0
173
0
174
0
175
1
176
1
 91
41
178
0
145
0.0
301
CELL_VALUE
 90
4
  1
-
304
ACVALUE_END
170
5
140
3.5
 64
5
171
1
172
0
173
0
174
0
175
1
176
1
 91
41
178
0
145
0.0
301
CELL_VALUE
 90
4
  1
-
304
ACVALUE_END
170
5
140
3.5
 64
5
  0
TEXT
  5
593
100
AcDbEntity
  8
0
100
AcDbText
 62
5
  6
CONTINUOUS
 10
172.487260259
 20
9.8050009563
  7
STANDARD
 40
5.0
  1
A-A
 72
5
 11
184.6301174019
 21
9.8050009563
100
AcDbText
  0
LINE
  5
594
100
AcDbEntity
  8
0
100
AcDbLine
 62
5
  6
CONTINUOUS
 10
0.0
 20
297.0
 11
0.0
 21
0.0
  0
LINE
  5
595
100
AcDbEntity
  8
0
100
AcDbLine
 62
5
  6
CONTINUOUS
 10
25.0
 20
292.0
 11
25.0
 21
5.0
  0
LINE
  5
596
100
AcDbEntity
  8
0
100
AcDbLine
 62
5
  6
CONTINUOUS
 10
0.0
 20
0.0
 11
420.0
 21
0.0
  0
LINE
  5
597
100
AcDbEntity
  8
0
100
AcDbLine
 62
5
  6
CONTINUOUS
 10
25.0
 20
5.0
 11
415.0
 21
5.0
  0
LINE
  5
598
100
AcDbEntity
  8
0
100
AcDbLine
 62
5
  6
CONTINUOUS
 10
1.0
 20
148.5
 11
15.0
 21
148.5
  0
LINE
  5
599
100
AcDbEntity
  8
0
100
AcDbLine
 62
5
  6
CONTINUOUS
 10
25.0
 20
292.0
 11
415.0
 21
292.0
  0
LINE
  5
59A
100
AcDbEntity
  8
0
100
AcDbLine
 62
5
  6
CONTINUOUS
 10
0.0
 20
297.0
 11
420.0
 21
297.0
  0
LINE
  5
59B
100
AcDbEntity
  8
0
100
AcDbLine
 62
5
  6
CONTINUOUS
 10
415.0
 20
292.0
 11
415.0
 21
5.0
  0
LINE
  5
59C
100
AcDbEntity
  8
0
100
AcDbLine
 62
5
  6
CONTINUOUS
 10
420.0
 20
297.0
 11
420.0
 21
0.0
  0
INSERT
  5
59D
100
AcDbEntity
  8
93773508000_BL0
100
AcDbBlockReference
  2
93773508000_BL0
 10
147.3717565398
 20
45.3296079076
  0
INSERT
  5
59E
100
AcDbEntity
  8
94862601R00_BL1
100
AcDbBlockReference
  2
94862601R00_BL1
 10
146.3217565398
 20
143.0796079076
  0
INSERT
  5
59F
100
AcDbEntity
  8
93780800R00_BL2
100
AcDbBlockReference
  2
93780800R00_BL2
 10
192.6301174019
 20
213.3892148586
  0
INSERT
  5
5A0
100
AcDbEntity
  8
93894203000_BL3
100
AcDbBlockReference
  2
93894203000_BL3
 10
190.1301174019
 20
120.9046079076
  0
INSERT
  5
5A1
100
AcDbEntity
  8
93780800R00_BL4
100
AcDbBlockReference
  2
93780800R00_BL4
 10
192.6301174019
 20
182.3892148586
  0
INSERT
  5
5A2
100
AcDbEntity
  8
93773508000_BL5
100
AcDbBlockReference
  2
93773508000_BL5
 10
147.0951811833
 20
261.7542148586
  0
INSERT
  5
5A3
100
AcDbEntity
  8
93894102000_BL6
100
AcDbBlockReference
  2
93894102000_BL6
 10
146.3217565398
 20
119.3971079076
  0
INSERT
  5
5A4
100
AcDbEntity
  8
62890203000_STELLUNG_1_BL7
100
AcDbBlockReference
  2
62890203000_STELLUNG_1_BL7
 10
146.3217453286
 20
197.8892148586
  0
INSERT
  5
5A5
100
AcDbEntity
  8
91324206R00_BL8
100
AcDbBlockReference
  2
91324206R00_BL8
 10
190.6301174019
 20
224.0042148586
  0
ENDSEC
  0
SECTION
  2
OBJECTS
  0
DICTIONARY
  5
C
100
AcDbDictionary
280
0
281
1
  3
ACAD_GROUP
350
D
  3
ACAD_MLINESTYLE
350
17
  3
ACAD_LAYOUT
350
1A
  3
ACAD_PLOTSETTINGS
350
19
  3
ACAD_PLOTSTYLENAME
350
E
  3
ACAD_TABLESTYLE
350
       5A6
  0
DICTIONARY
  5
D
102
{ACAD_REACTORS
330
C
102
}
100
AcDbDictionary
280
0
281
1
  0
ACDBDICTIONARYWDFLT
  5
E
102
{ACAD_REACTORS
330
C
102
}
100
AcDbDictionary
281
1
  3
Normal
350
F
100
AcDbDictionaryWithDefault
340
F
  0
DICTIONARY
  5
17
102
{ACAD_REACTORS
330
C
102
}
100
AcDbDictionary
280
0
281
1
  3
Standard
350
18
  0
DICTIONARY
  5
5A6
330
C
100
AcDbDictionary
281
1
  3
Standard
350
       5A9
  3
Standard1
350
       5AA
  0
DICTIONARY
  5
19
102
{ACAD_REACTORS
330
C
102
}
100
AcDbDictionary
281
1
  0
DICTIONARY
  5
1A
102
{ACAD_REACTORS
330
C
102
}
100
AcDbDictionary
281
1
  3
Model
350
5A7
  3
Layout1
350
5A8
  0
ACDBPLACEHOLDER
  5
F
102
{ACAD_REACTORS
330
E
102
}
  0
MLINESTYLE
  5
18
102
{ACAD_REACTORS
330
17
102
}
100
AcDbMlineStyle
  2
STANDARD
 70
0
  3

 62
256
 51
90.0
 52
90.0
 71
2
 49
0.5
 62
256
  6
BYLAYER
 49
-0.5
 62
256
  6
BYLAYER
  0
LAYOUT
  5
5A7
102
{ACAD_REACTORS
330
1A
102
}
100
AcDbPlotSettings
  1

  2
none_device
  4
ISO_A3_(420.00_x_297.00_MM)
  6

 40
0.0
 41
0.0
 42
0.0
 43
0.0
 44
420.0
 45
297.0
 46
0.0
 47
0.0
 48
0.0
 49
0.0
140
0.0
141
0.0
142
1.0
143
1.0
 70
1024
 72
1
 73
0
 74
0
  7

 75
0
147
1.0
148
0.0
149
0.0
100
AcDbLayout
  1
Model
 70
0
 71
0
 10
0.0
 20
0.0
 11
420.0
 21
297.0
 12
0.0
 22
0.0
 32
0.0
 14
0.0
 24
0.0
 34
0.0
 15
0.0
 25
0.0
 35
0.0
146
0.0
 13
0.0
 23
0.0
 33
0.0
 16
1.0
 26
0.0
 36
0.0
 17
0.0
 27
1.0
 37
0.0
 76
0
330
219
345
0
346
0
  0
LAYOUT
  5
5A8
102
{ACAD_REACTORS
330
1A
102
}
100
AcDbPlotSettings
  1

  2
none_device
  4
ISO_A3_(420.00_x_297.00_MM)
  6

 40
0.0
 41
0.0
 42
0.0
 43
0.0
 44
420.0
 45
297.0
 46
0.0
 47
0.0
 48
0.0
 49
0.0
140
0.0
141
0.0
142
1.0
143
1.0
 70
0
 72
1
 73
0
 74
0
  7

 75
0
147
1.0
148
0.0
149
0.0
100
AcDbLayout
  1
Layout1
 70
0
 71
1
 10
0.0
 20
0.0
 11
420.0
 21
297.0
 12
0.0
 22
0.0
 32
0.0
 14
0.0
 24
0.0
 34
0.0
 15
0.0
 25
0.0
 35
0.0
146
0.0
 13
0.0
 23
0.0
 33
0.0
 16
1.0
 26
0.0
 36
0.0
 17
0.0
 27
1.0
 37
0.0
 76
0
330
21A
345
0
346
0
  0
TABLESTYLE
  5
5A9
102
{ACAD_REACTORS
330
5A6
330
591
330
592
102
}
330
5A6
100
AcDbTableStyle
  3
Standard
 70
0
 71
0
 40
0.06
 41
0.06
280
1
281
1
  7
Standard
140
0.18
170
1
 62
0
 63
7
283
0
  7
Standard
140
0.18
170
1
 62
0
 63
7
283
0
  7
Standard
140
0.18
170
1
 62
0
 63
7
283
0
  0
TABLESTYLE
  5
5AA
102
{ACAD_REACTORS
330
5A6
102
}
330
5A6
100
AcDbTableStyle
  3
Standard1
 70
1
 71
0
 40
0.06
 41
0.06
280
1
281
1
  7
Standard
140
0.18
170
1
 62
0
 63
7
283
0
  7
Standard
140
0.18
170
1
 62
0
 63
7
283
0
  7
Standard
140
0.18
170
1
 62
0
 63
7
283
0
  0
ENDSEC
  0
EOF
