  0
SECTION
  2
HEADER
  9
$ACADVER
  1
AC1021
  9
$DWGCODEPAGE
  3
ANSI_1252
  9
$EXTMAX
 10
420.0
 20
297.0
 30
0.0
  9
$EXTMIN
 10
0.0
 20
0.0
 30
0.0
  9
$LIMMIN
 10
0.0
 20
0.0
  9
$LIMMAX
 10
420.0
 20
297.0
  9
$VIEWCTR
 10
210.0
 20
148.5
  9
$VIEWSIZE
 40
297.0
  9
$CLAYER
  8
0
  9
$LTSCALE
 40
23.1
  9
$CELTYPE
  6
BYLAYER
  9
$DIMSCALE
 40
1.0
  9
$DIMASZ
 40
3.5
  9
$DIMEXO
 40
0.0
  9
$DIMDLI
 40
15.96
  9
$DIMEXE
 40
1.0
  9
$DIMCEN
 40
3.78
  9
$DIMLFAC
 40
1.0
  9
$DIMBLK
  1
_FILLED
  9
$DIMTXT
 40
2.5
  9
$DIMTOL
 70
1
  9
$DIMLIM
 70
0
  9
$DIMTFAC
 40
1.0
  9
$DIMTP
 40
0.001
  9
$DIMTM
 40
0.001
  9
$DIMGAP
 40
0.625
  9
$DIMDSEP
 70
46
  9
$PDMODE
 70
3
  9
$PDSIZE
 40
2.0
  9
$HANDSEED
  5
5C3
  9
$TILEMODE
 70
1
  9
$MEASUREMENT
 70
1
  9
$INSUNITS
 70
4
  0
ENDSEC
  0
SECTION
  2
CLASSES
  0
CLASS
  1
ACDBDICTIONARYWDFLT
  2
AcDbDictionaryWithDefault
  3
AutoCAD 2000
 90
0
 91
1
280
0
281
0
  0
CLASS
  1
ACDBPLACEHOLDER
  2
AcDbPlaceHolder
  3
AutoCAD 2000
 90
0
 91
1
280
0
281
0
  0
CLASS
  1
LAYOUT
  2
AcDbLayout
  3
AutoCAD 2000
 90
0
 91
0
280
0
281
0
  0
CLASS
  1
TABLESTYLE
  2
AcDbTableStyle
  3
ObjectDBX Classes
 90
2047
 91
1
280
0
281
0
  0
CLASS
  1
ACAD_TABLE
  2
AcDbTable
  3
ObjectDBX Classes
 90
1025
 91
2
280
0
281
1
  0
ENDSEC
  0
SECTION
  2
TABLES
  0
TABLE
  2
VPORT
  5
8
100
AcDbSymbolTable
 70
2
  0
VPORT
  5
1F4
100
AcDbSymbolTableRecord
100
AcDbViewportTableRecord
  2
*ACTIVE
 70
0
 10
0.0
 20
0.0
 11
1.0
 21
1.0
 12
210.0
 22
148.5
 13
0.0
 23
0.0
 14
1.0
 24
1.0
 15
0.0
 25
0.0
 16
0.0
 26
0.0
 36
1.0
 17
0.0
 27
0.0
 37
0.0
 40
297.0
 41
1.4141414141
 42
50.0
 43
0.0
 44
0.0
 50
0.0
 51
0.0
 71
0
 72
100
 73
1
 74
1
 75
0
 76
0
 77
0
 78
0
  0
ENDTAB
  0
TABLE
  2
LTYPE
  5
5
100
AcDbSymbolTable
 70
6
  0
LTYPE
  5
14
100
AcDbSymbolTableRecord
100
AcDbLinetypeTableRecord
  2
BYBLOCK
 70
0
  3

 72
65
 73
0
 40
0.0
  0
LTYPE
  5
15
100
AcDbSymbolTableRecord
100
AcDbLinetypeTableRecord
  2
BYLAYER
 70
0
  3

 72
65
 73
0
 40
0.0
  0
LTYPE
  5
16
100
AcDbSymbolTableRecord
100
AcDbLinetypeTableRecord
  2
CONTINUOUS
 70
64
  3
Solid line
 72
65
 73
0
 40
0.0
  0
LTYPE
  5
1F5
100
AcDbSymbolTableRecord
100
AcDbLinetypeTableRecord
  2
CENTER
 70
64
  3
____ _ ____ _ ____ _ ____ _ ____ _ ____ _ ____
 72
65
 73
4
 40
0.6
 49
0.375
 74
0
 49
-0.075
 74
0
 49
0.075
 74
0
 49
-0.075
 74
0
  0
LTYPE
  5
1F6
100
AcDbSymbolTableRecord
100
AcDbLinetypeTableRecord
  2
HIDDEN
 70
64
  3
- - - - - - - - - - - - - - - - - - - -
 72
65
 73
2
 40
0.2
 49
0.1
 74
0
 49
-0.1
 74
0
  0
LTYPE
  5
1F7
100
AcDbSymbolTableRecord
100
AcDbLinetypeTableRecord
  2
PHANTOM
 70
64
  3
_____ _ _ _____ _ _ _____ _ _ _____
 72
65
 73
6
 40
0.8
 49
0.45
 74
0
 49
-0.05
 74
0
 49
0.1
 74
0
 49
-0.05
 74
0
 49
0.1
 74
0
 49
-0.05
 74
0
  0
LTYPE
  5
1F8
100
AcDbSymbolTableRecord
100
AcDbLinetypeTableRecord
  2
DOT
 70
64
  3
. . . . . . . . . . . . . . . . . . . .
 72
65
 73
2
 40
0.2
 49
0.1
 74
0
 49
-0.1
 74
0
  0
LTYPE
  5
1F9
100
AcDbSymbolTableRecord
100
AcDbLinetypeTableRecord
  2
DASHED
 70
64
  3
- - - - - - - - - - - - - - - - - - - -
 72
65
 73
2
 40
0.2
 49
0.1
 74
0
 49
-0.1
 74
0
  0
ENDTAB
  0
TABLE
  2
LAYER
  5
2
100
AcDbSymbolTable
 70
36
  0
LAYER
  5
10
100
AcDbSymbolTableRecord
100
AcDbLayerTableRecord
  2
0
 70
0
 62
7
  6
CONTINUOUS
370
-3
390
F
  0
LAYER
  5
1FA
100
AcDbSymbolTableRecord
100
AcDbLayerTableRecord
  2
DEFAULT_1
 70
0
 62
7
  6
CENTER
370
-3
390
F
  0
LAYER
  5
1FB
100
AcDbSymbolTableRecord
100
AcDbLayerTableRecord
  2
DEFAULT_2
 70
0
 62
8
  6
HIDDEN
370
-3
390
F
  0
LAYER
  5
1FC
100
AcDbSymbolTableRecord
100
AcDbLayerTableRecord
  2
DEFAULT_3
 70
0
 62
7
  6
PHANTOM
370
-3
390
F
  0
LAYER
  5
1FD
100
AcDbSymbolTableRecord
100
AcDbLayerTableRecord
  2
AXIS
 70
0
 62
7
  6
CONTINUOUS
370
-3
390
F
  0
LAYER
  5
1FE
100
AcDbSymbolTableRecord
100
AcDbLayerTableRecord
  2
COORDSYS
 70
0
 62
7
  6
CONTINUOUS
370
-3
390
F
  0
LAYER
  5
1FF
100
AcDbSymbolTableRecord
100
AcDbLayerTableRecord
  2
CURVES
 70
0
 62
7
  6
CONTINUOUS
370
-3
390
F
  0
LAYER
  5
200
100
AcDbSymbolTableRecord
100
AcDbLayerTableRecord
  2
EINBAUREFERENZ
 70
0
 62
7
  6
CONTINUOUS
370
-3
390
F
  0
LAYER
  5
201
100
AcDbSymbolTableRecord
100
AcDbLayerTableRecord
  2
KOSMETIK
 70
0
 62
7
  6
CONTINUOUS
370
-3
390
F
  0
LAYER
  5
202
100
AcDbSymbolTableRecord
100
AcDbLayerTableRecord
  2
KURVE
 70
0
 62
7
  6
CONTINUOUS
370
-3
390
F
  0
LAYER
  5
203
100
AcDbSymbolTableRecord
100
AcDbLayerTableRecord
  2
PLANES
 70
0
 62
7
  6
CONTINUOUS
370
-3
390
F
  0
LAYER
  5
204
100
AcDbSymbolTableRecord
100
AcDbLayerTableRecord
  2
POINTS
 70
0
 62
7
  6
CONTINUOUS
370
-3
390
F
  0
LAYER
  5
205
100
AcDbSymbolTableRecord
100
AcDbLayerTableRecord
  2
PROFIL-EINBAULAGE
 70
0
 62
7
  6
CONTINUOUS
370
-3
390
F
  0
LAYER
  5
206
100
AcDbSymbolTableRecord
100
AcDbLayerTableRecord
  2
S-AXIS
 70
0
 62
7
  6
CONTINUOUS
370
-3
390
F
  0
LAYER
  5
207
100
AcDbSymbolTableRecord
100
AcDbLayerTableRecord
  2
S-COORDSYS
 70
0
 62
7
  6
CONTINUOUS
370
-3
390
F
  0
LAYER
  5
208
100
AcDbSymbolTableRecord
100
AcDbLayerTableRecord
  2
S-PLANES
 70
0
 62
7
  6
CONTINUOUS
370
-3
390
F
  0
LAYER
  5
209
100
AcDbSymbolTableRecord
100
AcDbLayerTableRecord
  2
THREADS
 70
0
 62
7
  6
CONTINUOUS
370
-3
390
F
  0
LAYER
  5
20A
100
AcDbSymbolTableRecord
100
AcDbLayerTableRecord
  2
XSEC_DATUMS
 70
0
 62
7
  6
CONTINUOUS
370
-3
390
F
  0
LAYER
  5
20B
100
AcDbSymbolTableRecord
100
AcDbLayerTableRecord
  2
93773508000_BL0
 70
0
 62
7
  6
CONTINUOUS
370
-3
390
F
  0
LAYER
  5
20C
100
AcDbSymbolTableRecord
100
AcDbLayerTableRecord
  2
94862601L00_BL1
 70
0
 62
7
  6
CONTINUOUS
370
-3
390
F
  0
LAYER
  5
20D
100
AcDbSymbolTableRecord
100
AcDbLayerTableRecord
  2
93894203000_BL2
 70
0
 62
7
  6
CONTINUOUS
370
-3
390
F
  0
LAYER
  5
20E
100
AcDbSymbolTableRecord
100
AcDbLayerTableRecord
  2
93780800R00_BL3
 70
0
 62
7
  6
CONTINUOUS
370
-3
390
F
  0
LAYER
  5
20F
100
AcDbSymbolTableRecord
100
AcDbLayerTableRecord
  2
93894102000_BL4
 70
0
 62
7
  6
CONTINUOUS
370
-3
390
F
  0
LAYER
  5
210
100
AcDbSymbolTableRecord
100
AcDbLayerTableRecord
  2
93780800R00_BL5
 70
0
 62
7
  6
CONTINUOUS
370
-3
390
F
  0
LAYER
  5
211
100
AcDbSymbolTableRecord
100
AcDbLayerTableRecord
  2
93773508000_BL6
 70
0
 62
7
  6
CONTINUOUS
370
-3
390
F
  0
LAYER
  5
212
100
AcDbSymbolTableRecord
100
AcDbLayerTableRecord
  2
62890203000_STELLUNG_1_BL7
 70
0
 62
7
  6
CONTINUOUS
370
-3
390
F
  0
LAYER
  5
213
100
AcDbSymbolTableRecord
100
AcDbLayerTableRecord
  2
91324206R00_BL8
 70
0
 62
7
  6
CONTINUOUS
370
-3
390
F
  0
LAYER
  5
214
100
AcDbSymbolTableRecord
100
AcDbLayerTableRecord
  2
91324206R00_BL9
 70
0
 62
7
  6
CONTINUOUS
370
-3
390
F
  0
ENDTAB
  0
TABLE
  2
STYLE
  5
3
100
AcDbSymbolTable
 70
1
  0
STYLE
  5
11
100
AcDbSymbolTableRecord
100
AcDbTextStyleTableRecord
  2
STANDARD
 70
0
 40
0.0
 41
0.8
 50
0.0
 71
0
 42
0.2
  3
txt
  4

  0
STYLE
  5
215
100
AcDbSymbolTableRecord
100
AcDbTextStyleTableRecord
  2
TEXTSTYLE_1
 70
0
 40
0.0
 41
0.8
 50
0.0
 71
0
 42
0.2
  3
gdt
  4

  0
STYLE
  5
216
100
AcDbSymbolTableRecord
100
AcDbTextStyleTableRecord
  2
TEXTSTYLE_2
 70
0
 40
0.0
 41
1.0
 50
0.0
 71
0
 42
0.2
  3
txt
  4

  0
STYLE
  5
217
100
AcDbSymbolTableRecord
100
AcDbTextStyleTableRecord
  2
TEXTSTYLE_3
 70
0
 40
0.0
 41
0.8
 50
0.0
 71
0
 42
0.2
  3
txt
  4

  0
STYLE
  5
218
100
AcDbSymbolTableRecord
100
AcDbTextStyleTableRecord
  2
TEXTSTYLE_4
 70
0
 40
0.0
 41
0.8
 50
0.0
 71
0
 42
0.2
  3
txt
  4

  0
ENDTAB
  0
TABLE
  2
VIEW
  5
6
100
AcDbSymbolTable
 70
0
  0
ENDTAB
  0
TABLE
  2
UCS
  5
7
100
AcDbSymbolTable
 70
0
  0
ENDTAB
  0
TABLE
  2
APPID
  5
9
100
AcDbSymbolTable
 70
1
  0
APPID
  5
219
100
AcDbSymbolTableRecord
100
AcDbRegAppTableRecord
  2
ACAD
 70
0
  0
ENDTAB
  0
TABLE
  2
BLOCK_RECORD
  5
1
100
AcDbSymbolTable
 70
0
  0
BLOCK_RECORD
  5
21A
100
AcDbSymbolTableRecord
100
AcDbBlockTableRecord
  2
*Model_Space
  0
BLOCK_RECORD
  5
21B
100
AcDbSymbolTableRecord
100
AcDbBlockTableRecord
  2
*Paper_Space
  0
BLOCK_RECORD
  5
21C
100
AcDbSymbolTableRecord
100
AcDbBlockTableRecord
  2
_FILLED
  0
BLOCK_RECORD
  5
21D
100
AcDbSymbolTableRecord
100
AcDbBlockTableRecord
  2
*D0
  0
BLOCK_RECORD
  5
21E
100
AcDbSymbolTableRecord
100
AcDbBlockTableRecord
  2
*D1
  0
BLOCK_RECORD
  5
21F
100
AcDbSymbolTableRecord
100
AcDbBlockTableRecord
  2
*D2
  0
BLOCK_RECORD
  5
220
100
AcDbSymbolTableRecord
100
AcDbBlockTableRecord
  2
*D3
  0
BLOCK_RECORD
  5
221
100
AcDbSymbolTableRecord
100
AcDbBlockTableRecord
  2
*D4
  0
BLOCK_RECORD
  5
222
100
AcDbSymbolTableRecord
100
AcDbBlockTableRecord
  2
*D5
  0
BLOCK_RECORD
  5
223
100
AcDbSymbolTableRecord
100
AcDbBlockTableRecord
  2
*D6
  0
BLOCK_RECORD
  5
224
100
AcDbSymbolTableRecord
100
AcDbBlockTableRecord
  2
*D7
  0
BLOCK_RECORD
  5
225
100
AcDbSymbolTableRecord
100
AcDbBlockTableRecord
  2
*D8
  0
BLOCK_RECORD
  5
226
100
AcDbSymbolTableRecord
100
AcDbBlockTableRecord
  2
*D9
  0
BLOCK_RECORD
  5
227
100
AcDbSymbolTableRecord
100
AcDbBlockTableRecord
  2
*D10
  0
BLOCK_RECORD
  5
228
100
AcDbSymbolTableRecord
100
AcDbBlockTableRecord
  2
SYMBOL_5_BL11
  0
BLOCK_RECORD
  5
229
100
AcDbSymbolTableRecord
100
AcDbBlockTableRecord
  2
SYMBOL_2_BL10
  0
BLOCK_RECORD
  5
22A
100
AcDbSymbolTableRecord
100
AcDbBlockTableRecord
  2
93773508000_BL0
  0
BLOCK_RECORD
  5
22B
100
AcDbSymbolTableRecord
100
AcDbBlockTableRecord
  2
94862601L00_BL1
  0
BLOCK_RECORD
  5
22C
100
AcDbSymbolTableRecord
100
AcDbBlockTableRecord
  2
93894203000_BL2
  0
BLOCK_RECORD
  5
22D
100
AcDbSymbolTableRecord
100
AcDbBlockTableRecord
  2
93780800R00_BL3
  0
BLOCK_RECORD
  5
22E
100
AcDbSymbolTableRecord
100
AcDbBlockTableRecord
  2
93894102000_BL4
  0
BLOCK_RECORD
  5
22F
100
AcDbSymbolTableRecord
100
AcDbBlockTableRecord
  2
93780800R00_BL5
  0
BLOCK_RECORD
  5
230
100
AcDbSymbolTableRecord
100
AcDbBlockTableRecord
  2
93773508000_BL6
  0
BLOCK_RECORD
  5
231
100
AcDbSymbolTableRecord
100
AcDbBlockTableRecord
  2
62890203000_STELLUNG_1_BL7
  0
BLOCK_RECORD
  5
232
100
AcDbSymbolTableRecord
100
AcDbBlockTableRecord
  2
91324206R00_BL8
  0
BLOCK_RECORD
  5
233
100
AcDbSymbolTableRecord
100
AcDbBlockTableRecord
  2
91324206R00_BL9
  0
BLOCK_RECORD
  5
234
100
AcDbSymbolTableRecord
100
AcDbBlockTableRecord
  2
*T1
  0
BLOCK_RECORD
  5
235
100
AcDbSymbolTableRecord
100
AcDbBlockTableRecord
  2
*T2
  0
ENDTAB
  0
TABLE
  2
DIMSTYLE
  5
A
100
AcDbSymbolTable
 70
1
100
AcDbDimStyleTable
 71
0
  0
DIMSTYLE
105
236
100
AcDbSymbolTableRecord
100
AcDbDimStyleTableRecord
  2
STANDARD
 70
0
  3

  4

 40
1.0
 41
3.5
 42
0.0
 43
0.38
 44
1.0
 45
0.0
 46
0.0
 47
0.001
 48
0.001
140
2.5
141
0.09
142
0.0
143
25.4
144
1.0
145
0.0
146
1.0
147
0.625
 71
1.0
 72
0.0
 73
0
 74
0
 75
0
 76
0
 77
1
 78
8
170
0
171
2
172
0
173
0
174
0
175
0
176
0
177
0
178
5
270
2
271
3
272
3
273
2
274
2
275
0
280
0
281
0
282
0
283
1
284
8
285
0
286
0
287
3
288
0
340
11
278
46
341
21C
342
21C
343
21C
344
21C
  0
DIMSTYLE
105
237
100
AcDbSymbolTableRecord
100
AcDbDimStyleTableRecord
  2
DIMSTYLE_1
 70
0
  3

  4

 40
1.0
 41
3.5
 42
0.0
 43
0.38
 44
1.0
 45
0.0
 46
0.0
 47
0.1
 48
0.1
140
2.5
141
0.09
142
0.0
143
25.4
144
1.0
145
0.0
146
1.0
147
0.625
 71
0.0
 72
0.0
 73
0
 74
0
 75
0
 76
0
 77
1
 78
8
170
0
171
2
172
0
173
0
174
0
175
0
176
0
177
0
178
5
270
2
271
3
272
3
273
2
274
2
275
0
280
0
281
0
282
0
283
1
284
8
285
0
286
0
287
3
288
0
340
11
278
46
341
21C
342
21C
343
21C
344
21C
  0
DIMSTYLE
105
238
100
AcDbSymbolTableRecord
100
AcDbDimStyleTableRecord
  2
DIMSTYLE_2
 70
0
  3

  4

 40
1.0
 41
3.5
 42
0.0
 43
0.38
 44
1.0
 45
0.0
 46
0.0
 47
0.2
 48
0.2
140
2.5
141
0.09
142
0.0
143
25.4
144
1.0
145
0.0
146
1.0
147
0.625
 71
0.0
 72
0.0
 73
0
 74
0
 75
0
 76
0
 77
1
 78
8
170
0
171
2
172
0
173
0
174
0
175
0
176
0
177
0
178
5
270
2
271
3
272
3
273
2
274
2
275
0
280
0
281
0
282
0
283
1
284
8
285
0
286
0
287
3
288
0
340
11
278
46
341
21C
342
21C
343
21C
344
21C
  0
DIMSTYLE
105
239
100
AcDbSymbolTableRecord
100
AcDbDimStyleTableRecord
  2
DIMSTYLE_3
 70
0
  3

  4

 40
1.0
 41
3.5
 42
0.0
 43
0.38
 44
1.0
 45
0.0
 46
0.0
 47
0.5
 48
0.5
140
2.5
141
0.09
142
0.0
143
25.4
144
1.0
145
0.0
146
1.0
147
0.625
 71
0.0
 72
0.0
 73
0
 74
0
 75
0
 76
0
 77
1
 78
8
170
0
171
2
172
0
173
0
174
0
175
0
176
0
177
0
178
5
270
2
271
3
272
3
273
2
274
2
275
0
280
0
281
0
282
0
283
1
284
8
285
0
286
0
287
3
288
0
340
11
278
46
341
21C
342
21C
343
21C
344
21C
  0
DIMSTYLE
105
23A
100
AcDbSymbolTableRecord
100
AcDbDimStyleTableRecord
  2
DIMSTYLE_4
 70
0
  3

  4

 40
1.0
 41
3.5
 42
0.0
 43
0.38
 44
1.0
 45
0.0
 46
0.0
 47
0.3
 48
0.3
140
2.5
141
0.09
142
0.0
143
25.4
144
1.0
145
0.0
146
1.0
147
0.625
 71
0.0
 72
0.0
 73
0
 74
0
 75
0
 76
0
 77
1
 78
8
170
0
171
2
172
0
173
0
174
0
175
0
176
0
177
0
178
5
270
2
271
3
272
3
273
2
274
2
275
0
280
0
281
0
282
0
283
1
284
8
285
0
286
0
287
3
288
0
340
11
278
46
341
21C
342
21C
343
21C
344
21C
  0
DIMSTYLE
105
23B
100
AcDbSymbolTableRecord
100
AcDbDimStyleTableRecord
  2
DIMSTYLE_5
 70
0
  3

  4

 40
1.0
 41
3.5
 42
0.0
 43
0.38
 44
1.0
 45
0.0
 46
0.0
 47
0.3
 48
0.3
140
2.5
141
0.09
142
0.0
143
25.4
144
1.0
145
0.0
146
1.0
147
0.625
 71
0.0
 72
0.0
 73
0
 74
0
 75
0
 76
0
 77
1
 78
8
170
0
171
2
172
0
173
0
174
0
175
0
176
0
177
0
178
5
270
2
271
0
272
0
273
2
274
2
275
0
280
0
281
0
282
0
283
1
284
8
285
0
286
0
287
3
288
0
340
11
278
46
341
21C
342
21C
343
21C
344
21C
  0
DIMSTYLE
105
23C
100
AcDbSymbolTableRecord
100
AcDbDimStyleTableRecord
  2
DIMSTYLE_6
 70
0
  3

  4

 40
1.0
 41
3.5
 42
0.0
 43
0.38
 44
1.0
 45
0.0
 46
0.0
 47
0.3
 48
0.3
140
2.5
141
0.09
142
0.0
143
25.4
144
1.0
145
0.0
146
1.0
147
0.625
 71
0.0
 72
0.0
 73
0
 74
0
 75
0
 76
0
 77
1
 78
8
170
0
171
2
172
0
173
0
174
0
175
0
176
0
177
0
178
5
270
2
271
1
272
1
273
2
274
2
275
0
280
0
281
0
282
0
283
1
284
8
285
0
286
0
287
3
288
0
340
11
278
46
341
21C
342
21C
343
21C
344
21C
  0
DIMSTYLE
105
23D
100
AcDbSymbolTableRecord
100
AcDbDimStyleTableRecord
  2
DIMSTYLE_7
 70
0
  3

  4

 40
1.0
 41
3.5
 42
0.0
 43
0.38
 44
1.0
 45
0.0
 46
0.0
 47
0.5
 48
0.5
140
2.5
141
0.09
142
0.0
143
25.4
144
1.0
145
0.0
146
1.0
147
0.625
 71
0.0
 72
0.0
 73
0
 74
0
 75
0
 76
0
 77
1
 78
8
170
0
171
2
172
0
173
0
174
0
175
0
176
0
177
0
178
5
270
2
271
0
272
0
273
2
274
2
275
0
280
0
281
0
282
0
283
1
284
8
285
0
286
0
287
3
288
0
340
11
278
46
341
21C
342
21C
343
21C
344
21C
  0
DIMSTYLE
105
23E
100
AcDbSymbolTableRecord
100
AcDbDimStyleTableRecord
  2
DIMSTYLE_8
 70
0
  3

  4

 40
1.0
 41
3.5
 42
0.0
 43
0.38
 44
1.0
 45
0.0
 46
0.0
 47
0.2
 48
0.2
140
2.5
141
0.09
142
0.0
143
25.4
144
1.0
145
0.0
146
1.0
147
0.625
 71
0.0
 72
0.0
 73
0
 74
0
 75
0
 76
0
 77
1
 78
8
170
0
171
2
172
0
173
0
174
0
175
0
176
0
177
0
178
5
270
2
271
1
272
1
273
2
274
2
275
0
280
0
281
0
282
0
283
1
284
8
285
0
286
0
287
3
288
0
340
11
278
46
341
21C
342
21C
343
21C
344
21C
  0
ENDTAB
  0
ENDSEC
  0
SECTION
  2
BLOCKS
  0
BLOCK
  5
20
100
AcDbEntity
  8
0
100
AcDbBlockBegin
  2
*Model_Space
 70
0
 10
0.0
 20
0.0
 30
0.0
  3
*Model_Space
  1

  0
ENDBLK
  5
21
100
AcDbEntity
  8
0
100
AcDbBlockEnd
  0
BLOCK
  5
1C
100
AcDbEntity
  8
0
100
AcDbBlockBegin
  2
*Paper_Space
 70
0
 10
0.0
 20
0.0
 30
0.0
  3
*Paper_Space
  1

  0
ENDBLK
  5
1D
100
AcDbEntity
  8
0
100
AcDbBlockEnd
  0
BLOCK
  5
23F
100
AcDbEntity
  8
0
100
AcDbBlockBegin
 62
2
  6
CONTINUOUS
  2
SYMBOL_5_BL11
 70
64
 10
14.6760682863
 20
285.9565270313
  3
SYMBOL_5_BL11
  1

  0
TEXT
  5
240
100
AcDbEntity
  8
0
100
AcDbText
 62
5
  6
CONTINUOUS
 10
6.0250051001
 20
279.9582916417
  7
STANDARD
 40
1.5763325545
  1
GRETSCH-UNITAS
 72
5
 11
23.3271314725
 21
279.9582916417
100
AcDbText
  0
SPLINE
  5
241
100
AcDbEntity
  8
0
100
AcDbSpline
 62
2
  6
CONTINUOUS
 70
0
 71
3
 72
22
 73
18
 74
0
 42
0.0000001
 43
0.0000001
 44
0.0000000001
 40
0.0
 40
0.0
 40
0.0
 40
0.0
 40
0.012997001
 40
0.0685257445
 40
0.124054488
 40
0.235111975
 40
0.3461694621
 40
0.5682844361
 40
0.6793419231
 40
0.7903994101
 40
0.8459281536
 40
0.9014568971
 40
0.9292212689
 40
0.9569856406
 40
0.9847500124
 40
0.9887308104
 40
1.0
 40
1.0
 40
1.0
 40
1.0
 10
15.4801156353
 20
286.7085698414
 30
0.0
 10
15.4810241934
 20
286.7160556825
 30
0.0
 10
15.4857439912
 20
286.7555135418
 30
0.0
 10
15.4936523307
 20
286.8269871937
 30
0.0
 10
15.505912165
 20
286.9548379269
 30
0.0
 10
15.517682724
 20
287.1145416616
 30
0.0
 10
15.528837276
 20
287.3686580301
 30
0.0
 10
15.5285310708
 20
287.6264882096
 30
0.0
 10
15.5167815446
 20
287.8851209532
 30
0.0
 10
15.5046937915
 20
288.0471327101
 30
0.0
 10
15.4921853722
 20
288.1767706018
 30
0.0
 10
15.4831828527
 20
288.2578106668
 30
0.0
 10
15.4752803543
 20
288.3225694289
 30
0.0
 10
15.4689789575
 20
288.3712649965
 30
0.0
 10
15.4642806989
 20
288.4056567057
 30
0.0
 10
15.4606931447
 20
288.4311042458
 30
0.0
 10
15.4594161574
 20
288.4400384015
 30
0.0
 10
15.4585123173
 20
288.4463017026
 30
0.0
  0
LINE
  5
242
100
AcDbEntity
  8
0
100
AcDbLine
 62
2
  6
CONTINUOUS
 10
16.6257546957
 20
291.7417996716
 11
18.7756543471
 21
291.7417996716
  0
LINE
  5
243
100
AcDbEntity
  8
0
100
AcDbLine
 62
2
  6
CONTINUOUS
 10
18.7756543471
 20
291.7417996716
 11
18.7675001076
 21
286.1887625424
  0
LINE
  5
244
100
AcDbEntity
  8
0
100
AcDbLine
 62
2
  6
CONTINUOUS
 10
20.7328380589
 20
291.7408943502
 11
20.7246809285
 21
286.1858885617
  0
LINE
  5
245
100
AcDbEntity
  8
0
100
AcDbLine
 62
2
  6
CONTINUOUS
 10
20.7328380589
 20
291.7408943502
 11
22.8560234527
 21
291.7377766037
  0
LINE
  5
246
100
AcDbEntity
  8
0
100
AcDbLine
 62
2
  6
CONTINUOUS
 10
16.6257546957
 20
291.7417996716
 11
16.6257546957
 21
288.4463017026
  0
LINE
  5
247
100
AcDbEntity
  8
0
100
AcDbLine
 62
2
  6
CONTINUOUS
 10
22.8464682804
 20
286.2121871597
 11
22.8560234527
 21
291.7377766037
  0
LINE
  5
248
100
AcDbEntity
  8
0
100
AcDbLine
 62
2
  6
CONTINUOUS
 10
16.5962635235
 20
286.7097707
 11
16.5962635235
 21
286.206571522
  0
ARC
  5
249
100
AcDbEntity
  8
0
100
AcDbCircle
 62
2
  6
CONTINUOUS
 10
19.7460905181
 20
286.187325552
 40
0.9785914655
100
AcDbArc
 50
179.9158652888
 51
359.9158652888
  0
ARC
  5
24A
100
AcDbEntity
  8
0
100
AcDbCircle
 62
2
  6
CONTINUOUS
 10
19.7213585238
 20
286.2175912822
 40
3.1251144292
100
AcDbArc
 50
180.2020364601
 51
359.9009208878
  0
LINE
  5
24B
100
AcDbEntity
  8
0
100
AcDbLine
 62
2
  6
CONTINUOUS
 10
10.6219179927
 20
288.4396050427
 11
14.7006991753
 21
288.4396050427
  0
LINE
  5
24C
100
AcDbEntity
  8
0
100
AcDbLine
 62
2
  6
CONTINUOUS
 10
12.2217882659
 20
288.8789329709
 11
13.9483889974
 21
290.1646806597
  0
ARC
  5
24D
100
AcDbEntity
  8
0
100
AcDbCircle
 62
2
  6
CONTINUOUS
 10
10.4114667665
 20
287.5821675482
 40
4.3761240935
100
AcDbArc
 50
36.126840858
 51
11.344332349
  0
ARC
  5
24E
100
AcDbEntity
  8
0
100
AcDbCircle
 62
2
  6
CONTINUOUS
 10
10.3470540354
 20
287.5511016176
 40
2.3065617406
100
AcDbArc
 50
34.9390168225
 51
338.4896426737
  0
ARC
  5
24F
100
AcDbEntity
  8
0
100
AcDbCircle
 62
2
  6
CONTINUOUS
 10
10.6219179927
 20
287.5714742336
 40
0.8681308092
100
AcDbArc
 50
90.0
 51
270.0681567641
  0
LINE
  5
250
100
AcDbEntity
  8
0
100
AcDbLine
 62
2
  6
CONTINUOUS
 10
15.4585123173
 20
288.4463017026
 11
16.6257546957
 21
288.4463017026
  0
LINE
  5
251
100
AcDbEntity
  8
0
100
AcDbLine
 62
2
  6
CONTINUOUS
 10
10.6229506861
 20
286.7033440387
 11
12.4929667506
 21
286.7053559808
  0
LINE
  5
252
100
AcDbEntity
  8
0
100
AcDbLine
 62
2
  6
CONTINUOUS
 10
15.4801156353
 20
286.7085698414
 11
16.5962635235
 21
286.7097707
  0
LWPOLYLINE
  5
253
100
AcDbEntity
  8
0
100
AcDbPolyline
 62
2
  6
CONTINUOUS
 90
23
 70
0
 10
10.5871829024
 20
291.954762421
 10
11.2387137148
 20
291.8793904384
 10
11.8716622299
 20
291.7074907222
 10
12.4718106408
 20
291.4429246243
 10
13.0256779232
 20
291.0916350448
 10
13.5208226575
 20
290.6615129372
 10
13.9461224977
 20
290.162220056
 10
12.2217882659
 20
288.8789329709
 10
12.0237458929
 20
289.1350623109
 10
11.7733581523
 20
289.3638022628
 10
11.4921356799
 20
289.5533541218
 10
11.1861581185
 20
289.6996200375
 10
10.8620402817
 20
289.7994379423
 10
10.5267891511
 20
289.8506499105
 10
10.1876523947
 20
289.8521488096
 10
6.7057365377
 20
289.9098328062
 10
7.0952373539
 20
290.4375282198
 10
7.5592300262
 20
290.9010841876
 10
8.0872919719
 20
291.2900879365
 10
8.667561432
 20
291.5958013464
 10
9.2870039194
 20
291.8113572327
 10
9.9317050105
 20
291.9319136028
 10
10.5871829024
 20
291.954762421
  0
HATCH
  5
254
100
AcDbEntity
  8
0
100
AcDbHatch
 62
2
  6
CONTINUOUS
 10
0.0
 20
0.0
 30
0.0
210
0.0
220
0.0
230
1.0
  2
SOLID
 70
1
 71
1
 91
1
 92
1
 93
22
 72
1
 10
10.5871829024
 20
291.954762421
 11
11.2387137148
 21
291.8793904384
 72
1
 10
11.2387137148
 20
291.8793904384
 11
11.8716622299
 21
291.7074907222
 72
1
 10
11.8716622299
 20
291.7074907222
 11
12.4718106408
 21
291.4429246243
 72
1
 10
12.4718106408
 20
291.4429246243
 11
13.0256779232
 21
291.0916350448
 72
1
 10
13.0256779232
 20
291.0916350448
 11
13.5208226575
 21
290.6615129372
 72
1
 10
13.5208226575
 20
290.6615129372
 11
13.9461224977
 21
290.162220056
 72
1
 10
13.9461224977
 20
290.162220056
 11
12.2217882659
 21
288.8789329709
 72
1
 10
12.2217882659
 20
288.8789329709
 11
12.0237458929
 21
289.1350623109
 72
1
 10
12.0237458929
 20
289.1350623109
 11
11.7733581523
 21
289.3638022628
 72
1
 10
11.7733581523
 20
289.3638022628
 11
11.4921356799
 21
289.5533541218
 72
1
 10
11.4921356799
 20
289.5533541218
 11
11.1861581185
 21
289.6996200375
 72
1
 10
11.1861581185
 20
289.6996200375
 11
10.8620402817
 21
289.7994379423
 72
1
 10
10.8620402817
 20
289.7994379423
 11
10.5267891511
 21
289.8506499105
 72
1
 10
10.5267891511
 20
289.8506499105
 11
10.1876523947
 21
289.8521488096
 72
1
 10
10.1876523947
 20
289.8521488096
 11
6.7057365377
 21
289.9098328062
 72
1
 10
6.7057365377
 20
289.9098328062
 11
7.0952373539
 21
290.4375282198
 72
1
 10
7.0952373539
 20
290.4375282198
 11
7.5592300262
 21
290.9010841876
 72
1
 10
7.5592300262
 20
290.9010841876
 11
8.0872919719
 21
291.2900879365
 72
1
 10
8.0872919719
 20
291.2900879365
 11
8.667561432
 21
291.5958013464
 72
1
 10
8.667561432
 20
291.5958013464
 11
9.2870039194
 21
291.8113572327
 72
1
 10
9.2870039194
 20
291.8113572327
 11
9.9317050105
 21
291.9319136028
 72
1
 10
9.9317050105
 20
291.9319136028
 11
10.5871829024
 21
291.954762421
 97
1
330
253
 75
0
 76
1
 98
1
 10
0.0
 20
0.0
  0
LWPOLYLINE
  5
255
100
AcDbEntity
  8
0
100
AcDbPolyline
 62
2
  6
CONTINUOUS
 90
10
 70
0
 10
8.9368286897
 20
289.3763390097
 10
8.6844288245
 20
289.1498212526
 10
6.1833377863
 20
288.7106122342
 10
6.3994768635
 20
289.3298514727
 10
6.7057365377
 20
289.9098328062
 10
10.1876523947
 20
289.8521488096
 10
9.8519616824
 20
289.8039022357
 10
9.5269741853
 20
289.7069532133
 10
9.2197156858
 20
289.5633976467
 10
8.9368286897
 20
289.3763390097
  0
HATCH
  5
256
100
AcDbEntity
  8
0
100
AcDbHatch
 62
2
  6
CONTINUOUS
 10
0.0
 20
0.0
 30
0.0
210
0.0
220
0.0
230
1.0
  2
SOLID
 70
1
 71
1
 91
1
 92
1
 93
9
 72
1
 10
8.9368286897
 20
289.3763390097
 11
8.6844288245
 21
289.1498212526
 72
1
 10
8.6844288245
 20
289.1498212526
 11
6.1833377863
 21
288.7106122342
 72
1
 10
6.1833377863
 20
288.7106122342
 11
6.3994768635
 21
289.3298514727
 72
1
 10
6.3994768635
 20
289.3298514727
 11
6.7057365377
 21
289.9098328062
 72
1
 10
6.7057365377
 20
289.9098328062
 11
10.1876523947
 21
289.8521488096
 72
1
 10
10.1876523947
 20
289.8521488096
 11
9.8519616824
 21
289.8039022357
 72
1
 10
9.8519616824
 20
289.8039022357
 11
9.5269741853
 21
289.7069532133
 72
1
 10
9.5269741853
 20
289.7069532133
 11
9.2197156858
 21
289.5633976467
 72
1
 10
9.2197156858
 20
289.5633976467
 11
8.9368286897
 21
289.3763390097
 97
1
330
255
 75
0
 76
1
 98
1
 10
0.0
 20
0.0
  0
LWPOLYLINE
  5
257
100
AcDbEntity
  8
0
100
AcDbPolyline
 62
2
  6
CONTINUOUS
 90
6
 70
0
 10
8.4679726279
 20
288.8887413775
 10
8.2921395849
 20
288.5987435719
 10
6.062174399
 20
288.0660249485
 10
6.1833377863
 20
288.7106122342
 10
8.6844288245
 20
289.1498212526
 10
8.4679726279
 20
288.8887413775
  0
HATCH
  5
258
100
AcDbEntity
  8
0
100
AcDbHatch
 62
2
  6
CONTINUOUS
 10
0.0
 20
0.0
 30
0.0
210
0.0
220
0.0
230
1.0
  2
SOLID
 70
1
 71
1
 91
1
 92
1
 93
5
 72
1
 10
8.4679726279
 20
288.8887413775
 11
8.2921395849
 21
288.5987435719
 72
1
 10
8.2921395849
 20
288.5987435719
 11
6.062174399
 21
288.0660249485
 72
1
 10
6.062174399
 20
288.0660249485
 11
6.1833377863
 21
288.7106122342
 72
1
 10
6.1833377863
 20
288.7106122342
 11
8.6844288245
 21
289.1498212526
 72
1
 10
8.6844288245
 20
289.1498212526
 11
8.4679726279
 21
288.8887413775
 97
1
330
257
 75
0
 76
1
 98
1
 10
0.0
 20
0.0
  0
LWPOLYLINE
  5
259
100
AcDbEntity
  8
0
100
AcDbPolyline
 62
2
  6
CONTINUOUS
 90
50
 70
0
 10
10.5085615232
 20
288.4321724459
 10
10.6219179927
 20
288.4396084532
 10
14.7006991753
 20
288.4396084532
 10
14.7825548759
 20
287.7920504222
 10
14.7648293565
 20
287.1364139823
 10
14.6493150475
 20
286.4907904235
 10
14.438606726
 20
285.8696822699
 10
14.1374374943
 20
285.2870413606
 10
13.7525724621
 20
284.7559554521
 10
13.2926567823
 20
284.2883542302
 10
12.768021457
 20
283.8947413358
 10
12.1904512736
 20
283.5839584235
 10
11.5729200859
 20
283.3629865532
 10
8.987451348
 20
283.4442161022
 10
8.3850092311
 20
283.7035167597
 10
7.82808706
 20
284.0499428422
 10
7.3291948758
 20
284.4757126437
 10
6.8995392027
 20
284.9712621748
 10
10.3886755226
 20
285.2449154336
 10
10.7263929127
 20
285.2759468801
 10
11.0559095183
 20
285.3561640404
 10
11.3701016442
 20
285.48383273
 10
11.6621768888
 20
285.6561929275
 10
11.9258209876
 20
285.8695184427
 10
12.1553343179
 20
286.1191974716
 10
12.3457551174
 20
286.3998322972
 10
12.4929667506
 20
286.7053559808
 10
10.5095854553
 20
286.710641786
 10
10.398143719
 20
286.7326797556
 10
10.2905337187
 20
286.7690805866
 10
10.1885980837
 20
286.8192209795
 10
10.0940822803
 20
286.8822423694
 10
10.0086047233
 20
286.9570656274
 10
9.9336290636
 20
287.0424095382
 10
9.8704391257
 20
287.1368127396
 10
9.8201169249
 20
287.2386587449
 10
9.7835241392
 20
287.3462036225
 10
9.7612873548
 20
287.4576058581
 10
9.7537873371
 20
287.5709578868
 10
9.7611525105
 20
287.684318757
 10
9.7832567595
 20
287.7957473658
 10
9.8197215883
 20
287.9033356966
 10
9.8699226017
 20
288.0052414911
 10
9.9330001965
 20
288.0997197939
 10
10.0078742816
 20
288.1851528324
 10
10.0932627714
 20
288.260077718
 10
10.1877035402
 20
288.3232114955
 10
10.289579458
 20
288.3734731115
 10
10.3971460813
 20
288.4100019252
 10
10.5085615232
 20
288.4321724459
  0
HATCH
  5
25A
100
AcDbEntity
  8
0
100
AcDbHatch
 62
2
  6
CONTINUOUS
 10
0.0
 20
0.0
 30
0.0
210
0.0
220
0.0
230
1.0
  2
SOLID
 70
1
 71
1
 91
1
 92
1
 93
49
 72
1
 10
10.5085615232
 20
288.4321724459
 11
10.6219179927
 21
288.4396084532
 72
1
 10
10.6219179927
 20
288.4396084532
 11
14.7006991753
 21
288.4396084532
 72
1
 10
14.7006991753
 20
288.4396084532
 11
14.7825548759
 21
287.7920504222
 72
1
 10
14.7825548759
 20
287.7920504222
 11
14.7648293565
 21
287.1364139823
 72
1
 10
14.7648293565
 20
287.1364139823
 11
14.6493150475
 21
286.4907904235
 72
1
 10
14.6493150475
 20
286.4907904235
 11
14.438606726
 21
285.8696822699
 72
1
 10
14.438606726
 20
285.8696822699
 11
14.1374374943
 21
285.2870413606
 72
1
 10
14.1374374943
 20
285.2870413606
 11
13.7525724621
 21
284.7559554521
 72
1
 10
13.7525724621
 20
284.7559554521
 11
13.2926567823
 21
284.2883542302
 72
1
 10
13.2926567823
 20
284.2883542302
 11
12.768021457
 21
283.8947413358
 72
1
 10
12.768021457
 20
283.8947413358
 11
12.1904512736
 21
283.5839584235
 72
1
 10
12.1904512736
 20
283.5839584235
 11
11.5729200859
 21
283.3629865532
 72
1
 10
11.5729200859
 20
283.3629865532
 11
8.987451348
 21
283.4442161022
 72
1
 10
8.987451348
 20
283.4442161022
 11
8.3850092311
 21
283.7035167597
 72
1
 10
8.3850092311
 20
283.7035167597
 11
7.82808706
 21
284.0499428422
 72
1
 10
7.82808706
 20
284.0499428422
 11
7.3291948758
 21
284.4757126437
 72
1
 10
7.3291948758
 20
284.4757126437
 11
6.8995392027
 21
284.9712621748
 72
1
 10
6.8995392027
 20
284.9712621748
 11
10.3886755226
 21
285.2449154336
 72
1
 10
10.3886755226
 20
285.2449154336
 11
10.7263929127
 21
285.2759468801
 72
1
 10
10.7263929127
 20
285.2759468801
 11
11.0559095183
 21
285.3561640404
 72
1
 10
11.0559095183
 20
285.3561640404
 11
11.3701016442
 21
285.48383273
 72
1
 10
11.3701016442
 20
285.48383273
 11
11.6621768888
 21
285.6561929275
 72
1
 10
11.6621768888
 20
285.6561929275
 11
11.9258209876
 21
285.8695184427
 72
1
 10
11.9258209876
 20
285.8695184427
 11
12.1553343179
 21
286.1191974716
 72
1
 10
12.1553343179
 20
286.1191974716
 11
12.3457551174
 21
286.3998322972
 72
1
 10
12.3457551174
 20
286.3998322972
 11
12.4929667506
 21
286.7053559808
 72
1
 10
12.4929667506
 20
286.7053559808
 11
10.5095854553
 21
286.710641786
 72
1
 10
10.5095854553
 20
286.710641786
 11
10.398143719
 21
286.7326797556
 72
1
 10
10.398143719
 20
286.7326797556
 11
10.2905337187
 21
286.7690805866
 72
1
 10
10.2905337187
 20
286.7690805866
 11
10.1885980837
 21
286.8192209795
 72
1
 10
10.1885980837
 20
286.8192209795
 11
10.0940822803
 21
286.8822423694
 72
1
 10
10.0940822803
 20
286.8822423694
 11
10.0086047233
 21
286.9570656274
 72
1
 10
10.0086047233
 20
286.9570656274
 11
9.9336290636
 21
287.0424095382
 72
1
 10
9.9336290636
 20
287.0424095382
 11
9.8704391257
 21
287.1368127396
 72
1
 10
9.8704391257
 20
287.1368127396
 11
9.8201169249
 21
287.2386587449
 72
1
 10
9.8201169249
 20
287.2386587449
 11
9.7835241392
 21
287.3462036225
 72
1
 10
9.7835241392
 20
287.3462036225
 11
9.7612873548
 21
287.4576058581
 72
1
 10
9.7612873548
 20
287.4576058581
 11
9.7537873371
 21
287.5709578868
 72
1
 10
9.7537873371
 20
287.5709578868
 11
9.7611525105
 21
287.684318757
 72
1
 10
9.7611525105
 20
287.684318757
 11
9.7832567595
 21
287.7957473658
 72
1
 10
9.7832567595
 20
287.7957473658
 11
9.8197215883
 21
287.9033356966
 72
1
 10
9.8197215883
 20
287.9033356966
 11
9.8699226017
 21
288.0052414911
 72
1
 10
9.8699226017
 20
288.0052414911
 11
9.9330001965
 21
288.0997197939
 72
1
 10
9.9330001965
 20
288.0997197939
 11
10.0078742816
 21
288.1851528324
 72
1
 10
10.0078742816
 20
288.1851528324
 11
10.0932627714
 21
288.260077718
 72
1
 10
10.0932627714
 20
288.260077718
 11
10.1877035402
 21
288.3232114955
 72
1
 10
10.1877035402
 20
288.3232114955
 11
10.289579458
 21
288.3734731115
 72
1
 10
10.289579458
 20
288.3734731115
 11
10.3971460813
 21
288.4100019252
 72
1
 10
10.3971460813
 20
288.4100019252
 11
10.5085615232
 21
288.4321724459
 97
1
330
259
 75
0
 76
1
 98
1
 10
0.0
 20
0.0
  0
LWPOLYLINE
  5
25B
100
AcDbEntity
  8
0
100
AcDbPolyline
 62
2
  6
CONTINUOUS
 90
6
 70
0
 10
8.1607309639
 20
288.2860971893
 10
8.0765876384
 20
287.9575612141
 10
6.0387083724
 20
287.4105688624
 10
6.062174399
 20
288.0660249485
 10
8.2921395849
 20
288.5987435719
 10
8.1607309639
 20
288.2860971893
  0
HATCH
  5
25C
100
AcDbEntity
  8
0
100
AcDbHatch
 62
2
  6
CONTINUOUS
 10
0.0
 20
0.0
 30
0.0
210
0.0
220
0.0
230
1.0
  2
SOLID
 70
1
 71
1
 91
1
 92
1
 93
5
 72
1
 10
8.1607309639
 20
288.2860971893
 11
8.0765876384
 21
287.9575612141
 72
1
 10
8.0765876384
 20
287.9575612141
 11
6.0387083724
 21
287.4105688624
 72
1
 10
6.0387083724
 20
287.4105688624
 11
6.062174399
 21
288.0660249485
 72
1
 10
6.062174399
 20
288.0660249485
 11
8.2921395849
 21
288.5987435719
 72
1
 10
8.2921395849
 20
288.5987435719
 11
8.1607309639
 21
288.2860971893
 97
1
330
25B
 75
0
 76
1
 98
1
 10
0.0
 20
0.0
  0
LWPOLYLINE
  5
25D
100
AcDbEntity
  8
0
100
AcDbPolyline
 62
2
  6
CONTINUOUS
 90
6
 70
0
 10
8.0415286713
 20
287.6202381419
 10
8.0563119892
 20
287.2814204332
 10
6.1134668197
 20
286.7589673662
 10
6.0387083724
 20
287.4105688624
 10
8.0765876384
 20
287.9575612141
 10
8.0415286713
 20
287.6202381419
  0
HATCH
  5
25E
100
AcDbEntity
  8
0
100
AcDbHatch
 62
2
  6
CONTINUOUS
 10
0.0
 20
0.0
 30
0.0
210
0.0
220
0.0
230
1.0
  2
SOLID
 70
1
 71
1
 91
1
 92
1
 93
5
 72
1
 10
8.0415286713
 20
287.6202381419
 11
8.0563119892
 21
287.2814204332
 72
1
 10
8.0563119892
 20
287.2814204332
 11
6.1134668197
 21
286.7589673662
 72
1
 10
6.1134668197
 20
286.7589673662
 11
6.0387083724
 21
287.4105688624
 72
1
 10
6.0387083724
 20
287.4105688624
 11
8.0765876384
 21
287.9575612141
 72
1
 10
8.0765876384
 20
287.9575612141
 11
8.0415286713
 21
287.6202381419
 97
1
330
25D
 75
0
 76
1
 98
1
 10
0.0
 20
0.0
  0
LWPOLYLINE
  5
25F
100
AcDbEntity
  8
0
100
AcDbPolyline
 62
2
  6
CONTINUOUS
 90
6
 70
0
 10
8.1206179971
 20
286.9484328604
 10
8.2330564876
 20
286.6284741567
 10
6.2847704556
 20
286.1258572655
 10
6.1134668197
 20
286.7589673662
 10
8.0563119892
 20
287.2814204332
 10
8.1206179971
 20
286.9484328604
  0
HATCH
  5
260
100
AcDbEntity
  8
0
100
AcDbHatch
 62
2
  6
CONTINUOUS
 10
0.0
 20
0.0
 30
0.0
210
0.0
220
0.0
230
1.0
  2
SOLID
 70
1
 71
1
 91
1
 92
1
 93
5
 72
1
 10
8.1206179971
 20
286.9484328604
 11
8.2330564876
 21
286.6284741567
 72
1
 10
8.2330564876
 20
286.6284741567
 11
6.2847704556
 21
286.1258572655
 72
1
 10
6.2847704556
 20
286.1258572655
 11
6.1134668197
 21
286.7589673662
 72
1
 10
6.1134668197
 20
286.7589673662
 11
8.0563119892
 21
287.2814204332
 72
1
 10
8.0563119892
 20
287.2814204332
 11
8.1206179971
 21
286.9484328604
 97
1
330
25F
 75
0
 76
1
 98
1
 10
0.0
 20
0.0
  0
SOLID
  5
261
100
AcDbEntity
  8
0
100
AcDbTrace
 62
2
  6
CONTINUOUS
 10
10.6229506861
 20
286.7033440387
 11
10.5095854553
 21
286.710641786
 12
12.4929667506
 22
286.7053559808
 13
12.4929667506
 23
286.7053559808
  0
LWPOLYLINE
  5
262
100
AcDbEntity
  8
0
100
AcDbPolyline
 62
2
  6
CONTINUOUS
 90
6
 70
0
 10
8.3911966954
 20
286.3284613888
 10
8.5916198468
 20
286.0548804198
 10
6.5487713176
 20
285.5254599969
 10
6.2847704556
 20
286.1258572655
 10
8.2330564876
 20
286.6284741567
 10
8.3911966954
 20
286.3284613888
  0
HATCH
  5
263
100
AcDbEntity
  8
0
100
AcDbHatch
 62
2
  6
CONTINUOUS
 10
0.0
 20
0.0
 30
0.0
210
0.0
220
0.0
230
1.0
  2
SOLID
 70
1
 71
1
 91
1
 92
1
 93
5
 72
1
 10
8.3911966954
 20
286.3284613888
 11
8.5916198468
 21
286.0548804198
 72
1
 10
8.5916198468
 20
286.0548804198
 11
6.5487713176
 21
285.5254599969
 72
1
 10
6.5487713176
 20
285.5254599969
 11
6.2847704556
 21
286.1258572655
 72
1
 10
6.2847704556
 20
286.1258572655
 11
8.2330564876
 21
286.6284741567
 72
1
 10
8.2330564876
 20
286.6284741567
 11
8.3911966954
 21
286.3284613888
 97
1
330
262
 75
0
 76
1
 98
1
 10
0.0
 20
0.0
  0
LWPOLYLINE
  5
264
100
AcDbEntity
  8
0
100
AcDbPolyline
 62
2
  6
CONTINUOUS
 90
7
 70
0
 10
9.1011630614
 20
285.609972373
 10
9.3992675016
 20
285.4482635949
 10
6.8995392027
 20
284.9712621748
 10
6.5487713176
 20
285.5254599969
 10
8.5916198468
 20
286.0548804198
 10
8.8299930691
 20
285.8136456936
 10
9.1011630614
 20
285.609972373
  0
HATCH
  5
265
100
AcDbEntity
  8
0
100
AcDbHatch
 62
2
  6
CONTINUOUS
 10
0.0
 20
0.0
 30
0.0
210
0.0
220
0.0
230
1.0
  2
SOLID
 70
1
 71
1
 91
1
 92
1
 93
6
 72
1
 10
9.1011630614
 20
285.609972373
 11
9.3992675016
 21
285.4482635949
 72
1
 10
9.3992675016
 20
285.4482635949
 11
6.8995392027
 21
284.9712621748
 72
1
 10
6.8995392027
 20
284.9712621748
 11
6.5487713176
 21
285.5254599969
 72
1
 10
6.5487713176
 20
285.5254599969
 11
8.5916198468
 21
286.0548804198
 72
1
 10
8.5916198468
 20
286.0548804198
 11
8.8299930691
 21
285.8136456936
 72
1
 10
8.8299930691
 20
285.8136456936
 11
9.1011630614
 21
285.609972373
 97
1
330
264
 75
0
 76
1
 98
1
 10
0.0
 20
0.0
  0
LWPOLYLINE
  5
266
100
AcDbEntity
  8
0
100
AcDbPolyline
 62
2
  6
CONTINUOUS
 90
6
 70
0
 10
10.3886755226
 20
285.2449154336
 10
6.8995392027
 20
284.9712621748
 10
9.3992675016
 20
285.4482635949
 10
9.7178617822
 20
285.3320152804
 10
10.0500583332
 20
285.2637405581
 10
10.3886755226
 20
285.2449154336
  0
HATCH
  5
267
100
AcDbEntity
  8
0
100
AcDbHatch
 62
2
  6
CONTINUOUS
 10
0.0
 20
0.0
 30
0.0
210
0.0
220
0.0
230
1.0
  2
SOLID
 70
1
 71
1
 91
1
 92
1
 93
5
 72
1
 10
10.3886755226
 20
285.2449154336
 11
6.8995392027
 21
284.9712621748
 72
1
 10
6.8995392027
 20
284.9712621748
 11
9.3992675016
 21
285.4482635949
 72
1
 10
9.3992675016
 20
285.4482635949
 11
9.7178617822
 21
285.3320152804
 72
1
 10
9.7178617822
 20
285.3320152804
 11
10.0500583332
 21
285.2637405581
 72
1
 10
10.0500583332
 20
285.2637405581
 11
10.3886755226
 21
285.2449154336
 97
1
330
266
 75
0
 76
1
 98
1
 10
0.0
 20
0.0
  0
LWPOLYLINE
  5
268
100
AcDbEntity
  8
0
100
AcDbPolyline
 62
2
  6
CONTINUOUS
 90
6
 70
0
 10
9.6218808634
 20
283.2778654929
 10
8.987451348
 20
283.4442161022
 10
11.5729200859
 20
283.3629865532
 10
10.9292993842
 20
283.2367893757
 10
10.2740467029
 20
283.2082016352
 10
9.6218808634
 20
283.2778654929
  0
HATCH
  5
269
100
AcDbEntity
  8
0
100
AcDbHatch
 62
2
  6
CONTINUOUS
 10
0.0
 20
0.0
 30
0.0
210
0.0
220
0.0
230
1.0
  2
SOLID
 70
1
 71
1
 91
1
 92
1
 93
5
 72
1
 10
9.6218808634
 20
283.2778654929
 11
8.987451348
 21
283.4442161022
 72
1
 10
8.987451348
 20
283.4442161022
 11
11.5729200859
 21
283.3629865532
 72
1
 10
11.5729200859
 20
283.3629865532
 11
10.9292993842
 21
283.2367893757
 72
1
 10
10.9292993842
 20
283.2367893757
 11
10.2740467029
 21
283.2082016352
 72
1
 10
10.2740467029
 20
283.2082016352
 11
9.6218808634
 21
283.2778654929
 97
1
330
268
 75
0
 76
1
 98
1
 10
0.0
 20
0.0
  0
LWPOLYLINE
  5
26A
100
AcDbEntity
  8
0
100
AcDbPolyline
 62
2
  6
CONTINUOUS
 90
8
 70
0
 10
16.6257546957
 20
288.4462983908
 10
16.6257546957
 20
291.7418023453
 10
18.7756543471
 20
291.7418023453
 10
18.7675001076
 20
286.1887625424
 10
16.6243458713
 20
285.7994372127
 10
16.5962635235
 20
286.206571522
 10
16.5962635235
 20
286.7097707
 10
16.6257546957
 20
288.4462983908
  0
HATCH
  5
26B
100
AcDbEntity
  8
0
100
AcDbHatch
 62
2
  6
CONTINUOUS
 10
0.0
 20
0.0
 30
0.0
210
0.0
220
0.0
230
1.0
  2
SOLID
 70
1
 71
1
 91
1
 92
1
 93
7
 72
1
 10
16.6257546957
 20
288.4462983908
 11
16.6257546957
 21
291.7418023453
 72
1
 10
16.6257546957
 20
291.7418023453
 11
18.7756543471
 21
291.7418023453
 72
1
 10
18.7756543471
 20
291.7418023453
 11
18.7675001076
 21
286.1887625424
 72
1
 10
18.7675001076
 20
286.1887625424
 11
16.6243458713
 21
285.7994372127
 72
1
 10
16.6243458713
 20
285.7994372127
 11
16.5962635235
 21
286.206571522
 72
1
 10
16.5962635235
 20
286.206571522
 11
16.5962635235
 21
286.7097707
 72
1
 10
16.5962635235
 20
286.7097707
 11
16.6257546957
 21
288.4462983908
 97
1
330
26A
 75
0
 76
1
 98
1
 10
0.0
 20
0.0
  0
LWPOLYLINE
  5
26C
100
AcDbEntity
  8
0
100
AcDbPolyline
 62
2
  6
CONTINUOUS
 90
19
 70
0
 10
15.4613006768
 20
288.4267864074
 10
15.4585123173
 20
288.4462983908
 10
16.6257546957
 20
288.4462983908
 10
16.5962635235
 20
286.7097707
 10
15.4828019239
 20
286.7310241374
 10
15.4934148613
 20
286.8269721689
 10
15.5026102575
 20
286.9228679315
 10
15.5167229312
 20
287.1143654607
 10
15.5250935749
 20
287.3054384223
 10
15.5277298368
 20
287.4977613022
 10
15.5246400792
 20
287.6912132758
 10
15.5158326847
 20
287.8851942116
 10
15.5013301686
 20
288.0795445568
 10
15.4919484207
 20
288.1767738783
 10
15.4811488546
 20
288.2739942498
 10
15.4752179338
 20
288.3225905116
 10
15.4689331963
 20
288.3711718509
 10
15.4622948389
 20
288.4197340355
 10
15.4613006768
 20
288.4267864074
  0
HATCH
  5
26D
100
AcDbEntity
  8
0
100
AcDbHatch
 62
2
  6
CONTINUOUS
 10
0.0
 20
0.0
 30
0.0
210
0.0
220
0.0
230
1.0
  2
SOLID
 70
1
 71
1
 91
1
 92
1
 93
18
 72
1
 10
15.4613006768
 20
288.4267864074
 11
15.4585123173
 21
288.4462983908
 72
1
 10
15.4585123173
 20
288.4462983908
 11
16.6257546957
 21
288.4462983908
 72
1
 10
16.6257546957
 20
288.4462983908
 11
16.5962635235
 21
286.7097707
 72
1
 10
16.5962635235
 20
286.7097707
 11
15.4828019239
 21
286.7310241374
 72
1
 10
15.4828019239
 20
286.7310241374
 11
15.4934148613
 21
286.8269721689
 72
1
 10
15.4934148613
 20
286.8269721689
 11
15.5026102575
 21
286.9228679315
 72
1
 10
15.5026102575
 20
286.9228679315
 11
15.5167229312
 21
287.1143654607
 72
1
 10
15.5167229312
 20
287.1143654607
 11
15.5250935749
 21
287.3054384223
 72
1
 10
15.5250935749
 20
287.3054384223
 11
15.5277298368
 21
287.4977613022
 72
1
 10
15.5277298368
 20
287.4977613022
 11
15.5246400792
 21
287.6912132758
 72
1
 10
15.5246400792
 20
287.6912132758
 11
15.5158326847
 21
287.8851942116
 72
1
 10
15.5158326847
 20
287.8851942116
 11
15.5013301686
 21
288.0795445568
 72
1
 10
15.5013301686
 20
288.0795445568
 11
15.4919484207
 21
288.1767738783
 72
1
 10
15.4919484207
 20
288.1767738783
 11
15.4811488546
 21
288.2739942498
 72
1
 10
15.4811488546
 20
288.2739942498
 11
15.4752179338
 21
288.3225905116
 72
1
 10
15.4752179338
 20
288.3225905116
 11
15.4689331963
 21
288.3711718509
 72
1
 10
15.4689331963
 20
288.3711718509
 11
15.4622948389
 21
288.4197340355
 72
1
 10
15.4622948389
 20
288.4197340355
 11
15.4613006768
 21
288.4267864074
 97
1
330
26C
 75
0
 76
1
 98
1
 10
0.0
 20
0.0
  0
SOLID
  5
26E
100
AcDbEntity
  8
0
100
AcDbTrace
 62
2
  6
CONTINUOUS
 10
15.4801156353
 20
286.7085698414
 11
15.4828019239
 21
286.7310241374
 12
16.5962635235
 22
286.7097707
 13
16.5962635235
 23
286.7097707
  0
LWPOLYLINE
  5
26F
100
AcDbEntity
  8
0
100
AcDbPolyline
 62
2
  6
CONTINUOUS
 90
19
 70
0
 10
22.8464682804
 20
286.2121871597
 10
22.8191175755
 20
285.8050030454
 10
22.7389402891
 20
285.4048548643
 10
22.6073036975
 20
285.0185664075
 10
19.8723975014
 20
285.2169195533
 10
19.9979803276
 20
285.2417078807
 10
20.1192532493
 20
285.2826759887
 10
20.2341412532
 20
285.3391229015
 10
20.3406785737
 20
285.4100827968
 10
20.4370423277
 20
285.4943415312
 10
20.5215837047
 20
285.5904574143
 10
20.5928561783
 20
285.6967858767
 10
20.6496402566
 20
285.8115076089
 10
20.6909643484
 20
285.9326596904
 10
20.716121387
 20
286.0581691753
 10
20.7246809285
 20
286.1858885617
 10
20.7328380589
 20
291.7408943502
 10
22.8560234527
 20
291.7377766037
 10
22.8464682804
 20
286.2121871597
  0
HATCH
  5
270
100
AcDbEntity
  8
0
100
AcDbHatch
 62
2
  6
CONTINUOUS
 10
0.0
 20
0.0
 30
0.0
210
0.0
220
0.0
230
1.0
  2
SOLID
 70
1
 71
1
 91
1
 92
1
 93
18
 72
1
 10
22.8464682804
 20
286.2121871597
 11
22.8191175755
 21
285.8050030454
 72
1
 10
22.8191175755
 20
285.8050030454
 11
22.7389402891
 21
285.4048548643
 72
1
 10
22.7389402891
 20
285.4048548643
 11
22.6073036975
 21
285.0185664075
 72
1
 10
22.6073036975
 20
285.0185664075
 11
19.8723975014
 21
285.2169195533
 72
1
 10
19.8723975014
 20
285.2169195533
 11
19.9979803276
 21
285.2417078807
 72
1
 10
19.9979803276
 20
285.2417078807
 11
20.1192532493
 21
285.2826759887
 72
1
 10
20.1192532493
 20
285.2826759887
 11
20.2341412532
 21
285.3391229015
 72
1
 10
20.2341412532
 20
285.3391229015
 11
20.3406785737
 21
285.4100827968
 72
1
 10
20.3406785737
 20
285.4100827968
 11
20.4370423277
 21
285.4943415312
 72
1
 10
20.4370423277
 20
285.4943415312
 11
20.5215837047
 21
285.5904574143
 72
1
 10
20.5215837047
 20
285.5904574143
 11
20.5928561783
 21
285.6967858767
 72
1
 10
20.5928561783
 20
285.6967858767
 11
20.6496402566
 21
285.8115076089
 72
1
 10
20.6496402566
 20
285.8115076089
 11
20.6909643484
 21
285.9326596904
 72
1
 10
20.6909643484
 20
285.9326596904
 11
20.716121387
 21
286.0581691753
 72
1
 10
20.716121387
 20
286.0581691753
 11
20.7246809285
 21
286.1858885617
 72
1
 10
20.7246809285
 20
286.1858885617
 11
20.7328380589
 21
291.7408943502
 72
1
 10
20.7328380589
 20
291.7408943502
 11
22.8560234527
 21
291.7377766037
 72
1
 10
22.8560234527
 20
291.7377766037
 11
22.8464682804
 21
286.2121871597
 97
1
330
26F
 75
0
 76
1
 98
1
 10
0.0
 20
0.0
  0
LWPOLYLINE
  5
271
100
AcDbEntity
  8
0
100
AcDbPolyline
 62
2
  6
CONTINUOUS
 90
8
 70
0
 10
18.8414409547
 20
285.8141628208
 10
18.8978878675
 20
285.6992748169
 10
16.7052420719
 20
285.3994337518
 10
16.6243458713
 20
285.7994372127
 10
18.7675001076
 20
286.1887625424
 10
18.7756845193
 20
286.0610185687
 10
18.8004728468
 20
285.9354357425
 10
18.8414409547
 20
285.8141628208
  0
HATCH
  5
272
100
AcDbEntity
  8
0
100
AcDbHatch
 62
2
  6
CONTINUOUS
 10
0.0
 20
0.0
 30
0.0
210
0.0
220
0.0
230
1.0
  2
SOLID
 70
1
 71
1
 91
1
 92
1
 93
7
 72
1
 10
18.8414409547
 20
285.8141628208
 11
18.8978878675
 21
285.6992748169
 72
1
 10
18.8978878675
 20
285.6992748169
 11
16.7052420719
 21
285.3994337518
 72
1
 10
16.7052420719
 20
285.3994337518
 11
16.6243458713
 21
285.7994372127
 72
1
 10
16.6243458713
 20
285.7994372127
 11
18.7675001076
 21
286.1887625424
 72
1
 10
18.7675001076
 20
286.1887625424
 11
18.7756845193
 21
286.0610185687
 72
1
 10
18.7756845193
 20
286.0610185687
 11
18.8004728468
 21
285.9354357425
 72
1
 10
18.8004728468
 20
285.9354357425
 11
18.8414409547
 21
285.8141628208
 97
1
330
271
 75
0
 76
1
 98
1
 10
0.0
 20
0.0
  0
LWPOLYLINE
  5
273
100
AcDbEntity
  8
0
100
AcDbPolyline
 62
2
  6
CONTINUOUS
 90
8
 70
0
 10
19.1492223803
 20
285.4118323654
 10
19.2555508427
 20
285.3405598918
 10
16.8375725897
 20
285.0133824622
 10
16.7052420719
 20
285.3994337518
 10
18.8978878675
 20
285.6992748169
 10
18.9688477629
 20
285.5927374964
 10
19.0531064972
 20
285.4963737424
 10
19.1492223803
 20
285.4118323654
  0
HATCH
  5
274
100
AcDbEntity
  8
0
100
AcDbHatch
 62
2
  6
CONTINUOUS
 10
0.0
 20
0.0
 30
0.0
210
0.0
220
0.0
230
1.0
  2
SOLID
 70
1
 71
1
 91
1
 92
1
 93
7
 72
1
 10
19.1492223803
 20
285.4118323654
 11
19.2555508427
 21
285.3405598918
 72
1
 10
19.2555508427
 20
285.3405598918
 11
16.8375725897
 21
285.0133824622
 72
1
 10
16.8375725897
 20
285.0133824622
 11
16.7052420719
 21
285.3994337518
 72
1
 10
16.7052420719
 20
285.3994337518
 11
18.8978878675
 21
285.6992748169
 72
1
 10
18.8978878675
 20
285.6992748169
 11
18.9688477629
 21
285.5927374964
 72
1
 10
18.9688477629
 20
285.5927374964
 11
19.0531064972
 21
285.4963737424
 72
1
 10
19.0531064972
 20
285.4963737424
 11
19.1492223803
 21
285.4118323654
 97
1
330
273
 75
0
 76
1
 98
1
 10
0.0
 20
0.0
  0
LWPOLYLINE
  5
275
100
AcDbEntity
  8
0
100
AcDbPolyline
 62
2
  6
CONTINUOUS
 90
26
 70
0
 10
19.7446535277
 20
285.2087351416
 10
19.8723975014
 20
285.2169195533
 10
22.6073036975
 20
285.0185664075
 10
22.4264526204
 20
284.6527251141
 10
22.1994711403
 20
284.3135697341
 10
21.9302300087
 20
284.0068839387
 10
21.6233206378
 20
283.7378976897
 10
21.2839768022
 20
283.5111980529
 10
20.9179853868
 20
283.3306509734
 10
20.5315877017
 20
283.1993353496
 10
20.1313730487
 20
283.1194905277
 10
19.7241663523
 20
283.0924781144
 10
19.3169117736
 20
283.1187587566
 10
18.91655429
 20
283.1978842863
 10
18.529921262
 20
283.3285053633
 10
18.1636060046
 20
283.5083944853
 10
17.8238553504
 20
283.7344839743
 10
17.5164631218
 20
284.0029182901
 10
17.2466713278
 20
284.3091197792
 10
17.019080771
 20
284.6478667387
 10
16.8375725897
 20
285.0133824622
 10
19.2555508427
 20
285.3405598918
 10
19.370272575
 20
285.2837758135
 10
19.4914246564
 20
285.2424517217
 10
19.6169341414
 20
285.2172946831
 10
19.7446535277
 20
285.2087351416
  0
HATCH
  5
276
100
AcDbEntity
  8
0
100
AcDbHatch
 62
2
  6
CONTINUOUS
 10
0.0
 20
0.0
 30
0.0
210
0.0
220
0.0
230
1.0
  2
SOLID
 70
1
 71
1
 91
1
 92
1
 93
25
 72
1
 10
19.7446535277
 20
285.2087351416
 11
19.8723975014
 21
285.2169195533
 72
1
 10
19.8723975014
 20
285.2169195533
 11
22.6073036975
 21
285.0185664075
 72
1
 10
22.6073036975
 20
285.0185664075
 11
22.4264526204
 21
284.6527251141
 72
1
 10
22.4264526204
 20
284.6527251141
 11
22.1994711403
 21
284.3135697341
 72
1
 10
22.1994711403
 20
284.3135697341
 11
21.9302300087
 21
284.0068839387
 72
1
 10
21.9302300087
 20
284.0068839387
 11
21.6233206378
 21
283.7378976897
 72
1
 10
21.6233206378
 20
283.7378976897
 11
21.2839768022
 21
283.5111980529
 72
1
 10
21.2839768022
 20
283.5111980529
 11
20.9179853868
 21
283.3306509734
 72
1
 10
20.9179853868
 20
283.3306509734
 11
20.5315877017
 21
283.1993353496
 72
1
 10
20.5315877017
 20
283.1993353496
 11
20.1313730487
 21
283.1194905277
 72
1
 10
20.1313730487
 20
283.1194905277
 11
19.7241663523
 21
283.0924781144
 72
1
 10
19.7241663523
 20
283.0924781144
 11
19.3169117736
 21
283.1187587566
 72
1
 10
19.3169117736
 20
283.1187587566
 11
18.91655429
 21
283.1978842863
 72
1
 10
18.91655429
 20
283.1978842863
 11
18.529921262
 21
283.3285053633
 72
1
 10
18.529921262
 20
283.3285053633
 11
18.1636060046
 21
283.5083944853
 72
1
 10
18.1636060046
 20
283.5083944853
 11
17.8238553504
 21
283.7344839743
 72
1
 10
17.8238553504
 20
283.7344839743
 11
17.5164631218
 21
284.0029182901
 72
1
 10
17.5164631218
 20
284.0029182901
 11
17.2466713278
 21
284.3091197792
 72
1
 10
17.2466713278
 20
284.3091197792
 11
17.019080771
 21
284.6478667387
 72
1
 10
17.019080771
 20
284.6478667387
 11
16.8375725897
 21
285.0133824622
 72
1
 10
16.8375725897
 20
285.0133824622
 11
19.2555508427
 21
285.3405598918
 72
1
 10
19.2555508427
 20
285.3405598918
 11
19.370272575
 21
285.2837758135
 72
1
 10
19.370272575
 20
285.2837758135
 11
19.4914246564
 21
285.2424517217
 72
1
 10
19.4914246564
 20
285.2424517217
 11
19.6169341414
 21
285.2172946831
 72
1
 10
19.6169341414
 20
285.2172946831
 11
19.7446535277
 21
285.2087351416
 97
1
330
275
 75
0
 76
1
 98
1
 10
0.0
 20
0.0
  0
ENDBLK
  5
277
100
AcDbEntity
  8
0
  6
BYBLOCK
 62
0
100
AcDbBlockEnd
  0
BLOCK
  5
278
100
AcDbEntity
  8
0
100
AcDbBlockBegin
 62
2
  6
CONTINUOUS
  2
SYMBOL_2_BL10
 70
64
 10
252.0051336987
 20
17.0063304868
  3
SYMBOL_2_BL10
  1

  0
LINE
  5
279
100
AcDbEntity
  8
0
100
AcDbLine
 62
2
  6
CONTINUOUS
 10
245.0471016852
 20
14.0149327834
 11
245.0471016852
 21
19.9977281901
  0
LINE
  5
27A
100
AcDbEntity
  8
0
100
AcDbLine
 62
2
  6
CONTINUOUS
 10
258.3545634155
 20
13.4063304868
 11
245.6557039818
 21
13.4063304868
  0
LINE
  5
27B
100
AcDbEntity
  8
0
100
AcDbLine
 62
2
  6
CONTINUOUS
 10
245.6557039818
 20
20.6063304868
 11
258.3545634155
 21
20.6063304868
  0
LINE
  5
27C
100
AcDbEntity
  8
0
100
AcDbLine
 62
2
  6
CONTINUOUS
 10
258.9631657122
 20
19.9977281901
 11
258.9631657122
 21
14.0149327834
  0
SPLINE
  5
27D
100
AcDbEntity
  8
0
100
AcDbSpline
 62
2
  6
CONTINUOUS
 70
2
 71
3
 72
62
 73
58
 74
0
 42
0.0000001
 43
0.0000001
 44
0.0000000001
 40
0.0
 40
0.0
 40
0.0
 40
0.0
 40
1.0
 40
1.0
 40
1.0
 40
2.0
 40
2.0
 40
2.0
 40
3.0
 40
3.0
 40
3.0
 40
4.0
 40
4.0
 40
4.0
 40
5.0
 40
5.0
 40
5.0
 40
6.0
 40
6.0
 40
6.0
 40
7.0
 40
7.0
 40
7.0
 40
8.0
 40
8.0
 40
8.0
 40
9.0
 40
9.0
 40
9.0
 40
10.0
 40
10.0
 40
10.0
 40
11.0
 40
11.0
 40
11.0
 40
12.0
 40
12.0
 40
12.0
 40
13.0
 40
13.0
 40
13.0
 40
14.0
 40
14.0
 40
14.0
 40
15.0
 40
15.0
 40
15.0
 40
16.0
 40
16.0
 40
16.0
 40
17.0
 40
17.0
 40
17.0
 40
18.0
 40
18.0
 40
18.0
 40
19.0
 40
19.0
 40
19.0
 40
19.0
 10
255.4248786001
 20
19.4367908873
 30
0.0
 10
255.4248786001
 20
19.4367908873
 30
0.0
 10
255.4248786001
 20
16.2760496648
 30
0.0
 10
255.4248786001
 20
16.2760496648
 30
0.0
 10
255.4248786001
 20
16.2760496648
 30
0.0
 10
255.4290021113
 20
16.1446564266
 30
0.0
 10
255.4290021113
 20
16.1446564266
 30
0.0
 10
255.4290021113
 20
15.8401456082
 30
0.0
 10
255.1623017939
 20
15.5932591116
 30
0.0
 10
254.8577210855
 20
15.5932591116
 30
0.0
 10
254.5532102671
 20
15.5932591116
 30
0.0
 10
254.2963644425
 20
15.8401456082
 30
0.0
 10
254.2963644425
 20
16.1446564266
 30
0.0
 10
254.2963644425
 20
16.1446564266
 30
0.0
 10
254.28776797
 20
16.2760496648
 30
0.0
 10
254.28776797
 20
16.2760496648
 30
0.0
 10
254.28776797
 20
16.2760496648
 30
0.0
 10
254.28776797
 20
19.4367908873
 30
0.0
 10
254.28776797
 20
19.4367908873
 30
0.0
 10
254.28776797
 20
19.4367908873
 30
0.0
 10
253.0008131365
 20
19.4367908873
 30
0.0
 10
253.0008131365
 20
19.4367908873
 30
0.0
 10
253.0008131365
 20
19.4367908873
 30
0.0
 10
253.0008131365
 20
17.4753274679
 30
0.0
 10
253.0008131365
 20
17.4753274679
 30
0.0
 10
253.0008131365
 20
17.4753274679
 30
0.0
 10
252.160403115
 20
17.4753274679
 30
0.0
 10
252.160403115
 20
17.4753274679
 30
0.0
 10
252.191189669
 20
17.3044813133
 30
0.0
 10
252.2080506363
 20
17.1286729673
 30
0.0
 10
252.2080506363
 20
16.948636275
 30
0.0
 10
252.2080506363
 20
16.7697178231
 30
0.0
 10
252.191364394
 20
16.5948180473
 30
0.0
 10
252.1609272902
 20
16.424915408
 30
0.0
 10
252.1609272902
 20
16.424915408
 30
0.0
 10
253.0008131365
 20
16.424915408
 30
0.0
 10
253.0008131365
 20
16.424915408
 30
0.0
 10
253.0008131365
 20
16.424915408
 30
0.0
 10
253.0008131365
 20
16.2760496648
 30
0.0
 10
253.0008131365
 20
16.2760496648
 30
0.0
 10
253.0008131365
 20
16.2760496648
 30
0.0
 10
253.0008131365
 20
16.1446564266
 30
0.0
 10
253.0008131365
 20
16.1446564266
 30
0.0
 10
253.0008131365
 20
15.1281410266
 30
0.0
 10
253.8348107486
 20
14.3041027424
 30
0.0
 10
254.8513261486
 20
14.3041027424
 30
0.0
 10
255.8678764937
 20
14.3041027424
 30
0.0
 10
256.7118334337
 20
15.1281410266
 30
0.0
 10
256.7118334337
 20
16.1446564266
 30
0.0
 10
256.7118334337
 20
16.1446564266
 30
0.0
 10
256.7118334337
 20
16.2760496648
 30
0.0
 10
256.7118334337
 20
16.2760496648
 30
0.0
 10
256.7118334337
 20
16.2760496648
 30
0.0
 10
256.7118334337
 20
19.4367908873
 30
0.0
 10
256.7118334337
 20
19.4367908873
 30
0.0
 10
256.7118334337
 20
19.4367908873
 30
0.0
 10
255.4248786001
 20
19.4367908873
 30
0.0
 10
255.4248786001
 20
19.4367908873
 30
0.0
  0
SPLINE
  5
27E
100
AcDbEntity
  8
0
100
AcDbSpline
 62
2
  6
CONTINUOUS
 70
2
 71
3
 72
59
 73
55
 74
0
 42
0.0000001
 43
0.0000001
 44
0.0000000001
 40
0.0
 40
0.0
 40
0.0
 40
0.0
 40
1.0
 40
1.0
 40
1.0
 40
2.0
 40
2.0
 40
2.0
 40
3.0
 40
3.0
 40
3.0
 40
4.0
 40
4.0
 40
4.0
 40
5.0
 40
5.0
 40
5.0
 40
6.0
 40
6.0
 40
6.0
 40
7.0
 40
7.0
 40
7.0
 40
8.0
 40
8.0
 40
8.0
 40
9.0
 40
9.0
 40
9.0
 40
10.0
 40
10.0
 40
10.0
 40
11.0
 40
11.0
 40
11.0
 40
12.0
 40
12.0
 40
12.0
 40
13.0
 40
13.0
 40
13.0
 40
14.0
 40
14.0
 40
14.0
 40
15.0
 40
15.0
 40
15.0
 40
16.0
 40
16.0
 40
16.0
 40
17.0
 40
17.0
 40
17.0
 40
18.0
 40
18.0
 40
18.0
 40
18.0
 10
251.8823281968
 20
17.4753274679
 30
0.0
 10
251.8823281968
 20
17.4753274679
 30
0.0
 10
251.0738928596
 20
17.4753274679
 30
0.0
 10
251.0738928596
 20
17.4753274679
 30
0.0
 10
251.0738928596
 20
17.4753274679
 30
0.0
 10
250.5255008154
 20
17.4753274679
 30
0.0
 10
250.5255008154
 20
17.4753274679
 30
0.0
 10
250.5255008154
 20
17.4753274679
 30
0.0
 10
249.3703760326
 20
17.4753274679
 30
0.0
 10
249.3703760326
 20
17.4753274679
 30
0.0
 10
249.3703760326
 20
17.4753274679
 30
0.0
 10
249.3703760326
 20
17.4736151624
 30
0.0
 10
249.3703760326
 20
17.4736151624
 30
0.0
 10
249.0824466216
 20
17.4711690117
 30
0.0
 10
248.849747799
 20
17.2371772238
 30
0.0
 10
248.849747799
 20
16.948636275
 30
0.0
 10
248.849747799
 20
16.6585926908
 30
0.0
 10
249.0848927723
 20
16.4234477176
 30
0.0
 10
249.3749713015
 20
16.4234477176
 30
0.0
 10
249.3849131569
 20
16.4234477176
 30
0.0
 10
249.3946453422
 20
16.4243912328
 30
0.0
 10
249.4044823625
 20
16.424915408
 30
0.0
 10
249.4044823625
 20
16.424915408
 30
0.0
 10
250.5265841108
 20
16.424915408
 30
0.0
 10
250.5265841108
 20
16.424915408
 30
0.0
 10
250.3383877586
 20
15.935929881
 30
0.0
 10
249.8889774557
 20
15.5922806513
 30
0.0
 10
249.325209607
 20
15.5922806513
 30
0.0
 10
248.5766175997
 20
15.5922806513
 30
0.0
 10
248.0189301828
 20
16.1996249276
 30
0.0
 10
248.0189301828
 20
16.948636275
 30
0.0
 10
248.0189301828
 20
17.6976126774
 30
0.0
 10
248.5766175997
 20
18.3049918987
 30
0.0
 10
249.325209607
 20
18.3049918987
 30
0.0
 10
249.7912187898
 20
18.3049918987
 30
0.0
 10
250.1790559849
 20
18.0701264856
 30
0.0
 10
250.4058840457
 20
17.7124643067
 30
0.0
 10
250.4058840457
 20
17.7124643067
 30
0.0
 10
251.4479617207
 20
18.4876494667
 30
0.0
 10
251.4479617207
 20
18.4876494667
 30
0.0
 10
250.9776018842
 20
19.1531771849
 30
0.0
 10
250.2077283657
 20
19.5869845409
 30
0.0
 10
249.325209607
 20
19.5869845409
 30
0.0
 10
247.8681249916
 20
19.5869845409
 30
0.0
 10
246.7166869073
 20
18.405773308
 30
0.0
 10
246.7166869073
 20
16.948636275
 30
0.0
 10
246.7166869073
 20
15.4916040771
 30
0.0
 10
247.8681249916
 20
14.3103229542
 30
0.0
 10
249.325209607
 20
14.3103229542
 30
0.0
 10
250.7822592775
 20
14.3103229542
 30
0.0
 10
251.9337672517
 20
15.4916040771
 30
0.0
 10
251.9337672517
 20
16.948636275
 30
0.0
 10
251.9337672517
 20
17.1290224174
 30
0.0
 10
251.9159977141
 20
17.3051103235
 30
0.0
 10
251.8823281968
 20
17.4753274679
 30
0.0
  0
LWPOLYLINE
  5
27F
100
AcDbEntity
  8
0
100
AcDbPolyline
 62
2
  6
CONTINUOUS
 90
7
 70
0
 10
258.3545634155
 20
20.6063304868
 10
258.6135025194
 20
20.5481472868
 10
245.1833440306
 20
20.3804003931
 10
245.396764878
 20
20.5481472868
 10
245.6557039818
 20
20.6063304868
 10
246.976385363
 20
20.6063304868
 10
258.3545634155
 20
20.6063304868
  0
HATCH
  5
280
100
AcDbEntity
  8
0
100
AcDbHatch
 62
2
  6
CONTINUOUS
 10
0.0
 20
0.0
 30
0.0
210
0.0
220
0.0
230
1.0
  2
SOLID
 70
1
 71
1
 91
1
 92
1
 93
6
 72
1
 10
258.3545634155
 20
20.6063304868
 11
258.6135025194
 21
20.5481472868
 72
1
 10
258.6135025194
 20
20.5481472868
 11
245.1833440306
 21
20.3804003931
 72
1
 10
245.1833440306
 20
20.3804003931
 11
245.396764878
 21
20.5481472868
 72
1
 10
245.396764878
 20
20.5481472868
 11
245.6557039818
 21
20.6063304868
 72
1
 10
245.6557039818
 20
20.6063304868
 11
246.976385363
 21
20.6063304868
 72
1
 10
246.976385363
 20
20.6063304868
 11
258.3545634155
 21
20.6063304868
 97
1
330
27F
 75
0
 76
1
 98
1
 10
0.0
 20
0.0
  0
LWPOLYLINE
  5
281
100
AcDbEntity
  8
0
100
AcDbPolyline
 62
2
  6
CONTINUOUS
 90
18
 70
0
 10
258.7372356185
 20
20.4700881413
 10
258.9049797998
 20
20.2566696868
 10
258.9631657122
 20
19.9977288868
 10
249.325209607
 20
19.5869845409
 10
248.9334803387
 20
19.5579960868
 10
248.5550040651
 20
19.471971883
 10
248.1947230793
 20
19.3304912714
 10
247.8586654322
 20
19.1358046711
 10
247.5537188479
 20
18.8913367601
 10
247.4119396722
 20
18.7483930295
 10
247.1682265858
 20
18.4393007054
 10
246.9735692326
 20
18.0976677811
 10
245.0471016852
 20
14.6371435057
 10
245.0471016852
 20
19.9977288868
 10
245.1052875976
 20
20.2566696868
 10
245.1833440306
 20
20.3804003931
 10
258.6135025194
 20
20.5481472868
 10
258.7372356185
 20
20.4700881413
  0
HATCH
  5
282
100
AcDbEntity
  8
0
100
AcDbHatch
 62
2
  6
CONTINUOUS
 10
0.0
 20
0.0
 30
0.0
210
0.0
220
0.0
230
1.0
  2
SOLID
 70
1
 71
1
 91
1
 92
1
 93
17
 72
1
 10
258.7372356185
 20
20.4700881413
 11
258.9049797998
 21
20.2566696868
 72
1
 10
258.9049797998
 20
20.2566696868
 11
258.9631657122
 21
19.9977288868
 72
1
 10
258.9631657122
 20
19.9977288868
 11
249.325209607
 21
19.5869845409
 72
1
 10
249.325209607
 20
19.5869845409
 11
248.9334803387
 21
19.5579960868
 72
1
 10
248.9334803387
 20
19.5579960868
 11
248.5550040651
 21
19.471971883
 72
1
 10
248.5550040651
 20
19.471971883
 11
248.1947230793
 21
19.3304912714
 72
1
 10
248.1947230793
 20
19.3304912714
 11
247.8586654322
 21
19.1358046711
 72
1
 10
247.8586654322
 20
19.1358046711
 11
247.5537188479
 21
18.8913367601
 72
1
 10
247.5537188479
 20
18.8913367601
 11
247.4119396722
 21
18.7483930295
 72
1
 10
247.4119396722
 20
18.7483930295
 11
247.1682265858
 21
18.4393007054
 72
1
 10
247.1682265858
 20
18.4393007054
 11
246.9735692326
 21
18.0976677811
 72
1
 10
246.9735692326
 20
18.0976677811
 11
245.0471016852
 21
14.6371435057
 72
1
 10
245.0471016852
 20
14.6371435057
 11
245.0471016852
 21
19.9977288868
 72
1
 10
245.0471016852
 20
19.9977288868
 11
245.1052875976
 21
20.2566696868
 72
1
 10
245.1052875976
 20
20.2566696868
 11
245.1833440306
 21
20.3804003931
 72
1
 10
245.1833440306
 20
20.3804003931
 11
258.6135025194
 21
20.5481472868
 72
1
 10
258.6135025194
 20
20.5481472868
 11
258.7372356185
 21
20.4700881413
 97
1
330
281
 75
0
 76
1
 98
1
 10
0.0
 20
0.0
  0
LWPOLYLINE
  5
283
100
AcDbEntity
  8
0
100
AcDbPolyline
 62
2
  6
CONTINUOUS
 90
37
 70
0
 10
249.325209607
 20
19.5869845409
 10
258.9631657122
 20
19.9977288868
 10
258.9631657122
 20
19.3755174678
 10
258.9631657122
 20
14.0149320868
 10
256.4752842789
 20
15.2498839876
 10
256.6058234665
 20
15.5339693186
 10
256.6851487731
 20
15.8341419967
 10
256.7118334337
 20
16.1446560868
 10
256.7118334337
 20
16.2760488868
 10
256.7118334337
 20
19.4367912868
 10
255.4248786001
 20
19.4367912868
 10
255.4248786001
 20
16.2760488868
 10
255.4290021113
 20
16.1446560868
 10
254.322400757
 20
15.9796854106
 10
254.2963644425
 20
16.1446560868
 10
254.28776797
 20
16.2760488868
 10
254.28776797
 20
19.4367912868
 10
253.0008131365
 20
19.4367912868
 10
253.0008131365
 20
17.4753240868
 10
252.160403115
 20
17.4753240868
 10
252.1817813755
 20
17.3392843749
 10
252.2080506363
 20
16.9486368868
 10
251.9047597321
 20
16.551295021
 10
251.9337672517
 20
16.9486368868
 10
251.9048627125
 20
17.3446039815
 10
251.8823281968
 20
17.4753240868
 10
251.0738928596
 20
17.4753240868
 10
250.5255008154
 20
17.4753240868
 10
250.4058840457
 20
17.7124643067
 10
251.4479617207
 20
18.4876494667
 10
251.1970647502
 20
18.7914885541
 10
251.0958813666
 20
18.8912338875
 10
250.790930515
 20
19.1357894408
 10
250.4549870227
 20
19.3305032225
 10
250.0949125483
 20
19.4719814385
 10
249.7166905268
 20
19.5579960868
 10
249.325209607
 20
19.5869845409
  0
HATCH
  5
284
100
AcDbEntity
  8
0
100
AcDbHatch
 62
2
  6
CONTINUOUS
 10
0.0
 20
0.0
 30
0.0
210
0.0
220
0.0
230
1.0
  2
SOLID
 70
1
 71
1
 91
1
 92
1
 93
36
 72
1
 10
249.325209607
 20
19.5869845409
 11
258.9631657122
 21
19.9977288868
 72
1
 10
258.9631657122
 20
19.9977288868
 11
258.9631657122
 21
19.3755174678
 72
1
 10
258.9631657122
 20
19.3755174678
 11
258.9631657122
 21
14.0149320868
 72
1
 10
258.9631657122
 20
14.0149320868
 11
256.4752842789
 21
15.2498839876
 72
1
 10
256.4752842789
 20
15.2498839876
 11
256.6058234665
 21
15.5339693186
 72
1
 10
256.6058234665
 20
15.5339693186
 11
256.6851487731
 21
15.8341419967
 72
1
 10
256.6851487731
 20
15.8341419967
 11
256.7118334337
 21
16.1446560868
 72
1
 10
256.7118334337
 20
16.1446560868
 11
256.7118334337
 21
16.2760488868
 72
1
 10
256.7118334337
 20
16.2760488868
 11
256.7118334337
 21
19.4367912868
 72
1
 10
256.7118334337
 20
19.4367912868
 11
255.4248786001
 21
19.4367912868
 72
1
 10
255.4248786001
 20
19.4367912868
 11
255.4248786001
 21
16.2760488868
 72
1
 10
255.4248786001
 20
16.2760488868
 11
255.4290021113
 21
16.1446560868
 72
1
 10
255.4290021113
 20
16.1446560868
 11
254.322400757
 21
15.9796854106
 72
1
 10
254.322400757
 20
15.9796854106
 11
254.2963644425
 21
16.1446560868
 72
1
 10
254.2963644425
 20
16.1446560868
 11
254.28776797
 21
16.2760488868
 72
1
 10
254.28776797
 20
16.2760488868
 11
254.28776797
 21
19.4367912868
 72
1
 10
254.28776797
 20
19.4367912868
 11
253.0008131365
 21
19.4367912868
 72
1
 10
253.0008131365
 20
19.4367912868
 11
253.0008131365
 21
17.4753240868
 72
1
 10
253.0008131365
 20
17.4753240868
 11
252.160403115
 21
17.4753240868
 72
1
 10
252.160403115
 20
17.4753240868
 11
252.1817813755
 21
17.3392843749
 72
1
 10
252.1817813755
 20
17.3392843749
 11
252.2080506363
 21
16.9486368868
 72
1
 10
252.2080506363
 20
16.9486368868
 11
251.9047597321
 21
16.551295021
 72
1
 10
251.9047597321
 20
16.551295021
 11
251.9337672517
 21
16.9486368868
 72
1
 10
251.9337672517
 20
16.9486368868
 11
251.9048627125
 21
17.3446039815
 72
1
 10
251.9048627125
 20
17.3446039815
 11
251.8823281968
 21
17.4753240868
 72
1
 10
251.8823281968
 20
17.4753240868
 11
251.0738928596
 21
17.4753240868
 72
1
 10
251.0738928596
 20
17.4753240868
 11
250.5255008154
 21
17.4753240868
 72
1
 10
250.5255008154
 20
17.4753240868
 11
250.4058840457
 21
17.7124643067
 72
1
 10
250.4058840457
 20
17.7124643067
 11
251.4479617207
 21
18.4876494667
 72
1
 10
251.4479617207
 20
18.4876494667
 11
251.1970647502
 21
18.7914885541
 72
1
 10
251.1970647502
 20
18.7914885541
 11
251.0958813666
 21
18.8912338875
 72
1
 10
251.0958813666
 20
18.8912338875
 11
250.790930515
 21
19.1357894408
 72
1
 10
250.790930515
 20
19.1357894408
 11
250.4549870227
 21
19.3305032225
 72
1
 10
250.4549870227
 20
19.3305032225
 11
250.0949125483
 21
19.4719814385
 72
1
 10
250.0949125483
 20
19.4719814385
 11
249.7166905268
 21
19.5579960868
 72
1
 10
249.7166905268
 20
19.5579960868
 11
249.325209607
 21
19.5869845409
 97
1
330
283
 75
0
 76
1
 98
1
 10
0.0
 20
0.0
  0
SOLID
  5
285
100
AcDbEntity
  8
0
100
AcDbTrace
 62
2
  6
CONTINUOUS
 10
249.325209607
 20
18.3049918987
 11
249.6015515005
 21
18.2762808868
 12
249.0486742656
 22
18.2762808868
 13
248.7909051555
 23
18.1920110388
  0
LWPOLYLINE
  5
286
100
AcDbEntity
  8
0
100
AcDbPolyline
 62
2
  6
CONTINUOUS
 90
14
 70
0
 10
249.8579130326
 20
18.1921822192
 10
250.0891502471
 20
18.0556253582
 10
250.2884401432
 20
17.8702844777
 10
250.4058840457
 20
17.7124643067
 10
250.5255008154
 20
17.4753240868
 10
249.3703760326
 20
17.4753240868
 10
248.0477447543
 20
17.2392773781
 10
248.1325818034
 20
17.5126161474
 10
248.1953316196
 20
17.6405558557
 10
248.3562755347
 20
17.8692181101
 10
248.5576291346
 20
18.055033615
 10
248.7909051555
 20
18.1920110388
 10
249.6015515005
 20
18.2762808868
 10
249.8579130326
 20
18.1921822192
  0
HATCH
  5
287
100
AcDbEntity
  8
0
100
AcDbHatch
 62
2
  6
CONTINUOUS
 10
0.0
 20
0.0
 30
0.0
210
0.0
220
0.0
230
1.0
  2
SOLID
 70
1
 71
1
 91
1
 92
1
 93
13
 72
1
 10
249.8579130326
 20
18.1921822192
 11
250.0891502471
 21
18.0556253582
 72
1
 10
250.0891502471
 20
18.0556253582
 11
250.2884401432
 21
17.8702844777
 72
1
 10
250.2884401432
 20
17.8702844777
 11
250.4058840457
 21
17.7124643067
 72
1
 10
250.4058840457
 20
17.7124643067
 11
250.5255008154
 21
17.4753240868
 72
1
 10
250.5255008154
 20
17.4753240868
 11
249.3703760326
 21
17.4753240868
 72
1
 10
249.3703760326
 20
17.4753240868
 11
248.0477447543
 21
17.2392773781
 72
1
 10
248.0477447543
 20
17.2392773781
 11
248.1325818034
 21
17.5126161474
 72
1
 10
248.1325818034
 20
17.5126161474
 11
248.1953316196
 21
17.6405558557
 72
1
 10
248.1953316196
 20
17.6405558557
 11
248.3562755347
 21
17.8692181101
 72
1
 10
248.3562755347
 20
17.8692181101
 11
248.5576291346
 21
18.055033615
 72
1
 10
248.5576291346
 20
18.055033615
 11
248.7909051555
 21
18.1920110388
 72
1
 10
248.7909051555
 20
18.1920110388
 11
249.6015515005
 21
18.2762808868
 72
1
 10
249.6015515005
 20
18.2762808868
 11
249.8579130326
 21
18.1921822192
 97
1
330
286
 75
0
 76
1
 98
1
 10
0.0
 20
0.0
  0
LWPOLYLINE
  5
288
100
AcDbEntity
  8
0
100
AcDbPolyline
 62
2
  6
CONTINUOUS
 90
10
 70
0
 10
248.9600917894
 20
17.2706650389
 10
248.8778731999
 20
17.1186159758
 10
248.849747799
 20
16.9486368868
 10
248.0477447543
 20
16.6579846804
 10
248.0189301828
 20
16.9486368868
 10
248.0477447543
 20
17.2392773781
 10
249.3703760326
 20
17.4753240868
 10
249.2006281149
 20
17.4440361074
 10
249.0491376174
 20
17.360461771
 10
248.9600917894
 20
17.2706650389
  0
HATCH
  5
289
100
AcDbEntity
  8
0
100
AcDbHatch
 62
2
  6
CONTINUOUS
 10
0.0
 20
0.0
 30
0.0
210
0.0
220
0.0
230
1.0
  2
SOLID
 70
1
 71
1
 91
1
 92
1
 93
9
 72
1
 10
248.9600917894
 20
17.2706650389
 11
248.8778731999
 21
17.1186159758
 72
1
 10
248.8778731999
 20
17.1186159758
 11
248.849747799
 21
16.9486368868
 72
1
 10
248.849747799
 20
16.9486368868
 11
248.0477447543
 21
16.6579846804
 72
1
 10
248.0477447543
 20
16.6579846804
 11
248.0189301828
 21
16.9486368868
 72
1
 10
248.0189301828
 20
16.9486368868
 11
248.0477447543
 21
17.2392773781
 72
1
 10
248.0477447543
 20
17.2392773781
 11
249.3703760326
 21
17.4753240868
 72
1
 10
249.3703760326
 20
17.4753240868
 11
249.2006281149
 21
17.4440361074
 72
1
 10
249.2006281149
 20
17.4440361074
 11
249.0491376174
 21
17.360461771
 72
1
 10
249.0491376174
 20
17.360461771
 11
248.9600917894
 21
17.2706650389
 97
1
330
288
 75
0
 76
1
 98
1
 10
0.0
 20
0.0
  0
SOLID
  5
28A
100
AcDbEntity
  8
0
100
AcDbTrace
 62
2
  6
CONTINUOUS
 10
249.3703760326
 20
17.4736151624
 11
249.2006281149
 21
17.4440361074
 12
249.3703760326
 22
17.4753240868
 13
249.3703760326
 23
17.4753240868
  0
LWPOLYLINE
  5
28B
100
AcDbEntity
  8
0
100
AcDbPolyline
 62
2
  6
CONTINUOUS
 90
6
 70
0
 10
248.8778737393
 20
16.7786383446
 10
248.9601041265
 20
16.6265254914
 10
248.1325807139
 20
16.3846438879
 10
248.0477447543
 20
16.6579846804
 10
248.849747799
 20
16.9486368868
 10
248.8778737393
 20
16.7786383446
  0
HATCH
  5
28C
100
AcDbEntity
  8
0
100
AcDbHatch
 62
2
  6
CONTINUOUS
 10
0.0
 20
0.0
 30
0.0
210
0.0
220
0.0
230
1.0
  2
SOLID
 70
1
 71
1
 91
1
 92
1
 93
5
 72
1
 10
248.8778737393
 20
16.7786383446
 11
248.9601041265
 21
16.6265254914
 72
1
 10
248.9601041265
 20
16.6265254914
 11
248.1325807139
 21
16.3846438879
 72
1
 10
248.1325807139
 20
16.3846438879
 11
248.0477447543
 21
16.6579846804
 72
1
 10
248.0477447543
 20
16.6579846804
 11
248.849747799
 21
16.9486368868
 72
1
 10
248.849747799
 20
16.9486368868
 11
248.8778737393
 21
16.7786383446
 97
1
330
28B
 75
0
 76
1
 98
1
 10
0.0
 20
0.0
  0
LWPOLYLINE
  5
28D
100
AcDbEntity
  8
0
100
AcDbPolyline
 62
2
  6
CONTINUOUS
 90
6
 70
0
 10
252.1817998473
 20
16.5582257528
 10
252.1609272902
 20
16.4249160868
 10
251.8185823915
 20
16.1663693064
 10
251.9047597321
 20
16.551295021
 10
252.2080506363
 20
16.9486368868
 10
252.1817998473
 20
16.5582257528
  0
HATCH
  5
28E
100
AcDbEntity
  8
0
100
AcDbHatch
 62
2
  6
CONTINUOUS
 10
0.0
 20
0.0
 30
0.0
210
0.0
220
0.0
230
1.0
  2
SOLID
 70
1
 71
1
 91
1
 92
1
 93
5
 72
1
 10
252.1817998473
 20
16.5582257528
 11
252.1609272902
 21
16.4249160868
 72
1
 10
252.1609272902
 20
16.4249160868
 11
251.8185823915
 21
16.1663693064
 72
1
 10
251.8185823915
 20
16.1663693064
 11
251.9047597321
 21
16.551295021
 72
1
 10
251.9047597321
 20
16.551295021
 11
252.2080506363
 21
16.9486368868
 72
1
 10
252.2080506363
 20
16.9486368868
 11
252.1817998473
 21
16.5582257528
 97
1
330
28D
 75
0
 76
1
 98
1
 10
0.0
 20
0.0
  0
LWPOLYLINE
  5
28F
100
AcDbEntity
  8
0
100
AcDbPolyline
 62
2
  6
CONTINUOUS
 90
16
 70
0
 10
249.3749713015
 20
16.4234477176
 10
249.4044823625
 20
16.4249160868
 10
250.5265841108
 20
16.4249160868
 10
250.4477844956
 20
16.255468722
 10
250.2885110803
 20
16.0269603376
 10
250.0892358138
 20
15.8416414042
 10
249.8579848288
 20
15.7050904278
 10
249.6015902951
 20
15.6209928868
 10
249.325209607
 20
15.5922806513
 10
249.0486666225
 20
15.6209928868
 10
248.7908934768
 20
15.7052616083
 10
248.5576172154
 20
15.8422380361
 10
248.3562663537
 20
16.0280511814
 10
248.1953264356
 20
16.2567104668
 10
248.1325807139
 20
16.3846438879
 10
249.3749713015
 20
16.4234477176
  0
HATCH
  5
290
100
AcDbEntity
  8
0
100
AcDbHatch
 62
2
  6
CONTINUOUS
 10
0.0
 20
0.0
 30
0.0
210
0.0
220
0.0
230
1.0
  2
SOLID
 70
1
 71
1
 91
1
 92
1
 93
15
 72
1
 10
249.3749713015
 20
16.4234477176
 11
249.4044823625
 21
16.4249160868
 72
1
 10
249.4044823625
 20
16.4249160868
 11
250.5265841108
 21
16.4249160868
 72
1
 10
250.5265841108
 20
16.4249160868
 11
250.4477844956
 21
16.255468722
 72
1
 10
250.4477844956
 20
16.255468722
 11
250.2885110803
 21
16.0269603376
 72
1
 10
250.2885110803
 20
16.0269603376
 11
250.0892358138
 21
15.8416414042
 72
1
 10
250.0892358138
 20
15.8416414042
 11
249.8579848288
 21
15.7050904278
 72
1
 10
249.8579848288
 20
15.7050904278
 11
249.6015902951
 21
15.6209928868
 72
1
 10
249.6015902951
 20
15.6209928868
 11
249.325209607
 21
15.5922806513
 72
1
 10
249.325209607
 20
15.5922806513
 11
249.0486666225
 21
15.6209928868
 72
1
 10
249.0486666225
 20
15.6209928868
 11
248.7908934768
 21
15.7052616083
 72
1
 10
248.7908934768
 20
15.7052616083
 11
248.5576172154
 21
15.8422380361
 72
1
 10
248.5576172154
 20
15.8422380361
 11
248.3562663537
 21
16.0280511814
 72
1
 10
248.3562663537
 20
16.0280511814
 11
248.1953264356
 21
16.2567104668
 72
1
 10
248.1953264356
 20
16.2567104668
 11
248.1325807139
 21
16.3846438879
 72
1
 10
248.1325807139
 20
16.3846438879
 11
249.3749713015
 21
16.4234477176
 97
1
330
28F
 75
0
 76
1
 98
1
 10
0.0
 20
0.0
  0
LWPOLYLINE
  5
291
100
AcDbEntity
  8
0
100
AcDbPolyline
 62
2
  6
CONTINUOUS
 90
6
 70
0
 10
249.3749713015
 20
16.4234477176
 10
248.1325807139
 20
16.3846438879
 10
248.9601041265
 20
16.6265254914
 10
249.0528329113
 20
16.533801119
 10
249.2049559764
 20
16.4515733563
 10
249.3749713015
 20
16.4234477176
  0
HATCH
  5
292
100
AcDbEntity
  8
0
100
AcDbHatch
 62
2
  6
CONTINUOUS
 10
0.0
 20
0.0
 30
0.0
210
0.0
220
0.0
230
1.0
  2
SOLID
 70
1
 71
1
 91
1
 92
1
 93
5
 72
1
 10
249.3749713015
 20
16.4234477176
 11
248.1325807139
 21
16.3846438879
 72
1
 10
248.1325807139
 20
16.3846438879
 11
248.9601041265
 21
16.6265254914
 72
1
 10
248.9601041265
 20
16.6265254914
 11
249.0528329113
 21
16.533801119
 72
1
 10
249.0528329113
 20
16.533801119
 11
249.2049559764
 21
16.4515733563
 72
1
 10
249.2049559764
 20
16.4515733563
 11
249.3749713015
 21
16.4234477176
 97
1
330
291
 75
0
 76
1
 98
1
 10
0.0
 20
0.0
  0
LWPOLYLINE
  5
293
100
AcDbEntity
  8
0
100
AcDbPolyline
 62
2
  6
CONTINUOUS
 90
7
 70
0
 10
253.0008131365
 20
16.2760488868
 10
253.0008131365
 20
16.1446560868
 10
251.6768798735
 20
15.7996736415
 10
251.8185823915
 20
16.1663693064
 10
252.1609272902
 20
16.4249160868
 10
253.0008131365
 20
16.4249160868
 10
253.0008131365
 20
16.2760488868
  0
HATCH
  5
294
100
AcDbEntity
  8
0
100
AcDbHatch
 62
2
  6
CONTINUOUS
 10
0.0
 20
0.0
 30
0.0
210
0.0
220
0.0
230
1.0
  2
SOLID
 70
1
 71
1
 91
1
 92
1
 93
6
 72
1
 10
253.0008131365
 20
16.2760488868
 11
253.0008131365
 21
16.1446560868
 72
1
 10
253.0008131365
 20
16.1446560868
 11
251.6768798735
 21
15.7996736415
 72
1
 10
251.6768798735
 20
15.7996736415
 11
251.8185823915
 21
16.1663693064
 72
1
 10
251.8185823915
 20
16.1663693064
 11
252.1609272902
 21
16.4249160868
 72
1
 10
252.1609272902
 20
16.4249160868
 11
253.0008131365
 21
16.4249160868
 72
1
 10
253.0008131365
 20
16.4249160868
 11
253.0008131365
 21
16.2760488868
 97
1
330
293
 75
0
 76
1
 98
1
 10
0.0
 20
0.0
  0
LWPOLYLINE
  5
295
100
AcDbEntity
  8
0
100
AcDbPolyline
 62
2
  6
CONTINUOUS
 90
13
 70
0
 10
255.4030133467
 20
15.9826031108
 10
255.3262264998
 20
15.8331418082
 10
255.2025553488
 20
15.7084443367
 10
255.186082282
 20
15.6966487652
 10
255.0277617393
 20
15.6193512868
 10
254.8577210855
 20
15.5932591116
 10
254.6886683179
 20
15.6193512868
 10
254.5333788168
 20
15.6962400335
 10
254.5216408071
 20
15.7047097411
 10
254.3990292504
 20
15.828830204
 10
254.322400757
 20
15.9796854106
 10
255.4290021113
 20
16.1446560868
 10
255.4030133467
 20
15.9826031108
  0
HATCH
  5
296
100
AcDbEntity
  8
0
100
AcDbHatch
 62
2
  6
CONTINUOUS
 10
0.0
 20
0.0
 30
0.0
210
0.0
220
0.0
230
1.0
  2
SOLID
 70
1
 71
1
 91
1
 92
1
 93
12
 72
1
 10
255.4030133467
 20
15.9826031108
 11
255.3262264998
 21
15.8331418082
 72
1
 10
255.3262264998
 20
15.8331418082
 11
255.2025553488
 21
15.7084443367
 72
1
 10
255.2025553488
 20
15.7084443367
 11
255.186082282
 21
15.6966487652
 72
1
 10
255.186082282
 20
15.6966487652
 11
255.0277617393
 21
15.6193512868
 72
1
 10
255.0277617393
 20
15.6193512868
 11
254.8577210855
 21
15.5932591116
 72
1
 10
254.8577210855
 20
15.5932591116
 11
254.6886683179
 21
15.6193512868
 72
1
 10
254.6886683179
 20
15.6193512868
 11
254.5333788168
 21
15.6962400335
 72
1
 10
254.5333788168
 20
15.6962400335
 11
254.5216408071
 21
15.7047097411
 72
1
 10
254.5216408071
 20
15.7047097411
 11
254.3990292504
 21
15.828830204
 72
1
 10
254.3990292504
 20
15.828830204
 11
254.322400757
 21
15.9796854106
 72
1
 10
254.322400757
 20
15.9796854106
 11
255.4290021113
 21
16.1446560868
 72
1
 10
255.4290021113
 20
16.1446560868
 11
255.4030133467
 21
15.9826031108
 97
1
330
295
 75
0
 76
1
 98
1
 10
0.0
 20
0.0
  0
LWPOLYLINE
  5
297
100
AcDbEntity
  8
0
100
AcDbPolyline
 62
2
  6
CONTINUOUS
 90
13
 70
0
 10
253.0275070267
 20
15.8323395089
 10
253.1068139436
 20
15.5307973706
 10
253.237192875
 20
15.2459281004
 10
253.4159117633
 20
14.9850893018
 10
253.6383386229
 20
14.7565471656
 10
250.4556712576
 20
14.5668192868
 10
250.7917377552
 20
14.7615072868
 10
251.096697622
 20
15.0059870805
 10
251.2384895038
 20
15.1489409451
 10
251.4822144736
 20
15.4580403019
 10
251.6768798735
 20
15.7996736415
 10
253.0008131365
 20
16.1446560868
 10
253.0275070267
 20
15.8323395089
  0
HATCH
  5
298
100
AcDbEntity
  8
0
100
AcDbHatch
 62
2
  6
CONTINUOUS
 10
0.0
 20
0.0
 30
0.0
210
0.0
220
0.0
230
1.0
  2
SOLID
 70
1
 71
1
 91
1
 92
1
 93
12
 72
1
 10
253.0275070267
 20
15.8323395089
 11
253.1068139436
 21
15.5307973706
 72
1
 10
253.1068139436
 20
15.5307973706
 11
253.237192875
 21
15.2459281004
 72
1
 10
253.237192875
 20
15.2459281004
 11
253.4159117633
 21
14.9850893018
 72
1
 10
253.4159117633
 20
14.9850893018
 11
253.6383386229
 21
14.7565471656
 72
1
 10
253.6383386229
 20
14.7565471656
 11
250.4556712576
 21
14.5668192868
 72
1
 10
250.4556712576
 20
14.5668192868
 11
250.7917377552
 21
14.7615072868
 72
1
 10
250.7917377552
 20
14.7615072868
 11
251.096697622
 21
15.0059870805
 72
1
 10
251.096697622
 20
15.0059870805
 11
251.2384895038
 21
15.1489409451
 72
1
 10
251.2384895038
 20
15.1489409451
 11
251.4822144736
 21
15.4580403019
 72
1
 10
251.4822144736
 20
15.4580403019
 11
251.6768798735
 21
15.7996736415
 72
1
 10
251.6768798735
 20
15.7996736415
 11
253.0008131365
 21
16.1446560868
 72
1
 10
253.0008131365
 20
16.1446560868
 11
253.0275070267
 21
15.8323395089
 97
1
330
297
 75
0
 76
1
 98
1
 10
0.0
 20
0.0
  0
LWPOLYLINE
  5
299
100
AcDbEntity
  8
0
100
AcDbPolyline
 62
2
  6
CONTINUOUS
 90
15
 70
0
 10
247.858685702
 20
14.7615072868
 10
248.194744671
 20
14.5668192868
 10
245.0471016852
 20
14.0149320868
 10
245.0471016852
 20
14.6371435057
 10
246.9735692326
 20
18.0976677811
 10
246.8318707549
 20
17.7309623756
 10
246.7456945048
 20
17.3460141724
 10
246.7166869073
 20
16.9486368868
 10
246.7456945048
 20
16.5512832218
 10
246.8318718054
 20
16.1663487824
 10
246.9735735794
 20
15.7996481549
 10
247.1682368871
 20
15.4580137829
 10
247.4119580123
 20
15.1489168423
 10
247.5537345207
 20
15.0059771128
 10
247.858685702
 20
14.7615072868
  0
HATCH
  5
29A
100
AcDbEntity
  8
0
100
AcDbHatch
 62
2
  6
CONTINUOUS
 10
0.0
 20
0.0
 30
0.0
210
0.0
220
0.0
230
1.0
  2
SOLID
 70
1
 71
1
 91
1
 92
1
 93
14
 72
1
 10
247.858685702
 20
14.7615072868
 11
248.194744671
 21
14.5668192868
 72
1
 10
248.194744671
 20
14.5668192868
 11
245.0471016852
 21
14.0149320868
 72
1
 10
245.0471016852
 20
14.0149320868
 11
245.0471016852
 21
14.6371435057
 72
1
 10
245.0471016852
 20
14.6371435057
 11
246.9735692326
 21
18.0976677811
 72
1
 10
246.9735692326
 20
18.0976677811
 11
246.8318707549
 21
17.7309623756
 72
1
 10
246.8318707549
 20
17.7309623756
 11
246.7456945048
 21
17.3460141724
 72
1
 10
246.7456945048
 20
17.3460141724
 11
246.7166869073
 21
16.9486368868
 72
1
 10
246.7166869073
 20
16.9486368868
 11
246.7456945048
 21
16.5512832218
 72
1
 10
246.7456945048
 20
16.5512832218
 11
246.8318718054
 21
16.1663487824
 72
1
 10
246.8318718054
 20
16.1663487824
 11
246.9735735794
 21
15.7996481549
 72
1
 10
246.9735735794
 20
15.7996481549
 11
247.1682368871
 21
15.4580137829
 72
1
 10
247.1682368871
 20
15.4580137829
 11
247.4119580123
 21
15.1489168423
 72
1
 10
247.4119580123
 20
15.1489168423
 11
247.5537345207
 21
15.0059771128
 72
1
 10
247.5537345207
 20
15.0059771128
 11
247.858685702
 21
14.7615072868
 97
1
330
299
 75
0
 76
1
 98
1
 10
0.0
 20
0.0
  0
LWPOLYLINE
  5
29B
100
AcDbEntity
  8
0
100
AcDbPolyline
 62
2
  6
CONTINUOUS
 90
26
 70
0
 10
253.6827887378
 20
14.7192695815
 10
253.9455555599
 20
14.5406473663
 10
254.2328304965
 20
14.4101853011
 10
254.5368664055
 20
14.3308032868
 10
254.8513261486
 20
14.3041027424
 10
255.1661041849
 20
14.3308032868
 10
255.4712575782
 20
14.4102752514
 10
255.7601639271
 20
14.5409814672
 10
256.0247418269
 20
14.7199485541
 10
256.07288731
 20
14.760197212
 10
256.2961255639
 20
14.9891822828
 10
256.4752842789
 20
15.2498839876
 10
258.9631657122
 20
14.0149320868
 10
258.9049797998
 20
13.7559912868
 10
245.2730317789
 20
13.5425728322
 10
245.1052875976
 20
13.7559912868
 10
245.0471016852
 20
14.0149320868
 10
248.194744671
 20
14.5668192868
 10
248.5550227396
 20
14.4253392868
 10
248.9334916615
 20
14.3393136868
 10
249.325209607
 20
14.3103229542
 10
249.7169204585
 20
14.3393136868
 10
250.0953887898
 20
14.4253392868
 10
250.4556712576
 20
14.5668192868
 10
253.6383386229
 20
14.7565471656
 10
253.6827887378
 20
14.7192695815
  0
HATCH
  5
29C
100
AcDbEntity
  8
0
100
AcDbHatch
 62
2
  6
CONTINUOUS
 10
0.0
 20
0.0
 30
0.0
210
0.0
220
0.0
230
1.0
  2
SOLID
 70
1
 71
1
 91
1
 92
1
 93
25
 72
1
 10
253.6827887378
 20
14.7192695815
 11
253.9455555599
 21
14.5406473663
 72
1
 10
253.9455555599
 20
14.5406473663
 11
254.2328304965
 21
14.4101853011
 72
1
 10
254.2328304965
 20
14.4101853011
 11
254.5368664055
 21
14.3308032868
 72
1
 10
254.5368664055
 20
14.3308032868
 11
254.8513261486
 21
14.3041027424
 72
1
 10
254.8513261486
 20
14.3041027424
 11
255.1661041849
 21
14.3308032868
 72
1
 10
255.1661041849
 20
14.3308032868
 11
255.4712575782
 21
14.4102752514
 72
1
 10
255.4712575782
 20
14.4102752514
 11
255.7601639271
 21
14.5409814672
 72
1
 10
255.7601639271
 20
14.5409814672
 11
256.0247418269
 21
14.7199485541
 72
1
 10
256.0247418269
 20
14.7199485541
 11
256.07288731
 21
14.760197212
 72
1
 10
256.07288731
 20
14.760197212
 11
256.2961255639
 21
14.9891822828
 72
1
 10
256.2961255639
 20
14.9891822828
 11
256.4752842789
 21
15.2498839876
 72
1
 10
256.4752842789
 20
15.2498839876
 11
258.9631657122
 21
14.0149320868
 72
1
 10
258.9631657122
 20
14.0149320868
 11
258.9049797998
 21
13.7559912868
 72
1
 10
258.9049797998
 20
13.7559912868
 11
245.2730317789
 21
13.5425728322
 72
1
 10
245.2730317789
 20
13.5425728322
 11
245.1052875976
 21
13.7559912868
 72
1
 10
245.1052875976
 20
13.7559912868
 11
245.0471016852
 21
14.0149320868
 72
1
 10
245.0471016852
 20
14.0149320868
 11
248.194744671
 21
14.5668192868
 72
1
 10
248.194744671
 20
14.5668192868
 11
248.5550227396
 21
14.4253392868
 72
1
 10
248.5550227396
 20
14.4253392868
 11
248.9334916615
 21
14.3393136868
 72
1
 10
248.9334916615
 20
14.3393136868
 11
249.325209607
 21
14.3103229542
 72
1
 10
249.325209607
 20
14.3103229542
 11
249.7169204585
 21
14.3393136868
 72
1
 10
249.7169204585
 20
14.3393136868
 11
250.0953887898
 21
14.4253392868
 72
1
 10
250.0953887898
 20
14.4253392868
 11
250.4556712576
 21
14.5668192868
 72
1
 10
250.4556712576
 20
14.5668192868
 11
253.6383386229
 21
14.7565471656
 72
1
 10
253.6383386229
 20
14.7565471656
 11
253.6827887378
 21
14.7192695815
 97
1
330
29B
 75
0
 76
1
 98
1
 10
0.0
 20
0.0
  0
LWPOLYLINE
  5
29D
100
AcDbEntity
  8
0
100
AcDbPolyline
 62
2
  6
CONTINUOUS
 90
9
 70
0
 10
258.8269233668
 20
13.6322605804
 10
258.6135025194
 20
13.4645136868
 10
258.3545634155
 20
13.4063304868
 10
257.0338820344
 20
13.4063304868
 10
245.6557039818
 20
13.4063304868
 10
245.396764878
 20
13.4645136868
 10
245.2730317789
 20
13.5425728322
 10
258.9049797998
 20
13.7559912868
 10
258.8269233668
 20
13.6322605804
  0
HATCH
  5
29E
100
AcDbEntity
  8
0
100
AcDbHatch
 62
2
  6
CONTINUOUS
 10
0.0
 20
0.0
 30
0.0
210
0.0
220
0.0
230
1.0
  2
SOLID
 70
1
 71
1
 91
1
 92
1
 93
8
 72
1
 10
258.8269233668
 20
13.6322605804
 11
258.6135025194
 21
13.4645136868
 72
1
 10
258.6135025194
 20
13.4645136868
 11
258.3545634155
 21
13.4063304868
 72
1
 10
258.3545634155
 20
13.4063304868
 11
257.0338820344
 21
13.4063304868
 72
1
 10
257.0338820344
 20
13.4063304868
 11
245.6557039818
 21
13.4063304868
 72
1
 10
245.6557039818
 20
13.4063304868
 11
245.396764878
 21
13.4645136868
 72
1
 10
245.396764878
 20
13.4645136868
 11
245.2730317789
 21
13.5425728322
 72
1
 10
245.2730317789
 20
13.5425728322
 11
258.9049797998
 21
13.7559912868
 72
1
 10
258.9049797998
 20
13.7559912868
 11
258.8269233668
 21
13.6322605804
 97
1
330
29D
 75
0
 76
1
 98
1
 10
0.0
 20
0.0
  0
ENDBLK
  5
29F
100
AcDbEntity
  8
0
  6
BYBLOCK
 62
0
100
AcDbBlockEnd
  0
BLOCK
  5
2A0
100
AcDbEntity
  8
93773508000_BL0
100
AcDbBlockBegin
  2
93773508000_BL0
 70
64
 10
130.1324541136
 20
42.7898270885
  3
93773508000_BL0
  1

  0
LINE
  5
2A1
100
AcDbEntity
  8
93773508000_BL0
100
AcDbLine
 62
7
  6
CONTINUOUS
 10
162.4365419542
 20
38.1958476354
 11
186.4365419542
 21
38.1958476354
  0
LINE
  5
2A2
100
AcDbEntity
  8
93773508000_BL0
100
AcDbLine
 62
9
  6
CONTINUOUS
 10
164.9365419542
 20
42.6958476354
 11
183.9365419542
 21
42.6958476354
  0
LINE
  5
2A3
100
AcDbEntity
  8
93773508000_BL0
100
AcDbLine
 62
7
  6
CONTINUOUS
 10
162.4365419542
 20
46.1958476354
 11
186.4365419542
 21
46.1958476354
  0
LINE
  5
2A4
100
AcDbEntity
  8
93773508000_BL0
100
AcDbLine
 62
7
  6
CENTER
 10
174.4365419542
 20
58.1958476354
 11
165.4365419542
 21
58.1958476354
  0
LINE
  5
2A5
100
AcDbEntity
  8
93773508000_BL0
100
AcDbLine
 62
7
  6
CENTER
 10
174.4365419542
 20
58.1958476354
 11
183.4365419542
 21
58.1958476354
  0
LINE
  5
2A6
100
AcDbEntity
  8
93773508000_BL0
100
AcDbLine
 62
7
  6
CONTINUOUS
 10
162.4365419542
 20
38.1958476354
 11
162.4365419542
 21
46.1958476354
  0
LINE
  5
2A7
100
AcDbEntity
  8
93773508000_BL0
100
AcDbLine
 62
7
  6
CONTINUOUS
 10
162.4365419542
 20
38.6647187613
 11
162.4365419542
 21
46.1958476354
  0
LINE
  5
2A8
100
AcDbEntity
  8
93773508000_BL0
100
AcDbLine
 62
9
  6
CONTINUOUS
 10
164.9365419542
 20
42.6958476354
 11
164.9365419542
 21
46.1958476354
  0
LINE
  5
2A9
100
AcDbEntity
  8
93773508000_BL0
100
AcDbLine
 62
7
  6
CENTER
 10
174.4365419542
 20
58.1958476354
 11
174.4365419542
 21
49.1958476354
  0
LINE
  5
2AA
100
AcDbEntity
  8
93773508000_BL0
100
AcDbLine
 62
7
  6
CENTER
 10
174.4365419542
 20
58.1958476354
 11
174.4365419542
 21
67.1958476354
  0
LINE
  5
2AB
100
AcDbEntity
  8
93773508000_BL0
100
AcDbLine
 62
9
  6
CONTINUOUS
 10
183.9365419542
 20
42.6958476354
 11
183.9365419542
 21
46.1958476354
  0
LINE
  5
2AC
100
AcDbEntity
  8
93773508000_BL0
100
AcDbLine
 62
7
  6
CONTINUOUS
 10
186.4365419542
 20
38.1958476354
 11
186.4365419542
 21
46.1958476354
  0
LINE
  5
2AD
100
AcDbEntity
  8
93773508000_BL0
100
AcDbLine
 62
7
  6
CONTINUOUS
 10
79.6649800458
 20
38.1958476354
 11
81.1649800458
 21
38.1958476354
  0
LINE
  5
2AE
100
AcDbEntity
  8
93773508000_BL0
100
AcDbLine
 62
7
  6
CONTINUOUS
 10
75.1649800458
 20
46.1958476354
 11
81.1649800458
 21
46.1958476354
  0
LINE
  5
2AF
100
AcDbEntity
  8
93773508000_BL0
100
AcDbLine
 62
7
  6
CENTER
 10
84.1649800458
 20
58.1958476354
 11
73.8283662731
 21
58.1958476354
  0
LINE
  5
2B0
100
AcDbEntity
  8
93773508000_BL0
100
AcDbLine
 62
7
  6
CONTINUOUS
 10
75.1649800458
 20
42.6958476354
 11
75.1649800458
 21
46.1958476354
  0
LINE
  5
2B1
100
AcDbEntity
  8
93773508000_BL0
100
AcDbLine
 62
7
  6
CONTINUOUS
 10
75.1649800458
 20
42.6958476354
 11
75.1649800458
 21
46.1958476354
  0
LINE
  5
2B2
100
AcDbEntity
  8
93773508000_BL0
100
AcDbLine
 62
9
  6
CONTINUOUS
 10
77.6649800458
 20
38.6647187613
 11
77.6649800458
 21
46.1958476354
  0
LINE
  5
2B3
100
AcDbEntity
  8
93773508000_BL0
100
AcDbLine
 62
7
  6
CONTINUOUS
 10
81.1649800458
 20
38.1958476354
 11
81.1649800458
 21
46.1958476354
  0
LINE
  5
2B4
100
AcDbEntity
  8
93773508000_BL0
100
AcDbLine
 62
7
  6
CONTINUOUS
 10
162.4365419542
 20
21.3838065416
 11
162.4365419542
 21
20.8838065416
  0
LINE
  5
2B5
100
AcDbEntity
  8
93773508000_BL0
100
AcDbLine
 62
7
  6
CONTINUOUS
 10
183.4365419542
 20
18.3838065416
 11
183.9365419542
 21
18.3838065416
  0
LINE
  5
2B6
100
AcDbEntity
  8
93773508000_BL0
100
AcDbLine
 62
7
  6
CONTINUOUS
 10
182.8365419542
 20
20.4838065416
 11
182.137901133
 21
20.4838065416
  0
LINE
  5
2B7
100
AcDbEntity
  8
93773508000_BL0
100
AcDbLine
 62
7
  6
CONTINUOUS
 10
182.8365419542
 20
20.4838065416
 11
184.3365419542
 21
21.9838065416
  0
LINE
  5
2B8
100
AcDbEntity
  8
93773508000_BL0
100
AcDbLine
 62
7
  6
CONTINUOUS
 10
184.4365419542
 20
24.3838065416
 11
182.4365419542
 21
24.3838065416
  0
LINE
  5
2B9
100
AcDbEntity
  8
93773508000_BL0
100
AcDbLine
 62
7
  6
CONTINUOUS
 10
184.3365419542
 20
24.3838065416
 11
184.3365419542
 21
21.9838065416
  0
LINE
  5
2BA
100
AcDbEntity
  8
93773508000_BL0
100
AcDbLine
 62
7
  6
CONTINUOUS
 10
186.4365419542
 20
20.8838065416
 11
186.4365419542
 21
21.3838065416
  0
ARC
  5
2BB
100
AcDbEntity
  8
93773508000_BL0
100
AcDbCircle
 62
7
  6
CONTINUOUS
 10
79.6649800458
 20
42.6958476354
 40
4.5
100
AcDbArc
 50
180.0
 51
270.0
  0
ARC
  5
2BC
100
AcDbEntity
  8
93773508000_BL0
100
AcDbCircle
 62
7
  6
CONTINUOUS
 10
183.9365419542
 20
20.8838065416
 40
2.5
100
AcDbArc
 50
270.0
 51
360.0
  0
ARC
  5
2BD
100
AcDbEntity
  8
93773508000_BL0
100
AcDbCircle
 62
7
  6
CONTINUOUS
 10
164.9365419542
 20
20.8838065416
 40
2.5
100
AcDbArc
 50
180.0
 51
258.4171838647
  0
SPLINE
  5
2BE
100
AcDbEntity
  8
93773508000_BL0
100
AcDbSpline
 62
7
  6
CONTINUOUS
 70
0
 71
3
 72
15
 73
11
 74
0
 42
0.0000001
 43
0.0000001
 44
0.0000000001
 40
0.0
 40
0.0
 40
0.0
 40
0.0
 40
0.2949059487
 40
0.4382402744
 40
0.5760880077
 40
0.7055877919
 40
0.8228100893
 40
0.9225680099
 40
0.9642475189
 40
1.0
 40
1.0
 40
1.0
 40
1.0
 10
183.9365419542
 20
42.6958476354
 30
0.0
 10
184.2173121794
 20
42.3191548496
 30
0.0
 10
184.6347283801
 20
41.7594933138
 30
0.0
 10
185.1723721883
 20
41.0156396045
 30
0.0
 10
185.5462614029
 20
40.4787138778
 30
0.0
 10
185.8819002267
 20
39.9658726597
 30
0.0
 10
186.1608585641
 20
39.489560284
 30
0.0
 10
186.3385317417
 20
39.1158229686
 30
0.0
 10
186.4199053012
 20
38.8449798621
 30
0.0
 10
186.4365419542
 20
38.7216764974
 30
0.0
 10
186.4365419542
 20
38.6647187613
 30
0.0
  0
SPLINE
  5
2BF
100
AcDbEntity
  8
93773508000_BL0
100
AcDbSpline
 62
7
  6
CONTINUOUS
 70
0
 71
3
 72
15
 73
11
 74
0
 42
0.0000001
 43
0.0000001
 44
0.0000000001
 40
0.0
 40
0.0
 40
0.0
 40
0.0
 40
0.035754175
 40
0.0774524355
 40
0.1772379426
 40
0.2944879652
 40
0.4240003305
 40
0.5618483148
 40
0.7051632096
 40
1.0
 40
1.0
 40
1.0
 40
1.0
 10
162.4365419542
 20
38.6647187613
 30
0.0
 10
162.4365419542
 20
38.7216792088
 30
0.0
 10
162.4532067064
 20
38.8450113567
 30
0.0
 10
162.5345547901
 20
39.1159403368
 30
0.0
 10
162.7123404163
 20
39.4897629784
 30
0.0
 10
162.9913504443
 20
39.9661655071
 30
0.0
 10
163.3270434917
 20
40.479050513
 30
0.0
 10
163.7009329592
 20
41.0159627563
 30
0.0
 10
164.2385049589
 20
41.7596952027
 30
0.0
 10
164.6558375083
 20
42.319243102
 30
0.0
 10
164.9365419542
 20
42.6958476354
 30
0.0
  0
ENDBLK
  5
2C0
100
AcDbEntity
  8
0
  6
BYBLOCK
 62
0
100
AcDbBlockEnd
  0
BLOCK
  5
2C1
100
AcDbEntity
  8
94862601L00_BL1
100
AcDbBlockBegin
  2
94862601L00_BL1
 70
64
 10
129.300761
 20
140.5398270885
  3
94862601L00_BL1
  1

  0
LINE
  5
2C2
100
AcDbEntity
  8
94862601L00_BL1
100
AcDbLine
 62
7
  6
CONTINUOUS
 10
183.9365419542
 20
46.1958476354
 11
164.9365419542
 21
46.1958476354
  0
LINE
  5
2C3
100
AcDbEntity
  8
94862601L00_BL1
100
AcDbLine
 62
7
  6
CONTINUOUS
 10
169.8115419542
 20
70.1958476354
 11
179.0615419542
 21
70.1958476354
  0
LINE
  5
2C4
100
AcDbEntity
  8
94862601L00_BL1
100
AcDbLine
 62
7
  6
CENTER
 10
174.4365419542
 20
101.1958476354
 11
166.4755892981
 21
101.1958476354
  0
LINE
  5
2C5
100
AcDbEntity
  8
94862601L00_BL1
100
AcDbLine
 62
7
  6
CENTER
 10
174.4365419542
 20
101.1958476354
 11
182.0031621475
 21
101.1958476354
  0
LINE
  5
2C6
100
AcDbEntity
  8
94862601L00_BL1
100
AcDbLine
 62
7
  6
CONTINUOUS
 10
178.4365419542
 20
216.3458476354
 11
176.2865419542
 21
214.1958476354
  0
LINE
  5
2C7
100
AcDbEntity
  8
94862601L00_BL1
100
AcDbLine
 62
7
  6
CONTINUOUS
 10
162.4365419542
 20
262.6958476354
 11
162.4365419542
 21
46.1958476354
  0
LINE
  5
2C8
100
AcDbEntity
  8
94862601L00_BL1
100
AcDbLine
 62
7
  6
CONTINUOUS
 10
179.0615419542
 20
132.1958476354
 11
169.8115419542
 21
132.1958476354
  0
LINE
  5
2C9
100
AcDbEntity
  8
94862601L00_BL1
100
AcDbLine
 62
7
  6
CONTINUOUS
 10
164.4365419542
 20
214.1958476354
 11
164.4365419542
 21
212.4308476354
  0
LINE
  5
2CA
100
AcDbEntity
  8
94862601L00_BL1
100
AcDbLine
 62
7
  6
CONTINUOUS
 10
164.4365419542
 20
172.2308476354
 11
164.4365419542
 21
170.1958476354
  0
LINE
  5
2CB
100
AcDbEntity
  8
94862601L00_BL1
100
AcDbLine
 62
9
  6
CONTINUOUS
 10
165.4365419542
 20
262.6958476354
 11
165.4365419542
 21
214.1958476354
  0
LINE
  5
2CC
100
AcDbEntity
  8
94862601L00_BL1
100
AcDbLine
 62
9
  6
CONTINUOUS
 10
165.4365419542
 20
170.1958476354
 11
165.4365419542
 21
46.1958476354
  0
LINE
  5
2CD
100
AcDbEntity
  8
94862601L00_BL1
100
AcDbLine
 62
7
  6
CONTINUOUS
 10
168.3115419542
 20
130.6958476354
 11
168.3115419542
 21
71.6958476354
  0
LINE
  5
2CE
100
AcDbEntity
  8
94862601L00_BL1
100
AcDbLine
 62
7
  6
CENTER
 10
174.4365419542
 20
149.1958476354
 11
174.4365419542
 21
140.7958476354
  0
LINE
  5
2CF
100
AcDbEntity
  8
94862601L00_BL1
100
AcDbLine
 62
7
  6
CENTER
 10
174.4365419542
 20
101.1958476354
 11
174.4365419542
 21
68.2008042418
  0
LINE
  5
2D0
100
AcDbEntity
  8
94862601L00_BL1
100
AcDbLine
 62
7
  6
CENTER
 10
174.4365419542
 20
101.1958476354
 11
174.4365419542
 21
135.3315258913
  0
LINE
  5
2D1
100
AcDbEntity
  8
94862601L00_BL1
100
AcDbLine
 62
7
  6
CENTER
 10
174.4365419542
 20
149.1958476354
 11
174.4365419542
 21
157.5958476354
  0
LINE
  5
2D2
100
AcDbEntity
  8
94862601L00_BL1
100
AcDbLine
 62
7
  6
CENTER
 10
174.4365419542
 20
149.1958476354
 11
166.0365419542
 21
149.1958476354
  0
LINE
  5
2D3
100
AcDbEntity
  8
94862601L00_BL1
100
AcDbLine
 62
7
  6
CENTER
 10
174.4365419542
 20
149.1958476354
 11
182.8365419542
 21
149.1958476354
  0
LINE
  5
2D4
100
AcDbEntity
  8
94862601L00_BL1
100
AcDbLine
 62
7
  6
CONTINUOUS
 10
180.5615419542
 20
71.6958476354
 11
180.5615419542
 21
130.6958476354
  0
LINE
  5
2D5
100
AcDbEntity
  8
94862601L00_BL1
100
AcDbLine
 62
9
  6
CONTINUOUS
 10
183.4365419542
 20
262.6958476354
 11
183.4365419542
 21
216.3458476354
  0
LINE
  5
2D6
100
AcDbEntity
  8
94862601L00_BL1
100
AcDbLine
 62
9
  6
CONTINUOUS
 10
183.4365419542
 20
168.0458476354
 11
183.4365419542
 21
46.1958476354
  0
LINE
  5
2D7
100
AcDbEntity
  8
94862601L00_BL1
100
AcDbLine
 62
7
  6
CONTINUOUS
 10
186.4365419542
 20
262.6958476354
 11
186.4365419542
 21
216.3458476354
  0
LINE
  5
2D8
100
AcDbEntity
  8
94862601L00_BL1
100
AcDbLine
 62
7
  6
CONTINUOUS
 10
186.4365419542
 20
168.0458476354
 11
186.4365419542
 21
46.1958476354
  0
LINE
  5
2D9
100
AcDbEntity
  8
94862601L00_BL1
100
AcDbLine
 62
7
  6
CONTINUOUS
 10
186.4365419542
 20
168.0458476354
 11
178.4365419542
 21
168.0458476354
  0
LINE
  5
2DA
100
AcDbEntity
  8
94862601L00_BL1
100
AcDbLine
 62
7
  6
CONTINUOUS
 10
164.4365419542
 20
170.1958476354
 11
176.2865419542
 21
170.1958476354
  0
LINE
  5
2DB
100
AcDbEntity
  8
94862601L00_BL1
100
AcDbLine
 62
7
  6
CONTINUOUS
 10
176.2865419542
 20
170.1958476354
 11
178.4365419542
 21
168.0458476354
  0
LINE
  5
2DC
100
AcDbEntity
  8
94862601L00_BL1
100
AcDbLine
 62
7
  6
CONTINUOUS
 10
164.4365419542
 20
214.1958476354
 11
176.2865419542
 21
214.1958476354
  0
LINE
  5
2DD
100
AcDbEntity
  8
94862601L00_BL1
100
AcDbLine
 62
7
  6
CONTINUOUS
 10
186.4365419542
 20
216.3458476354
 11
178.4365419542
 21
216.3458476354
  0
LINE
  5
2DE
100
AcDbEntity
  8
94862601L00_BL1
100
AcDbLine
 62
7
  6
CONTINUOUS
 10
183.9365419542
 20
262.6958476354
 11
164.9365419542
 21
262.6958476354
  0
LINE
  5
2DF
100
AcDbEntity
  8
94862601L00_BL1
100
AcDbLine
 62
7
  6
CONTINUOUS
 10
81.1649800458
 20
46.1958476354
 11
77.6649800458
 21
46.1958476354
  0
LINE
  5
2E0
100
AcDbEntity
  8
94862601L00_BL1
100
AcDbLine
 62
7
  6
CENTER
 10
84.1649800458
 20
101.1958476354
 11
72.1649800458
 21
101.1958476354
  0
LINE
  5
2E1
100
AcDbEntity
  8
94862601L00_BL1
100
AcDbLine
 62
7
  6
CONTINUOUS
 10
75.1649800458
 20
262.6958476354
 11
75.1649800458
 21
216.3458476354
  0
LINE
  5
2E2
100
AcDbEntity
  8
94862601L00_BL1
100
AcDbLine
 62
7
  6
CONTINUOUS
 10
75.1649800458
 20
168.3308476354
 11
75.1649800458
 21
46.1958476354
  0
LINE
  5
2E3
100
AcDbEntity
  8
94862601L00_BL1
100
AcDbLine
 62
9
  6
CONTINUOUS
 10
78.1649800458
 20
262.6958476354
 11
78.1649800458
 21
216.3458476354
  0
LINE
  5
2E4
100
AcDbEntity
  8
94862601L00_BL1
100
AcDbLine
 62
9
  6
CONTINUOUS
 10
78.1649800458
 20
168.0458476354
 11
78.1649800458
 21
46.1958476354
  0
LINE
  5
2E5
100
AcDbEntity
  8
94862601L00_BL1
100
AcDbLine
 62
7
  6
CONTINUOUS
 10
81.1649800458
 20
262.6958476354
 11
81.1649800458
 21
216.3458476354
  0
LINE
  5
2E6
100
AcDbEntity
  8
94862601L00_BL1
100
AcDbLine
 62
7
  6
CONTINUOUS
 10
81.1649800458
 20
168.0458476354
 11
81.1649800458
 21
46.1958476354
  0
LINE
  5
2E7
100
AcDbEntity
  8
94862601L00_BL1
100
AcDbLine
 62
7
  6
CONTINUOUS
 10
81.1649800458
 20
168.0458476354
 11
75.1649800458
 21
168.0458476354
  0
LINE
  5
2E8
100
AcDbEntity
  8
94862601L00_BL1
100
AcDbLine
 62
7
  6
CONTINUOUS
 10
81.1649800458
 20
216.3458476354
 11
75.1649800458
 21
216.3458476354
  0
LINE
  5
2E9
100
AcDbEntity
  8
94862601L00_BL1
100
AcDbLine
 62
7
  6
CONTINUOUS
 10
81.1649800458
 20
262.6958476354
 11
77.6649800458
 21
262.6958476354
  0
LINE
  5
2EA
100
AcDbEntity
  8
94862601L00_BL1
100
AcDbLine
 62
7
  6
CONTINUOUS
 10
162.4365419542
 20
21.3838065416
 11
162.4365419542
 21
24.3838065416
  0
LINE
  5
2EB
100
AcDbEntity
  8
94862601L00_BL1
100
AcDbLine
 62
7
  6
CONTINUOUS
 10
164.4365419542
 20
24.3838065416
 11
164.4365419542
 21
20.8838065416
  0
LINE
  5
2EC
100
AcDbEntity
  8
94862601L00_BL1
100
AcDbLine
 62
7
  6
CONTINUOUS
 10
183.4365419542
 20
18.3838065416
 11
165.4365419542
 21
18.3838065416
  0
LINE
  5
2ED
100
AcDbEntity
  8
94862601L00_BL1
100
AcDbLine
 62
7
  6
CONTINUOUS
 10
164.9365419542
 20
20.3838065416
 11
183.9365419542
 21
20.3838065416
  0
LINE
  5
2EE
100
AcDbEntity
  8
94862601L00_BL1
100
AcDbLine
 62
7
  6
CONTINUOUS
 10
162.4365419542
 20
24.3838065416
 11
164.4365419542
 21
24.3838065416
  0
LINE
  5
2EF
100
AcDbEntity
  8
94862601L00_BL1
100
AcDbLine
 62
7
  6
CONTINUOUS
 10
184.4365419542
 20
24.3838065416
 11
186.4365419542
 21
24.3838065416
  0
LINE
  5
2F0
100
AcDbEntity
  8
94862601L00_BL1
100
AcDbLine
 62
7
  6
CONTINUOUS
 10
184.4365419542
 20
20.8838065416
 11
184.4365419542
 21
24.3838065416
  0
LINE
  5
2F1
100
AcDbEntity
  8
94862601L00_BL1
100
AcDbLine
 62
7
  6
CONTINUOUS
 10
186.4365419542
 20
24.3838065416
 11
186.4365419542
 21
21.3838065416
  0
CIRCLE
  5
2F2
100
AcDbEntity
  8
94862601L00_BL1
100
AcDbCircle
 62
7
  6
CONTINUOUS
 10
174.4365419542
 20
58.1958476354
 40
4.15
  0
CIRCLE
  5
2F3
100
AcDbEntity
  8
94862601L00_BL1
100
AcDbCircle
 62
7
  6
CONTINUOUS
 10
174.4365419542
 20
58.1958476354
 40
2.6
  0
ARC
  5
2F4
100
AcDbEntity
  8
94862601L00_BL1
100
AcDbCircle
 62
7
  6
CONTINUOUS
 10
169.8115419542
 20
71.6958476354
 40
1.5
100
AcDbArc
 50
180.0
 51
270.0
  0
ARC
  5
2F5
100
AcDbEntity
  8
94862601L00_BL1
100
AcDbCircle
 62
7
  6
CONTINUOUS
 10
179.0615419542
 20
71.6958476354
 40
1.5
100
AcDbArc
 50
270.0
 51
360.0
  0
ARC
  5
2F6
100
AcDbEntity
  8
94862601L00_BL1
100
AcDbCircle
 62
7
  6
CONTINUOUS
 10
169.8115419542
 20
130.6958476354
 40
1.5
100
AcDbArc
 50
90.0
 51
180.0
  0
ARC
  5
2F7
100
AcDbEntity
  8
94862601L00_BL1
100
AcDbCircle
 62
7
  6
CONTINUOUS
 10
169.6219593919
 20
167.5708476354
 40
0.6
100
AcDbArc
 50
110.5378211489
 51
187.8756557814
  0
ARC
  5
2F8
100
AcDbEntity
  8
94862601L00_BL1
100
AcDbCircle
 62
7
  6
CONTINUOUS
 10
169.6219593919
 20
164.3208476354
 40
0.6
100
AcDbArc
 50
172.2213108203
 51
249.4668721243
  0
CIRCLE
  5
2F9
100
AcDbEntity
  8
94862601L00_BL1
100
AcDbCircle
 62
7
  6
CONTINUOUS
 10
174.4365419542
 20
149.1958476354
 40
4.15
  0
CIRCLE
  5
2FA
100
AcDbEntity
  8
94862601L00_BL1
100
AcDbCircle
 62
7
  6
CONTINUOUS
 10
174.4365419542
 20
149.1958476354
 40
2.6
  0
ARC
  5
2FB
100
AcDbEntity
  8
94862601L00_BL1
100
AcDbCircle
 62
7
  6
CONTINUOUS
 10
179.0615419542
 20
130.6958476354
 40
1.5
100
AcDbArc
 50
0.0
 51
90.0
  0
ARC
  5
2FC
100
AcDbEntity
  8
94862601L00_BL1
100
AcDbCircle
 62
7
  6
CONTINUOUS
 10
172.4365419542
 20
162.6958476354
 40
0.6
100
AcDbArc
 50
229.3102853808
 51
310.6446941035
  0
CIRCLE
  5
2FD
100
AcDbEntity
  8
94862601L00_BL1
100
AcDbCircle
 62
7
  6
CONTINUOUS
 10
172.4365419542
 20
165.9458476354
 40
3.9
  0
ARC
  5
2FE
100
AcDbEntity
  8
94862601L00_BL1
100
AcDbCircle
 62
7
  6
CONTINUOUS
 10
172.4365419542
 20
169.1958476354
 40
0.6
100
AcDbArc
 50
49.3102853808
 51
130.6446941035
  0
ARC
  5
2FF
100
AcDbEntity
  8
94862601L00_BL1
100
AcDbCircle
 62
7
  6
CONTINUOUS
 10
175.2511245165
 20
164.3208476354
 40
0.6
100
AcDbArc
 50
290.5378211489
 51
7.8756557814
  0
ARC
  5
300
100
AcDbEntity
  8
94862601L00_BL1
100
AcDbCircle
 62
7
  6
CONTINUOUS
 10
175.2511245165
 20
167.5708476354
 40
0.6
100
AcDbArc
 50
352.2213108203
 51
69.4668721243
  0
ARC
  5
301
100
AcDbEntity
  8
94862601L00_BL1
100
AcDbCircle
 62
7
  6
CONTINUOUS
 10
169.6219593919
 20
220.0708476354
 40
0.6
100
AcDbArc
 50
110.5378211489
 51
187.8756557814
  0
ARC
  5
302
100
AcDbEntity
  8
94862601L00_BL1
100
AcDbCircle
 62
7
  6
CONTINUOUS
 10
169.6219593919
 20
216.8208476354
 40
0.6
100
AcDbArc
 50
172.2213108203
 51
249.4668721243
  0
ARC
  5
303
100
AcDbEntity
  8
94862601L00_BL1
100
AcDbCircle
 62
7
  6
CONTINUOUS
 10
172.4365419542
 20
215.1958476354
 40
0.6
100
AcDbArc
 50
229.3102853808
 51
310.6446941035
  0
CIRCLE
  5
304
100
AcDbEntity
  8
94862601L00_BL1
100
AcDbCircle
 62
7
  6
CONTINUOUS
 10
172.4365419542
 20
218.4458476354
 40
3.9
  0
ARC
  5
305
100
AcDbEntity
  8
94862601L00_BL1
100
AcDbCircle
 62
7
  6
CONTINUOUS
 10
172.4365419542
 20
221.6958476354
 40
0.6
100
AcDbArc
 50
49.3102853808
 51
130.6446941035
  0
ARC
  5
306
100
AcDbEntity
  8
94862601L00_BL1
100
AcDbCircle
 62
7
  6
CONTINUOUS
 10
175.2511245165
 20
216.8208476354
 40
0.6
100
AcDbArc
 50
290.5378211489
 51
7.8756557814
  0
ARC
  5
307
100
AcDbEntity
  8
94862601L00_BL1
100
AcDbCircle
 62
7
  6
CONTINUOUS
 10
175.2511245165
 20
220.0708476354
 40
0.6
100
AcDbArc
 50
352.2213108203
 51
69.4668721243
  0
CIRCLE
  5
308
100
AcDbEntity
  8
94862601L00_BL1
100
AcDbCircle
 62
7
  6
CONTINUOUS
 10
174.4365419542
 20
250.6958476354
 40
4.15
  0
CIRCLE
  5
309
100
AcDbEntity
  8
94862601L00_BL1
100
AcDbCircle
 62
7
  6
CONTINUOUS
 10
174.4365419542
 20
250.6958476354
 40
2.6
  0
ARC
  5
30A
100
AcDbEntity
  8
94862601L00_BL1
100
AcDbCircle
 62
7
  6
CONTINUOUS
 10
165.4365419542
 20
21.3838065416
 40
3.0
100
AcDbArc
 50
180.0
 51
270.0
  0
ARC
  5
30B
100
AcDbEntity
  8
94862601L00_BL1
100
AcDbCircle
 62
7
  6
CONTINUOUS
 10
183.4365419542
 20
21.3838065416
 40
3.0
100
AcDbArc
 50
270.0
 51
360.0
  0
ARC
  5
30C
100
AcDbEntity
  8
94862601L00_BL1
100
AcDbCircle
 62
7
  6
CONTINUOUS
 10
164.9365419542
 20
20.8838065416
 40
0.5
100
AcDbArc
 50
180.0
 51
270.0
  0
ARC
  5
30D
100
AcDbEntity
  8
94862601L00_BL1
100
AcDbCircle
 62
7
  6
CONTINUOUS
 10
183.9365419542
 20
20.8838065416
 40
0.5
100
AcDbArc
 50
270.0
 51
360.0
  0
ENDBLK
  5
30E
100
AcDbEntity
  8
0
  6
BYBLOCK
 62
0
100
AcDbBlockEnd
  0
BLOCK
  5
30F
100
AcDbEntity
  8
93894203000_BL2
100
AcDbBlockBegin
  2
93894203000_BL2
 70
64
 10
129.300761
 20
118.3648270885
  3
93894203000_BL2
  1

  0
LINE
  5
310
100
AcDbEntity
  8
93894203000_BL2
100
AcDbLine
 62
7
  6
CONTINUOUS
 10
164.9365419542
 20
213.3308476354
 11
165.4365419542
 21
213.8308476354
  0
LINE
  5
311
100
AcDbEntity
  8
93894203000_BL2
100
AcDbLine
 62
7
  6
CONTINUOUS
 10
166.0365419542
 20
213.4308476354
 11
166.4365419542
 21
213.8308476354
  0
LINE
  5
312
100
AcDbEntity
  8
93894203000_BL2
100
AcDbLine
 62
7
  6
CONTINUOUS
 10
167.0365419542
 20
213.4308476354
 11
167.4365419542
 21
213.8308476354
  0
LINE
  5
313
100
AcDbEntity
  8
93894203000_BL2
100
AcDbLine
 62
7
  6
CONTINUOUS
 10
168.0365419542
 20
213.4308476354
 11
168.4365419542
 21
213.8308476354
  0
LINE
  5
314
100
AcDbEntity
  8
93894203000_BL2
100
AcDbLine
 62
7
  6
CONTINUOUS
 10
169.0365419542
 20
213.4308476354
 11
169.4365419542
 21
213.8308476354
  0
LINE
  5
315
100
AcDbEntity
  8
93894203000_BL2
100
AcDbLine
 62
7
  6
CONTINUOUS
 10
170.0365419542
 20
213.4308476354
 11
170.4365419542
 21
213.8308476354
  0
LINE
  5
316
100
AcDbEntity
  8
93894203000_BL2
100
AcDbLine
 62
7
  6
CONTINUOUS
 10
171.0365419542
 20
213.4308476354
 11
171.4365419542
 21
213.8308476354
  0
LINE
  5
317
100
AcDbEntity
  8
93894203000_BL2
100
AcDbLine
 62
7
  6
CONTINUOUS
 10
172.0365419542
 20
213.4308476354
 11
172.4365419542
 21
213.8308476354
  0
LINE
  5
318
100
AcDbEntity
  8
93894203000_BL2
100
AcDbLine
 62
7
  6
CONTINUOUS
 10
179.3015419542
 20
216.3458476354
 11
176.7865419542
 21
213.8308476354
  0
LINE
  5
319
100
AcDbEntity
  8
93894203000_BL2
100
AcDbLine
 62
7
  6
CONTINUOUS
 10
164.4365419542
 20
170.8308476354
 11
164.9365419542
 21
171.3308476354
  0
LINE
  5
31A
100
AcDbEntity
  8
93894203000_BL2
100
AcDbLine
 62
7
  6
CONTINUOUS
 10
165.4365419542
 20
170.8308476354
 11
165.8365419542
 21
171.2308476354
  0
LINE
  5
31B
100
AcDbEntity
  8
93894203000_BL2
100
AcDbLine
 62
7
  6
CONTINUOUS
 10
166.4365419542
 20
170.8308476354
 11
166.8365419542
 21
171.2308476354
  0
LINE
  5
31C
100
AcDbEntity
  8
93894203000_BL2
100
AcDbLine
 62
7
  6
CONTINUOUS
 10
167.4365419542
 20
170.8308476354
 11
167.8365419542
 21
171.2308476354
  0
LINE
  5
31D
100
AcDbEntity
  8
93894203000_BL2
100
AcDbLine
 62
7
  6
CONTINUOUS
 10
168.4365419542
 20
170.8308476354
 11
168.8365419542
 21
171.2308476354
  0
LINE
  5
31E
100
AcDbEntity
  8
93894203000_BL2
100
AcDbLine
 62
7
  6
CONTINUOUS
 10
169.4365419542
 20
170.8308476354
 11
169.8365419542
 21
171.2308476354
  0
LINE
  5
31F
100
AcDbEntity
  8
93894203000_BL2
100
AcDbLine
 62
7
  6
CONTINUOUS
 10
170.4365419542
 20
170.8308476354
 11
170.8365419542
 21
171.2308476354
  0
LINE
  5
320
100
AcDbEntity
  8
93894203000_BL2
100
AcDbLine
 62
7
  6
CONTINUOUS
 10
171.4365419542
 20
170.8308476354
 11
171.8365419542
 21
171.2308476354
  0
LINE
  5
321
100
AcDbEntity
  8
93894203000_BL2
100
AcDbLine
 62
7
  6
CONTINUOUS
 10
164.9365419542
 20
171.3308476354
 11
164.9365419542
 21
171.3687343468
  0
LINE
  5
322
100
AcDbEntity
  8
93894203000_BL2
100
AcDbLine
 62
7
  6
CONTINUOUS
 10
164.9365419542
 20
213.2929609241
 11
164.9365419542
 21
213.3308476354
  0
LINE
  5
323
100
AcDbEntity
  8
93894203000_BL2
100
AcDbLine
 62
7
  6
CONTINUOUS
 10
165.4365419542
 20
213.8308476354
 11
165.4365419542
 21
213.4308476354
  0
LINE
  5
324
100
AcDbEntity
  8
93894203000_BL2
100
AcDbLine
 62
7
  6
CONTINUOUS
 10
165.4365419542
 20
171.2308476354
 11
165.4365419542
 21
170.8308476354
  0
LINE
  5
325
100
AcDbEntity
  8
93894203000_BL2
100
AcDbLine
 62
7
  6
CONTINUOUS
 10
165.9365419542
 20
175.9186272321
 11
165.9365419542
 21
177.7430680388
  0
LINE
  5
326
100
AcDbEntity
  8
93894203000_BL2
100
AcDbLine
 62
7
  6
CONTINUOUS
 10
165.9365419542
 20
206.9186272321
 11
165.9365419542
 21
208.7430680388
  0
LINE
  5
327
100
AcDbEntity
  8
93894203000_BL2
100
AcDbLine
 62
7
  6
CONTINUOUS
 10
166.4365419542
 20
213.8308476354
 11
166.4365419542
 21
213.4308476354
  0
LINE
  5
328
100
AcDbEntity
  8
93894203000_BL2
100
AcDbLine
 62
7
  6
CONTINUOUS
 10
166.4365419542
 20
209.3098174563
 11
166.4365419542
 21
206.3518778145
  0
LINE
  5
329
100
AcDbEntity
  8
93894203000_BL2
100
AcDbLine
 62
7
  6
CONTINUOUS
 10
166.4365419542
 20
178.3098174563
 11
166.4365419542
 21
175.3518778145
  0
LINE
  5
32A
100
AcDbEntity
  8
93894203000_BL2
100
AcDbLine
 62
7
  6
CONTINUOUS
 10
166.4365419542
 20
171.2308476354
 11
166.4365419542
 21
170.8308476354
  0
LINE
  5
32B
100
AcDbEntity
  8
93894203000_BL2
100
AcDbLine
 62
7
  6
CONTINUOUS
 10
166.9365419542
 20
175.0889198728
 11
166.9365419542
 21
178.5727753981
  0
LINE
  5
32C
100
AcDbEntity
  8
93894203000_BL2
100
AcDbLine
 62
7
  6
CONTINUOUS
 10
166.9365419542
 20
206.0889198728
 11
166.9365419542
 21
209.5727753981
  0
LINE
  5
32D
100
AcDbEntity
  8
93894203000_BL2
100
AcDbLine
 62
7
  6
CONTINUOUS
 10
167.4365419542
 20
213.8308476354
 11
167.4365419542
 21
213.4308476354
  0
LINE
  5
32E
100
AcDbEntity
  8
93894203000_BL2
100
AcDbLine
 62
7
  6
CONTINUOUS
 10
167.4365419542
 20
209.6808476354
 11
167.4365419542
 21
205.9808476354
  0
LINE
  5
32F
100
AcDbEntity
  8
93894203000_BL2
100
AcDbLine
 62
7
  6
CONTINUOUS
 10
167.4365419542
 20
178.6808476354
 11
167.4365419542
 21
174.9808476354
  0
LINE
  5
330
100
AcDbEntity
  8
93894203000_BL2
100
AcDbLine
 62
7
  6
CONTINUOUS
 10
167.4365419542
 20
171.2308476354
 11
167.4365419542
 21
170.8308476354
  0
LINE
  5
331
100
AcDbEntity
  8
93894203000_BL2
100
AcDbLine
 62
7
  6
CONTINUOUS
 10
167.9365419542
 20
174.9808476354
 11
167.9365419542
 21
175.4841314883
  0
LINE
  5
332
100
AcDbEntity
  8
93894203000_BL2
100
AcDbLine
 62
7
  6
CONTINUOUS
 10
167.9365419542
 20
178.1775637826
 11
167.9365419542
 21
178.6808476354
  0
LINE
  5
333
100
AcDbEntity
  8
93894203000_BL2
100
AcDbLine
 62
7
  6
CONTINUOUS
 10
167.9365419542
 20
205.9808476354
 11
167.9365419542
 21
206.4841314883
  0
LINE
  5
334
100
AcDbEntity
  8
93894203000_BL2
100
AcDbLine
 62
7
  6
CONTINUOUS
 10
167.9365419542
 20
209.1775637826
 11
167.9365419542
 21
209.6808476354
  0
LINE
  5
335
100
AcDbEntity
  8
93894203000_BL2
100
AcDbLine
 62
7
  6
CONTINUOUS
 10
168.4365419542
 20
213.8308476354
 11
168.4365419542
 21
213.4308476354
  0
LINE
  5
336
100
AcDbEntity
  8
93894203000_BL2
100
AcDbLine
 62
7
  6
CONTINUOUS
 10
168.4365419542
 20
171.2308476354
 11
168.4365419542
 21
170.8308476354
  0
LINE
  5
337
100
AcDbEntity
  8
93894203000_BL2
100
AcDbLine
 62
7
  6
CONTINUOUS
 10
169.4365419542
 20
213.8308476354
 11
169.4365419542
 21
213.4308476354
  0
LINE
  5
338
100
AcDbEntity
  8
93894203000_BL2
100
AcDbLine
 62
7
  6
CONTINUOUS
 10
169.4365419542
 20
171.2308476354
 11
169.4365419542
 21
170.8308476354
  0
LINE
  5
339
100
AcDbEntity
  8
93894203000_BL2
100
AcDbLine
 62
7
  6
CONTINUOUS
 10
170.4365419542
 20
213.8308476354
 11
170.4365419542
 21
213.4308476354
  0
LINE
  5
33A
100
AcDbEntity
  8
93894203000_BL2
100
AcDbLine
 62
7
  6
CONTINUOUS
 10
170.4365419542
 20
171.2308476354
 11
170.4365419542
 21
170.8308476354
  0
LINE
  5
33B
100
AcDbEntity
  8
93894203000_BL2
100
AcDbLine
 62
7
  6
CONTINUOUS
 10
171.4365419542
 20
213.8308476354
 11
171.4365419542
 21
213.4308476354
  0
LINE
  5
33C
100
AcDbEntity
  8
93894203000_BL2
100
AcDbLine
 62
7
  6
CONTINUOUS
 10
171.4365419542
 20
171.2308476354
 11
171.4365419542
 21
170.8308476354
  0
LINE
  5
33D
100
AcDbEntity
  8
93894203000_BL2
100
AcDbLine
 62
7
  6
CONTINUOUS
 10
172.4365419542
 20
213.8308476354
 11
172.4365419542
 21
213.4308476354
  0
LINE
  5
33E
100
AcDbEntity
  8
93894203000_BL2
100
AcDbLine
 62
7
  6
CONTINUOUS
 10
172.4365419542
 20
171.2308476354
 11
172.4365419542
 21
170.8308476354
  0
LINE
  5
33F
100
AcDbEntity
  8
93894203000_BL2
100
AcDbLine
 62
7
  6
CONTINUOUS
 10
172.9365419542
 20
170.8308476354
 11
172.9365419542
 21
171.2308476354
  0
LINE
  5
340
100
AcDbEntity
  8
93894203000_BL2
100
AcDbLine
 62
7
  6
CONTINUOUS
 10
172.9365419542
 20
213.4308476354
 11
172.9365419542
 21
213.8308476354
  0
LINE
  5
341
100
AcDbEntity
  8
93894203000_BL2
100
AcDbLine
 62
9
  6
CONTINUOUS
 10
180.4365419542
 20
168.0458476354
 11
180.4365419542
 21
168.1808476354
  0
LINE
  5
342
100
AcDbEntity
  8
93894203000_BL2
100
AcDbLine
 62
7
  6
CONTINUOUS
 10
181.4365419542
 20
168.0458476354
 11
181.4365419542
 21
168.1808476354
  0
LINE
  5
343
100
AcDbEntity
  8
93894203000_BL2
100
AcDbLine
 62
7
  6
CONTINUOUS
 10
164.9365419542
 20
171.3308476354
 11
165.4365419542
 21
170.8308476354
  0
LINE
  5
344
100
AcDbEntity
  8
93894203000_BL2
100
AcDbLine
 62
7
  6
CONTINUOUS
 10
166.0365419542
 20
171.2308476354
 11
166.4365419542
 21
170.8308476354
  0
LINE
  5
345
100
AcDbEntity
  8
93894203000_BL2
100
AcDbLine
 62
7
  6
CONTINUOUS
 10
167.0365419542
 20
171.2308476354
 11
167.4365419542
 21
170.8308476354
  0
LINE
  5
346
100
AcDbEntity
  8
93894203000_BL2
100
AcDbLine
 62
7
  6
CONTINUOUS
 10
168.0365419542
 20
171.2308476354
 11
168.4365419542
 21
170.8308476354
  0
LINE
  5
347
100
AcDbEntity
  8
93894203000_BL2
100
AcDbLine
 62
7
  6
CONTINUOUS
 10
169.0365419542
 20
171.2308476354
 11
169.4365419542
 21
170.8308476354
  0
LINE
  5
348
100
AcDbEntity
  8
93894203000_BL2
100
AcDbLine
 62
7
  6
CONTINUOUS
 10
170.0365419542
 20
171.2308476354
 11
170.4365419542
 21
170.8308476354
  0
LINE
  5
349
100
AcDbEntity
  8
93894203000_BL2
100
AcDbLine
 62
7
  6
CONTINUOUS
 10
171.0365419542
 20
171.2308476354
 11
171.4365419542
 21
170.8308476354
  0
LINE
  5
34A
100
AcDbEntity
  8
93894203000_BL2
100
AcDbLine
 62
7
  6
CONTINUOUS
 10
172.0365419542
 20
171.2308476354
 11
172.4365419542
 21
170.8308476354
  0
LINE
  5
34B
100
AcDbEntity
  8
93894203000_BL2
100
AcDbLine
 62
7
  6
CONTINUOUS
 10
179.4365419542
 20
168.1808476354
 11
181.4365419542
 21
168.1808476354
  0
LINE
  5
34C
100
AcDbEntity
  8
93894203000_BL2
100
AcDbLine
 62
7
  6
CONTINUOUS
 10
176.7865419542
 20
170.8308476354
 11
164.4365419542
 21
170.8308476354
  0
LINE
  5
34D
100
AcDbEntity
  8
93894203000_BL2
100
AcDbLine
 62
7
  6
CONTINUOUS
 10
176.7865419542
 20
170.8308476354
 11
179.4365419542
 21
168.1808476354
  0
LINE
  5
34E
100
AcDbEntity
  8
93894203000_BL2
100
AcDbLine
 62
7
  6
CONTINUOUS
 10
164.4365419542
 20
213.8308476354
 11
164.9365419542
 21
213.3308476354
  0
LINE
  5
34F
100
AcDbEntity
  8
93894203000_BL2
100
AcDbLine
 62
7
  6
CONTINUOUS
 10
165.4365419542
 20
213.8308476354
 11
165.8365419542
 21
213.4308476354
  0
LINE
  5
350
100
AcDbEntity
  8
93894203000_BL2
100
AcDbLine
 62
7
  6
CONTINUOUS
 10
166.4365419542
 20
213.8308476354
 11
166.8365419542
 21
213.4308476354
  0
LINE
  5
351
100
AcDbEntity
  8
93894203000_BL2
100
AcDbLine
 62
7
  6
CONTINUOUS
 10
167.4365419542
 20
213.8308476354
 11
167.8365419542
 21
213.4308476354
  0
LINE
  5
352
100
AcDbEntity
  8
93894203000_BL2
100
AcDbLine
 62
7
  6
CONTINUOUS
 10
168.4365419542
 20
213.8308476354
 11
168.8365419542
 21
213.4308476354
  0
LINE
  5
353
100
AcDbEntity
  8
93894203000_BL2
100
AcDbLine
 62
7
  6
CONTINUOUS
 10
169.4365419542
 20
213.8308476354
 11
169.8365419542
 21
213.4308476354
  0
LINE
  5
354
100
AcDbEntity
  8
93894203000_BL2
100
AcDbLine
 62
7
  6
CONTINUOUS
 10
170.4365419542
 20
213.8308476354
 11
170.8365419542
 21
213.4308476354
  0
LINE
  5
355
100
AcDbEntity
  8
93894203000_BL2
100
AcDbLine
 62
7
  6
CONTINUOUS
 10
171.4365419542
 20
213.8308476354
 11
171.8365419542
 21
213.4308476354
  0
LINE
  5
356
100
AcDbEntity
  8
93894203000_BL2
100
AcDbLine
 62
7
  6
CONTINUOUS
 10
164.4365419542
 20
213.8308476354
 11
176.7865419542
 21
213.8308476354
  0
LINE
  5
357
100
AcDbEntity
  8
93894203000_BL2
100
AcDbLine
 62
7
  6
CONTINUOUS
 10
77.1649800458
 20
168.3308476354
 11
77.1649800458
 21
168.1808476354
  0
LINE
  5
358
100
AcDbEntity
  8
93894203000_BL2
100
AcDbLine
 62
7
  6
CONTINUOUS
 10
77.1649800458
 20
168.0458476354
 11
77.1649800458
 21
168.1808476354
  0
LINE
  5
359
100
AcDbEntity
  8
93894203000_BL2
100
AcDbLine
 62
9
  6
CONTINUOUS
 10
78.1649800458
 20
168.0458476354
 11
78.1649800458
 21
168.1808476354
  0
LINE
  5
35A
100
AcDbEntity
  8
93894203000_BL2
100
AcDbLine
 62
7
  6
CONTINUOUS
 10
81.1649800458
 20
168.3308476354
 11
81.1649800458
 21
168.0458476354
  0
LINE
  5
35B
100
AcDbEntity
  8
93894203000_BL2
100
AcDbLine
 62
7
  6
CONTINUOUS
 10
77.1649800458
 20
168.1808476354
 11
81.1649800458
 21
168.1808476354
  0
LINE
  5
35C
100
AcDbEntity
  8
93894203000_BL2
100
AcDbLine
 62
7
  6
CONTINUOUS
 10
181.4365419542
 20
24.3838065416
 11
181.4365419542
 21
21.3838065416
  0
LINE
  5
35D
100
AcDbEntity
  8
93894203000_BL2
100
AcDbLine
 62
7
  6
CONTINUOUS
 10
164.4365419542
 20
24.3838065416
 11
181.4365419542
 21
24.3838065416
  0
ARC
  5
35E
100
AcDbEntity
  8
93894203000_BL2
100
AcDbCircle
 62
7
  6
CONTINUOUS
 10
175.4365419542
 20
171.3308476354
 40
0.5
100
AcDbArc
 50
191.5504554011
 51
270.0
  0
ARC
  5
35F
100
AcDbEntity
  8
93894203000_BL2
100
AcDbCircle
 62
7
  6
CONTINUOUS
 10
175.4365419542
 20
213.3308476354
 40
0.5
100
AcDbArc
 50
90.0
 51
168.4495445989
  0
ARC
  5
360
100
AcDbEntity
  8
93894203000_BL2
100
AcDbCircle
 62
7
  6
CONTINUOUS
 10
180.4365419542
 20
21.3838065416
 40
1.0
100
AcDbArc
 50
270.0
 51
360.0
  0
SPLINE
  5
361
100
AcDbEntity
  8
93894203000_BL2
100
AcDbSpline
 62
7
  6
CONTINUOUS
 70
0
 71
3
 72
8
 73
4
 74
0
 42
0.0000001
 43
0.0000001
 44
0.0000000001
 40
0.0
 40
0.0
 40
0.0
 40
0.0
 40
1.0
 40
1.0
 40
1.0
 40
1.0
 10
173.1937400265
 20
213.4308941894
 30
0.0
 10
173.1981724844
 20
213.4615756848
 30
0.0
 10
173.2046591803
 20
213.4920457905
 30
0.0
 10
173.2133421444
 20
213.52180494
 30
0.0
  0
SPLINE
  5
362
100
AcDbEntity
  8
93894203000_BL2
100
AcDbSpline
 62
7
  6
CONTINUOUS
 70
0
 71
3
 72
11
 73
7
 74
0
 42
0.0000001
 43
0.0000001
 44
0.0000000001
 40
0.0
 40
0.0
 40
0.0
 40
0.0
 40
0.285237154
 40
0.5458190645
 40
0.781408194
 40
1.0
 40
1.0
 40
1.0
 40
1.0
 10
173.2133421444
 20
213.52180494
 30
0.0
 10
173.226118461
 20
213.5655932486
 30
0.0
 10
173.259789953
 20
213.6471516835
 30
0.0
 10
173.3361330604
 20
213.7481302199
 30
0.0
 10
173.4318304823
 20
213.8147448483
 30
0.0
 10
173.5051388946
 20
213.8308476354
 30
0.0
 10
173.5400953448
 20
213.8308476354
 30
0.0
  0
SPLINE
  5
363
100
AcDbEntity
  8
93894203000_BL2
100
AcDbSpline
 62
7
  6
CONTINUOUS
 70
0
 71
3
 72
11
 73
7
 74
0
 42
0.0000001
 43
0.0000001
 44
0.0000000001
 40
0.0
 40
0.0
 40
0.0
 40
0.0
 40
0.2134794794
 40
0.4481431783
 40
0.7118689424
 40
1.0
 40
1.0
 40
1.0
 40
1.0
 10
173.5400953448
 20
170.8308476354
 30
0.0
 10
173.4993301674
 20
170.8308476354
 30
0.0
 10
173.4128043237
 20
170.8532665756
 30
0.0
 10
173.3062634062
 20
170.9429767859
 30
0.0
 10
173.2287729908
 20
171.0741869035
 30
0.0
 10
173.2013825883
 20
171.177341237
 30
0.0
 10
173.1935953538
 20
171.2318077117
 30
0.0
  0
ENDBLK
  5
364
100
AcDbEntity
  8
0
  6
BYBLOCK
 62
0
100
AcDbBlockEnd
  0
BLOCK
  5
365
100
AcDbEntity
  8
93780800R00_BL3
100
AcDbBlockBegin
  2
93780800R00_BL3
 70
64
 10
170.4365419542
 20
207.8308476354
  3
93780800R00_BL3
  1

  0
LINE
  5
366
100
AcDbEntity
  8
93780800R00_BL3
100
AcDbLine
 62
7
  6
CONTINUOUS
 10
169.6453088468
 20
207.9220017528
 11
169.8642642029
 21
208.0614916987
  0
LINE
  5
367
100
AcDbEntity
  8
93780800R00_BL3
100
AcDbLine
 62
7
  6
CONTINUOUS
 10
171.2277750616
 20
207.7396935181
 11
171.0088197055
 21
207.6002035722
  0
LINE
  5
368
100
AcDbEntity
  8
93780800R00_BL3
100
AcDbLine
 62
7
  6
CONTINUOUS
 10
170.4365419542
 20
208.5870899556
 11
170.5276960716
 21
208.6220807429
  0
LINE
  5
369
100
AcDbEntity
  8
93780800R00_BL3
100
AcDbLine
 62
7
  6
CONTINUOUS
 10
170.4365419542
 20
207.0746053153
 11
170.3453878368
 21
207.039614528
  0
LINE
  5
36A
100
AcDbEntity
  8
93780800R00_BL3
100
AcDbLine
 62
7
  6
CONTINUOUS
 10
168.7481574434
 20
206.8106660439
 11
169.6453088468
 21
207.7396935181
  0
LINE
  5
36B
100
AcDbEntity
  8
93780800R00_BL3
100
AcDbLine
 62
7
  6
CONTINUOUS
 10
172.1249264649
 20
208.851029227
 11
171.2277750616
 21
207.9220017528
  0
LINE
  5
36C
100
AcDbEntity
  8
93780800R00_BL3
100
AcDbLine
 62
7
  6
CONTINUOUS
 10
170.5276960716
 20
208.6220807429
 11
171.4567235458
 21
209.5192321462
  0
LINE
  5
36D
100
AcDbEntity
  8
93780800R00_BL3
100
AcDbLine
 62
7
  6
CONTINUOUS
 10
170.3453878368
 20
207.039614528
 11
169.4163603626
 21
206.1424631247
  0
LINE
  5
36E
100
AcDbEntity
  8
93780800R00_BL3
100
AcDbLine
 62
7
  6
CONTINUOUS
 10
170.3453878368
 20
208.6220807429
 11
170.205897891
 21
208.4031253868
  0
LINE
  5
36F
100
AcDbEntity
  8
93780800R00_BL3
100
AcDbLine
 62
7
  6
CONTINUOUS
 10
170.5276960716
 20
207.039614528
 11
170.6671860174
 21
207.2585698841
  0
LINE
  5
370
100
AcDbEntity
  8
93780800R00_BL3
100
AcDbLine
 62
7
  6
CONTINUOUS
 10
169.6453088468
 20
207.7396935181
 11
169.6802996341
 21
207.8308476354
  0
LINE
  5
371
100
AcDbEntity
  8
93780800R00_BL3
100
AcDbLine
 62
7
  6
CONTINUOUS
 10
171.2277750616
 20
207.9220017528
 11
171.1927842743
 21
207.8308476354
  0
LINE
  5
372
100
AcDbEntity
  8
93780800R00_BL3
100
AcDbLine
 62
7
  6
CONTINUOUS
 10
170.4365419542
 20
208.5870899556
 11
170.4365419542
 21
208.3045693722
  0
LINE
  5
373
100
AcDbEntity
  8
93780800R00_BL3
100
AcDbLine
 62
7
  6
CONTINUOUS
 10
170.4365419542
 20
207.0746053153
 11
170.4365419542
 21
207.3571258987
  0
LINE
  5
374
100
AcDbEntity
  8
93780800R00_BL3
100
AcDbLine
 62
7
  6
CONTINUOUS
 10
169.6802996341
 20
207.8308476354
 11
169.6453088468
 21
207.9220017528
  0
LINE
  5
375
100
AcDbEntity
  8
93780800R00_BL3
100
AcDbLine
 62
7
  6
CONTINUOUS
 10
171.1927842743
 20
207.8308476354
 11
171.2277750616
 21
207.7396935181
  0
LINE
  5
376
100
AcDbEntity
  8
93780800R00_BL3
100
AcDbLine
 62
7
  6
CONTINUOUS
 10
170.3453878368
 20
207.039614528
 11
170.205897891
 21
207.2585698841
  0
LINE
  5
377
100
AcDbEntity
  8
93780800R00_BL3
100
AcDbLine
 62
7
  6
CONTINUOUS
 10
170.5276960716
 20
208.6220807429
 11
170.6671860174
 21
208.4031253868
  0
LINE
  5
378
100
AcDbEntity
  8
93780800R00_BL3
100
AcDbLine
 62
7
  6
CONTINUOUS
 10
171.4567235458
 20
206.1424631247
 11
170.5276960716
 21
207.039614528
  0
LINE
  5
379
100
AcDbEntity
  8
93780800R00_BL3
100
AcDbLine
 62
7
  6
CONTINUOUS
 10
169.6453088468
 20
207.9220017528
 11
168.7481574434
 21
208.851029227
  0
LINE
  5
37A
100
AcDbEntity
  8
93780800R00_BL3
100
AcDbLine
 62
7
  6
CONTINUOUS
 10
171.2277750616
 20
207.7396935181
 11
172.1249264649
 21
206.8106660439
  0
LINE
  5
37B
100
AcDbEntity
  8
93780800R00_BL3
100
AcDbLine
 62
7
  6
CONTINUOUS
 10
169.4163603626
 20
209.5192321462
 11
170.3453878368
 21
208.6220807429
  0
LINE
  5
37C
100
AcDbEntity
  8
93780800R00_BL3
100
AcDbLine
 62
7
  6
CONTINUOUS
 10
170.5276960716
 20
207.039614528
 11
170.4365419542
 21
207.0746053153
  0
LINE
  5
37D
100
AcDbEntity
  8
93780800R00_BL3
100
AcDbLine
 62
7
  6
CONTINUOUS
 10
170.3453878368
 20
208.6220807429
 11
170.4365419542
 21
208.5870899556
  0
LINE
  5
37E
100
AcDbEntity
  8
93780800R00_BL3
100
AcDbLine
 62
7
  6
CONTINUOUS
 10
169.6453088468
 20
207.7396935181
 11
169.8642642029
 21
207.6002035722
  0
LINE
  5
37F
100
AcDbEntity
  8
93780800R00_BL3
100
AcDbLine
 62
7
  6
CONTINUOUS
 10
171.2277750616
 20
207.9220017528
 11
171.0088197055
 21
208.0614916987
  0
LINE
  5
380
100
AcDbEntity
  8
93780800R00_BL3
100
AcDbLine
 62
7
  6
CONTINUOUS
 10
171.1927842743
 20
207.8308476354
 11
170.910263691
 21
207.8308476354
  0
LINE
  5
381
100
AcDbEntity
  8
93780800R00_BL3
100
AcDbLine
 62
7
  6
CONTINUOUS
 10
169.6802996341
 20
207.8308476354
 11
169.9628202174
 21
207.8308476354
  0
ARC
  5
382
100
AcDbEntity
  8
93780800R00_BL3
100
AcDbCircle
 62
7
  6
CONTINUOUS
 10
11.0072757124
 20
-47.043020978
 40
300.5261570477
100
AcDbArc
 50
58.0925201906
 51
58.2631633589
  0
ARC
  5
383
100
AcDbEntity
  8
93780800R00_BL3
100
AcDbCircle
 62
7
  6
CONTINUOUS
 10
-84.4373266354
 20
367.2601138624
 40
300.5261570196
100
AcDbArc
 50
328.0925201906
 51
328.2631633589
  0
ARC
  5
384
100
AcDbEntity
  8
93780800R00_BL3
100
AcDbCircle
 62
7
  6
CONTINUOUS
 10
425.3104105437
 20
48.4015814085
 40
300.5261570196
100
AcDbArc
 50
148.0925201906
 51
148.2631633589
  0
CIRCLE
  5
385
100
AcDbEntity
  8
93780800R00_BL3
100
AcDbCircle
 62
7
  6
CONTINUOUS
 10
170.4365419542
 20
207.8308476354
 40
2.85
  0
ARC
  5
386
100
AcDbEntity
  8
93780800R00_BL3
100
AcDbCircle
 62
9
  6
CONTINUOUS
 10
170.4365419542
 20
207.8308476354
 40
1.9726664026
100
AcDbArc
 50
301.1528667687
 51
328.8529794039
  0
ARC
  5
387
100
AcDbEntity
  8
93780800R00_BL3
100
AcDbCircle
 62
9
  6
CONTINUOUS
 10
170.4365419542
 20
207.8308476354
 40
1.9726664026
100
AcDbArc
 50
211.14168669
 51
238.8742098283
  0
ARC
  5
388
100
AcDbEntity
  8
93780800R00_BL3
100
AcDbCircle
 62
9
  6
CONTINUOUS
 10
170.4365419542
 20
207.8308476354
 40
1.9726664026
100
AcDbArc
 50
121.1402786404
 51
148.8739772222
  0
ARC
  5
389
100
AcDbEntity
  8
93780800R00_BL3
100
AcDbCircle
 62
9
  6
CONTINUOUS
 10
170.4365419542
 20
207.8308476354
 40
1.9726664026
100
AcDbArc
 50
31.1234299516
 51
58.8466423422
  0
ARC
  5
38A
100
AcDbEntity
  8
93780800R00_BL3
100
AcDbCircle
 62
9
  6
CONTINUOUS
 10
170.4365419542
 20
207.8308476354
 40
1.5251992218
100
AcDbArc
 50
297.9789520644
 51
332.0210479356
  0
ARC
  5
38B
100
AcDbEntity
  8
93780800R00_BL3
100
AcDbCircle
 62
9
  6
CONTINUOUS
 10
170.4365419542
 20
207.8308476354
 40
1.5251992218
100
AcDbArc
 50
207.9789520644
 51
242.0210479356
  0
ARC
  5
38C
100
AcDbEntity
  8
93780800R00_BL3
100
AcDbCircle
 62
9
  6
CONTINUOUS
 10
170.4365419542
 20
207.8308476354
 40
1.5251992218
100
AcDbArc
 50
117.9789520644
 51
152.0210479356
  0
ARC
  5
38D
100
AcDbEntity
  8
93780800R00_BL3
100
AcDbCircle
 62
9
  6
CONTINUOUS
 10
170.4365419542
 20
207.8308476354
 40
1.5251992218
100
AcDbArc
 50
27.9789520644
 51
62.0210479356
  0
ARC
  5
38E
100
AcDbEntity
  8
93780800R00_BL3
100
AcDbCircle
 62
7
  6
CONTINUOUS
 10
170.4365419542
 20
207.8308476354
 40
0.635
100
AcDbArc
 50
292.5578096573
 51
337.4421903427
  0
ARC
  5
38F
100
AcDbEntity
  8
93780800R00_BL3
100
AcDbCircle
 62
7
  6
CONTINUOUS
 10
170.4365419542
 20
207.8308476354
 40
0.635
100
AcDbArc
 50
22.5578096573
 51
67.4421903427
  0
ARC
  5
390
100
AcDbEntity
  8
93780800R00_BL3
100
AcDbCircle
 62
7
  6
CONTINUOUS
 10
170.4365419542
 20
207.8308476354
 40
0.635
100
AcDbArc
 50
202.5578096573
 51
247.4421903427
  0
ARC
  5
391
100
AcDbEntity
  8
93780800R00_BL3
100
AcDbCircle
 62
7
  6
CONTINUOUS
 10
170.4365419542
 20
207.8308476354
 40
0.635
100
AcDbArc
 50
112.5578096573
 51
157.4421903427
  0
ARC
  5
392
100
AcDbEntity
  8
93780800R00_BL3
100
AcDbCircle
 62
7
  6
CONTINUOUS
 10
329.8658081703
 20
462.7047162076
 40
300.5261569991
100
AcDbArc
 50
238.0925201906
 51
238.263163359
  0
SPLINE
  5
393
100
AcDbEntity
  8
93780800R00_BL3
100
AcDbSpline
 62
7
  6
CONTINUOUS
 70
0
 71
3
 72
9
 73
5
 74
0
 42
0.0000001
 43
0.0000001
 44
0.0000000001
 40
0.0
 40
0.0
 40
0.0
 40
0.0
 40
0.2494291971
 40
1.0
 40
1.0
 40
1.0
 40
1.0
 10
171.7834758854
 20
208.546390542
 30
0.0
 10
171.7202121013
 20
208.50720327
 30
0.0
 10
171.4665996541
 20
208.3500604647
 30
0.0
 10
171.2129949429
 20
208.1929038358
 30
0.0
 10
171.0229599753
 20
208.0744434164
 30
0.0
  0
LINE
  5
394
100
AcDbEntity
  8
93780800R00_BL3
100
AcDbLine
 62
7
  6
CONTINUOUS
 10
171.0229599753
 20
208.0744434164
 11
171.0088197055
 21
208.0614916987
  0
SPLINE
  5
395
100
AcDbEntity
  8
93780800R00_BL3
100
AcDbSpline
 62
7
  6
CONTINUOUS
 70
0
 71
3
 72
9
 73
5
 74
0
 42
0.0000001
 43
0.0000001
 44
0.0000000001
 40
0.0
 40
0.0
 40
0.0
 40
0.0
 40
0.2456562058
 40
1.0
 40
1.0
 40
1.0
 40
1.0
 10
171.0088197055
 20
208.0614916987
 30
0.0
 10
171.0005725798
 20
208.0426816498
 30
0.0
 10
170.9671295899
 20
207.9660551174
 30
0.0
 10
170.9343248926
 20
207.8891458574
 30
0.0
 10
170.910263691
 20
207.8308476354
 30
0.0
  0
SPLINE
  5
396
100
AcDbEntity
  8
93780800R00_BL3
100
AcDbSpline
 62
7
  6
CONTINUOUS
 70
0
 71
3
 72
9
 73
5
 74
0
 42
0.0000001
 43
0.0000001
 44
0.0000000001
 40
0.0
 40
0.0
 40
0.0
 40
0.0
 40
0.2546871947
 40
1.0
 40
1.0
 40
1.0
 40
1.0
 10
170.910263691
 20
207.8308476354
 30
0.0
 10
170.9183874409
 20
207.811164488
 30
0.0
 10
170.9505959226
 20
207.7340093231
 30
0.0
 10
170.9837981153
 20
207.6572728289
 30
0.0
 10
171.0088197055
 20
207.6002035722
 30
0.0
  0
LINE
  5
397
100
AcDbEntity
  8
93780800R00_BL3
100
AcDbLine
 62
7
  6
CONTINUOUS
 10
171.0088197055
 20
207.6002035722
 11
171.0229599753
 21
207.5872518545
  0
SPLINE
  5
398
100
AcDbEntity
  8
93780800R00_BL3
100
AcDbSpline
 62
7
  6
CONTINUOUS
 70
0
 71
3
 72
9
 73
5
 74
0
 42
0.0000001
 43
0.0000001
 44
0.0000000001
 40
0.0
 40
0.0
 40
0.0
 40
0.0
 40
0.2494291971
 40
1.0
 40
1.0
 40
1.0
 40
1.0
 10
169.089608023
 20
207.1153047289
 30
0.0
 10
169.1528718071
 20
207.1544920009
 30
0.0
 10
169.4064842542
 20
207.3116348062
 30
0.0
 10
169.6600889655
 20
207.4687914351
 30
0.0
 10
169.8501239331
 20
207.5872518545
 30
0.0
  0
LINE
  5
399
100
AcDbEntity
  8
93780800R00_BL3
100
AcDbLine
 62
7
  6
CONTINUOUS
 10
169.8501239331
 20
207.5872518545
 11
169.8642642029
 21
207.6002035722
  0
SPLINE
  5
39A
100
AcDbEntity
  8
93780800R00_BL3
100
AcDbSpline
 62
7
  6
CONTINUOUS
 70
0
 71
3
 72
9
 73
5
 74
0
 42
0.0000001
 43
0.0000001
 44
0.0000000001
 40
0.0
 40
0.0
 40
0.0
 40
0.0
 40
0.2456562058
 40
1.0
 40
1.0
 40
1.0
 40
1.0
 10
169.8642642029
 20
207.6002035722
 30
0.0
 10
169.8725113286
 20
207.6190136211
 30
0.0
 10
169.9059543184
 20
207.6956401535
 30
0.0
 10
169.9387590158
 20
207.7725494135
 30
0.0
 10
169.9628202174
 20
207.8308476354
 30
0.0
  0
SPLINE
  5
39B
100
AcDbEntity
  8
93780800R00_BL3
100
AcDbSpline
 62
7
  6
CONTINUOUS
 70
0
 71
3
 72
9
 73
5
 74
0
 42
0.0000001
 43
0.0000001
 44
0.0000000001
 40
0.0
 40
0.0
 40
0.0
 40
0.0
 40
0.2546871947
 40
1.0
 40
1.0
 40
1.0
 40
1.0
 10
169.9628202174
 20
207.8308476354
 30
0.0
 10
169.9546964674
 20
207.8505307829
 30
0.0
 10
169.9224879857
 20
207.9276859478
 30
0.0
 10
169.889285793
 20
208.004422442
 30
0.0
 10
169.8642642029
 20
208.0614916987
 30
0.0
  0
LINE
  5
39C
100
AcDbEntity
  8
93780800R00_BL3
100
AcDbLine
 62
7
  6
CONTINUOUS
 10
169.8642642029
 20
208.0614916987
 11
169.8501239331
 21
208.0744434164
  0
SPLINE
  5
39D
100
AcDbEntity
  8
93780800R00_BL3
100
AcDbSpline
 62
7
  6
CONTINUOUS
 70
0
 71
3
 72
9
 73
5
 74
0
 42
0.0000001
 43
0.0000001
 44
0.0000000001
 40
0.0
 40
0.0
 40
0.0
 40
0.0
 40
0.2494291971
 40
1.0
 40
1.0
 40
1.0
 40
1.0
 10
171.1520848607
 20
206.4839137042
 30
0.0
 10
171.1128975887
 20
206.5471774883
 30
0.0
 10
170.9557547835
 20
206.8007899355
 30
0.0
 10
170.7985981545
 20
207.0543946468
 30
0.0
 10
170.6801377351
 20
207.2444296143
 30
0.0
  0
LINE
  5
39E
100
AcDbEntity
  8
93780800R00_BL3
100
AcDbLine
 62
7
  6
CONTINUOUS
 10
170.6801377351
 20
207.2444296143
 11
170.6671860174
 21
207.2585698841
  0
SPLINE
  5
39F
100
AcDbEntity
  8
93780800R00_BL3
100
AcDbSpline
 62
7
  6
CONTINUOUS
 70
0
 71
3
 72
9
 73
5
 74
0
 42
0.0000001
 43
0.0000001
 44
0.0000000001
 40
0.0
 40
0.0
 40
0.0
 40
0.0
 40
0.2456562051
 40
1.0
 40
1.0
 40
1.0
 40
1.0
 10
170.6671860174
 20
207.2585698841
 30
0.0
 10
170.6483759685
 20
207.2668170098
 30
0.0
 10
170.5717494362
 20
207.3002599997
 30
0.0
 10
170.4948401762
 20
207.333064697
 30
0.0
 10
170.4365419542
 20
207.3571258987
 30
0.0
  0
SPLINE
  5
3A0
100
AcDbEntity
  8
93780800R00_BL3
100
AcDbSpline
 62
7
  6
CONTINUOUS
 70
0
 71
3
 72
9
 73
5
 74
0
 42
0.0000001
 43
0.0000001
 44
0.0000000001
 40
0.0
 40
0.0
 40
0.0
 40
0.0
 40
0.2546871958
 40
1.0
 40
1.0
 40
1.0
 40
1.0
 10
170.4365419542
 20
207.3571258987
 30
0.0
 10
170.4168588067
 20
207.3490021486
 30
0.0
 10
170.3397036417
 20
207.316793667
 30
0.0
 10
170.2629671476
 20
207.2835914742
 30
0.0
 10
170.205897891
 20
207.2585698841
 30
0.0
  0
LINE
  5
3A1
100
AcDbEntity
  8
93780800R00_BL3
100
AcDbLine
 62
7
  6
CONTINUOUS
 10
170.205897891
 20
207.2585698841
 11
170.1929461732
 21
207.2444296143
  0
SPLINE
  5
3A2
100
AcDbEntity
  8
93780800R00_BL3
100
AcDbSpline
 62
7
  6
CONTINUOUS
 70
0
 71
3
 72
9
 73
5
 74
0
 42
0.0000001
 43
0.0000001
 44
0.0000000001
 40
0.0
 40
0.0
 40
0.0
 40
0.0
 40
0.2494291971
 40
1.0
 40
1.0
 40
1.0
 40
1.0
 10
169.7209990476
 20
209.1777815667
 30
0.0
 10
169.7601863196
 20
209.1145177826
 30
0.0
 10
169.9173291249
 20
208.8609053354
 30
0.0
 10
170.0744857538
 20
208.6073006241
 30
0.0
 10
170.1929461732
 20
208.4172656566
 30
0.0
  0
LINE
  5
3A3
100
AcDbEntity
  8
93780800R00_BL3
100
AcDbLine
 62
7
  6
CONTINUOUS
 10
170.1929461732
 20
208.4172656566
 11
170.205897891
 21
208.4031253868
  0
SPLINE
  5
3A4
100
AcDbEntity
  8
93780800R00_BL3
100
AcDbSpline
 62
7
  6
CONTINUOUS
 70
0
 71
3
 72
9
 73
5
 74
0
 42
0.0000001
 43
0.0000001
 44
0.0000000001
 40
0.0
 40
0.0
 40
0.0
 40
0.0
 40
0.2456562051
 40
1.0
 40
1.0
 40
1.0
 40
1.0
 10
170.205897891
 20
208.4031253868
 30
0.0
 10
170.2247079398
 20
208.3948782611
 30
0.0
 10
170.3013344722
 20
208.3614352712
 30
0.0
 10
170.3782437322
 20
208.3286305739
 30
0.0
 10
170.4365419542
 20
208.3045693722
 30
0.0
  0
SPLINE
  5
3A5
100
AcDbEntity
  8
93780800R00_BL3
100
AcDbSpline
 62
7
  6
CONTINUOUS
 70
0
 71
3
 72
9
 73
5
 74
0
 42
0.0000001
 43
0.0000001
 44
0.0000000001
 40
0.0
 40
0.0
 40
0.0
 40
0.0
 40
0.2546871958
 40
1.0
 40
1.0
 40
1.0
 40
1.0
 10
170.4365419542
 20
208.3045693722
 30
0.0
 10
170.4562251017
 20
208.3126931222
 30
0.0
 10
170.5333802666
 20
208.3449016039
 30
0.0
 10
170.6101167608
 20
208.3781037966
 30
0.0
 10
170.6671860174
 20
208.4031253868
 30
0.0
  0
LINE
  5
3A6
100
AcDbEntity
  8
93780800R00_BL3
100
AcDbLine
 62
7
  6
CONTINUOUS
 10
170.6671860174
 20
208.4031253868
 11
170.6801377351
 21
208.4172656566
  0
SPLINE
  5
3A7
100
AcDbEntity
  8
93780800R00_BL3
100
AcDbSpline
 62
7
  6
CONTINUOUS
 70
0
 71
3
 72
10
 73
6
 74
0
 42
0.0000001
 43
0.0000001
 44
0.0000000001
 40
0.0
 40
0.0
 40
0.0
 40
0.0
 40
0.1744823037
 40
0.4139756216
 40
1.0
 40
1.0
 40
1.0
 40
1.0
 10
171.7834758854
 20
207.1153047289
 30
0.0
 10
171.806134712
 20
207.1012692485
 30
0.0
 10
171.8566686063
 20
207.0629541134
 30
0.0
 10
171.9726775323
 20
206.9636173747
 30
0.0
 10
172.0627405135
 20
206.8750614817
 30
0.0
 10
172.1249264649
 20
206.8106660439
 30
0.0
  0
SPLINE
  5
3A8
100
AcDbEntity
  8
93780800R00_BL3
100
AcDbSpline
 62
7
  6
CONTINUOUS
 70
0
 71
3
 72
10
 73
6
 74
0
 42
0.0000001
 43
0.0000001
 44
0.0000000001
 40
0.0
 40
0.0
 40
0.0
 40
0.0
 40
0.5860290742
 40
0.8255203224
 40
1.0
 40
1.0
 40
1.0
 40
1.0
 10
171.4567235458
 20
206.1424631247
 30
0.0
 10
171.3923275904
 20
206.204649576
 30
0.0
 10
171.303771582
 20
206.2947129861
 30
0.0
 10
171.2044345653
 20
206.4107217023
 30
0.0
 10
171.1661201302
 20
206.4612552181
 30
0.0
 10
171.1520848607
 20
206.4839137042
 30
0.0
  0
SPLINE
  5
3A9
100
AcDbEntity
  8
93780800R00_BL3
100
AcDbSpline
 62
7
  6
CONTINUOUS
 70
0
 71
3
 72
10
 73
6
 74
0
 42
0.0000001
 43
0.0000001
 44
0.0000000001
 40
0.0
 40
0.0
 40
0.0
 40
0.0
 40
0.1744823037
 40
0.4139756216
 40
1.0
 40
1.0
 40
1.0
 40
1.0
 10
169.7209990476
 20
206.4839137042
 30
0.0
 10
169.7069635672
 20
206.4612548776
 30
0.0
 10
169.6686484321
 20
206.4107209833
 30
0.0
 10
169.5693116935
 20
206.2947120574
 30
0.0
 10
169.4807558004
 20
206.2046490762
 30
0.0
 10
169.4163603626
 20
206.1424631247
 30
0.0
  0
SPLINE
  5
3AA
100
AcDbEntity
  8
93780800R00_BL3
100
AcDbSpline
 62
7
  6
CONTINUOUS
 70
0
 71
3
 72
10
 73
6
 74
0
 42
0.0000001
 43
0.0000001
 44
0.0000000001
 40
0.0
 40
0.0
 40
0.0
 40
0.0
 40
0.5860290742
 40
0.8255203224
 40
1.0
 40
1.0
 40
1.0
 40
1.0
 10
168.7481574434
 20
206.8106660439
 30
0.0
 10
168.8103438947
 20
206.8750619992
 30
0.0
 10
168.9004073048
 20
206.9636180077
 30
0.0
 10
169.016416021
 20
207.0629550243
 30
0.0
 10
169.0669495368
 20
207.1012694594
 30
0.0
 10
169.089608023
 20
207.1153047289
 30
0.0
  0
SPLINE
  5
3AB
100
AcDbEntity
  8
93780800R00_BL3
100
AcDbSpline
 62
7
  6
CONTINUOUS
 70
0
 71
3
 72
10
 73
6
 74
0
 42
0.0000001
 43
0.0000001
 44
0.0000000001
 40
0.0
 40
0.0
 40
0.0
 40
0.0
 40
0.1744823037
 40
0.4139756216
 40
1.0
 40
1.0
 40
1.0
 40
1.0
 10
169.089608023
 20
208.546390542
 30
0.0
 10
169.0669491963
 20
208.5604260224
 30
0.0
 10
169.016415302
 20
208.5987411575
 30
0.0
 10
168.9004063761
 20
208.6980778962
 30
0.0
 10
168.8103433949
 20
208.7866337892
 30
0.0
 10
168.7481574434
 20
208.851029227
 30
0.0
  0
SPLINE
  5
3AC
100
AcDbEntity
  8
93780800R00_BL3
100
AcDbSpline
 62
7
  6
CONTINUOUS
 70
0
 71
3
 72
10
 73
6
 74
0
 42
0.0000001
 43
0.0000001
 44
0.0000000001
 40
0.0
 40
0.0
 40
0.0
 40
0.0
 40
0.5860290742
 40
0.8255203224
 40
1.0
 40
1.0
 40
1.0
 40
1.0
 10
169.4163603626
 20
209.5192321462
 30
0.0
 10
169.480756318
 20
209.4570456949
 30
0.0
 10
169.5693123264
 20
209.3669822848
 30
0.0
 10
169.6686493431
 20
209.2509735686
 30
0.0
 10
169.7069637781
 20
209.2004400528
 30
0.0
 10
169.7209990476
 20
209.1777815667
 30
0.0
  0
SPLINE
  5
3AD
100
AcDbEntity
  8
93780800R00_BL3
100
AcDbSpline
 62
7
  6
CONTINUOUS
 70
0
 71
3
 72
10
 73
6
 74
0
 42
0.0000001
 43
0.0000001
 44
0.0000000001
 40
0.0
 40
0.0
 40
0.0
 40
0.0
 40
0.1744823037
 40
0.4139756216
 40
1.0
 40
1.0
 40
1.0
 40
1.0
 10
171.1520848607
 20
209.1777815667
 30
0.0
 10
171.1661203411
 20
209.2004403933
 30
0.0
 10
171.2044354762
 20
209.2509742876
 30
0.0
 10
171.3037722149
 20
209.3669832135
 30
0.0
 10
171.392328108
 20
209.4570461947
 30
0.0
 10
171.4567235458
 20
209.5192321462
 30
0.0
  0
SPLINE
  5
3AE
100
AcDbEntity
  8
93780800R00_BL3
100
AcDbSpline
 62
7
  6
CONTINUOUS
 70
0
 71
3
 72
10
 73
6
 74
0
 42
0.0000001
 43
0.0000001
 44
0.0000000001
 40
0.0
 40
0.0
 40
0.0
 40
0.0
 40
0.5860290742
 40
0.8255203224
 40
1.0
 40
1.0
 40
1.0
 40
1.0
 10
172.1249264649
 20
208.851029227
 30
0.0
 10
172.0627400137
 20
208.7866332717
 30
0.0
 10
171.9726766036
 20
208.6980772632
 30
0.0
 10
171.8566678873
 20
208.5987402466
 30
0.0
 10
171.8061343715
 20
208.5604258115
 30
0.0
 10
171.7834758854
 20
208.546390542
 30
0.0
  0
ENDBLK
  5
3AF
100
AcDbEntity
  8
0
  6
BYBLOCK
 62
0
100
AcDbBlockEnd
  0
BLOCK
  5
3B0
100
AcDbEntity
  8
93894102000_BL4
100
AcDbBlockBegin
  2
93894102000_BL4
 70
64
 10
128.300761
 20
116.8573270885
  3
93894102000_BL4
  1

  0
LINE
  5
3B1
100
AcDbEntity
  8
93894102000_BL4
100
AcDbLine
 62
7
  6
CONTINUOUS
 10
177.2365419542
 20
214.0308476354
 11
176.929435173
 21
213.7237408543
  0
LINE
  5
3B2
100
AcDbEntity
  8
93894102000_BL4
100
AcDbLine
 62
7
  6
CONTINUOUS
 10
177.2365419542
 20
214.0308476354
 11
178.9365419542
 21
215.7308476354
  0
LINE
  5
3B3
100
AcDbEntity
  8
93894102000_BL4
100
AcDbLine
 62
7
  6
CONTINUOUS
 10
178.9365419542
 20
215.7308476354
 11
179.5365419542
 21
216.3308476354
  0
LINE
  5
3B4
100
AcDbEntity
  8
93894102000_BL4
100
AcDbLine
 62
7
  6
CONTINUOUS
 10
164.4365419542
 20
212.4308476354
 11
164.4365419542
 21
172.2308476354
  0
LINE
  5
3B5
100
AcDbEntity
  8
93894102000_BL4
100
AcDbLine
 62
7
  6
CONTINUOUS
 10
165.9268459553
 20
193.6789178101
 11
165.9268459553
 21
192.9912431051
  0
LINE
  5
3B6
100
AcDbEntity
  8
93894102000_BL4
100
AcDbLine
 62
4
  6
CONTINUOUS
 10
165.9268459553
 20
193.6789178101
 11
165.9268459553
 21
192.9912431051
  0
LINE
  5
3B7
100
AcDbEntity
  8
93894102000_BL4
100
AcDbLine
 62
7
  6
CONTINUOUS
 10
165.9268459553
 20
192.0681443653
 11
165.9268459553
 21
191.5569542594
  0
LINE
  5
3B8
100
AcDbEntity
  8
93894102000_BL4
100
AcDbLine
 62
4
  6
CONTINUOUS
 10
165.9268459553
 20
192.0681443653
 11
165.9268459553
 21
191.5569542594
  0
LINE
  5
3B9
100
AcDbEntity
  8
93894102000_BL4
100
AcDbLine
 62
7
  6
CONTINUOUS
 10
166.5372738258
 20
191.5569542594
 11
166.5372738261
 21
192.0681443653
  0
LINE
  5
3BA
100
AcDbEntity
  8
93894102000_BL4
100
AcDbLine
 62
4
  6
CONTINUOUS
 10
166.5372738258
 20
191.5569542594
 11
166.5372738261
 21
192.0681443653
  0
LINE
  5
3BB
100
AcDbEntity
  8
93894102000_BL4
100
AcDbLine
 62
7
  6
CONTINUOUS
 10
166.5372738261
 20
192.20384983
 11
166.5372738261
 21
193.6789178101
  0
LINE
  5
3BC
100
AcDbEntity
  8
93894102000_BL4
100
AcDbLine
 62
4
  6
CONTINUOUS
 10
166.5372738261
 20
192.20384983
 11
166.5372738261
 21
193.6789178101
  0
LINE
  5
3BD
100
AcDbEntity
  8
93894102000_BL4
100
AcDbLine
 62
9
  6
CONTINUOUS
 10
167.5365419542
 20
179.6808476354
 11
167.5365419542
 21
178.6808476354
  0
LINE
  5
3BE
100
AcDbEntity
  8
93894102000_BL4
100
AcDbLine
 62
9
  6
CONTINUOUS
 10
167.5365419542
 20
173.9808476354
 11
167.5365419542
 21
174.9808476354
  0
LINE
  5
3BF
100
AcDbEntity
  8
93894102000_BL4
100
AcDbLine
 62
9
  6
CONTINUOUS
 10
167.5365419542
 20
204.9808476354
 11
167.5365419542
 21
205.9808476354
  0
LINE
  5
3C0
100
AcDbEntity
  8
93894102000_BL4
100
AcDbLine
 62
9
  6
CONTINUOUS
 10
167.5365419542
 20
209.6808476354
 11
167.5365419542
 21
210.6808476354
  0
LINE
  5
3C1
100
AcDbEntity
  8
93894102000_BL4
100
AcDbLine
 62
7
  6
CONTINUOUS
 10
167.6854595827
 20
189.3942955174
 11
167.6854595827
 21
190.1500633574
  0
LINE
  5
3C2
100
AcDbEntity
  8
93894102000_BL4
100
AcDbLine
 62
4
  6
CONTINUOUS
 10
167.6854595827
 20
189.3942955174
 11
167.6854595827
 21
190.1500633574
  0
LINE
  5
3C3
100
AcDbEntity
  8
93894102000_BL4
100
AcDbLine
 62
7
  6
CONTINUOUS
 10
167.6854595827
 20
190.8011864196
 11
167.6854595827
 21
191.5569542594
  0
LINE
  5
3C4
100
AcDbEntity
  8
93894102000_BL4
100
AcDbLine
 62
4
  6
CONTINUOUS
 10
167.6854595827
 20
190.8011864196
 11
167.6854595827
 21
191.5569542594
  0
LINE
  5
3C5
100
AcDbEntity
  8
93894102000_BL4
100
AcDbLine
 62
7
  6
CONTINUOUS
 10
173.2365419542
 20
213.4308476354
 11
173.2365419542
 21
211.8308476354
  0
LINE
  5
3C6
100
AcDbEntity
  8
93894102000_BL4
100
AcDbLine
 62
7
  6
CONTINUOUS
 10
173.2365419542
 20
211.8308476354
 11
173.2365419542
 21
208.743262015
  0
LINE
  5
3C7
100
AcDbEntity
  8
93894102000_BL4
100
AcDbLine
 62
7
  6
CONTINUOUS
 10
173.2365419542
 20
206.9184332559
 11
173.2365419542
 21
177.743262015
  0
LINE
  5
3C8
100
AcDbEntity
  8
93894102000_BL4
100
AcDbLine
 62
7
  6
CONTINUOUS
 10
173.2365419542
 20
175.9184332559
 11
173.2365419542
 21
172.8308476354
  0
LINE
  5
3C9
100
AcDbEntity
  8
93894102000_BL4
100
AcDbLine
 62
7
  6
CONTINUOUS
 10
173.2365419542
 20
172.8308476354
 11
173.2365419542
 21
171.2308476354
  0
LINE
  5
3CA
100
AcDbEntity
  8
93894102000_BL4
100
AcDbLine
 62
7
  6
CONTINUOUS
 10
177.2365419542
 20
211.7711326357
 11
177.2365419542
 21
207.8905626352
  0
LINE
  5
3CB
100
AcDbEntity
  8
93894102000_BL4
100
AcDbLine
 62
7
  6
CONTINUOUS
 10
177.2365419542
 20
170.6308476354
 11
177.2365419542
 21
172.7692948226
  0
LINE
  5
3CC
100
AcDbEntity
  8
93894102000_BL4
100
AcDbLine
 62
7
  6
CONTINUOUS
 10
177.2365419542
 20
172.8905626352
 11
177.2365419542
 21
176.7711326357
  0
LINE
  5
3CD
100
AcDbEntity
  8
93894102000_BL4
100
AcDbLine
 62
7
  6
CONTINUOUS
 10
177.2365419542
 20
176.8924004483
 11
177.2365419542
 21
207.7692948226
  0
LINE
  5
3CE
100
AcDbEntity
  8
93894102000_BL4
100
AcDbLine
 62
7
  6
CONTINUOUS
 10
177.2365419542
 20
211.8924004483
 11
177.2365419542
 21
214.0308476354
  0
LINE
  5
3CF
100
AcDbEntity
  8
93894102000_BL4
100
AcDbLine
 62
9
  6
CONTINUOUS
 10
177.9365419542
 20
169.9308476354
 11
177.9365419542
 21
214.7308476354
  0
LINE
  5
3D0
100
AcDbEntity
  8
93894102000_BL4
100
AcDbLine
 62
7
  6
CONTINUOUS
 10
178.9365419542
 20
168.9308476354
 11
178.9365419542
 21
215.7308476354
  0
LINE
  5
3D1
100
AcDbEntity
  8
93894102000_BL4
100
AcDbLine
 62
9
  6
CONTINUOUS
 10
179.9365419542
 20
168.3308476354
 11
179.9365419542
 21
216.3308476354
  0
LINE
  5
3D2
100
AcDbEntity
  8
93894102000_BL4
100
AcDbLine
 62
9
  6
CONTINUOUS
 10
180.0829284827
 20
172.8308476354
 11
180.0829284827
 21
211.8308476354
  0
LINE
  5
3D3
100
AcDbEntity
  8
93894102000_BL4
100
AcDbLine
 62
9
  6
CONTINUOUS
 10
180.4759460521
 20
172.8583647261
 11
180.4759460521
 21
211.8033304979
  0
LINE
  5
3D4
100
AcDbEntity
  8
93894102000_BL4
100
AcDbLine
 62
7
  6
CONTINUOUS
 10
182.4365419542
 20
216.3308476354
 11
182.4365419542
 21
168.3308476354
  0
LINE
  5
3D5
100
AcDbEntity
  8
93894102000_BL4
100
AcDbLine
 62
7
  6
CONTINUOUS
 10
182.4365419542
 20
168.3308476354
 11
179.5365419542
 21
168.3308476354
  0
LINE
  5
3D6
100
AcDbEntity
  8
93894102000_BL4
100
AcDbLine
 62
7
  6
CONTINUOUS
 10
177.2365419542
 20
170.6308476354
 11
178.9365419542
 21
168.9308476354
  0
LINE
  5
3D7
100
AcDbEntity
  8
93894102000_BL4
100
AcDbLine
 62
7
  6
CONTINUOUS
 10
179.5365419542
 20
168.3308476354
 11
178.9365419542
 21
168.9308476354
  0
LINE
  5
3D8
100
AcDbEntity
  8
93894102000_BL4
100
AcDbLine
 62
7
  6
CONTINUOUS
 10
177.2365419542
 20
170.6308476354
 11
176.929435173
 21
170.9379544166
  0
LINE
  5
3D9
100
AcDbEntity
  8
93894102000_BL4
100
AcDbLine
 62
7
  6
CONTINUOUS
 10
166.6814269896
 20
193.0716330298
 11
167.1310311363
 21
192.4640278971
  0
LINE
  5
3DA
100
AcDbEntity
  8
93894102000_BL4
100
AcDbLine
 62
4
  6
CONTINUOUS
 10
166.6814269896
 20
193.0716330298
 11
167.1310311363
 21
192.4640278971
  0
LINE
  5
3DB
100
AcDbEntity
  8
93894102000_BL4
100
AcDbLine
 62
7
  6
CONTINUOUS
 10
165.4365419542
 20
171.2308476354
 11
176.2223283918
 21
171.2308476354
  0
LINE
  5
3DC
100
AcDbEntity
  8
93894102000_BL4
100
AcDbLine
 62
9
  6
CONTINUOUS
 10
177.9365419542
 20
172.7692948226
 11
177.2365419542
 21
172.7692948226
  0
LINE
  5
3DD
100
AcDbEntity
  8
93894102000_BL4
100
AcDbLine
 62
7
  6
CONTINUOUS
 10
180.0829284827
 20
172.8308476354
 11
179.9365419542
 21
172.8308476354
  0
LINE
  5
3DE
100
AcDbEntity
  8
93894102000_BL4
100
AcDbLine
 62
9
  6
CONTINUOUS
 10
177.9365419542
 20
172.8905626352
 11
177.2365419542
 21
172.8905626352
  0
LINE
  5
3DF
100
AcDbEntity
  8
93894102000_BL4
100
AcDbLine
 62
7
  6
CONTINUOUS
 10
167.5365419542
 20
173.9808476354
 11
170.5365419542
 21
173.9808476354
  0
LINE
  5
3E0
100
AcDbEntity
  8
93894102000_BL4
100
AcDbLine
 62
7
  6
CONTINUOUS
 10
167.5365419542
 20
174.9808476354
 11
168.2989251089
 21
174.9808476354
  0
LINE
  5
3E1
100
AcDbEntity
  8
93894102000_BL4
100
AcDbLine
 62
9
  6
CONTINUOUS
 10
177.9365419542
 20
176.7711326357
 11
177.2365419542
 21
176.7711326357
  0
LINE
  5
3E2
100
AcDbEntity
  8
93894102000_BL4
100
AcDbLine
 62
9
  6
CONTINUOUS
 10
177.9365419542
 20
176.8924004483
 11
177.2365419542
 21
176.8924004483
  0
LINE
  5
3E3
100
AcDbEntity
  8
93894102000_BL4
100
AcDbLine
 62
7
  6
CONTINUOUS
 10
168.2989251089
 20
178.6808476354
 11
167.5365419542
 21
178.6808476354
  0
LINE
  5
3E4
100
AcDbEntity
  8
93894102000_BL4
100
AcDbLine
 62
7
  6
CONTINUOUS
 10
170.5365419542
 20
179.6808476354
 11
167.5365419542
 21
179.6808476354
  0
LINE
  5
3E5
100
AcDbEntity
  8
93894102000_BL4
100
AcDbLine
 62
7
  6
CONTINUOUS
 10
165.7669719891
 20
189.3942955174
 11
167.6854595827
 21
189.3942955174
  0
LINE
  5
3E6
100
AcDbEntity
  8
93894102000_BL4
100
AcDbLine
 62
4
  6
CONTINUOUS
 10
165.7669719891
 20
189.3942955174
 11
167.6854595827
 21
189.3942955174
  0
LINE
  5
3E7
100
AcDbEntity
  8
93894102000_BL4
100
AcDbLine
 62
7
  6
CONTINUOUS
 10
167.6854595827
 20
190.1500633574
 11
165.7669719891
 21
190.1500633574
  0
LINE
  5
3E8
100
AcDbEntity
  8
93894102000_BL4
100
AcDbLine
 62
4
  6
CONTINUOUS
 10
167.6854595827
 20
190.1500633574
 11
165.7669719891
 21
190.1500633574
  0
LINE
  5
3E9
100
AcDbEntity
  8
93894102000_BL4
100
AcDbLine
 62
7
  6
CONTINUOUS
 10
165.7669719891
 20
190.8011864196
 11
167.6854595827
 21
190.8011864196
  0
LINE
  5
3EA
100
AcDbEntity
  8
93894102000_BL4
100
AcDbLine
 62
4
  6
CONTINUOUS
 10
165.7669719891
 20
190.8011864196
 11
167.6854595827
 21
190.8011864196
  0
LINE
  5
3EB
100
AcDbEntity
  8
93894102000_BL4
100
AcDbLine
 62
7
  6
CONTINUOUS
 10
167.6854595827
 20
191.5569542594
 11
166.5372738258
 21
191.5569542594
  0
LINE
  5
3EC
100
AcDbEntity
  8
93894102000_BL4
100
AcDbLine
 62
4
  6
CONTINUOUS
 10
167.6854595827
 20
191.5569542594
 11
166.5372738258
 21
191.5569542594
  0
LINE
  5
3ED
100
AcDbEntity
  8
93894102000_BL4
100
AcDbLine
 62
7
  6
CONTINUOUS
 10
165.9268459553
 20
191.5569542594
 11
165.7669719891
 21
191.5569542594
  0
LINE
  5
3EE
100
AcDbEntity
  8
93894102000_BL4
100
AcDbLine
 62
4
  6
CONTINUOUS
 10
165.9268459553
 20
191.5569542594
 11
165.7669719891
 21
191.5569542594
  0
LINE
  5
3EF
100
AcDbEntity
  8
93894102000_BL4
100
AcDbLine
 62
7
  6
CONTINUOUS
 10
170.5365419542
 20
204.9808476354
 11
167.5365419542
 21
204.9808476354
  0
LINE
  5
3F0
100
AcDbEntity
  8
93894102000_BL4
100
AcDbLine
 62
7
  6
CONTINUOUS
 10
167.5365419542
 20
205.9808476354
 11
168.2989251089
 21
205.9808476354
  0
LINE
  5
3F1
100
AcDbEntity
  8
93894102000_BL4
100
AcDbLine
 62
9
  6
CONTINUOUS
 10
177.2365419542
 20
207.7692948226
 11
177.9365419542
 21
207.7692948226
  0
LINE
  5
3F2
100
AcDbEntity
  8
93894102000_BL4
100
AcDbLine
 62
9
  6
CONTINUOUS
 10
177.2365419542
 20
207.8905626352
 11
177.9365419542
 21
207.8905626352
  0
LINE
  5
3F3
100
AcDbEntity
  8
93894102000_BL4
100
AcDbLine
 62
7
  6
CONTINUOUS
 10
168.2989251089
 20
209.6808476354
 11
167.5365419542
 21
209.6808476354
  0
LINE
  5
3F4
100
AcDbEntity
  8
93894102000_BL4
100
AcDbLine
 62
7
  6
CONTINUOUS
 10
167.5365419542
 20
210.6808476354
 11
170.5365419542
 21
210.6808476354
  0
LINE
  5
3F5
100
AcDbEntity
  8
93894102000_BL4
100
AcDbLine
 62
9
  6
CONTINUOUS
 10
177.2365419542
 20
211.7711326357
 11
177.9365419542
 21
211.7711326357
  0
LINE
  5
3F6
100
AcDbEntity
  8
93894102000_BL4
100
AcDbLine
 62
7
  6
CONTINUOUS
 10
180.0829284827
 20
211.8308476354
 11
179.9365419542
 21
211.8308476354
  0
LINE
  5
3F7
100
AcDbEntity
  8
93894102000_BL4
100
AcDbLine
 62
9
  6
CONTINUOUS
 10
177.2365419542
 20
211.8924004483
 11
177.9365419542
 21
211.8924004483
  0
LINE
  5
3F8
100
AcDbEntity
  8
93894102000_BL4
100
AcDbLine
 62
7
  6
CONTINUOUS
 10
165.4365419542
 20
213.4308476354
 11
176.2223283918
 21
213.4308476354
  0
LINE
  5
3F9
100
AcDbEntity
  8
93894102000_BL4
100
AcDbLine
 62
7
  6
CONTINUOUS
 10
179.5365419542
 20
216.3308476354
 11
182.4365419542
 21
216.3308476354
  0
LINE
  5
3FA
100
AcDbEntity
  8
93894102000_BL4
100
AcDbLine
 62
7
  6
CONTINUOUS
 10
74.1649800458
 20
211.8308476354
 11
74.661784671
 21
216.3308476354
  0
LINE
  5
3FB
100
AcDbEntity
  8
93894102000_BL4
100
AcDbLine
 62
7
  6
CONTINUOUS
 10
74.1649800458
 20
172.8308476354
 11
74.1649800458
 21
211.8308476354
  0
LINE
  5
3FC
100
AcDbEntity
  8
93894102000_BL4
100
AcDbLine
 62
9
  6
CONTINUOUS
 10
74.3558891367
 20
172.8583647261
 11
74.3558891367
 21
211.8033304979
  0
LINE
  5
3FD
100
AcDbEntity
  8
93894102000_BL4
100
AcDbLine
 62
7
  6
CONTINUOUS
 10
78.1108780795
 20
216.3308476354
 11
78.1108780795
 21
168.3308476354
  0
LINE
  5
3FE
100
AcDbEntity
  8
93894102000_BL4
100
AcDbLine
 62
7
  6
CONTINUOUS
 10
74.661784671
 20
168.3308476354
 11
74.1649800458
 21
172.8308476354
  0
LINE
  5
3FF
100
AcDbEntity
  8
93894102000_BL4
100
AcDbLine
 62
7
  6
CONTINUOUS
 10
81.1649800458
 20
216.3308476354
 11
81.1649800458
 21
168.3308476354
  0
LINE
  5
400
100
AcDbEntity
  8
93894102000_BL4
100
AcDbLine
 62
7
  6
CONTINUOUS
 10
81.1649800458
 20
168.3308476354
 11
78.1108780795
 21
168.3308476354
  0
LINE
  5
401
100
AcDbEntity
  8
93894102000_BL4
100
AcDbLine
 62
7
  6
CONTINUOUS
 10
78.1108780795
 20
168.3308476354
 11
74.661784671
 21
168.3308476354
  0
LINE
  5
402
100
AcDbEntity
  8
93894102000_BL4
100
AcDbLine
 62
7
  6
CONTINUOUS
 10
81.1649800458
 20
216.3308476354
 11
78.1108780795
 21
216.3308476354
  0
LINE
  5
403
100
AcDbEntity
  8
93894102000_BL4
100
AcDbLine
 62
7
  6
CONTINUOUS
 10
74.661784671
 20
216.3308476354
 11
78.1108780795
 21
216.3308476354
  0
LINE
  5
404
100
AcDbEntity
  8
93894102000_BL4
100
AcDbLine
 62
7
  6
CONTINUOUS
 10
164.4365419542
 20
18.3838065416
 11
164.4365419542
 21
18.5592537164
  0
LINE
  5
405
100
AcDbEntity
  8
93894102000_BL4
100
AcDbLine
 62
7
  6
CONTINUOUS
 10
180.0829284827
 20
17.3838065416
 11
179.9365419542
 21
17.3838065416
  0
LINE
  5
406
100
AcDbEntity
  8
93894102000_BL4
100
AcDbLine
 62
7
  6
CONTINUOUS
 10
180.4494024604
 20
17.8806111668
 11
179.9365419542
 21
17.8806111668
  0
LINE
  5
407
100
AcDbEntity
  8
93894102000_BL4
100
AcDbLine
 62
7
  6
CONTINUOUS
 10
165.4365419542
 20
18.3838065416
 11
164.4365419542
 21
18.3838065416
  0
LINE
  5
408
100
AcDbEntity
  8
93894102000_BL4
100
AcDbLine
 62
7
  6
CONTINUOUS
 10
179.5365419542
 20
17.9646032598
 11
179.5365419542
 21
18.3838065416
  0
LINE
  5
409
100
AcDbEntity
  8
93894102000_BL4
100
AcDbLine
 62
9
  6
CONTINUOUS
 10
179.9365419542
 20
17.3838065416
 11
179.9365419542
 21
17.8806111668
  0
LINE
  5
40A
100
AcDbEntity
  8
93894102000_BL4
100
AcDbLine
 62
7
  6
CONTINUOUS
 10
182.4365419542
 20
24.3838065416
 11
182.4365419542
 21
21.3297045754
  0
LINE
  5
40B
100
AcDbEntity
  8
93894102000_BL4
100
AcDbLine
 62
7
  6
CONTINUOUS
 10
181.4365419542
 20
24.3838065416
 11
182.4365419542
 21
24.3838065416
  0
ARC
  5
40C
100
AcDbEntity
  8
93894102000_BL4
100
AcDbCircle
 62
9
  6
CONTINUOUS
 10
-289.5777125404
 20
132.0671932084
 40
471.4240159892
100
AcDbArc
 50
4.4117585256
 51
4.9605145504
  0
ARC
  5
40D
100
AcDbEntity
  8
93894102000_BL4
100
AcDbCircle
 62
9
  6
CONTINUOUS
 10
-269.5336320556
 20
132.055413315
 40
451.8556311636
100
AcDbArc
 50
4.6047193785
 51
5.1809158251
  0
ARC
  5
40E
100
AcDbEntity
  8
93894102000_BL4
100
AcDbCircle
 62
9
  6
CONTINUOUS
 10
-289.580047477
 20
252.593221261
 40
471.4262327608
100
AcDbArc
 50
355.0396650838
 51
355.5884183883
  0
ARC
  5
40F
100
AcDbEntity
  8
93894102000_BL4
100
AcDbCircle
 62
9
  6
CONTINUOUS
 10
-269.5381617266
 20
252.6060233194
 40
451.8601192177
100
AcDbArc
 50
354.819168691
 51
355.3953593573
  0
ARC
  5
410
100
AcDbEntity
  8
93894102000_BL4
100
AcDbCircle
 62
7
  6
CONTINUOUS
 10
167.5365419542
 20
176.8308476354
 40
2.85
100
AcDbArc
 50
90.0
 51
270.0
  0
ARC
  5
411
100
AcDbEntity
  8
93894102000_BL4
100
AcDbCircle
 62
7
  6
CONTINUOUS
 10
167.5365419542
 20
176.8308476354
 40
1.85
100
AcDbArc
 50
90.0
 51
270.0
  0
ARC
  5
412
100
AcDbEntity
  8
93894102000_BL4
100
AcDbCircle
 62
7
  6
CONTINUOUS
 10
165.4365419542
 20
172.2308476354
 40
1.0
100
AcDbArc
 50
180.0
 51
270.0
  0
ARC
  5
413
100
AcDbEntity
  8
93894102000_BL4
100
AcDbCircle
 62
7
  6
CONTINUOUS
 10
165.7669719891
 20
190.4756248884
 40
1.081329371
100
AcDbArc
 50
90.0
 51
270.0
  0
ARC
  5
414
100
AcDbEntity
  8
93894102000_BL4
100
AcDbCircle
 62
4
  6
CONTINUOUS
 10
165.7669719891
 20
190.4756248884
 40
1.081329371
100
AcDbArc
 50
90.0
 51
270.0
  0
ARC
  5
415
100
AcDbEntity
  8
93894102000_BL4
100
AcDbCircle
 62
7
  6
CONTINUOUS
 10
165.7669719891
 20
190.4756248885
 40
0.3255615311
100
AcDbArc
 50
90.0
 51
270.0
  0
ARC
  5
416
100
AcDbEntity
  8
93894102000_BL4
100
AcDbCircle
 62
4
  6
CONTINUOUS
 10
165.7669719891
 20
190.4756248885
 40
0.3255615311
100
AcDbArc
 50
90.0
 51
270.0
  0
ARC
  5
417
100
AcDbEntity
  8
93894102000_BL4
100
AcDbCircle
 62
7
  6
CONTINUOUS
 10
170.5365419542
 20
176.8308476354
 40
2.85
100
AcDbArc
 50
270.0
 51
90.0
  0
ARC
  5
418
100
AcDbEntity
  8
93894102000_BL4
100
AcDbCircle
 62
7
  6
CONTINUOUS
 10
175.7277467631
 20
172.8301656344
 40
1.5097783673
100
AcDbArc
 50
358.1490832491
 51
1.863669563
  0
ARC
  5
419
100
AcDbEntity
  8
93894102000_BL4
100
AcDbCircle
 62
7
  6
CONTINUOUS
 10
178.4667206251
 20
176.8314045606
 40
1.2312535154
100
AcDbArc
 50
177.9820806671
 51
182.041222687
  0
ARC
  5
41A
100
AcDbEntity
  8
93894102000_BL4
100
AcDbCircle
 62
7
  6
CONTINUOUS
 10
176.2223283918
 20
170.2308476354
 40
1.0
100
AcDbArc
 50
45.0
 51
90.0
  0
ARC
  5
41B
100
AcDbEntity
  8
93894102000_BL4
100
AcDbCircle
 62
7
  6
CONTINUOUS
 10
176.7364573304
 20
176.8924016726
 40
0.5000846237
100
AcDbArc
 50
357.978096906
 51
359.9998597201
  0
ARC
  5
41C
100
AcDbEntity
  8
93894102000_BL4
100
AcDbCircle
 62
7
  6
CONTINUOUS
 10
176.7751609121
 20
176.771092978
 40
0.4613810438
100
AcDbArc
 50
0.0049248212
 51
2.0440115105
  0
ARC
  5
41D
100
AcDbEntity
  8
93894102000_BL4
100
AcDbCircle
 62
7
  6
CONTINUOUS
 10
166.2320598907
 20
193.6789178101
 40
1.6394348529
100
AcDbArc
 50
259.2706340045
 51
280.7293659955
  0
ARC
  5
41E
100
AcDbEntity
  8
93894102000_BL4
100
AcDbCircle
 62
4
  6
CONTINUOUS
 10
166.2320598907
 20
193.6789178101
 40
1.6394348529
100
AcDbArc
 50
259.2706340045
 51
280.7293659955
  0
ARC
  5
41F
100
AcDbEntity
  8
93894102000_BL4
100
AcDbCircle
 62
7
  6
CONTINUOUS
 10
166.2320598907
 20
193.7079858039
 40
1.534790075
100
AcDbArc
 50
305.8545159679
 51
281.4705154512
  0
ARC
  5
420
100
AcDbEntity
  8
93894102000_BL4
100
AcDbCircle
 62
4
  6
CONTINUOUS
 10
166.2320598907
 20
193.7079858039
 40
1.534790075
100
AcDbArc
 50
305.8545159679
 51
281.4705154512
  0
ARC
  5
421
100
AcDbEntity
  8
93894102000_BL4
100
AcDbCircle
 62
7
  6
CONTINUOUS
 10
166.2320598907
 20
193.707985804
 40
0.7790222351
100
AcDbArc
 50
305.2282226131
 51
246.9340105685
  0
ARC
  5
422
100
AcDbEntity
  8
93894102000_BL4
100
AcDbCircle
 62
4
  6
CONTINUOUS
 10
166.2320598907
 20
193.707985804
 40
0.7790222351
100
AcDbArc
 50
305.2282226131
 51
246.9340105685
  0
ARC
  5
423
100
AcDbEntity
  8
93894102000_BL4
100
AcDbCircle
 62
7
  6
CONTINUOUS
 10
166.2320598907
 20
193.6789178101
 40
0.3052139354
100
AcDbArc
 50
0.0
 51
180.0
  0
ARC
  5
424
100
AcDbEntity
  8
93894102000_BL4
100
AcDbCircle
 62
4
  6
CONTINUOUS
 10
166.2320598907
 20
193.6789178101
 40
0.3052139354
100
AcDbArc
 50
0.0
 51
180.0
  0
ARC
  5
425
100
AcDbEntity
  8
93894102000_BL4
100
AcDbCircle
 62
7
  6
CONTINUOUS
 10
167.5365419542
 20
207.8308476354
 40
2.85
100
AcDbArc
 50
90.0
 51
270.0
  0
ARC
  5
426
100
AcDbEntity
  8
93894102000_BL4
100
AcDbCircle
 62
7
  6
CONTINUOUS
 10
167.5365419542
 20
207.8308476354
 40
1.85
100
AcDbArc
 50
90.0
 51
270.0
  0
ARC
  5
427
100
AcDbEntity
  8
93894102000_BL4
100
AcDbCircle
 62
7
  6
CONTINUOUS
 10
165.4365419542
 20
212.4308476354
 40
1.0
100
AcDbArc
 50
90.0
 51
180.0
  0
ARC
  5
428
100
AcDbEntity
  8
93894102000_BL4
100
AcDbCircle
 62
7
  6
CONTINUOUS
 10
170.5365419542
 20
207.8308476354
 40
2.85
100
AcDbArc
 50
270.0
 51
90.0
  0
ARC
  5
429
100
AcDbEntity
  8
93894102000_BL4
100
AcDbCircle
 62
7
  6
CONTINUOUS
 10
175.7277467668
 20
211.8315296365
 40
1.5097783636
100
AcDbArc
 50
358.1363304323
 51
1.8509167553
  0
ARC
  5
42A
100
AcDbEntity
  8
93894102000_BL4
100
AcDbCircle
 62
7
  6
CONTINUOUS
 10
178.4667205394
 20
207.8302907103
 40
1.2312534298
100
AcDbArc
 50
177.9587771714
 51
182.0179194736
  0
ARC
  5
42B
100
AcDbEntity
  8
93894102000_BL4
100
AcDbCircle
 62
7
  6
CONTINUOUS
 10
176.2223283918
 20
214.4308476354
 40
1.0
100
AcDbArc
 50
270.0
 51
315.0
  0
ARC
  5
42C
100
AcDbEntity
  8
93894102000_BL4
100
AcDbCircle
 62
7
  6
CONTINUOUS
 10
176.7364573484
 20
207.7692935985
 40
0.5000846058
100
AcDbArc
 50
0.0001402555
 51
2.0219030702
  0
ARC
  5
42D
100
AcDbEntity
  8
93894102000_BL4
100
AcDbCircle
 62
7
  6
CONTINUOUS
 10
176.7751609122
 20
207.8906022928
 40
0.4613810437
100
AcDbArc
 50
357.9559884918
 51
359.9950751819
  0
ARC
  5
42E
100
AcDbEntity
  8
93894102000_BL4
100
AcDbCircle
 62
7
  6
CONTINUOUS
 10
171.4365419542
 20
24.6838065416
 40
11.5
100
AcDbArc
 50
338.0354049382
 51
343.0425737058
  0
ARC
  5
42F
100
AcDbEntity
  8
93894102000_BL4
100
AcDbCircle
 62
7
  6
CONTINUOUS
 10
171.4365419542
 20
24.6838065416
 40
11.5
100
AcDbArc
 50
321.8166087147
 51
326.7704990765
  0
ARC
  5
430
100
AcDbEntity
  8
93894102000_BL4
100
AcDbCircle
 62
9
  6
CONTINUOUS
 10
171.4000084725
 20
24.2139584587
 40
11.0455243563
100
AcDbArc
 50
321.8032545949
 51
324.2393512155
  0
ARC
  5
431
100
AcDbEntity
  8
93894102000_BL4
100
AcDbCircle
 62
7
  6
CONTINUOUS
 10
179.9365419542
 20
18.3838065416
 40
1.0
100
AcDbArc
 50
180.0
 51
270.0
  0
ARC
  5
432
100
AcDbEntity
  8
93894102000_BL4
100
AcDbCircle
 62
7
  6
CONTINUOUS
 10
180.0829284827
 20
17.8838065416
 40
0.5
100
AcDbArc
 50
270.0
 51
321.8165175668
  0
SPLINE
  5
433
100
AcDbEntity
  8
93894102000_BL4
100
AcDbSpline
 62
9
  6
CONTINUOUS
 70
0
 71
3
 72
17
 73
13
 74
0
 42
0.0000001
 43
0.0000001
 44
0.0000000001
 40
0.0
 40
0.0
 40
0.0
 40
0.0
 40
0.1941213453
 40
0.3808659009
 40
0.5527156347
 40
0.7033380759
 40
0.826995905
 40
0.9191502315
 40
0.9523783272
 40
0.9767136302
 40
0.992203471
 40
1.0
 40
1.0
 40
1.0
 40
1.0
 10
177.9365419542
 20
207.7692948226
 30
0.0
 10
178.0016912515
 20
207.7692948034
 30
0.0
 10
178.1295147353
 20
207.7700126256
 30
0.0
 10
178.3149917088
 20
207.7732262745
 30
0.0
 10
178.4858070659
 20
207.7784910377
 30
0.0
 10
178.6353986084
 20
207.7856353216
 30
0.0
 10
178.7580118028
 20
207.7943392588
 30
0.0
 10
178.841297682
 20
207.8033557199
 30
0.0
 10
178.8906976635
 20
207.8114618838
 30
0.0
 10
178.9148745927
 20
207.8175278593
 30
0.0
 10
178.9293665191
 20
207.8222435827
 30
0.0
 10
178.9365361356
 20
207.8282310395
 30
0.0
 10
178.9365419542
 20
207.8308476354
 30
0.0
  0
SPLINE
  5
434
100
AcDbEntity
  8
93894102000_BL4
100
AcDbSpline
 62
9
  6
CONTINUOUS
 70
0
 71
3
 72
8
 73
4
 74
0
 42
0.0000001
 43
0.0000001
 44
0.0000000001
 40
0.0
 40
0.0
 40
0.0
 40
0.0
 40
1.0
 40
1.0
 40
1.0
 40
1.0
 10
173.3865414722
 20
207.8291901961
 30
0.0
 10
174.669770134
 20
207.8150105598
 30
0.0
 10
175.9529987855
 20
207.8008280244
 30
0.0
 10
177.2362306078
 20
207.7869373545
 30
0.0
  0
SPLINE
  5
435
100
AcDbEntity
  8
93894102000_BL4
100
AcDbSpline
 62
9
  6
CONTINUOUS
 70
0
 71
3
 72
10
 73
6
 74
0
 42
0.0000001
 43
0.0000001
 44
0.0000000001
 40
0.0
 40
0.0
 40
0.0
 40
0.0
 40
0.2497595163
 40
0.4996837539
 40
1.0
 40
1.0
 40
1.0
 40
1.0
 10
173.3865395299
 20
207.8308476749
 30
0.0
 10
173.7070407749
 20
207.8343894921
 30
0.0
 10
174.3482371904
 20
207.8429640277
 30
0.0
 10
175.6314709151
 20
207.8576734293
 30
0.0
 10
176.5942179266
 20
207.8674913945
 30
0.0
 10
177.2362481919
 20
207.874141695
 30
0.0
  0
SPLINE
  5
436
100
AcDbEntity
  8
93894102000_BL4
100
AcDbSpline
 62
7
  6
CONTINUOUS
 70
0
 71
3
 72
17
 73
13
 74
0
 42
0.0000001
 43
0.0000001
 44
0.0000000001
 40
0.0
 40
0.0
 40
0.0
 40
0.0
 40
0.0071901371
 40
0.0224674913
 40
0.0466940972
 40
0.0798960505
 40
0.172287844
 40
0.2961118404
 40
0.4469062976
 40
0.6190626822
 40
0.8061987573
 40
1.0
 40
1.0
 40
1.0
 40
1.0
 10
178.9365419542
 20
172.8858809654
 30
0.0
 10
178.9365419542
 20
172.8834714666
 30
0.0
 10
178.9442622965
 20
172.8783337654
 30
0.0
 10
178.9582546923
 20
172.8743352887
 30
0.0
 10
178.9826358767
 20
172.8690082906
 30
0.0
 10
179.0320241561
 20
172.861883944
 30
0.0
 10
179.1154897668
 20
172.8538933478
 30
0.0
 10
179.2381280487
 20
172.8460261788
 30
0.0
 10
179.387751216
 20
172.8394701748
 30
0.0
 10
179.5586086071
 20
172.8345521188
 30
0.0
 10
179.7439403131
 20
172.831540136
 30
0.0
 10
179.8715968976
 20
172.8308476354
 30
0.0
 10
179.9365419542
 20
172.8308476354
 30
0.0
  0
SPLINE
  5
437
100
AcDbEntity
  8
93894102000_BL4
100
AcDbSpline
 62
7
  6
CONTINUOUS
 70
0
 71
3
 72
10
 73
6
 74
0
 42
0.0000001
 43
0.0000001
 44
0.0000000001
 40
0.0
 40
0.0
 40
0.0
 40
0.0
 40
0.284834527
 40
0.5555773827
 40
1.0
 40
1.0
 40
1.0
 40
1.0
 10
180.0829284827
 20
211.8308476354
 30
0.0
 10
180.1203401944
 20
211.8308476354
 30
0.0
 10
180.1932354421
 20
211.8260013314
 30
0.0
 10
180.3242066274
 20
211.8167369481
 30
0.0
 10
180.4179424705
 20
211.8098862049
 30
0.0
 10
180.4759460521
 20
211.8033304979
 30
0.0
  0
SPLINE
  5
438
100
AcDbEntity
  8
93894102000_BL4
100
AcDbSpline
 62
7
  6
CONTINUOUS
 70
0
 71
3
 72
17
 73
13
 74
0
 42
0.0000001
 43
0.0000001
 44
0.0000000001
 40
0.0
 40
0.0
 40
0.0
 40
0.0
 40
0.0071901371
 40
0.0224674913
 40
0.0466940972
 40
0.0798960505
 40
0.172287844
 40
0.2961118404
 40
0.4469062976
 40
0.6190626822
 40
0.8061987573
 40
1.0
 40
1.0
 40
1.0
 40
1.0
 10
178.9365419542
 20
211.7758143055
 30
0.0
 10
178.9365419542
 20
211.7782238043
 30
0.0
 10
178.9442622965
 20
211.7833615055
 30
0.0
 10
178.9582546923
 20
211.7873599822
 30
0.0
 10
178.9826358767
 20
211.7926869803
 30
0.0
 10
179.0320241561
 20
211.7998113269
 30
0.0
 10
179.1154897668
 20
211.8078019231
 30
0.0
 10
179.2381280487
 20
211.8156690921
 30
0.0
 10
179.387751216
 20
211.8222250961
 30
0.0
 10
179.5586086071
 20
211.8271431521
 30
0.0
 10
179.7439403131
 20
211.8301551349
 30
0.0
 10
179.8715968976
 20
211.8308476354
 30
0.0
 10
179.9365419542
 20
211.8308476354
 30
0.0
  0
SPLINE
  5
439
100
AcDbEntity
  8
93894102000_BL4
100
AcDbSpline
 62
7
  6
CONTINUOUS
 70
0
 71
3
 72
8
 73
4
 74
0
 42
0.0000001
 43
0.0000001
 44
0.0000000001
 40
0.0
 40
0.0
 40
0.0
 40
0.0
 40
1.0
 40
1.0
 40
1.0
 40
1.0
 10
177.2367265154
 20
172.8792657929
 30
0.0
 10
177.2366040516
 20
172.8830223437
 30
0.0
 10
177.2364795908
 20
172.8867856512
 30
0.0
 10
177.2366334298
 20
172.890541048
 30
0.0
  0
SPLINE
  5
43A
100
AcDbEntity
  8
93894102000_BL4
100
AcDbSpline
 62
9
  6
CONTINUOUS
 70
0
 71
3
 72
9
 73
5
 74
0
 42
0.0000001
 43
0.0000001
 44
0.0000000001
 40
0.0
 40
0.0
 40
0.0
 40
0.0
 40
0.2957300403
 40
1.0
 40
1.0
 40
1.0
 40
1.0
 10
178.9365419743
 20
172.8308480006
 30
0.0
 10
178.9364018606
 20
172.8361014778
 30
0.0
 10
178.9147130731
 20
172.8446013881
 30
0.0
 10
178.9001177675
 20
172.8476381853
 30
0.0
 10
178.8878178183
 20
172.8499504707
 30
0.0
  0
SPLINE
  5
43B
100
AcDbEntity
  8
93894102000_BL4
100
AcDbSpline
 62
9
  6
CONTINUOUS
 70
0
 71
3
 72
11
 73
7
 74
0
 42
0.0000001
 43
0.0000001
 44
0.0000000001
 40
0.0
 40
0.0
 40
0.0
 40
0.0
 40
0.1487013667
 40
0.3803144243
 40
0.6736716275
 40
1.0
 40
1.0
 40
1.0
 40
1.0
 10
178.8878178183
 20
172.8499504707
 30
0.0
 10
178.8414039127
 20
172.8586758883
 30
0.0
 10
178.7208583236
 20
172.8699171747
 30
0.0
 10
178.507334882
 20
172.8817426741
 30
0.0
 10
178.2369798349
 20
172.8888729882
 30
0.0
 10
178.0401824895
 20
172.890576529
 30
0.0
 10
177.9365419532
 20
172.890578857
 30
0.0
  0
SPLINE
  5
43C
100
AcDbEntity
  8
93894102000_BL4
100
AcDbSpline
 62
9
  6
CONTINUOUS
 70
0
 71
3
 72
10
 73
6
 74
0
 42
0.0000001
 43
0.0000001
 44
0.0000000001
 40
0.0
 40
0.0
 40
0.0
 40
0.0
 40
0.1076182238
 40
0.3008405421
 40
1.0
 40
1.0
 40
1.0
 40
1.0
 10
178.9365419542
 20
172.8308476354
 30
0.0
 10
178.9364885416
 20
172.8288874816
 30
0.0
 10
178.9321781443
 20
172.8242910638
 30
0.0
 10
178.9156714114
 20
172.817488508
 30
0.0
 10
178.8994568522
 20
172.8138981034
 30
0.0
 10
178.8869404963
 20
172.8115258144
 30
0.0
  0
SPLINE
  5
43D
100
AcDbEntity
  8
93894102000_BL4
100
AcDbSpline
 62
9
  6
CONTINUOUS
 70
0
 71
3
 72
11
 73
7
 74
0
 42
0.0000001
 43
0.0000001
 44
0.0000000001
 40
0.0
 40
0.0
 40
0.0
 40
0.0
 40
0.1504439392
 40
0.3831149745
 40
0.6757723127
 40
1.0
 40
1.0
 40
1.0
 40
1.0
 10
178.8869404963
 20
172.8115258144
 30
0.0
 10
178.8400351552
 20
172.8026356048
 30
0.0
 10
178.7187090458
 20
172.7912467411
 30
0.0
 10
178.504739799
 20
172.7787622388
 30
0.0
 10
178.2351733424
 20
172.7711233004
 30
0.0
 10
178.0394292035
 20
172.7692949105
 30
0.0
 10
177.9365419542
 20
172.7692948226
 30
0.0
  0
SPLINE
  5
43E
100
AcDbEntity
  8
93894102000_BL4
100
AcDbSpline
 62
9
  6
CONTINUOUS
 70
0
 71
3
 72
8
 73
4
 74
0
 42
0.0000001
 43
0.0000001
 44
0.0000000001
 40
0.0
 40
0.0
 40
0.0
 40
0.0
 40
1.0
 40
1.0
 40
1.0
 40
1.0
 10
177.2367374762
 20
172.7814039309
 30
0.0
 10
175.9033348042
 20
172.7975447055
 30
0.0
 10
174.5699381273
 20
172.8141786243
 30
0.0
 10
173.2365419542
 20
172.8308476354
 30
0.0
  0
SPLINE
  5
43F
100
AcDbEntity
  8
93894102000_BL4
100
AcDbSpline
 62
9
  6
CONTINUOUS
 70
0
 71
3
 72
9
 73
5
 74
0
 42
0.0000001
 43
0.0000001
 44
0.0000000001
 40
0.0
 40
0.0
 40
0.0
 40
0.0
 40
0.2497380704
 40
1.0
 40
1.0
 40
1.0
 40
1.0
 10
177.2367267757
 20
172.8792595594
 30
0.0
 10
176.9037244325
 20
172.8754722906
 30
0.0
 10
175.5703217643
 20
172.8599764113
 30
0.0
 10
174.2369325472
 20
172.8433538496
 30
0.0
 10
173.2365419542
 20
172.8308476354
 30
0.0
  0
SPLINE
  5
440
100
AcDbEntity
  8
93894102000_BL4
100
AcDbSpline
 62
7
  6
CONTINUOUS
 70
0
 71
3
 72
8
 73
4
 74
0
 42
0.0000001
 43
0.0000001
 44
0.0000000001
 40
0.0
 40
0.0
 40
0.0
 40
0.0
 40
1.0
 40
1.0
 40
1.0
 40
1.0
 10
177.2367265154
 20
211.782429478
 30
0.0
 10
177.2366040516
 20
211.7786729272
 30
0.0
 10
177.2364795908
 20
211.7749096197
 30
0.0
 10
177.2366334298
 20
211.7711542229
 30
0.0
  0
SPLINE
  5
441
100
AcDbEntity
  8
93894102000_BL4
100
AcDbSpline
 62
9
  6
CONTINUOUS
 70
0
 71
3
 72
17
 73
13
 74
0
 42
0.0000001
 43
0.0000001
 44
0.0000000001
 40
0.0
 40
0.0
 40
0.0
 40
0.0
 40
0.1937929879
 40
0.3804752205
 40
0.5523509223
 40
0.7030281402
 40
0.8268897236
 40
0.9192055975
 40
0.9524629853
 40
0.9767488672
 40
0.9922172857
 40
1.0
 40
1.0
 40
1.0
 40
1.0
 10
177.9365419542
 20
211.8924004483
 30
0.0
 10
178.0015676934
 20
211.892400377
 30
0.0
 10
178.1292338942
 20
211.8916527209
 30
0.0
 10
178.3145487173
 20
211.8883275833
 30
0.0
 10
178.4853304997
 20
211.8829194524
 30
0.0
 10
178.6349811036
 20
211.8756380038
 30
0.0
 10
178.757702522
 20
211.8668792875
 30
0.0
 10
178.8411134425
 20
211.8578988255
 30
0.0
 10
178.8905548406
 20
211.8498840645
 30
0.0
 10
178.9147556724
 20
211.8439452269
 30
0.0
 10
178.9292024789
 20
211.8392591297
 30
0.0
 10
178.9364710766
 20
211.8334570167
 30
0.0
 10
178.9365419542
 20
211.8308465491
 30
0.0
  0
SPLINE
  5
442
100
AcDbEntity
  8
93894102000_BL4
100
AcDbSpline
 62
9
  6
CONTINUOUS
 70
0
 71
3
 72
13
 73
9
 74
0
 42
0.0000001
 43
0.0000001
 44
0.0000000001
 40
0.0
 40
0.0
 40
0.0
 40
0.0
 40
0.3517583994
 40
0.6586066217
 40
0.783058351
 40
0.8831087015
 40
0.9560151064
 40
1.0
 40
1.0
 40
1.0
 40
1.0
 10
177.936541953
 20
211.77111646
 30
0.0
 10
178.0526497626
 20
211.7711191927
 30
0.0
 10
178.2700336796
 20
211.7731969774
 30
0.0
 10
178.5284567748
 20
211.7809648426
 30
0.0
 10
178.7035154664
 20
211.791140321
 30
0.0
 10
178.8014547538
 20
211.7992603418
 30
0.0
 10
178.8722904205
 20
211.8085618663
 30
0.0
 10
178.910541343
 20
211.8157365826
 30
0.0
 10
178.9240732306
 20
211.8209971576
 30
0.0
  0
SPLINE
  5
443
100
AcDbEntity
  8
93894102000_BL4
100
AcDbSpline
 62
9
  6
CONTINUOUS
 70
0
 71
3
 72
8
 73
4
 74
0
 42
0.0000001
 43
0.0000001
 44
0.0000000001
 40
0.0
 40
0.0
 40
0.0
 40
0.0
 40
1.0
 40
1.0
 40
1.0
 40
1.0
 10
173.2365419542
 20
211.8308476354
 30
0.0
 10
174.5699381273
 20
211.8475166466
 30
0.0
 10
175.9033348042
 20
211.8641505654
 30
0.0
 10
177.2367374762
 20
211.88029134
 30
0.0
  0
SPLINE
  5
444
100
AcDbEntity
  8
93894102000_BL4
100
AcDbSpline
 62
9
  6
CONTINUOUS
 70
0
 71
3
 72
9
 73
5
 74
0
 42
0.0000001
 43
0.0000001
 44
0.0000000001
 40
0.0
 40
0.0
 40
0.0
 40
0.0
 40
0.2502703117
 40
1.0
 40
1.0
 40
1.0
 40
1.0
 10
173.2365419542
 20
211.8308476354
 30
0.0
 10
173.5702494916
 20
211.826675847
 30
0.0
 10
174.9036380053
 20
211.8100167477
 30
0.0
 10
176.2370324235
 20
211.7938053348
 30
0.0
 10
177.2367267757
 20
211.7824357115
 30
0.0
  0
SPLINE
  5
445
100
AcDbEntity
  8
93894102000_BL4
100
AcDbSpline
 62
7
  6
CONTINUOUS
 70
0
 71
3
 72
8
 73
4
 74
0
 42
0.0000001
 43
0.0000001
 44
0.0000000001
 40
0.0
 40
0.0
 40
0.0
 40
0.0
 40
1.0
 40
1.0
 40
1.0
 40
1.0
 10
177.2367374762
 20
172.7814039309
 30
0.0
 10
177.2366072572
 20
172.7773715721
 30
0.0
 10
177.2364771155
 20
172.7733321442
 30
0.0
 10
177.2366393412
 20
172.7693009462
 30
0.0
  0
SPLINE
  5
446
100
AcDbEntity
  8
93894102000_BL4
100
AcDbSpline
 62
7
  6
CONTINUOUS
 70
0
 71
3
 72
8
 73
4
 74
0
 42
0.0000001
 43
0.0000001
 44
0.0000000001
 40
0.0
 40
0.0
 40
0.0
 40
0.0
 40
1.0
 40
1.0
 40
1.0
 40
1.0
 10
177.2367374762
 20
211.88029134
 30
0.0
 10
177.2366072572
 20
211.8843236988
 30
0.0
 10
177.2364771155
 20
211.8883631267
 30
0.0
 10
177.2366393412
 20
211.8923943247
 30
0.0
  0
SPLINE
  5
447
100
AcDbEntity
  8
93894102000_BL4
100
AcDbSpline
 62
9
  6
CONTINUOUS
 70
0
 71
3
 72
17
 73
13
 74
0
 42
0.0000001
 43
0.0000001
 44
0.0000000001
 40
0.0
 40
0.0
 40
0.0
 40
0.0
 40
0.0077966084
 40
0.0232864324
 40
0.0476218248
 40
0.080850037
 40
0.1730046261
 40
0.2966627254
 40
0.4472853174
 40
0.6191350713
 40
0.8058789403
 40
1.0
 40
1.0
 40
1.0
 40
1.0
 10
178.9365419542
 20
176.8308476354
 30
0.0
 10
178.9365360688
 20
176.833464258
 30
0.0
 10
178.9293665772
 20
176.8394517544
 30
0.0
 10
178.914874456
 20
176.8441673924
 30
0.0
 10
178.8906975401
 20
176.8502334426
 30
0.0
 10
178.841297356
 20
176.8583395808
 30
0.0
 10
178.7580112874
 20
176.8673560578
 30
0.0
 10
178.6353978481
 20
176.8760599975
 30
0.0
 10
178.4858061591
 20
176.8832042529
 30
0.0
 10
178.3149909716
 20
176.888469014
 30
0.0
 10
178.1295143158
 20
176.8916826692
 30
0.0
 10
178.0016911565
 20
176.8924004583
 30
0.0
 10
177.9365419542
 20
176.8924004483
 30
0.0
  0
SPLINE
  5
448
100
AcDbEntity
  8
93894102000_BL4
100
AcDbSpline
 62
9
  6
CONTINUOUS
 70
0
 71
3
 72
17
 73
13
 74
0
 42
0.0000001
 43
0.0000001
 44
0.0000000001
 40
0.0
 40
0.0
 40
0.0
 40
0.0
 40
0.0078720881
 40
0.0236020993
 40
0.048289348
 40
0.0819609147
 40
0.1750789158
 40
0.2994699964
 40
0.4502890639
 40
0.6216579663
 40
0.8072976896
 40
1.0
 40
1.0
 40
1.0
 40
1.0
 10
178.9365419542
 20
176.8308476354
 30
0.0
 10
178.9365360823
 20
176.8282060067
 30
0.0
 10
178.929203578
 20
176.8221898451
 30
0.0
 10
178.914540893
 20
176.817414293
 30
0.0
 10
178.8899753714
 20
176.811387577
 30
0.0
 10
178.8399924442
 20
176.8033180585
 30
0.0
 10
178.7559594888
 20
176.7945186365
 30
0.0
 10
178.6327043399
 20
176.7861804346
 30
0.0
 10
178.4829577112
 20
176.7795002976
 30
0.0
 10
178.3126180213
 20
176.7746736697
 30
0.0
 10
178.1281676129
 20
176.7717757466
 30
0.0
 10
178.0012070358
 20
176.7711484504
 30
0.0
 10
177.9365419545
 20
176.7711478724
 30
0.0
  0
SPLINE
  5
449
100
AcDbEntity
  8
93894102000_BL4
100
AcDbSpline
 62
9
  6
CONTINUOUS
 70
0
 71
3
 72
10
 73
6
 74
0
 42
0.0000001
 43
0.0000001
 44
0.0000000001
 40
0.0
 40
0.0
 40
0.0
 40
0.0
 40
0.5003162461
 40
0.7502404834
 40
1.0
 40
1.0
 40
1.0
 40
1.0
 10
177.2362481919
 20
176.7875535776
 30
0.0
 10
176.5942179266
 20
176.794203878
 30
0.0
 10
175.6314709162
 20
176.8040219033
 30
0.0
 10
174.3482371894
 20
176.8187311263
 30
0.0
 10
173.7070407753
 20
176.8273057788
 30
0.0
 10
173.3865395299
 20
176.830847596
 30
0.0
  0
SPLINE
  5
44A
100
AcDbEntity
  8
93894102000_BL4
100
AcDbSpline
 62
9
  6
CONTINUOUS
 70
0
 71
3
 72
8
 73
4
 74
0
 42
0.0000001
 43
0.0000001
 44
0.0000000001
 40
0.0
 40
0.0
 40
0.0
 40
0.0
 40
1.0
 40
1.0
 40
1.0
 40
1.0
 10
177.2362306078
 20
176.8747579158
 30
0.0
 10
175.9529987855
 20
176.8608672458
 30
0.0
 10
174.6697701339
 20
176.8466847112
 30
0.0
 10
173.3865414722
 20
176.8325050748
 30
0.0
  0
SPLINE
  5
44B
100
AcDbEntity
  8
93894102000_BL4
100
AcDbSpline
 62
7
  6
CONTINUOUS
 70
0
 71
3
 72
10
 73
6
 74
0
 42
0.0000001
 43
0.0000001
 44
0.0000000001
 40
0.0
 40
0.0
 40
0.0
 40
0.0
 40
0.2848394061
 40
0.5555780727
 40
1.0
 40
1.0
 40
1.0
 40
1.0
 10
180.0829284827
 20
172.8308476354
 30
0.0
 10
180.1203408504
 20
172.8308476354
 30
0.0
 10
180.1932366308
 20
172.8356853742
 30
0.0
 10
180.3242073225
 20
172.8449588992
 30
0.0
 10
180.4179425369
 20
172.8518090269
 30
0.0
 10
180.4759460521
 20
172.8583647261
 30
0.0
  0
SPLINE
  5
44C
100
AcDbEntity
  8
93894102000_BL4
100
AcDbSpline
 62
9
  6
CONTINUOUS
 70
0
 71
3
 72
17
 73
13
 74
0
 42
0.0000001
 43
0.0000001
 44
0.0000000001
 40
0.0
 40
0.0
 40
0.0
 40
0.0
 40
0.1927025312
 40
0.3783429528
 40
0.5497118291
 40
0.7005306998
 40
0.8249215397
 40
0.9180392605
 40
0.9517107191
 40
0.9763978885
 40
0.9921277964
 40
1.0
 40
1.0
 40
1.0
 40
1.0
 10
177.9365419548
 20
207.8905473511
 30
0.0
 10
178.0012071153
 20
207.8905467638
 30
0.0
 10
178.1281680101
 20
207.8899192926
 30
0.0
 10
178.3126187339
 20
207.8870215571
 30
0.0
 10
178.4829586031
 20
207.8821950052
 30
0.0
 10
178.6327050756
 20
207.8755147541
 30
0.0
 10
178.7559600167
 20
207.8671766214
 30
0.0
 10
178.8399927197
 20
207.8583771315
 30
0.0
 10
178.8899755652
 20
207.8503077641
 30
0.0
 10
178.9145408536
 20
207.8442807358
 30
0.0
 10
178.929203754
 20
207.8395056936
 30
0.0
 10
178.9365361499
 20
207.8334893033
 30
0.0
 10
178.9365419542
 20
207.8308476354
 30
0.0
  0
SPLINE
  5
44D
100
AcDbEntity
  8
93894102000_BL4
100
AcDbSpline
 62
7
  6
CONTINUOUS
 70
0
 71
3
 72
11
 73
7
 74
0
 42
0.0000001
 43
0.0000001
 44
0.0000000001
 40
0.0
 40
0.0
 40
0.0
 40
0.0
 40
0.0709012083
 40
0.2687748755
 40
0.5835572493
 40
1.0
 40
1.0
 40
1.0
 40
1.0
 10
74.1649800458
 20
211.8308476354
 30
0.0
 10
74.1691309914
 20
211.8288506196
 30
0.0
 10
74.1852800406
 20
211.8225777518
 30
0.0
 10
74.2228140446
 20
211.8170150061
 30
0.0
 10
74.2821824712
 20
211.8104001177
 30
0.0
 10
74.3291460476
 20
211.8057076075
 30
0.0
 10
74.3558891367
 20
211.8033304979
 30
0.0
  0
SPLINE
  5
44E
100
AcDbEntity
  8
93894102000_BL4
100
AcDbSpline
 62
7
  6
CONTINUOUS
 70
0
 71
3
 72
11
 73
7
 74
0
 42
0.0000001
 43
0.0000001
 44
0.0000000001
 40
0.0
 40
0.0
 40
0.0
 40
0.0
 40
0.0708974464
 40
0.2687655107
 40
0.5835498983
 40
1.0
 40
1.0
 40
1.0
 40
1.0
 10
74.1649800458
 20
172.8308476354
 30
0.0
 10
74.1691317205
 20
172.8328419725
 30
0.0
 10
74.1852823745
 20
172.8391089261
 30
0.0
 10
74.2228125571
 20
172.8446819417
 30
0.0
 10
74.2821822863
 20
172.8512937961
 30
0.0
 10
74.329145728
 20
172.855987588
 30
0.0
 10
74.3558891367
 20
172.8583647261
 30
0.0
  0
LINE
  5
44F
100
AcDbEntity
  8
93894102000_BL4
100
AcDbLine
 62
9
  6
CONTINUOUS
 10
74.8784876628
 20
168.3308476354
 11
74.8756393075
 21
168.355525861
  0
LINE
  5
450
100
AcDbEntity
  8
93894102000_BL4
100
AcDbLine
 62
9
  6
CONTINUOUS
 10
74.8756393075
 20
168.355525861
 11
74.3559032179
 21
172.8583673573
  0
LINE
  5
451
100
AcDbEntity
  8
93894102000_BL4
100
AcDbLine
 62
9
  6
CONTINUOUS
 10
74.3559035169
 20
211.8033278109
 11
74.8756306349
 21
216.3061717903
  0
LINE
  5
452
100
AcDbEntity
  8
93894102000_BL4
100
AcDbLine
 62
9
  6
CONTINUOUS
 10
74.8756306349
 20
216.3061717903
 11
74.8784787124
 21
216.3308476354
  0
LINE
  5
453
100
AcDbEntity
  8
93894102000_BL4
100
AcDbLine
 62
9
  6
CONTINUOUS
 10
180.3630691074
 20
17.7589485935
 11
180.4494549949
 21
17.8806111668
  0
SPLINE
  5
454
100
AcDbEntity
  8
93894102000_BL4
100
AcDbSpline
 62
7
  6
CONTINUOUS
 70
0
 71
3
 72
9
 73
5
 74
0
 42
0.0000001
 43
0.0000001
 44
0.0000000001
 40
0.0
 40
0.0
 40
0.0
 40
0.0
 40
0.4999618087
 40
1.0
 40
1.0
 40
1.0
 40
1.0
 10
180.4494024604
 20
17.8806111668
 30
0.0
 10
180.52958781
 20
17.8806111668
 30
0.0
 10
180.6923608776
 20
17.9204034617
 30
0.0
 10
180.8175592232
 20
18.0315226657
 30
0.0
 10
180.863491546
 20
18.0972636482
 30
0.0
  0
ELLIPSE
  5
455
100
AcDbEntity
  8
93894102000_BL4
100
AcDbEllipse
 62
7
  6
CONTINUOUS
 10
179.9365419542
 20
18.9308473141
 30
0.0
 11
0.7071067812
 21
0.7894682909
 31
0.0
 40
0.8956747084
 41
2.8200811984
 42
3.5154739709
  0
ELLIPSE
  5
456
100
AcDbEntity
  8
93894102000_BL4
100
AcDbEllipse
 62
7
  6
CONTINUOUS
 10
179.9365419542
 20
18.886686903
 30
0.0
 11
0.0
 21
-1.0060757362
 31
0.0
 40
0.9939609555
 41
-0.4115168461
 42
0.0
  0
ENDBLK
  5
457
100
AcDbEntity
  8
0
  6
BYBLOCK
 62
0
100
AcDbBlockEnd
  0
BLOCK
  5
458
100
AcDbEntity
  8
93780800R00_BL5
100
AcDbBlockBegin
  2
93780800R00_BL5
 70
64
 10
170.4365419542
 20
176.8308476354
  3
93780800R00_BL5
  1

  0
LINE
  5
459
100
AcDbEntity
  8
93780800R00_BL5
100
AcDbLine
 62
7
  6
CONTINUOUS
 10
169.6453088468
 20
176.9220017528
 11
169.8642642029
 21
177.0614916987
  0
LINE
  5
45A
100
AcDbEntity
  8
93780800R00_BL5
100
AcDbLine
 62
7
  6
CONTINUOUS
 10
171.2277750616
 20
176.7396935181
 11
171.0088197055
 21
176.6002035722
  0
LINE
  5
45B
100
AcDbEntity
  8
93780800R00_BL5
100
AcDbLine
 62
7
  6
CONTINUOUS
 10
170.4365419542
 20
177.5870899556
 11
170.5276960716
 21
177.6220807429
  0
LINE
  5
45C
100
AcDbEntity
  8
93780800R00_BL5
100
AcDbLine
 62
7
  6
CONTINUOUS
 10
170.4365419542
 20
176.0746053153
 11
170.3453878368
 21
176.039614528
  0
LINE
  5
45D
100
AcDbEntity
  8
93780800R00_BL5
100
AcDbLine
 62
7
  6
CONTINUOUS
 10
169.6453088468
 20
176.7396935181
 11
169.6802996341
 21
176.8308476354
  0
LINE
  5
45E
100
AcDbEntity
  8
93780800R00_BL5
100
AcDbLine
 62
7
  6
CONTINUOUS
 10
171.2277750616
 20
176.9220017528
 11
171.1927842743
 21
176.8308476354
  0
LINE
  5
45F
100
AcDbEntity
  8
93780800R00_BL5
100
AcDbLine
 62
7
  6
CONTINUOUS
 10
170.3453878368
 20
177.6220807429
 11
170.205897891
 21
177.4031253868
  0
LINE
  5
460
100
AcDbEntity
  8
93780800R00_BL5
100
AcDbLine
 62
7
  6
CONTINUOUS
 10
170.5276960716
 20
176.039614528
 11
170.6671860174
 21
176.2585698841
  0
LINE
  5
461
100
AcDbEntity
  8
93780800R00_BL5
100
AcDbLine
 62
7
  6
CONTINUOUS
 10
168.7481574434
 20
175.8106660439
 11
169.6453088468
 21
176.7396935181
  0
LINE
  5
462
100
AcDbEntity
  8
93780800R00_BL5
100
AcDbLine
 62
7
  6
CONTINUOUS
 10
172.1249264649
 20
177.851029227
 11
171.2277750616
 21
176.9220017528
  0
LINE
  5
463
100
AcDbEntity
  8
93780800R00_BL5
100
AcDbLine
 62
7
  6
CONTINUOUS
 10
170.5276960716
 20
177.6220807429
 11
171.4567235458
 21
178.5192321462
  0
LINE
  5
464
100
AcDbEntity
  8
93780800R00_BL5
100
AcDbLine
 62
7
  6
CONTINUOUS
 10
170.3453878368
 20
176.039614528
 11
169.4163603626
 21
175.1424631247
  0
LINE
  5
465
100
AcDbEntity
  8
93780800R00_BL5
100
AcDbLine
 62
7
  6
CONTINUOUS
 10
170.4365419542
 20
177.5870899556
 11
170.4365419542
 21
177.3045693722
  0
LINE
  5
466
100
AcDbEntity
  8
93780800R00_BL5
100
AcDbLine
 62
7
  6
CONTINUOUS
 10
170.4365419542
 20
176.0746053153
 11
170.4365419542
 21
176.3571258987
  0
LINE
  5
467
100
AcDbEntity
  8
93780800R00_BL5
100
AcDbLine
 62
7
  6
CONTINUOUS
 10
169.6802996341
 20
176.8308476354
 11
169.6453088468
 21
176.9220017528
  0
LINE
  5
468
100
AcDbEntity
  8
93780800R00_BL5
100
AcDbLine
 62
7
  6
CONTINUOUS
 10
170.3453878368
 20
176.039614528
 11
170.205897891
 21
176.2585698841
  0
LINE
  5
469
100
AcDbEntity
  8
93780800R00_BL5
100
AcDbLine
 62
7
  6
CONTINUOUS
 10
170.5276960716
 20
177.6220807429
 11
170.6671860174
 21
177.4031253868
  0
LINE
  5
46A
100
AcDbEntity
  8
93780800R00_BL5
100
AcDbLine
 62
7
  6
CONTINUOUS
 10
171.1927842743
 20
176.8308476354
 11
171.2277750616
 21
176.7396935181
  0
LINE
  5
46B
100
AcDbEntity
  8
93780800R00_BL5
100
AcDbLine
 62
7
  6
CONTINUOUS
 10
169.6453088468
 20
176.7396935181
 11
169.8642642029
 21
176.6002035722
  0
LINE
  5
46C
100
AcDbEntity
  8
93780800R00_BL5
100
AcDbLine
 62
7
  6
CONTINUOUS
 10
171.2277750616
 20
176.9220017528
 11
171.0088197055
 21
177.0614916987
  0
LINE
  5
46D
100
AcDbEntity
  8
93780800R00_BL5
100
AcDbLine
 62
7
  6
CONTINUOUS
 10
171.4567235458
 20
175.1424631247
 11
170.5276960716
 21
176.039614528
  0
LINE
  5
46E
100
AcDbEntity
  8
93780800R00_BL5
100
AcDbLine
 62
7
  6
CONTINUOUS
 10
169.4163603626
 20
178.5192321462
 11
170.3453878368
 21
177.6220807429
  0
LINE
  5
46F
100
AcDbEntity
  8
93780800R00_BL5
100
AcDbLine
 62
7
  6
CONTINUOUS
 10
169.6453088468
 20
176.9220017528
 11
168.7481574434
 21
177.851029227
  0
LINE
  5
470
100
AcDbEntity
  8
93780800R00_BL5
100
AcDbLine
 62
7
  6
CONTINUOUS
 10
171.2277750616
 20
176.7396935181
 11
172.1249264649
 21
175.8106660439
  0
LINE
  5
471
100
AcDbEntity
  8
93780800R00_BL5
100
AcDbLine
 62
7
  6
CONTINUOUS
 10
171.1927842743
 20
176.8308476354
 11
170.910263691
 21
176.8308476354
  0
LINE
  5
472
100
AcDbEntity
  8
93780800R00_BL5
100
AcDbLine
 62
7
  6
CONTINUOUS
 10
169.6802996341
 20
176.8308476354
 11
169.9628202174
 21
176.8308476354
  0
LINE
  5
473
100
AcDbEntity
  8
93780800R00_BL5
100
AcDbLine
 62
7
  6
CONTINUOUS
 10
170.5276960716
 20
176.039614528
 11
170.4365419542
 21
176.0746053153
  0
LINE
  5
474
100
AcDbEntity
  8
93780800R00_BL5
100
AcDbLine
 62
7
  6
CONTINUOUS
 10
170.3453878368
 20
177.6220807429
 11
170.4365419542
 21
177.5870899556
  0
ARC
  5
475
100
AcDbEntity
  8
93780800R00_BL5
100
AcDbCircle
 62
7
  6
CONTINUOUS
 10
11.0072757044
 20
-78.0430209909
 40
300.5261570629
100
AcDbArc
 50
58.0925201906
 51
58.2631633589
  0
ARC
  5
476
100
AcDbEntity
  8
93780800R00_BL5
100
AcDbCircle
 62
7
  6
CONTINUOUS
 10
-84.4373266354
 20
336.2601138624
 40
300.5261570197
100
AcDbArc
 50
328.0925201906
 51
328.2631633589
  0
CIRCLE
  5
477
100
AcDbEntity
  8
93780800R00_BL5
100
AcDbCircle
 62
7
  6
CONTINUOUS
 10
170.4365419542
 20
176.8308476354
 40
2.85
  0
ARC
  5
478
100
AcDbEntity
  8
93780800R00_BL5
100
AcDbCircle
 62
9
  6
CONTINUOUS
 10
170.4365419542
 20
176.8308476354
 40
1.9726664026
100
AcDbArc
 50
121.1528667687
 51
148.8529794039
  0
ARC
  5
479
100
AcDbEntity
  8
93780800R00_BL5
100
AcDbCircle
 62
9
  6
CONTINUOUS
 10
170.4365419542
 20
176.8308476354
 40
1.9726664026
100
AcDbArc
 50
31.14168669
 51
58.8742098283
  0
ARC
  5
47A
100
AcDbEntity
  8
93780800R00_BL5
100
AcDbCircle
 62
9
  6
CONTINUOUS
 10
170.4365419542
 20
176.8308476354
 40
1.9726664026
100
AcDbArc
 50
301.1402786404
 51
328.8739772222
  0
ARC
  5
47B
100
AcDbEntity
  8
93780800R00_BL5
100
AcDbCircle
 62
9
  6
CONTINUOUS
 10
170.4365419542
 20
176.8308476354
 40
1.9726664026
100
AcDbArc
 50
211.1234299516
 51
238.8466423422
  0
ARC
  5
47C
100
AcDbEntity
  8
93780800R00_BL5
100
AcDbCircle
 62
9
  6
CONTINUOUS
 10
170.4365419542
 20
176.8308476354
 40
1.5251992218
100
AcDbArc
 50
117.9789520644
 51
152.0210479356
  0
ARC
  5
47D
100
AcDbEntity
  8
93780800R00_BL5
100
AcDbCircle
 62
9
  6
CONTINUOUS
 10
170.4365419542
 20
176.8308476354
 40
1.5251992218
100
AcDbArc
 50
27.9789520644
 51
62.0210479356
  0
ARC
  5
47E
100
AcDbEntity
  8
93780800R00_BL5
100
AcDbCircle
 62
9
  6
CONTINUOUS
 10
170.4365419542
 20
176.8308476354
 40
1.5251992218
100
AcDbArc
 50
297.9789520644
 51
332.0210479356
  0
ARC
  5
47F
100
AcDbEntity
  8
93780800R00_BL5
100
AcDbCircle
 62
9
  6
CONTINUOUS
 10
170.4365419542
 20
176.8308476354
 40
1.5251992218
100
AcDbArc
 50
207.9789520644
 51
242.0210479356
  0
ARC
  5
480
100
AcDbEntity
  8
93780800R00_BL5
100
AcDbCircle
 62
7
  6
CONTINUOUS
 10
170.4365419542
 20
176.8308476354
 40
0.635
100
AcDbArc
 50
112.5578096573
 51
157.4421903427
  0
ARC
  5
481
100
AcDbEntity
  8
93780800R00_BL5
100
AcDbCircle
 62
7
  6
CONTINUOUS
 10
170.4365419542
 20
176.8308476354
 40
0.635
100
AcDbArc
 50
202.5578096573
 51
247.4421903427
  0
ARC
  5
482
100
AcDbEntity
  8
93780800R00_BL5
100
AcDbCircle
 62
7
  6
CONTINUOUS
 10
170.4365419542
 20
176.8308476354
 40
0.635
100
AcDbArc
 50
22.5578096573
 51
67.4421903427
  0
ARC
  5
483
100
AcDbEntity
  8
93780800R00_BL5
100
AcDbCircle
 62
7
  6
CONTINUOUS
 10
170.4365419542
 20
176.8308476354
 40
0.635
100
AcDbArc
 50
292.5578096573
 51
337.4421903427
  0
ARC
  5
484
100
AcDbEntity
  8
93780800R00_BL5
100
AcDbCircle
 62
7
  6
CONTINUOUS
 10
425.3104105598
 20
17.4015813985
 40
300.5261570386
100
AcDbArc
 50
148.0925201906
 51
148.2631633589
  0
ARC
  5
485
100
AcDbEntity
  8
93780800R00_BL5
100
AcDbCircle
 62
7
  6
CONTINUOUS
 10
329.8658081911
 20
431.7047162411
 40
300.5261570386
100
AcDbArc
 50
238.0925201906
 51
238.2631633589
  0
SPLINE
  5
486
100
AcDbEntity
  8
93780800R00_BL5
100
AcDbSpline
 62
7
  6
CONTINUOUS
 70
0
 71
3
 72
9
 73
5
 74
0
 42
0.0000001
 43
0.0000001
 44
0.0000000001
 40
0.0
 40
0.0
 40
0.0
 40
0.0
 40
0.2494291971
 40
1.0
 40
1.0
 40
1.0
 40
1.0
 10
169.089608023
 20
176.1153047289
 30
0.0
 10
169.1528718071
 20
176.1544920009
 30
0.0
 10
169.4064842542
 20
176.3116348062
 30
0.0
 10
169.6600889655
 20
176.4687914351
 30
0.0
 10
169.8501239331
 20
176.5872518545
 30
0.0
  0
LINE
  5
487
100
AcDbEntity
  8
93780800R00_BL5
100
AcDbLine
 62
7
  6
CONTINUOUS
 10
169.8501239331
 20
176.5872518545
 11
169.8642642029
 21
176.6002035722
  0
SPLINE
  5
488
100
AcDbEntity
  8
93780800R00_BL5
100
AcDbSpline
 62
7
  6
CONTINUOUS
 70
0
 71
3
 72
9
 73
5
 74
0
 42
0.0000001
 43
0.0000001
 44
0.0000000001
 40
0.0
 40
0.0
 40
0.0
 40
0.0
 40
0.2456562058
 40
1.0
 40
1.0
 40
1.0
 40
1.0
 10
169.8642642029
 20
176.6002035722
 30
0.0
 10
169.8725113286
 20
176.6190136211
 30
0.0
 10
169.9059543184
 20
176.6956401535
 30
0.0
 10
169.9387590158
 20
176.7725494135
 30
0.0
 10
169.9628202174
 20
176.8308476354
 30
0.0
  0
SPLINE
  5
489
100
AcDbEntity
  8
93780800R00_BL5
100
AcDbSpline
 62
7
  6
CONTINUOUS
 70
0
 71
3
 72
9
 73
5
 74
0
 42
0.0000001
 43
0.0000001
 44
0.0000000001
 40
0.0
 40
0.0
 40
0.0
 40
0.0
 40
0.2546871947
 40
1.0
 40
1.0
 40
1.0
 40
1.0
 10
169.9628202174
 20
176.8308476354
 30
0.0
 10
169.9546964674
 20
176.8505307829
 30
0.0
 10
169.9224879857
 20
176.9276859478
 30
0.0
 10
169.889285793
 20
177.004422442
 30
0.0
 10
169.8642642029
 20
177.0614916987
 30
0.0
  0
LINE
  5
48A
100
AcDbEntity
  8
93780800R00_BL5
100
AcDbLine
 62
7
  6
CONTINUOUS
 10
169.8642642029
 20
177.0614916987
 11
169.8501239331
 21
177.0744434164
  0
SPLINE
  5
48B
100
AcDbEntity
  8
93780800R00_BL5
100
AcDbSpline
 62
7
  6
CONTINUOUS
 70
0
 71
3
 72
9
 73
5
 74
0
 42
0.0000001
 43
0.0000001
 44
0.0000000001
 40
0.0
 40
0.0
 40
0.0
 40
0.0
 40
0.2494291971
 40
1.0
 40
1.0
 40
1.0
 40
1.0
 10
171.7834758854
 20
177.546390542
 30
0.0
 10
171.7202121013
 20
177.50720327
 30
0.0
 10
171.4665996541
 20
177.3500604647
 30
0.0
 10
171.2129949429
 20
177.1929038358
 30
0.0
 10
171.0229599753
 20
177.0744434164
 30
0.0
  0
LINE
  5
48C
100
AcDbEntity
  8
93780800R00_BL5
100
AcDbLine
 62
7
  6
CONTINUOUS
 10
171.0229599753
 20
177.0744434164
 11
171.0088197055
 21
177.0614916987
  0
SPLINE
  5
48D
100
AcDbEntity
  8
93780800R00_BL5
100
AcDbSpline
 62
7
  6
CONTINUOUS
 70
0
 71
3
 72
9
 73
5
 74
0
 42
0.0000001
 43
0.0000001
 44
0.0000000001
 40
0.0
 40
0.0
 40
0.0
 40
0.0
 40
0.2456562058
 40
1.0
 40
1.0
 40
1.0
 40
1.0
 10
171.0088197055
 20
177.0614916987
 30
0.0
 10
171.0005725798
 20
177.0426816498
 30
0.0
 10
170.9671295899
 20
176.9660551174
 30
0.0
 10
170.9343248926
 20
176.8891458574
 30
0.0
 10
170.910263691
 20
176.8308476354
 30
0.0
  0
SPLINE
  5
48E
100
AcDbEntity
  8
93780800R00_BL5
100
AcDbSpline
 62
7
  6
CONTINUOUS
 70
0
 71
3
 72
9
 73
5
 74
0
 42
0.0000001
 43
0.0000001
 44
0.0000000001
 40
0.0
 40
0.0
 40
0.0
 40
0.0
 40
0.2546871947
 40
1.0
 40
1.0
 40
1.0
 40
1.0
 10
170.910263691
 20
176.8308476354
 30
0.0
 10
170.9183874409
 20
176.811164488
 30
0.0
 10
170.9505959226
 20
176.7340093231
 30
0.0
 10
170.9837981153
 20
176.6572728289
 30
0.0
 10
171.0088197055
 20
176.6002035722
 30
0.0
  0
LINE
  5
48F
100
AcDbEntity
  8
93780800R00_BL5
100
AcDbLine
 62
7
  6
CONTINUOUS
 10
171.0088197055
 20
176.6002035722
 11
171.0229599753
 21
176.5872518545
  0
SPLINE
  5
490
100
AcDbEntity
  8
93780800R00_BL5
100
AcDbSpline
 62
7
  6
CONTINUOUS
 70
0
 71
3
 72
9
 73
5
 74
0
 42
0.0000001
 43
0.0000001
 44
0.0000000001
 40
0.0
 40
0.0
 40
0.0
 40
0.0
 40
0.2494291971
 40
1.0
 40
1.0
 40
1.0
 40
1.0
 10
169.7209990476
 20
178.1777815667
 30
0.0
 10
169.7601863196
 20
178.1145177826
 30
0.0
 10
169.9173291249
 20
177.8609053354
 30
0.0
 10
170.0744857538
 20
177.6073006241
 30
0.0
 10
170.1929461732
 20
177.4172656566
 30
0.0
  0
LINE
  5
491
100
AcDbEntity
  8
93780800R00_BL5
100
AcDbLine
 62
7
  6
CONTINUOUS
 10
170.1929461732
 20
177.4172656566
 11
170.205897891
 21
177.4031253868
  0
SPLINE
  5
492
100
AcDbEntity
  8
93780800R00_BL5
100
AcDbSpline
 62
7
  6
CONTINUOUS
 70
0
 71
3
 72
9
 73
5
 74
0
 42
0.0000001
 43
0.0000001
 44
0.0000000001
 40
0.0
 40
0.0
 40
0.0
 40
0.0
 40
0.2456562051
 40
1.0
 40
1.0
 40
1.0
 40
1.0
 10
170.205897891
 20
177.4031253868
 30
0.0
 10
170.2247079398
 20
177.3948782611
 30
0.0
 10
170.3013344722
 20
177.3614352712
 30
0.0
 10
170.3782437322
 20
177.3286305739
 30
0.0
 10
170.4365419542
 20
177.3045693722
 30
0.0
  0
SPLINE
  5
493
100
AcDbEntity
  8
93780800R00_BL5
100
AcDbSpline
 62
7
  6
CONTINUOUS
 70
0
 71
3
 72
9
 73
5
 74
0
 42
0.0000001
 43
0.0000001
 44
0.0000000001
 40
0.0
 40
0.0
 40
0.0
 40
0.0
 40
0.2546871958
 40
1.0
 40
1.0
 40
1.0
 40
1.0
 10
170.4365419542
 20
177.3045693722
 30
0.0
 10
170.4562251017
 20
177.3126931222
 30
0.0
 10
170.5333802666
 20
177.3449016039
 30
0.0
 10
170.6101167608
 20
177.3781037966
 30
0.0
 10
170.6671860174
 20
177.4031253868
 30
0.0
  0
LINE
  5
494
100
AcDbEntity
  8
93780800R00_BL5
100
AcDbLine
 62
7
  6
CONTINUOUS
 10
170.6671860174
 20
177.4031253868
 11
170.6801377351
 21
177.4172656566
  0
SPLINE
  5
495
100
AcDbEntity
  8
93780800R00_BL5
100
AcDbSpline
 62
7
  6
CONTINUOUS
 70
0
 71
3
 72
9
 73
5
 74
0
 42
0.0000001
 43
0.0000001
 44
0.0000000001
 40
0.0
 40
0.0
 40
0.0
 40
0.0
 40
0.2494291971
 40
1.0
 40
1.0
 40
1.0
 40
1.0
 10
171.1520848607
 20
175.4839137042
 30
0.0
 10
171.1128975887
 20
175.5471774883
 30
0.0
 10
170.9557547835
 20
175.8007899355
 30
0.0
 10
170.7985981545
 20
176.0543946468
 30
0.0
 10
170.6801377351
 20
176.2444296143
 30
0.0
  0
LINE
  5
496
100
AcDbEntity
  8
93780800R00_BL5
100
AcDbLine
 62
7
  6
CONTINUOUS
 10
170.6801377351
 20
176.2444296143
 11
170.6671860174
 21
176.2585698841
  0
SPLINE
  5
497
100
AcDbEntity
  8
93780800R00_BL5
100
AcDbSpline
 62
7
  6
CONTINUOUS
 70
0
 71
3
 72
9
 73
5
 74
0
 42
0.0000001
 43
0.0000001
 44
0.0000000001
 40
0.0
 40
0.0
 40
0.0
 40
0.0
 40
0.2456562051
 40
1.0
 40
1.0
 40
1.0
 40
1.0
 10
170.6671860174
 20
176.2585698841
 30
0.0
 10
170.6483759685
 20
176.2668170098
 30
0.0
 10
170.5717494362
 20
176.3002599997
 30
0.0
 10
170.4948401762
 20
176.333064697
 30
0.0
 10
170.4365419542
 20
176.3571258987
 30
0.0
  0
SPLINE
  5
498
100
AcDbEntity
  8
93780800R00_BL5
100
AcDbSpline
 62
7
  6
CONTINUOUS
 70
0
 71
3
 72
9
 73
5
 74
0
 42
0.0000001
 43
0.0000001
 44
0.0000000001
 40
0.0
 40
0.0
 40
0.0
 40
0.0
 40
0.2546871958
 40
1.0
 40
1.0
 40
1.0
 40
1.0
 10
170.4365419542
 20
176.3571258987
 30
0.0
 10
170.4168588067
 20
176.3490021486
 30
0.0
 10
170.3397036417
 20
176.316793667
 30
0.0
 10
170.2629671476
 20
176.2835914742
 30
0.0
 10
170.205897891
 20
176.2585698841
 30
0.0
  0
LINE
  5
499
100
AcDbEntity
  8
93780800R00_BL5
100
AcDbLine
 62
7
  6
CONTINUOUS
 10
170.205897891
 20
176.2585698841
 11
170.1929461732
 21
176.2444296143
  0
SPLINE
  5
49A
100
AcDbEntity
  8
93780800R00_BL5
100
AcDbSpline
 62
7
  6
CONTINUOUS
 70
0
 71
3
 72
10
 73
6
 74
0
 42
0.0000001
 43
0.0000001
 44
0.0000000001
 40
0.0
 40
0.0
 40
0.0
 40
0.0
 40
0.1744823037
 40
0.4139756216
 40
1.0
 40
1.0
 40
1.0
 40
1.0
 10
169.089608023
 20
177.546390542
 30
0.0
 10
169.0669491963
 20
177.5604260224
 30
0.0
 10
169.016415302
 20
177.5987411575
 30
0.0
 10
168.9004063761
 20
177.6980778962
 30
0.0
 10
168.8103433949
 20
177.7866337892
 30
0.0
 10
168.7481574434
 20
177.851029227
 30
0.0
  0
SPLINE
  5
49B
100
AcDbEntity
  8
93780800R00_BL5
100
AcDbSpline
 62
7
  6
CONTINUOUS
 70
0
 71
3
 72
10
 73
6
 74
0
 42
0.0000001
 43
0.0000001
 44
0.0000000001
 40
0.0
 40
0.0
 40
0.0
 40
0.0
 40
0.5860290742
 40
0.8255203224
 40
1.0
 40
1.0
 40
1.0
 40
1.0
 10
169.4163603626
 20
178.5192321462
 30
0.0
 10
169.480756318
 20
178.4570456949
 30
0.0
 10
169.5693123264
 20
178.3669822848
 30
0.0
 10
169.6686493431
 20
178.2509735686
 30
0.0
 10
169.7069637781
 20
178.2004400528
 30
0.0
 10
169.7209990476
 20
178.1777815667
 30
0.0
  0
SPLINE
  5
49C
100
AcDbEntity
  8
93780800R00_BL5
100
AcDbSpline
 62
7
  6
CONTINUOUS
 70
0
 71
3
 72
10
 73
6
 74
0
 42
0.0000001
 43
0.0000001
 44
0.0000000001
 40
0.0
 40
0.0
 40
0.0
 40
0.0
 40
0.1744823037
 40
0.4139756216
 40
1.0
 40
1.0
 40
1.0
 40
1.0
 10
171.1520848607
 20
178.1777815667
 30
0.0
 10
171.1661203411
 20
178.2004403933
 30
0.0
 10
171.2044354762
 20
178.2509742876
 30
0.0
 10
171.3037722149
 20
178.3669832135
 30
0.0
 10
171.392328108
 20
178.4570461947
 30
0.0
 10
171.4567235458
 20
178.5192321462
 30
0.0
  0
SPLINE
  5
49D
100
AcDbEntity
  8
93780800R00_BL5
100
AcDbSpline
 62
7
  6
CONTINUOUS
 70
0
 71
3
 72
10
 73
6
 74
0
 42
0.0000001
 43
0.0000001
 44
0.0000000001
 40
0.0
 40
0.0
 40
0.0
 40
0.0
 40
0.5860290742
 40
0.8255203224
 40
1.0
 40
1.0
 40
1.0
 40
1.0
 10
172.1249264649
 20
177.851029227
 30
0.0
 10
172.0627400137
 20
177.7866332717
 30
0.0
 10
171.9726766036
 20
177.6980772632
 30
0.0
 10
171.8566678873
 20
177.5987402466
 30
0.0
 10
171.8061343715
 20
177.5604258115
 30
0.0
 10
171.7834758854
 20
177.546390542
 30
0.0
  0
SPLINE
  5
49E
100
AcDbEntity
  8
93780800R00_BL5
100
AcDbSpline
 62
7
  6
CONTINUOUS
 70
0
 71
3
 72
10
 73
6
 74
0
 42
0.0000001
 43
0.0000001
 44
0.0000000001
 40
0.0
 40
0.0
 40
0.0
 40
0.0
 40
0.1744823037
 40
0.4139756216
 40
1.0
 40
1.0
 40
1.0
 40
1.0
 10
171.7834758854
 20
176.1153047289
 30
0.0
 10
171.806134712
 20
176.1012692485
 30
0.0
 10
171.8566686063
 20
176.0629541134
 30
0.0
 10
171.9726775323
 20
175.9636173747
 30
0.0
 10
172.0627405135
 20
175.8750614817
 30
0.0
 10
172.1249264649
 20
175.8106660439
 30
0.0
  0
SPLINE
  5
49F
100
AcDbEntity
  8
93780800R00_BL5
100
AcDbSpline
 62
7
  6
CONTINUOUS
 70
0
 71
3
 72
10
 73
6
 74
0
 42
0.0000001
 43
0.0000001
 44
0.0000000001
 40
0.0
 40
0.0
 40
0.0
 40
0.0
 40
0.5860290742
 40
0.8255203224
 40
1.0
 40
1.0
 40
1.0
 40
1.0
 10
171.4567235458
 20
175.1424631247
 30
0.0
 10
171.3923275904
 20
175.204649576
 30
0.0
 10
171.303771582
 20
175.2947129861
 30
0.0
 10
171.2044345653
 20
175.4107217023
 30
0.0
 10
171.1661201302
 20
175.4612552181
 30
0.0
 10
171.1520848607
 20
175.4839137042
 30
0.0
  0
SPLINE
  5
4A0
100
AcDbEntity
  8
93780800R00_BL5
100
AcDbSpline
 62
7
  6
CONTINUOUS
 70
0
 71
3
 72
10
 73
6
 74
0
 42
0.0000001
 43
0.0000001
 44
0.0000000001
 40
0.0
 40
0.0
 40
0.0
 40
0.0
 40
0.1744823037
 40
0.4139756216
 40
1.0
 40
1.0
 40
1.0
 40
1.0
 10
169.7209990476
 20
175.4839137042
 30
0.0
 10
169.7069635672
 20
175.4612548776
 30
0.0
 10
169.6686484321
 20
175.4107209833
 30
0.0
 10
169.5693116935
 20
175.2947120574
 30
0.0
 10
169.4807558004
 20
175.2046490762
 30
0.0
 10
169.4163603626
 20
175.1424631247
 30
0.0
  0
SPLINE
  5
4A1
100
AcDbEntity
  8
93780800R00_BL5
100
AcDbSpline
 62
7
  6
CONTINUOUS
 70
0
 71
3
 72
10
 73
6
 74
0
 42
0.0000001
 43
0.0000001
 44
0.0000000001
 40
0.0
 40
0.0
 40
0.0
 40
0.0
 40
0.5860290742
 40
0.8255203224
 40
1.0
 40
1.0
 40
1.0
 40
1.0
 10
168.7481574434
 20
175.8106660439
 30
0.0
 10
168.8103438947
 20
175.8750619992
 30
0.0
 10
168.9004073048
 20
175.9636180077
 30
0.0
 10
169.016416021
 20
176.0629550243
 30
0.0
 10
169.0669495368
 20
176.1012694594
 30
0.0
 10
169.089608023
 20
176.1153047289
 30
0.0
  0
ENDBLK
  5
4A2
100
AcDbEntity
  8
0
  6
BYBLOCK
 62
0
100
AcDbBlockEnd
  0
BLOCK
  5
4A3
100
AcDbEntity
  8
93773508000_BL6
100
AcDbBlockBegin
  2
93773508000_BL6
 70
64
 10
129.8212002241
 20
256.1958476354
  3
93773508000_BL6
  1

  0
LINE
  5
4A4
100
AcDbEntity
  8
93773508000_BL6
100
AcDbLine
 62
7
  6
CONTINUOUS
 10
162.4365419542
 20
262.6958476354
 11
162.4365419542
 21
270.6958476354
  0
LINE
  5
4A5
100
AcDbEntity
  8
93773508000_BL6
100
AcDbLine
 62
9
  6
CONTINUOUS
 10
164.9365419542
 20
266.1958476354
 11
164.9365419542
 21
262.6958476354
  0
LINE
  5
4A6
100
AcDbEntity
  8
93773508000_BL6
100
AcDbLine
 62
7
  6
CENTER
 10
174.4365419542
 20
250.6958476354
 11
174.4365419542
 21
241.6958476354
  0
LINE
  5
4A7
100
AcDbEntity
  8
93773508000_BL6
100
AcDbLine
 62
7
  6
CENTER
 10
174.4365419542
 20
250.6958476354
 11
174.4365419542
 21
259.6958476354
  0
LINE
  5
4A8
100
AcDbEntity
  8
93773508000_BL6
100
AcDbLine
 62
9
  6
CONTINUOUS
 10
183.9365419542
 20
266.1958476354
 11
183.9365419542
 21
262.6958476354
  0
LINE
  5
4A9
100
AcDbEntity
  8
93773508000_BL6
100
AcDbLine
 62
7
  6
CONTINUOUS
 10
186.4365419542
 20
270.6958476354
 11
186.4365419542
 21
262.6958476354
  0
LINE
  5
4AA
100
AcDbEntity
  8
93773508000_BL6
100
AcDbLine
 62
7
  6
CONTINUOUS
 10
186.4365419542
 20
270.2269765096
 11
186.4365419542
 21
262.6958476354
  0
LINE
  5
4AB
100
AcDbEntity
  8
93773508000_BL6
100
AcDbLine
 62
7
  6
CENTER
 10
174.4365419542
 20
250.6958476354
 11
165.4365419542
 21
250.6958476354
  0
LINE
  5
4AC
100
AcDbEntity
  8
93773508000_BL6
100
AcDbLine
 62
7
  6
CENTER
 10
174.4365419542
 20
250.6958476354
 11
183.4365419542
 21
250.6958476354
  0
LINE
  5
4AD
100
AcDbEntity
  8
93773508000_BL6
100
AcDbLine
 62
7
  6
CONTINUOUS
 10
186.4365419542
 20
262.6958476354
 11
162.4365419542
 21
262.6958476354
  0
LINE
  5
4AE
100
AcDbEntity
  8
93773508000_BL6
100
AcDbLine
 62
9
  6
CONTINUOUS
 10
183.9365419542
 20
266.1958476354
 11
164.9365419542
 21
266.1958476354
  0
LINE
  5
4AF
100
AcDbEntity
  8
93773508000_BL6
100
AcDbLine
 62
7
  6
CONTINUOUS
 10
186.4365419542
 20
270.6958476354
 11
162.4365419542
 21
270.6958476354
  0
LINE
  5
4B0
100
AcDbEntity
  8
93773508000_BL6
100
AcDbLine
 62
7
  6
CONTINUOUS
 10
75.1649800458
 20
266.1958476354
 11
75.1649800458
 21
262.6958476354
  0
LINE
  5
4B1
100
AcDbEntity
  8
93773508000_BL6
100
AcDbLine
 62
9
  6
CONTINUOUS
 10
77.6649800458
 20
270.2269765096
 11
77.6649800458
 21
262.6958476354
  0
LINE
  5
4B2
100
AcDbEntity
  8
93773508000_BL6
100
AcDbLine
 62
7
  6
CONTINUOUS
 10
81.1649800458
 20
270.6958476354
 11
81.1649800458
 21
262.6958476354
  0
LINE
  5
4B3
100
AcDbEntity
  8
93773508000_BL6
100
AcDbLine
 62
7
  6
CENTER
 10
84.1649800458
 20
250.6958476354
 11
73.2058584939
 21
250.6958476354
  0
LINE
  5
4B4
100
AcDbEntity
  8
93773508000_BL6
100
AcDbLine
 62
7
  6
CONTINUOUS
 10
81.1649800458
 20
262.6958476354
 11
75.1649800458
 21
262.6958476354
  0
LINE
  5
4B5
100
AcDbEntity
  8
93773508000_BL6
100
AcDbLine
 62
7
  6
CONTINUOUS
 10
81.1649800458
 20
270.6958476354
 11
79.6649800458
 21
270.6958476354
  0
ARC
  5
4B6
100
AcDbEntity
  8
93773508000_BL6
100
AcDbCircle
 62
7
  6
CONTINUOUS
 10
79.6649800458
 20
266.1958476354
 40
4.5
100
AcDbArc
 50
90.0
 51
180.0
  0
SPLINE
  5
4B7
100
AcDbEntity
  8
93773508000_BL6
100
AcDbSpline
 62
7
  6
CONTINUOUS
 70
0
 71
3
 72
15
 73
11
 74
0
 42
0.0000001
 43
0.0000001
 44
0.0000000001
 40
0.0
 40
0.0
 40
0.0
 40
0.0
 40
0.2949059487
 40
0.4382402744
 40
0.5760880077
 40
0.7055877919
 40
0.8228100893
 40
0.9225680099
 40
0.9642475189
 40
1.0
 40
1.0
 40
1.0
 40
1.0
 10
164.9365419542
 20
266.1958476354
 30
0.0
 10
164.6557717289
 20
266.5725404213
 30
0.0
 10
164.2383555282
 20
267.1322019571
 30
0.0
 10
163.70071172
 20
267.8760556664
 30
0.0
 10
163.3268225055
 20
268.4129813931
 30
0.0
 10
162.9911836817
 20
268.9258226112
 30
0.0
 10
162.7122253442
 20
269.4021349869
 30
0.0
 10
162.5345521667
 20
269.7758723023
 30
0.0
 10
162.4531786071
 20
270.0467154088
 30
0.0
 10
162.4365419542
 20
270.1700187735
 30
0.0
 10
162.4365419542
 20
270.2269765096
 30
0.0
  0
SPLINE
  5
4B8
100
AcDbEntity
  8
93773508000_BL6
100
AcDbSpline
 62
7
  6
CONTINUOUS
 70
0
 71
3
 72
15
 73
11
 74
0
 42
0.0000001
 43
0.0000001
 44
0.0000000001
 40
0.0
 40
0.0
 40
0.0
 40
0.0
 40
0.035754175
 40
0.0774524355
 40
0.1772379426
 40
0.2944879652
 40
0.4240003305
 40
0.5618483148
 40
0.7051632096
 40
1.0
 40
1.0
 40
1.0
 40
1.0
 10
186.4365419542
 20
270.2269765096
 30
0.0
 10
186.4365419542
 20
270.1700160621
 30
0.0
 10
186.419877202
 20
270.0466839142
 30
0.0
 10
186.3385291183
 20
269.7757549341
 30
0.0
 10
186.160743492
 20
269.4019322925
 30
0.0
 10
185.8817334641
 20
268.9255297638
 30
0.0
 10
185.5460404167
 20
268.4126447579
 30
0.0
 10
185.1721509491
 20
267.8757325146
 30
0.0
 10
184.6345789494
 20
267.1320000682
 30
0.0
 10
184.2172464
 20
266.5724521689
 30
0.0
 10
183.9365419542
 20
266.1958476354
 30
0.0
  0
ENDBLK
  5
4B9
100
AcDbEntity
  8
0
  6
BYBLOCK
 62
0
100
AcDbBlockEnd
  0
BLOCK
  5
4BA
100
AcDbEntity
  8
62890203000_STELLUNG_1_BL7
100
AcDbBlockBegin
  2
62890203000_STELLUNG_1_BL7
 70
64
 10
128.3007497888
 20
192.3308476354
  3
62890203000_STELLUNG_1_BL7
  1

  0
LINE
  5
4BB
100
AcDbEntity
  8
62890203000_STELLUNG_1_BL7
100
AcDbLine
 62
7
  6
CENTER
 10
161.4365419542
 20
192.3308476354
 11
185.4365419542
 21
192.3308476354
  0
LINE
  5
4BC
100
AcDbEntity
  8
62890203000_STELLUNG_1_BL7
100
AcDbLine
 62
7
  6
CENTER
 10
71.1649576233
 20
192.3308476354
 11
84.5652326288
 21
192.3308476354
  0
ENDBLK
  5
4BD
100
AcDbEntity
  8
0
  6
BYBLOCK
 62
0
100
AcDbBlockEnd
  0
BLOCK
  5
4BE
100
AcDbEntity
  8
91324206R00_BL8
100
AcDbBlockBegin
  2
91324206R00_BL8
 70
64
 10
172.4365419542
 20
165.9458476354
  3
91324206R00_BL8
  1

  0
ARC
  5
4BF
100
AcDbEntity
  8
91324206R00_BL8
100
AcDbCircle
 62
7
  6
CONTINUOUS
 10
171.5302395716
 20
164.4022427665
 40
0.59
100
AcDbArc
 50
12.9620900983
 51
106.2006509181
  0
ARC
  5
4C0
100
AcDbEntity
  8
91324206R00_BL8
100
AcDbCircle
 62
7
  6
CONTINUOUS
 10
171.5302395716
 20
167.4894525044
 40
0.59
100
AcDbArc
 50
253.7993490819
 51
347.0379099017
  0
ARC
  5
4C1
100
AcDbEntity
  8
91324206R00_BL8
100
AcDbCircle
 62
7
  6
CONTINUOUS
 10
170.731648596
 20
165.9458476354
 40
0.5048933582
100
AcDbArc
 50
309.6496393284
 51
50.3503606716
  0
ARC
  5
4C2
100
AcDbEntity
  8
91324206R00_BL8
100
AcDbCircle
 62
7
  6
CONTINUOUS
 10
171.2707676971
 20
165.2953129465
 40
0.34
100
AcDbArc
 50
129.6496393284
 51
200.3768601609
  0
ARC
  5
4C3
100
AcDbEntity
  8
91324206R00_BL8
100
AcDbCircle
 62
7
  6
CONTINUOUS
 10
171.2707676971
 20
165.2953129465
 40
0.34
100
AcDbArc
 50
224.6349631418
 51
286.2006509181
  0
ARC
  5
4C4
100
AcDbEntity
  8
91324206R00_BL8
100
AcDbCircle
 62
7
  6
CONTINUOUS
 10
171.2707676971
 20
166.5963823244
 40
0.34
100
AcDbArc
 50
73.7993490819
 51
135.3499645031
  0
ARC
  5
4C5
100
AcDbEntity
  8
91324206R00_BL8
100
AcDbCircle
 62
7
  6
CONTINUOUS
 10
171.2707676971
 20
166.5963823244
 40
0.34
100
AcDbArc
 50
159.9223576597
 51
230.3503606716
  0
ARC
  5
4C6
100
AcDbEntity
  8
91324206R00_BL8
100
AcDbCircle
 62
7
  6
CONTINUOUS
 10
173.3428443368
 20
164.4022427665
 40
0.59
100
AcDbArc
 50
73.7993490819
 51
167.0379099017
  0
ARC
  5
4C7
100
AcDbEntity
  8
91324206R00_BL8
100
AcDbCircle
 62
7
  6
CONTINUOUS
 10
173.6023162113
 20
165.2953129465
 40
0.34
100
AcDbArc
 50
253.7993490819
 51
315.3499645031
  0
ARC
  5
4C8
100
AcDbEntity
  8
91324206R00_BL8
100
AcDbCircle
 62
7
  6
CONTINUOUS
 10
173.6023162113
 20
165.2953129465
 40
0.34
100
AcDbArc
 50
339.9223576597
 51
50.3503606716
  0
ARC
  5
4C9
100
AcDbEntity
  8
91324206R00_BL8
100
AcDbCircle
 62
7
  6
CONTINUOUS
 10
172.4365419542
 20
164.6108476354
 40
0.34
100
AcDbArc
 50
192.9620900983
 51
256.3581162113
  0
ARC
  5
4CA
100
AcDbEntity
  8
91324206R00_BL8
100
AcDbCircle
 62
7
  6
CONTINUOUS
 10
172.4365419542
 20
164.6108476354
 40
0.34
100
AcDbArc
 50
283.5069100039
 51
347.0379099017
  0
CIRCLE
  5
4CB
100
AcDbEntity
  8
91324206R00_BL8
100
AcDbCircle
 62
7
  6
CONTINUOUS
 10
172.4365419542
 20
165.9458476354
 40
3.75
  0
CIRCLE
  5
4CC
100
AcDbEntity
  8
91324206R00_BL8
100
AcDbCircle
 62
7
  6
CONTINUOUS
 10
172.4365419542
 20
165.9458476354
 40
1.675
  0
ARC
  5
4CD
100
AcDbEntity
  8
91324206R00_BL8
100
AcDbCircle
 62
7
  6
CONTINUOUS
 10
172.4365419542
 20
167.2808476354
 40
0.34
100
AcDbArc
 50
12.9620900983
 51
76.3581162113
  0
ARC
  5
4CE
100
AcDbEntity
  8
91324206R00_BL8
100
AcDbCircle
 62
7
  6
CONTINUOUS
 10
172.4365419542
 20
167.2808476354
 40
0.34
100
AcDbArc
 50
103.5069100039
 51
167.0379099017
  0
ARC
  5
4CF
100
AcDbEntity
  8
91324206R00_BL8
100
AcDbCircle
 62
7
  6
CONTINUOUS
 10
173.3428443368
 20
167.4894525044
 40
0.59
100
AcDbArc
 50
192.9620900983
 51
286.2006509181
  0
ARC
  5
4D0
100
AcDbEntity
  8
91324206R00_BL8
100
AcDbCircle
 62
7
  6
CONTINUOUS
 10
173.6023162113
 20
166.5963823244
 40
0.34
100
AcDbArc
 50
309.6496393284
 51
20.3768601609
  0
ARC
  5
4D1
100
AcDbEntity
  8
91324206R00_BL8
100
AcDbCircle
 62
7
  6
CONTINUOUS
 10
173.6023162113
 20
166.5963823244
 40
0.34
100
AcDbArc
 50
44.6349631418
 51
106.2006509181
  0
ARC
  5
4D2
100
AcDbEntity
  8
91324206R00_BL8
100
AcDbCircle
 62
7
  6
CONTINUOUS
 10
174.1414353124
 20
165.9458476354
 40
0.5048933582
100
AcDbArc
 50
129.6496393284
 51
230.3503606716
  0
ENDBLK
  5
4D3
100
AcDbEntity
  8
0
  6
BYBLOCK
 62
0
100
AcDbBlockEnd
  0
BLOCK
  5
4D4
100
AcDbEntity
  8
91324206R00_BL9
100
AcDbBlockBegin
  2
91324206R00_BL9
 70
64
 10
172.4365419542
 20
218.4458476354
  3
91324206R00_BL9
  1

  0
ARC
  5
4D5
100
AcDbEntity
  8
91324206R00_BL9
100
AcDbCircle
 62
7
  6
CONTINUOUS
 10
171.5302395716
 20
216.9022427665
 40
0.59
100
AcDbArc
 50
12.9620900983
 51
106.2006509181
  0
ARC
  5
4D6
100
AcDbEntity
  8
91324206R00_BL9
100
AcDbCircle
 62
7
  6
CONTINUOUS
 10
171.5302395716
 20
219.9894525044
 40
0.59
100
AcDbArc
 50
253.7993490819
 51
347.0379099017
  0
ARC
  5
4D7
100
AcDbEntity
  8
91324206R00_BL9
100
AcDbCircle
 62
7
  6
CONTINUOUS
 10
170.731648596
 20
218.4458476354
 40
0.5048933582
100
AcDbArc
 50
309.6496393284
 51
50.3503606716
  0
ARC
  5
4D8
100
AcDbEntity
  8
91324206R00_BL9
100
AcDbCircle
 62
7
  6
CONTINUOUS
 10
171.2707676971
 20
217.7953129465
 40
0.34
100
AcDbArc
 50
129.6496393284
 51
200.3768601609
  0
ARC
  5
4D9
100
AcDbEntity
  8
91324206R00_BL9
100
AcDbCircle
 62
7
  6
CONTINUOUS
 10
171.2707676971
 20
217.7953129465
 40
0.34
100
AcDbArc
 50
224.6349631418
 51
286.2006509181
  0
ARC
  5
4DA
100
AcDbEntity
  8
91324206R00_BL9
100
AcDbCircle
 62
7
  6
CONTINUOUS
 10
171.2707676971
 20
219.0963823244
 40
0.34
100
AcDbArc
 50
73.7993490819
 51
135.3499645031
  0
ARC
  5
4DB
100
AcDbEntity
  8
91324206R00_BL9
100
AcDbCircle
 62
7
  6
CONTINUOUS
 10
171.2707676971
 20
219.0963823244
 40
0.34
100
AcDbArc
 50
159.9223576597
 51
230.3503606716
  0
ARC
  5
4DC
100
AcDbEntity
  8
91324206R00_BL9
100
AcDbCircle
 62
7
  6
CONTINUOUS
 10
173.3428443368
 20
216.9022427665
 40
0.59
100
AcDbArc
 50
73.7993490819
 51
167.0379099017
  0
ARC
  5
4DD
100
AcDbEntity
  8
91324206R00_BL9
100
AcDbCircle
 62
7
  6
CONTINUOUS
 10
173.6023162113
 20
217.7953129465
 40
0.34
100
AcDbArc
 50
253.7993490819
 51
315.3499645031
  0
ARC
  5
4DE
100
AcDbEntity
  8
91324206R00_BL9
100
AcDbCircle
 62
7
  6
CONTINUOUS
 10
173.6023162113
 20
217.7953129465
 40
0.34
100
AcDbArc
 50
339.9223576597
 51
50.3503606716
  0
ARC
  5
4DF
100
AcDbEntity
  8
91324206R00_BL9
100
AcDbCircle
 62
7
  6
CONTINUOUS
 10
172.4365419542
 20
217.1108476354
 40
0.34
100
AcDbArc
 50
192.9620900983
 51
256.3581162113
  0
ARC
  5
4E0
100
AcDbEntity
  8
91324206R00_BL9
100
AcDbCircle
 62
7
  6
CONTINUOUS
 10
172.4365419542
 20
217.1108476354
 40
0.34
100
AcDbArc
 50
283.5069100039
 51
347.0379099017
  0
CIRCLE
  5
4E1
100
AcDbEntity
  8
91324206R00_BL9
100
AcDbCircle
 62
7
  6
CONTINUOUS
 10
172.4365419542
 20
218.4458476354
 40
3.75
  0
CIRCLE
  5
4E2
100
AcDbEntity
  8
91324206R00_BL9
100
AcDbCircle
 62
7
  6
CONTINUOUS
 10
172.4365419542
 20
218.4458476354
 40
1.675
  0
ARC
  5
4E3
100
AcDbEntity
  8
91324206R00_BL9
100
AcDbCircle
 62
7
  6
CONTINUOUS
 10
172.4365419542
 20
219.7808476354
 40
0.34
100
AcDbArc
 50
12.9620900983
 51
76.3581162113
  0
ARC
  5
4E4
100
AcDbEntity
  8
91324206R00_BL9
100
AcDbCircle
 62
7
  6
CONTINUOUS
 10
172.4365419542
 20
219.7808476354
 40
0.34
100
AcDbArc
 50
103.5069100039
 51
167.0379099017
  0
ARC
  5
4E5
100
AcDbEntity
  8
91324206R00_BL9
100
AcDbCircle
 62
7
  6
CONTINUOUS
 10
173.3428443368
 20
219.9894525044
 40
0.59
100
AcDbArc
 50
192.9620900983
 51
286.2006509181
  0
ARC
  5
4E6
100
AcDbEntity
  8
91324206R00_BL9
100
AcDbCircle
 62
7
  6
CONTINUOUS
 10
173.6023162113
 20
219.0963823244
 40
0.34
100
AcDbArc
 50
309.6496393284
 51
20.3768601609
  0
ARC
  5
4E7
100
AcDbEntity
  8
91324206R00_BL9
100
AcDbCircle
 62
7
  6
CONTINUOUS
 10
173.6023162113
 20
219.0963823244
 40
0.34
100
AcDbArc
 50
44.6349631418
 51
106.2006509181
  0
ARC
  5
4E8
100
AcDbEntity
  8
91324206R00_BL9
100
AcDbCircle
 62
7
  6
CONTINUOUS
 10
174.1414353124
 20
218.4458476354
 40
0.5048933582
100
AcDbArc
 50
129.6496393284
 51
230.3503606716
  0
ENDBLK
  5
4E9
100
AcDbEntity
  8
0
  6
BYBLOCK
 62
0
100
AcDbBlockEnd
  0
BLOCK
  5
4EA
100
AcDbEntity
  8
0
100
AcDbBlockBegin
  2
_FILLED
 70
64
 10
0.0
 20
0.0
  3
_FILLED
  1

  0
SOLID
  5
4EB
100
AcDbEntity
  8
0
  6
BYBLOCK
 62
0
100
AcDbTrace
 10
0.0
 20
0.0
 11
-1.0
 21
0.1428571429
 12
-1.0
 22
-0.1428571429
 13
-1.0
 23
-0.1428571429
  0
ENDBLK
  5
4EC
100
AcDbEntity
  8
0
  6
BYBLOCK
 62
0
100
AcDbBlockEnd
  0
BLOCK
  5
4ED
100
AcDbEntity
  8
0
100
AcDbBlockBegin
 62
2
  6
CONTINUOUS
  2
*D0
 70
65
 10
0.0
 20
0.0
  3
*D0
  1

  0
TEXT
  5
4EE
100
AcDbEntity
  8
0
100
AcDbText
 62
5
  6
CONTINUOUS
 10
77.1828371886
 20
281.3208476354
  7
STANDARD
 40
2.5
  1
6
 72
5
 11
79.1471229029
 21
281.3208476354
100
AcDbText
  0
LINE
  5
4EF
100
AcDbEntity
  8
0
100
AcDbLine
 62
2
  6
CONTINUOUS
 10
75.1649800458
 20
262.6958476354
 11
75.1649800458
 21
281.6958476354
  0
LINE
  5
4F0
100
AcDbEntity
  8
0
100
AcDbLine
 62
2
  6
CONTINUOUS
 10
81.1649800458
 20
262.6958476354
 11
81.1649800458
 21
281.6958476354
  0
LINE
  5
4F1
100
AcDbEntity
  8
0
100
AcDbLine
 62
2
  6
CONTINUOUS
 10
75.1649800458
 20
280.6958476354
 11
68.1649800458
 21
280.6958476354
  0
LINE
  5
4F2
100
AcDbEntity
  8
0
100
AcDbLine
 62
2
  6
CONTINUOUS
 10
68.1649800458
 20
280.6958476354
 11
78.1649800458
 21
280.6958476354
  0
LINE
  5
4F3
100
AcDbEntity
  8
0
100
AcDbLine
 62
2
  6
CONTINUOUS
 10
81.1649800458
 20
280.6958476354
 11
88.1649800458
 21
280.6958476354
  0
LINE
  5
4F4
100
AcDbEntity
  8
0
100
AcDbLine
 62
2
  6
CONTINUOUS
 10
88.1649800458
 20
280.6958476354
 11
78.1649800458
 21
280.6958476354
  0
INSERT
  5
4F5
100
AcDbEntity
  8
0
100
AcDbBlockReference
 62
2
  6
CONTINUOUS
  2
_FILLED
 10
75.1649800458
 20
280.6958476354
 41
3.5
 42
3.5
 43
3.5
  0
INSERT
  5
4F6
100
AcDbEntity
  8
0
100
AcDbBlockReference
 62
2
  6
CONTINUOUS
  2
_FILLED
 10
81.1649800458
 20
280.6958476354
 41
3.5
 42
3.5
 43
3.5
 50
180.0
  0
ENDBLK
  5
4F7
100
AcDbEntity
  8
0
  6
BYBLOCK
 62
0
100
AcDbBlockEnd
  0
BLOCK
  5
4F8
100
AcDbEntity
  8
0
100
AcDbBlockBegin
 62
2
  6
CONTINUOUS
  2
*D1
 70
65
 10
0.0
 20
0.0
  3
*D1
  1

  0
TEXT
  5
4F9
100
AcDbEntity
  8
0
100
AcDbText
 62
5
  6
CONTINUOUS
 10
172.4722562399
 20
281.3208476354
  7
STANDARD
 40
2.5
  1
24
 72
5
 11
176.4008276685
 21
281.3208476354
100
AcDbText
  0
LINE
  5
4FA
100
AcDbEntity
  8
0
100
AcDbLine
 62
2
  6
CONTINUOUS
 10
162.4365419542
 20
262.6958476354
 11
162.4365419542
 21
281.6958476354
  0
LINE
  5
4FB
100
AcDbEntity
  8
0
100
AcDbLine
 62
2
  6
CONTINUOUS
 10
186.4365419542
 20
262.6958476354
 11
186.4365419542
 21
281.6958476354
  0
LINE
  5
4FC
100
AcDbEntity
  8
0
100
AcDbLine
 62
2
  6
CONTINUOUS
 10
162.4365419542
 20
280.6958476354
 11
174.4365419542
 21
280.6958476354
  0
LINE
  5
4FD
100
AcDbEntity
  8
0
100
AcDbLine
 62
2
  6
CONTINUOUS
 10
186.4365419542
 20
280.6958476354
 11
174.4365419542
 21
280.6958476354
  0
INSERT
  5
4FE
100
AcDbEntity
  8
0
100
AcDbBlockReference
 62
2
  6
CONTINUOUS
  2
_FILLED
 10
162.4365419542
 20
280.6958476354
 41
3.5
 42
3.5
 43
3.5
 50
180.0
  0
INSERT
  5
4FF
100
AcDbEntity
  8
0
100
AcDbBlockReference
 62
2
  6
CONTINUOUS
  2
_FILLED
 10
186.4365419542
 20
280.6958476354
 41
3.5
 42
3.5
 43
3.5
  0
ENDBLK
  5
500
100
AcDbEntity
  8
0
  6
BYBLOCK
 62
0
100
AcDbBlockEnd
  0
BLOCK
  5
501
100
AcDbEntity
  8
0
100
AcDbBlockBegin
 62
2
  6
CONTINUOUS
  2
*D2
 70
65
 10
0.0
 20
0.0
  3
*D2
  1

  0
TEXT
  5
502
100
AcDbEntity
  8
0
100
AcDbText
 62
5
  6
CONTINUOUS
 10
137.8115419542
 20
150.1601333497
  7
STANDARD
 40
2.5
  1
216.5
 50
90.0
 72
5
 11
137.8115419542
 21
158.7315619212
100
AcDbText
  0
LINE
  5
503
100
AcDbEntity
  8
0
100
AcDbLine
 62
2
  6
CONTINUOUS
 10
165.4365419542
 20
262.6958476354
 11
137.4365419542
 21
262.6958476354
  0
LINE
  5
504
100
AcDbEntity
  8
0
100
AcDbLine
 62
2
  6
CONTINUOUS
 10
165.4365419542
 20
46.1958476354
 11
137.4365419542
 21
46.1958476354
  0
LINE
  5
505
100
AcDbEntity
  8
0
100
AcDbLine
 62
2
  6
CONTINUOUS
 10
138.4365419542
 20
262.6958476354
 11
138.4365419542
 21
154.4458476354
  0
LINE
  5
506
100
AcDbEntity
  8
0
100
AcDbLine
 62
2
  6
CONTINUOUS
 10
138.4365419542
 20
46.1958476354
 11
138.4365419542
 21
154.4458476354
  0
INSERT
  5
507
100
AcDbEntity
  8
0
100
AcDbBlockReference
 62
2
  6
CONTINUOUS
  2
_FILLED
 10
138.4365419542
 20
262.6958476354
 41
3.5
 42
3.5
 43
3.5
 50
90.0
  0
INSERT
  5
508
100
AcDbEntity
  8
0
100
AcDbBlockReference
 62
2
  6
CONTINUOUS
  2
_FILLED
 10
138.4365419542
 20
46.1958476354
 41
3.5
 42
3.5
 43
3.5
 50
270.0
  0
ENDBLK
  5
509
100
AcDbEntity
  8
0
  6
BYBLOCK
 62
0
100
AcDbBlockEnd
  0
BLOCK
  5
50A
100
AcDbEntity
  8
0
100
AcDbBlockBegin
 62
2
  6
CONTINUOUS
  2
*D3
 70
65
 10
0.0
 20
0.0
  3
*D3
  1

  0
TEXT
  5
50B
100
AcDbEntity
  8
0
100
AcDbText
 62
5
  6
CONTINUOUS
 10
151.8115419542
 20
99.2315619212
  7
STANDARD
 40
2.5
  1
62
 50
90.0
 72
5
 11
151.8115419542
 21
103.1601333497
100
AcDbText
  0
LINE
  5
50C
100
AcDbEntity
  8
0
100
AcDbLine
 62
2
  6
CONTINUOUS
 10
169.8115419542
 20
70.1958476354
 11
151.4365419542
 21
70.1958476354
  0
LINE
  5
50D
100
AcDbEntity
  8
0
100
AcDbLine
 62
2
  6
CONTINUOUS
 10
169.8115419542
 20
132.1958476354
 11
151.4365419542
 21
132.1958476354
  0
LINE
  5
50E
100
AcDbEntity
  8
0
100
AcDbLine
 62
2
  6
CONTINUOUS
 10
152.4365419542
 20
70.1958476354
 11
152.4365419542
 21
101.1958476354
  0
LINE
  5
50F
100
AcDbEntity
  8
0
100
AcDbLine
 62
2
  6
CONTINUOUS
 10
152.4365419542
 20
132.1958476354
 11
152.4365419542
 21
101.1958476354
  0
INSERT
  5
510
100
AcDbEntity
  8
0
100
AcDbBlockReference
 62
2
  6
CONTINUOUS
  2
_FILLED
 10
152.4365419542
 20
70.1958476354
 41
3.5
 42
3.5
 43
3.5
 50
270.0
  0
INSERT
  5
511
100
AcDbEntity
  8
0
100
AcDbBlockReference
 62
2
  6
CONTINUOUS
  2
_FILLED
 10
152.4365419542
 20
132.1958476354
 41
3.5
 42
3.5
 43
3.5
 50
90.0
  0
ENDBLK
  5
512
100
AcDbEntity
  8
0
  6
BYBLOCK
 62
0
100
AcDbBlockEnd
  0
BLOCK
  5
513
100
AcDbEntity
  8
0
100
AcDbBlockBegin
 62
2
  6
CONTINUOUS
  2
*D4
 70
65
 10
0.0
 20
0.0
  3
*D4
  1

  0
TEXT
  5
514
100
AcDbEntity
  8
0
100
AcDbText
 62
5
  6
CONTINUOUS
 10
144.8115419542
 20
145.066919064
  7
STANDARD
 40
2.5
  1
91
 50
90.0
 72
5
 11
144.8115419542
 21
148.4597762069
100
AcDbText
  0
LINE
  5
515
100
AcDbEntity
  8
0
100
AcDbLine
 62
2
  6
CONTINUOUS
 10
166.4755892981
 20
101.1958476354
 11
153.521072996
 21
101.1958476354
  0
LINE
  5
516
100
AcDbEntity
  8
0
100
AcDbLine
 62
2
  6
CONTINUOUS
 10
148.5958358536
 20
101.1958476354
 11
144.4365419542
 21
101.1958476354
  0
LINE
  5
517
100
AcDbEntity
  8
0
100
AcDbLine
 62
2
  6
CONTINUOUS
 10
161.4365419542
 20
192.3308476354
 11
144.4365419542
 21
192.3308476354
  0
LINE
  5
518
100
AcDbEntity
  8
0
100
AcDbLine
 62
2
  6
CONTINUOUS
 10
145.4365419542
 20
101.1958476354
 11
145.4365419542
 21
146.7633476354
  0
LINE
  5
519
100
AcDbEntity
  8
0
100
AcDbLine
 62
2
  6
CONTINUOUS
 10
145.4365419542
 20
192.3308476354
 11
145.4365419542
 21
146.7633476354
  0
INSERT
  5
51A
100
AcDbEntity
  8
0
100
AcDbBlockReference
 62
2
  6
CONTINUOUS
  2
_FILLED
 10
145.4365419542
 20
101.1958476354
 41
3.5
 42
3.5
 43
3.5
 50
270.0
  0
INSERT
  5
51B
100
AcDbEntity
  8
0
100
AcDbBlockReference
 62
2
  6
CONTINUOUS
  2
_FILLED
 10
145.4365419542
 20
192.3308476354
 41
3.5
 42
3.5
 43
3.5
 50
90.0
  0
ENDBLK
  5
51C
100
AcDbEntity
  8
0
  6
BYBLOCK
 62
0
100
AcDbBlockEnd
  0
BLOCK
  5
51D
100
AcDbEntity
  8
0
100
AcDbBlockBegin
 62
2
  6
CONTINUOUS
  2
*D5
 70
65
 10
0.0
 20
0.0
  3
*D5
  1

  0
TEXT
  5
51E
100
AcDbEntity
  8
0
100
AcDbText
 62
5
  6
CONTINUOUS
 10
130.8115419542
 20
149.9815619212
  7
STANDARD
 40
2.5
  1
232.5
 50
90.0
 72
5
 11
130.8115419542
 21
158.9101333497
100
AcDbText
  0
LINE
  5
51F
100
AcDbEntity
  8
0
100
AcDbLine
 62
2
  6
CONTINUOUS
 10
162.4365419542
 20
38.1958476354
 11
130.4365419542
 21
38.1958476354
  0
LINE
  5
520
100
AcDbEntity
  8
0
100
AcDbLine
 62
2
  6
CONTINUOUS
 10
162.4365419542
 20
270.6958476354
 11
130.4365419542
 21
270.6958476354
  0
LINE
  5
521
100
AcDbEntity
  8
0
100
AcDbLine
 62
2
  6
CONTINUOUS
 10
131.4365419542
 20
38.1958476354
 11
131.4365419542
 21
154.4458476354
  0
LINE
  5
522
100
AcDbEntity
  8
0
100
AcDbLine
 62
2
  6
CONTINUOUS
 10
131.4365419542
 20
270.6958476354
 11
131.4365419542
 21
154.4458476354
  0
INSERT
  5
523
100
AcDbEntity
  8
0
100
AcDbBlockReference
 62
2
  6
CONTINUOUS
  2
_FILLED
 10
131.4365419542
 20
38.1958476354
 41
3.5
 42
3.5
 43
3.5
 50
270.0
  0
INSERT
  5
524
100
AcDbEntity
  8
0
100
AcDbBlockReference
 62
2
  6
CONTINUOUS
  2
_FILLED
 10
131.4365419542
 20
270.6958476354
 41
3.5
 42
3.5
 43
3.5
 50
90.0
  0
ENDBLK
  5
525
100
AcDbEntity
  8
0
  6
BYBLOCK
 62
0
100
AcDbBlockEnd
  0
BLOCK
  5
526
100
AcDbEntity
  8
0
100
AcDbBlockBegin
 62
2
  6
CONTINUOUS
  2
*D6
 70
65
 10
0.0
 20
0.0
  3
*D6
  1

  0
TEXT
  5
527
100
AcDbEntity
  8
0
100
AcDbText
 62
5
  6
CONTINUOUS
 10
202.8115419542
 20
217.941919064
  7
STANDARD
 40
2.5
  1
58.4
 50
90.0
 72
5
 11
202.8115419542
 21
225.0847762069
100
AcDbText
  0
LINE
  5
528
100
AcDbEntity
  8
0
100
AcDbLine
 62
2
  6
CONTINUOUS
 10
185.4365419542
 20
192.3308476354
 11
204.4365419542
 21
192.3308476354
  0
LINE
  5
529
100
AcDbEntity
  8
0
100
AcDbLine
 62
2
  6
CONTINUOUS
 10
183.4365419542
 20
250.6958476354
 11
204.4365419542
 21
250.6958476354
  0
LINE
  5
52A
100
AcDbEntity
  8
0
100
AcDbLine
 62
2
  6
CONTINUOUS
 10
203.4365419542
 20
192.3308476354
 11
203.4365419542
 21
221.5133476354
  0
LINE
  5
52B
100
AcDbEntity
  8
0
100
AcDbLine
 62
2
  6
CONTINUOUS
 10
203.4365419542
 20
250.6958476354
 11
203.4365419542
 21
221.5133476354
  0
INSERT
  5
52C
100
AcDbEntity
  8
0
100
AcDbBlockReference
 62
2
  6
CONTINUOUS
  2
_FILLED
 10
203.4365419542
 20
192.3308476354
 41
3.5
 42
3.5
 43
3.5
 50
270.0
  0
INSERT
  5
52D
100
AcDbEntity
  8
0
100
AcDbBlockReference
 62
2
  6
CONTINUOUS
  2
_FILLED
 10
203.4365419542
 20
250.6958476354
 41
3.5
 42
3.5
 43
3.5
 50
90.0
  0
ENDBLK
  5
52E
100
AcDbEntity
  8
0
  6
BYBLOCK
 62
0
100
AcDbBlockEnd
  0
BLOCK
  5
52F
100
AcDbEntity
  8
0
100
AcDbBlockBegin
 62
2
  6
CONTINUOUS
  2
*D7
 70
65
 10
0.0
 20
0.0
  3
*D7
  1

  0
TEXT
  5
530
100
AcDbEntity
  8
0
100
AcDbText
 62
5
  6
CONTINUOUS
 10
195.8115419542
 20
168.8883476354
  7
STANDARD
 40
2.5
  1
43
 50
90.0
 72
5
 11
195.8115419542
 21
172.6383476354
100
AcDbText
  0
LINE
  5
531
100
AcDbEntity
  8
0
100
AcDbLine
 62
2
  6
CONTINUOUS
 10
182.8365419542
 20
149.1958476354
 11
197.4365419542
 21
149.1958476354
  0
LINE
  5
532
100
AcDbEntity
  8
0
100
AcDbLine
 62
2
  6
CONTINUOUS
 10
185.4365419542
 20
192.3308476354
 11
197.4365419542
 21
192.3308476354
  0
LINE
  5
533
100
AcDbEntity
  8
0
100
AcDbLine
 62
2
  6
CONTINUOUS
 10
196.4365419542
 20
149.1958476354
 11
196.4365419542
 21
170.7633476354
  0
LINE
  5
534
100
AcDbEntity
  8
0
100
AcDbLine
 62
2
  6
CONTINUOUS
 10
196.4365419542
 20
192.3308476354
 11
196.4365419542
 21
170.7633476354
  0
INSERT
  5
535
100
AcDbEntity
  8
0
100
AcDbBlockReference
 62
2
  6
CONTINUOUS
  2
_FILLED
 10
196.4365419542
 20
149.1958476354
 41
3.5
 42
3.5
 43
3.5
 50
270.0
  0
INSERT
  5
536
100
AcDbEntity
  8
0
100
AcDbBlockReference
 62
2
  6
CONTINUOUS
  2
_FILLED
 10
196.4365419542
 20
192.3308476354
 41
3.5
 42
3.5
 43
3.5
 50
90.0
  0
ENDBLK
  5
537
100
AcDbEntity
  8
0
  6
BYBLOCK
 62
0
100
AcDbBlockEnd
  0
BLOCK
  5
538
100
AcDbEntity
  8
0
100
AcDbBlockBegin
 62
2
  6
CONTINUOUS
  2
*D8
 70
65
 10
0.0
 20
0.0
  3
*D8
  1

  0
TEXT
  5
539
100
AcDbEntity
  8
0
100
AcDbText
 62
5
  6
CONTINUOUS
 10
202.8115419542
 20
122.6740619212
  7
STANDARD
 40
2.5
  1
134
 50
90.0
 72
5
 11
202.8115419542
 21
127.8526333497
100
AcDbText
  0
LINE
  5
53A
100
AcDbEntity
  8
0
100
AcDbLine
 62
2
  6
CONTINUOUS
 10
185.4365419542
 20
192.3308476354
 11
204.4365419542
 21
192.3308476354
  0
LINE
  5
53B
100
AcDbEntity
  8
0
100
AcDbLine
 62
2
  6
CONTINUOUS
 10
183.4365419542
 20
58.1958476354
 11
204.4365419542
 21
58.1958476354
  0
LINE
  5
53C
100
AcDbEntity
  8
0
100
AcDbLine
 62
2
  6
CONTINUOUS
 10
203.4365419542
 20
192.3308476354
 11
203.4365419542
 21
125.2633476354
  0
LINE
  5
53D
100
AcDbEntity
  8
0
100
AcDbLine
 62
2
  6
CONTINUOUS
 10
203.4365419542
 20
58.1958476354
 11
203.4365419542
 21
125.2633476354
  0
INSERT
  5
53E
100
AcDbEntity
  8
0
100
AcDbBlockReference
 62
2
  6
CONTINUOUS
  2
_FILLED
 10
203.4365419542
 20
192.3308476354
 41
3.5
 42
3.5
 43
3.5
 50
90.0
  0
INSERT
  5
53F
100
AcDbEntity
  8
0
100
AcDbBlockReference
 62
2
  6
CONTINUOUS
  2
_FILLED
 10
203.4365419542
 20
58.1958476354
 41
3.5
 42
3.5
 43
3.5
 50
270.0
  0
ENDBLK
  5
540
100
AcDbEntity
  8
0
  6
BYBLOCK
 62
0
100
AcDbBlockEnd
  0
BLOCK
  5
541
100
AcDbEntity
  8
0
100
AcDbBlockBegin
 62
2
  6
CONTINUOUS
  2
*D9
 70
65
 10
0.0
 20
0.0
  3
*D9
  1

  0
TEXT
  5
542
100
AcDbEntity
  8
0
100
AcDbText
 62
5
  6
CONTINUOUS
 10
157.6740649697
 20
30.8510777922
  7
STANDARD
 40
2.5
  1
2
 72
5
 11
159.638350684
 21
30.8510777922
100
AcDbText
  0
LINE
  5
543
100
AcDbEntity
  8
0
100
AcDbLine
 62
2
  6
CONTINUOUS
 10
164.4365419542
 20
24.3838065416
 11
164.4365419542
 21
31.2260777922
  0
LINE
  5
544
100
AcDbEntity
  8
0
100
AcDbLine
 62
2
  6
CONTINUOUS
 10
162.4365419542
 20
24.3838065416
 11
162.4365419542
 21
31.2260777922
  0
LINE
  5
545
100
AcDbEntity
  8
0
100
AcDbLine
 62
2
  6
CONTINUOUS
 10
164.4365419542
 20
30.2260777922
 11
171.4365419542
 21
30.2260777922
  0
LINE
  5
546
100
AcDbEntity
  8
0
100
AcDbLine
 62
2
  6
CONTINUOUS
 10
171.4365419542
 20
30.2260777922
 11
163.4365419542
 21
30.2260777922
  0
LINE
  5
547
100
AcDbEntity
  8
0
100
AcDbLine
 62
2
  6
CONTINUOUS
 10
162.4365419542
 20
30.2260777922
 11
157.6740649697
 21
30.2260777922
  0
LINE
  5
548
100
AcDbEntity
  8
0
100
AcDbLine
 62
2
  6
CONTINUOUS
 10
157.6740649697
 20
30.2260777922
 11
163.4365419542
 21
30.2260777922
  0
INSERT
  5
549
100
AcDbEntity
  8
0
100
AcDbBlockReference
 62
2
  6
CONTINUOUS
  2
_FILLED
 10
164.4365419542
 20
30.2260777922
 41
3.5
 42
3.5
 43
3.5
 50
180.0
  0
INSERT
  5
54A
100
AcDbEntity
  8
0
100
AcDbBlockReference
 62
2
  6
CONTINUOUS
  2
_FILLED
 10
162.4365419542
 20
30.2260777922
 41
3.5
 42
3.5
 43
3.5
  0
ENDBLK
  5
54B
100
AcDbEntity
  8
0
  6
BYBLOCK
 62
0
100
AcDbBlockEnd
  0
BLOCK
  5
54C
100
AcDbEntity
  8
0
100
AcDbBlockBegin
 62
2
  6
CONTINUOUS
  2
*D10
 70
65
 10
0.0
 20
0.0
  3
*D10
  1

  0
TEXT
  5
54D
100
AcDbEntity
  8
0
100
AcDbText
 62
5
  6
CONTINUOUS
 10
171.1329705256
 20
136.936386112
  7
STANDARD
 40
2.5
  1
12.3
 72
5
 11
177.7401133827
 21
136.936386112
100
AcDbText
  0
LINE
  5
54E
100
AcDbEntity
  8
0
100
AcDbLine
 62
2
  6
CONTINUOUS
 10
168.3115419542
 20
130.6958476354
 11
168.3115419542
 21
137.311386112
  0
LINE
  5
54F
100
AcDbEntity
  8
0
100
AcDbLine
 62
2
  6
CONTINUOUS
 10
180.5615419542
 20
130.6958476354
 11
180.5615419542
 21
137.311386112
  0
LINE
  5
550
100
AcDbEntity
  8
0
100
AcDbLine
 62
2
  6
CONTINUOUS
 10
168.3115419542
 20
136.311386112
 11
161.3115419542
 21
136.311386112
  0
LINE
  5
551
100
AcDbEntity
  8
0
100
AcDbLine
 62
2
  6
CONTINUOUS
 10
161.3115419542
 20
136.311386112
 11
174.4365419542
 21
136.311386112
  0
LINE
  5
552
100
AcDbEntity
  8
0
100
AcDbLine
 62
2
  6
CONTINUOUS
 10
180.5615419542
 20
136.311386112
 11
187.5615419542
 21
136.311386112
  0
LINE
  5
553
100
AcDbEntity
  8
0
100
AcDbLine
 62
2
  6
CONTINUOUS
 10
187.5615419542
 20
136.311386112
 11
174.4365419542
 21
136.311386112
  0
INSERT
  5
554
100
AcDbEntity
  8
0
100
AcDbBlockReference
 62
2
  6
CONTINUOUS
  2
_FILLED
 10
168.3115419542
 20
136.311386112
 41
3.5
 42
3.5
 43
3.5
  0
INSERT
  5
555
100
AcDbEntity
  8
0
100
AcDbBlockReference
 62
2
  6
CONTINUOUS
  2
_FILLED
 10
180.5615419542
 20
136.311386112
 41
3.5
 42
3.5
 43
3.5
 50
180.0
  0
ENDBLK
  5
556
100
AcDbEntity
  8
0
  6
BYBLOCK
 62
0
100
AcDbBlockEnd
  0
BLOCK
  5
557
100
AcDbEntity
  8
0
100
AcDbBlockBegin
  2
*T1
 70
1
 10
0.0
 20
0.0
  3
*T1
  1

  0
LINE
  5
558
100
AcDbEntity
  8
0
100
AcDbLine
 62
2
  6
CONTINUOUS
 10
0.0
 20
0.0
 11
180.0
 21
0.0
  0
LINE
  5
559
100
AcDbEntity
  8
0
100
AcDbLine
 62
2
  6
CONTINUOUS
 10
0.0
 20
0.0
 11
0.0
 21
-45.875
  0
LINE
  5
55A
100
AcDbEntity
  8
0
100
AcDbLine
 62
2
  6
CONTINUOUS
 10
0.0
 20
-21.875
 11
180.0
 21
-21.875
  0
LINE
  5
55B
100
AcDbEntity
  8
0
100
AcDbLine
 62
2
  6
CONTINUOUS
 10
64.0
 20
-27.875
 11
109.0
 21
-27.875
  0
LINE
  5
55C
100
AcDbEntity
  8
0
100
AcDbLine
 62
2
  6
CONTINUOUS
 10
64.0
 20
-33.875
 11
109.0
 21
-33.875
  0
LINE
  5
55D
100
AcDbEntity
  8
0
100
AcDbLine
 62
2
  6
CONTINUOUS
 10
119.0
 20
-33.875
 11
180.0
 21
-33.875
  0
LINE
  5
55E
100
AcDbEntity
  8
0
100
AcDbLine
 62
2
  6
CONTINUOUS
 10
34.0
 20
-39.875
 11
119.0
 21
-39.875
  0
LINE
  5
55F
100
AcDbEntity
  8
0
100
AcDbLine
 62
2
  6
CONTINUOUS
 10
0.0
 20
-45.875
 11
180.0
 21
-45.875
  0
LINE
  5
560
100
AcDbEntity
  8
0
100
AcDbLine
 62
2
  6
CONTINUOUS
 10
34.0
 20
-21.875
 11
34.0
 21
-45.875
  0
LINE
  5
561
100
AcDbEntity
  8
0
100
AcDbLine
 62
2
  6
CONTINUOUS
 10
64.0
 20
-21.875
 11
64.0
 21
-39.875
  0
LINE
  5
562
100
AcDbEntity
  8
0
100
AcDbLine
 62
2
  6
CONTINUOUS
 10
76.0
 20
-21.875
 11
76.0
 21
-39.875
  0
LINE
  5
563
100
AcDbEntity
  8
0
100
AcDbLine
 62
2
  6
CONTINUOUS
 10
96.0
 20
-27.875
 11
96.0
 21
-39.875
  0
LINE
  5
564
100
AcDbEntity
  8
0
100
AcDbLine
 62
2
  6
CONTINUOUS
 10
109.0
 20
-21.875
 11
109.0
 21
-39.875
  0
LINE
  5
565
100
AcDbEntity
  8
0
100
AcDbLine
 62
2
  6
CONTINUOUS
 10
119.0
 20
-21.875
 11
119.0
 21
-45.875
  0
LINE
  5
566
100
AcDbEntity
  8
0
100
AcDbLine
 62
2
  6
CONTINUOUS
 10
170.0
 20
-21.875
 11
170.0
 21
-45.875
  0
LINE
  5
567
100
AcDbEntity
  8
0
100
AcDbLine
 62
2
  6
CONTINUOUS
 10
180.0
 20
0.0
 11
180.0
 21
-45.875
  0
TEXT
  5
568
100
AcDbEntity
  8
0
100
AcDbText
 62
5
  6
CONTINUOUS
 10
1.0
 20
-4.509375
  7
TEXTSTYLE_3
 40
1.3
  1
Description
 72
5
 11
14.3
 21
-4.509375
100
AcDbText
  0
TEXT
  5
569
100
AcDbEntity
  8
0
100
AcDbText
 62
5
  6
CONTINUOUS
 10
1.0
 20
-9.265625
  7
TEXTSTYLE_4
 40
2.9
  1
Sbl/U24x6/216/NL12/AT/Est
 72
5
 11
52.203125
 21
-9.265625
100
AcDbText
  0
TEXT
  5
56A
100
AcDbEntity
  8
0
100
AcDbText
 62
5
  6
CONTINUOUS
 10
1.0
 20
-14.340625
  7
TEXTSTYLE_4
 40
2.9
  1
--
 72
5
 11
3.35625
 21
-14.340625
100
AcDbText
  0
TEXT
  5
56B
100
AcDbEntity
  8
0
100
AcDbText
 62
5
  6
CONTINUOUS
 10
1.0
 20
-19.415625
  7
TEXTSTYLE_4
 40
2.9
  1
striker/U24x6/216/axis 12/interchangeable latch piece/end piece
 72
5
 11
117.917578125
 21
-19.415625
100
AcDbText
  0
TEXT
  5
56C
100
AcDbEntity
  8
0
100
AcDbText
 62
5
  6
CONTINUOUS
 10
35.0
 20
-26.7649038462
  7
TEXTSTYLE_3
 40
1.3
  1
Release No. 
 72
5
 11
51.5
 21
-26.7649038462
100
AcDbText
  0
TEXT
  5
56D
100
AcDbEntity
  8
0
100
AcDbText
 62
5
  6
CONTINUOUS
 10
35.0
 20
-29.7774038462
  7
STANDARD
 40
2.0
  1
--
 72
5
 11
37.8571428571
 21
-29.7774038462
100
AcDbText
  0
TEXT
  5
56E
100
AcDbEntity
  8
0
100
AcDbText
 62
5
  6
CONTINUOUS
 10
35.0
 20
-31.2629807692
  7
TEXTSTYLE_3
 40
0.5
  1
 
 72
5
 11
35.6153846154
 21
-31.2629807692
100
AcDbText
  0
TEXT
  5
56F
100
AcDbEntity
  8
0
100
AcDbText
 62
5
  6
CONTINUOUS
 10
35.0
 20
-34.0225961538
  7
TEXTSTYLE_3
 40
1.3
  1
Mod. No.
 72
5
 11
46.7
 21
-34.0225961538
100
AcDbText
  0
TEXT
  5
570
100
AcDbEntity
  8
0
100
AcDbText
 62
5
  6
CONTINUOUS
 10
35.0
 20
-37.0350961538
  7
STANDARD
 40
2.0
  1
--
 72
5
 11
37.8571428571
 21
-37.0350961538
100
AcDbText
  0
TEXT
  5
571
100
AcDbEntity
  8
0
100
AcDbText
 62
5
  6
CONTINUOUS
 10
65.0
 20
-25.9
  7
TEXTSTYLE_3
 40
1.3
  1
Level
 72
5
 11
71.4
 21
-25.9
100
AcDbText
  0
TEXT
  5
572
100
AcDbEntity
  8
0
100
AcDbText
 62
5
  6
CONTINUOUS
 10
77.0
 20
-25.875
  7
STANDARD
 40
2.0
  1
Released
 72
5
 11
88.1428571429
 21
-25.875
100
AcDbText
  0
TEXT
  5
573
100
AcDbEntity
  8
0
100
AcDbText
 62
5
  6
CONTINUOUS
 10
110.8
 20
-25.175
  7
TEXTSTYLE_3
 40
1.3
  1
Scale
 72
5
 11
117.2
 21
-25.175
100
AcDbText
  0
TEXT
  5
574
100
AcDbEntity
  8
0
100
AcDbText
 62
5
  6
CONTINUOUS
 10
113.0178571429
 20
-28.8125
  7
STANDARD
 40
2.5
  1
 
 72
5
 11
114.9821428571
 21
-28.8125
100
AcDbText
  0
TEXT
  5
575
100
AcDbEntity
  8
0
100
AcDbText
 62
5
  6
CONTINUOUS
 10
112.125
 20
-32.5625
  7
STANDARD
 40
2.5
  1
1:1
 72
5
 11
115.875
 21
-32.5625
100
AcDbText
  0
TEXT
  5
576
100
AcDbEntity
  8
0
100
AcDbText
 62
5
  6
CONTINUOUS
 10
120.0
 20
-25.175
  7
TEXTSTYLE_3
 40
1.3
  1
Modification 
 72
5
 11
135.6
 21
-25.175
100
AcDbText
  0
TEXT
  5
577
100
AcDbEntity
  8
0
100
AcDbText
 62
5
  6
CONTINUOUS
 10
120.0
 20
-32.8375
  7
STANDARD
 40
3.5
  1
1
 72
5
 11
122.0
 21
-32.8375
100
AcDbText
  0
TEXT
  5
578
100
AcDbEntity
  8
0
100
AcDbText
 62
5
  6
CONTINUOUS
 10
172.55
 20
-25.175
  7
TEXTSTYLE_3
 40
1.3
  1
Size
 72
5
 11
177.45
 21
-25.175
100
AcDbText
  0
TEXT
  5
579
100
AcDbEntity
  8
0
100
AcDbText
 62
5
  6
CONTINUOUS
 10
172.375
 20
-32.8375
  7
STANDARD
 40
3.5
  1
 3
 72
5
 11
177.625
 21
-32.8375
100
AcDbText
  0
TEXT
  5
57A
100
AcDbEntity
  8
0
100
AcDbText
 62
5
  6
CONTINUOUS
 10
65.0
 20
-31.9
  7
TEXTSTYLE_3
 40
1.3
  1
Ver.
 72
5
 11
70.4
 21
-31.9
100
AcDbText
  0
TEXT
  5
57B
100
AcDbEntity
  8
0
100
AcDbText
 62
5
  6
CONTINUOUS
 10
77.0
 20
-31.875
  7
STANDARD
 40
2.0
  1
--
 72
5
 11
79.8571428571
 21
-31.875
100
AcDbText
  0
TEXT
  5
57C
100
AcDbEntity
  8
0
100
AcDbText
 62
5
  6
CONTINUOUS
 10
97.0
 20
-31.875
  7
STANDARD
 40
2.0
  1
--
 72
5
 11
99.8571428571
 21
-31.875
100
AcDbText
  0
TEXT
  5
57D
100
AcDbEntity
  8
0
100
AcDbText
 62
5
  6
CONTINUOUS
 10
65.0
 20
-37.9
  7
TEXTSTYLE_3
 40
1.3
  1
Draft
 72
5
 11
71.0
 21
-37.9
100
AcDbText
  0
TEXT
  5
57E
100
AcDbEntity
  8
0
100
AcDbText
 62
5
  6
CONTINUOUS
 10
77.0
 20
-37.875
  7
STANDARD
 40
2.0
  1
11.06.2015
 72
5
 11
90.4285714286
 21
-37.875
100
AcDbText
  0
TEXT
  5
57F
100
AcDbEntity
  8
0
100
AcDbText
 62
5
  6
CONTINUOUS
 10
97.0
 20
-37.875
  7
STANDARD
 40
2.0
  1
Dr
 72
5
 11
100.0952380952
 21
-37.875
100
AcDbText
  0
TEXT
  5
580
100
AcDbEntity
  8
0
100
AcDbText
 62
5
  6
CONTINUOUS
 10
120.0
 20
-37.175
  7
TEXTSTYLE_3
 40
1.3
  1
Drawing No.
 72
5
 11
135.0
 21
-37.175
100
AcDbText
  0
TEXT
  5
581
100
AcDbEntity
  8
0
100
AcDbText
 62
5
  6
CONTINUOUS
 10
120.0
 20
-42.6875
  7
TEXTSTYLE_4
 40
4.0
  1
6-37367-01-L
 72
5
 11
153.671875
 21
-42.6875
100
AcDbText
  0
TEXT
  5
582
100
AcDbEntity
  8
0
100
AcDbText
 62
5
  6
CONTINUOUS
 10
171.7
 20
-37.175
  7
TEXTSTYLE_3
 40
1.3
  1
Sheet
 72
5
 11
178.3
 21
-37.175
100
AcDbText
  0
TEXT
  5
583
100
AcDbEntity
  8
0
100
AcDbText
 62
5
  6
CONTINUOUS
 10
172.619047619
 20
-43.0875
  7
STANDARD
 40
2.5
  1
1
 72
5
 11
174.0476190476
 21
-43.0875
100
AcDbText
  0
TEXT
  5
584
100
AcDbEntity
  8
0
100
AcDbText
 62
5
  6
CONTINUOUS
 10
174.0476190476
 20
-43.0875
  7
STANDARD
 40
2.5
  1
/
 72
5
 11
175.9523809524
 21
-43.0875
100
AcDbText
  0
TEXT
  5
585
100
AcDbEntity
  8
0
100
AcDbText
 62
5
  6
CONTINUOUS
 10
175.9523809524
 20
-43.0875
  7
STANDARD
 40
2.5
  1
1
 72
5
 11
177.380952381
 21
-43.0875
100
AcDbText
  0
TEXT
  5
586
100
AcDbEntity
  8
0
100
AcDbText
 62
5
  6
CONTINUOUS
 10
35.0
 20
-43.9
  7
TEXTSTYLE_3
 40
1.3
  1
Replacement for 
 72
5
 11
56.6
 21
-43.9
100
AcDbText
  0
TEXT
  5
587
100
AcDbEntity
  8
0
100
AcDbText
 62
5
  6
CONTINUOUS
 10
56.6
 20
-43.9
  7
STANDARD
 40
2.0
  1
--
 72
5
 11
59.4571428571
 21
-43.9
100
AcDbText
  0
ENDBLK
  5
588
100
AcDbEntity
  8
0
  6
BYBLOCK
 62
0
100
AcDbBlockEnd
  0
BLOCK
  5
589
100
AcDbEntity
  8
0
100
AcDbBlockBegin
  2
*T2
 70
1
 10
0.0
 20
0.0
  3
*T2
  1

  0
LINE
  5
58A
100
AcDbEntity
  8
0
100
AcDbLine
 62
2
  6
CONTINUOUS
 10
0.0
 20
0.0
 11
11.2
 21
0.0
  0
LINE
  5
58B
100
AcDbEntity
  8
0
100
AcDbLine
 62
2
  6
CONTINUOUS
 10
0.0
 20
0.0
 11
0.0
 21
-45.0
  0
LINE
  5
58C
100
AcDbEntity
  8
0
100
AcDbLine
 62
2
  6
CONTINUOUS
 10
0.0
 20
-9.0
 11
11.2
 21
-9.0
  0
LINE
  5
58D
100
AcDbEntity
  8
0
100
AcDbLine
 62
2
  6
CONTINUOUS
 10
0.0
 20
-18.0
 11
11.2
 21
-18.0
  0
LINE
  5
58E
100
AcDbEntity
  8
0
100
AcDbLine
 62
2
  6
CONTINUOUS
 10
0.0
 20
-27.0
 11
11.2
 21
-27.0
  0
LINE
  5
58F
100
AcDbEntity
  8
0
100
AcDbLine
 62
2
  6
CONTINUOUS
 10
0.0
 20
-36.0
 11
11.2
 21
-36.0
  0
LINE
  5
590
100
AcDbEntity
  8
0
100
AcDbLine
 62
2
  6
CONTINUOUS
 10
0.0
 20
-45.0
 11
11.2
 21
-45.0
  0
LINE
  5
591
100
AcDbEntity
  8
0
100
AcDbLine
 62
2
  6
CONTINUOUS
 10
11.2
 20
0.0
 11
11.2
 21
-45.0
  0
TEXT
  5
592
100
AcDbEntity
  8
0
100
AcDbText
 62
5
  6
CONTINUOUS
 10
4.35
 20
-6.25
  7
STANDARD
 40
3.5
  1
-
 72
5
 11
6.85
 21
-6.25
100
AcDbText
  0
TEXT
  5
593
100
AcDbEntity
  8
0
100
AcDbText
 62
5
  6
CONTINUOUS
 10
4.35
 20
-15.25
  7
STANDARD
 40
3.5
  1
-
 72
5
 11
6.85
 21
-15.25
100
AcDbText
  0
TEXT
  5
594
100
AcDbEntity
  8
0
100
AcDbText
 62
5
  6
CONTINUOUS
 10
4.35
 20
-24.25
  7
STANDARD
 40
3.5
  1
-
 72
5
 11
6.85
 21
-24.25
100
AcDbText
  0
TEXT
  5
595
100
AcDbEntity
  8
0
100
AcDbText
 62
5
  6
CONTINUOUS
 10
4.35
 20
-33.25
  7
STANDARD
 40
3.5
  1
-
 72
5
 11
6.85
 21
-33.25
100
AcDbText
  0
TEXT
  5
596
100
AcDbEntity
  8
0
100
AcDbText
 62
5
  6
CONTINUOUS
 10
4.35
 20
-42.25
  7
STANDARD
 40
3.5
  1
-
 72
5
 11
6.85
 21
-42.25
100
AcDbText
  0
ENDBLK
  5
597
100
AcDbEntity
  8
0
  6
BYBLOCK
 62
0
100
AcDbBlockEnd
  0
ENDSEC
  0
SECTION
  2
ENTITIES
  0
TEXT
  5
598
100
AcDbEntity
  8
0
100
AcDbText
 62
5
  6
CONTINUOUS
 10
22.5735775821
 20
117.9209551035
  7
TEXTSTYLE_2
 40
1.5
  1
Proprietary rights apply in accordance with ISO 16016.
 50
90.0
 72
5
 11
22.5735775821
 21
173.5995265321
100
AcDbText
  0
TEXT
  5
599
100
AcDbEntity
  8
0
100
AcDbText
 62
5
  6
CONTINUOUS
 10
24.0389181064
 20
5.9968186418
  7
STANDARD
 40
2.0
  1
V4
 50
90.0
 72
5
 11
24.0389181064
 21
9.6158662609
100
AcDbText
  0
INSERT
  5
59A
100
AcDbEntity
  8
0
100
AcDbBlockReference
 62
2
  6
CONTINUOUS
  2
SYMBOL_2_BL10
 10
252.0051336987
 20
17.0063304868
  0
INSERT
  5
59B
100
AcDbEntity
  8
0
100
AcDbBlockReference
 62
2
  6
CONTINUOUS
  2
SYMBOL_5_BL11
 10
14.6760682863
 20
285.9565270313
  0
DIMENSION
  5
59C
100
AcDbEntity
  8
0
100
AcDbDimension
 62
2
  6
CONTINUOUS
  2
*D0
 10
81.1649800458
 20
280.6958476354
 11
78.1649800458
 21
280.6958476354
 70
160
 71
2
 42
6.0
  3
DIMSTYLE_1
100
AcDbAlignedDimension
 13
75.1649800458
 23
262.6958476354
 14
81.1649800458
 24
262.6958476354
100
AcDbRotatedDimension
  0
DIMENSION
  5
59D
100
AcDbEntity
  8
0
100
AcDbDimension
 62
2
  6
CONTINUOUS
  2
*D1
 10
186.4365419542
 20
280.6958476354
 11
174.4365419542
 21
280.6958476354
 70
160
 71
2
 42
24.0
  3
DIMSTYLE_2
100
AcDbAlignedDimension
 13
162.4365419542
 23
262.6958476354
 14
186.4365419542
 24
262.6958476354
100
AcDbRotatedDimension
  0
DIMENSION
  5
59E
100
AcDbEntity
  8
0
100
AcDbDimension
 62
2
  6
CONTINUOUS
  2
*D2
 10
138.4365419542
 20
46.1958476354
 11
138.4365419542
 21
154.4458476354
 70
160
 71
2
 42
216.5
  3
DIMSTYLE_3
100
AcDbAlignedDimension
 13
165.4365419542
 23
262.6958476354
 14
165.4365419542
 24
46.1958476354
 50
270.0
100
AcDbRotatedDimension
  0
DIMENSION
  5
59F
100
AcDbEntity
  8
0
100
AcDbDimension
 62
2
  6
CONTINUOUS
  2
*D3
 10
152.4365419542
 20
132.1958476354
 11
152.4365419542
 21
101.1958476354
 70
160
 71
2
 42
62.0
  3
DIMSTYLE_4
100
AcDbAlignedDimension
 13
169.8115419542
 23
70.1958476354
 14
169.8115419542
 24
132.1958476354
 50
90.0
100
AcDbRotatedDimension
  0
DIMENSION
  5
5A0
100
AcDbEntity
  8
0
100
AcDbDimension
 62
2
  6
CONTINUOUS
  2
*D4
 10
145.4365419542
 20
192.3308476354
 11
145.4365419542
 21
146.7633476354
 70
160
 71
2
 42
91.135
  3
DIMSTYLE_5
100
AcDbAlignedDimension
 13
166.4755892981
 23
101.1958476354
 14
161.4365419542
 24
192.3308476354
 50
90.0
100
AcDbRotatedDimension
  0
DIMENSION
  5
5A1
100
AcDbEntity
  8
0
100
AcDbDimension
 62
2
  6
CONTINUOUS
  2
*D5
 10
131.4365419542
 20
270.6958476354
 11
131.4365419542
 21
154.4458476354
 70
160
 71
2
 42
232.5
  3
DIMSTYLE_3
100
AcDbAlignedDimension
 13
162.4365419542
 23
38.1958476354
 14
162.4365419542
 24
270.6958476354
 50
90.0
100
AcDbRotatedDimension
  0
DIMENSION
  5
5A2
100
AcDbEntity
  8
0
100
AcDbDimension
 62
2
  6
CONTINUOUS
  2
*D6
 10
203.4365419542
 20
250.6958476354
 11
203.4365419542
 21
221.5133476354
 70
160
 71
2
 42
58.365
  3
DIMSTYLE_6
100
AcDbAlignedDimension
 13
185.4365419542
 23
192.3308476354
 14
183.4365419542
 24
250.6958476354
 50
90.0
100
AcDbRotatedDimension
  0
DIMENSION
  5
5A3
100
AcDbEntity
  8
0
100
AcDbDimension
 62
2
  6
CONTINUOUS
  2
*D7
 10
196.4365419542
 20
192.3308476354
 11
196.4365419542
 21
170.7633476354
 70
160
 71
2
 42
43.135
  3
DIMSTYLE_5
100
AcDbAlignedDimension
 13
182.8365419542
 23
149.1958476354
 14
185.4365419542
 24
192.3308476354
 50
90.0
100
AcDbRotatedDimension
  0
DIMENSION
  5
5A4
100
AcDbEntity
  8
0
100
AcDbDimension
 62
2
  6
CONTINUOUS
  2
*D8
 10
203.4365419542
 20
58.1958476354
 11
203.4365419542
 21
125.2633476354
 70
160
 71
2
 42
134.135
  3
DIMSTYLE_7
100
AcDbAlignedDimension
 13
185.4365419542
 23
192.3308476354
 14
183.4365419542
 24
58.1958476354
 50
270.0
100
AcDbRotatedDimension
  0
DIMENSION
  5
5A5
100
AcDbEntity
  8
0
100
AcDbDimension
 62
2
  6
CONTINUOUS
  2
*D9
 10
162.4365419542
 20
30.2260777922
 11
158.6562078268
 21
30.2260777922
 70
160
 71
3
 42
2.0
  3
DIMSTYLE_1
100
AcDbAlignedDimension
 13
164.4365419542
 23
24.3838065416
 14
162.4365419542
 24
24.3838065416
 50
180.0
100
AcDbRotatedDimension
  0
DIMENSION
  5
5A6
100
AcDbEntity
  8
0
100
AcDbDimension
 62
2
  6
CONTINUOUS
  2
*D10
 10
180.5615419542
 20
136.311386112
 11
174.4365419542
 21
136.311386112
 70
160
 71
2
 42
12.25
  3
DIMSTYLE_8
100
AcDbAlignedDimension
 13
168.3115419542
 23
130.6958476354
 14
180.5615419542
 24
130.6958476354
100
AcDbRotatedDimension
  0
ACAD_TABLE
  5
5A7
100
AcDbEntity
  8
0
 62
2
  6
CONTINUOUS
100
AcDbBlockReference
  2
*T1
 10
235.0
 20
50.875
 30
0.0
100
AcDbTable
342
       5C1
343
234
 11
1.0
 21
0.0
 31
0.0
 90
22
 91
5
 92
9
 93
0
 94
0
 95
0
 96
0
141
21.875
141
6.0
141
6.0
141
6.0
141
6.0
142
34.0
142
30.0
142
12.0
142
20.0
142
13.0
142
10.0
142
41.0
142
10.0
142
10.0
171
1
172
0
173
0
174
0
175
9
176
1
 91
41
178
0
145
0.0
301
CELL_VALUE
 90
4
  1
Description\P\H2.9;Sbl/U24x6/216/NL12/AT/Est\P--\Pstriker/U24x6/216/axis 12/interchangeable latch piece/end piece
304
ACVALUE_END
170
4
140
1.3
 64
5
171
1
172
0
173
1
174
0
175
1
176
1
 91
1
178
0
145
0.0
170
1
171
1
172
0
173
1
174
0
175
1
176
1
 91
1
178
0
145
0.0
170
1
171
1
172
0
173
1
174
0
175
1
176
1
 91
1
178
0
145
0.0
170
1
171
1
172
0
173
1
174
0
175
1
176
1
 91
1
178
0
145
0.0
170
1
171
1
172
0
173
1
174
0
175
1
176
1
 91
1
178
0
145
0.0
170
1
171
1
172
0
173
1
174
0
175
1
176
1
 91
1
178
0
145
0.0
170
1
171
1
172
0
173
1
174
0
175
1
176
1
 91
1
178
0
145
0.0
170
1
171
1
172
0
173
1
174
0
175
1
176
1
 91
1
178
0
145
0.0
170
1
171
1
172
0
173
0
174
0
175
1
176
4
 91
1
178
0
145
0.0
170
1
171
1
172
0
173
0
174
0
175
1
176
3
 91
41
178
0
145
0.0
301
CELL_VALUE
 90
4
  1
Release No. \P\H2.0;--\P\H0.5; \P\H1.3;Mod. No.\P\H2.0;--
304
ACVALUE_END
170
4
140
1.3
 64
5
171
1
172
0
173
0
174
0
175
1
176
1
 91
41
178
0
145
0.0
301
CELL_VALUE
 90
4
  1
Level
304
ACVALUE_END
170
4
140
1.3
 64
5
171
1
172
0
173
0
174
0
175
2
176
1
 91
41
178
0
145
0.0
301
CELL_VALUE
 90
4
  1
Released
304
ACVALUE_END
170
4
140
2.0
 64
5
171
1
172
0
173
1
174
0
175
1
176
1
 91
1
178
0
145
0.0
170
1
171
1
172
0
173
0
174
0
175
1
176
3
 91
41
178
0
145
0.0
301
CELL_VALUE
 90
4
  1
Scale\P\H2.5; \P1:1
304
ACVALUE_END
170
2
140
1.3
 64
5
171
1
172
0
173
0
174
0
175
2
176
2
 91
41
178
0
145
0.0
301
CELL_VALUE
 90
4
  1
Modification \P\H3.5;1
304
ACVALUE_END
170
1
140
1.3
 64
5
171
1
172
0
173
1
174
0
175
1
176
1
 91
1
178
0
145
0.0
170
1
171
1
172
0
173
0
174
0
175
1
176
2
 91
41
178
0
145
0.0
301
CELL_VALUE
 90
4
  1
Size\P\H3.5; 3
304
ACVALUE_END
170
2
140
1.3
 64
5
171
1
172
0
173
1
174
0
175
1
176
1
 91
1
178
0
145
0.0
170
1
171
1
172
0
173
1
174
0
175
1
176
1
 91
1
178
0
145
0.0
170
1
171
1
172
0
173
0
174
0
175
1
176
1
 91
41
178
0
145
0.0
301
CELL_VALUE
 90
4
  1
Ver.
304
ACVALUE_END
170
4
140
1.3
 64
5
171
1
172
0
173
0
174
0
175
1
176
1
 91
41
178
0
145
0.0
301
CELL_VALUE
 90
4
  1
--
304
ACVALUE_END
170
4
140
2.0
 64
5
171
1
172
0
173
0
174
0
175
1
176
1
 91
41
178
0
145
0.0
301
CELL_VALUE
 90
4
  1
--
304
ACVALUE_END
170
4
140
2.0
 64
5
171
1
172
0
173
1
174
0
175
1
176
1
 91
1
178
0
145
0.0
170
1
171
1
172
0
173
1
174
0
175
1
176
1
 91
1
178
0
145
0.0
170
1
171
1
172
0
173
1
174
0
175
1
176
1
 91
1
178
0
145
0.0
170
1
171
1
172
0
173
1
174
0
175
1
176
1
 91
1
178
0
145
0.0
170
1
171
1
172
0
173
1
174
0
175
1
176
1
 91
1
178
0
145
0.0
170
1
171
1
172
0
173
1
174
0
175
1
176
1
 91
1
178
0
145
0.0
170
1
171
1
172
0
173
0
174
0
175
1
176
1
 91
41
178
0
145
0.0
301
CELL_VALUE
 90
4
  1
Draft
304
ACVALUE_END
170
4
140
1.3
 64
5
171
1
172
0
173
0
174
0
175
1
176
1
 91
41
178
0
145
0.0
301
CELL_VALUE
 90
4
  1
11.06.2015
304
ACVALUE_END
170
4
140
2.0
 64
5
171
1
172
0
173
0
174
0
175
1
176
1
 91
41
178
0
145
0.0
301
CELL_VALUE
 90
4
  1
Dr
304
ACVALUE_END
170
4
140
2.0
 64
5
171
1
172
0
173
1
174
0
175
1
176
1
 91
1
178
0
145
0.0
170
1
171
1
172
0
173
0
174
0
175
2
176
2
 91
41
178
0
145
0.0
301
CELL_VALUE
 90
4
  1
Drawing No.\P\H4.0;6-37367-01-L
304
ACVALUE_END
170
1
140
1.3
 64
5
171
1
172
0
173
1
174
0
175
1
176
1
 91
1
178
0
145
0.0
170
1
171
1
172
0
173
0
174
0
175
1
176
2
 91
41
178
0
145
0.0
301
CELL_VALUE
 90
4
  1
Sheet\P\H2.5;1/1
304
ACVALUE_END
170
2
140
1.3
 64
5
171
1
172
0
173
1
174
0
175
1
176
1
 91
1
178
0
145
0.0
170
1
171
1
172
0
173
0
174
0
175
5
176
1
 91
41
178
0
145
0.0
301
CELL_VALUE
 90
4
  1
Replacement for \H2.0;--
304
ACVALUE_END
170
4
140
1.3
 64
5
171
1
172
0
173
1
174
0
175
1
176
1
 91
1
178
0
145
0.0
170
1
171
1
172
0
173
1
174
0
175
1
176
1
 91
1
178
0
145
0.0
170
1
171
1
172
0
173
1
174
0
175
1
176
1
 91
1
178
0
145
0.0
170
1
171
1
172
0
173
1
174
0
175
1
176
1
 91
1
178
0
145
0.0
170
1
171
1
172
0
173
1
174
0
175
1
176
1
 91
1
178
0
145
0.0
170
1
171
1
172
0
173
1
174
0
175
1
176
1
 91
1
178
0
145
0.0
170
1
171
1
172
0
173
1
174
0
175
1
176
1
 91
1
178
0
145
0.0
170
1
  0
ACAD_TABLE
  5
5A8
100
AcDbEntity
  8
0
 62
2
  6
CONTINUOUS
100
AcDbBlockReference
  2
*T2
 10
13.8
 20
104.9999999999
 30
0.0
100
AcDbTable
342
       5C1
343
235
 11
1.0
 21
0.0
 31
0.0
 90
22
 91
5
 92
1
 93
0
 94
0
 95
0
 96
0
141
9.0
141
9.0
141
9.0
141
9.0
141
9.0
142
11.2
171
1
172
0
173
0
174
0
175
1
176
1
 91
41
178
0
145
0.0
301
CELL_VALUE
 90
4
  1
-
304
ACVALUE_END
170
5
140
3.5
 64
5
171
1
172
0
173
0
174
0
175
1
176
1
 91
41
178
0
145
0.0
301
CELL_VALUE
 90
4
  1
-
304
ACVALUE_END
170
5
140
3.5
 64
5
171
1
172
0
173
0
174
0
175
1
176
1
 91
41
178
0
145
0.0
301
CELL_VALUE
 90
4
  1
-
304
ACVALUE_END
170
5
140
3.5
 64
5
171
1
172
0
173
0
174
0
175
1
176
1
 91
41
178
0
145
0.0
301
CELL_VALUE
 90
4
  1
-
304
ACVALUE_END
170
5
140
3.5
 64
5
171
1
172
0
173
0
174
0
175
1
176
1
 91
41
178
0
145
0.0
301
CELL_VALUE
 90
4
  1
-
304
ACVALUE_END
170
5
140
3.5
 64
5
  0
TEXT
  5
5A9
100
AcDbEntity
  8
0
100
AcDbText
 62
5
  6
CONTINUOUS
 10
166.2936848113
 20
10.2838065412
  7
STANDARD
 40
5.0
  1
A-A
 72
5
 11
178.4365419542
 21
10.2838065412
100
AcDbText
  0
LINE
  5
5AA
100
AcDbEntity
  8
0
100
AcDbLine
 62
5
  6
CONTINUOUS
 10
0.0
 20
297.0
 11
0.0
 21
0.0
  0
LINE
  5
5AB
100
AcDbEntity
  8
0
100
AcDbLine
 62
5
  6
CONTINUOUS
 10
25.0
 20
292.0
 11
25.0
 21
5.0
  0
LINE
  5
5AC
100
AcDbEntity
  8
0
100
AcDbLine
 62
5
  6
CONTINUOUS
 10
0.0
 20
0.0
 11
420.0
 21
0.0
  0
LINE
  5
5AD
100
AcDbEntity
  8
0
100
AcDbLine
 62
5
  6
CONTINUOUS
 10
25.0
 20
5.0
 11
415.0
 21
5.0
  0
LINE
  5
5AE
100
AcDbEntity
  8
0
100
AcDbLine
 62
5
  6
CONTINUOUS
 10
1.0
 20
148.5
 11
15.0
 21
148.5
  0
LINE
  5
5AF
100
AcDbEntity
  8
0
100
AcDbLine
 62
5
  6
CONTINUOUS
 10
25.0
 20
292.0
 11
415.0
 21
292.0
  0
LINE
  5
5B0
100
AcDbEntity
  8
0
100
AcDbLine
 62
5
  6
CONTINUOUS
 10
0.0
 20
297.0
 11
420.0
 21
297.0
  0
LINE
  5
5B1
100
AcDbEntity
  8
0
100
AcDbLine
 62
5
  6
CONTINUOUS
 10
415.0
 20
292.0
 11
415.0
 21
5.0
  0
LINE
  5
5B2
100
AcDbEntity
  8
0
100
AcDbLine
 62
5
  6
CONTINUOUS
 10
420.0
 20
297.0
 11
420.0
 21
0.0
  0
LINE
  5
5B3
100
AcDbEntity
  8
S-AXIS
100
AcDbLine
 62
7
  6
CENTER
 10
174.4365419542
 20
27.7840591247
 11
174.4365419542
 21
14.3837841191
  0
INSERT
  5
5B4
100
AcDbEntity
  8
93773508000_BL0
100
AcDbBlockReference
  2
93773508000_BL0
 10
130.1324541136
 20
42.7898270885
  0
INSERT
  5
5B5
100
AcDbEntity
  8
94862601L00_BL1
100
AcDbBlockReference
  2
94862601L00_BL1
 10
129.300761
 20
140.5398270885
  0
INSERT
  5
5B6
100
AcDbEntity
  8
93894203000_BL2
100
AcDbBlockReference
  2
93894203000_BL2
 10
129.300761
 20
118.3648270885
  0
INSERT
  5
5B7
100
AcDbEntity
  8
93780800R00_BL3
100
AcDbBlockReference
  2
93780800R00_BL3
 10
170.4365419542
 20
207.8308476354
  0
INSERT
  5
5B8
100
AcDbEntity
  8
93894102000_BL4
100
AcDbBlockReference
  2
93894102000_BL4
 10
128.300761
 20
116.8573270885
  0
INSERT
  5
5B9
100
AcDbEntity
  8
93780800R00_BL5
100
AcDbBlockReference
  2
93780800R00_BL5
 10
170.4365419542
 20
176.8308476354
  0
INSERT
  5
5BA
100
AcDbEntity
  8
93773508000_BL6
100
AcDbBlockReference
  2
93773508000_BL6
 10
129.8212002241
 20
256.1958476354
  0
INSERT
  5
5BB
100
AcDbEntity
  8
62890203000_STELLUNG_1_BL7
100
AcDbBlockReference
  2
62890203000_STELLUNG_1_BL7
 10
128.3007497888
 20
192.3308476354
  0
INSERT
  5
5BC
100
AcDbEntity
  8
91324206R00_BL8
100
AcDbBlockReference
  2
91324206R00_BL8
 10
172.4365419542
 20
165.9458476354
  0
INSERT
  5
5BD
100
AcDbEntity
  8
91324206R00_BL9
100
AcDbBlockReference
  2
91324206R00_BL9
 10
172.4365419542
 20
218.4458476354
  0
ENDSEC
  0
SECTION
  2
OBJECTS
  0
DICTIONARY
  5
C
100
AcDbDictionary
280
0
281
1
  3
ACAD_GROUP
350
D
  3
ACAD_MLINESTYLE
350
17
  3
ACAD_LAYOUT
350
1A
  3
ACAD_PLOTSETTINGS
350
19
  3
ACAD_PLOTSTYLENAME
350
E
  3
ACAD_TABLESTYLE
350
       5BE
  0
DICTIONARY
  5
D
102
{ACAD_REACTORS
330
C
102
}
100
AcDbDictionary
280
0
281
1
  0
ACDBDICTIONARYWDFLT
  5
E
102
{ACAD_REACTORS
330
C
102
}
100
AcDbDictionary
281
1
  3
Normal
350
F
100
AcDbDictionaryWithDefault
340
F
  0
DICTIONARY
  5
17
102
{ACAD_REACTORS
330
C
102
}
100
AcDbDictionary
280
0
281
1
  3
Standard
350
18
  0
DICTIONARY
  5
5BE
330
C
100
AcDbDictionary
281
1
  3
Standard
350
       5C1
  3
Standard1
350
       5C2
  0
DICTIONARY
  5
19
102
{ACAD_REACTORS
330
C
102
}
100
AcDbDictionary
281
1
  0
DICTIONARY
  5
1A
102
{ACAD_REACTORS
330
C
102
}
100
AcDbDictionary
281
1
  3
Model
350
5BF
  3
Layout1
350
5C0
  0
ACDBPLACEHOLDER
  5
F
102
{ACAD_REACTORS
330
E
102
}
  0
MLINESTYLE
  5
18
102
{ACAD_REACTORS
330
17
102
}
100
AcDbMlineStyle
  2
STANDARD
 70
0
  3

 62
256
 51
90.0
 52
90.0
 71
2
 49
0.5
 62
256
  6
BYLAYER
 49
-0.5
 62
256
  6
BYLAYER
  0
LAYOUT
  5
5BF
102
{ACAD_REACTORS
330
1A
102
}
100
AcDbPlotSettings
  1

  2
none_device
  4
ISO_A3_(420.00_x_297.00_MM)
  6

 40
0.0
 41
0.0
 42
0.0
 43
0.0
 44
420.0
 45
297.0
 46
0.0
 47
0.0
 48
0.0
 49
0.0
140
0.0
141
0.0
142
1.0
143
1.0
 70
1024
 72
1
 73
0
 74
0
  7

 75
0
147
1.0
148
0.0
149
0.0
100
AcDbLayout
  1
Model
 70
0
 71
0
 10
0.0
 20
0.0
 11
420.0
 21
297.0
 12
0.0
 22
0.0
 32
0.0
 14
0.0
 24
0.0
 34
0.0
 15
0.0
 25
0.0
 35
0.0
146
0.0
 13
0.0
 23
0.0
 33
0.0
 16
1.0
 26
0.0
 36
0.0
 17
0.0
 27
1.0
 37
0.0
 76
0
330
21A
345
0
346
0
  0
LAYOUT
  5
5C0
102
{ACAD_REACTORS
330
1A
102
}
100
AcDbPlotSettings
  1

  2
none_device
  4
ISO_A3_(420.00_x_297.00_MM)
  6

 40
0.0
 41
0.0
 42
0.0
 43
0.0
 44
420.0
 45
297.0
 46
0.0
 47
0.0
 48
0.0
 49
0.0
140
0.0
141
0.0
142
1.0
143
1.0
 70
0
 72
1
 73
0
 74
0
  7

 75
0
147
1.0
148
0.0
149
0.0
100
AcDbLayout
  1
Layout1
 70
0
 71
1
 10
0.0
 20
0.0
 11
420.0
 21
297.0
 12
0.0
 22
0.0
 32
0.0
 14
0.0
 24
0.0
 34
0.0
 15
0.0
 25
0.0
 35
0.0
146
0.0
 13
0.0
 23
0.0
 33
0.0
 16
1.0
 26
0.0
 36
0.0
 17
0.0
 27
1.0
 37
0.0
 76
0
330
21B
345
0
346
0
  0
TABLESTYLE
  5
5C1
102
{ACAD_REACTORS
330
5BE
330
5A7
330
5A8
102
}
330
5BE
100
AcDbTableStyle
  3
Standard
 70
0
 71
0
 40
0.06
 41
0.06
280
1
281
1
  7
Standard
140
0.18
170
1
 62
0
 63
7
283
0
  7
Standard
140
0.18
170
1
 62
0
 63
7
283
0
  7
Standard
140
0.18
170
1
 62
0
 63
7
283
0
  0
TABLESTYLE
  5
5C2
102
{ACAD_REACTORS
330
5BE
102
}
330
5BE
100
AcDbTableStyle
  3
Standard1
 70
1
 71
0
 40
0.06
 41
0.06
280
1
281
1
  7
Standard
140
0.18
170
1
 62
0
 63
7
283
0
  7
Standard
140
0.18
170
1
 62
0
 63
7
283
0
  7
Standard
140
0.18
170
1
 62
0
 63
7
283
0
  0
ENDSEC
  0
EOF
