999
DXF file: 6-40032-AC-0-x_bd01.dxf
999
Pro/ENGINEER 2018300 by Parametric Technology Corporation
  0
SECTION
  2
HEADER
  9
$ACADVER
  1
AC1024
  9
$DWGCODEPAGE
  3
ANSI_1252
  9
$EXTMAX
 10
134.874
 20
300.0
 30
0.0
  9
$EXTMIN
 10
0.0
 20
0.0
 30
0.0
  9
$LIMMIN
 10
0.0
 20
0.0
  9
$LIMMAX
 10
134.874
 20
300.0
  9
$VIEWCTR
 10
67.437
 20
150.0
  9
$VIEWSIZE
 40
300.0
  9
$CLAYER
  8
0
  9
$LTSCALE
 40
19.5555555556
  9
$CELTYPE
  6
BYLAYER
  9
$DIMSCALE
 40
1.0
  9
$DIMASZ
 40
3.5
  9
$DIMEXO
 40
0.0
  9
$DIMDLI
 40
13.5111111111
  9
$DIMEXE
 40
1.0
  9
$DIMCEN
 40
3.2
  9
$DIMLFAC
 40
1.0
  9
$DIMBLK
  1
_FILLED
  9
$DIMALT
 70
0
  9
$DIMALTF
 40
0.0393700787
  9
$DIMTXT
 40
2.5
  9
$DIMTOL
 70
1
  9
$DIMLIM
 70
0
  9
$DIMTFAC
 40
1.0
  9
$DIMTP
 40
0.001
  9
$DIMTM
 40
0.001
  9
$DIMGAP
 40
0.625
  9
$DIMDSEP
 70
46
  9
$AUNITS
 70
0
  9
$PDMODE
 70
3
  9
$PDSIZE
 40
2.0
  9
$HANDSEED
  5
438
  9
$TILEMODE
 70
1
  9
$MEASUREMENT
 70
1
  9
$INSUNITS
 70
4
  0
ENDSEC
  0
SECTION
  2
CLASSES
  0
CLASS
  1
ACDBDICTIONARYWDFLT
  2
AcDbDictionaryWithDefault
  3
AutoCAD 2000
 90
0
 91
1
280
0
281
0
  0
CLASS
  1
ACDBPLACEHOLDER
  2
AcDbPlaceHolder
  3
AutoCAD 2000
 90
0
 91
1
280
0
281
0
  0
CLASS
  1
LAYOUT
  2
AcDbLayout
  3
AutoCAD 2000
 90
0
 91
0
280
0
281
0
  0
ENDSEC
  0
SECTION
  2
TABLES
  0
TABLE
  2
VPORT
  5
8
100
AcDbSymbolTable
 70
2
  0
VPORT
  5
1F4
100
AcDbSymbolTableRecord
100
AcDbViewportTableRecord
  2
*ACTIVE
 70
0
 10
0.0
 20
0.0
 11
1.0
 21
1.0
 12
67.437
 22
150.0
 13
0.0
 23
0.0
 14
1.0
 24
1.0
 15
0.0
 25
0.0
 16
0.0
 26
0.0
 36
1.0
 17
0.0
 27
0.0
 37
0.0
 40
300.0
 41
0.44958
 42
50.0
 43
0.0
 44
0.0
 50
0.0
 51
0.0
 71
0
 72
100
 73
1
 74
1
 75
0
 76
0
 77
0
 78
0
  0
ENDTAB
  0
TABLE
  2
LTYPE
  5
5
100
AcDbSymbolTable
 70
6
  0
LTYPE
  5
14
100
AcDbSymbolTableRecord
100
AcDbLinetypeTableRecord
  2
BYBLOCK
 70
0
  3

 72
65
 73
0
 40
0.0
  0
LTYPE
  5
15
100
AcDbSymbolTableRecord
100
AcDbLinetypeTableRecord
  2
BYLAYER
 70
0
  3

 72
65
 73
0
 40
0.0
  0
LTYPE
  5
16
100
AcDbSymbolTableRecord
100
AcDbLinetypeTableRecord
  2
CONTINUOUS
 70
64
  3
Solid line
 72
65
 73
0
 40
0.0
  0
LTYPE
  5
1F5
100
AcDbSymbolTableRecord
100
AcDbLinetypeTableRecord
  2
CENTER
 70
64
  3
____ _ ____ _ ____ _ ____ _ ____ _ ____ _ ____
 72
65
 73
4
 40
0.6
 49
0.375
 74
0
 49
-0.075
 74
0
 49
0.075
 74
0
 49
-0.075
 74
0
  0
LTYPE
  5
1F6
100
AcDbSymbolTableRecord
100
AcDbLinetypeTableRecord
  2
HIDDEN
 70
64
  3
- - - - - - - - - - - - - - - - - - - -
 72
65
 73
2
 40
0.2
 49
0.1
 74
0
 49
-0.1
 74
0
  0
LTYPE
  5
1F7
100
AcDbSymbolTableRecord
100
AcDbLinetypeTableRecord
  2
PHANTOM
 70
64
  3
_____ _ _ _____ _ _ _____ _ _ _____
 72
65
 73
6
 40
0.8
 49
0.45
 74
0
 49
-0.05
 74
0
 49
0.1
 74
0
 49
-0.05
 74
0
 49
0.1
 74
0
 49
-0.05
 74
0
  0
LTYPE
  5
1F8
100
AcDbSymbolTableRecord
100
AcDbLinetypeTableRecord
  2
DOT
 70
64
  3
. . . . . . . . . . . . . . . . . . . .
 72
65
 73
2
 40
0.2
 49
0.1
 74
0
 49
-0.1
 74
0
  0
LTYPE
  5
1F9
100
AcDbSymbolTableRecord
100
AcDbLinetypeTableRecord
  2
DASHED
 70
64
  3
- - - - - - - - - - - - - - - - - - - -
 72
65
 73
2
 40
0.2
 49
0.1
 74
0
 49
-0.1
 74
0
  0
ENDTAB
  0
TABLE
  2
LAYER
  5
2
100
AcDbSymbolTable
 70
36
  0
LAYER
  5
10
100
AcDbSymbolTableRecord
100
AcDbLayerTableRecord
  2
0
 70
0
 62
7
  6
CONTINUOUS
370
-3
390
F
  0
LAYER
  5
1FA
100
AcDbSymbolTableRecord
100
AcDbLayerTableRecord
  2
DEFAULT_1
 70
0
 62
7
  6
CENTER
370
-3
390
F
  0
LAYER
  5
1FB
100
AcDbSymbolTableRecord
100
AcDbLayerTableRecord
  2
DEFAULT_2
 70
0
 62
8
  6
HIDDEN
370
-3
390
F
  0
LAYER
  5
1FC
100
AcDbSymbolTableRecord
100
AcDbLayerTableRecord
  2
DEFAULT_3
 70
0
 62
7
  6
PHANTOM
370
-3
390
F
  0
LAYER
  5
1FD
100
AcDbSymbolTableRecord
100
AcDbLayerTableRecord
  2
AXIS
 70
0
 62
7
  6
CONTINUOUS
370
-3
390
F
  0
LAYER
  5
1FE
100
AcDbSymbolTableRecord
100
AcDbLayerTableRecord
  2
COORDSYS
 70
0
 62
7
  6
CONTINUOUS
370
-3
390
F
  0
LAYER
  5
1FF
100
AcDbSymbolTableRecord
100
AcDbLayerTableRecord
  2
CURVES
 70
0
 62
7
  6
CONTINUOUS
370
-3
390
F
  0
LAYER
  5
200
100
AcDbSymbolTableRecord
100
AcDbLayerTableRecord
  2
EINBAUREFERENZ
 70
0
 62
7
  6
CONTINUOUS
370
-3
390
F
  0
LAYER
  5
201
100
AcDbSymbolTableRecord
100
AcDbLayerTableRecord
  2
PLANES
 70
0
 62
7
  6
CONTINUOUS
370
-3
390
F
  0
LAYER
  5
202
100
AcDbSymbolTableRecord
100
AcDbLayerTableRecord
  2
POINTS
 70
0
 62
7
  6
CONTINUOUS
370
-3
390
F
  0
LAYER
  5
203
100
AcDbSymbolTableRecord
100
AcDbLayerTableRecord
  2
PROFIL-EINBAULAGE
 70
0
 62
7
  6
CONTINUOUS
370
-3
390
F
  0
LAYER
  5
204
100
AcDbSymbolTableRecord
100
AcDbLayerTableRecord
  2
S-AXIS
 70
0
 62
7
  6
CONTINUOUS
370
-3
390
F
  0
LAYER
  5
205
100
AcDbSymbolTableRecord
100
AcDbLayerTableRecord
  2
S-COORDSYS
 70
0
 62
7
  6
CONTINUOUS
370
-3
390
F
  0
LAYER
  5
206
100
AcDbSymbolTableRecord
100
AcDbLayerTableRecord
  2
S-PLANES
 70
0
 62
7
  6
CONTINUOUS
370
-3
390
F
  0
LAYER
  5
207
100
AcDbSymbolTableRecord
100
AcDbLayerTableRecord
  2
THREADS
 70
0
 62
7
  6
CONTINUOUS
370
-3
390
F
  0
LAYER
  5
208
100
AcDbSymbolTableRecord
100
AcDbLayerTableRecord
  2
HATCHING_BL0
 70
0
 62
7
  6
CONTINUOUS
370
-3
390
F
  0
LAYER
  5
209
100
AcDbSymbolTableRecord
100
AcDbLayerTableRecord
  2
93773508000_O_BL1
 70
0
 62
7
  6
CONTINUOUS
370
-3
390
F
  0
LAYER
  5
20A
100
AcDbSymbolTableRecord
100
AcDbLayerTableRecord
  2
94826801000_BL2
 70
0
 62
7
  6
CONTINUOUS
370
-3
390
F
  0
LAYER
  5
20B
100
AcDbSymbolTableRecord
100
AcDbLayerTableRecord
  2
94528901000_M_BL3
 70
0
 62
7
  6
CONTINUOUS
370
-3
390
F
  0
LAYER
  5
20C
100
AcDbSymbolTableRecord
100
AcDbLayerTableRecord
  2
93773508000_O_BL4
 70
0
 62
7
  6
CONTINUOUS
370
-3
390
F
  0
LAYER
  5
20D
100
AcDbSymbolTableRecord
100
AcDbLayerTableRecord
  2
95056301000_BL5
 70
0
 62
7
  6
CONTINUOUS
370
-3
390
F
  0
LAYER
  5
20E
100
AcDbSymbolTableRecord
100
AcDbLayerTableRecord
  2
94528901000_M_BL6
 70
0
 62
7
  6
CONTINUOUS
370
-3
390
F
  0
LAYER
  5
20F
100
AcDbSymbolTableRecord
100
AcDbLayerTableRecord
  2
SUWN07008_C1_2_S_DR18_BL7
 70
0
 62
7
  6
CONTINUOUS
370
-3
390
F
  0
LAYER
  5
210
100
AcDbSymbolTableRecord
100
AcDbLayerTableRecord
  2
91511100000_BL8
 70
0
 62
7
  6
CONTINUOUS
370
-3
390
F
  0
LAYER
  5
211
100
AcDbSymbolTableRecord
100
AcDbLayerTableRecord
  2
91511100000_BL9
 70
0
 62
7
  6
CONTINUOUS
370
-3
390
F
  0
LAYER
  5
212
100
AcDbSymbolTableRecord
100
AcDbLayerTableRecord
  2
SUWN07008_C1_2_S_DR16_BL10
 70
0
 62
7
  6
CONTINUOUS
370
-3
390
F
  0
ENDTAB
  0
TABLE
  2
STYLE
  5
3
100
AcDbSymbolTable
 70
1
  0
STYLE
  5
11
100
AcDbSymbolTableRecord
100
AcDbTextStyleTableRecord
  2
STANDARD
 70
0
 40
0.0
 41
1.0
 50
0.0
 71
0
 42
0.2
  3
arial.ttf
  4

  0
STYLE
  5
213
100
AcDbSymbolTableRecord
100
AcDbTextStyleTableRecord
  2
TEXTSTYLE_1
 70
0
 40
0.0
 41
0.8
 50
0.0
 71
0
 42
0.2
  3
gdt
  4

  0
STYLE
  5
214
100
AcDbSymbolTableRecord
100
AcDbTextStyleTableRecord
  2
TEXTSTYLE_2
 70
0
 40
0.0
 41
1.0
 50
0.0
 71
0
 42
0.2
  3
arialbd.ttf
  4

  0
ENDTAB
  0
TABLE
  2
VIEW
  5
6
100
AcDbSymbolTable
 70
0
  0
ENDTAB
  0
TABLE
  2
UCS
  5
7
100
AcDbSymbolTable
 70
0
  0
ENDTAB
  0
TABLE
  2
APPID
  5
9
100
AcDbSymbolTable
 70
1
  0
APPID
  5
215
100
AcDbSymbolTableRecord
100
AcDbRegAppTableRecord
  2
ACAD
 70
0
  0
ENDTAB
  0
TABLE
  2
BLOCK_RECORD
  5
1
100
AcDbSymbolTable
 70
0
  0
BLOCK_RECORD
  5
216
100
AcDbSymbolTableRecord
100
AcDbBlockTableRecord
  2
*Model_Space
  0
BLOCK_RECORD
  5
217
100
AcDbSymbolTableRecord
100
AcDbBlockTableRecord
  2
*Paper_Space
  0
BLOCK_RECORD
  5
218
100
AcDbSymbolTableRecord
100
AcDbBlockTableRecord
  2
_FILLED
  0
BLOCK_RECORD
  5
219
100
AcDbSymbolTableRecord
100
AcDbBlockTableRecord
  2
XSEC_FILLED
  0
BLOCK_RECORD
  5
21A
100
AcDbSymbolTableRecord
100
AcDbBlockTableRecord
  2
*D0
  0
BLOCK_RECORD
  5
21B
100
AcDbSymbolTableRecord
100
AcDbBlockTableRecord
  2
*D1
  0
BLOCK_RECORD
  5
21C
100
AcDbSymbolTableRecord
100
AcDbBlockTableRecord
  2
*D2
  0
BLOCK_RECORD
  5
21D
100
AcDbSymbolTableRecord
100
AcDbBlockTableRecord
  2
*D3
  0
BLOCK_RECORD
  5
21E
100
AcDbSymbolTableRecord
100
AcDbBlockTableRecord
  2
*D4
  0
BLOCK_RECORD
  5
21F
100
AcDbSymbolTableRecord
100
AcDbBlockTableRecord
  2
*D5
  0
BLOCK_RECORD
  5
220
100
AcDbSymbolTableRecord
100
AcDbBlockTableRecord
  2
*D6
  0
BLOCK_RECORD
  5
221
100
AcDbSymbolTableRecord
100
AcDbBlockTableRecord
  2
*D7
  0
BLOCK_RECORD
  5
222
100
AcDbSymbolTableRecord
100
AcDbBlockTableRecord
  2
*D8
  0
BLOCK_RECORD
  5
223
100
AcDbSymbolTableRecord
100
AcDbBlockTableRecord
  2
SCHRIFTKOPF_PRODUKTABBI_BL11
  0
BLOCK_RECORD
  5
224
100
AcDbSymbolTableRecord
100
AcDbBlockTableRecord
  2
HATCHING_BL0
  0
BLOCK_RECORD
  5
225
100
AcDbSymbolTableRecord
100
AcDbBlockTableRecord
  2
93773508000_O_BL1
  0
BLOCK_RECORD
  5
226
100
AcDbSymbolTableRecord
100
AcDbBlockTableRecord
  2
94826801000_BL2
  0
BLOCK_RECORD
  5
227
100
AcDbSymbolTableRecord
100
AcDbBlockTableRecord
  2
94528901000_M_BL3
  0
BLOCK_RECORD
  5
228
100
AcDbSymbolTableRecord
100
AcDbBlockTableRecord
  2
93773508000_O_BL4
  0
BLOCK_RECORD
  5
229
100
AcDbSymbolTableRecord
100
AcDbBlockTableRecord
  2
95056301000_BL5
  0
BLOCK_RECORD
  5
22A
100
AcDbSymbolTableRecord
100
AcDbBlockTableRecord
  2
94528901000_M_BL6
  0
BLOCK_RECORD
  5
22B
100
AcDbSymbolTableRecord
100
AcDbBlockTableRecord
  2
SUWN07008_C1_2_S_DR18_BL7
  0
BLOCK_RECORD
  5
22C
100
AcDbSymbolTableRecord
100
AcDbBlockTableRecord
  2
91511100000_BL8
  0
BLOCK_RECORD
  5
22D
100
AcDbSymbolTableRecord
100
AcDbBlockTableRecord
  2
91511100000_BL9
  0
BLOCK_RECORD
  5
22E
100
AcDbSymbolTableRecord
100
AcDbBlockTableRecord
  2
SUWN07008_C1_2_S_DR16_BL10
  0
ENDTAB
  0
TABLE
  2
DIMSTYLE
  5
A
100
AcDbSymbolTable
 70
1
100
AcDbDimStyleTable
 71
0
  0
DIMSTYLE
105
22F
100
AcDbSymbolTableRecord
100
AcDbDimStyleTableRecord
  2
STANDARD
 70
0
  3

  4

 40
1.0
 41
3.5
 42
0.0
 43
0.38
 44
1.0
 45
0.0
 46
0.0
 47
0.001
 48
0.001
140
2.5
141
0.09
142
0.0
143
25.4
144
1.0
145
0.0
146
1.0
147
0.625
 71
1.0
 72
0.0
 73
0
 74
0
 75
0
 76
0
 77
1
 78
8
 79
2
170
0
171
2
172
0
173
0
174
0
175
0
176
0
177
0
178
5
270
2
179
3
271
3
272
3
273
2
274
2
275
0
280
0
281
0
282
0
283
1
284
8
285
0
286
0
287
3
288
0
340
11
278
46
341
218
342
218
343
218
344
218
  0
DIMSTYLE
105
230
100
AcDbSymbolTableRecord
100
AcDbDimStyleTableRecord
  2
DIMSTYLE_1
 70
0
  3

  4

 40
1.0
 41
3.5
 42
0.0
 43
0.38
 44
1.0
 45
0.0
 46
0.0
 47
0.3
 48
0.3
140
2.5
141
0.09
142
0.0
143
25.4
144
1.0
145
0.0
146
1.0
147
0.625
 71
0.0
 72
0.0
 73
0
 74
0
 75
0
 76
0
 77
1
 78
8
 79
2
170
0
171
2
172
0
173
0
174
0
175
0
176
0
177
0
178
5
270
2
179
3
271
3
272
3
273
2
274
2
275
0
280
0
281
0
282
0
283
1
284
8
285
0
286
0
287
3
288
0
340
11
278
46
341
218
342
218
343
218
344
218
  0
DIMSTYLE
105
231
100
AcDbSymbolTableRecord
100
AcDbDimStyleTableRecord
  2
DIMSTYLE_2
 70
0
  3

  4

 40
1.0
 41
3.5
 42
0.0
 43
0.38
 44
1.0
 45
0.0
 46
0.0
 47
0.2
 48
0.2
140
2.5
141
0.09
142
0.0
143
25.4
144
1.0
145
0.0
146
1.0
147
0.625
 71
0.0
 72
0.0
 73
0
 74
0
 75
0
 76
0
 77
1
 78
8
 79
2
170
0
171
2
172
0
173
0
174
0
175
0
176
0
177
0
178
5
270
2
179
3
271
3
272
3
273
2
274
2
275
0
280
0
281
0
282
0
283
1
284
8
285
0
286
0
287
3
288
0
340
11
278
46
341
218
342
218
343
218
344
218
  0
DIMSTYLE
105
232
100
AcDbSymbolTableRecord
100
AcDbDimStyleTableRecord
  2
DIMSTYLE_3
 70
0
  3

  4

 40
1.0
 41
3.5
 42
0.0
 43
0.38
 44
1.0
 45
0.0
 46
0.0
 47
0.1
 48
0.1
140
2.5
141
0.09
142
0.0
143
25.4
144
1.0
145
0.0
146
1.0
147
0.625
 71
0.0
 72
0.0
 73
0
 74
0
 75
0
 76
0
 77
1
 78
8
 79
2
170
0
171
2
172
0
173
0
174
0
175
0
176
0
177
0
178
5
270
2
179
3
271
3
272
3
273
2
274
2
275
0
280
0
281
0
282
0
283
1
284
8
285
0
286
0
287
3
288
0
340
11
278
46
341
218
342
218
343
218
344
218
  0
DIMSTYLE
105
233
100
AcDbSymbolTableRecord
100
AcDbDimStyleTableRecord
  2
DIMSTYLE_4
 70
0
  3

  4

 40
1.0
 41
3.5
 42
0.0
 43
0.38
 44
1.0
 45
0.0
 46
0.0
 47
0.5
 48
0.5
140
2.5
141
0.09
142
0.0
143
25.4
144
1.0
145
0.0
146
1.0
147
0.625
 71
0.0
 72
0.0
 73
0
 74
0
 75
0
 76
0
 77
1
 78
8
 79
2
170
0
171
2
172
0
173
0
174
0
175
0
176
0
177
0
178
5
270
2
179
3
271
3
272
3
273
2
274
2
275
0
280
0
281
0
282
0
283
1
284
8
285
0
286
0
287
3
288
0
340
11
278
46
341
218
342
218
343
218
344
218
  0
ENDTAB
  0
ENDSEC
  0
SECTION
  2
BLOCKS
  0
BLOCK
  5
20
100
AcDbEntity
  8
0
100
AcDbBlockBegin
  2
*Model_Space
 70
0
 10
0.0
 20
0.0
 30
0.0
  3
*Model_Space
  1

  0
ENDBLK
  5
21
100
AcDbEntity
  8
0
100
AcDbBlockEnd
  0
BLOCK
  5
1C
100
AcDbEntity
  8
0
100
AcDbBlockBegin
  2
*Paper_Space
 70
0
 10
0.0
 20
0.0
 30
0.0
  3
*Paper_Space
  1

  0
ENDBLK
  5
1D
100
AcDbEntity
  8
0
100
AcDbBlockEnd
  0
BLOCK
  5
234
100
AcDbEntity
  8
0
100
AcDbBlockBegin
 62
2
  6
CONTINUOUS
  2
SCHRIFTKOPF_PRODUKTABBI_BL11
 70
64
 10
31.0000000239
 20
34.9999999785
  3
SCHRIFTKOPF_PRODUKTABBI_BL11
  1

  0
TEXT
  5
235
100
AcDbEntity
  8
0
100
AcDbText
 62
5
  6
CONTINUOUS
 10
11.6434778505
 20
32.1908716548
  7
TEXTSTYLE_2
 40
4.0
  1
6-40032-AC-0
 72
5
 11
47.033812423
 21
32.1908716548
100
AcDbText
  0
TEXT
  5
236
100
AcDbEntity
  8
0
100
AcDbText
 62
5
  6
CONTINUOUS
 10
10.9089559916
 20
24.1776342906
  7
STANDARD
 40
2.5
  1
Scale
 72
5
 11
19.6357217908
 21
24.1776342906
100
AcDbText
  0
TEXT
  5
237
100
AcDbEntity
  8
0
100
AcDbText
 62
5
  6
CONTINUOUS
 10
10.9089559916
 20
20.4276342906
  7
STANDARD
 40
2.5
  1
1:1
 72
5
 11
15.7602571068
 21
20.4276342906
100
AcDbText
  0
TEXT
  5
238
100
AcDbEntity
  8
0
100
AcDbText
 62
5
  6
CONTINUOUS
 10
10.9089559916
 20
13.0518233866
  7
STANDARD
 40
2.5
  1
Draft
 72
5
 11
18.4647180733
 21
13.0518233866
100
AcDbText
  0
TEXT
  5
239
100
AcDbEntity
  8
0
100
AcDbText
 62
5
  6
CONTINUOUS
 10
23.3811982505
 20
13.113338109
  7
STANDARD
 40
2.5
  1
04.04.2019
 72
5
 11
40.8533172096
 21
13.113338109
100
AcDbText
  0
TEXT
  5
23A
100
AcDbEntity
  8
0
100
AcDbText
 62
5
  6
CONTINUOUS
 10
44.8672219128
 20
13.1067461609
  7
STANDARD
 40
2.5
  1
Hm
 72
5
 11
50.2854375262
 21
13.1067461609
100
AcDbText
  0
LINE
  5
23B
100
AcDbEntity
  8
0
100
AcDbLine
 62
2
  6
CONTINUOUS
 10
10.0000000239
 20
59.9999999785
 11
52.0000000239
 21
59.9999999785
  0
LINE
  5
23C
100
AcDbEntity
  8
0
100
AcDbLine
 62
2
  6
CONTINUOUS
 10
52.0000000239
 20
59.9999999785
 11
52.0000000239
 21
9.9999999785
  0
LINE
  5
23D
100
AcDbEntity
  8
0
100
AcDbLine
 62
2
  6
CONTINUOUS
 10
10.0000000239
 20
9.9999999785
 11
52.0000000239
 21
9.9999999785
  0
LINE
  5
23E
100
AcDbEntity
  8
0
100
AcDbLine
 62
2
  6
CONTINUOUS
 10
10.0000000239
 20
39.9999999785
 11
21.0000000239
 21
39.9999999785
  0
LINE
  5
23F
100
AcDbEntity
  8
0
100
AcDbLine
 62
2
  6
CONTINUOUS
 10
10.0000000239
 20
27.9999999785
 11
21.0000000239
 21
27.9999999785
  0
LINE
  5
240
100
AcDbEntity
  8
0
100
AcDbLine
 62
2
  6
CONTINUOUS
 10
10.0000000239
 20
18.9999999785
 11
21.0000000239
 21
18.9999999785
  0
LINE
  5
241
100
AcDbEntity
  8
0
100
AcDbLine
 62
2
  6
CONTINUOUS
 10
21.0000000239
 20
39.9999999785
 11
43.0000000239
 21
39.9999999785
  0
LINE
  5
242
100
AcDbEntity
  8
0
100
AcDbLine
 62
2
  6
CONTINUOUS
 10
43.0000000239
 20
39.9999999785
 11
52.0000000239
 21
39.9999999785
  0
LINE
  5
243
100
AcDbEntity
  8
0
100
AcDbLine
 62
2
  6
CONTINUOUS
 10
21.0000000239
 20
27.9999999785
 11
43.0000000239
 21
27.9999999785
  0
LINE
  5
244
100
AcDbEntity
  8
0
100
AcDbLine
 62
2
  6
CONTINUOUS
 10
43.0000000239
 20
27.9999999785
 11
52.0000000239
 21
27.9999999785
  0
LINE
  5
245
100
AcDbEntity
  8
0
100
AcDbLine
 62
2
  6
CONTINUOUS
 10
21.0000000239
 20
18.9999999785
 11
21.0000000239
 21
9.9999999785
  0
LINE
  5
246
100
AcDbEntity
  8
0
100
AcDbLine
 62
2
  6
CONTINUOUS
 10
21.0000000239
 20
18.9999999785
 11
43.0000000239
 21
18.9999999785
  0
LINE
  5
247
100
AcDbEntity
  8
0
100
AcDbLine
 62
2
  6
CONTINUOUS
 10
43.0000000239
 20
18.9999999785
 11
43.0000000239
 21
9.9999999785
  0
LINE
  5
248
100
AcDbEntity
  8
0
100
AcDbLine
 62
2
  6
CONTINUOUS
 10
43.0000000239
 20
18.9999999785
 11
52.0000000239
 21
18.9999999785
  0
LINE
  5
249
100
AcDbEntity
  8
0
100
AcDbLine
 62
2
  6
CONTINUOUS
 10
10.0000000239
 20
9.9999999785
 11
10.0000000239
 21
59.9999999785
  0
ARC
  5
24A
100
AcDbEntity
  8
0
100
AcDbCircle
 62
2
  6
CONTINUOUS
 10
17.6290122978
 20
56.1308274644
 40
1.2679261569
100
AcDbArc
 50
90.0
 51
180.0
  0
LINE
  5
24B
100
AcDbEntity
  8
0
100
AcDbLine
 62
2
  6
CONTINUOUS
 10
17.6290122978
 20
57.3987536213
 11
44.0849627663
 21
57.3987536213
  0
ARC
  5
24C
100
AcDbEntity
  8
0
100
AcDbCircle
 62
2
  6
CONTINUOUS
 10
44.0849627663
 20
56.1308274644
 40
1.2679261569
100
AcDbArc
 50
0.0
 51
90.0
  0
LINE
  5
24D
100
AcDbEntity
  8
0
100
AcDbLine
 62
2
  6
CONTINUOUS
 10
45.3528889231
 20
56.1308274644
 11
45.3528889231
 21
43.6666783678
  0
ARC
  5
24E
100
AcDbEntity
  8
0
100
AcDbCircle
 62
2
  6
CONTINUOUS
 10
44.0849627663
 20
43.6666783678
 40
1.2679261569
100
AcDbArc
 50
270.0
 51
360.0
  0
LINE
  5
24F
100
AcDbEntity
  8
0
100
AcDbLine
 62
2
  6
CONTINUOUS
 10
44.0849627663
 20
42.3987522109
 11
17.6290122978
 21
42.3987522109
  0
ARC
  5
250
100
AcDbEntity
  8
0
100
AcDbCircle
 62
2
  6
CONTINUOUS
 10
17.6290122978
 20
43.6666783678
 40
1.2679261569
100
AcDbArc
 50
180.0
 51
270.0
  0
LINE
  5
251
100
AcDbEntity
  8
0
100
AcDbLine
 62
2
  6
CONTINUOUS
 10
16.3610861409
 20
43.6666783678
 11
16.3610861409
 21
56.1308274644
  0
ARC
  5
252
100
AcDbEntity
  8
0
100
AcDbCircle
 62
2
  6
CONTINUOUS
 10
25.0981141224
 20
49.7181091975
 40
2.8108394023
100
AcDbArc
 50
35.2282226131
 51
336.934010569
  0
LINE
  5
253
100
AcDbEntity
  8
0
100
AcDbLine
 62
2
  6
CONTINUOUS
 10
27.3941788183
 20
51.3394990511
 11
29.5865173301
 21
52.961744213
  0
ARC
  5
254
100
AcDbEntity
  8
0
100
AcDbCircle
 62
2
  6
CONTINUOUS
 10
25.0981141224
 20
49.7181091975
 40
5.5377731507
100
AcDbArc
 50
35.8545159817
 51
11.4705154501
  0
LINE
  5
255
100
AcDbEntity
  8
0
100
AcDbLine
 62
2
  6
CONTINUOUS
 10
30.5252822719
 20
50.8193709036
 11
25.2029961896
 21
50.8193709036
  0
ARC
  5
256
100
AcDbEntity
  8
0
100
AcDbCircle
 62
2
  6
CONTINUOUS
 10
25.2029961896
 20
49.7181091975
 40
1.1012617061
100
AcDbArc
 50
90.0
 51
270.0
  0
LINE
  5
257
100
AcDbEntity
  8
0
100
AcDbLine
 62
2
  6
CONTINUOUS
 10
25.2029961896
 20
48.6168474914
 11
27.6842387906
 21
48.6168474914
  0
ARC
  5
258
100
AcDbEntity
  8
0
100
AcDbCircle
 62
2
  6
CONTINUOUS
 10
25.2029961896
 20
49.7181091975
 40
5.9153485927
100
AcDbArc
 50
349.2706340045
 51
10.7293659955
  0
LINE
  5
259
100
AcDbEntity
  8
0
100
AcDbLine
 62
2
  6
CONTINUOUS
 10
31.014929743
 20
48.6168474914
 11
32.8593870987
 21
48.6168474914
  0
LINE
  5
25A
100
AcDbEntity
  8
0
100
AcDbLine
 62
2
  6
CONTINUOUS
 10
32.8593870987
 20
48.6168474914
 11
32.8593870987
 21
48.0399961216
  0
ARC
  5
25B
100
AcDbEntity
  8
0
100
AcDbCircle
 62
2
  6
CONTINUOUS
 10
36.7610000003
 20
48.0399961216
 40
3.9016129016
100
AcDbArc
 50
180.0
 51
360.0
  0
LINE
  5
25C
100
AcDbEntity
  8
0
100
AcDbLine
 62
2
  6
CONTINUOUS
 10
40.6626129019
 20
48.0399961216
 11
40.6626129019
 21
54.9622125599
  0
LINE
  5
25D
100
AcDbEntity
  8
0
100
AcDbLine
 62
2
  6
CONTINUOUS
 10
40.6626129019
 20
54.9622125599
 11
37.9356791535
 21
54.9622125599
  0
LINE
  5
25E
100
AcDbEntity
  8
0
100
AcDbLine
 62
2
  6
CONTINUOUS
 10
37.9356791535
 20
54.9622125599
 11
37.9356791535
 21
48.0399961216
  0
ARC
  5
25F
100
AcDbEntity
  8
0
100
AcDbCircle
 62
2
  6
CONTINUOUS
 10
36.7610000003
 20
48.0399961216
 40
1.1746791532
100
AcDbArc
 50
180.0
 51
360.0
  0
LINE
  5
260
100
AcDbEntity
  8
0
100
AcDbLine
 62
2
  6
CONTINUOUS
 10
35.5863208471
 20
48.0399961216
 11
35.5863208471
 21
54.9622125599
  0
LINE
  5
261
100
AcDbEntity
  8
0
100
AcDbLine
 62
2
  6
CONTINUOUS
 10
35.5863208471
 20
54.9622125599
 11
32.8593870987
 21
54.9622125599
  0
LINE
  5
262
100
AcDbEntity
  8
0
100
AcDbLine
 62
2
  6
CONTINUOUS
 10
32.8593870987
 20
54.9622125599
 11
32.8593870987
 21
50.8193709036
  0
LINE
  5
263
100
AcDbEntity
  8
0
100
AcDbLine
 62
2
  6
CONTINUOUS
 10
32.8593870987
 20
50.8193709036
 11
31.014929743
 21
50.8193709036
  0
LINE
  5
264
100
AcDbEntity
  8
0
100
AcDbLine
 62
2
  6
CONTINUOUS
 10
45.1996126437
 20
56.7334185992
 11
45.2185459944
 21
56.6972621935
  0
LWPOLYLINE
  5
265
100
AcDbEntity
  8
0
100
AcDbPolyline
 62
2
  6
CONTINUOUS
 90
42
 70
0
 10
17.4964779251
 20
57.3918123624
 10
17.6290122978
 20
57.398757363
 10
44.0849627663
 20
57.398757363
 10
44.217497139
 20
57.3918123624
 10
44.3485794374
 20
57.3710523604
 10
44.4767734964
 20
57.3367023572
 10
44.600674795
 20
57.2891373527
 10
44.7189258447
 20
57.2288823471
 10
44.8302310623
 20
57.1565973403
 10
44.9333709645
 20
57.0730773324
 10
45.0272155289
 20
56.9792373236
 10
45.1107365748
 20
56.8760973139
 10
45.1830190283
 20
56.7647973034
 10
45.2432709475
 20
56.6465372923
 10
45.2908322
 20
56.5226372807
 10
45.3251816945
 20
56.3944472686
 10
45.345943091
 20
56.2633622563
 10
45.3528889232
 20
56.1308222438
 10
24.5102931399
 20
55.2245960958
 10
23.6929701738
 20
55.0746474408
 10
22.9072856488
 20
54.8040901322
 10
22.1709301607
 20
54.4190160805
 10
21.5004836049
 20
53.9280956735
 10
20.9110418611
 20
53.3423825519
 10
20.4158768919
 20
52.6750647241
 10
20.0261379092
 20
51.9411676226
 10
16.3610861409
 20
43.6666760719
 10
16.3610861409
 20
56.1308222438
 10
16.368031973
 20
56.2633622563
 10
16.3887933695
 20
56.3944472686
 10
16.4231428641
 20
56.5226372807
 10
16.4707041165
 20
56.6465372923
 10
16.5309560358
 20
56.7647973034
 10
16.6032384892
 20
56.8760973139
 10
16.6867595352
 20
56.9792373236
 10
16.7806040996
 20
57.0730773324
 10
16.8837440018
 20
57.1565973403
 10
16.9950492193
 20
57.2288823471
 10
17.113300269
 20
57.2891373527
 10
17.2372015677
 20
57.3367023572
 10
17.3653956267
 20
57.3710523604
 10
17.4964779251
 20
57.3918123624
  0
HATCH
  5
266
100
AcDbEntity
  8
0
100
AcDbHatch
 62
2
  6
CONTINUOUS
 10
0.0
 20
0.0
 30
0.0
210
0.0
220
0.0
230
1.0
  2
SOLID
 70
1
 71
1
 91
1
 92
1
 93
41
 72
1
 10
17.4964779251
 20
57.3918123624
 11
17.6290122978
 21
57.398757363
 72
1
 10
17.6290122978
 20
57.398757363
 11
44.0849627663
 21
57.398757363
 72
1
 10
44.0849627663
 20
57.398757363
 11
44.217497139
 21
57.3918123624
 72
1
 10
44.217497139
 20
57.3918123624
 11
44.3485794374
 21
57.3710523604
 72
1
 10
44.3485794374
 20
57.3710523604
 11
44.4767734964
 21
57.3367023572
 72
1
 10
44.4767734964
 20
57.3367023572
 11
44.600674795
 21
57.2891373527
 72
1
 10
44.600674795
 20
57.2891373527
 11
44.7189258447
 21
57.2288823471
 72
1
 10
44.7189258447
 20
57.2288823471
 11
44.8302310623
 21
57.1565973403
 72
1
 10
44.8302310623
 20
57.1565973403
 11
44.9333709645
 21
57.0730773324
 72
1
 10
44.9333709645
 20
57.0730773324
 11
45.0272155289
 21
56.9792373236
 72
1
 10
45.0272155289
 20
56.9792373236
 11
45.1107365748
 21
56.8760973139
 72
1
 10
45.1107365748
 20
56.8760973139
 11
45.1830190283
 21
56.7647973034
 72
1
 10
45.1830190283
 20
56.7647973034
 11
45.2432709475
 21
56.6465372923
 72
1
 10
45.2432709475
 20
56.6465372923
 11
45.2908322
 21
56.5226372807
 72
1
 10
45.2908322
 20
56.5226372807
 11
45.3251816945
 21
56.3944472686
 72
1
 10
45.3251816945
 20
56.3944472686
 11
45.345943091
 21
56.2633622563
 72
1
 10
45.345943091
 20
56.2633622563
 11
45.3528889232
 21
56.1308222438
 72
1
 10
45.3528889232
 20
56.1308222438
 11
24.5102931399
 21
55.2245960958
 72
1
 10
24.5102931399
 20
55.2245960958
 11
23.6929701738
 21
55.0746474408
 72
1
 10
23.6929701738
 20
55.0746474408
 11
22.9072856488
 21
54.8040901322
 72
1
 10
22.9072856488
 20
54.8040901322
 11
22.1709301607
 21
54.4190160805
 72
1
 10
22.1709301607
 20
54.4190160805
 11
21.5004836049
 21
53.9280956735
 72
1
 10
21.5004836049
 20
53.9280956735
 11
20.9110418611
 21
53.3423825519
 72
1
 10
20.9110418611
 20
53.3423825519
 11
20.4158768919
 21
52.6750647241
 72
1
 10
20.4158768919
 20
52.6750647241
 11
20.0261379092
 21
51.9411676226
 72
1
 10
20.0261379092
 20
51.9411676226
 11
16.3610861409
 21
43.6666760719
 72
1
 10
16.3610861409
 20
43.6666760719
 11
16.3610861409
 21
56.1308222438
 72
1
 10
16.3610861409
 20
56.1308222438
 11
16.368031973
 21
56.2633622563
 72
1
 10
16.368031973
 20
56.2633622563
 11
16.3887933695
 21
56.3944472686
 72
1
 10
16.3887933695
 20
56.3944472686
 11
16.4231428641
 21
56.5226372807
 72
1
 10
16.4231428641
 20
56.5226372807
 11
16.4707041165
 21
56.6465372923
 72
1
 10
16.4707041165
 20
56.6465372923
 11
16.5309560358
 21
56.7647973034
 72
1
 10
16.5309560358
 20
56.7647973034
 11
16.6032384892
 21
56.8760973139
 72
1
 10
16.6032384892
 20
56.8760973139
 11
16.6867595352
 21
56.9792373236
 72
1
 10
16.6867595352
 20
56.9792373236
 11
16.7806040996
 21
57.0730773324
 72
1
 10
16.7806040996
 20
57.0730773324
 11
16.8837440018
 21
57.1565973403
 72
1
 10
16.8837440018
 20
57.1565973403
 11
16.9950492193
 21
57.2288823471
 72
1
 10
16.9950492193
 20
57.2288823471
 11
17.113300269
 21
57.2891373527
 72
1
 10
17.113300269
 20
57.2891373527
 11
17.2372015677
 21
57.3367023572
 72
1
 10
17.2372015677
 20
57.3367023572
 11
17.3653956267
 21
57.3710523604
 72
1
 10
17.3653956267
 20
57.3710523604
 11
17.4964779251
 21
57.3918123624
 97
1
330
265
 75
0
 76
1
 98
1
 10
0.0
 20
0.0
  0
LWPOLYLINE
  5
267
100
AcDbEntity
  8
0
100
AcDbPolyline
 62
2
  6
CONTINUOUS
 90
23
 70
0
 10
26.9669939813
 20
54.9309989471
 10
26.1659444963
 20
55.151954039
 10
45.3528889232
 20
56.1308222438
 10
45.3528889231
 20
43.6666760719
 10
40.1398958888
 20
46.0891912997
 10
40.3656203039
 20
46.5469163427
 10
40.5296686661
 20
47.0301863881
 10
40.6292340626
 20
47.5307364352
 10
40.6626129019
 20
48.0400014831
 10
40.6626129019
 20
54.9622171339
 10
37.9356791535
 20
54.9622171339
 10
35.5863208471
 20
54.9622171339
 10
32.8593870987
 20
54.9622171339
 10
32.8593870987
 20
50.8193667444
 10
31.0149297429
 20
50.8193667444
 10
30.6289655903
 20
49.9949006497
 10
30.5252822719
 20
50.8193667444
 10
27.3941788183
 20
51.3394990511
 10
29.5865173301
 20
52.961744213
 10
29.0506384437
 20
53.5968310176
 10
28.425763901
 20
54.1445839144
 10
27.7259634749
 20
54.5926696135
 10
26.9669939813
 20
54.9309989471
  0
HATCH
  5
268
100
AcDbEntity
  8
0
100
AcDbHatch
 62
2
  6
CONTINUOUS
 10
0.0
 20
0.0
 30
0.0
210
0.0
220
0.0
230
1.0
  2
SOLID
 70
1
 71
1
 91
1
 92
1
 93
22
 72
1
 10
26.9669939813
 20
54.9309989471
 11
26.1659444963
 21
55.151954039
 72
1
 10
26.1659444963
 20
55.151954039
 11
45.3528889232
 21
56.1308222438
 72
1
 10
45.3528889232
 20
56.1308222438
 11
45.3528889231
 21
43.6666760719
 72
1
 10
45.3528889231
 20
43.6666760719
 11
40.1398958888
 21
46.0891912997
 72
1
 10
40.1398958888
 20
46.0891912997
 11
40.3656203039
 21
46.5469163427
 72
1
 10
40.3656203039
 20
46.5469163427
 11
40.5296686661
 21
47.0301863881
 72
1
 10
40.5296686661
 20
47.0301863881
 11
40.6292340626
 21
47.5307364352
 72
1
 10
40.6292340626
 20
47.5307364352
 11
40.6626129019
 21
48.0400014831
 72
1
 10
40.6626129019
 20
48.0400014831
 11
40.6626129019
 21
54.9622171339
 72
1
 10
40.6626129019
 20
54.9622171339
 11
37.9356791535
 21
54.9622171339
 72
1
 10
37.9356791535
 20
54.9622171339
 11
35.5863208471
 21
54.9622171339
 72
1
 10
35.5863208471
 20
54.9622171339
 11
32.8593870987
 21
54.9622171339
 72
1
 10
32.8593870987
 20
54.9622171339
 11
32.8593870987
 21
50.8193667444
 72
1
 10
32.8593870987
 20
50.8193667444
 11
31.0149297429
 21
50.8193667444
 72
1
 10
31.0149297429
 20
50.8193667444
 11
30.6289655903
 21
49.9949006497
 72
1
 10
30.6289655903
 20
49.9949006497
 11
30.5252822719
 21
50.8193667444
 72
1
 10
30.5252822719
 20
50.8193667444
 11
27.3941788183
 21
51.3394990511
 72
1
 10
27.3941788183
 20
51.3394990511
 11
29.5865173301
 21
52.961744213
 72
1
 10
29.5865173301
 20
52.961744213
 11
29.0506384437
 21
53.5968310176
 72
1
 10
29.0506384437
 20
53.5968310176
 11
28.425763901
 21
54.1445839144
 72
1
 10
28.425763901
 20
54.1445839144
 11
27.7259634749
 21
54.5926696135
 72
1
 10
27.7259634749
 20
54.5926696135
 11
26.9669939813
 21
54.9309989471
 97
1
330
267
 75
0
 76
1
 98
1
 10
0.0
 20
0.0
  0
LWPOLYLINE
  5
269
100
AcDbEntity
  8
0
100
AcDbPolyline
 62
2
  6
CONTINUOUS
 90
20
 70
0
 10
24.5005684601
 20
52.4646993247
 10
24.9072650814
 20
52.5224620264
 10
25.3180376874
 20
52.5203318459
 10
25.7241133608
 20
52.4583542776
 10
26.1168194973
 20
52.3378529835
 10
26.4877690273
 20
52.1614015236
 10
26.8290395394
 20
51.9327683916
 10
27.1333424806
 20
51.6568365314
 10
27.3941788183
 20
51.3394990511
 10
30.5252822719
 20
50.8193667444
 10
25.2029961896
 20
50.8193667444
 10
25.0592526925
 20
50.8099494571
 10
22.4413895628
 20
50.6360595011
 10
22.6035508656
 20
51.0134749
 10
22.8189888395
 20
51.3632250264
 10
23.0831023513
 20
51.6778402269
 10
23.3902506985
 20
51.9506012291
 10
23.7338740791
 20
52.175682645
 10
24.1066336894
 20
52.3482773854
 10
24.5005684601
 20
52.4646993247
  0
HATCH
  5
26A
100
AcDbEntity
  8
0
100
AcDbHatch
 62
2
  6
CONTINUOUS
 10
0.0
 20
0.0
 30
0.0
210
0.0
220
0.0
230
1.0
  2
SOLID
 70
1
 71
1
 91
1
 92
1
 93
19
 72
1
 10
24.5005684601
 20
52.4646993247
 11
24.9072650814
 21
52.5224620264
 72
1
 10
24.9072650814
 20
52.5224620264
 11
25.3180376874
 21
52.5203318459
 72
1
 10
25.3180376874
 20
52.5203318459
 11
25.7241133608
 21
52.4583542776
 72
1
 10
25.7241133608
 20
52.4583542776
 11
26.1168194973
 21
52.3378529835
 72
1
 10
26.1168194973
 20
52.3378529835
 11
26.4877690273
 21
52.1614015236
 72
1
 10
26.4877690273
 20
52.1614015236
 11
26.8290395394
 21
51.9327683916
 72
1
 10
26.8290395394
 20
51.9327683916
 11
27.1333424806
 21
51.6568365314
 72
1
 10
27.1333424806
 20
51.6568365314
 11
27.3941788183
 21
51.3394990511
 72
1
 10
27.3941788183
 20
51.3394990511
 11
30.5252822719
 21
50.8193667444
 72
1
 10
30.5252822719
 20
50.8193667444
 11
25.2029961896
 21
50.8193667444
 72
1
 10
25.2029961896
 20
50.8193667444
 11
25.0592526925
 21
50.8099494571
 72
1
 10
25.0592526925
 20
50.8099494571
 11
22.4413895628
 21
50.6360595011
 72
1
 10
22.4413895628
 20
50.6360595011
 11
22.6035508656
 21
51.0134749
 72
1
 10
22.6035508656
 20
51.0134749
 11
22.8189888395
 21
51.3632250264
 72
1
 10
22.8189888395
 20
51.3632250264
 11
23.0831023513
 21
51.6778402269
 72
1
 10
23.0831023513
 20
51.6778402269
 11
23.3902506985
 21
51.9506012291
 72
1
 10
23.3902506985
 20
51.9506012291
 11
23.7338740791
 21
52.175682645
 72
1
 10
23.7338740791
 20
52.175682645
 11
24.1066336894
 21
52.3482773854
 72
1
 10
24.1066336894
 20
52.3482773854
 11
24.5005684601
 21
52.4646993247
 97
1
330
269
 75
0
 76
1
 98
1
 10
0.0
 20
0.0
  0
LWPOLYLINE
  5
26B
100
AcDbEntity
  8
0
100
AcDbPolyline
 62
2
  6
CONTINUOUS
 90
8
 70
0
 10
24.6523653366
 20
50.6718298112
 10
24.5325905397
 20
50.5917988506
 10
22.3359682285
 20
50.2390393331
 10
22.4413895628
 20
50.6360595011
 10
25.0592526925
 20
50.8099494571
 10
24.9179686864
 20
50.7818463209
 10
24.78156158
 20
50.7355423477
 10
24.6523653366
 20
50.6718298112
  0
HATCH
  5
26C
100
AcDbEntity
  8
0
100
AcDbHatch
 62
2
  6
CONTINUOUS
 10
0.0
 20
0.0
 30
0.0
210
0.0
220
0.0
230
1.0
  2
SOLID
 70
1
 71
1
 91
1
 92
1
 93
7
 72
1
 10
24.6523653366
 20
50.6718298112
 11
24.5325905397
 21
50.5917988506
 72
1
 10
24.5325905397
 20
50.5917988506
 11
22.3359682285
 21
50.2390393331
 72
1
 10
22.3359682285
 20
50.2390393331
 11
22.4413895628
 21
50.6360595011
 72
1
 10
22.4413895628
 20
50.6360595011
 11
25.0592526925
 21
50.8099494571
 72
1
 10
25.0592526925
 20
50.8099494571
 11
24.9179686864
 21
50.7818463209
 72
1
 10
24.9179686864
 20
50.7818463209
 11
24.78156158
 21
50.7355423477
 72
1
 10
24.78156158
 20
50.7355423477
 11
24.6523653366
 21
50.6718298112
 97
1
330
26B
 75
0
 76
1
 98
1
 10
0.0
 20
0.0
  0
LWPOLYLINE
  5
26D
100
AcDbEntity
  8
0
100
AcDbPolyline
 62
2
  6
CONTINUOUS
 90
8
 70
0
 10
24.2492755759
 20
50.2687400506
 10
24.1855630394
 20
50.1395438071
 10
22.2895383581
 20
49.830893601
 10
22.3359682285
 20
50.2390393331
 10
24.5325905397
 20
50.5917988506
 10
24.4242865694
 20
50.4968188178
 10
24.3293065366
 20
50.3885148474
 10
24.2492755759
 20
50.2687400506
  0
HATCH
  5
26E
100
AcDbEntity
  8
0
100
AcDbHatch
 62
2
  6
CONTINUOUS
 10
0.0
 20
0.0
 30
0.0
210
0.0
220
0.0
230
1.0
  2
SOLID
 70
1
 71
1
 91
1
 92
1
 93
7
 72
1
 10
24.2492755759
 20
50.2687400506
 11
24.1855630394
 21
50.1395438071
 72
1
 10
24.1855630394
 20
50.1395438071
 11
22.2895383581
 21
49.830893601
 72
1
 10
22.2895383581
 20
49.830893601
 11
22.3359682285
 21
50.2390393331
 72
1
 10
22.3359682285
 20
50.2390393331
 11
24.5325905397
 21
50.5917988506
 72
1
 10
24.5325905397
 20
50.5917988506
 11
24.4242865694
 21
50.4968188178
 72
1
 10
24.4242865694
 20
50.4968188178
 11
24.3293065366
 21
50.3885148474
 72
1
 10
24.3293065366
 20
50.3885148474
 11
24.2492755759
 21
50.2687400506
 97
1
330
26D
 75
0
 76
1
 98
1
 10
0.0
 20
0.0
  0
LWPOLYLINE
  5
26F
100
AcDbEntity
  8
0
100
AcDbPolyline
 62
2
  6
CONTINUOUS
 90
7
 70
0
 10
31.0993048012
 20
50.1923388153
 10
31.1162282192
 20
49.8763366836
 10
30.6081153911
 20
49.1641981161
 10
30.6289655903
 20
49.9949006497
 10
31.0149297429
 20
50.8193667444
 10
31.0655063992
 20
50.5069837221
 10
31.0993048012
 20
50.1923388153
  0
HATCH
  5
270
100
AcDbEntity
  8
0
100
AcDbHatch
 62
2
  6
CONTINUOUS
 10
0.0
 20
0.0
 30
0.0
210
0.0
220
0.0
230
1.0
  2
SOLID
 70
1
 71
1
 91
1
 92
1
 93
6
 72
1
 10
31.0993048012
 20
50.1923388153
 11
31.1162282192
 21
49.8763366836
 72
1
 10
31.1162282192
 20
49.8763366836
 11
30.6081153911
 21
49.1641981161
 72
1
 10
30.6081153911
 20
49.1641981161
 11
30.6289655903
 21
49.9949006497
 72
1
 10
30.6289655903
 20
49.9949006497
 11
31.0149297429
 21
50.8193667444
 72
1
 10
31.0149297429
 20
50.8193667444
 11
31.0655063992
 21
50.5069837221
 72
1
 10
31.0655063992
 20
50.5069837221
 11
31.0993048012
 21
50.1923388153
 97
1
330
26F
 75
0
 76
1
 98
1
 10
0.0
 20
0.0
  0
LWPOLYLINE
  5
271
100
AcDbEntity
  8
0
100
AcDbPolyline
 62
2
  6
CONTINUOUS
 90
7
 70
0
 10
24.1111559301
 20
49.8618526947
 10
24.1017344835
 20
49.7181091975
 10
22.3030915597
 20
49.4203391196
 10
22.2895383581
 20
49.830893601
 10
24.1855630394
 20
50.1395438071
 10
24.1392590662
 20
50.0031367007
 10
24.1111559301
 20
49.8618526947
  0
HATCH
  5
272
100
AcDbEntity
  8
0
100
AcDbHatch
 62
2
  6
CONTINUOUS
 10
0.0
 20
0.0
 30
0.0
210
0.0
220
0.0
230
1.0
  2
SOLID
 70
1
 71
1
 91
1
 92
1
 93
6
 72
1
 10
24.1111559301
 20
49.8618526947
 11
24.1017344835
 21
49.7181091975
 72
1
 10
24.1017344835
 20
49.7181091975
 11
22.3030915597
 21
49.4203391196
 72
1
 10
22.3030915597
 20
49.4203391196
 11
22.2895383581
 21
49.830893601
 72
1
 10
22.2895383581
 20
49.830893601
 11
24.1855630394
 21
50.1395438071
 72
1
 10
24.1855630394
 20
50.1395438071
 11
24.1392590662
 21
50.0031367007
 72
1
 10
24.1392590662
 20
50.0031367007
 11
24.1111559301
 21
49.8618526947
 97
1
330
271
 75
0
 76
1
 98
1
 10
0.0
 20
0.0
  0
LWPOLYLINE
  5
273
100
AcDbEntity
  8
0
100
AcDbPolyline
 62
2
  6
CONTINUOUS
 90
7
 70
0
 10
24.1392590662
 20
49.4330816944
 10
24.1855630394
 20
49.2966745879
 10
22.3763383759
 20
49.0161441476
 10
22.3030915597
 20
49.4203391196
 10
24.1017344835
 20
49.7181091975
 10
24.1111559301
 20
49.5743657004
 10
24.1392590662
 20
49.4330816944
  0
HATCH
  5
274
100
AcDbEntity
  8
0
100
AcDbHatch
 62
2
  6
CONTINUOUS
 10
0.0
 20
0.0
 30
0.0
210
0.0
220
0.0
230
1.0
  2
SOLID
 70
1
 71
1
 91
1
 92
1
 93
6
 72
1
 10
24.1392590662
 20
49.4330816944
 11
24.1855630394
 21
49.2966745879
 72
1
 10
24.1855630394
 20
49.2966745879
 11
22.3763383759
 21
49.0161441476
 72
1
 10
22.3763383759
 20
49.0161441476
 11
22.3030915597
 21
49.4203391196
 72
1
 10
22.3030915597
 20
49.4203391196
 11
24.1017344835
 21
49.7181091975
 72
1
 10
24.1017344835
 20
49.7181091975
 11
24.1111559301
 21
49.5743657004
 72
1
 10
24.1111559301
 20
49.5743657004
 11
24.1392590662
 21
49.4330816944
 97
1
330
273
 75
0
 76
1
 98
1
 10
0.0
 20
0.0
  0
LWPOLYLINE
  5
275
100
AcDbEntity
  8
0
100
AcDbPolyline
 62
2
  6
CONTINUOUS
 90
7
 70
0
 10
31.0993048012
 20
49.2438795798
 10
31.0655063992
 20
48.929234673
 10
30.4632011408
 20
48.3459675312
 10
30.6081153911
 20
49.1641981161
 10
31.1162282192
 20
49.8763366836
 10
31.1162282192
 20
49.5598817115
 10
31.0993048012
 20
49.2438795798
  0
HATCH
  5
276
100
AcDbEntity
  8
0
100
AcDbHatch
 62
2
  6
CONTINUOUS
 10
0.0
 20
0.0
 30
0.0
210
0.0
220
0.0
230
1.0
  2
SOLID
 70
1
 71
1
 91
1
 92
1
 93
6
 72
1
 10
31.0993048012
 20
49.2438795798
 11
31.0655063992
 21
48.929234673
 72
1
 10
31.0655063992
 20
48.929234673
 11
30.4632011408
 21
48.3459675312
 72
1
 10
30.4632011408
 20
48.3459675312
 11
30.6081153911
 21
49.1641981161
 72
1
 10
30.6081153911
 20
49.1641981161
 11
31.1162282192
 21
49.8763366836
 72
1
 10
31.1162282192
 20
49.8763366836
 11
31.1162282192
 21
49.5598817115
 72
1
 10
31.1162282192
 20
49.5598817115
 11
31.0993048012
 21
49.2438795798
 97
1
330
275
 75
0
 76
1
 98
1
 10
0.0
 20
0.0
  0
LWPOLYLINE
  5
277
100
AcDbEntity
  8
0
100
AcDbPolyline
 62
2
  6
CONTINUOUS
 90
7
 70
0
 10
24.3293065366
 20
49.0477035476
 10
24.4242865694
 20
48.9393995773
 10
22.5077144663
 20
48.6269411229
 10
22.3763383759
 20
49.0161441476
 10
24.1855630394
 20
49.2966745879
 10
24.2492755759
 20
49.1674783445
 10
24.3293065366
 20
49.0477035476
  0
HATCH
  5
278
100
AcDbEntity
  8
0
100
AcDbHatch
 62
2
  6
CONTINUOUS
 10
0.0
 20
0.0
 30
0.0
210
0.0
220
0.0
230
1.0
  2
SOLID
 70
1
 71
1
 91
1
 92
1
 93
6
 72
1
 10
24.3293065366
 20
49.0477035476
 11
24.4242865694
 21
48.9393995773
 72
1
 10
24.4242865694
 20
48.9393995773
 11
22.5077144663
 21
48.6269411229
 72
1
 10
22.5077144663
 20
48.6269411229
 11
22.3763383759
 21
49.0161441476
 72
1
 10
22.3763383759
 20
49.0161441476
 11
24.1855630394
 21
49.2966745879
 72
1
 10
24.1855630394
 20
49.2966745879
 11
24.2492755759
 21
49.1674783445
 72
1
 10
24.2492755759
 20
49.1674783445
 11
24.3293065366
 21
49.0477035476
 97
1
330
277
 75
0
 76
1
 98
1
 10
0.0
 20
0.0
  0
LWPOLYLINE
  5
279
100
AcDbEntity
  8
0
100
AcDbPolyline
 62
2
  6
CONTINUOUS
 90
9
 70
0
 10
24.9179686864
 20
48.6543720741
 10
25.0592526925
 20
48.626268938
 10
22.6944140166
 20
48.2610422989
 10
22.5077144663
 20
48.6269411229
 10
24.4242865694
 20
48.9393995773
 10
24.5325905397
 20
48.8444195445
 10
24.6523653366
 20
48.7643885839
 10
24.78156158
 20
48.7006760474
 10
24.9179686864
 20
48.6543720741
  0
HATCH
  5
27A
100
AcDbEntity
  8
0
100
AcDbHatch
 62
2
  6
CONTINUOUS
 10
0.0
 20
0.0
 30
0.0
210
0.0
220
0.0
230
1.0
  2
SOLID
 70
1
 71
1
 91
1
 92
1
 93
8
 72
1
 10
24.9179686864
 20
48.6543720741
 11
25.0592526925
 21
48.626268938
 72
1
 10
25.0592526925
 20
48.626268938
 11
22.6944140166
 21
48.2610422989
 72
1
 10
22.6944140166
 20
48.2610422989
 11
22.5077144663
 21
48.6269411229
 72
1
 10
22.5077144663
 20
48.6269411229
 11
24.4242865694
 21
48.9393995773
 72
1
 10
24.4242865694
 20
48.9393995773
 11
24.5325905397
 21
48.8444195445
 72
1
 10
24.5325905397
 20
48.8444195445
 11
24.6523653366
 21
48.7643885839
 72
1
 10
24.6523653366
 20
48.7643885839
 11
24.78156158
 21
48.7006760474
 72
1
 10
24.78156158
 20
48.7006760474
 11
24.9179686864
 21
48.6543720741
 97
1
330
279
 75
0
 76
1
 98
1
 10
0.0
 20
0.0
  0
LWPOLYLINE
  5
27B
100
AcDbEntity
  8
0
100
AcDbPolyline
 62
2
  6
CONTINUOUS
 90
9
 70
0
 10
32.8593870987
 20
48.6168415373
 10
32.8593870987
 20
48.0400014831
 10
32.8927659379
 20
47.5307364352
 10
29.8169521117
 20
46.8199201942
 10
30.1974857512
 20
47.5586323028
 10
30.4632011408
 20
48.3459675312
 10
31.0655063992
 20
48.929234673
 10
31.0149297429
 20
48.6168415373
 10
32.8593870987
 20
48.6168415373
  0
HATCH
  5
27C
100
AcDbEntity
  8
0
100
AcDbHatch
 62
2
  6
CONTINUOUS
 10
0.0
 20
0.0
 30
0.0
210
0.0
220
0.0
230
1.0
  2
SOLID
 70
1
 71
1
 91
1
 92
1
 93
8
 72
1
 10
32.8593870987
 20
48.6168415373
 11
32.8593870987
 21
48.0400014831
 72
1
 10
32.8593870987
 20
48.0400014831
 11
32.8927659379
 21
47.5307364352
 72
1
 10
32.8927659379
 20
47.5307364352
 11
29.8169521117
 21
46.8199201942
 72
1
 10
29.8169521117
 20
46.8199201942
 11
30.1974857512
 21
47.5586323028
 72
1
 10
30.1974857512
 20
47.5586323028
 11
30.4632011408
 21
48.3459675312
 72
1
 10
30.4632011408
 20
48.3459675312
 11
31.0655063992
 21
48.929234673
 72
1
 10
31.0655063992
 20
48.929234673
 11
31.0149297429
 21
48.6168415373
 72
1
 10
31.0149297429
 20
48.6168415373
 11
32.8593870987
 21
48.6168415373
 97
1
330
27B
 75
0
 76
1
 98
1
 10
0.0
 20
0.0
  0
LWPOLYLINE
  5
27D
100
AcDbEntity
  8
0
100
AcDbPolyline
 62
2
  6
CONTINUOUS
 90
19
 70
0
 10
27.6842387906
 20
48.6168415373
 10
27.4961137435
 20
48.2516795326
 10
27.2567743458
 20
47.9178302789
 10
26.9713321963
 20
47.6224297867
 10
26.6458835153
 20
47.3717869581
 10
26.2873789475
 20
47.1712548002
 10
25.9034751155
 20
47.0251161014
 10
25.5023710973
 20
46.9364919623
 10
25.0926333168
 20
46.9072751387
 10
24.6830125906
 20
46.9380896178
 10
24.2822572349
 20
47.0282772912
 10
23.8989262276
 20
47.1759120104
 10
23.5412064125
 20
47.377840724
 10
23.2167376524
 20
47.6297508175
 10
22.9324496635
 20
47.9262622184
 10
22.6944140166
 20
48.2610422989
 10
25.0592526925
 20
48.626268938
 10
25.2029961896
 20
48.6168415373
 10
27.6842387906
 20
48.6168415373
  0
HATCH
  5
27E
100
AcDbEntity
  8
0
100
AcDbHatch
 62
2
  6
CONTINUOUS
 10
0.0
 20
0.0
 30
0.0
210
0.0
220
0.0
230
1.0
  2
SOLID
 70
1
 71
1
 91
1
 92
1
 93
18
 72
1
 10
27.6842387906
 20
48.6168415373
 11
27.4961137435
 21
48.2516795326
 72
1
 10
27.4961137435
 20
48.2516795326
 11
27.2567743458
 21
47.9178302789
 72
1
 10
27.2567743458
 20
47.9178302789
 11
26.9713321963
 21
47.6224297867
 72
1
 10
26.9713321963
 20
47.6224297867
 11
26.6458835153
 21
47.3717869581
 72
1
 10
26.6458835153
 20
47.3717869581
 11
26.2873789475
 21
47.1712548002
 72
1
 10
26.2873789475
 20
47.1712548002
 11
25.9034751155
 21
47.0251161014
 72
1
 10
25.9034751155
 20
47.0251161014
 11
25.5023710973
 21
46.9364919623
 72
1
 10
25.5023710973
 20
46.9364919623
 11
25.0926333168
 21
46.9072751387
 72
1
 10
25.0926333168
 20
46.9072751387
 11
24.6830125906
 21
46.9380896178
 72
1
 10
24.6830125906
 20
46.9380896178
 11
24.2822572349
 21
47.0282772912
 72
1
 10
24.2822572349
 20
47.0282772912
 11
23.8989262276
 21
47.1759120104
 72
1
 10
23.8989262276
 20
47.1759120104
 11
23.5412064125
 21
47.377840724
 72
1
 10
23.5412064125
 20
47.377840724
 11
23.2167376524
 21
47.6297508175
 72
1
 10
23.2167376524
 20
47.6297508175
 11
22.9324496635
 21
47.9262622184
 72
1
 10
22.9324496635
 20
47.9262622184
 11
22.6944140166
 21
48.2610422989
 72
1
 10
22.6944140166
 20
48.2610422989
 11
25.0592526925
 21
48.626268938
 72
1
 10
25.0592526925
 20
48.626268938
 11
25.2029961896
 21
48.6168415373
 72
1
 10
25.2029961896
 20
48.6168415373
 11
27.6842387906
 21
48.6168415373
 97
1
330
27D
 75
0
 76
1
 98
1
 10
0.0
 20
0.0
  0
LWPOLYLINE
  5
27F
100
AcDbEntity
  8
0
100
AcDbPolyline
 62
2
  6
CONTINUOUS
 90
28
 70
0
 10
35.5863208471
 20
48.0400014831
 10
35.5863208471
 20
54.9622171339
 10
37.9356791535
 20
54.9622171339
 10
37.9356791535
 20
48.0400014831
 10
37.9256296104
 20
47.8866714687
 10
37.8956529319
 20
47.7359664545
 10
37.8462620271
 20
47.5904664408
 10
37.7783019882
 20
47.4526614279
 10
37.6929356302
 20
47.3248914159
 10
37.5916235952
 20
47.209376405
 10
37.4760993602
 20
47.1080663955
 10
37.3483395768
 20
47.0227013874
 10
37.2105302505
 20
46.9547363811
 10
37.065029337
 20
46.9053413764
 10
36.9143263972
 20
46.8753713736
 10
36.7610000003
 20
46.8653169684
 10
36.6076736033
 20
46.8753713736
 10
36.4569706635
 20
46.9053413764
 10
36.31146975
 20
46.9547363811
 10
36.1736604237
 20
47.0227013874
 10
36.0459006404
 20
47.1080663955
 10
35.9303764053
 20
47.209376405
 10
35.8290643703
 20
47.3248914159
 10
35.7436980123
 20
47.4526614279
 10
35.6757379734
 20
47.5904664408
 10
35.6263470686
 20
47.7359664545
 10
35.5963703901
 20
47.8866714687
 10
35.5863208471
 20
48.0400014831
  0
HATCH
  5
280
100
AcDbEntity
  8
0
100
AcDbHatch
 62
2
  6
CONTINUOUS
 10
0.0
 20
0.0
 30
0.0
210
0.0
220
0.0
230
1.0
  2
SOLID
 70
1
 71
1
 91
1
 92
1
 93
27
 72
1
 10
35.5863208471
 20
48.0400014831
 11
35.5863208471
 21
54.9622171339
 72
1
 10
35.5863208471
 20
54.9622171339
 11
37.9356791535
 21
54.9622171339
 72
1
 10
37.9356791535
 20
54.9622171339
 11
37.9356791535
 21
48.0400014831
 72
1
 10
37.9356791535
 20
48.0400014831
 11
37.9256296104
 21
47.8866714687
 72
1
 10
37.9256296104
 20
47.8866714687
 11
37.8956529319
 21
47.7359664545
 72
1
 10
37.8956529319
 20
47.7359664545
 11
37.8462620271
 21
47.5904664408
 72
1
 10
37.8462620271
 20
47.5904664408
 11
37.7783019882
 21
47.4526614279
 72
1
 10
37.7783019882
 20
47.4526614279
 11
37.6929356302
 21
47.3248914159
 72
1
 10
37.6929356302
 20
47.3248914159
 11
37.5916235952
 21
47.209376405
 72
1
 10
37.5916235952
 20
47.209376405
 11
37.4760993602
 21
47.1080663955
 72
1
 10
37.4760993602
 20
47.1080663955
 11
37.3483395768
 21
47.0227013874
 72
1
 10
37.3483395768
 20
47.0227013874
 11
37.2105302505
 21
46.9547363811
 72
1
 10
37.2105302505
 20
46.9547363811
 11
37.065029337
 21
46.9053413764
 72
1
 10
37.065029337
 20
46.9053413764
 11
36.9143263972
 21
46.8753713736
 72
1
 10
36.9143263972
 20
46.8753713736
 11
36.7610000003
 21
46.8653169684
 72
1
 10
36.7610000003
 20
46.8653169684
 11
36.6076736033
 21
46.8753713736
 72
1
 10
36.6076736033
 20
46.8753713736
 11
36.4569706635
 21
46.9053413764
 72
1
 10
36.4569706635
 20
46.9053413764
 11
36.31146975
 21
46.9547363811
 72
1
 10
36.31146975
 20
46.9547363811
 11
36.1736604237
 21
47.0227013874
 72
1
 10
36.1736604237
 20
47.0227013874
 11
36.0459006404
 21
47.1080663955
 72
1
 10
36.0459006404
 20
47.1080663955
 11
35.9303764053
 21
47.209376405
 72
1
 10
35.9303764053
 20
47.209376405
 11
35.8290643703
 21
47.3248914159
 72
1
 10
35.8290643703
 20
47.3248914159
 11
35.7436980123
 21
47.4526614279
 72
1
 10
35.7436980123
 20
47.4526614279
 11
35.6757379734
 21
47.5904664408
 72
1
 10
35.6757379734
 20
47.5904664408
 11
35.6263470686
 21
47.7359664545
 72
1
 10
35.6263470686
 20
47.7359664545
 11
35.5963703901
 21
47.8866714687
 72
1
 10
35.5963703901
 20
47.8866714687
 11
35.5863208471
 21
48.0400014831
 97
1
330
27F
 75
0
 76
1
 98
1
 10
0.0
 20
0.0
  0
LWPOLYLINE
  5
281
100
AcDbEntity
  8
0
100
AcDbPolyline
 62
2
  6
CONTINUOUS
 90
8
 70
0
 10
32.9923313344
 20
47.0301863881
 10
33.1563796967
 20
46.5469163427
 10
33.3821041117
 20
46.0891912997
 10
28.7480950465
 20
45.5534278506
 10
29.3301683772
 20
46.146464163
 10
29.8169521117
 20
46.8199201942
 10
32.8927659379
 20
47.5307364352
 10
32.9923313344
 20
47.0301863881
  0
HATCH
  5
282
100
AcDbEntity
  8
0
100
AcDbHatch
 62
2
  6
CONTINUOUS
 10
0.0
 20
0.0
 30
0.0
210
0.0
220
0.0
230
1.0
  2
SOLID
 70
1
 71
1
 91
1
 92
1
 93
7
 72
1
 10
32.9923313344
 20
47.0301863881
 11
33.1563796967
 21
46.5469163427
 72
1
 10
33.1563796967
 20
46.5469163427
 11
33.3821041117
 21
46.0891912997
 72
1
 10
33.3821041117
 20
46.0891912997
 11
28.7480950465
 21
45.5534278506
 72
1
 10
28.7480950465
 20
45.5534278506
 11
29.3301683772
 21
46.146464163
 72
1
 10
29.3301683772
 20
46.146464163
 11
29.8169521117
 21
46.8199201942
 72
1
 10
29.8169521117
 20
46.8199201942
 11
32.8927659379
 21
47.5307364352
 72
1
 10
32.8927659379
 20
47.5307364352
 11
32.9923313344
 21
47.0301863881
 97
1
330
281
 75
0
 76
1
 98
1
 10
0.0
 20
0.0
  0
LWPOLYLINE
  5
283
100
AcDbEntity
  8
0
100
AcDbPolyline
 62
2
  6
CONTINUOUS
 90
8
 70
0
 10
33.6656423722
 20
45.6648412598
 10
34.00214306
 20
45.2811412237
 10
34.3858485548
 20
44.9446311921
 10
27.3523542712
 20
44.659914577
 10
28.0838381739
 20
45.0541641554
 10
28.7480950465
 20
45.5534278506
 10
33.3821041117
 20
46.0891912997
 10
33.6656423722
 20
45.6648412598
  0
HATCH
  5
284
100
AcDbEntity
  8
0
100
AcDbHatch
 62
2
  6
CONTINUOUS
 10
0.0
 20
0.0
 30
0.0
210
0.0
220
0.0
230
1.0
  2
SOLID
 70
1
 71
1
 91
1
 92
1
 93
7
 72
1
 10
33.6656423722
 20
45.6648412598
 11
34.00214306
 21
45.2811412237
 72
1
 10
34.00214306
 20
45.2811412237
 11
34.3858485548
 21
44.9446311921
 72
1
 10
34.3858485548
 20
44.9446311921
 11
27.3523542712
 21
44.659914577
 72
1
 10
27.3523542712
 20
44.659914577
 11
28.0838381739
 21
45.0541641554
 72
1
 10
28.0838381739
 20
45.0541641554
 11
28.7480950465
 21
45.5534278506
 72
1
 10
28.7480950465
 20
45.5534278506
 11
33.3821041117
 21
46.0891912997
 72
1
 10
33.3821041117
 20
46.0891912997
 11
33.6656423722
 21
45.6648412598
 97
1
330
283
 75
0
 76
1
 98
1
 10
0.0
 20
0.0
  0
LWPOLYLINE
  5
285
100
AcDbEntity
  8
0
100
AcDbPolyline
 62
2
  6
CONTINUOUS
 90
24
 70
0
 10
34.8101935494
 20
44.6611011654
 10
35.2679173833
 20
44.4353811442
 10
35.7511882747
 20
44.2713261287
 10
36.2517373247
 20
44.1717561194
 10
16.3610861409
 20
43.6666760719
 10
20.0261379092
 20
51.9411676226
 10
19.750600337
 20
51.1572157897
 10
19.5954682224
 20
50.3408608074
 10
19.5642345443
 20
49.5104838523
 10
19.6576025652
 20
48.684781822
 10
19.8734699961
 20
47.8823463527
 10
20.2069763321
 20
47.121245207
 10
20.6506122924
 20
46.4186154575
 10
21.1943889001
 20
45.7902776256
 10
21.8260623961
 20
45.2503794643
 10
22.5314099211
 20
44.8110774052
 10
23.2945497596
 20
44.4822628421
 10
24.0982989358
 20
44.2713261287
 10
24.9245601072
 20
44.1830563096
 10
25.754729048
 20
44.2194013213
 10
26.5701135443
 20
44.3795561005
 10
27.3523542712
 20
44.659914577
 10
34.3858485548
 20
44.9446311921
 10
34.8101935494
 20
44.6611011654
  0
HATCH
  5
286
100
AcDbEntity
  8
0
100
AcDbHatch
 62
2
  6
CONTINUOUS
 10
0.0
 20
0.0
 30
0.0
210
0.0
220
0.0
230
1.0
  2
SOLID
 70
1
 71
1
 91
1
 92
1
 93
23
 72
1
 10
34.8101935494
 20
44.6611011654
 11
35.2679173833
 21
44.4353811442
 72
1
 10
35.2679173833
 20
44.4353811442
 11
35.7511882747
 21
44.2713261287
 72
1
 10
35.7511882747
 20
44.2713261287
 11
36.2517373247
 21
44.1717561194
 72
1
 10
36.2517373247
 20
44.1717561194
 11
16.3610861409
 21
43.6666760719
 72
1
 10
16.3610861409
 20
43.6666760719
 11
20.0261379092
 21
51.9411676226
 72
1
 10
20.0261379092
 20
51.9411676226
 11
19.750600337
 21
51.1572157897
 72
1
 10
19.750600337
 20
51.1572157897
 11
19.5954682224
 21
50.3408608074
 72
1
 10
19.5954682224
 20
50.3408608074
 11
19.5642345443
 21
49.5104838523
 72
1
 10
19.5642345443
 20
49.5104838523
 11
19.6576025652
 21
48.684781822
 72
1
 10
19.6576025652
 20
48.684781822
 11
19.8734699961
 21
47.8823463527
 72
1
 10
19.8734699961
 20
47.8823463527
 11
20.2069763321
 21
47.121245207
 72
1
 10
20.2069763321
 20
47.121245207
 11
20.6506122924
 21
46.4186154575
 72
1
 10
20.6506122924
 20
46.4186154575
 11
21.1943889001
 21
45.7902776256
 72
1
 10
21.1943889001
 20
45.7902776256
 11
21.8260623961
 21
45.2503794643
 72
1
 10
21.8260623961
 20
45.2503794643
 11
22.5314099211
 21
44.8110774052
 72
1
 10
22.5314099211
 20
44.8110774052
 11
23.2945497596
 21
44.4822628421
 72
1
 10
23.2945497596
 20
44.4822628421
 11
24.0982989358
 21
44.2713261287
 72
1
 10
24.0982989358
 20
44.2713261287
 11
24.9245601072
 21
44.1830563096
 72
1
 10
24.9245601072
 20
44.1830563096
 11
25.754729048
 21
44.2194013213
 72
1
 10
25.754729048
 20
44.2194013213
 11
26.5701135443
 21
44.3795561005
 72
1
 10
26.5701135443
 20
44.3795561005
 11
27.3523542712
 21
44.659914577
 72
1
 10
27.3523542712
 20
44.659914577
 11
34.3858485548
 21
44.9446311921
 72
1
 10
34.3858485548
 20
44.9446311921
 11
34.8101935494
 21
44.6611011654
 97
1
330
285
 75
0
 76
1
 98
1
 10
0.0
 20
0.0
  0
LWPOLYLINE
  5
287
100
AcDbEntity
  8
0
100
AcDbPolyline
 62
2
  6
CONTINUOUS
 90
43
 70
0
 10
36.7610000003
 20
44.13838322
 10
37.2702626758
 20
44.1717561194
 10
37.7708117258
 20
44.2713261287
 10
38.2540826172
 20
44.4353811442
 10
38.7118064511
 20
44.6611011654
 10
39.1361514457
 20
44.9446311921
 10
39.5198569406
 20
45.2811412237
 10
39.8563576283
 20
45.6648412598
 10
40.1398958888
 20
46.0891912997
 10
45.3528889231
 20
43.6666760719
 10
45.345943091
 20
43.5341510594
 10
45.3251816945
 20
43.4030660471
 10
45.2908322
 20
43.2748610351
 10
45.2432709475
 20
43.1509610234
 10
45.1830190283
 20
43.0327160123
 10
45.1107365748
 20
42.9214160018
 10
45.0272155289
 20
42.8182759921
 10
44.9333709645
 20
42.7244209833
 10
44.8302310623
 20
42.6409009754
 10
44.7189258447
 20
42.5686159687
 10
44.600674795
 20
42.508375963
 10
44.4767734964
 20
42.4608109585
 10
44.3485794374
 20
42.4264609553
 10
44.217497139
 20
42.4057009533
 10
44.0849627663
 20
42.3987559527
 10
17.6290122978
 20
42.3987559527
 10
17.4964779251
 20
42.4057009533
 10
17.3653956267
 20
42.4264609553
 10
17.2372015677
 20
42.4608109585
 10
17.113300269
 20
42.508375963
 10
16.9950492193
 20
42.5686159687
 10
16.8837440018
 20
42.6409009754
 10
16.7806040996
 20
42.7244209833
 10
16.6867595352
 20
42.8182759921
 10
16.6032384892
 20
42.9214160018
 10
16.5309560358
 20
43.0327160123
 10
16.4707041165
 20
43.1509610234
 10
16.4231428641
 20
43.2748610351
 10
16.3887933695
 20
43.4030660471
 10
16.368031973
 20
43.5341510594
 10
16.3610861409
 20
43.6666760719
 10
36.2517373247
 20
44.1717561194
 10
36.7610000003
 20
44.13838322
  0
HATCH
  5
288
100
AcDbEntity
  8
0
100
AcDbHatch
 62
2
  6
CONTINUOUS
 10
0.0
 20
0.0
 30
0.0
210
0.0
220
0.0
230
1.0
  2
SOLID
 70
1
 71
1
 91
1
 92
1
 93
42
 72
1
 10
36.7610000003
 20
44.13838322
 11
37.2702626758
 21
44.1717561194
 72
1
 10
37.2702626758
 20
44.1717561194
 11
37.7708117258
 21
44.2713261287
 72
1
 10
37.7708117258
 20
44.2713261287
 11
38.2540826172
 21
44.4353811442
 72
1
 10
38.2540826172
 20
44.4353811442
 11
38.7118064511
 21
44.6611011654
 72
1
 10
38.7118064511
 20
44.6611011654
 11
39.1361514457
 21
44.9446311921
 72
1
 10
39.1361514457
 20
44.9446311921
 11
39.5198569406
 21
45.2811412237
 72
1
 10
39.5198569406
 20
45.2811412237
 11
39.8563576283
 21
45.6648412598
 72
1
 10
39.8563576283
 20
45.6648412598
 11
40.1398958888
 21
46.0891912997
 72
1
 10
40.1398958888
 20
46.0891912997
 11
45.3528889231
 21
43.6666760719
 72
1
 10
45.3528889231
 20
43.6666760719
 11
45.345943091
 21
43.5341510594
 72
1
 10
45.345943091
 20
43.5341510594
 11
45.3251816945
 21
43.4030660471
 72
1
 10
45.3251816945
 20
43.4030660471
 11
45.2908322
 21
43.2748610351
 72
1
 10
45.2908322
 20
43.2748610351
 11
45.2432709475
 21
43.1509610234
 72
1
 10
45.2432709475
 20
43.1509610234
 11
45.1830190283
 21
43.0327160123
 72
1
 10
45.1830190283
 20
43.0327160123
 11
45.1107365748
 21
42.9214160018
 72
1
 10
45.1107365748
 20
42.9214160018
 11
45.0272155289
 21
42.8182759921
 72
1
 10
45.0272155289
 20
42.8182759921
 11
44.9333709645
 21
42.7244209833
 72
1
 10
44.9333709645
 20
42.7244209833
 11
44.8302310623
 21
42.6409009754
 72
1
 10
44.8302310623
 20
42.6409009754
 11
44.7189258447
 21
42.5686159687
 72
1
 10
44.7189258447
 20
42.5686159687
 11
44.600674795
 21
42.508375963
 72
1
 10
44.600674795
 20
42.508375963
 11
44.4767734964
 21
42.4608109585
 72
1
 10
44.4767734964
 20
42.4608109585
 11
44.3485794374
 21
42.4264609553
 72
1
 10
44.3485794374
 20
42.4264609553
 11
44.217497139
 21
42.4057009533
 72
1
 10
44.217497139
 20
42.4057009533
 11
44.0849627663
 21
42.3987559527
 72
1
 10
44.0849627663
 20
42.3987559527
 11
17.6290122978
 21
42.3987559527
 72
1
 10
17.6290122978
 20
42.3987559527
 11
17.4964779251
 21
42.4057009533
 72
1
 10
17.4964779251
 20
42.4057009533
 11
17.3653956267
 21
42.4264609553
 72
1
 10
17.3653956267
 20
42.4264609553
 11
17.2372015677
 21
42.4608109585
 72
1
 10
17.2372015677
 20
42.4608109585
 11
17.113300269
 21
42.508375963
 72
1
 10
17.113300269
 20
42.508375963
 11
16.9950492193
 21
42.5686159687
 72
1
 10
16.9950492193
 20
42.5686159687
 11
16.8837440018
 21
42.6409009754
 72
1
 10
16.8837440018
 20
42.6409009754
 11
16.7806040996
 21
42.7244209833
 72
1
 10
16.7806040996
 20
42.7244209833
 11
16.6867595352
 21
42.8182759921
 72
1
 10
16.6867595352
 20
42.8182759921
 11
16.6032384892
 21
42.9214160018
 72
1
 10
16.6032384892
 20
42.9214160018
 11
16.5309560358
 21
43.0327160123
 72
1
 10
16.5309560358
 20
43.0327160123
 11
16.4707041165
 21
43.1509610234
 72
1
 10
16.4707041165
 20
43.1509610234
 11
16.4231428641
 21
43.2748610351
 72
1
 10
16.4231428641
 20
43.2748610351
 11
16.3887933695
 21
43.4030660471
 72
1
 10
16.3887933695
 20
43.4030660471
 11
16.368031973
 21
43.5341510594
 72
1
 10
16.368031973
 20
43.5341510594
 11
16.3610861409
 21
43.6666760719
 72
1
 10
16.3610861409
 20
43.6666760719
 11
36.2517373247
 21
44.1717561194
 72
1
 10
36.2517373247
 20
44.1717561194
 11
36.7610000003
 21
44.13838322
 97
1
330
287
 75
0
 76
1
 98
1
 10
0.0
 20
0.0
  0
SOLID
  5
289
100
AcDbEntity
  8
0
100
AcDbTrace
 62
2
  6
CONTINUOUS
 10
25.3408515753
 20
55.2505598297
 11
24.5102931399
 21
55.2245960958
 12
26.1659444963
 22
55.151954039
 13
45.3528889232
 23
56.1308222438
  0
ENDBLK
  5
28A
100
AcDbEntity
  8
0
  6
BYBLOCK
 62
0
100
AcDbBlockEnd
  0
BLOCK
  5
28B
100
AcDbEntity
  8
HATCHING_BL0
100
AcDbBlockBegin
  2
HATCHING_BL0
 70
64
 10
25.6359550894
 20
259.6713195712
  3
HATCHING_BL0
  1

  0
TEXT
  5
28C
100
AcDbEntity
  8
HATCHING_BL0
100
AcDbText
 62
7
  6
CONTINUOUS
 10
7.0225721898
 20
262.4623621103
  7
STANDARD
 40
5.0
  1
A
 72
5
 11
11.6694123385
 21
262.4623621103
100
AcDbText
  0
LEADER
  5
28D
100
AcDbEntity
  8
HATCHING_BL0
100
AcDbLeader
 62
7
  6
CONTINUOUS
  3
STANDARD
 71
1
 72
0
 73
3
 75
0
 76
2
 10
12.6359550894
 20
249.3802770321
 30
0.0
 10
12.6359550894
 20
269.9623621103
 30
0.0
1001
ACAD
1000
DSTYLE
1002
{
1070
77
1070
0
1070
341
1005
219
1070
41
1040
8.0
1002
}
  0
TEXT
  5
28E
100
AcDbEntity
  8
HATCHING_BL0
100
AcDbText
 62
7
  6
CONTINUOUS
 10
39.6024978403
 20
262.4623621103
  7
STANDARD
 40
5.0
  1
A
 72
5
 11
44.249337989
 21
262.4623621103
100
AcDbText
  0
LEADER
  5
28F
100
AcDbEntity
  8
HATCHING_BL0
100
AcDbLeader
 62
7
  6
CONTINUOUS
  3
STANDARD
 71
1
 72
0
 73
3
 75
0
 76
2
 10
38.6359550894
 20
249.3802770321
 30
0.0
 10
38.6359550894
 20
269.9623621103
 30
0.0
1001
ACAD
1000
DSTYLE
1002
{
1070
77
1070
0
1070
341
1005
219
1070
41
1040
8.0
1002
}
  0
LINE
  5
290
100
AcDbEntity
  8
HATCHING_BL0
100
AcDbLine
 62
7
  6
CENTER
 10
12.6359550894
 20
249.3802770321
 11
38.6359550894
 21
249.3802770321
  0
ENDBLK
  5
291
100
AcDbEntity
  8
0
  6
BYBLOCK
 62
0
100
AcDbBlockEnd
  0
BLOCK
  5
292
100
AcDbEntity
  8
93773508000_O_BL1
100
AcDbBlockBegin
  2
93773508000_O_BL1
 70
64
 10
69.384890327
 20
129.0511750512
  3
93773508000_O_BL1
  1

  0
LINE
  5
293
100
AcDbEntity
  8
93773508000_O_BL1
100
AcDbLine
 62
7
  6
CONTINUOUS
 10
92.1338255646
 20
143.8802770321
 11
116.1338255646
 21
143.8802770321
  0
LINE
  5
294
100
AcDbEntity
  8
93773508000_O_BL1
100
AcDbLine
 62
9
  6
CONTINUOUS
 10
94.6338255646
 20
148.3802770321
 11
113.6338255646
 21
148.3802770321
  0
LINE
  5
295
100
AcDbEntity
  8
93773508000_O_BL1
100
AcDbLine
 62
9
  6
CONTINUOUS
 10
116.1338255646
 20
151.4802770321
 11
92.1338255646
 21
151.4802770321
  0
LINE
  5
296
100
AcDbEntity
  8
93773508000_O_BL1
100
AcDbLine
 62
7
  6
CENTER
 10
104.1338255646
 20
163.8802770321
 11
95.1338255646
 21
163.8802770321
  0
LINE
  5
297
100
AcDbEntity
  8
93773508000_O_BL1
100
AcDbLine
 62
7
  6
CENTER
 10
104.1338255646
 20
163.8802770321
 11
113.1338255646
 21
163.8802770321
  0
LINE
  5
298
100
AcDbEntity
  8
93773508000_O_BL1
100
AcDbLine
 62
7
  6
CONTINUOUS
 10
113.6338255646
 20
148.3802770321
 11
114.0882000303
 21
147.7695331775
  0
LWPOLYLINE
  5
299
100
AcDbEntity
  8
93773508000_O_BL1
100
AcDbPolyline
 62
7
  6
CONTINUOUS
 90
20
 70
0
 10
114.0882000303
 20
147.7695331775
 10
114.4958929135
 20
147.2155893776
 10
114.681758473
 20
146.959269873
 10
114.8558695626
 20
146.716086115
 10
115.018411764
 20
146.4853045407
 10
115.1695266868
 20
146.2666308694
 10
115.3095517314
 20
146.0591974616
 10
115.4380851068
 20
145.8636657084
 10
115.5548497389
 20
145.6800351526
 10
115.6598088779
 20
145.5087362916
 10
115.75258072
 20
145.3502070558
 10
115.8339233543
 20
145.2035777649
 10
115.9041846513
 20
145.0686167216
 10
115.9642134631
 20
144.9436919228
 10
116.0149152699
 20
144.8277322632
 10
116.0564680572
 20
144.7195631671
 10
116.0895167234
 20
144.6182005203
 10
116.1135660097
 20
144.5229979301
 10
116.1283005869
 20
144.4331100052
 10
116.1338255646
 20
144.349148158
  0
LINE
  5
29A
100
AcDbEntity
  8
93773508000_O_BL1
100
AcDbLine
 62
7
  6
CONTINUOUS
 10
92.1338255646
 20
143.8802770321
 11
92.1338255646
 21
151.4802770321
  0
LINE
  5
29B
100
AcDbEntity
  8
93773508000_O_BL1
100
AcDbLine
 62
9
  6
CONTINUOUS
 10
94.6338255646
 20
148.3802770321
 11
94.6338255646
 21
151.8802770321
  0
LWPOLYLINE
  5
29C
100
AcDbEntity
  8
93773508000_O_BL1
100
AcDbPolyline
 62
7
  6
CONTINUOUS
 90
14
 70
0
 10
92.1338255646
 20
144.349148158
 10
92.1422026843
 20
144.4613449159
 10
92.1706495296
 20
144.5911873311
 10
92.2186883069
 20
144.7400760118
 10
92.2877523969
 20
144.9090603891
 10
92.3789311505
 20
145.0989422026
 10
92.4927788633
 20
145.3108696696
 10
92.63083574
 20
145.5464905634
 10
92.7912334037
 20
145.8041131328
 10
92.9737160041
 20
146.0823133216
 10
93.1749861664
 20
146.3784433867
 10
93.3924069601
 20
146.6886728197
 10
93.6237412021
 20
147.0117633808
 10
93.8671295654
 20
147.3459250486
  0
LINE
  5
29D
100
AcDbEntity
  8
93773508000_O_BL1
100
AcDbLine
 62
7
  6
CENTER
 10
104.1338255646
 20
163.8802770321
 11
104.1338255646
 21
154.8802770321
  0
LINE
  5
29E
100
AcDbEntity
  8
93773508000_O_BL1
100
AcDbLine
 62
7
  6
CENTER
 10
104.1338255646
 20
163.8802770321
 11
104.1338255646
 21
172.8802770321
  0
LINE
  5
29F
100
AcDbEntity
  8
93773508000_O_BL1
100
AcDbLine
 62
9
  6
CONTINUOUS
 10
113.6338255646
 20
148.3802770321
 11
113.6338255646
 21
151.8802770321
  0
LINE
  5
2A0
100
AcDbEntity
  8
93773508000_O_BL1
100
AcDbLine
 62
7
  6
CONTINUOUS
 10
116.1338255646
 20
143.8802770321
 11
116.1338255646
 21
151.4802770321
  0
LWPOLYLINE
  5
2A1
100
AcDbEntity
  8
93773508000_O_BL1
100
AcDbPolyline
 62
7
  6
CONTINUOUS
 90
3
 70
0
 10
93.8671295654
 20
147.3459250486
 10
94.3738180997
 20
148.0328869166
 10
94.6338255646
 20
148.3802770321
  0
LINE
  5
2A2
100
AcDbEntity
  8
93773508000_O_BL1
100
AcDbLine
 62
7
  6
CONTINUOUS
 10
27.1359550894
 20
143.8802770321
 11
28.6359550894
 21
143.8802770321
  0
LINE
  5
2A3
100
AcDbEntity
  8
93773508000_O_BL1
100
AcDbLine
 62
9
  6
CONTINUOUS
 10
28.6359550894
 20
151.4802770321
 11
22.6359550894
 21
151.4802770321
  0
LINE
  5
2A4
100
AcDbEntity
  8
93773508000_O_BL1
100
AcDbLine
 62
7
  6
CONTINUOUS
 10
22.6359550894
 20
148.3802770321
 11
22.6359550894
 21
151.4802770321
  0
LINE
  5
2A5
100
AcDbEntity
  8
93773508000_O_BL1
100
AcDbLine
 62
7
  6
CONTINUOUS
 10
22.6359550894
 20
148.3802770321
 11
22.6359550894
 21
151.4802770321
  0
LINE
  5
2A6
100
AcDbEntity
  8
93773508000_O_BL1
100
AcDbLine
 62
9
  6
CONTINUOUS
 10
25.1359550894
 20
144.349148158
 11
25.1359550894
 21
151.8802770321
  0
LINE
  5
2A7
100
AcDbEntity
  8
93773508000_O_BL1
100
AcDbLine
 62
7
  6
CONTINUOUS
 10
28.6359550894
 20
143.8802770321
 11
28.6359550894
 21
151.8802770321
  0
LINE
  5
2A8
100
AcDbEntity
  8
93773508000_O_BL1
100
AcDbLine
 62
7
  6
CONTINUOUS
 10
24.9359550894
 20
105.8220730704
 11
26.3359550894
 21
107.2220730704
  0
LINE
  5
2A9
100
AcDbEntity
  8
93773508000_O_BL1
100
AcDbLine
 62
7
  6
CONTINUOUS
 10
25.6359550894
 20
85.2220730704
 11
25.1359550894
 21
85.2220730704
  0
LINE
  5
2AA
100
AcDbEntity
  8
93773508000_O_BL1
100
AcDbLine
 62
7
  6
CONTINUOUS
 10
25.0210954356
 20
88.7369327241
 11
26.4359550894
 21
87.3220730704
  0
LINE
  5
2AB
100
AcDbEntity
  8
93773508000_O_BL1
100
AcDbLine
 62
7
  6
CONTINUOUS
 10
22.6359550894
 20
87.7220730704
 11
22.6359550894
 21
88.2220730704
  0
LINE
  5
2AC
100
AcDbEntity
  8
93773508000_O_BL1
100
AcDbLine
 62
7
  6
CONTINUOUS
 10
22.6359550894
 20
106.2220730704
 11
22.6359550894
 21
106.7220730704
  0
LINE
  5
2AD
100
AcDbEntity
  8
93773508000_O_BL1
100
AcDbLine
 62
7
  6
CONTINUOUS
 10
28.6359550894
 20
87.3220730704
 11
26.4359550894
 21
87.3220730704
  0
LINE
  5
2AE
100
AcDbEntity
  8
93773508000_O_BL1
100
AcDbLine
 62
9
  6
CONTINUOUS
 10
22.6359550894
 20
87.7220730704
 11
22.6827318213
 21
87.7220730704
  0
LINE
  5
2AF
100
AcDbEntity
  8
93773508000_O_BL1
100
AcDbLine
 62
7
  6
CONTINUOUS
 10
28.6359550894
 20
88.8220730704
 11
28.2359550894
 21
88.8220730704
  0
LINE
  5
2B0
100
AcDbEntity
  8
93773508000_O_BL1
100
AcDbLine
 62
7
  6
CONTINUOUS
 10
24.9359550894
 20
105.6793848875
 11
24.9359550894
 21
105.8220730704
  0
LINE
  5
2B1
100
AcDbEntity
  8
93773508000_O_BL1
100
AcDbLine
 62
9
  6
CONTINUOUS
 10
25.1359550894
 20
109.2220730704
 11
25.1359550894
 21
109.1752963385
  0
LINE
  5
2B2
100
AcDbEntity
  8
93773508000_O_BL1
100
AcDbLine
 62
9
  6
CONTINUOUS
 10
25.1359550894
 20
85.2220730704
 11
25.1359550894
 21
85.2688498023
  0
LINE
  5
2B3
100
AcDbEntity
  8
93773508000_O_BL1
100
AcDbLine
 62
7
  6
CONTINUOUS
 10
28.2359550894
 20
89.5720730704
 11
28.5359550894
 21
89.5720730704
  0
LINE
  5
2B4
100
AcDbEntity
  8
93773508000_O_BL1
100
AcDbLine
 62
7
  6
CONTINUOUS
 10
28.2359550894
 20
89.6146262568
 11
28.5359550894
 21
89.6146262568
  0
LINE
  5
2B5
100
AcDbEntity
  8
93773508000_O_BL1
100
AcDbLine
 62
7
  6
CONTINUOUS
 10
28.2359550894
 20
89.742285816
 11
28.5359550894
 21
89.742285816
  0
LINE
  5
2B6
100
AcDbEntity
  8
93773508000_O_BL1
100
AcDbLine
 62
7
  6
CONTINUOUS
 10
28.2359550894
 20
89.8699453753
 11
28.5359550894
 21
89.8699453753
  0
LINE
  5
2B7
100
AcDbEntity
  8
93773508000_O_BL1
100
AcDbLine
 62
7
  6
CONTINUOUS
 10
28.2359550894
 20
89.9510851262
 11
28.2359550894
 21
88.8220730704
  0
LINE
  5
2B8
100
AcDbEntity
  8
93773508000_O_BL1
100
AcDbLine
 62
7
  6
CONTINUOUS
 10
28.5359550894
 20
89.9720730704
 11
28.5359550894
 21
89.5720730704
  0
LINE
  5
2B9
100
AcDbEntity
  8
93773508000_O_BL1
100
AcDbLine
 62
7
  6
CONTINUOUS
 10
28.6359550894
 20
87.2220730704
 11
28.6359550894
 21
87.3220730704
  0
LINE
  5
2BA
100
AcDbEntity
  8
93773508000_O_BL1
100
AcDbLine
 62
7
  6
CONTINUOUS
 10
28.6359550894
 20
87.3220730704
 11
28.6359550894
 21
88.8220730704
  0
LINE
  5
2BB
100
AcDbEntity
  8
93773508000_O_BL1
100
AcDbLine
 62
7
  6
CONTINUOUS
 10
28.6359550894
 20
104.4720730704
 11
28.6359550894
 21
107.2220730704
  0
LINE
  5
2BC
100
AcDbEntity
  8
93773508000_O_BL1
100
AcDbLine
 62
7
  6
CONTINUOUS
 10
25.4359550894
 20
106.3220730704
 11
28.6359550894
 21
106.3220730704
  0
LINE
  5
2BD
100
AcDbEntity
  8
93773508000_O_BL1
100
AcDbLine
 62
9
  6
CONTINUOUS
 10
22.6359550894
 20
106.7220730704
 11
22.6827318213
 21
106.7220730704
  0
LINE
  5
2BE
100
AcDbEntity
  8
93773508000_O_BL1
100
AcDbLine
 62
7
  6
CONTINUOUS
 10
25.1359550894
 20
109.2220730704
 11
25.6359550894
 21
109.2220730704
  0
ARC
  5
2BF
100
AcDbEntity
  8
93773508000_O_BL1
100
AcDbCircle
 62
7
  6
CONTINUOUS
 10
92.5338255646
 20
151.4802770321
 40
0.4
100
AcDbArc
 50
90.0
 51
180.0
  0
ARC
  5
2C0
100
AcDbEntity
  8
93773508000_O_BL1
100
AcDbCircle
 62
7
  6
CONTINUOUS
 10
115.7338255646
 20
151.4802770321
 40
0.4
100
AcDbArc
 50
0.0
 51
90.0
  0
ARC
  5
2C1
100
AcDbEntity
  8
93773508000_O_BL1
100
AcDbCircle
 62
7
  6
CONTINUOUS
 10
27.1359550894
 20
148.3802770321
 40
4.5
100
AcDbArc
 50
180.0
 51
270.0
  0
ARC
  5
2C2
100
AcDbEntity
  8
93773508000_O_BL1
100
AcDbCircle
 62
7
  6
CONTINUOUS
 10
23.0359550894
 20
151.4802770321
 40
0.4
100
AcDbArc
 50
90.0
 51
180.0
  0
ARC
  5
2C3
100
AcDbEntity
  8
93773508000_O_BL1
100
AcDbCircle
 62
7
  6
CONTINUOUS
 10
25.1359550894
 20
87.7220730704
 40
2.5
100
AcDbArc
 50
180.0
 51
270.0
  0
ARC
  5
2C4
100
AcDbEntity
  8
93773508000_O_BL1
100
AcDbCircle
 62
7
  6
CONTINUOUS
 10
25.1359550894
 20
106.7220730704
 40
2.5
100
AcDbArc
 50
90.0
 51
180.0
  0
ENDBLK
  5
2C5
100
AcDbEntity
  8
0
  6
BYBLOCK
 62
0
100
AcDbBlockEnd
  0
BLOCK
  5
2C6
100
AcDbEntity
  8
94826801000_BL2
100
AcDbBlockBegin
  2
94826801000_BL2
 70
64
 10
69.384890327
 20
178.5511750512
  3
94826801000_BL2
  1

  0
LINE
  5
2C7
100
AcDbEntity
  8
94826801000_BL2
100
AcDbLine
 62
7
  6
CONTINUOUS
 10
116.1338255646
 20
151.8802770321
 11
92.1338255646
 21
151.8802770321
  0
LINE
  5
2C8
100
AcDbEntity
  8
94826801000_BL2
100
AcDbLine
 62
7
  6
CONTINUOUS
 10
99.1338255646
 20
191.8802770321
 11
109.1338255646
 21
191.8802770321
  0
LINE
  5
2C9
100
AcDbEntity
  8
94826801000_BL2
100
AcDbLine
 62
7
  6
CONTINUOUS
 10
92.1338255646
 20
271.8802770321
 11
92.1338255646
 21
151.8802770321
  0
LINE
  5
2CA
100
AcDbEntity
  8
94826801000_BL2
100
AcDbLine
 62
9
  6
CONTINUOUS
 10
95.1338255646
 20
271.8802770321
 11
95.1338255646
 21
151.8802770321
  0
LINE
  5
2CB
100
AcDbEntity
  8
94826801000_BL2
100
AcDbLine
 62
7
  6
CONTINUOUS
 10
97.1338255646
 20
229.8802770321
 11
97.1338255646
 21
193.8802770321
  0
LINE
  5
2CC
100
AcDbEntity
  8
94826801000_BL2
100
AcDbLine
 62
7
  6
CONTINUOUS
 10
111.1338255646
 20
193.8802770321
 11
111.1338255646
 21
229.8802770321
  0
LINE
  5
2CD
100
AcDbEntity
  8
94826801000_BL2
100
AcDbLine
 62
9
  6
CONTINUOUS
 10
113.1338255646
 20
271.8802770321
 11
113.1338255646
 21
151.8802770321
  0
LINE
  5
2CE
100
AcDbEntity
  8
94826801000_BL2
100
AcDbLine
 62
7
  6
CONTINUOUS
 10
116.1338255646
 20
271.8802770321
 11
116.1338255646
 21
151.8802770321
  0
LINE
  5
2CF
100
AcDbEntity
  8
94826801000_BL2
100
AcDbLine
 62
7
  6
CONTINUOUS
 10
109.1338255646
 20
231.8802770321
 11
99.1338255646
 21
231.8802770321
  0
LINE
  5
2D0
100
AcDbEntity
  8
94826801000_BL2
100
AcDbLine
 62
7
  6
CONTINUOUS
 10
116.1338255646
 20
271.8802770321
 11
92.1338255646
 21
271.8802770321
  0
LINE
  5
2D1
100
AcDbEntity
  8
94826801000_BL2
100
AcDbLine
 62
7
  6
CONTINUOUS
 10
28.6359550894
 20
151.8802770321
 11
22.6359550894
 21
151.8802770321
  0
LINE
  5
2D2
100
AcDbEntity
  8
94826801000_BL2
100
AcDbLine
 62
7
  6
CONTINUOUS
 10
22.6359550894
 20
271.8802770321
 11
22.6359550894
 21
151.8802770321
  0
LINE
  5
2D3
100
AcDbEntity
  8
94826801000_BL2
100
AcDbLine
 62
9
  6
CONTINUOUS
 10
25.6359550894
 20
271.8802770321
 11
25.6359550894
 21
151.8802770321
  0
LINE
  5
2D4
100
AcDbEntity
  8
94826801000_BL2
100
AcDbLine
 62
7
  6
CONTINUOUS
 10
28.6359550894
 20
271.8802770321
 11
28.6359550894
 21
151.8802770321
  0
LINE
  5
2D5
100
AcDbEntity
  8
94826801000_BL2
100
AcDbLine
 62
7
  6
CONTINUOUS
 10
28.6359550894
 20
271.8802770321
 11
22.6359550894
 21
271.8802770321
  0
LINE
  5
2D6
100
AcDbEntity
  8
94826801000_BL2
100
AcDbLine
 62
7
  6
CONTINUOUS
 10
28.6359550894
 20
85.2220730704
 11
25.6359550894
 21
85.2220730704
  0
LINE
  5
2D7
100
AcDbEntity
  8
94826801000_BL2
100
AcDbLine
 62
7
  6
CONTINUOUS
 10
22.6359550894
 20
88.2220730704
 11
22.6359550894
 21
106.2220730704
  0
LINE
  5
2D8
100
AcDbEntity
  8
94826801000_BL2
100
AcDbLine
 62
7
  6
CONTINUOUS
 10
25.1359550894
 20
87.2220730704
 11
28.6359550894
 21
87.2220730704
  0
LINE
  5
2D9
100
AcDbEntity
  8
94826801000_BL2
100
AcDbLine
 62
7
  6
CONTINUOUS
 10
24.6359550894
 20
106.7220730704
 11
24.6359550894
 21
87.7220730704
  0
LINE
  5
2DA
100
AcDbEntity
  8
94826801000_BL2
100
AcDbLine
 62
7
  6
CONTINUOUS
 10
28.6359550894
 20
109.2220730704
 11
28.6359550894
 21
107.2220730704
  0
LINE
  5
2DB
100
AcDbEntity
  8
94826801000_BL2
100
AcDbLine
 62
7
  6
CONTINUOUS
 10
28.6359550894
 20
87.2220730704
 11
28.6359550894
 21
85.2220730704
  0
LINE
  5
2DC
100
AcDbEntity
  8
94826801000_BL2
100
AcDbLine
 62
7
  6
CONTINUOUS
 10
28.6359550894
 20
107.2220730704
 11
25.1359550894
 21
107.2220730704
  0
LINE
  5
2DD
100
AcDbEntity
  8
94826801000_BL2
100
AcDbLine
 62
7
  6
CONTINUOUS
 10
25.6359550894
 20
109.2220730704
 11
28.6359550894
 21
109.2220730704
  0
ARC
  5
2DE
100
AcDbEntity
  8
94826801000_BL2
100
AcDbCircle
 62
7
  6
CONTINUOUS
 10
99.1338255646
 20
193.8802770321
 40
2.0
100
AcDbArc
 50
180.0
 51
270.0
  0
ARC
  5
2DF
100
AcDbEntity
  8
94826801000_BL2
100
AcDbCircle
 62
7
  6
CONTINUOUS
 10
99.1338255646
 20
229.8802770321
 40
2.0
100
AcDbArc
 50
90.0
 51
180.0
  0
CIRCLE
  5
2E0
100
AcDbEntity
  8
94826801000_BL2
100
AcDbCircle
 62
7
  6
CONTINUOUS
 10
104.1338255646
 20
181.7802770321
 40
5.65
  0
CIRCLE
  5
2E1
100
AcDbEntity
  8
94826801000_BL2
100
AcDbCircle
 62
7
  6
CONTINUOUS
 10
104.1338255646
 20
163.8802770321
 40
4.15
  0
CIRCLE
  5
2E2
100
AcDbEntity
  8
94826801000_BL2
100
AcDbCircle
 62
7
  6
CONTINUOUS
 10
104.1338255646
 20
163.8802770321
 40
2.6
  0
ARC
  5
2E3
100
AcDbEntity
  8
94826801000_BL2
100
AcDbCircle
 62
7
  6
CONTINUOUS
 10
109.1338255646
 20
193.8802770321
 40
2.0
100
AcDbArc
 50
270.0
 51
360.0
  0
CIRCLE
  5
2E4
100
AcDbEntity
  8
94826801000_BL2
100
AcDbCircle
 62
7
  6
CONTINUOUS
 10
104.1338255646
 20
241.9802770321
 40
5.65
  0
CIRCLE
  5
2E5
100
AcDbEntity
  8
94826801000_BL2
100
AcDbCircle
 62
7
  6
CONTINUOUS
 10
104.1338255646
 20
259.8802770321
 40
4.15
  0
CIRCLE
  5
2E6
100
AcDbEntity
  8
94826801000_BL2
100
AcDbCircle
 62
7
  6
CONTINUOUS
 10
104.1338255646
 20
259.8802770321
 40
2.6
  0
ARC
  5
2E7
100
AcDbEntity
  8
94826801000_BL2
100
AcDbCircle
 62
7
  6
CONTINUOUS
 10
109.1338255646
 20
229.8802770321
 40
2.0
100
AcDbArc
 50
0.0
 51
90.0
  0
ARC
  5
2E8
100
AcDbEntity
  8
94826801000_BL2
100
AcDbCircle
 62
7
  6
CONTINUOUS
 10
25.6359550894
 20
106.2220730704
 40
3.0
100
AcDbArc
 50
90.0
 51
180.0
  0
ARC
  5
2E9
100
AcDbEntity
  8
94826801000_BL2
100
AcDbCircle
 62
7
  6
CONTINUOUS
 10
25.6359550894
 20
88.2220730704
 40
3.0
100
AcDbArc
 50
180.0
 51
270.0
  0
ARC
  5
2EA
100
AcDbEntity
  8
94826801000_BL2
100
AcDbCircle
 62
7
  6
CONTINUOUS
 10
25.1359550894
 20
106.7220730704
 40
0.5
100
AcDbArc
 50
90.0
 51
180.0
  0
ARC
  5
2EB
100
AcDbEntity
  8
94826801000_BL2
100
AcDbCircle
 62
7
  6
CONTINUOUS
 10
25.1359550894
 20
87.7220730704
 40
0.5
100
AcDbArc
 50
180.0
 51
270.0
  0
ENDBLK
  5
2EC
100
AcDbEntity
  8
0
  6
BYBLOCK
 62
0
100
AcDbBlockEnd
  0
BLOCK
  5
2ED
100
AcDbEntity
  8
94528901000_M_BL3
100
AcDbBlockBegin
  2
94528901000_M_BL3
 70
64
 10
69.784890327
 20
181.7802770321
  3
94528901000_M_BL3
  1

  0
LINE
  5
2EE
100
AcDbEntity
  8
94528901000_M_BL3
100
AcDbLine
 62
7
  6
CONTINUOUS
 10
103.2588255646
 20
178.7647325755
 11
105.0088255646
 21
178.7647325755
  0
LINE
  5
2EF
100
AcDbEntity
  8
94528901000_M_BL3
100
AcDbLine
 62
7
  6
CONTINUOUS
 10
105.0088255646
 20
181.7958214887
 11
103.2588255646
 21
181.7958214887
  0
LINE
  5
2F0
100
AcDbEntity
  8
94528901000_M_BL3
100
AcDbLine
 62
7
  6
CONTINUOUS
 10
102.3838255646
 20
180.2802770321
 11
103.2588255646
 21
178.7647325755
  0
LINE
  5
2F1
100
AcDbEntity
  8
94528901000_M_BL3
100
AcDbLine
 62
7
  6
CONTINUOUS
 10
105.8838255646
 20
180.2802770321
 11
105.0088255646
 21
181.7958214887
  0
LINE
  5
2F2
100
AcDbEntity
  8
94528901000_M_BL3
100
AcDbLine
 62
7
  6
CONTINUOUS
 10
103.2588255646
 20
181.7958214887
 11
102.3838255646
 21
180.2802770321
  0
LINE
  5
2F3
100
AcDbEntity
  8
94528901000_M_BL3
100
AcDbLine
 62
7
  6
CONTINUOUS
 10
105.0088255646
 20
178.7647325755
 11
105.8838255646
 21
180.2802770321
  0
CIRCLE
  5
2F4
100
AcDbEntity
  8
94528901000_M_BL3
100
AcDbCircle
 62
7
  6
CONTINUOUS
 10
104.1338255646
 20
181.7802770321
 40
5.5
  0
CIRCLE
  5
2F5
100
AcDbEntity
  8
94528901000_M_BL3
100
AcDbCircle
 62
7
  6
CONTINUOUS
 10
104.1338255646
 20
180.2802770321
 40
1.75
  0
CIRCLE
  5
2F6
100
AcDbEntity
  8
94528901000_M_BL3
100
AcDbCircle
 62
7
  6
CONTINUOUS
 10
104.1338255646
 20
180.2802770321
 40
1.515
  0
CIRCLE
  5
2F7
100
AcDbEntity
  8
94528901000_M_BL3
100
AcDbCircle
 62
7
  6
CONTINUOUS
 10
104.1338255646
 20
184.2802770321
 40
0.75
  0
ARC
  5
2F8
100
AcDbEntity
  8
94528901000_M_BL3
100
AcDbCircle
 62
7
  6
CONTINUOUS
 10
27.2902037783
 20
180.2802770321
 40
4.0
100
AcDbArc
 50
311.4096221093
 51
48.5903778907
  0
ENDBLK
  5
2F9
100
AcDbEntity
  8
0
  6
BYBLOCK
 62
0
100
AcDbBlockEnd
  0
BLOCK
  5
2FA
100
AcDbEntity
  8
93773508000_O_BL4
100
AcDbBlockBegin
  2
93773508000_O_BL4
 70
64
 10
69.384890327
 20
265.3802770321
  3
93773508000_O_BL4
  1

  0
LWPOLYLINE
  5
2FB
100
AcDbEntity
  8
93773508000_O_BL4
100
AcDbPolyline
 62
7
  6
CONTINUOUS
 90
3
 70
0
 10
114.4005215638
 20
276.4146290157
 10
113.8938330295
 20
275.7276671476
 10
113.6338255646
 20
275.3802770321
  0
LINE
  5
2FC
100
AcDbEntity
  8
93773508000_O_BL4
100
AcDbLine
 62
7
  6
CONTINUOUS
 10
92.1338255646
 20
272.2802770321
 11
92.1338255646
 21
279.8802770321
  0
LINE
  5
2FD
100
AcDbEntity
  8
93773508000_O_BL4
100
AcDbLine
 62
9
  6
CONTINUOUS
 10
94.6338255646
 20
275.3802770321
 11
94.6338255646
 21
271.8802770321
  0
LINE
  5
2FE
100
AcDbEntity
  8
93773508000_O_BL4
100
AcDbLine
 62
7
  6
CENTER
 10
104.1338255646
 20
259.8802770321
 11
104.1338255646
 21
250.8802770321
  0
LINE
  5
2FF
100
AcDbEntity
  8
93773508000_O_BL4
100
AcDbLine
 62
7
  6
CENTER
 10
104.1338255646
 20
259.8802770321
 11
104.1338255646
 21
268.8802770321
  0
LINE
  5
300
100
AcDbEntity
  8
93773508000_O_BL4
100
AcDbLine
 62
9
  6
CONTINUOUS
 10
113.6338255646
 20
275.3802770321
 11
113.6338255646
 21
271.8802770321
  0
LWPOLYLINE
  5
301
100
AcDbEntity
  8
93773508000_O_BL4
100
AcDbPolyline
 62
7
  6
CONTINUOUS
 90
14
 70
0
 10
116.1338255646
 20
279.4114059063
 10
116.1254484449
 20
279.2992091483
 10
116.0970015996
 20
279.1693667331
 10
116.0489628223
 20
279.0204780524
 10
115.9798987323
 20
278.8514936752
 10
115.8887199787
 20
278.6616118616
 10
115.7748722659
 20
278.4496843946
 10
115.6368153892
 20
278.2140635008
 10
115.4764177255
 20
277.9564409315
 10
115.2939351251
 20
277.6782407427
 10
115.0926649628
 20
277.3821106775
 10
114.8752441691
 20
277.0718812445
 10
114.6439099271
 20
276.7487906834
 10
114.4005215638
 20
276.4146290157
  0
LINE
  5
302
100
AcDbEntity
  8
93773508000_O_BL4
100
AcDbLine
 62
7
  6
CONTINUOUS
 10
116.1338255646
 20
279.8802770321
 11
116.1338255646
 21
272.2802770321
  0
LINE
  5
303
100
AcDbEntity
  8
93773508000_O_BL4
100
AcDbLine
 62
7
  6
CONTINUOUS
 10
94.6338255646
 20
275.3802770321
 11
94.1794510989
 21
275.9910208867
  0
LWPOLYLINE
  5
304
100
AcDbEntity
  8
93773508000_O_BL4
100
AcDbPolyline
 62
7
  6
CONTINUOUS
 90
20
 70
0
 10
94.1794510989
 20
275.9910208867
 10
93.7717582156
 20
276.5449646867
 10
93.5858926562
 20
276.8012841912
 10
93.4117815666
 20
277.0444679493
 10
93.2492393652
 20
277.2752495235
 10
93.0981244424
 20
277.4939231949
 10
92.9580993978
 20
277.7013566027
 10
92.8295660223
 20
277.8968883558
 10
92.7128013903
 20
278.0805189117
 10
92.6078422513
 20
278.2518177727
 10
92.5150704092
 20
278.4103470084
 10
92.4337277749
 20
278.5569762993
 10
92.3634664779
 20
278.6919373426
 10
92.3034376661
 20
278.8168621415
 10
92.2527358593
 20
278.9328218011
 10
92.211183072
 20
279.0409908971
 10
92.1781344057
 20
279.1423535439
 10
92.1540851195
 20
279.2375561341
 10
92.1393505423
 20
279.327444059
 10
92.1338255646
 20
279.4114059063
  0
LINE
  5
305
100
AcDbEntity
  8
93773508000_O_BL4
100
AcDbLine
 62
7
  6
CENTER
 10
104.1338255646
 20
259.8802770321
 11
95.1338255646
 21
259.8802770321
  0
LINE
  5
306
100
AcDbEntity
  8
93773508000_O_BL4
100
AcDbLine
 62
7
  6
CENTER
 10
104.1338255646
 20
259.8802770321
 11
113.1338255646
 21
259.8802770321
  0
LINE
  5
307
100
AcDbEntity
  8
93773508000_O_BL4
100
AcDbLine
 62
9
  6
CONTINUOUS
 10
92.1338255646
 20
272.2802770321
 11
116.1338255646
 21
272.2802770321
  0
LINE
  5
308
100
AcDbEntity
  8
93773508000_O_BL4
100
AcDbLine
 62
9
  6
CONTINUOUS
 10
113.6338255646
 20
275.3802770321
 11
94.6338255646
 21
275.3802770321
  0
LINE
  5
309
100
AcDbEntity
  8
93773508000_O_BL4
100
AcDbLine
 62
7
  6
CONTINUOUS
 10
116.1338255646
 20
279.8802770321
 11
92.1338255646
 21
279.8802770321
  0
LINE
  5
30A
100
AcDbEntity
  8
93773508000_O_BL4
100
AcDbLine
 62
7
  6
CONTINUOUS
 10
22.6359550894
 20
275.3802770321
 11
22.6359550894
 21
272.2802770321
  0
LINE
  5
30B
100
AcDbEntity
  8
93773508000_O_BL4
100
AcDbLine
 62
9
  6
CONTINUOUS
 10
25.1359550894
 20
279.4114059063
 11
25.1359550894
 21
271.8802770321
  0
LINE
  5
30C
100
AcDbEntity
  8
93773508000_O_BL4
100
AcDbLine
 62
7
  6
CONTINUOUS
 10
28.6359550894
 20
279.8802770321
 11
28.6359550894
 21
271.8802770321
  0
LINE
  5
30D
100
AcDbEntity
  8
93773508000_O_BL4
100
AcDbLine
 62
9
  6
CONTINUOUS
 10
22.6359550894
 20
272.2802770321
 11
28.6359550894
 21
272.2802770321
  0
LINE
  5
30E
100
AcDbEntity
  8
93773508000_O_BL4
100
AcDbLine
 62
7
  6
CONTINUOUS
 10
28.6359550894
 20
279.8802770321
 11
27.1359550894
 21
279.8802770321
  0
ARC
  5
30F
100
AcDbEntity
  8
93773508000_O_BL4
100
AcDbCircle
 62
7
  6
CONTINUOUS
 10
92.5338255646
 20
272.2802770321
 40
0.4
100
AcDbArc
 50
180.0
 51
270.0
  0
ARC
  5
310
100
AcDbEntity
  8
93773508000_O_BL4
100
AcDbCircle
 62
7
  6
CONTINUOUS
 10
115.7338255646
 20
272.2802770321
 40
0.4
100
AcDbArc
 50
270.0
 51
360.0
  0
ARC
  5
311
100
AcDbEntity
  8
93773508000_O_BL4
100
AcDbCircle
 62
7
  6
CONTINUOUS
 10
27.1359550894
 20
275.3802770321
 40
4.5
100
AcDbArc
 50
90.0
 51
180.0
  0
ARC
  5
312
100
AcDbEntity
  8
93773508000_O_BL4
100
AcDbCircle
 62
7
  6
CONTINUOUS
 10
23.0359550894
 20
272.2802770321
 40
0.4
100
AcDbArc
 50
180.0
 51
270.0
  0
ENDBLK
  5
313
100
AcDbEntity
  8
0
  6
BYBLOCK
 62
0
100
AcDbBlockEnd
  0
BLOCK
  5
314
100
AcDbEntity
  8
95056301000_BL5
100
AcDbBlockBegin
  2
95056301000_BL5
 70
64
 10
67.734890327
 20
169.1719182118
  3
95056301000_BL5
  1

  0
LWPOLYLINE
  5
315
100
AcDbEntity
  8
95056301000_BL5
100
AcDbPolyline
 62
9
  6
CONTINUOUS
 90
13
 70
0
 10
106.8872373445
 20
192.652622556
 10
107.1462283857
 20
192.6713374505
 10
107.4004359069
 20
192.723429281
 10
107.6456315352
 20
192.8079281595
 10
107.8777233227
 20
192.9233775608
 10
108.0928325652
 20
193.0678054524
 10
108.2874127341
 20
193.2387730838
 10
108.4582275692
 20
193.4334221729
 10
108.6024590421
 20
193.6485069477
 10
108.7176974752
 20
193.8804672926
 10
108.8020140478
 20
194.1254425231
 10
108.8539780715
 20
194.3793789907
 10
108.8726424683
 20
194.6380250486
  0
LWPOLYLINE
  5
316
100
AcDbEntity
  8
95056301000_BL5
100
AcDbPolyline
 62
9
  6
CONTINUOUS
 90
13
 70
0
 10
106.8872905257
 20
193.6471513472
 10
107.0181703153
 20
193.6556819036
 10
107.1448611079
 20
193.6805494409
 10
107.2684741971
 20
193.7221737272
 10
107.3856757022
 20
193.7792954581
 10
107.4939951418
 20
193.8513164182
 10
107.5919536115
 20
193.9366731087
 10
107.6776213358
 20
194.0342479294
 10
107.7498804456
 20
194.1421049678
 10
107.8071629597
 20
194.2587474321
 10
107.8488894376
 20
194.3817403604
 10
107.8738200159
 20
194.5077831237
 10
107.8823679822
 20
194.6379759318
  0
LINE
  5
317
100
AcDbEntity
  8
95056301000_BL5
100
AcDbLine
 62
7
  6
CONTINUOUS
 10
100.4338255646
 20
191.9302770321
 11
107.8338255646
 21
191.9302770321
  0
LINE
  5
318
100
AcDbEntity
  8
95056301000_BL5
100
AcDbLine
 62
9
  6
CONTINUOUS
 10
101.3804137847
 20
192.652622556
 11
106.8872373445
 21
192.652622556
  0
LINE
  5
319
100
AcDbEntity
  8
95056301000_BL5
100
AcDbLine
 62
9
  6
CONTINUOUS
 10
101.3803652908
 20
193.647150741
 11
106.8872905257
 21
193.6471513472
  0
LINE
  5
31A
100
AcDbEntity
  8
95056301000_BL5
100
AcDbLine
 62
9
  6
CONTINUOUS
 10
97.4338255646
 20
193.9302770321
 11
98.4338255646
 21
193.9302770321
  0
LINE
  5
31B
100
AcDbEntity
  8
95056301000_BL5
100
AcDbLine
 62
9
  6
CONTINUOUS
 10
109.8338255646
 20
193.9302770321
 11
110.8338255646
 21
193.9302770321
  0
LWPOLYLINE
  5
31C
100
AcDbEntity
  8
95056301000_BL5
100
AcDbPolyline
 62
9
  6
CONTINUOUS
 90
13
 70
0
 10
100.7008457446
 20
192.1444038642
 10
100.4477235508
 20
192.164410015
 10
100.1962515289
 20
192.2174004301
 10
99.9496483649
 20
192.3039717272
 10
99.715967589
 20
192.422100409
 10
99.502793519
 20
192.5669958608
 10
99.3104782839
 20
192.73709499
 10
99.141098643
 20
192.9302431034
 10
98.9968146207
 20
193.1443452379
 10
98.8791889562
 20
193.37903761
 10
98.7929891533
 20
193.626703212
 10
98.7402284148
 20
193.879250551
 10
98.7203096071
 20
194.1334476549
  0
LWPOLYLINE
  5
31D
100
AcDbEntity
  8
95056301000_BL5
100
AcDbPolyline
 62
9
  6
CONTINUOUS
 90
6
 70
0
 10
107.8338255646
 20
231.8231945086
 10
107.791614808
 20
231.7894182632
 10
107.7485051902
 20
231.7553580871
 10
107.7045137565
 20
231.7210219727
 10
107.6595893712
 20
231.686385943
 10
107.6136808988
 20
231.6514260214
  0
LINE
  5
31E
100
AcDbEntity
  8
95056301000_BL5
100
AcDbLine
 62
9
  6
CONTINUOUS
 10
107.6136808988
 20
231.6514260214
 11
106.8872373445
 21
231.1079315082
  0
LINE
  5
31F
100
AcDbEntity
  8
95056301000_BL5
100
AcDbLine
 62
9
  6
CONTINUOUS
 10
108.8726424683
 20
194.6380250638
 11
107.8823679822
 21
194.6380250486
  0
LINE
  5
320
100
AcDbEntity
  8
95056301000_BL5
100
AcDbLine
 62
9
  6
CONTINUOUS
 10
99.3950086609
 20
194.6380250647
 11
100.3852837669
 21
194.6380250486
  0
LWPOLYLINE
  5
321
100
AcDbEntity
  8
95056301000_BL5
100
AcDbPolyline
 62
9
  6
CONTINUOUS
 90
7
 70
0
 10
107.8338255646
 20
191.9373595556
 10
107.791614808
 20
191.971135801
 10
107.7485051902
 20
192.0051959771
 10
107.7045137565
 20
192.0395320916
 10
107.6595893712
 20
192.0741681212
 10
107.6136808988
 20
192.1091280428
 10
106.8872373445
 20
192.652622556
  0
LWPOLYLINE
  5
322
100
AcDbEntity
  8
95056301000_BL5
100
AcDbPolyline
 62
9
  6
CONTINUOUS
 90
7
 70
0
 10
109.8338255646
 20
229.8302770321
 10
109.7860568483
 20
229.7979378709
 10
109.7382965039
 20
229.7649895372
 10
109.6905443641
 20
229.73143191
 10
109.6428009308
 20
229.6972653519
 10
109.5950667059
 20
229.6624902253
 10
108.8726424683
 20
229.1225290156
  0
LWPOLYLINE
  5
323
100
AcDbEntity
  8
95056301000_BL5
100
AcDbPolyline
 62
9
  6
CONTINUOUS
 90
6
 70
0
 10
109.8338255646
 20
193.9302770321
 10
109.7860568483
 20
193.9626161933
 10
109.7382965039
 20
193.9955645271
 10
109.6905443641
 20
194.0291221542
 10
109.6428009308
 20
194.0632887124
 10
109.5950667059
 20
194.098063839
  0
LINE
  5
324
100
AcDbEntity
  8
95056301000_BL5
100
AcDbLine
 62
9
  6
CONTINUOUS
 10
108.8726424683
 20
194.6380250486
 11
109.5950667059
 21
194.098063839
  0
LWPOLYLINE
  5
325
100
AcDbEntity
  8
95056301000_BL5
100
AcDbPolyline
 62
9
  6
CONTINUOUS
 90
13
 70
0
 10
99.3950086609
 20
194.6380250486
 10
99.4136731235
 20
194.3793790832
 10
99.4656372196
 20
194.1254425426
 10
99.5499539547
 20
193.8804670578
 10
99.6651926064
 20
193.6485064059
 10
99.8094242991
 20
193.4334212655
 10
99.9802392283
 20
193.2387720656
 10
100.1748189605
 20
193.0678048892
 10
100.3899275424
 20
192.9233774558
 10
100.6220187981
 20
192.8079282841
 10
100.8672141604
 20
192.7234294336
 10
101.1214219633
 20
192.6713374907
 10
101.3804137847
 20
192.652622556
  0
LWPOLYLINE
  5
326
100
AcDbEntity
  8
95056301000_BL5
100
AcDbPolyline
 62
9
  6
CONTINUOUS
 90
13
 70
0
 10
100.3852837669
 20
194.6379711738
 10
100.3938249324
 20
194.5078187473
 10
100.4187449457
 20
194.3818048903
 10
100.4604572602
 20
194.2588272987
 10
100.5177215157
 20
194.1421928847
 10
100.5899528896
 20
194.0343459005
 10
100.6755982225
 20
193.9367720222
 10
100.7735572698
 20
193.8513932928
 10
100.8818864649
 20
193.7793448632
 10
100.999095866
 20
193.7222049121
 10
101.1227243539
 20
193.6805663987
 10
101.2494444414
 20
193.655688219
 10
101.3803652908
 20
193.647150741
  0
LINE
  5
327
100
AcDbEntity
  8
95056301000_BL5
100
AcDbLine
 62
7
  6
CONTINUOUS
 10
97.4338255646
 20
193.9302770321
 11
97.4338255646
 21
229.8302770321
  0
LINE
  5
328
100
AcDbEntity
  8
95056301000_BL5
100
AcDbLine
 62
9
  6
CONTINUOUS
 10
98.1409323458
 20
229.8302770849
 11
98.1409323458
 21
193.9302769793
  0
LINE
  5
329
100
AcDbEntity
  8
95056301000_BL5
100
AcDbLine
 62
7
  6
CONTINUOUS
 10
98.4338255646
 20
229.8302770321
 11
98.4338255646
 21
193.9302770321
  0
LINE
  5
32A
100
AcDbEntity
  8
95056301000_BL5
100
AcDbLine
 62
9
  6
CONTINUOUS
 10
99.3950086609
 20
229.1225290156
 11
99.3950086609
 21
194.6380250486
  0
LWPOLYLINE
  5
32B
100
AcDbEntity
  8
95056301000_BL5
100
AcDbPolyline
 62
9
  6
CONTINUOUS
 90
13
 70
0
 10
98.7203096071
 20
229.6271064093
 10
98.7402301865
 20
229.8813159228
 10
98.7929939479
 20
230.1338681758
 10
98.8791949572
 20
230.381530656
 10
98.9968183721
 20
230.6162152384
 10
99.1410940688
 20
230.8303050257
 10
99.3104656402
 20
231.0234463761
 10
99.5027876093
 20
231.1935536096
 10
99.7159739737
 20
231.3384574229
 10
99.949662506
 20
231.4565883639
 10
100.1962687784
 20
231.5431584493
 10
100.4477359073
 20
231.5961458285
 10
100.7008457446
 20
231.6161502
  0
LINE
  5
32C
100
AcDbEntity
  8
95056301000_BL5
100
AcDbLine
 62
9
  6
CONTINUOUS
 10
100.3852837639
 20
229.1225828672
 11
100.3852837669
 21
194.6379711738
  0
LINE
  5
32D
100
AcDbEntity
  8
95056301000_BL5
100
AcDbLine
 62
9
  6
CONTINUOUS
 10
100.4338255646
 20
191.9302770321
 11
100.4338255646
 21
191.8802770321
  0
LINE
  5
32E
100
AcDbEntity
  8
95056301000_BL5
100
AcDbLine
 62
9
  6
CONTINUOUS
 10
100.4338255646
 20
231.8302770321
 11
100.4338255645
 21
231.8802770321
  0
LINE
  5
32F
100
AcDbEntity
  8
95056301000_BL5
100
AcDbLine
 62
9
  6
CONTINUOUS
 10
101.3804137981
 20
231.1079315082
 11
101.3804137847
 21
230.1134033199
  0
LINE
  5
330
100
AcDbEntity
  8
95056301000_BL5
100
AcDbLine
 62
9
  6
CONTINUOUS
 10
101.3804137981
 20
192.652622556
 11
101.3804137847
 21
193.647150741
  0
LINE
  5
331
100
AcDbEntity
  8
95056301000_BL5
100
AcDbLine
 62
7
  6
CENTER
 10
104.1338255646
 20
250.3717633532
 11
104.1338255646
 21
173.1228166103
  0
LWPOLYLINE
  5
332
100
AcDbEntity
  8
95056301000_BL5
100
AcDbPolyline
 62
9
  6
CONTINUOUS
 90
13
 70
0
 10
107.8823679791
 20
229.1225781562
 10
107.8738200122
 20
229.2527709487
 10
107.8488894345
 20
229.378813703
 10
107.8071629589
 20
229.5018066306
 10
107.7498804469
 20
229.6184490972
 10
107.6776213369
 20
229.7263061355
 10
107.5919536116
 20
229.8238809557
 10
107.4939951411
 20
229.9092376446
 10
107.385675701
 20
229.9812586042
 10
107.2684741987
 20
230.0383803384
 10
107.1448611091
 20
230.0800046281
 10
107.0181703071
 20
230.1048721656
 10
106.8872905011
 20
230.1134027203
  0
LINE
  5
333
100
AcDbEntity
  8
95056301000_BL5
100
AcDbLine
 62
9
  6
CONTINUOUS
 10
106.8872373304
 20
231.1079315082
 11
106.8872373445
 21
230.1134027203
  0
LINE
  5
334
100
AcDbEntity
  8
95056301000_BL5
100
AcDbLine
 62
9
  6
CONTINUOUS
 10
106.8872373304
 20
192.652622556
 11
106.8872373445
 21
193.6471513472
  0
LINE
  5
335
100
AcDbEntity
  8
95056301000_BL5
100
AcDbLine
 62
9
  6
CONTINUOUS
 10
107.8338255646
 20
191.9302770321
 11
107.8338255646
 21
191.8802770321
  0
LINE
  5
336
100
AcDbEntity
  8
95056301000_BL5
100
AcDbLine
 62
9
  6
CONTINUOUS
 10
107.8338255646
 20
231.8302770321
 11
107.8338255646
 21
231.8802770321
  0
LINE
  5
337
100
AcDbEntity
  8
95056301000_BL5
100
AcDbLine
 62
9
  6
CONTINUOUS
 10
107.8823679791
 20
229.1225781562
 11
107.8823679822
 21
194.6379759318
  0
LINE
  5
338
100
AcDbEntity
  8
95056301000_BL5
100
AcDbLine
 62
9
  6
CONTINUOUS
 10
108.8726424683
 20
229.1225290156
 11
108.8726424683
 21
194.6380250486
  0
LWPOLYLINE
  5
339
100
AcDbEntity
  8
95056301000_BL5
100
AcDbPolyline
 62
9
  6
CONTINUOUS
 90
13
 70
0
 10
108.8726424683
 20
229.1225290156
 10
108.8539780708
 20
229.3811750732
 10
108.8020140469
 20
229.6351115407
 10
108.7176974748
 20
229.8800867715
 10
108.6024590424
 20
230.1120471167
 10
108.4582275695
 20
230.3271318916
 10
108.2874127342
 20
230.5217809805
 10
108.0928325649
 20
230.6927486115
 10
107.8777233223
 20
230.8371765029
 10
107.6456315355
 20
230.9526259051
 10
107.4004359078
 20
231.0371247844
 10
107.1462283864
 20
231.0892166146
 10
106.8872373445
 20
231.1079315082
  0
LINE
  5
33A
100
AcDbEntity
  8
95056301000_BL5
100
AcDbLine
 62
7
  6
CONTINUOUS
 10
109.8338255646
 20
193.9302770321
 11
109.8338255646
 21
229.8302770321
  0
LINE
  5
33B
100
AcDbEntity
  8
95056301000_BL5
100
AcDbLine
 62
9
  6
CONTINUOUS
 10
110.1267187834
 20
193.9302769793
 11
110.1267187834
 21
229.8302770849
  0
LINE
  5
33C
100
AcDbEntity
  8
95056301000_BL5
100
AcDbLine
 62
7
  6
CONTINUOUS
 10
110.8338255646
 20
229.8302770321
 11
110.8338255646
 21
193.9302770321
  0
LWPOLYLINE
  5
33D
100
AcDbEntity
  8
95056301000_BL5
100
AcDbPolyline
 62
9
  6
CONTINUOUS
 90
13
 70
0
 10
109.5473415221
 20
194.1334476549
 10
109.5274209427
 20
193.8792381415
 10
109.4746571813
 20
193.6266858885
 10
109.388456172
 20
193.3790234082
 10
109.270832757
 20
193.1443388258
 10
109.1265570604
 20
192.9302490386
 10
108.957185489
 20
192.7371076881
 10
108.7648635199
 20
192.5670004546
 10
108.5516771555
 20
192.4220966414
 10
108.3179886232
 20
192.3039657004
 10
108.0713823508
 20
192.2173956149
 10
107.8199152219
 20
192.1644082358
 10
107.5668053846
 20
192.1444038642
  0
LWPOLYLINE
  5
33E
100
AcDbEntity
  8
95056301000_BL5
100
AcDbPolyline
 62
9
  6
CONTINUOUS
 90
6
 70
0
 10
100.4338255646
 20
191.9373595556
 10
100.4760363212
 20
191.971135801
 10
100.519145939
 20
192.0051959771
 10
100.5631373727
 20
192.0395320916
 10
100.608061758
 20
192.0741681212
 10
100.6539702303
 20
192.1091280428
  0
LINE
  5
33F
100
AcDbEntity
  8
95056301000_BL5
100
AcDbLine
 62
9
  6
CONTINUOUS
 10
101.3804137847
 20
192.652622556
 11
100.6539702303
 21
192.1091280428
  0
LWPOLYLINE
  5
340
100
AcDbEntity
  8
95056301000_BL5
100
AcDbPolyline
 62
9
  6
CONTINUOUS
 90
7
 70
0
 10
98.4338255646
 20
193.9302770321
 10
98.4815942809
 20
193.9626161933
 10
98.5293546253
 20
193.9955645271
 10
98.5771067651
 20
194.0291221542
 10
98.6248501984
 20
194.0632887124
 10
98.6725844233
 20
194.098063839
 10
99.3950086609
 20
194.6380250486
  0
LWPOLYLINE
  5
341
100
AcDbEntity
  8
95056301000_BL5
100
AcDbPolyline
 62
9
  6
CONTINUOUS
 90
6
 70
0
 10
98.4338255646
 20
229.8302770321
 10
98.4815942809
 20
229.7979378709
 10
98.5293546253
 20
229.7649895372
 10
98.5771067651
 20
229.73143191
 10
98.6248501984
 20
229.6972653519
 10
98.6725844233
 20
229.6624902253
  0
LINE
  5
342
100
AcDbEntity
  8
95056301000_BL5
100
AcDbLine
 62
9
  6
CONTINUOUS
 10
98.6725844233
 20
229.6624902253
 11
99.3950086609
 21
229.1225290156
  0
LWPOLYLINE
  5
343
100
AcDbEntity
  8
95056301000_BL5
100
AcDbPolyline
 62
9
  6
CONTINUOUS
 90
7
 70
0
 10
100.4338255646
 20
231.8231945086
 10
100.4760363212
 20
231.7894182632
 10
100.519145939
 20
231.7553580871
 10
100.5631373727
 20
231.7210219727
 10
100.608061758
 20
231.686385943
 10
100.6539702303
 20
231.6514260214
 10
101.3804137847
 20
231.1079315082
  0
LWPOLYLINE
  5
344
100
AcDbEntity
  8
95056301000_BL5
100
AcDbPolyline
 62
9
  6
CONTINUOUS
 90
13
 70
0
 10
101.3803652653
 20
230.1134033199
 10
101.2494444327
 20
230.1048658406
 10
101.122724355
 20
230.0799876613
 10
100.9990958677
 20
230.0383491509
 10
100.881886464
 20
229.9812092027
 10
100.773557269
 20
229.9091607728
 10
100.6755982224
 20
229.8237820422
 10
100.5899528908
 20
229.7262081631
 10
100.5177215175
 20
229.6183611785
 10
100.4604572594
 20
229.501726767
 10
100.4187449421
 20
229.3787491749
 10
100.3938249284
 20
229.252735309
 10
100.3852837639
 20
229.1225828672
  0
LINE
  5
345
100
AcDbEntity
  8
95056301000_BL5
100
AcDbLine
 62
9
  6
CONTINUOUS
 10
108.8726424683
 20
229.1225290004
 11
107.8823679791
 21
229.1225290156
  0
LINE
  5
346
100
AcDbEntity
  8
95056301000_BL5
100
AcDbLine
 62
9
  6
CONTINUOUS
 10
99.3950086609
 20
229.1225289995
 11
100.3852837639
 21
229.1225290156
  0
LINE
  5
347
100
AcDbEntity
  8
95056301000_BL5
100
AcDbLine
 62
9
  6
CONTINUOUS
 10
97.4338255646
 20
229.8302770321
 11
98.4338255646
 21
229.8302770321
  0
LINE
  5
348
100
AcDbEntity
  8
95056301000_BL5
100
AcDbLine
 62
9
  6
CONTINUOUS
 10
109.8338255646
 20
229.8302770321
 11
110.8338255646
 21
229.8302770321
  0
LINE
  5
349
100
AcDbEntity
  8
95056301000_BL5
100
AcDbLine
 62
9
  6
CONTINUOUS
 10
106.8872905011
 20
230.1134027203
 11
101.3803652653
 21
230.1134033199
  0
LWPOLYLINE
  5
34A
100
AcDbEntity
  8
95056301000_BL5
100
AcDbPolyline
 62
9
  6
CONTINUOUS
 90
13
 70
0
 10
101.3804137847
 20
231.1079315082
 10
101.121421964
 20
231.0892165726
 10
100.8672141612
 20
231.0371246295
 10
100.6220187983
 20
230.9526257797
 10
100.389927542
 20
230.8371766089
 10
100.1748189602
 20
230.6927491754
 10
99.9802392284
 20
230.5217819986
 10
99.8094242994
 20
230.3271327985
 10
99.6651926067
 20
230.1120476582
 10
99.5499539543
 20
229.8800870066
 10
99.4656372187
 20
229.635111522
 10
99.4136731228
 20
229.3811749814
 10
99.3950086609
 20
229.1225290156
  0
LINE
  5
34B
100
AcDbEntity
  8
95056301000_BL5
100
AcDbLine
 62
9
  6
CONTINUOUS
 10
106.8872373445
 20
231.1079315082
 11
101.3804137847
 21
231.1079315082
  0
LINE
  5
34C
100
AcDbEntity
  8
95056301000_BL5
100
AcDbLine
 62
7
  6
CONTINUOUS
 10
107.8338255646
 20
231.8302770321
 11
100.4338255646
 21
231.8302770321
  0
LWPOLYLINE
  5
34D
100
AcDbEntity
  8
95056301000_BL5
100
AcDbPolyline
 62
9
  6
CONTINUOUS
 90
13
 70
0
 10
107.5668053846
 20
231.6161502
 10
107.8199275784
 20
231.5961440492
 10
108.0713996003
 20
231.5431536342
 10
108.3180027642
 20
231.4565823371
 10
108.5516835402
 20
231.3384536553
 10
108.7648576102
 20
231.1935582034
 10
108.9571728453
 20
231.0234590742
 10
109.1265524862
 20
230.8303109608
 10
109.2708365085
 20
230.6162088264
 10
109.388462173
 20
230.3815164543
 10
109.4746619759
 20
230.1338508522
 10
109.5274227143
 20
229.8813035132
 10
109.5473415221
 20
229.6271064093
  0
LINE
  5
34E
100
AcDbEntity
  8
95056301000_BL5
100
AcDbLine
 62
7
  6
CONTINUOUS
 10
28.6359550894
 20
174.8802770321
 11
28.7359550894
 21
174.8802770321
  0
LINE
  5
34F
100
AcDbEntity
  8
95056301000_BL5
100
AcDbLine
 62
7
  6
CONTINUOUS
 10
28.6359550894
 20
178.9432171948
 11
28.7359550894
 21
178.9432171948
  0
LINE
  5
350
100
AcDbEntity
  8
95056301000_BL5
100
AcDbLine
 62
7
  6
CONTINUOUS
 10
33.6359643911
 20
190.6302780098
 11
40.8450120159
 21
191.3879794474
  0
LINE
  5
351
100
AcDbEntity
  8
95056301000_BL5
100
AcDbLine
 62
9
  6
CONTINUOUS
 10
33.6368367138
 20
193.6030114862
 11
40.9143012913
 21
194.3679038353
  0
LINE
  5
352
100
AcDbEntity
  8
95056301000_BL5
100
AcDbLine
 62
7
  6
CONTINUOUS
 10
33.6359550894
 20
190.6302770321
 11
32.2359550894
 21
190.6302770321
  0
LINE
  5
353
100
AcDbEntity
  8
95056301000_BL5
100
AcDbLine
 62
9
  6
CONTINUOUS
 10
33.6359550894
 20
193.6302770321
 11
32.2359550894
 21
193.6302770321
  0
LINE
  5
354
100
AcDbEntity
  8
95056301000_BL5
100
AcDbLine
 62
9
  6
CONTINUOUS
 10
42.6359550894
 20
194.3679038353
 11
40.9143012914
 21
194.3679038402
  0
LWPOLYLINE
  5
355
100
AcDbEntity
  8
95056301000_BL5
100
AcDbPolyline
 62
7
  6
CONTINUOUS
 90
13
 70
0
 10
33.6368367138
 20
193.6030114862
 10
33.659753157
 20
193.215275223
 10
33.6781871918
 20
192.8345441981
 10
33.6921294568
 20
192.4672193864
 10
33.7016080361
 20
192.1194330304
 10
33.7065872931
 20
191.797005103
 10
33.7072490275
 20
191.5053304762
 10
33.7036272932
 20
191.2492966018
 10
33.6961296912
 20
191.0332175755
 10
33.6849063414
 20
190.8607569183
 10
33.6707637423
 20
190.7347982225
 10
33.6546654996
 20
190.6575088562
 10
33.6362904113
 20
190.6303122759
  0
LINE
  5
356
100
AcDbEntity
  8
95056301000_BL5
100
AcDbLine
 62
7
  6
CONTINUOUS
 10
28.7359550894
 20
174.8802770321
 11
28.7359550894
 21
187.8639957348
  0
LINE
  5
357
100
AcDbEntity
  8
95056301000_BL5
100
AcDbLine
 62
7
  6
CONTINUOUS
 10
28.7359550894
 20
235.8965583295
 11
28.7359550894
 21
248.8802770321
  0
LINE
  5
358
100
AcDbEntity
  8
95056301000_BL5
100
AcDbLine
 62
9
  6
CONTINUOUS
 10
32.2359550894
 20
190.6302770321
 11
32.2359550894
 21
193.6302770321
  0
LINE
  5
359
100
AcDbEntity
  8
95056301000_BL5
100
AcDbLine
 62
9
  6
CONTINUOUS
 10
32.2359550894
 20
230.1302770321
 11
32.2359550894
 21
233.1302770321
  0
LWPOLYLINE
  5
35A
100
AcDbEntity
  8
95056301000_BL5
100
AcDbPolyline
 62
7
  6
CONTINUOUS
 90
22
 70
0
 10
28.7359550894
 20
187.8639957348
 10
28.7563896689
 20
188.258285474
 10
28.8000024432
 20
188.6273119558
 10
28.8691768073
 20
188.9702667274
 10
28.9567625761
 20
189.2895751474
 10
29.0567341663
 20
189.5860851502
 10
29.1681011668
 20
189.8637205563
 10
29.2879788589
 20
190.1260290264
 10
29.4160245814
 20
190.3749869746
 10
29.5508036501
 20
190.6130833159
 10
29.6927074155
 20
190.8423282089
 10
29.841744411
 20
191.0654242985
 10
29.9976284036
 20
191.2827830402
 10
30.1604195102
 20
191.4958307207
 10
30.3290872151
 20
191.7042254911
 10
30.502716577
 20
191.9078663731
 10
30.6810209904
 20
192.1074570423
 10
30.8634894255
 20
192.3034439357
 10
31.0498802141
 20
192.496497791
 10
31.2398444839
 20
192.6871980242
 10
31.4331928171
 20
192.8762650377
 10
31.6296888114
 20
193.0643606738
  0
LINE
  5
35B
100
AcDbEntity
  8
95056301000_BL5
100
AcDbLine
 62
7
  6
CONTINUOUS
 10
33.6359550894
 20
230.1302770321
 11
33.6359550894
 21
193.6302770321
  0
LWPOLYLINE
  5
35C
100
AcDbEntity
  8
95056301000_BL5
100
AcDbPolyline
 62
9
  6
CONTINUOUS
 90
15
 70
0
 10
40.9143012913
 20
194.3679038353
 10
40.9352833773
 20
194.0357181256
 10
40.952665923
 20
193.707878466
 10
40.9660965539
 20
193.3884206017
 10
40.9754324687
 20
193.0812653377
 10
40.9805943589
 20
192.7901905071
 10
40.9814859637
 20
192.5187647526
 10
40.9781387408
 20
192.2703266973
 10
40.9705539681
 20
192.0479279391
 10
40.9588643997
 20
191.8543118202
 10
40.9431678584
 20
191.6918688502
 10
40.9236814053
 20
191.5626157143
 10
40.9006181251
 20
191.4681640183
 10
40.8742122929
 20
191.4096951463
 10
40.8450120159
 20
191.3879794474
  0
LINE
  5
35D
100
AcDbEntity
  8
95056301000_BL5
100
AcDbLine
 62
9
  6
CONTINUOUS
 10
40.9143012913
 20
229.3926502289
 11
40.9143012913
 21
194.3679038353
  0
LINE
  5
35E
100
AcDbEntity
  8
95056301000_BL5
100
AcDbLine
 62
7
  6
CONTINUOUS
 10
42.6359550894
 20
230.3835308261
 11
42.6359550894
 21
193.3770232381
  0
LWPOLYLINE
  5
35F
100
AcDbEntity
  8
95056301000_BL5
100
AcDbPolyline
 62
7
  6
CONTINUOUS
 90
3
 70
0
 10
31.6296888114
 20
193.0643606738
 10
32.0311774674
 20
193.4410007794
 10
32.2359550894
 20
193.6302770321
  0
LINE
  5
360
100
AcDbEntity
  8
95056301000_BL5
100
AcDbLine
 62
7
  6
CONTINUOUS
 10
32.2359550894
 20
230.1302770321
 11
32.031878344
 21
230.3189055922
  0
LWPOLYLINE
  5
361
100
AcDbEntity
  8
95056301000_BL5
100
AcDbPolyline
 62
7
  6
CONTINUOUS
 90
23
 70
0
 10
32.031878344
 20
230.3189055922
 10
31.6314707398
 20
230.6945025921
 10
31.4353790047
 20
230.8821758593
 10
31.2423808427
 20
231.0708463929
 10
31.0527348494
 20
231.2611484779
 10
30.866654685
 20
231.4537773228
 10
30.6845077881
 20
231.6492784977
 10
30.5065806353
 20
231.8482651287
 10
30.3333297721
 20
232.0512297563
 10
30.1650415472
 20
232.258844913
 10
30.0025130281
 20
232.4711837484
 10
29.8466420445
 20
232.6880636847
 10
29.6974126582
 20
232.9109244364
 10
29.5550825691
 20
233.1402662529
 10
29.4197286917
 20
233.378724952
 10
29.2910156193
 20
233.6282953989
 10
29.1704380143
 20
233.8914007001
 10
29.0584062137
 20
234.1699669327
 10
28.9578377867
 20
234.4674800503
 10
28.8697771164
 20
234.7878087087
 10
28.8002540985
 20
235.1317308794
 10
28.756444009
 20
235.5015725268
 10
28.7359550894
 20
235.8965583295
  0
LWPOLYLINE
  5
362
100
AcDbEntity
  8
95056301000_BL5
100
AcDbPolyline
 62
7
  6
CONTINUOUS
 90
13
 70
0
 10
33.6362904113
 20
233.1302417884
 10
33.6546654996
 20
233.103045208
 10
33.6707637423
 20
233.0257558417
 10
33.6849063414
 20
232.899797146
 10
33.6961296912
 20
232.7273364887
 10
33.7036272932
 20
232.5112574624
 10
33.7072490275
 20
232.255223588
 10
33.7065872931
 20
231.9635489613
 10
33.7016080361
 20
231.6411210339
 10
33.6921294568
 20
231.2933346778
 10
33.6781871918
 20
230.9260098662
 10
33.659753157
 20
230.5452788412
 10
33.6368367138
 20
230.157542578
  0
LINE
  5
363
100
AcDbEntity
  8
95056301000_BL5
100
AcDbLine
 62
9
  6
CONTINUOUS
 10
42.6359550894
 20
229.3926502289
 11
40.9143012913
 21
229.3926502289
  0
LINE
  5
364
100
AcDbEntity
  8
95056301000_BL5
100
AcDbLine
 62
9
  6
CONTINUOUS
 10
32.2359550894
 20
230.1302770321
 11
33.6359550894
 21
230.1302770321
  0
LINE
  5
365
100
AcDbEntity
  8
95056301000_BL5
100
AcDbLine
 62
9
  6
CONTINUOUS
 10
40.9143012913
 20
229.3926502289
 11
33.6368367138
 21
230.157542578
  0
LINE
  5
366
100
AcDbEntity
  8
95056301000_BL5
100
AcDbLine
 62
7
  6
CONTINUOUS
 10
32.2359550894
 20
233.1302770321
 11
33.6359550894
 21
233.1302770321
  0
LINE
  5
367
100
AcDbEntity
  8
95056301000_BL5
100
AcDbLine
 62
7
  6
CONTINUOUS
 10
40.8450120159
 20
232.3725746169
 11
33.6362904113
 21
233.1302417884
  0
LWPOLYLINE
  5
368
100
AcDbEntity
  8
95056301000_BL5
100
AcDbPolyline
 62
9
  6
CONTINUOUS
 90
15
 70
0
 10
40.8450120159
 20
232.3725746169
 10
40.8742122973
 20
232.3508589174
 10
40.9006181306
 20
232.2923900454
 10
40.9236814071
 20
232.1979383498
 10
40.9431678562
 20
232.0686852143
 10
40.9588643983
 20
231.9062422442
 10
40.9705539685
 20
231.7126261251
 10
40.9781387411
 20
231.4902273669
 10
40.9814859637
 20
231.2417893116
 10
40.9805943597
 20
230.9703635571
 10
40.9754324697
 20
230.6792887265
 10
40.9660965524
 20
230.3721334627
 10
40.9526659194
 20
230.0526755986
 10
40.9352833744
 20
229.7248359389
 10
40.9143012913
 20
229.3926502289
  0
LINE
  5
369
100
AcDbEntity
  8
95056301000_BL5
100
AcDbLine
 62
7
  6
CONTINUOUS
 10
28.7359550894
 20
244.8173368694
 11
28.6359550894
 21
244.8173368694
  0
LINE
  5
36A
100
AcDbEntity
  8
95056301000_BL5
100
AcDbLine
 62
7
  6
CONTINUOUS
 10
28.7359550894
 20
248.8802770321
 11
28.6359550894
 21
248.8802770321
  0
LINE
  5
36B
100
AcDbEntity
  8
95056301000_BL5
100
AcDbLine
 62
7
  6
CONTINUOUS
 10
27.4359550894
 20
88.7220730704
 11
25.1359550894
 21
88.7220730704
  0
LINE
  5
36C
100
AcDbEntity
  8
95056301000_BL5
100
AcDbLine
 62
9
  6
CONTINUOUS
 10
25.1359550894
 20
105.7220730704
 11
25.1359550894
 21
88.7220730704
  0
LINE
  5
36D
100
AcDbEntity
  8
95056301000_BL5
100
AcDbLine
 62
7
  6
CONTINUOUS
 10
40.9143012913
 20
90.9949779208
 11
33.6368367138
 21
89.9721969746
  0
LINE
  5
36E
100
AcDbEntity
  8
95056301000_BL5
100
AcDbLine
 62
7
  6
CONTINUOUS
 10
28.4359550894
 20
89.9720730704
 11
33.6359550894
 21
89.9720730704
  0
LINE
  5
36F
100
AcDbEntity
  8
95056301000_BL5
100
AcDbLine
 62
7
  6
CONTINUOUS
 10
27.4359550894
 20
105.7220730704
 11
27.4359550894
 21
105.4720730704
  0
LINE
  5
370
100
AcDbEntity
  8
95056301000_BL5
100
AcDbLine
 62
7
  6
CONTINUOUS
 10
27.4359550894
 20
88.9720730704
 11
27.4359550894
 21
88.7220730704
  0
LINE
  5
371
100
AcDbEntity
  8
95056301000_BL5
100
AcDbLine
 62
9
  6
CONTINUOUS
 10
40.8450120159
 20
93.9706511134
 11
33.6362904113
 21
92.9575313619
  0
LINE
  5
372
100
AcDbEntity
  8
95056301000_BL5
100
AcDbLine
 62
9
  6
CONTINUOUS
 10
28.7359550894
 20
92.9720730784
 11
33.6359550894
 21
92.9720730704
  0
LINE
  5
373
100
AcDbEntity
  8
95056301000_BL5
100
AcDbLine
 62
7
  6
CONTINUOUS
 10
28.7359550894
 20
104.4720730704
 11
28.7359550894
 21
89.9720730704
  0
LINE
  5
374
100
AcDbEntity
  8
95056301000_BL5
100
AcDbLine
 62
9
  6
CONTINUOUS
 10
42.6359550894
 20
93.9706511134
 11
40.845012016
 21
93.9706511192
  0
LINE
  5
375
100
AcDbEntity
  8
95056301000_BL5
100
AcDbLine
 62
9
  6
CONTINUOUS
 10
32.2359550894
 20
89.9720730704
 11
32.2359550894
 21
104.4720730704
  0
LINE
  5
376
100
AcDbEntity
  8
95056301000_BL5
100
AcDbLine
 62
7
  6
CONTINUOUS
 10
33.6362904113
 20
92.9575313619
 11
33.6546654996
 21
92.5687749519
  0
LWPOLYLINE
  5
377
100
AcDbEntity
  8
95056301000_BL5
100
AcDbPolyline
 62
7
  6
CONTINUOUS
 90
11
 70
0
 10
33.6546654996
 20
92.5687749519
 10
33.6849063414
 20
91.818921589
 10
33.6961296912
 20
91.4703133763
 10
33.7036272932
 20
91.1469889105
 10
33.7072490275
 20
90.8543851485
 10
33.7065872931
 20
90.5973911898
 10
33.7016080361
 20
90.3802878936
 10
33.6921294568
 20
90.206698428
 10
33.6781871918
 20
90.0795293357
 10
33.659753157
 20
90.0009161411
 10
33.6368367138
 20
89.9721969746
  0
LINE
  5
378
100
AcDbEntity
  8
95056301000_BL5
100
AcDbLine
 62
7
  6
CONTINUOUS
 10
33.6359550894
 20
101.4720730704
 11
33.6359550894
 21
92.9720730704
  0
LWPOLYLINE
  5
379
100
AcDbEntity
  8
95056301000_BL5
100
AcDbPolyline
 62
7
  6
CONTINUOUS
 90
3
 70
0
 10
33.6849063414
 20
102.6252245517
 10
33.6546654996
 20
101.8753711889
 10
33.6362904113
 20
101.4866147788
  0
LINE
  5
37A
100
AcDbEntity
  8
95056301000_BL5
100
AcDbLine
 62
9
  6
CONTINUOUS
 10
42.6359550894
 20
100.4734950274
 11
40.8450120159
 21
100.4734950274
  0
LINE
  5
37B
100
AcDbEntity
  8
95056301000_BL5
100
AcDbLine
 62
9
  6
CONTINUOUS
 10
33.6359550894
 20
101.4720730704
 11
28.7359550894
 21
101.4720730704
  0
LINE
  5
37C
100
AcDbEntity
  8
95056301000_BL5
100
AcDbLine
 62
9
  6
CONTINUOUS
 10
33.6362904113
 20
101.4866147788
 11
40.8450120159
 21
100.4734950274
  0
LWPOLYLINE
  5
37D
100
AcDbEntity
  8
95056301000_BL5
100
AcDbPolyline
 62
7
  6
CONTINUOUS
 90
10
 70
0
 10
33.6368367138
 20
104.4719491662
 10
33.659753157
 20
104.4432299997
 10
33.6781871918
 20
104.364616805
 10
33.6921294568
 20
104.2374477128
 10
33.7016080361
 20
104.0638582471
 10
33.7065872931
 20
103.8467549509
 10
33.7072490275
 20
103.5897609923
 10
33.7036272932
 20
103.2971572302
 10
33.6961296912
 20
102.9738327645
 10
33.6849063414
 20
102.6252245517
  0
LINE
  5
37E
100
AcDbEntity
  8
95056301000_BL5
100
AcDbLine
 62
7
  6
CONTINUOUS
 10
28.4359550894
 20
104.4720730704
 11
33.6359550894
 21
104.4720730704
  0
LINE
  5
37F
100
AcDbEntity
  8
95056301000_BL5
100
AcDbLine
 62
7
  6
CONTINUOUS
 10
33.6368367138
 20
104.4719491662
 11
40.9143012913
 21
103.4491682199
  0
LWPOLYLINE
  5
380
100
AcDbEntity
  8
95056301000_BL5
100
AcDbPolyline
 62
9
  6
CONTINUOUS
 90
15
 70
0
 10
40.8450120159
 20
93.9706511134
 10
40.8742122973
 20
93.6387388779
 10
40.9006181306
 20
93.3112030216
 10
40.9236814071
 20
92.9920584694
 10
40.9431678562
 20
92.6852391903
 10
40.9588643983
 20
92.3945261936
 10
40.9705539685
 20
92.1234827447
 10
40.9781387411
 20
91.8754436462
 10
40.9814859637
 20
91.6534435119
 10
40.9805943597
 20
91.4602128489
 10
40.9754324697
 20
91.2981207066
 10
40.9660965524
 20
91.1691687185
 10
40.9526659194
 20
91.0749491267
 10
40.9352833744
 20
91.0166323835
 10
40.9143012913
 20
90.9949779208
  0
LINE
  5
381
100
AcDbEntity
  8
95056301000_BL5
100
AcDbLine
 62
9
  6
CONTINUOUS
 10
40.8450120159
 20
100.4734950274
 11
40.8450120159
 21
93.9706511134
  0
LINE
  5
382
100
AcDbEntity
  8
95056301000_BL5
100
AcDbLine
 62
7
  6
CONTINUOUS
 10
27.4359550894
 20
105.7220730704
 11
25.1359550894
 21
105.7220730704
  0
LINE
  5
383
100
AcDbEntity
  8
95056301000_BL5
100
AcDbLine
 62
7
  6
CONTINUOUS
 10
42.6359550894
 20
101.4686320824
 11
42.6359550894
 21
92.9755140583
  0
LWPOLYLINE
  5
384
100
AcDbEntity
  8
95056301000_BL5
100
AcDbPolyline
 62
9
  6
CONTINUOUS
 90
15
 70
0
 10
40.9143012913
 20
103.4491682199
 10
40.9352833773
 20
103.4275137568
 10
40.952665923
 20
103.3691970136
 10
40.9660965539
 20
103.2749774221
 10
40.9754324687
 20
103.1460254343
 10
40.9805943589
 20
102.983933292
 10
40.9814859637
 20
102.7907026288
 10
40.9781387408
 20
102.5687024946
 10
40.9705539681
 20
102.3206633961
 10
40.9588643997
 20
102.049619947
 10
40.9431678584
 20
101.7589069502
 10
40.9236814053
 20
101.4520876715
 10
40.9006181251
 20
101.1329431197
 10
40.8742122929
 20
100.8054072633
 10
40.8450120159
 20
100.4734950274
  0
ARC
  5
385
100
AcDbEntity
  8
95056301000_BL5
100
AcDbCircle
 62
7
  6
CONTINUOUS
 10
100.4338255646
 20
193.9302770321
 40
3.0
100
AcDbArc
 50
180.0
 51
213.4226045393
  0
ARC
  5
386
100
AcDbEntity
  8
95056301000_BL5
100
AcDbCircle
 62
9
  6
CONTINUOUS
 10
100.4338255646
 20
193.9302770321
 40
2.2928932188
100
AcDbArc
 50
180.0000013195
 51
243.6352111972
  0
ARC
  5
387
100
AcDbEntity
  8
95056301000_BL5
100
AcDbCircle
 62
7
  6
CONTINUOUS
 10
100.4338255646
 20
193.9302770321
 40
2.0
100
AcDbArc
 50
180.0
 51
270.0
  0
ARC
  5
388
100
AcDbEntity
  8
95056301000_BL5
100
AcDbCircle
 62
7
  6
CONTINUOUS
 10
100.4338255646
 20
229.8302770321
 40
3.0
100
AcDbArc
 50
146.5773954607
 51
180.0
  0
ARC
  5
389
100
AcDbEntity
  8
95056301000_BL5
100
AcDbCircle
 62
9
  6
CONTINUOUS
 10
100.4338255646
 20
229.8302770321
 40
2.2928932188
100
AcDbArc
 50
116.364803013
 51
179.9999986805
  0
ARC
  5
38A
100
AcDbEntity
  8
95056301000_BL5
100
AcDbCircle
 62
7
  6
CONTINUOUS
 10
100.4338255646
 20
229.8302770321
 40
2.0
100
AcDbArc
 50
90.0
 51
180.0
  0
ARC
  5
38B
100
AcDbEntity
  8
95056301000_BL5
100
AcDbCircle
 62
7
  6
CONTINUOUS
 10
107.8338255646
 20
193.9302770321
 40
3.0
100
AcDbArc
 50
326.5773954607
 51
360.0
  0
ARC
  5
38C
100
AcDbEntity
  8
95056301000_BL5
100
AcDbCircle
 62
9
  6
CONTINUOUS
 10
107.8338255646
 20
193.9302770321
 40
2.2928932188
100
AcDbArc
 50
296.364803013
 51
359.9999986805
  0
ARC
  5
38D
100
AcDbEntity
  8
95056301000_BL5
100
AcDbCircle
 62
7
  6
CONTINUOUS
 10
107.8338255646
 20
193.9302770321
 40
2.0
100
AcDbArc
 50
270.0
 51
360.0
  0
ARC
  5
38E
100
AcDbEntity
  8
95056301000_BL5
100
AcDbCircle
 62
7
  6
CONTINUOUS
 10
107.8338255646
 20
229.8302770321
 40
3.0
100
AcDbArc
 50
0.0
 51
33.4226045393
  0
ARC
  5
38F
100
AcDbEntity
  8
95056301000_BL5
100
AcDbCircle
 62
9
  6
CONTINUOUS
 10
107.8338255646
 20
229.8302770321
 40
2.2928932188
100
AcDbArc
 50
0.0000013195
 51
63.6352111972
  0
ARC
  5
390
100
AcDbEntity
  8
95056301000_BL5
100
AcDbCircle
 62
7
  6
CONTINUOUS
 10
107.8338255646
 20
229.8302770321
 40
2.0
100
AcDbArc
 50
0.0
 51
90.0
  0
ARC
  5
391
100
AcDbEntity
  8
95056301000_BL5
100
AcDbCircle
 62
7
  6
CONTINUOUS
 10
32.2359550894
 20
187.1302770321
 40
3.5
100
AcDbArc
 50
90.0
 51
180.0
  0
ARC
  5
392
100
AcDbEntity
  8
95056301000_BL5
100
AcDbCircle
 62
7
  6
CONTINUOUS
 10
32.2359550894
 20
236.6302770321
 40
3.5
100
AcDbArc
 50
184.0882614211
 51
270.0
  0
ARC
  5
393
100
AcDbEntity
  8
95056301000_BL5
100
AcDbCircle
 62
7
  6
CONTINUOUS
 10
40.6359550894
 20
193.3770380214
 40
2.0
100
AcDbArc
 50
275.999955734
 51
359.9995764886
  0
ARC
  5
394
100
AcDbEntity
  8
95056301000_BL5
100
AcDbCircle
 62
7
  6
CONTINUOUS
 10
40.6359550894
 20
230.3835160428
 40
2.0
100
AcDbArc
 50
0.0004235114
 51
84.000044266
  0
ARC
  5
395
100
AcDbEntity
  8
95056301000_BL5
100
AcDbCircle
 62
7
  6
CONTINUOUS
 10
40.6359550894
 20
101.4686219191
 40
2.0
100
AcDbArc
 50
0.0002911576
 51
82.0000405195
  0
ARC
  5
396
100
AcDbEntity
  8
95056301000_BL5
100
AcDbCircle
 62
7
  6
CONTINUOUS
 10
40.6359550894
 20
92.9755140583
 40
2.0
100
AcDbArc
 50
278.0
 51
360.0
  0
ARC
  5
397
100
AcDbEntity
  8
95056301000_BL5
100
AcDbCircle
 62
7
  6
CONTINUOUS
 10
28.4359550894
 20
88.9720730704
 40
1.0
100
AcDbArc
 50
90.0
 51
180.0
  0
ARC
  5
398
100
AcDbEntity
  8
95056301000_BL5
100
AcDbCircle
 62
7
  6
CONTINUOUS
 10
28.4359550894
 20
105.4720730704
 40
1.0
100
AcDbArc
 50
180.0
 51
270.0
  0
ARC
  5
399
100
AcDbEntity
  8
95056301000_BL5
100
AcDbCircle
 62
7
  6
CONTINUOUS
 10
25.1359550894
 20
105.2220730704
 40
0.5
100
AcDbArc
 50
90.0
 51
180.0
  0
ARC
  5
39A
100
AcDbEntity
  8
95056301000_BL5
100
AcDbCircle
 62
7
  6
CONTINUOUS
 10
25.1359550894
 20
89.2220730704
 40
0.5
100
AcDbArc
 50
180.0
 51
270.0
  0
ELLIPSE
  5
39B
100
AcDbEntity
  8
95056301000_BL5
100
AcDbEllipse
 62
7
  6
CONTINUOUS
 10
54.9820642566
 20
193.6302770321
 30
0.0
 11
21.3461091672
 21
-0.0
 31
0.0
 40
0.1405408347
 41
3.1415926536
 42
3.150681294
  0
ELLIPSE
  5
39C
100
AcDbEntity
  8
95056301000_BL5
100
AcDbEllipse
 62
7
  6
CONTINUOUS
 10
54.9820642566
 20
230.1302770321
 30
0.0
 11
21.3461091672
 21
0.0
 31
0.0
 40
0.1405408347
 41
3.1325040132
 42
3.1415926536
  0
ELLIPSE
  5
39D
100
AcDbEntity
  8
95056301000_BL5
100
AcDbEllipse
 62
7
  6
CONTINUOUS
 10
62.1790484521
 20
101.4720730704
 30
0.0
 11
28.5430933627
 21
0.0
 31
0.0
 40
0.1051042353
 41
3.1367453985
 42
3.1415926536
  0
ELLIPSE
  5
39E
100
AcDbEntity
  8
95056301000_BL5
100
AcDbEllipse
 62
7
  6
CONTINUOUS
 10
62.1790484521
 20
92.9720730704
 30
0.0
 11
28.5430933627
 21
0.0
 31
0.0
 40
0.1051042353
 41
-3.1415926536
 42
-3.1367453985
  0
ENDBLK
  5
39F
100
AcDbEntity
  8
0
  6
BYBLOCK
 62
0
100
AcDbBlockEnd
  0
BLOCK
  5
3A0
100
AcDbEntity
  8
94528901000_M_BL6
100
AcDbBlockBegin
  2
94528901000_M_BL6
 70
64
 10
69.784890327
 20
170.8511750512
  3
94528901000_M_BL6
  1

  0
LINE
  5
3A1
100
AcDbEntity
  8
94528901000_M_BL6
100
AcDbLine
 62
7
  6
CONTINUOUS
 10
103.2588255646
 20
244.9958214887
 11
102.3838255646
 21
243.4802770321
  0
LINE
  5
3A2
100
AcDbEntity
  8
94528901000_M_BL6
100
AcDbLine
 62
7
  6
CONTINUOUS
 10
105.0088255646
 20
241.9647325755
 11
105.8838255646
 21
243.4802770321
  0
LINE
  5
3A3
100
AcDbEntity
  8
94528901000_M_BL6
100
AcDbLine
 62
7
  6
CONTINUOUS
 10
102.3838255646
 20
243.4802770321
 11
103.2588255646
 21
241.9647325755
  0
LINE
  5
3A4
100
AcDbEntity
  8
94528901000_M_BL6
100
AcDbLine
 62
7
  6
CONTINUOUS
 10
105.8838255646
 20
243.4802770321
 11
105.0088255646
 21
244.9958214887
  0
LINE
  5
3A5
100
AcDbEntity
  8
94528901000_M_BL6
100
AcDbLine
 62
7
  6
CONTINUOUS
 10
103.2588255646
 20
241.9647325755
 11
105.0088255646
 21
241.9647325755
  0
LINE
  5
3A6
100
AcDbEntity
  8
94528901000_M_BL6
100
AcDbLine
 62
7
  6
CONTINUOUS
 10
105.0088255646
 20
244.9958214887
 11
103.2588255646
 21
244.9958214887
  0
CIRCLE
  5
3A7
100
AcDbEntity
  8
94528901000_M_BL6
100
AcDbCircle
 62
7
  6
CONTINUOUS
 10
104.1338255646
 20
241.9802770321
 40
5.5
  0
CIRCLE
  5
3A8
100
AcDbEntity
  8
94528901000_M_BL6
100
AcDbCircle
 62
7
  6
CONTINUOUS
 10
104.1338255646
 20
243.4802770321
 40
1.75
  0
CIRCLE
  5
3A9
100
AcDbEntity
  8
94528901000_M_BL6
100
AcDbCircle
 62
7
  6
CONTINUOUS
 10
104.1338255646
 20
243.4802770321
 40
1.515
  0
CIRCLE
  5
3AA
100
AcDbEntity
  8
94528901000_M_BL6
100
AcDbCircle
 62
7
  6
CONTINUOUS
 10
104.1338255646
 20
239.4802770321
 40
0.75
  0
ARC
  5
3AB
100
AcDbEntity
  8
94528901000_M_BL6
100
AcDbCircle
 62
7
  6
CONTINUOUS
 10
27.2902037783
 20
243.4802770321
 40
4.0
100
AcDbArc
 50
311.4096221093
 51
48.5903778907
  0
ARC
  5
3AC
100
AcDbEntity
  8
94528901000_M_BL6
100
AcDbCircle
 62
7
  6
CONTINUOUS
 10
27.2902037783
 20
97.2220730704
 40
4.0
100
AcDbArc
 50
311.4096221093
 51
48.5903778907
  0
ENDBLK
  5
3AD
100
AcDbEntity
  8
0
  6
BYBLOCK
 62
0
100
AcDbBlockEnd
  0
BLOCK
  5
3AE
100
AcDbEntity
  8
SUWN07008_C1_2_S_DR18_BL7
100
AcDbBlockBegin
  2
SUWN07008_C1_2_S_DR18_BL7
 70
64
 10
26.6359550894
 20
163.8802770321
  3
SUWN07008_C1_2_S_DR18_BL7
  1

  0
LINE
  5
3AF
100
AcDbEntity
  8
SUWN07008_C1_2_S_DR18_BL7
100
AcDbLine
 62
7
  6
CENTER
 10
33.6359550894
 20
163.8802770321
 11
19.6359550894
 21
163.8802770321
  0
ENDBLK
  5
3B0
100
AcDbEntity
  8
0
  6
BYBLOCK
 62
0
100
AcDbBlockEnd
  0
BLOCK
  5
3B1
100
AcDbEntity
  8
91511100000_BL8
100
AcDbBlockBegin
  2
91511100000_BL8
 70
64
 10
29.3359550894
 20
180.2802770321
  3
91511100000_BL8
  1

  0
LINE
  5
3B2
100
AcDbEntity
  8
91511100000_BL8
100
AcDbLine
 62
7
  6
CONTINUOUS
 10
29.9359550894
 20
176.2802770321
 11
28.7359550894
 21
176.2802770321
  0
LINE
  5
3B3
100
AcDbEntity
  8
91511100000_BL8
100
AcDbLine
 62
7
  6
CONTINUOUS
 10
29.9359550894
 20
184.2802770321
 11
28.7359550894
 21
184.2802770321
  0
LINE
  5
3B4
100
AcDbEntity
  8
91511100000_BL8
100
AcDbLine
 62
7
  6
CONTINUOUS
 10
29.9359550894
 20
176.2802770321
 11
29.9359550894
 21
184.2802770321
  0
ENDBLK
  5
3B5
100
AcDbEntity
  8
0
  6
BYBLOCK
 62
0
100
AcDbBlockEnd
  0
BLOCK
  5
3B6
100
AcDbEntity
  8
91511100000_BL9
100
AcDbBlockBegin
  2
91511100000_BL9
 70
64
 10
29.3359550894
 20
170.3511750512
  3
91511100000_BL9
  1

  0
LINE
  5
3B7
100
AcDbEntity
  8
91511100000_BL9
100
AcDbLine
 62
7
  6
CONTINUOUS
 10
29.9359550894
 20
239.4802770321
 11
29.9359550894
 21
247.4802770321
  0
LINE
  5
3B8
100
AcDbEntity
  8
91511100000_BL9
100
AcDbLine
 62
7
  6
CONTINUOUS
 10
29.9359550894
 20
239.4802770321
 11
28.7359550894
 21
239.4802770321
  0
LINE
  5
3B9
100
AcDbEntity
  8
91511100000_BL9
100
AcDbLine
 62
7
  6
CONTINUOUS
 10
29.9359550894
 20
247.4802770321
 11
28.7359550894
 21
247.4802770321
  0
LINE
  5
3BA
100
AcDbEntity
  8
91511100000_BL9
100
AcDbLine
 62
7
  6
CONTINUOUS
 10
29.9359550894
 20
93.2220730704
 11
28.7359550894
 21
93.2220730704
  0
LINE
  5
3BB
100
AcDbEntity
  8
91511100000_BL9
100
AcDbLine
 62
7
  6
CONTINUOUS
 10
29.9359550894
 20
93.2220730704
 11
29.9359550894
 21
101.2220730704
  0
LINE
  5
3BC
100
AcDbEntity
  8
91511100000_BL9
100
AcDbLine
 62
7
  6
CONTINUOUS
 10
29.9359550894
 20
101.2220730704
 11
28.7359550894
 21
101.2220730704
  0
ENDBLK
  5
3BD
100
AcDbEntity
  8
0
  6
BYBLOCK
 62
0
100
AcDbBlockEnd
  0
BLOCK
  5
3BE
100
AcDbEntity
  8
SUWN07008_C1_2_S_DR16_BL10
100
AcDbBlockBegin
  2
SUWN07008_C1_2_S_DR16_BL10
 70
64
 10
26.6359550894
 20
259.8802770321
  3
SUWN07008_C1_2_S_DR16_BL10
  1

  0
LINE
  5
3BF
100
AcDbEntity
  8
SUWN07008_C1_2_S_DR16_BL10
100
AcDbLine
 62
7
  6
CENTER
 10
33.6359550894
 20
259.8802770321
 11
19.6359550894
 21
259.8802770321
  0
ENDBLK
  5
3C0
100
AcDbEntity
  8
0
  6
BYBLOCK
 62
0
100
AcDbBlockEnd
  0
BLOCK
  5
3C1
100
AcDbEntity
  8
0
100
AcDbBlockBegin
  2
_FILLED
 70
64
 10
0.0
 20
0.0
  3
_FILLED
  1

  0
SOLID
  5
3C2
100
AcDbEntity
  8
0
  6
BYBLOCK
 62
0
100
AcDbTrace
 10
0.0
 20
0.0
 11
-1.0
 21
0.1428571429
 12
-1.0
 22
-0.1428571429
 13
-1.0
 23
-0.1428571429
  0
ENDBLK
  5
3C3
100
AcDbEntity
  8
0
  6
BYBLOCK
 62
0
100
AcDbBlockEnd
  0
BLOCK
  5
3C4
100
AcDbEntity
  8
0
100
AcDbBlockBegin
  2
XSEC_FILLED
 70
64
 10
0.0
 20
0.0
  3
XSEC_FILLED
  1

  0
SOLID
  5
3C5
100
AcDbEntity
  8
0
  6
BYBLOCK
 62
0
100
AcDbTrace
 10
0.0
 20
0.0
 11
-1.0
 21
0.1875
 12
-1.0
 22
-0.1875
 13
-1.0
 23
-0.1875
  0
ENDBLK
  5
3C6
100
AcDbEntity
  8
0
  6
BYBLOCK
 62
0
100
AcDbBlockEnd
  0
BLOCK
  5
3C7
100
AcDbEntity
  8
0
100
AcDbBlockBegin
 62
2
  6
CONTINUOUS
  2
*D0
 70
65
 10
0.0
 20
0.0
  3
*D0
  1

  0
TEXT
  5
3C8
100
AcDbEntity
  8
0
100
AcDbText
 62
5
  6
CONTINUOUS
 10
52.0109550894
 20
209.93789785
  7
STANDARD
 40
2.5
  1
74
 50
90.0
 72
5
 11
52.0109550894
 21
213.8226562143
100
AcDbText
  0
LINE
  5
3C9
100
AcDbEntity
  8
0
100
AcDbLine
 62
2
  6
CONTINUOUS
 10
28.6797113672
 20
248.8802770321
 11
53.6359550894
 21
248.8802770321
  0
LINE
  5
3CA
100
AcDbEntity
  8
0
100
AcDbLine
 62
2
  6
CONTINUOUS
 10
28.719918702
 20
174.8802770321
 11
53.6359550894
 21
174.8802770321
  0
LINE
  5
3CB
100
AcDbEntity
  8
0
100
AcDbLine
 62
2
  6
CONTINUOUS
 10
52.6359550894
 20
248.8802770321
 11
52.6359550894
 21
211.8802770321
  0
LINE
  5
3CC
100
AcDbEntity
  8
0
100
AcDbLine
 62
2
  6
CONTINUOUS
 10
52.6359550894
 20
174.8802770321
 11
52.6359550894
 21
211.8802770321
  0
INSERT
  5
3CD
100
AcDbEntity
  8
0
100
AcDbBlockReference
 62
2
  6
CONTINUOUS
  2
_FILLED
 10
52.6359550894
 20
248.8802770321
 41
3.5
 42
3.5
 43
3.5
 50
90.0
  0
INSERT
  5
3CE
100
AcDbEntity
  8
0
100
AcDbBlockReference
 62
2
  6
CONTINUOUS
  2
_FILLED
 10
52.6359550894
 20
174.8802770321
 41
3.5
 42
3.5
 43
3.5
 50
270.0
  0
ENDBLK
  5
3CF
100
AcDbEntity
  8
0
  6
BYBLOCK
 62
0
100
AcDbBlockEnd
  0
BLOCK
  5
3D0
100
AcDbEntity
  8
0
100
AcDbBlockBegin
 62
2
  6
CONTINUOUS
  2
*D1
 70
65
 10
0.0
 20
0.0
  3
*D1
  1

  0
TEXT
  5
3D1
100
AcDbEntity
  8
0
100
AcDbText
 62
5
  6
CONTINUOUS
 10
30.6935759072
 20
134.5052770321
  7
STANDARD
 40
2.5
  1
20
 72
5
 11
34.5783342716
 21
134.5052770321
100
AcDbText
  0
LINE
  5
3D2
100
AcDbEntity
  8
0
100
AcDbLine
 62
2
  6
CONTINUOUS
 10
42.6359550894
 20
194.3679038353
 11
42.6359550894
 21
132.8802770321
  0
LINE
  5
3D3
100
AcDbEntity
  8
0
100
AcDbLine
 62
2
  6
CONTINUOUS
 10
22.6359550894
 20
151.8802770321
 11
22.6359550894
 21
132.8802770321
  0
LINE
  5
3D4
100
AcDbEntity
  8
0
100
AcDbLine
 62
2
  6
CONTINUOUS
 10
42.6359550894
 20
133.8802770321
 11
32.6359550894
 21
133.8802770321
  0
LINE
  5
3D5
100
AcDbEntity
  8
0
100
AcDbLine
 62
2
  6
CONTINUOUS
 10
22.6359550894
 20
133.8802770321
 11
32.6359550894
 21
133.8802770321
  0
INSERT
  5
3D6
100
AcDbEntity
  8
0
100
AcDbBlockReference
 62
2
  6
CONTINUOUS
  2
_FILLED
 10
42.6359550894
 20
133.8802770321
 41
3.5
 42
3.5
 43
3.5
  0
INSERT
  5
3D7
100
AcDbEntity
  8
0
100
AcDbBlockReference
 62
2
  6
CONTINUOUS
  2
_FILLED
 10
22.6359550894
 20
133.8802770321
 41
3.5
 42
3.5
 43
3.5
 50
180.0
  0
ENDBLK
  5
3D8
100
AcDbEntity
  8
0
  6
BYBLOCK
 62
0
100
AcDbBlockEnd
  0
BLOCK
  5
3D9
100
AcDbEntity
  8
0
100
AcDbBlockBegin
 62
2
  6
CONTINUOUS
  2
*D2
 70
65
 10
0.0
 20
0.0
  3
*D2
  1

  0
TEXT
  5
3DA
100
AcDbEntity
  8
0
100
AcDbText
 62
5
  6
CONTINUOUS
 10
24.6647654983
 20
290.5052770321
  7
STANDARD
 40
2.5
  1
6
 72
5
 11
26.6071446805
 21
290.5052770321
100
AcDbText
  0
LINE
  5
3DB
100
AcDbEntity
  8
0
100
AcDbLine
 62
2
  6
CONTINUOUS
 10
22.6359550894
 20
271.8802770321
 11
22.6359550894
 21
290.8802770321
  0
LINE
  5
3DC
100
AcDbEntity
  8
0
100
AcDbLine
 62
2
  6
CONTINUOUS
 10
28.6359550894
 20
271.8802770321
 11
28.6359550894
 21
290.8802770321
  0
LINE
  5
3DD
100
AcDbEntity
  8
0
100
AcDbLine
 62
2
  6
CONTINUOUS
 10
22.6359550894
 20
289.8802770321
 11
15.6359550894
 21
289.8802770321
  0
LINE
  5
3DE
100
AcDbEntity
  8
0
100
AcDbLine
 62
2
  6
CONTINUOUS
 10
15.6359550894
 20
289.8802770321
 11
25.6359550894
 21
289.8802770321
  0
LINE
  5
3DF
100
AcDbEntity
  8
0
100
AcDbLine
 62
2
  6
CONTINUOUS
 10
28.6359550894
 20
289.8802770321
 11
35.6359550894
 21
289.8802770321
  0
LINE
  5
3E0
100
AcDbEntity
  8
0
100
AcDbLine
 62
2
  6
CONTINUOUS
 10
35.6359550894
 20
289.8802770321
 11
25.6359550894
 21
289.8802770321
  0
INSERT
  5
3E1
100
AcDbEntity
  8
0
100
AcDbBlockReference
 62
2
  6
CONTINUOUS
  2
_FILLED
 10
22.6359550894
 20
289.8802770321
 41
3.5
 42
3.5
 43
3.5
  0
INSERT
  5
3E2
100
AcDbEntity
  8
0
100
AcDbBlockReference
 62
2
  6
CONTINUOUS
  2
_FILLED
 10
28.6359550894
 20
289.8802770321
 41
3.5
 42
3.5
 43
3.5
 50
180.0
  0
ENDBLK
  5
3E3
100
AcDbEntity
  8
0
  6
BYBLOCK
 62
0
100
AcDbBlockEnd
  0
BLOCK
  5
3E4
100
AcDbEntity
  8
0
100
AcDbBlockBegin
 62
2
  6
CONTINUOUS
  2
*D3
 70
65
 10
0.0
 20
0.0
  3
*D3
  1

  0
TEXT
  5
3E5
100
AcDbEntity
  8
0
100
AcDbText
 62
5
  6
CONTINUOUS
 10
102.1914463824
 20
290.5052770321
  7
STANDARD
 40
2.5
  1
24
 72
5
 11
106.0762047467
 21
290.5052770321
100
AcDbText
  0
LINE
  5
3E6
100
AcDbEntity
  8
0
100
AcDbLine
 62
2
  6
CONTINUOUS
 10
92.1338255646
 20
271.8802770321
 11
92.1338255646
 21
290.8802770321
  0
LINE
  5
3E7
100
AcDbEntity
  8
0
100
AcDbLine
 62
2
  6
CONTINUOUS
 10
116.1338255646
 20
271.8802770321
 11
116.1338255646
 21
290.8802770321
  0
LINE
  5
3E8
100
AcDbEntity
  8
0
100
AcDbLine
 62
2
  6
CONTINUOUS
 10
92.1338255646
 20
289.8802770321
 11
104.1338255646
 21
289.8802770321
  0
LINE
  5
3E9
100
AcDbEntity
  8
0
100
AcDbLine
 62
2
  6
CONTINUOUS
 10
116.1338255646
 20
289.8802770321
 11
104.1338255646
 21
289.8802770321
  0
INSERT
  5
3EA
100
AcDbEntity
  8
0
100
AcDbBlockReference
 62
2
  6
CONTINUOUS
  2
_FILLED
 10
92.1338255646
 20
289.8802770321
 41
3.5
 42
3.5
 43
3.5
 50
180.0
  0
INSERT
  5
3EB
100
AcDbEntity
  8
0
100
AcDbBlockReference
 62
2
  6
CONTINUOUS
  2
_FILLED
 10
116.1338255646
 20
289.8802770321
 41
3.5
 42
3.5
 43
3.5
  0
ENDBLK
  5
3EC
100
AcDbEntity
  8
0
  6
BYBLOCK
 62
0
100
AcDbBlockEnd
  0
BLOCK
  5
3ED
100
AcDbEntity
  8
0
100
AcDbBlockBegin
 62
2
  6
CONTINUOUS
  2
*D4
 70
65
 10
0.0
 20
0.0
  3
*D4
  1

  0
TEXT
  5
3EE
100
AcDbEntity
  8
0
100
AcDbText
 62
5
  6
CONTINUOUS
 10
81.5088255646
 20
208.9667082589
  7
STANDARD
 40
2.5
  1
120
 50
90.0
 72
5
 11
81.5088255646
 21
214.7938458054
100
AcDbText
  0
LINE
  5
3EF
100
AcDbEntity
  8
0
100
AcDbLine
 62
2
  6
CONTINUOUS
 10
95.1338255646
 20
271.8802770321
 11
81.1338255646
 21
271.8802770321
  0
LINE
  5
3F0
100
AcDbEntity
  8
0
100
AcDbLine
 62
2
  6
CONTINUOUS
 10
95.1338255646
 20
151.8802770321
 11
81.1338255646
 21
151.8802770321
  0
LINE
  5
3F1
100
AcDbEntity
  8
0
100
AcDbLine
 62
2
  6
CONTINUOUS
 10
82.1338255646
 20
271.8802770321
 11
82.1338255646
 21
211.8802770321
  0
LINE
  5
3F2
100
AcDbEntity
  8
0
100
AcDbLine
 62
2
  6
CONTINUOUS
 10
82.1338255646
 20
151.8802770321
 11
82.1338255646
 21
211.8802770321
  0
INSERT
  5
3F3
100
AcDbEntity
  8
0
100
AcDbBlockReference
 62
2
  6
CONTINUOUS
  2
_FILLED
 10
82.1338255646
 20
271.8802770321
 41
3.5
 42
3.5
 43
3.5
 50
90.0
  0
INSERT
  5
3F4
100
AcDbEntity
  8
0
100
AcDbBlockReference
 62
2
  6
CONTINUOUS
  2
_FILLED
 10
82.1338255646
 20
151.8802770321
 41
3.5
 42
3.5
 43
3.5
 50
270.0
  0
ENDBLK
  5
3F5
100
AcDbEntity
  8
0
  6
BYBLOCK
 62
0
100
AcDbBlockEnd
  0
BLOCK
  5
3F6
100
AcDbEntity
  8
0
100
AcDbBlockBegin
 62
2
  6
CONTINUOUS
  2
*D5
 70
65
 10
0.0
 20
0.0
  3
*D5
  1

  0
TEXT
  5
3F7
100
AcDbEntity
  8
0
100
AcDbText
 62
5
  6
CONTINUOUS
 10
125.5088255646
 20
209.93789785
  7
STANDARD
 40
2.5
  1
96
 50
90.0
 72
5
 11
125.5088255646
 21
213.8226562143
100
AcDbText
  0
LINE
  5
3F8
100
AcDbEntity
  8
0
100
AcDbLine
 62
2
  6
CONTINUOUS
 10
113.1338255646
 20
259.8802770321
 11
127.1338255646
 21
259.8802770321
  0
LINE
  5
3F9
100
AcDbEntity
  8
0
100
AcDbLine
 62
2
  6
CONTINUOUS
 10
113.1338255646
 20
163.8802770321
 11
127.1338255646
 21
163.8802770321
  0
LINE
  5
3FA
100
AcDbEntity
  8
0
100
AcDbLine
 62
2
  6
CONTINUOUS
 10
126.1338255646
 20
259.8802770321
 11
126.1338255646
 21
211.8802770321
  0
LINE
  5
3FB
100
AcDbEntity
  8
0
100
AcDbLine
 62
2
  6
CONTINUOUS
 10
126.1338255646
 20
163.8802770321
 11
126.1338255646
 21
211.8802770321
  0
INSERT
  5
3FC
100
AcDbEntity
  8
0
100
AcDbBlockReference
 62
2
  6
CONTINUOUS
  2
_FILLED
 10
126.1338255646
 20
259.8802770321
 41
3.5
 42
3.5
 43
3.5
 50
90.0
  0
INSERT
  5
3FD
100
AcDbEntity
  8
0
100
AcDbBlockReference
 62
2
  6
CONTINUOUS
  2
_FILLED
 10
126.1338255646
 20
163.8802770321
 41
3.5
 42
3.5
 43
3.5
 50
270.0
  0
ENDBLK
  5
3FE
100
AcDbEntity
  8
0
  6
BYBLOCK
 62
0
100
AcDbBlockEnd
  0
BLOCK
  5
3FF
100
AcDbEntity
  8
0
100
AcDbBlockBegin
 62
2
  6
CONTINUOUS
  2
*D6
 70
65
 10
0.0
 20
0.0
  3
*D6
  1

  0
TEXT
  5
400
100
AcDbEntity
  8
0
100
AcDbText
 62
5
  6
CONTINUOUS
 10
59.0109550894
 20
95.2796938882
  7
STANDARD
 40
2.5
  1
17
 50
90.0
 72
5
 11
59.0109550894
 21
99.1644522525
100
AcDbText
  0
LINE
  5
401
100
AcDbEntity
  8
0
100
AcDbLine
 62
2
  6
CONTINUOUS
 10
27.4359550894
 20
88.7220730704
 11
60.6359550894
 21
88.7220730704
  0
LINE
  5
402
100
AcDbEntity
  8
0
100
AcDbLine
 62
2
  6
CONTINUOUS
 10
27.4359550894
 20
105.7220730704
 11
51.1151289433
 21
105.7220730704
  0
LINE
  5
403
100
AcDbEntity
  8
0
100
AcDbLine
 62
2
  6
CONTINUOUS
 10
53.9014889766
 20
105.7220730704
 11
60.6359550894
 21
105.7220730704
  0
LINE
  5
404
100
AcDbEntity
  8
0
100
AcDbLine
 62
2
  6
CONTINUOUS
 10
59.6359550894
 20
88.7220730704
 11
59.6359550894
 21
97.2220730704
  0
LINE
  5
405
100
AcDbEntity
  8
0
100
AcDbLine
 62
2
  6
CONTINUOUS
 10
59.6359550894
 20
105.7220730704
 11
59.6359550894
 21
97.2220730704
  0
INSERT
  5
406
100
AcDbEntity
  8
0
100
AcDbBlockReference
 62
2
  6
CONTINUOUS
  2
_FILLED
 10
59.6359550894
 20
88.7220730704
 41
3.5
 42
3.5
 43
3.5
 50
270.0
  0
INSERT
  5
407
100
AcDbEntity
  8
0
100
AcDbBlockReference
 62
2
  6
CONTINUOUS
  2
_FILLED
 10
59.6359550894
 20
105.7220730704
 41
3.5
 42
3.5
 43
3.5
 50
90.0
  0
ENDBLK
  5
408
100
AcDbEntity
  8
0
  6
BYBLOCK
 62
0
100
AcDbBlockEnd
  0
BLOCK
  5
409
100
AcDbEntity
  8
0
100
AcDbBlockBegin
 62
2
  6
CONTINUOUS
  2
*D7
 70
65
 10
0.0
 20
0.0
  3
*D7
  1

  0
TEXT
  5
40A
100
AcDbEntity
  8
0
100
AcDbText
 62
5
  6
CONTINUOUS
 10
74.5088255646
 20
208.9667082589
  7
STANDARD
 40
2.5
  1
136
 50
90.0
 72
5
 11
74.5088255646
 21
214.7938458054
100
AcDbText
  0
LINE
  5
40B
100
AcDbEntity
  8
0
100
AcDbLine
 62
2
  6
CONTINUOUS
 10
92.1338255646
 20
279.8802770321
 11
74.1338255646
 21
279.8802770321
  0
LINE
  5
40C
100
AcDbEntity
  8
0
100
AcDbLine
 62
2
  6
CONTINUOUS
 10
92.1338255646
 20
143.8802770321
 11
74.1338255646
 21
143.8802770321
  0
LINE
  5
40D
100
AcDbEntity
  8
0
100
AcDbLine
 62
2
  6
CONTINUOUS
 10
75.1338255646
 20
279.8802770321
 11
75.1338255646
 21
211.8802770321
  0
LINE
  5
40E
100
AcDbEntity
  8
0
100
AcDbLine
 62
2
  6
CONTINUOUS
 10
75.1338255646
 20
143.8802770321
 11
75.1338255646
 21
211.8802770321
  0
INSERT
  5
40F
100
AcDbEntity
  8
0
100
AcDbBlockReference
 62
2
  6
CONTINUOUS
  2
_FILLED
 10
75.1338255646
 20
279.8802770321
 41
3.5
 42
3.5
 43
3.5
 50
90.0
  0
INSERT
  5
410
100
AcDbEntity
  8
0
100
AcDbBlockReference
 62
2
  6
CONTINUOUS
  2
_FILLED
 10
75.1338255646
 20
143.8802770321
 41
3.5
 42
3.5
 43
3.5
 50
270.0
  0
ENDBLK
  5
411
100
AcDbEntity
  8
0
  6
BYBLOCK
 62
0
100
AcDbBlockEnd
  0
BLOCK
  5
412
100
AcDbEntity
  8
0
100
AcDbBlockBegin
 62
2
  6
CONTINUOUS
  2
*D8
 70
65
 10
0.0
 20
0.0
  3
*D8
  1

  0
TEXT
  5
413
100
AcDbEntity
  8
0
100
AcDbText
 62
5
  6
CONTINUOUS
 10
52.0109550894
 20
113.9734965689
  7
STANDARD
 40
2.5
  1
2
 50
90.0
 72
5
 11
52.0109550894
 21
115.9158757511
100
AcDbText
  0
LINE
  5
414
100
AcDbEntity
  8
0
100
AcDbLine
 62
2
  6
CONTINUOUS
 10
28.6359550894
 20
107.2220730704
 11
53.6359550894
 21
107.2220730704
  0
LINE
  5
415
100
AcDbEntity
  8
0
100
AcDbLine
 62
2
  6
CONTINUOUS
 10
28.6359550894
 20
109.2220730704
 11
53.6359550894
 21
109.2220730704
  0
LINE
  5
416
100
AcDbEntity
  8
0
100
AcDbLine
 62
2
  6
CONTINUOUS
 10
52.6359550894
 20
107.2220730704
 11
52.6359550894
 21
100.2220730704
  0
LINE
  5
417
100
AcDbEntity
  8
0
100
AcDbLine
 62
2
  6
CONTINUOUS
 10
52.6359550894
 20
100.2220730704
 11
52.6359550894
 21
108.2220730704
  0
LINE
  5
418
100
AcDbEntity
  8
0
100
AcDbLine
 62
2
  6
CONTINUOUS
 10
52.6359550894
 20
109.2220730704
 11
52.6359550894
 21
115.9158757511
  0
LINE
  5
419
100
AcDbEntity
  8
0
100
AcDbLine
 62
2
  6
CONTINUOUS
 10
52.6359550894
 20
115.9158757511
 11
52.6359550894
 21
108.2220730704
  0
INSERT
  5
41A
100
AcDbEntity
  8
0
100
AcDbBlockReference
 62
2
  6
CONTINUOUS
  2
_FILLED
 10
52.6359550894
 20
107.2220730704
 41
3.5
 42
3.5
 43
3.5
 50
90.0
  0
INSERT
  5
41B
100
AcDbEntity
  8
0
100
AcDbBlockReference
 62
2
  6
CONTINUOUS
  2
_FILLED
 10
52.6359550894
 20
109.2220730704
 41
3.5
 42
3.5
 43
3.5
 50
270.0
  0
ENDBLK
  5
41C
100
AcDbEntity
  8
0
  6
BYBLOCK
 62
0
100
AcDbBlockEnd
  0
ENDSEC
  0
SECTION
  2
ENTITIES
  0
DIMENSION
  5
41D
100
AcDbEntity
  8
0
100
AcDbDimension
 62
2
  6
CONTINUOUS
  2
*D0
 10
52.6359550894
 20
174.8802770321
 11
52.6359550894
 21
211.8828663717
 70
160
 71
2
 72
2
 41
0.9
 42
74.0
  3
DIMSTYLE_1
100
AcDbAlignedDimension
 13
28.6797113672
 23
248.8802770321
 14
28.719918702
 24
174.8802770321
 50
270.0
100
AcDbRotatedDimension
  0
DIMENSION
  5
41E
100
AcDbEntity
  8
0
100
AcDbDimension
 62
2
  6
CONTINUOUS
  2
*D1
 10
22.6359550894
 20
133.8802770321
 11
32.606015842
 21
133.8802770321
 70
160
 71
2
 72
2
 41
0.9
 42
20.0
  3
DIMSTYLE_2
100
AcDbAlignedDimension
 13
42.6359550894
 23
194.3679038353
 14
22.6359550894
 24
151.8802770321
 50
180.0
100
AcDbRotatedDimension
  0
DIMENSION
  5
41F
100
AcDbEntity
  8
0
100
AcDbDimension
 62
2
  6
CONTINUOUS
  2
*D2
 10
28.6359550894
 20
289.8802770321
 11
25.622015191
 21
289.8802770321
 70
160
 71
2
 72
2
 41
0.9
 42
6.0
  3
DIMSTYLE_3
100
AcDbAlignedDimension
 13
22.6359550894
 23
271.8802770321
 14
28.6359550894
 24
271.8802770321
100
AcDbRotatedDimension
  0
DIMENSION
  5
420
100
AcDbEntity
  8
0
100
AcDbDimension
 62
2
  6
CONTINUOUS
  2
*D3
 10
116.1338255646
 20
289.8802770321
 11
104.1038945312
 21
289.8802770321
 70
160
 71
2
 72
2
 41
0.9
 42
24.0
  3
DIMSTYLE_2
100
AcDbAlignedDimension
 13
92.1338255646
 23
271.8802770321
 14
116.1338255646
 24
271.8802770321
100
AcDbRotatedDimension
  0
DIMENSION
  5
421
100
AcDbEntity
  8
0
100
AcDbDimension
 62
2
  6
CONTINUOUS
  2
*D4
 10
82.1338255646
 20
151.8802770321
 11
82.1338255646
 21
211.9876886839
 70
160
 71
2
 72
2
 41
0.9
 42
120.0
  3
DIMSTYLE_1
100
AcDbAlignedDimension
 13
95.1338255646
 23
271.8802770321
 14
95.1338255646
 24
151.8802770321
 50
270.0
100
AcDbRotatedDimension
  0
DIMENSION
  5
422
100
AcDbEntity
  8
0
100
AcDbDimension
 62
2
  6
CONTINUOUS
  2
*D5
 10
126.1338255646
 20
163.8802770321
 11
126.1338255646
 21
211.8735701152
 70
160
 71
2
 72
2
 41
0.9
 42
96.0
  3
DIMSTYLE_1
100
AcDbAlignedDimension
 13
113.1338255646
 23
259.8802770321
 14
113.1338255646
 24
163.8802770321
 50
270.0
100
AcDbRotatedDimension
  0
DIMENSION
  5
423
100
AcDbEntity
  8
0
100
AcDbDimension
 62
2
  6
CONTINUOUS
  2
*D6
 10
59.6359550894
 20
105.7220730704
 11
59.6359550894
 21
97.3315363249
 70
160
 71
2
 72
2
 41
0.9
 42
17.0
  3
DIMSTYLE_2
100
AcDbAlignedDimension
 13
27.4359550894
 23
88.7220730704
 14
27.4359550894
 24
105.7220730704
 50
90.0
100
AcDbRotatedDimension
  0
DIMENSION
  5
424
100
AcDbEntity
  8
0
100
AcDbDimension
 62
2
  6
CONTINUOUS
  2
*D7
 10
75.1338255646
 20
143.8802770321
 11
75.1338255646
 21
211.9876886839
 70
160
 71
2
 72
2
 41
0.9
 42
136.0
  3
DIMSTYLE_4
100
AcDbAlignedDimension
 13
92.1338255646
 23
279.8802770321
 14
92.1338255646
 24
143.8802770321
 50
270.0
100
AcDbRotatedDimension
  0
DIMENSION
  5
425
100
AcDbEntity
  8
0
100
AcDbDimension
 62
2
  6
CONTINUOUS
  2
*D8
 10
52.6359550894
 20
109.2220730704
 11
52.6359550894
 21
114.902861792
 70
160
 71
1
 72
2
 41
0.9
 42
2.0
  3
DIMSTYLE_3
100
AcDbAlignedDimension
 13
28.6359550894
 23
107.2220730704
 14
28.6359550894
 24
109.2220730704
 50
90.0
100
AcDbRotatedDimension
  0
TEXT
  5
426
100
AcDbEntity
  8
0
100
AcDbText
 62
5
  6
CONTINUOUS
 10
26.7100995979
 20
75.8232307679
  7
STANDARD
 40
5.0
  1
A-A
 72
5
 11
38.3271999697
 21
75.8232307679
100
AcDbText
  0
INSERT
  5
427
100
AcDbEntity
  8
0
100
AcDbBlockReference
 62
2
  6
CONTINUOUS
  2
SCHRIFTKOPF_PRODUKTABBI_BL11
 10
31.0000000239
 20
34.9999999785
  0
LINE
  5
428
100
AcDbEntity
  8
S-AXIS
100
AcDbLine
 62
7
  6
CENTER
 10
119.1338255646
 20
211.8802770321
 11
89.1338255646
 21
211.8802770321
  0
LINE
  5
429
100
AcDbEntity
  8
S-AXIS
100
AcDbLine
 62
7
  6
CENTER
 10
45.6359550894
 20
211.8802770321
 11
19.6359550894
 21
211.8802770321
  0
LINE
  5
42A
100
AcDbEntity
  8
S-AXIS
100
AcDbLine
 62
7
  6
CENTER
 10
45.6359550894
 20
97.2220730704
 11
19.6359550894
 21
97.2220730704
  0
INSERT
  5
42B
100
AcDbEntity
  8
HATCHING_BL0
100
AcDbBlockReference
  2
HATCHING_BL0
 10
25.6359550894
 20
259.6713195712
  0
INSERT
  5
42C
100
AcDbEntity
  8
93773508000_O_BL1
100
AcDbBlockReference
  2
93773508000_O_BL1
 10
69.384890327
 20
129.0511750512
  0
INSERT
  5
42D
100
AcDbEntity
  8
94826801000_BL2
100
AcDbBlockReference
  2
94826801000_BL2
 10
69.384890327
 20
178.5511750512
  0
INSERT
  5
42E
100
AcDbEntity
  8
94528901000_M_BL3
100
AcDbBlockReference
  2
94528901000_M_BL3
 10
69.784890327
 20
181.7802770321
  0
INSERT
  5
42F
100
AcDbEntity
  8
93773508000_O_BL4
100
AcDbBlockReference
  2
93773508000_O_BL4
 10
69.384890327
 20
265.3802770321
  0
INSERT
  5
430
100
AcDbEntity
  8
95056301000_BL5
100
AcDbBlockReference
  2
95056301000_BL5
 10
67.734890327
 20
169.1719182118
  0
INSERT
  5
431
100
AcDbEntity
  8
94528901000_M_BL6
100
AcDbBlockReference
  2
94528901000_M_BL6
 10
69.784890327
 20
170.8511750512
  0
INSERT
  5
432
100
AcDbEntity
  8
SUWN07008_C1_2_S_DR18_BL7
100
AcDbBlockReference
  2
SUWN07008_C1_2_S_DR18_BL7
 10
26.6359550894
 20
163.8802770321
  0
INSERT
  5
433
100
AcDbEntity
  8
91511100000_BL8
100
AcDbBlockReference
  2
91511100000_BL8
 10
29.3359550894
 20
180.2802770321
  0
INSERT
  5
434
100
AcDbEntity
  8
91511100000_BL9
100
AcDbBlockReference
  2
91511100000_BL9
 10
29.3359550894
 20
170.3511750512
  0
INSERT
  5
435
100
AcDbEntity
  8
SUWN07008_C1_2_S_DR16_BL10
100
AcDbBlockReference
  2
SUWN07008_C1_2_S_DR16_BL10
 10
26.6359550894
 20
259.8802770321
  0
ENDSEC
  0
SECTION
  2
OBJECTS
  0
DICTIONARY
  5
C
100
AcDbDictionary
280
0
281
1
  3
ACAD_GROUP
350
D
  3
ACAD_MLINESTYLE
350
17
  3
ACAD_LAYOUT
350
1A
  3
ACAD_PLOTSETTINGS
350
19
  3
ACAD_PLOTSTYLENAME
350
E
  0
DICTIONARY
  5
D
102
{ACAD_REACTORS
330
C
102
}
100
AcDbDictionary
280
0
281
1
  0
ACDBDICTIONARYWDFLT
  5
E
102
{ACAD_REACTORS
330
C
102
}
100
AcDbDictionary
281
1
  3
Normal
350
F
100
AcDbDictionaryWithDefault
340
F
  0
DICTIONARY
  5
17
102
{ACAD_REACTORS
330
C
102
}
100
AcDbDictionary
280
0
281
1
  3
Standard
350
18
  0
DICTIONARY
  5
19
102
{ACAD_REACTORS
330
C
102
}
100
AcDbDictionary
281
1
  0
DICTIONARY
  5
1A
102
{ACAD_REACTORS
330
C
102
}
100
AcDbDictionary
281
1
  3
Model
350
436
  3
Layout1
350
437
  0
ACDBPLACEHOLDER
  5
F
102
{ACAD_REACTORS
330
E
102
}
  0
MLINESTYLE
  5
18
102
{ACAD_REACTORS
330
17
102
}
100
AcDbMlineStyle
  2
STANDARD
 70
0
  3

 62
256
 51
90.0
 52
90.0
 71
2
 49
0.5
 62
256
  6
BYLAYER
 49
-0.5
 62
256
  6
BYLAYER
  0
LAYOUT
  5
436
102
{ACAD_REACTORS
330
1A
102
}
100
AcDbPlotSettings
  1

  2
none_device
  4

  6

 40
0.0
 41
0.0
 42
0.0
 43
0.0
 44
134.874
 45
300.0
 46
0.0
 47
0.0
 48
0.0
 49
0.0
140
0.0
141
0.0
142
1.0
143
1.0
 70
1024
 72
1
 73
0
 74
0
  7

 75
0
147
1.0
148
0.0
149
0.0
100
AcDbLayout
  1
Model
 70
0
 71
0
 10
0.0
 20
0.0
 11
134.874
 21
300.0
 12
0.0
 22
0.0
 32
0.0
 14
0.0
 24
0.0
 34
0.0
 15
0.0
 25
0.0
 35
0.0
146
0.0
 13
0.0
 23
0.0
 33
0.0
 16
1.0
 26
0.0
 36
0.0
 17
0.0
 27
1.0
 37
0.0
 76
0
330
216
345
0
346
0
  0
LAYOUT
  5
437
102
{ACAD_REACTORS
330
1A
102
}
100
AcDbPlotSettings
  1

  2
none_device
  4

  6

 40
0.0
 41
0.0
 42
0.0
 43
0.0
 44
134.874
 45
300.0
 46
0.0
 47
0.0
 48
0.0
 49
0.0
140
0.0
141
0.0
142
1.0
143
1.0
 70
0
 72
1
 73
0
 74
0
  7

 75
0
147
1.0
148
0.0
149
0.0
100
AcDbLayout
  1
Layout1
 70
0
 71
1
 10
0.0
 20
0.0
 11
134.874
 21
300.0
 12
0.0
 22
0.0
 32
0.0
 14
0.0
 24
0.0
 34
0.0
 15
0.0
 25
0.0
 35
0.0
146
0.0
 13
0.0
 23
0.0
 33
0.0
 16
1.0
 26
0.0
 36
0.0
 17
0.0
 27
1.0
 37
0.0
 76
0
330
217
345
0
346
0
  0
ENDSEC
  0
EOF
