  0
SECTION
  2
HEADER
  9
$ACADVER
  1
AC1021
  9
$DWGCODEPAGE
  3
ANSI_1252
  9
$EXTMAX
 10
100.0
 20
250.0
 30
0.0
  9
$EXTMIN
 10
0.0
 20
0.0
 30
0.0
  9
$LIMMIN
 10
0.0
 20
0.0
  9
$LIMMAX
 10
100.0
 20
250.0
  9
$VIEWCTR
 10
50.0
 20
125.0
  9
$VIEWSIZE
 40
250.0
  9
$CLAYER
  8
0
  9
$LTSCALE
 40
16.2962962963
  9
$CELTYPE
  6
BYLAYER
  9
$DIMSCALE
 40
1.0
  9
$DIMASZ
 40
3.5
  9
$DIMEXO
 40
0.0
  9
$DIMDLI
 40
11.2592592593
  9
$DIMEXE
 40
1.0
  9
$DIMCEN
 40
2.6666666667
  9
$DIMLFAC
 40
1.0
  9
$DIMBLK
  1
_FILLED
  9
$DIMTXT
 40
2.5
  9
$DIMTOL
 70
1
  9
$DIMLIM
 70
0
  9
$DIMTFAC
 40
1.0
  9
$DIMTP
 40
0.001
  9
$DIMTM
 40
0.001
  9
$DIMGAP
 40
0.625
  9
$DIMDSEP
 70
46
  9
$PDMODE
 70
3
  9
$PDSIZE
 40
2.0
  9
$HANDSEED
  5
3D5
  9
$TILEMODE
 70
1
  9
$MEASUREMENT
 70
1
  9
$INSUNITS
 70
4
  0
ENDSEC
  0
SECTION
  2
CLASSES
  0
CLASS
  1
ACDBDICTIONARYWDFLT
  2
AcDbDictionaryWithDefault
  3
AutoCAD 2000
 90
0
 91
1
280
0
281
0
  0
CLASS
  1
ACDBPLACEHOLDER
  2
AcDbPlaceHolder
  3
AutoCAD 2000
 90
0
 91
1
280
0
281
0
  0
CLASS
  1
LAYOUT
  2
AcDbLayout
  3
AutoCAD 2000
 90
0
 91
0
280
0
281
0
  0
ENDSEC
  0
SECTION
  2
TABLES
  0
TABLE
  2
VPORT
  5
8
100
AcDbSymbolTable
 70
2
  0
VPORT
  5
1F4
100
AcDbSymbolTableRecord
100
AcDbViewportTableRecord
  2
*ACTIVE
 70
0
 10
0.0
 20
0.0
 11
1.0
 21
1.0
 12
50.0
 22
125.0
 13
0.0
 23
0.0
 14
1.0
 24
1.0
 15
0.0
 25
0.0
 16
0.0
 26
0.0
 36
1.0
 17
0.0
 27
0.0
 37
0.0
 40
250.0
 41
0.4
 42
50.0
 43
0.0
 44
0.0
 50
0.0
 51
0.0
 71
0
 72
100
 73
1
 74
1
 75
0
 76
0
 77
0
 78
0
  0
ENDTAB
  0
TABLE
  2
LTYPE
  5
5
100
AcDbSymbolTable
 70
6
  0
LTYPE
  5
14
100
AcDbSymbolTableRecord
100
AcDbLinetypeTableRecord
  2
BYBLOCK
 70
0
  3

 72
65
 73
0
 40
0.0
  0
LTYPE
  5
15
100
AcDbSymbolTableRecord
100
AcDbLinetypeTableRecord
  2
BYLAYER
 70
0
  3

 72
65
 73
0
 40
0.0
  0
LTYPE
  5
16
100
AcDbSymbolTableRecord
100
AcDbLinetypeTableRecord
  2
CONTINUOUS
 70
64
  3
Solid line
 72
65
 73
0
 40
0.0
  0
LTYPE
  5
1F5
100
AcDbSymbolTableRecord
100
AcDbLinetypeTableRecord
  2
CENTER
 70
64
  3
____ _ ____ _ ____ _ ____ _ ____ _ ____ _ ____
 72
65
 73
4
 40
0.6
 49
0.375
 74
0
 49
-0.075
 74
0
 49
0.075
 74
0
 49
-0.075
 74
0
  0
LTYPE
  5
1F6
100
AcDbSymbolTableRecord
100
AcDbLinetypeTableRecord
  2
HIDDEN
 70
64
  3
- - - - - - - - - - - - - - - - - - - -
 72
65
 73
2
 40
0.2
 49
0.1
 74
0
 49
-0.1
 74
0
  0
LTYPE
  5
1F7
100
AcDbSymbolTableRecord
100
AcDbLinetypeTableRecord
  2
PHANTOM
 70
64
  3
_____ _ _ _____ _ _ _____ _ _ _____
 72
65
 73
6
 40
0.8
 49
0.45
 74
0
 49
-0.05
 74
0
 49
0.1
 74
0
 49
-0.05
 74
0
 49
0.1
 74
0
 49
-0.05
 74
0
  0
LTYPE
  5
1F8
100
AcDbSymbolTableRecord
100
AcDbLinetypeTableRecord
  2
DOT
 70
64
  3
. . . . . . . . . . . . . . . . . . . .
 72
65
 73
2
 40
0.2
 49
0.1
 74
0
 49
-0.1
 74
0
  0
LTYPE
  5
1F9
100
AcDbSymbolTableRecord
100
AcDbLinetypeTableRecord
  2
DASHED
 70
64
  3
- - - - - - - - - - - - - - - - - - - -
 72
65
 73
2
 40
0.2
 49
0.1
 74
0
 49
-0.1
 74
0
  0
ENDTAB
  0
TABLE
  2
LAYER
  5
2
100
AcDbSymbolTable
 70
36
  0
LAYER
  5
10
100
AcDbSymbolTableRecord
100
AcDbLayerTableRecord
  2
0
 70
0
 62
7
  6
CONTINUOUS
370
-3
390
F
  0
LAYER
  5
1FA
100
AcDbSymbolTableRecord
100
AcDbLayerTableRecord
  2
DEFAULT_1
 70
0
 62
7
  6
CENTER
370
-3
390
F
  0
LAYER
  5
1FB
100
AcDbSymbolTableRecord
100
AcDbLayerTableRecord
  2
DEFAULT_2
 70
0
 62
8
  6
HIDDEN
370
-3
390
F
  0
LAYER
  5
1FC
100
AcDbSymbolTableRecord
100
AcDbLayerTableRecord
  2
DEFAULT_3
 70
0
 62
7
  6
PHANTOM
370
-3
390
F
  0
LAYER
  5
1FD
100
AcDbSymbolTableRecord
100
AcDbLayerTableRecord
  2
AXIS
 70
0
 62
7
  6
CONTINUOUS
370
-3
390
F
  0
LAYER
  5
1FE
100
AcDbSymbolTableRecord
100
AcDbLayerTableRecord
  2
COORDSYS
 70
0
 62
7
  6
CONTINUOUS
370
-3
390
F
  0
LAYER
  5
1FF
100
AcDbSymbolTableRecord
100
AcDbLayerTableRecord
  2
CURVES
 70
0
 62
7
  6
CONTINUOUS
370
-3
390
F
  0
LAYER
  5
200
100
AcDbSymbolTableRecord
100
AcDbLayerTableRecord
  2
EINBAUREFERENZ
 70
0
 62
7
  6
CONTINUOUS
370
-3
390
F
  0
LAYER
  5
201
100
AcDbSymbolTableRecord
100
AcDbLayerTableRecord
  2
PLANES
 70
0
 62
7
  6
CONTINUOUS
370
-3
390
F
  0
LAYER
  5
202
100
AcDbSymbolTableRecord
100
AcDbLayerTableRecord
  2
POINTS
 70
0
 62
7
  6
CONTINUOUS
370
-3
390
F
  0
LAYER
  5
203
100
AcDbSymbolTableRecord
100
AcDbLayerTableRecord
  2
PROFIL-EINBAULAGE
 70
0
 62
7
  6
CONTINUOUS
370
-3
390
F
  0
LAYER
  5
204
100
AcDbSymbolTableRecord
100
AcDbLayerTableRecord
  2
S-AXIS
 70
0
 62
7
  6
CONTINUOUS
370
-3
390
F
  0
LAYER
  5
205
100
AcDbSymbolTableRecord
100
AcDbLayerTableRecord
  2
S-COORDSYS
 70
0
 62
7
  6
CONTINUOUS
370
-3
390
F
  0
LAYER
  5
206
100
AcDbSymbolTableRecord
100
AcDbLayerTableRecord
  2
S-PLANES
 70
0
 62
7
  6
CONTINUOUS
370
-3
390
F
  0
LAYER
  5
207
100
AcDbSymbolTableRecord
100
AcDbLayerTableRecord
  2
THREADS
 70
0
 62
7
  6
CONTINUOUS
370
-3
390
F
  0
LAYER
  5
208
100
AcDbSymbolTableRecord
100
AcDbLayerTableRecord
  2
94799901000_BL0
 70
0
 62
7
  6
CONTINUOUS
370
-3
390
F
  0
LAYER
  5
209
100
AcDbSymbolTableRecord
100
AcDbLayerTableRecord
  2
94528902000_M_BL1
 70
0
 62
7
  6
CONTINUOUS
370
-3
390
F
  0
LAYER
  5
20A
100
AcDbSymbolTableRecord
100
AcDbLayerTableRecord
  2
95056301000_BL2
 70
0
 62
7
  6
CONTINUOUS
370
-3
390
F
  0
LAYER
  5
20B
100
AcDbSymbolTableRecord
100
AcDbLayerTableRecord
  2
94528902000_M_BL3
 70
0
 62
7
  6
CONTINUOUS
370
-3
390
F
  0
LAYER
  5
20C
100
AcDbSymbolTableRecord
100
AcDbLayerTableRecord
  2
91511100000_BL4
 70
0
 62
7
  6
CONTINUOUS
370
-3
390
F
  0
LAYER
  5
20D
100
AcDbSymbolTableRecord
100
AcDbLayerTableRecord
  2
91511100000_BL5
 70
0
 62
7
  6
CONTINUOUS
370
-3
390
F
  0
ENDTAB
  0
TABLE
  2
STYLE
  5
3
100
AcDbSymbolTable
 70
1
  0
STYLE
  5
11
100
AcDbSymbolTableRecord
100
AcDbTextStyleTableRecord
  2
STANDARD
 70
0
 40
0.0
 41
1.0
 50
0.0
 71
0
 42
0.2
  3
arial.ttf
  4

  0
STYLE
  5
20E
100
AcDbSymbolTableRecord
100
AcDbTextStyleTableRecord
  2
TEXTSTYLE_1
 70
0
 40
0.0
 41
0.8
 50
0.0
 71
0
 42
0.2
  3
gdt
  4

  0
STYLE
  5
20F
100
AcDbSymbolTableRecord
100
AcDbTextStyleTableRecord
  2
TEXTSTYLE_2
 70
0
 40
0.0
 41
1.0
 50
0.0
 71
0
 42
0.2
  3
arialbd.ttf
  4

  0
ENDTAB
  0
TABLE
  2
VIEW
  5
6
100
AcDbSymbolTable
 70
0
  0
ENDTAB
  0
TABLE
  2
UCS
  5
7
100
AcDbSymbolTable
 70
0
  0
ENDTAB
  0
TABLE
  2
APPID
  5
9
100
AcDbSymbolTable
 70
1
  0
APPID
  5
210
100
AcDbSymbolTableRecord
100
AcDbRegAppTableRecord
  2
ACAD
 70
0
  0
ENDTAB
  0
TABLE
  2
BLOCK_RECORD
  5
1
100
AcDbSymbolTable
 70
0
  0
BLOCK_RECORD
  5
211
100
AcDbSymbolTableRecord
100
AcDbBlockTableRecord
  2
*Model_Space
  0
BLOCK_RECORD
  5
212
100
AcDbSymbolTableRecord
100
AcDbBlockTableRecord
  2
*Paper_Space
  0
BLOCK_RECORD
  5
213
100
AcDbSymbolTableRecord
100
AcDbBlockTableRecord
  2
_FILLED
  0
BLOCK_RECORD
  5
214
100
AcDbSymbolTableRecord
100
AcDbBlockTableRecord
  2
*D0
  0
BLOCK_RECORD
  5
215
100
AcDbSymbolTableRecord
100
AcDbBlockTableRecord
  2
*D1
  0
BLOCK_RECORD
  5
216
100
AcDbSymbolTableRecord
100
AcDbBlockTableRecord
  2
*D2
  0
BLOCK_RECORD
  5
217
100
AcDbSymbolTableRecord
100
AcDbBlockTableRecord
  2
*D3
  0
BLOCK_RECORD
  5
218
100
AcDbSymbolTableRecord
100
AcDbBlockTableRecord
  2
*D4
  0
BLOCK_RECORD
  5
219
100
AcDbSymbolTableRecord
100
AcDbBlockTableRecord
  2
*D5
  0
BLOCK_RECORD
  5
21A
100
AcDbSymbolTableRecord
100
AcDbBlockTableRecord
  2
*D6
  0
BLOCK_RECORD
  5
21B
100
AcDbSymbolTableRecord
100
AcDbBlockTableRecord
  2
SYMBOL_0_BL6
  0
BLOCK_RECORD
  5
21C
100
AcDbSymbolTableRecord
100
AcDbBlockTableRecord
  2
94799901000_BL0
  0
BLOCK_RECORD
  5
21D
100
AcDbSymbolTableRecord
100
AcDbBlockTableRecord
  2
94528902000_M_BL1
  0
BLOCK_RECORD
  5
21E
100
AcDbSymbolTableRecord
100
AcDbBlockTableRecord
  2
95056301000_BL2
  0
BLOCK_RECORD
  5
21F
100
AcDbSymbolTableRecord
100
AcDbBlockTableRecord
  2
94528902000_M_BL3
  0
BLOCK_RECORD
  5
220
100
AcDbSymbolTableRecord
100
AcDbBlockTableRecord
  2
91511100000_BL4
  0
BLOCK_RECORD
  5
221
100
AcDbSymbolTableRecord
100
AcDbBlockTableRecord
  2
91511100000_BL5
  0
ENDTAB
  0
TABLE
  2
DIMSTYLE
  5
A
100
AcDbSymbolTable
 70
1
100
AcDbDimStyleTable
 71
0
  0
DIMSTYLE
105
222
100
AcDbSymbolTableRecord
100
AcDbDimStyleTableRecord
  2
STANDARD
 70
0
  3

  4

 40
1.0
 41
3.5
 42
0.0
 43
0.38
 44
1.0
 45
0.0
 46
0.0
 47
0.001
 48
0.001
140
2.5
141
0.09
142
0.0
143
25.4
144
1.0
145
0.0
146
1.0
147
0.625
 71
1.0
 72
0.0
 73
0
 74
0
 75
0
 76
0
 77
1
 78
8
170
0
171
2
172
0
173
0
174
0
175
0
176
0
177
0
178
5
270
2
271
3
272
3
273
2
274
2
275
0
280
0
281
0
282
0
283
1
284
8
285
0
286
0
287
3
288
0
340
11
278
46
341
213
342
213
343
213
344
213
  0
DIMSTYLE
105
223
100
AcDbSymbolTableRecord
100
AcDbDimStyleTableRecord
  2
DIMSTYLE_1
 70
0
  3

  4

 40
1.0
 41
3.5
 42
0.0
 43
0.38
 44
1.0
 45
0.0
 46
0.0
 47
0.3
 48
0.3
140
2.5
141
0.09
142
0.0
143
25.4
144
1.0
145
0.0
146
1.0
147
0.625
 71
0.0
 72
0.0
 73
0
 74
0
 75
0
 76
0
 77
1
 78
8
170
0
171
2
172
0
173
0
174
0
175
0
176
0
177
0
178
5
270
2
271
3
272
3
273
2
274
2
275
0
280
0
281
0
282
0
283
1
284
8
285
0
286
0
287
3
288
0
340
11
278
46
341
213
342
213
343
213
344
213
  0
DIMSTYLE
105
224
100
AcDbSymbolTableRecord
100
AcDbDimStyleTableRecord
  2
DIMSTYLE_2
 70
0
  3

  4

 40
1.0
 41
3.5
 42
0.0
 43
0.38
 44
1.0
 45
0.0
 46
0.0
 47
0.2
 48
0.2
140
2.5
141
0.09
142
0.0
143
25.4
144
1.0
145
0.0
146
1.0
147
0.625
 71
0.0
 72
0.0
 73
0
 74
0
 75
0
 76
0
 77
1
 78
8
170
0
171
2
172
0
173
0
174
0
175
0
176
0
177
0
178
5
270
2
271
3
272
3
273
2
274
2
275
0
280
0
281
0
282
0
283
1
284
8
285
0
286
0
287
3
288
0
340
11
278
46
341
213
342
213
343
213
344
213
  0
DIMSTYLE
105
225
100
AcDbSymbolTableRecord
100
AcDbDimStyleTableRecord
  2
DIMSTYLE_3
 70
0
  3

  4

 40
1.0
 41
3.5
 42
0.0
 43
0.38
 44
1.0
 45
0.0
 46
0.0
 47
0.1
 48
0.1
140
2.5
141
0.09
142
0.0
143
25.4
144
1.0
145
0.0
146
1.0
147
0.625
 71
0.0
 72
0.0
 73
0
 74
0
 75
0
 76
0
 77
1
 78
8
170
0
171
2
172
0
173
0
174
0
175
0
176
0
177
0
178
5
270
2
271
3
272
3
273
2
274
2
275
0
280
0
281
0
282
0
283
1
284
8
285
0
286
0
287
3
288
0
340
11
278
46
341
213
342
213
343
213
344
213
  0
ENDTAB
  0
ENDSEC
  0
SECTION
  2
BLOCKS
  0
BLOCK
  5
20
100
AcDbEntity
  8
0
100
AcDbBlockBegin
  2
*Model_Space
 70
0
 10
0.0
 20
0.0
 30
0.0
  3
*Model_Space
  1

  0
ENDBLK
  5
21
100
AcDbEntity
  8
0
100
AcDbBlockEnd
  0
BLOCK
  5
1C
100
AcDbEntity
  8
0
100
AcDbBlockBegin
  2
*Paper_Space
 70
0
 10
0.0
 20
0.0
 30
0.0
  3
*Paper_Space
  1

  0
ENDBLK
  5
1D
100
AcDbEntity
  8
0
100
AcDbBlockEnd
  0
BLOCK
  5
226
100
AcDbEntity
  8
0
100
AcDbBlockBegin
 62
2
  6
CONTINUOUS
  2
SYMBOL_0_BL6
 70
64
 10
31.0000000239
 20
34.9999999785
  3
SYMBOL_0_BL6
  1

  0
TEXT
  5
227
100
AcDbEntity
  8
0
100
AcDbText
 62
5
  6
CONTINUOUS
 10
11.6434778505
 20
32.1908716548
  7
TEXTSTYLE_2
 40
4.0
  1
6-40032-AA-0
 72
5
 11
47.033812423
 21
32.1908716548
100
AcDbText
  0
TEXT
  5
228
100
AcDbEntity
  8
0
100
AcDbText
 62
5
  6
CONTINUOUS
 10
10.9089559916
 20
24.1776342906
  7
STANDARD
 40
2.5
  1
Scale
 72
5
 11
19.6357217908
 21
24.1776342906
100
AcDbText
  0
TEXT
  5
229
100
AcDbEntity
  8
0
100
AcDbText
 62
5
  6
CONTINUOUS
 10
10.9089559916
 20
20.4276342906
  7
STANDARD
 40
2.5
  1
1:1
 72
5
 11
15.7602571068
 21
20.4276342906
100
AcDbText
  0
TEXT
  5
22A
100
AcDbEntity
  8
0
100
AcDbText
 62
5
  6
CONTINUOUS
 10
10.9089559916
 20
13.0518233866
  7
STANDARD
 40
2.5
  1
Draft
 72
5
 11
18.4647180733
 21
13.0518233866
100
AcDbText
  0
TEXT
  5
22B
100
AcDbEntity
  8
0
100
AcDbText
 62
5
  6
CONTINUOUS
 10
23.3811982505
 20
13.113338109
  7
STANDARD
 40
2.5
  1
19.04.2018
 72
5
 11
40.8533172096
 21
13.113338109
100
AcDbText
  0
TEXT
  5
22C
100
AcDbEntity
  8
0
100
AcDbText
 62
5
  6
CONTINUOUS
 10
45.71759366
 20
13.1067461609
  7
STANDARD
 40
2.5
  1
Dr
 72
5
 11
49.435065779
 21
13.1067461609
100
AcDbText
  0
LINE
  5
22D
100
AcDbEntity
  8
0
100
AcDbLine
 62
2
  6
CONTINUOUS
 10
10.0000000239
 20
59.9999999785
 11
52.0000000239
 21
59.9999999785
  0
LINE
  5
22E
100
AcDbEntity
  8
0
100
AcDbLine
 62
2
  6
CONTINUOUS
 10
52.0000000239
 20
59.9999999785
 11
52.0000000239
 21
9.9999999785
  0
LINE
  5
22F
100
AcDbEntity
  8
0
100
AcDbLine
 62
2
  6
CONTINUOUS
 10
10.0000000239
 20
9.9999999785
 11
52.0000000239
 21
9.9999999785
  0
LINE
  5
230
100
AcDbEntity
  8
0
100
AcDbLine
 62
2
  6
CONTINUOUS
 10
10.0000000239
 20
39.9999999785
 11
21.0000000239
 21
39.9999999785
  0
LINE
  5
231
100
AcDbEntity
  8
0
100
AcDbLine
 62
2
  6
CONTINUOUS
 10
10.0000000239
 20
27.9999999785
 11
21.0000000239
 21
27.9999999785
  0
LINE
  5
232
100
AcDbEntity
  8
0
100
AcDbLine
 62
2
  6
CONTINUOUS
 10
10.0000000239
 20
18.9999999785
 11
21.0000000239
 21
18.9999999785
  0
LINE
  5
233
100
AcDbEntity
  8
0
100
AcDbLine
 62
2
  6
CONTINUOUS
 10
21.0000000239
 20
39.9999999785
 11
43.0000000239
 21
39.9999999785
  0
LINE
  5
234
100
AcDbEntity
  8
0
100
AcDbLine
 62
2
  6
CONTINUOUS
 10
43.0000000239
 20
39.9999999785
 11
52.0000000239
 21
39.9999999785
  0
LINE
  5
235
100
AcDbEntity
  8
0
100
AcDbLine
 62
2
  6
CONTINUOUS
 10
21.0000000239
 20
27.9999999785
 11
43.0000000239
 21
27.9999999785
  0
LINE
  5
236
100
AcDbEntity
  8
0
100
AcDbLine
 62
2
  6
CONTINUOUS
 10
43.0000000239
 20
27.9999999785
 11
52.0000000239
 21
27.9999999785
  0
LINE
  5
237
100
AcDbEntity
  8
0
100
AcDbLine
 62
2
  6
CONTINUOUS
 10
21.0000000239
 20
18.9999999785
 11
21.0000000239
 21
9.9999999785
  0
LINE
  5
238
100
AcDbEntity
  8
0
100
AcDbLine
 62
2
  6
CONTINUOUS
 10
21.0000000239
 20
18.9999999785
 11
43.0000000239
 21
18.9999999785
  0
LINE
  5
239
100
AcDbEntity
  8
0
100
AcDbLine
 62
2
  6
CONTINUOUS
 10
43.0000000239
 20
18.9999999785
 11
43.0000000239
 21
9.9999999785
  0
LINE
  5
23A
100
AcDbEntity
  8
0
100
AcDbLine
 62
2
  6
CONTINUOUS
 10
43.0000000239
 20
18.9999999785
 11
52.0000000239
 21
18.9999999785
  0
LINE
  5
23B
100
AcDbEntity
  8
0
100
AcDbLine
 62
2
  6
CONTINUOUS
 10
10.0000000239
 20
9.9999999785
 11
10.0000000239
 21
59.9999999785
  0
ARC
  5
23C
100
AcDbEntity
  8
0
100
AcDbCircle
 62
2
  6
CONTINUOUS
 10
17.6290122978
 20
56.1308274644
 40
1.2679261569
100
AcDbArc
 50
90.0
 51
180.0
  0
LINE
  5
23D
100
AcDbEntity
  8
0
100
AcDbLine
 62
2
  6
CONTINUOUS
 10
17.6290122978
 20
57.3987536213
 11
44.0849627663
 21
57.3987536213
  0
ARC
  5
23E
100
AcDbEntity
  8
0
100
AcDbCircle
 62
2
  6
CONTINUOUS
 10
44.0849627663
 20
56.1308274644
 40
1.2679261569
100
AcDbArc
 50
0.0
 51
90.0
  0
LINE
  5
23F
100
AcDbEntity
  8
0
100
AcDbLine
 62
2
  6
CONTINUOUS
 10
45.3528889231
 20
56.1308274644
 11
45.3528889231
 21
43.6666783678
  0
ARC
  5
240
100
AcDbEntity
  8
0
100
AcDbCircle
 62
2
  6
CONTINUOUS
 10
44.0849627663
 20
43.6666783678
 40
1.2679261569
100
AcDbArc
 50
270.0
 51
360.0
  0
LINE
  5
241
100
AcDbEntity
  8
0
100
AcDbLine
 62
2
  6
CONTINUOUS
 10
44.0849627663
 20
42.3987522109
 11
17.6290122978
 21
42.3987522109
  0
ARC
  5
242
100
AcDbEntity
  8
0
100
AcDbCircle
 62
2
  6
CONTINUOUS
 10
17.6290122978
 20
43.6666783678
 40
1.2679261569
100
AcDbArc
 50
180.0
 51
270.0
  0
LINE
  5
243
100
AcDbEntity
  8
0
100
AcDbLine
 62
2
  6
CONTINUOUS
 10
16.3610861409
 20
43.6666783678
 11
16.3610861409
 21
56.1308274644
  0
ARC
  5
244
100
AcDbEntity
  8
0
100
AcDbCircle
 62
2
  6
CONTINUOUS
 10
25.0981141224
 20
49.7181091975
 40
2.8108394023
100
AcDbArc
 50
35.2282226131
 51
336.934010569
  0
LINE
  5
245
100
AcDbEntity
  8
0
100
AcDbLine
 62
2
  6
CONTINUOUS
 10
27.3941788183
 20
51.3394990511
 11
29.5865173301
 21
52.961744213
  0
ARC
  5
246
100
AcDbEntity
  8
0
100
AcDbCircle
 62
2
  6
CONTINUOUS
 10
25.0981141224
 20
49.7181091975
 40
5.5377731507
100
AcDbArc
 50
35.8545159817
 51
11.4705154501
  0
LINE
  5
247
100
AcDbEntity
  8
0
100
AcDbLine
 62
2
  6
CONTINUOUS
 10
30.5252822719
 20
50.8193709036
 11
25.2029961896
 21
50.8193709036
  0
ARC
  5
248
100
AcDbEntity
  8
0
100
AcDbCircle
 62
2
  6
CONTINUOUS
 10
25.2029961896
 20
49.7181091975
 40
1.1012617061
100
AcDbArc
 50
90.0
 51
270.0
  0
LINE
  5
249
100
AcDbEntity
  8
0
100
AcDbLine
 62
2
  6
CONTINUOUS
 10
25.2029961896
 20
48.6168474914
 11
27.6842387906
 21
48.6168474914
  0
ARC
  5
24A
100
AcDbEntity
  8
0
100
AcDbCircle
 62
2
  6
CONTINUOUS
 10
25.2029961896
 20
49.7181091975
 40
5.9153485927
100
AcDbArc
 50
349.2706340045
 51
10.7293659955
  0
LINE
  5
24B
100
AcDbEntity
  8
0
100
AcDbLine
 62
2
  6
CONTINUOUS
 10
31.014929743
 20
48.6168474914
 11
32.8593870987
 21
48.6168474914
  0
LINE
  5
24C
100
AcDbEntity
  8
0
100
AcDbLine
 62
2
  6
CONTINUOUS
 10
32.8593870987
 20
48.6168474914
 11
32.8593870987
 21
48.0399961216
  0
ARC
  5
24D
100
AcDbEntity
  8
0
100
AcDbCircle
 62
2
  6
CONTINUOUS
 10
36.7610000003
 20
48.0399961216
 40
3.9016129016
100
AcDbArc
 50
180.0
 51
360.0
  0
LINE
  5
24E
100
AcDbEntity
  8
0
100
AcDbLine
 62
2
  6
CONTINUOUS
 10
40.6626129019
 20
48.0399961216
 11
40.6626129019
 21
54.9622125599
  0
LINE
  5
24F
100
AcDbEntity
  8
0
100
AcDbLine
 62
2
  6
CONTINUOUS
 10
40.6626129019
 20
54.9622125599
 11
37.9356791535
 21
54.9622125599
  0
LINE
  5
250
100
AcDbEntity
  8
0
100
AcDbLine
 62
2
  6
CONTINUOUS
 10
37.9356791535
 20
54.9622125599
 11
37.9356791535
 21
48.0399961216
  0
ARC
  5
251
100
AcDbEntity
  8
0
100
AcDbCircle
 62
2
  6
CONTINUOUS
 10
36.7610000003
 20
48.0399961216
 40
1.1746791532
100
AcDbArc
 50
180.0
 51
360.0
  0
LINE
  5
252
100
AcDbEntity
  8
0
100
AcDbLine
 62
2
  6
CONTINUOUS
 10
35.5863208471
 20
48.0399961216
 11
35.5863208471
 21
54.9622125599
  0
LINE
  5
253
100
AcDbEntity
  8
0
100
AcDbLine
 62
2
  6
CONTINUOUS
 10
35.5863208471
 20
54.9622125599
 11
32.8593870987
 21
54.9622125599
  0
LINE
  5
254
100
AcDbEntity
  8
0
100
AcDbLine
 62
2
  6
CONTINUOUS
 10
32.8593870987
 20
54.9622125599
 11
32.8593870987
 21
50.8193709036
  0
LINE
  5
255
100
AcDbEntity
  8
0
100
AcDbLine
 62
2
  6
CONTINUOUS
 10
32.8593870987
 20
50.8193709036
 11
31.014929743
 21
50.8193709036
  0
LINE
  5
256
100
AcDbEntity
  8
0
100
AcDbLine
 62
2
  6
CONTINUOUS
 10
45.1996126437
 20
56.7334185992
 11
45.2185459944
 21
56.6972621935
  0
LWPOLYLINE
  5
257
100
AcDbEntity
  8
0
100
AcDbPolyline
 62
2
  6
CONTINUOUS
 90
42
 70
0
 10
17.4964779251
 20
57.3918123624
 10
17.6290122978
 20
57.398757363
 10
44.0849627663
 20
57.398757363
 10
44.217497139
 20
57.3918123624
 10
44.3485794374
 20
57.3710523604
 10
44.4767734964
 20
57.3367023572
 10
44.600674795
 20
57.2891373527
 10
44.7189258447
 20
57.2288823471
 10
44.8302310623
 20
57.1565973403
 10
44.9333709645
 20
57.0730773324
 10
45.0272155289
 20
56.9792373236
 10
45.1107365748
 20
56.8760973139
 10
45.1830190283
 20
56.7647973034
 10
45.2432709475
 20
56.6465372923
 10
45.2908322
 20
56.5226372807
 10
45.3251816945
 20
56.3944472686
 10
45.345943091
 20
56.2633622563
 10
45.3528889232
 20
56.1308222438
 10
24.5102931399
 20
55.2245960958
 10
23.6929701738
 20
55.0746474408
 10
22.9072856488
 20
54.8040901322
 10
22.1709301607
 20
54.4190160805
 10
21.5004836049
 20
53.9280956735
 10
20.9110418611
 20
53.3423825519
 10
20.4158768919
 20
52.6750647241
 10
20.0261379092
 20
51.9411676226
 10
16.3610861409
 20
43.6666760719
 10
16.3610861409
 20
56.1308222438
 10
16.368031973
 20
56.2633622563
 10
16.3887933695
 20
56.3944472686
 10
16.4231428641
 20
56.5226372807
 10
16.4707041165
 20
56.6465372923
 10
16.5309560358
 20
56.7647973034
 10
16.6032384892
 20
56.8760973139
 10
16.6867595352
 20
56.9792373236
 10
16.7806040996
 20
57.0730773324
 10
16.8837440018
 20
57.1565973403
 10
16.9950492193
 20
57.2288823471
 10
17.113300269
 20
57.2891373527
 10
17.2372015677
 20
57.3367023572
 10
17.3653956267
 20
57.3710523604
 10
17.4964779251
 20
57.3918123624
  0
HATCH
  5
258
100
AcDbEntity
  8
0
100
AcDbHatch
 62
2
  6
CONTINUOUS
 10
0.0
 20
0.0
 30
0.0
210
0.0
220
0.0
230
1.0
  2
SOLID
 70
1
 71
1
 91
1
 92
1
 93
41
 72
1
 10
17.4964779251
 20
57.3918123624
 11
17.6290122978
 21
57.398757363
 72
1
 10
17.6290122978
 20
57.398757363
 11
44.0849627663
 21
57.398757363
 72
1
 10
44.0849627663
 20
57.398757363
 11
44.217497139
 21
57.3918123624
 72
1
 10
44.217497139
 20
57.3918123624
 11
44.3485794374
 21
57.3710523604
 72
1
 10
44.3485794374
 20
57.3710523604
 11
44.4767734964
 21
57.3367023572
 72
1
 10
44.4767734964
 20
57.3367023572
 11
44.600674795
 21
57.2891373527
 72
1
 10
44.600674795
 20
57.2891373527
 11
44.7189258447
 21
57.2288823471
 72
1
 10
44.7189258447
 20
57.2288823471
 11
44.8302310623
 21
57.1565973403
 72
1
 10
44.8302310623
 20
57.1565973403
 11
44.9333709645
 21
57.0730773324
 72
1
 10
44.9333709645
 20
57.0730773324
 11
45.0272155289
 21
56.9792373236
 72
1
 10
45.0272155289
 20
56.9792373236
 11
45.1107365748
 21
56.8760973139
 72
1
 10
45.1107365748
 20
56.8760973139
 11
45.1830190283
 21
56.7647973034
 72
1
 10
45.1830190283
 20
56.7647973034
 11
45.2432709475
 21
56.6465372923
 72
1
 10
45.2432709475
 20
56.6465372923
 11
45.2908322
 21
56.5226372807
 72
1
 10
45.2908322
 20
56.5226372807
 11
45.3251816945
 21
56.3944472686
 72
1
 10
45.3251816945
 20
56.3944472686
 11
45.345943091
 21
56.2633622563
 72
1
 10
45.345943091
 20
56.2633622563
 11
45.3528889232
 21
56.1308222438
 72
1
 10
45.3528889232
 20
56.1308222438
 11
24.5102931399
 21
55.2245960958
 72
1
 10
24.5102931399
 20
55.2245960958
 11
23.6929701738
 21
55.0746474408
 72
1
 10
23.6929701738
 20
55.0746474408
 11
22.9072856488
 21
54.8040901322
 72
1
 10
22.9072856488
 20
54.8040901322
 11
22.1709301607
 21
54.4190160805
 72
1
 10
22.1709301607
 20
54.4190160805
 11
21.5004836049
 21
53.9280956735
 72
1
 10
21.5004836049
 20
53.9280956735
 11
20.9110418611
 21
53.3423825519
 72
1
 10
20.9110418611
 20
53.3423825519
 11
20.4158768919
 21
52.6750647241
 72
1
 10
20.4158768919
 20
52.6750647241
 11
20.0261379092
 21
51.9411676226
 72
1
 10
20.0261379092
 20
51.9411676226
 11
16.3610861409
 21
43.6666760719
 72
1
 10
16.3610861409
 20
43.6666760719
 11
16.3610861409
 21
56.1308222438
 72
1
 10
16.3610861409
 20
56.1308222438
 11
16.368031973
 21
56.2633622563
 72
1
 10
16.368031973
 20
56.2633622563
 11
16.3887933695
 21
56.3944472686
 72
1
 10
16.3887933695
 20
56.3944472686
 11
16.4231428641
 21
56.5226372807
 72
1
 10
16.4231428641
 20
56.5226372807
 11
16.4707041165
 21
56.6465372923
 72
1
 10
16.4707041165
 20
56.6465372923
 11
16.5309560358
 21
56.7647973034
 72
1
 10
16.5309560358
 20
56.7647973034
 11
16.6032384892
 21
56.8760973139
 72
1
 10
16.6032384892
 20
56.8760973139
 11
16.6867595352
 21
56.9792373236
 72
1
 10
16.6867595352
 20
56.9792373236
 11
16.7806040996
 21
57.0730773324
 72
1
 10
16.7806040996
 20
57.0730773324
 11
16.8837440018
 21
57.1565973403
 72
1
 10
16.8837440018
 20
57.1565973403
 11
16.9950492193
 21
57.2288823471
 72
1
 10
16.9950492193
 20
57.2288823471
 11
17.113300269
 21
57.2891373527
 72
1
 10
17.113300269
 20
57.2891373527
 11
17.2372015677
 21
57.3367023572
 72
1
 10
17.2372015677
 20
57.3367023572
 11
17.3653956267
 21
57.3710523604
 72
1
 10
17.3653956267
 20
57.3710523604
 11
17.4964779251
 21
57.3918123624
 97
1
330
257
 75
0
 76
1
 98
1
 10
0.0
 20
0.0
  0
LWPOLYLINE
  5
259
100
AcDbEntity
  8
0
100
AcDbPolyline
 62
2
  6
CONTINUOUS
 90
23
 70
0
 10
26.9669939813
 20
54.9309989471
 10
26.1659444963
 20
55.151954039
 10
45.3528889232
 20
56.1308222438
 10
45.3528889231
 20
43.6666760719
 10
40.1398958888
 20
46.0891912997
 10
40.3656203039
 20
46.5469163427
 10
40.5296686661
 20
47.0301863881
 10
40.6292340626
 20
47.5307364352
 10
40.6626129019
 20
48.0400014831
 10
40.6626129019
 20
54.9622171339
 10
37.9356791535
 20
54.9622171339
 10
35.5863208471
 20
54.9622171339
 10
32.8593870987
 20
54.9622171339
 10
32.8593870987
 20
50.8193667444
 10
31.0149297429
 20
50.8193667444
 10
30.6289655903
 20
49.9949006497
 10
30.5252822719
 20
50.8193667444
 10
27.3941788183
 20
51.3394990511
 10
29.5865173301
 20
52.961744213
 10
29.0506384437
 20
53.5968310176
 10
28.425763901
 20
54.1445839144
 10
27.7259634749
 20
54.5926696135
 10
26.9669939813
 20
54.9309989471
  0
HATCH
  5
25A
100
AcDbEntity
  8
0
100
AcDbHatch
 62
2
  6
CONTINUOUS
 10
0.0
 20
0.0
 30
0.0
210
0.0
220
0.0
230
1.0
  2
SOLID
 70
1
 71
1
 91
1
 92
1
 93
22
 72
1
 10
26.9669939813
 20
54.9309989471
 11
26.1659444963
 21
55.151954039
 72
1
 10
26.1659444963
 20
55.151954039
 11
45.3528889232
 21
56.1308222438
 72
1
 10
45.3528889232
 20
56.1308222438
 11
45.3528889231
 21
43.6666760719
 72
1
 10
45.3528889231
 20
43.6666760719
 11
40.1398958888
 21
46.0891912997
 72
1
 10
40.1398958888
 20
46.0891912997
 11
40.3656203039
 21
46.5469163427
 72
1
 10
40.3656203039
 20
46.5469163427
 11
40.5296686661
 21
47.0301863881
 72
1
 10
40.5296686661
 20
47.0301863881
 11
40.6292340626
 21
47.5307364352
 72
1
 10
40.6292340626
 20
47.5307364352
 11
40.6626129019
 21
48.0400014831
 72
1
 10
40.6626129019
 20
48.0400014831
 11
40.6626129019
 21
54.9622171339
 72
1
 10
40.6626129019
 20
54.9622171339
 11
37.9356791535
 21
54.9622171339
 72
1
 10
37.9356791535
 20
54.9622171339
 11
35.5863208471
 21
54.9622171339
 72
1
 10
35.5863208471
 20
54.9622171339
 11
32.8593870987
 21
54.9622171339
 72
1
 10
32.8593870987
 20
54.9622171339
 11
32.8593870987
 21
50.8193667444
 72
1
 10
32.8593870987
 20
50.8193667444
 11
31.0149297429
 21
50.8193667444
 72
1
 10
31.0149297429
 20
50.8193667444
 11
30.6289655903
 21
49.9949006497
 72
1
 10
30.6289655903
 20
49.9949006497
 11
30.5252822719
 21
50.8193667444
 72
1
 10
30.5252822719
 20
50.8193667444
 11
27.3941788183
 21
51.3394990511
 72
1
 10
27.3941788183
 20
51.3394990511
 11
29.5865173301
 21
52.961744213
 72
1
 10
29.5865173301
 20
52.961744213
 11
29.0506384437
 21
53.5968310176
 72
1
 10
29.0506384437
 20
53.5968310176
 11
28.425763901
 21
54.1445839144
 72
1
 10
28.425763901
 20
54.1445839144
 11
27.7259634749
 21
54.5926696135
 72
1
 10
27.7259634749
 20
54.5926696135
 11
26.9669939813
 21
54.9309989471
 97
1
330
259
 75
0
 76
1
 98
1
 10
0.0
 20
0.0
  0
LWPOLYLINE
  5
25B
100
AcDbEntity
  8
0
100
AcDbPolyline
 62
2
  6
CONTINUOUS
 90
20
 70
0
 10
24.5005684601
 20
52.4646993247
 10
24.9072650814
 20
52.5224620264
 10
25.3180376874
 20
52.5203318459
 10
25.7241133608
 20
52.4583542776
 10
26.1168194973
 20
52.3378529835
 10
26.4877690273
 20
52.1614015236
 10
26.8290395394
 20
51.9327683916
 10
27.1333424806
 20
51.6568365314
 10
27.3941788183
 20
51.3394990511
 10
30.5252822719
 20
50.8193667444
 10
25.2029961896
 20
50.8193667444
 10
25.0592526925
 20
50.8099494571
 10
22.4413895628
 20
50.6360595011
 10
22.6035508656
 20
51.0134749
 10
22.8189888395
 20
51.3632250264
 10
23.0831023513
 20
51.6778402269
 10
23.3902506985
 20
51.9506012291
 10
23.7338740791
 20
52.175682645
 10
24.1066336894
 20
52.3482773854
 10
24.5005684601
 20
52.4646993247
  0
HATCH
  5
25C
100
AcDbEntity
  8
0
100
AcDbHatch
 62
2
  6
CONTINUOUS
 10
0.0
 20
0.0
 30
0.0
210
0.0
220
0.0
230
1.0
  2
SOLID
 70
1
 71
1
 91
1
 92
1
 93
19
 72
1
 10
24.5005684601
 20
52.4646993247
 11
24.9072650814
 21
52.5224620264
 72
1
 10
24.9072650814
 20
52.5224620264
 11
25.3180376874
 21
52.5203318459
 72
1
 10
25.3180376874
 20
52.5203318459
 11
25.7241133608
 21
52.4583542776
 72
1
 10
25.7241133608
 20
52.4583542776
 11
26.1168194973
 21
52.3378529835
 72
1
 10
26.1168194973
 20
52.3378529835
 11
26.4877690273
 21
52.1614015236
 72
1
 10
26.4877690273
 20
52.1614015236
 11
26.8290395394
 21
51.9327683916
 72
1
 10
26.8290395394
 20
51.9327683916
 11
27.1333424806
 21
51.6568365314
 72
1
 10
27.1333424806
 20
51.6568365314
 11
27.3941788183
 21
51.3394990511
 72
1
 10
27.3941788183
 20
51.3394990511
 11
30.5252822719
 21
50.8193667444
 72
1
 10
30.5252822719
 20
50.8193667444
 11
25.2029961896
 21
50.8193667444
 72
1
 10
25.2029961896
 20
50.8193667444
 11
25.0592526925
 21
50.8099494571
 72
1
 10
25.0592526925
 20
50.8099494571
 11
22.4413895628
 21
50.6360595011
 72
1
 10
22.4413895628
 20
50.6360595011
 11
22.6035508656
 21
51.0134749
 72
1
 10
22.6035508656
 20
51.0134749
 11
22.8189888395
 21
51.3632250264
 72
1
 10
22.8189888395
 20
51.3632250264
 11
23.0831023513
 21
51.6778402269
 72
1
 10
23.0831023513
 20
51.6778402269
 11
23.3902506985
 21
51.9506012291
 72
1
 10
23.3902506985
 20
51.9506012291
 11
23.7338740791
 21
52.175682645
 72
1
 10
23.7338740791
 20
52.175682645
 11
24.1066336894
 21
52.3482773854
 72
1
 10
24.1066336894
 20
52.3482773854
 11
24.5005684601
 21
52.4646993247
 97
1
330
25B
 75
0
 76
1
 98
1
 10
0.0
 20
0.0
  0
LWPOLYLINE
  5
25D
100
AcDbEntity
  8
0
100
AcDbPolyline
 62
2
  6
CONTINUOUS
 90
8
 70
0
 10
24.6523653366
 20
50.6718298112
 10
24.5325905397
 20
50.5917988506
 10
22.3359682285
 20
50.2390393331
 10
22.4413895628
 20
50.6360595011
 10
25.0592526925
 20
50.8099494571
 10
24.9179686864
 20
50.7818463209
 10
24.78156158
 20
50.7355423477
 10
24.6523653366
 20
50.6718298112
  0
HATCH
  5
25E
100
AcDbEntity
  8
0
100
AcDbHatch
 62
2
  6
CONTINUOUS
 10
0.0
 20
0.0
 30
0.0
210
0.0
220
0.0
230
1.0
  2
SOLID
 70
1
 71
1
 91
1
 92
1
 93
7
 72
1
 10
24.6523653366
 20
50.6718298112
 11
24.5325905397
 21
50.5917988506
 72
1
 10
24.5325905397
 20
50.5917988506
 11
22.3359682285
 21
50.2390393331
 72
1
 10
22.3359682285
 20
50.2390393331
 11
22.4413895628
 21
50.6360595011
 72
1
 10
22.4413895628
 20
50.6360595011
 11
25.0592526925
 21
50.8099494571
 72
1
 10
25.0592526925
 20
50.8099494571
 11
24.9179686864
 21
50.7818463209
 72
1
 10
24.9179686864
 20
50.7818463209
 11
24.78156158
 21
50.7355423477
 72
1
 10
24.78156158
 20
50.7355423477
 11
24.6523653366
 21
50.6718298112
 97
1
330
25D
 75
0
 76
1
 98
1
 10
0.0
 20
0.0
  0
LWPOLYLINE
  5
25F
100
AcDbEntity
  8
0
100
AcDbPolyline
 62
2
  6
CONTINUOUS
 90
8
 70
0
 10
24.2492755759
 20
50.2687400506
 10
24.1855630394
 20
50.1395438071
 10
22.2895383581
 20
49.830893601
 10
22.3359682285
 20
50.2390393331
 10
24.5325905397
 20
50.5917988506
 10
24.4242865694
 20
50.4968188178
 10
24.3293065366
 20
50.3885148474
 10
24.2492755759
 20
50.2687400506
  0
HATCH
  5
260
100
AcDbEntity
  8
0
100
AcDbHatch
 62
2
  6
CONTINUOUS
 10
0.0
 20
0.0
 30
0.0
210
0.0
220
0.0
230
1.0
  2
SOLID
 70
1
 71
1
 91
1
 92
1
 93
7
 72
1
 10
24.2492755759
 20
50.2687400506
 11
24.1855630394
 21
50.1395438071
 72
1
 10
24.1855630394
 20
50.1395438071
 11
22.2895383581
 21
49.830893601
 72
1
 10
22.2895383581
 20
49.830893601
 11
22.3359682285
 21
50.2390393331
 72
1
 10
22.3359682285
 20
50.2390393331
 11
24.5325905397
 21
50.5917988506
 72
1
 10
24.5325905397
 20
50.5917988506
 11
24.4242865694
 21
50.4968188178
 72
1
 10
24.4242865694
 20
50.4968188178
 11
24.3293065366
 21
50.3885148474
 72
1
 10
24.3293065366
 20
50.3885148474
 11
24.2492755759
 21
50.2687400506
 97
1
330
25F
 75
0
 76
1
 98
1
 10
0.0
 20
0.0
  0
LWPOLYLINE
  5
261
100
AcDbEntity
  8
0
100
AcDbPolyline
 62
2
  6
CONTINUOUS
 90
7
 70
0
 10
31.0993048012
 20
50.1923388153
 10
31.1162282192
 20
49.8763366836
 10
30.6081153911
 20
49.1641981161
 10
30.6289655903
 20
49.9949006497
 10
31.0149297429
 20
50.8193667444
 10
31.0655063992
 20
50.5069837221
 10
31.0993048012
 20
50.1923388153
  0
HATCH
  5
262
100
AcDbEntity
  8
0
100
AcDbHatch
 62
2
  6
CONTINUOUS
 10
0.0
 20
0.0
 30
0.0
210
0.0
220
0.0
230
1.0
  2
SOLID
 70
1
 71
1
 91
1
 92
1
 93
6
 72
1
 10
31.0993048012
 20
50.1923388153
 11
31.1162282192
 21
49.8763366836
 72
1
 10
31.1162282192
 20
49.8763366836
 11
30.6081153911
 21
49.1641981161
 72
1
 10
30.6081153911
 20
49.1641981161
 11
30.6289655903
 21
49.9949006497
 72
1
 10
30.6289655903
 20
49.9949006497
 11
31.0149297429
 21
50.8193667444
 72
1
 10
31.0149297429
 20
50.8193667444
 11
31.0655063992
 21
50.5069837221
 72
1
 10
31.0655063992
 20
50.5069837221
 11
31.0993048012
 21
50.1923388153
 97
1
330
261
 75
0
 76
1
 98
1
 10
0.0
 20
0.0
  0
LWPOLYLINE
  5
263
100
AcDbEntity
  8
0
100
AcDbPolyline
 62
2
  6
CONTINUOUS
 90
7
 70
0
 10
24.1111559301
 20
49.8618526947
 10
24.1017344835
 20
49.7181091975
 10
22.3030915597
 20
49.4203391196
 10
22.2895383581
 20
49.830893601
 10
24.1855630394
 20
50.1395438071
 10
24.1392590662
 20
50.0031367007
 10
24.1111559301
 20
49.8618526947
  0
HATCH
  5
264
100
AcDbEntity
  8
0
100
AcDbHatch
 62
2
  6
CONTINUOUS
 10
0.0
 20
0.0
 30
0.0
210
0.0
220
0.0
230
1.0
  2
SOLID
 70
1
 71
1
 91
1
 92
1
 93
6
 72
1
 10
24.1111559301
 20
49.8618526947
 11
24.1017344835
 21
49.7181091975
 72
1
 10
24.1017344835
 20
49.7181091975
 11
22.3030915597
 21
49.4203391196
 72
1
 10
22.3030915597
 20
49.4203391196
 11
22.2895383581
 21
49.830893601
 72
1
 10
22.2895383581
 20
49.830893601
 11
24.1855630394
 21
50.1395438071
 72
1
 10
24.1855630394
 20
50.1395438071
 11
24.1392590662
 21
50.0031367007
 72
1
 10
24.1392590662
 20
50.0031367007
 11
24.1111559301
 21
49.8618526947
 97
1
330
263
 75
0
 76
1
 98
1
 10
0.0
 20
0.0
  0
LWPOLYLINE
  5
265
100
AcDbEntity
  8
0
100
AcDbPolyline
 62
2
  6
CONTINUOUS
 90
7
 70
0
 10
24.1392590662
 20
49.4330816944
 10
24.1855630394
 20
49.2966745879
 10
22.3763383759
 20
49.0161441476
 10
22.3030915597
 20
49.4203391196
 10
24.1017344835
 20
49.7181091975
 10
24.1111559301
 20
49.5743657004
 10
24.1392590662
 20
49.4330816944
  0
HATCH
  5
266
100
AcDbEntity
  8
0
100
AcDbHatch
 62
2
  6
CONTINUOUS
 10
0.0
 20
0.0
 30
0.0
210
0.0
220
0.0
230
1.0
  2
SOLID
 70
1
 71
1
 91
1
 92
1
 93
6
 72
1
 10
24.1392590662
 20
49.4330816944
 11
24.1855630394
 21
49.2966745879
 72
1
 10
24.1855630394
 20
49.2966745879
 11
22.3763383759
 21
49.0161441476
 72
1
 10
22.3763383759
 20
49.0161441476
 11
22.3030915597
 21
49.4203391196
 72
1
 10
22.3030915597
 20
49.4203391196
 11
24.1017344835
 21
49.7181091975
 72
1
 10
24.1017344835
 20
49.7181091975
 11
24.1111559301
 21
49.5743657004
 72
1
 10
24.1111559301
 20
49.5743657004
 11
24.1392590662
 21
49.4330816944
 97
1
330
265
 75
0
 76
1
 98
1
 10
0.0
 20
0.0
  0
LWPOLYLINE
  5
267
100
AcDbEntity
  8
0
100
AcDbPolyline
 62
2
  6
CONTINUOUS
 90
7
 70
0
 10
31.0993048012
 20
49.2438795798
 10
31.0655063992
 20
48.929234673
 10
30.4632011408
 20
48.3459675312
 10
30.6081153911
 20
49.1641981161
 10
31.1162282192
 20
49.8763366836
 10
31.1162282192
 20
49.5598817115
 10
31.0993048012
 20
49.2438795798
  0
HATCH
  5
268
100
AcDbEntity
  8
0
100
AcDbHatch
 62
2
  6
CONTINUOUS
 10
0.0
 20
0.0
 30
0.0
210
0.0
220
0.0
230
1.0
  2
SOLID
 70
1
 71
1
 91
1
 92
1
 93
6
 72
1
 10
31.0993048012
 20
49.2438795798
 11
31.0655063992
 21
48.929234673
 72
1
 10
31.0655063992
 20
48.929234673
 11
30.4632011408
 21
48.3459675312
 72
1
 10
30.4632011408
 20
48.3459675312
 11
30.6081153911
 21
49.1641981161
 72
1
 10
30.6081153911
 20
49.1641981161
 11
31.1162282192
 21
49.8763366836
 72
1
 10
31.1162282192
 20
49.8763366836
 11
31.1162282192
 21
49.5598817115
 72
1
 10
31.1162282192
 20
49.5598817115
 11
31.0993048012
 21
49.2438795798
 97
1
330
267
 75
0
 76
1
 98
1
 10
0.0
 20
0.0
  0
LWPOLYLINE
  5
269
100
AcDbEntity
  8
0
100
AcDbPolyline
 62
2
  6
CONTINUOUS
 90
7
 70
0
 10
24.3293065366
 20
49.0477035476
 10
24.4242865694
 20
48.9393995773
 10
22.5077144663
 20
48.6269411229
 10
22.3763383759
 20
49.0161441476
 10
24.1855630394
 20
49.2966745879
 10
24.2492755759
 20
49.1674783445
 10
24.3293065366
 20
49.0477035476
  0
HATCH
  5
26A
100
AcDbEntity
  8
0
100
AcDbHatch
 62
2
  6
CONTINUOUS
 10
0.0
 20
0.0
 30
0.0
210
0.0
220
0.0
230
1.0
  2
SOLID
 70
1
 71
1
 91
1
 92
1
 93
6
 72
1
 10
24.3293065366
 20
49.0477035476
 11
24.4242865694
 21
48.9393995773
 72
1
 10
24.4242865694
 20
48.9393995773
 11
22.5077144663
 21
48.6269411229
 72
1
 10
22.5077144663
 20
48.6269411229
 11
22.3763383759
 21
49.0161441476
 72
1
 10
22.3763383759
 20
49.0161441476
 11
24.1855630394
 21
49.2966745879
 72
1
 10
24.1855630394
 20
49.2966745879
 11
24.2492755759
 21
49.1674783445
 72
1
 10
24.2492755759
 20
49.1674783445
 11
24.3293065366
 21
49.0477035476
 97
1
330
269
 75
0
 76
1
 98
1
 10
0.0
 20
0.0
  0
LWPOLYLINE
  5
26B
100
AcDbEntity
  8
0
100
AcDbPolyline
 62
2
  6
CONTINUOUS
 90
9
 70
0
 10
24.9179686864
 20
48.6543720741
 10
25.0592526925
 20
48.626268938
 10
22.6944140166
 20
48.2610422989
 10
22.5077144663
 20
48.6269411229
 10
24.4242865694
 20
48.9393995773
 10
24.5325905397
 20
48.8444195445
 10
24.6523653366
 20
48.7643885839
 10
24.78156158
 20
48.7006760474
 10
24.9179686864
 20
48.6543720741
  0
HATCH
  5
26C
100
AcDbEntity
  8
0
100
AcDbHatch
 62
2
  6
CONTINUOUS
 10
0.0
 20
0.0
 30
0.0
210
0.0
220
0.0
230
1.0
  2
SOLID
 70
1
 71
1
 91
1
 92
1
 93
8
 72
1
 10
24.9179686864
 20
48.6543720741
 11
25.0592526925
 21
48.626268938
 72
1
 10
25.0592526925
 20
48.626268938
 11
22.6944140166
 21
48.2610422989
 72
1
 10
22.6944140166
 20
48.2610422989
 11
22.5077144663
 21
48.6269411229
 72
1
 10
22.5077144663
 20
48.6269411229
 11
24.4242865694
 21
48.9393995773
 72
1
 10
24.4242865694
 20
48.9393995773
 11
24.5325905397
 21
48.8444195445
 72
1
 10
24.5325905397
 20
48.8444195445
 11
24.6523653366
 21
48.7643885839
 72
1
 10
24.6523653366
 20
48.7643885839
 11
24.78156158
 21
48.7006760474
 72
1
 10
24.78156158
 20
48.7006760474
 11
24.9179686864
 21
48.6543720741
 97
1
330
26B
 75
0
 76
1
 98
1
 10
0.0
 20
0.0
  0
LWPOLYLINE
  5
26D
100
AcDbEntity
  8
0
100
AcDbPolyline
 62
2
  6
CONTINUOUS
 90
9
 70
0
 10
32.8593870987
 20
48.6168415373
 10
32.8593870987
 20
48.0400014831
 10
32.8927659379
 20
47.5307364352
 10
29.8169521117
 20
46.8199201942
 10
30.1974857512
 20
47.5586323028
 10
30.4632011408
 20
48.3459675312
 10
31.0655063992
 20
48.929234673
 10
31.0149297429
 20
48.6168415373
 10
32.8593870987
 20
48.6168415373
  0
HATCH
  5
26E
100
AcDbEntity
  8
0
100
AcDbHatch
 62
2
  6
CONTINUOUS
 10
0.0
 20
0.0
 30
0.0
210
0.0
220
0.0
230
1.0
  2
SOLID
 70
1
 71
1
 91
1
 92
1
 93
8
 72
1
 10
32.8593870987
 20
48.6168415373
 11
32.8593870987
 21
48.0400014831
 72
1
 10
32.8593870987
 20
48.0400014831
 11
32.8927659379
 21
47.5307364352
 72
1
 10
32.8927659379
 20
47.5307364352
 11
29.8169521117
 21
46.8199201942
 72
1
 10
29.8169521117
 20
46.8199201942
 11
30.1974857512
 21
47.5586323028
 72
1
 10
30.1974857512
 20
47.5586323028
 11
30.4632011408
 21
48.3459675312
 72
1
 10
30.4632011408
 20
48.3459675312
 11
31.0655063992
 21
48.929234673
 72
1
 10
31.0655063992
 20
48.929234673
 11
31.0149297429
 21
48.6168415373
 72
1
 10
31.0149297429
 20
48.6168415373
 11
32.8593870987
 21
48.6168415373
 97
1
330
26D
 75
0
 76
1
 98
1
 10
0.0
 20
0.0
  0
LWPOLYLINE
  5
26F
100
AcDbEntity
  8
0
100
AcDbPolyline
 62
2
  6
CONTINUOUS
 90
19
 70
0
 10
27.6842387906
 20
48.6168415373
 10
27.4961137435
 20
48.2516795326
 10
27.2567743458
 20
47.9178302789
 10
26.9713321963
 20
47.6224297867
 10
26.6458835153
 20
47.3717869581
 10
26.2873789475
 20
47.1712548002
 10
25.9034751155
 20
47.0251161014
 10
25.5023710973
 20
46.9364919623
 10
25.0926333168
 20
46.9072751387
 10
24.6830125906
 20
46.9380896178
 10
24.2822572349
 20
47.0282772912
 10
23.8989262276
 20
47.1759120104
 10
23.5412064125
 20
47.377840724
 10
23.2167376524
 20
47.6297508175
 10
22.9324496635
 20
47.9262622184
 10
22.6944140166
 20
48.2610422989
 10
25.0592526925
 20
48.626268938
 10
25.2029961896
 20
48.6168415373
 10
27.6842387906
 20
48.6168415373
  0
HATCH
  5
270
100
AcDbEntity
  8
0
100
AcDbHatch
 62
2
  6
CONTINUOUS
 10
0.0
 20
0.0
 30
0.0
210
0.0
220
0.0
230
1.0
  2
SOLID
 70
1
 71
1
 91
1
 92
1
 93
18
 72
1
 10
27.6842387906
 20
48.6168415373
 11
27.4961137435
 21
48.2516795326
 72
1
 10
27.4961137435
 20
48.2516795326
 11
27.2567743458
 21
47.9178302789
 72
1
 10
27.2567743458
 20
47.9178302789
 11
26.9713321963
 21
47.6224297867
 72
1
 10
26.9713321963
 20
47.6224297867
 11
26.6458835153
 21
47.3717869581
 72
1
 10
26.6458835153
 20
47.3717869581
 11
26.2873789475
 21
47.1712548002
 72
1
 10
26.2873789475
 20
47.1712548002
 11
25.9034751155
 21
47.0251161014
 72
1
 10
25.9034751155
 20
47.0251161014
 11
25.5023710973
 21
46.9364919623
 72
1
 10
25.5023710973
 20
46.9364919623
 11
25.0926333168
 21
46.9072751387
 72
1
 10
25.0926333168
 20
46.9072751387
 11
24.6830125906
 21
46.9380896178
 72
1
 10
24.6830125906
 20
46.9380896178
 11
24.2822572349
 21
47.0282772912
 72
1
 10
24.2822572349
 20
47.0282772912
 11
23.8989262276
 21
47.1759120104
 72
1
 10
23.8989262276
 20
47.1759120104
 11
23.5412064125
 21
47.377840724
 72
1
 10
23.5412064125
 20
47.377840724
 11
23.2167376524
 21
47.6297508175
 72
1
 10
23.2167376524
 20
47.6297508175
 11
22.9324496635
 21
47.9262622184
 72
1
 10
22.9324496635
 20
47.9262622184
 11
22.6944140166
 21
48.2610422989
 72
1
 10
22.6944140166
 20
48.2610422989
 11
25.0592526925
 21
48.626268938
 72
1
 10
25.0592526925
 20
48.626268938
 11
25.2029961896
 21
48.6168415373
 72
1
 10
25.2029961896
 20
48.6168415373
 11
27.6842387906
 21
48.6168415373
 97
1
330
26F
 75
0
 76
1
 98
1
 10
0.0
 20
0.0
  0
LWPOLYLINE
  5
271
100
AcDbEntity
  8
0
100
AcDbPolyline
 62
2
  6
CONTINUOUS
 90
28
 70
0
 10
35.5863208471
 20
48.0400014831
 10
35.5863208471
 20
54.9622171339
 10
37.9356791535
 20
54.9622171339
 10
37.9356791535
 20
48.0400014831
 10
37.9256296104
 20
47.8866714687
 10
37.8956529319
 20
47.7359664545
 10
37.8462620271
 20
47.5904664408
 10
37.7783019882
 20
47.4526614279
 10
37.6929356302
 20
47.3248914159
 10
37.5916235952
 20
47.209376405
 10
37.4760993602
 20
47.1080663955
 10
37.3483395768
 20
47.0227013874
 10
37.2105302505
 20
46.9547363811
 10
37.065029337
 20
46.9053413764
 10
36.9143263972
 20
46.8753713736
 10
36.7610000003
 20
46.8653169684
 10
36.6076736033
 20
46.8753713736
 10
36.4569706635
 20
46.9053413764
 10
36.31146975
 20
46.9547363811
 10
36.1736604237
 20
47.0227013874
 10
36.0459006404
 20
47.1080663955
 10
35.9303764053
 20
47.209376405
 10
35.8290643703
 20
47.3248914159
 10
35.7436980123
 20
47.4526614279
 10
35.6757379734
 20
47.5904664408
 10
35.6263470686
 20
47.7359664545
 10
35.5963703901
 20
47.8866714687
 10
35.5863208471
 20
48.0400014831
  0
HATCH
  5
272
100
AcDbEntity
  8
0
100
AcDbHatch
 62
2
  6
CONTINUOUS
 10
0.0
 20
0.0
 30
0.0
210
0.0
220
0.0
230
1.0
  2
SOLID
 70
1
 71
1
 91
1
 92
1
 93
27
 72
1
 10
35.5863208471
 20
48.0400014831
 11
35.5863208471
 21
54.9622171339
 72
1
 10
35.5863208471
 20
54.9622171339
 11
37.9356791535
 21
54.9622171339
 72
1
 10
37.9356791535
 20
54.9622171339
 11
37.9356791535
 21
48.0400014831
 72
1
 10
37.9356791535
 20
48.0400014831
 11
37.9256296104
 21
47.8866714687
 72
1
 10
37.9256296104
 20
47.8866714687
 11
37.8956529319
 21
47.7359664545
 72
1
 10
37.8956529319
 20
47.7359664545
 11
37.8462620271
 21
47.5904664408
 72
1
 10
37.8462620271
 20
47.5904664408
 11
37.7783019882
 21
47.4526614279
 72
1
 10
37.7783019882
 20
47.4526614279
 11
37.6929356302
 21
47.3248914159
 72
1
 10
37.6929356302
 20
47.3248914159
 11
37.5916235952
 21
47.209376405
 72
1
 10
37.5916235952
 20
47.209376405
 11
37.4760993602
 21
47.1080663955
 72
1
 10
37.4760993602
 20
47.1080663955
 11
37.3483395768
 21
47.0227013874
 72
1
 10
37.3483395768
 20
47.0227013874
 11
37.2105302505
 21
46.9547363811
 72
1
 10
37.2105302505
 20
46.9547363811
 11
37.065029337
 21
46.9053413764
 72
1
 10
37.065029337
 20
46.9053413764
 11
36.9143263972
 21
46.8753713736
 72
1
 10
36.9143263972
 20
46.8753713736
 11
36.7610000003
 21
46.8653169684
 72
1
 10
36.7610000003
 20
46.8653169684
 11
36.6076736033
 21
46.8753713736
 72
1
 10
36.6076736033
 20
46.8753713736
 11
36.4569706635
 21
46.9053413764
 72
1
 10
36.4569706635
 20
46.9053413764
 11
36.31146975
 21
46.9547363811
 72
1
 10
36.31146975
 20
46.9547363811
 11
36.1736604237
 21
47.0227013874
 72
1
 10
36.1736604237
 20
47.0227013874
 11
36.0459006404
 21
47.1080663955
 72
1
 10
36.0459006404
 20
47.1080663955
 11
35.9303764053
 21
47.209376405
 72
1
 10
35.9303764053
 20
47.209376405
 11
35.8290643703
 21
47.3248914159
 72
1
 10
35.8290643703
 20
47.3248914159
 11
35.7436980123
 21
47.4526614279
 72
1
 10
35.7436980123
 20
47.4526614279
 11
35.6757379734
 21
47.5904664408
 72
1
 10
35.6757379734
 20
47.5904664408
 11
35.6263470686
 21
47.7359664545
 72
1
 10
35.6263470686
 20
47.7359664545
 11
35.5963703901
 21
47.8866714687
 72
1
 10
35.5963703901
 20
47.8866714687
 11
35.5863208471
 21
48.0400014831
 97
1
330
271
 75
0
 76
1
 98
1
 10
0.0
 20
0.0
  0
LWPOLYLINE
  5
273
100
AcDbEntity
  8
0
100
AcDbPolyline
 62
2
  6
CONTINUOUS
 90
8
 70
0
 10
32.9923313344
 20
47.0301863881
 10
33.1563796967
 20
46.5469163427
 10
33.3821041117
 20
46.0891912997
 10
28.7480950465
 20
45.5534278506
 10
29.3301683772
 20
46.146464163
 10
29.8169521117
 20
46.8199201942
 10
32.8927659379
 20
47.5307364352
 10
32.9923313344
 20
47.0301863881
  0
HATCH
  5
274
100
AcDbEntity
  8
0
100
AcDbHatch
 62
2
  6
CONTINUOUS
 10
0.0
 20
0.0
 30
0.0
210
0.0
220
0.0
230
1.0
  2
SOLID
 70
1
 71
1
 91
1
 92
1
 93
7
 72
1
 10
32.9923313344
 20
47.0301863881
 11
33.1563796967
 21
46.5469163427
 72
1
 10
33.1563796967
 20
46.5469163427
 11
33.3821041117
 21
46.0891912997
 72
1
 10
33.3821041117
 20
46.0891912997
 11
28.7480950465
 21
45.5534278506
 72
1
 10
28.7480950465
 20
45.5534278506
 11
29.3301683772
 21
46.146464163
 72
1
 10
29.3301683772
 20
46.146464163
 11
29.8169521117
 21
46.8199201942
 72
1
 10
29.8169521117
 20
46.8199201942
 11
32.8927659379
 21
47.5307364352
 72
1
 10
32.8927659379
 20
47.5307364352
 11
32.9923313344
 21
47.0301863881
 97
1
330
273
 75
0
 76
1
 98
1
 10
0.0
 20
0.0
  0
LWPOLYLINE
  5
275
100
AcDbEntity
  8
0
100
AcDbPolyline
 62
2
  6
CONTINUOUS
 90
8
 70
0
 10
33.6656423722
 20
45.6648412598
 10
34.00214306
 20
45.2811412237
 10
34.3858485548
 20
44.9446311921
 10
27.3523542712
 20
44.659914577
 10
28.0838381739
 20
45.0541641554
 10
28.7480950465
 20
45.5534278506
 10
33.3821041117
 20
46.0891912997
 10
33.6656423722
 20
45.6648412598
  0
HATCH
  5
276
100
AcDbEntity
  8
0
100
AcDbHatch
 62
2
  6
CONTINUOUS
 10
0.0
 20
0.0
 30
0.0
210
0.0
220
0.0
230
1.0
  2
SOLID
 70
1
 71
1
 91
1
 92
1
 93
7
 72
1
 10
33.6656423722
 20
45.6648412598
 11
34.00214306
 21
45.2811412237
 72
1
 10
34.00214306
 20
45.2811412237
 11
34.3858485548
 21
44.9446311921
 72
1
 10
34.3858485548
 20
44.9446311921
 11
27.3523542712
 21
44.659914577
 72
1
 10
27.3523542712
 20
44.659914577
 11
28.0838381739
 21
45.0541641554
 72
1
 10
28.0838381739
 20
45.0541641554
 11
28.7480950465
 21
45.5534278506
 72
1
 10
28.7480950465
 20
45.5534278506
 11
33.3821041117
 21
46.0891912997
 72
1
 10
33.3821041117
 20
46.0891912997
 11
33.6656423722
 21
45.6648412598
 97
1
330
275
 75
0
 76
1
 98
1
 10
0.0
 20
0.0
  0
LWPOLYLINE
  5
277
100
AcDbEntity
  8
0
100
AcDbPolyline
 62
2
  6
CONTINUOUS
 90
24
 70
0
 10
34.8101935494
 20
44.6611011654
 10
35.2679173833
 20
44.4353811442
 10
35.7511882747
 20
44.2713261287
 10
36.2517373247
 20
44.1717561194
 10
16.3610861409
 20
43.6666760719
 10
20.0261379092
 20
51.9411676226
 10
19.750600337
 20
51.1572157897
 10
19.5954682224
 20
50.3408608074
 10
19.5642345443
 20
49.5104838523
 10
19.6576025652
 20
48.684781822
 10
19.8734699961
 20
47.8823463527
 10
20.2069763321
 20
47.121245207
 10
20.6506122924
 20
46.4186154575
 10
21.1943889001
 20
45.7902776256
 10
21.8260623961
 20
45.2503794643
 10
22.5314099211
 20
44.8110774052
 10
23.2945497596
 20
44.4822628421
 10
24.0982989358
 20
44.2713261287
 10
24.9245601072
 20
44.1830563096
 10
25.754729048
 20
44.2194013213
 10
26.5701135443
 20
44.3795561005
 10
27.3523542712
 20
44.659914577
 10
34.3858485548
 20
44.9446311921
 10
34.8101935494
 20
44.6611011654
  0
HATCH
  5
278
100
AcDbEntity
  8
0
100
AcDbHatch
 62
2
  6
CONTINUOUS
 10
0.0
 20
0.0
 30
0.0
210
0.0
220
0.0
230
1.0
  2
SOLID
 70
1
 71
1
 91
1
 92
1
 93
23
 72
1
 10
34.8101935494
 20
44.6611011654
 11
35.2679173833
 21
44.4353811442
 72
1
 10
35.2679173833
 20
44.4353811442
 11
35.7511882747
 21
44.2713261287
 72
1
 10
35.7511882747
 20
44.2713261287
 11
36.2517373247
 21
44.1717561194
 72
1
 10
36.2517373247
 20
44.1717561194
 11
16.3610861409
 21
43.6666760719
 72
1
 10
16.3610861409
 20
43.6666760719
 11
20.0261379092
 21
51.9411676226
 72
1
 10
20.0261379092
 20
51.9411676226
 11
19.750600337
 21
51.1572157897
 72
1
 10
19.750600337
 20
51.1572157897
 11
19.5954682224
 21
50.3408608074
 72
1
 10
19.5954682224
 20
50.3408608074
 11
19.5642345443
 21
49.5104838523
 72
1
 10
19.5642345443
 20
49.5104838523
 11
19.6576025652
 21
48.684781822
 72
1
 10
19.6576025652
 20
48.684781822
 11
19.8734699961
 21
47.8823463527
 72
1
 10
19.8734699961
 20
47.8823463527
 11
20.2069763321
 21
47.121245207
 72
1
 10
20.2069763321
 20
47.121245207
 11
20.6506122924
 21
46.4186154575
 72
1
 10
20.6506122924
 20
46.4186154575
 11
21.1943889001
 21
45.7902776256
 72
1
 10
21.1943889001
 20
45.7902776256
 11
21.8260623961
 21
45.2503794643
 72
1
 10
21.8260623961
 20
45.2503794643
 11
22.5314099211
 21
44.8110774052
 72
1
 10
22.5314099211
 20
44.8110774052
 11
23.2945497596
 21
44.4822628421
 72
1
 10
23.2945497596
 20
44.4822628421
 11
24.0982989358
 21
44.2713261287
 72
1
 10
24.0982989358
 20
44.2713261287
 11
24.9245601072
 21
44.1830563096
 72
1
 10
24.9245601072
 20
44.1830563096
 11
25.754729048
 21
44.2194013213
 72
1
 10
25.754729048
 20
44.2194013213
 11
26.5701135443
 21
44.3795561005
 72
1
 10
26.5701135443
 20
44.3795561005
 11
27.3523542712
 21
44.659914577
 72
1
 10
27.3523542712
 20
44.659914577
 11
34.3858485548
 21
44.9446311921
 72
1
 10
34.3858485548
 20
44.9446311921
 11
34.8101935494
 21
44.6611011654
 97
1
330
277
 75
0
 76
1
 98
1
 10
0.0
 20
0.0
  0
LWPOLYLINE
  5
279
100
AcDbEntity
  8
0
100
AcDbPolyline
 62
2
  6
CONTINUOUS
 90
43
 70
0
 10
36.7610000003
 20
44.13838322
 10
37.2702626758
 20
44.1717561194
 10
37.7708117258
 20
44.2713261287
 10
38.2540826172
 20
44.4353811442
 10
38.7118064511
 20
44.6611011654
 10
39.1361514457
 20
44.9446311921
 10
39.5198569406
 20
45.2811412237
 10
39.8563576283
 20
45.6648412598
 10
40.1398958888
 20
46.0891912997
 10
45.3528889231
 20
43.6666760719
 10
45.345943091
 20
43.5341510594
 10
45.3251816945
 20
43.4030660471
 10
45.2908322
 20
43.2748610351
 10
45.2432709475
 20
43.1509610234
 10
45.1830190283
 20
43.0327160123
 10
45.1107365748
 20
42.9214160018
 10
45.0272155289
 20
42.8182759921
 10
44.9333709645
 20
42.7244209833
 10
44.8302310623
 20
42.6409009754
 10
44.7189258447
 20
42.5686159687
 10
44.600674795
 20
42.508375963
 10
44.4767734964
 20
42.4608109585
 10
44.3485794374
 20
42.4264609553
 10
44.217497139
 20
42.4057009533
 10
44.0849627663
 20
42.3987559527
 10
17.6290122978
 20
42.3987559527
 10
17.4964779251
 20
42.4057009533
 10
17.3653956267
 20
42.4264609553
 10
17.2372015677
 20
42.4608109585
 10
17.113300269
 20
42.508375963
 10
16.9950492193
 20
42.5686159687
 10
16.8837440018
 20
42.6409009754
 10
16.7806040996
 20
42.7244209833
 10
16.6867595352
 20
42.8182759921
 10
16.6032384892
 20
42.9214160018
 10
16.5309560358
 20
43.0327160123
 10
16.4707041165
 20
43.1509610234
 10
16.4231428641
 20
43.2748610351
 10
16.3887933695
 20
43.4030660471
 10
16.368031973
 20
43.5341510594
 10
16.3610861409
 20
43.6666760719
 10
36.2517373247
 20
44.1717561194
 10
36.7610000003
 20
44.13838322
  0
HATCH
  5
27A
100
AcDbEntity
  8
0
100
AcDbHatch
 62
2
  6
CONTINUOUS
 10
0.0
 20
0.0
 30
0.0
210
0.0
220
0.0
230
1.0
  2
SOLID
 70
1
 71
1
 91
1
 92
1
 93
42
 72
1
 10
36.7610000003
 20
44.13838322
 11
37.2702626758
 21
44.1717561194
 72
1
 10
37.2702626758
 20
44.1717561194
 11
37.7708117258
 21
44.2713261287
 72
1
 10
37.7708117258
 20
44.2713261287
 11
38.2540826172
 21
44.4353811442
 72
1
 10
38.2540826172
 20
44.4353811442
 11
38.7118064511
 21
44.6611011654
 72
1
 10
38.7118064511
 20
44.6611011654
 11
39.1361514457
 21
44.9446311921
 72
1
 10
39.1361514457
 20
44.9446311921
 11
39.5198569406
 21
45.2811412237
 72
1
 10
39.5198569406
 20
45.2811412237
 11
39.8563576283
 21
45.6648412598
 72
1
 10
39.8563576283
 20
45.6648412598
 11
40.1398958888
 21
46.0891912997
 72
1
 10
40.1398958888
 20
46.0891912997
 11
45.3528889231
 21
43.6666760719
 72
1
 10
45.3528889231
 20
43.6666760719
 11
45.345943091
 21
43.5341510594
 72
1
 10
45.345943091
 20
43.5341510594
 11
45.3251816945
 21
43.4030660471
 72
1
 10
45.3251816945
 20
43.4030660471
 11
45.2908322
 21
43.2748610351
 72
1
 10
45.2908322
 20
43.2748610351
 11
45.2432709475
 21
43.1509610234
 72
1
 10
45.2432709475
 20
43.1509610234
 11
45.1830190283
 21
43.0327160123
 72
1
 10
45.1830190283
 20
43.0327160123
 11
45.1107365748
 21
42.9214160018
 72
1
 10
45.1107365748
 20
42.9214160018
 11
45.0272155289
 21
42.8182759921
 72
1
 10
45.0272155289
 20
42.8182759921
 11
44.9333709645
 21
42.7244209833
 72
1
 10
44.9333709645
 20
42.7244209833
 11
44.8302310623
 21
42.6409009754
 72
1
 10
44.8302310623
 20
42.6409009754
 11
44.7189258447
 21
42.5686159687
 72
1
 10
44.7189258447
 20
42.5686159687
 11
44.600674795
 21
42.508375963
 72
1
 10
44.600674795
 20
42.508375963
 11
44.4767734964
 21
42.4608109585
 72
1
 10
44.4767734964
 20
42.4608109585
 11
44.3485794374
 21
42.4264609553
 72
1
 10
44.3485794374
 20
42.4264609553
 11
44.217497139
 21
42.4057009533
 72
1
 10
44.217497139
 20
42.4057009533
 11
44.0849627663
 21
42.3987559527
 72
1
 10
44.0849627663
 20
42.3987559527
 11
17.6290122978
 21
42.3987559527
 72
1
 10
17.6290122978
 20
42.3987559527
 11
17.4964779251
 21
42.4057009533
 72
1
 10
17.4964779251
 20
42.4057009533
 11
17.3653956267
 21
42.4264609553
 72
1
 10
17.3653956267
 20
42.4264609553
 11
17.2372015677
 21
42.4608109585
 72
1
 10
17.2372015677
 20
42.4608109585
 11
17.113300269
 21
42.508375963
 72
1
 10
17.113300269
 20
42.508375963
 11
16.9950492193
 21
42.5686159687
 72
1
 10
16.9950492193
 20
42.5686159687
 11
16.8837440018
 21
42.6409009754
 72
1
 10
16.8837440018
 20
42.6409009754
 11
16.7806040996
 21
42.7244209833
 72
1
 10
16.7806040996
 20
42.7244209833
 11
16.6867595352
 21
42.8182759921
 72
1
 10
16.6867595352
 20
42.8182759921
 11
16.6032384892
 21
42.9214160018
 72
1
 10
16.6032384892
 20
42.9214160018
 11
16.5309560358
 21
43.0327160123
 72
1
 10
16.5309560358
 20
43.0327160123
 11
16.4707041165
 21
43.1509610234
 72
1
 10
16.4707041165
 20
43.1509610234
 11
16.4231428641
 21
43.2748610351
 72
1
 10
16.4231428641
 20
43.2748610351
 11
16.3887933695
 21
43.4030660471
 72
1
 10
16.3887933695
 20
43.4030660471
 11
16.368031973
 21
43.5341510594
 72
1
 10
16.368031973
 20
43.5341510594
 11
16.3610861409
 21
43.6666760719
 72
1
 10
16.3610861409
 20
43.6666760719
 11
36.2517373247
 21
44.1717561194
 72
1
 10
36.2517373247
 20
44.1717561194
 11
36.7610000003
 21
44.13838322
 97
1
330
279
 75
0
 76
1
 98
1
 10
0.0
 20
0.0
  0
SOLID
  5
27B
100
AcDbEntity
  8
0
100
AcDbTrace
 62
2
  6
CONTINUOUS
 10
25.3408515753
 20
55.2505598297
 11
24.5102931399
 21
55.2245960958
 12
26.1659444963
 22
55.151954039
 13
45.3528889232
 23
56.1308222438
  0
ENDBLK
  5
27C
100
AcDbEntity
  8
0
  6
BYBLOCK
 62
0
100
AcDbBlockEnd
  0
BLOCK
  5
27D
100
AcDbEntity
  8
94799901000_BL0
100
AcDbBlockBegin
  2
94799901000_BL0
 70
64
 10
45.0626809383
 20
149.1492330106
  3
94799901000_BL0
  1

  0
LINE
  5
27E
100
AcDbEntity
  8
94799901000_BL0
100
AcDbLine
 62
7
  6
CONTINUOUS
 10
83.2943996605
 20
111.4554204797
 11
59.2943996605
 21
111.4554204797
  0
LINE
  5
27F
100
AcDbEntity
  8
94799901000_BL0
100
AcDbLine
 62
7
  6
CENTER
 10
71.2943996605
 20
123.4554204797
 11
63.4943996605
 21
123.4554204797
  0
LINE
  5
280
100
AcDbEntity
  8
94799901000_BL0
100
AcDbLine
 62
7
  6
CENTER
 10
71.2943996605
 20
123.4554204797
 11
79.0943996605
 21
123.4554204797
  0
LINE
  5
281
100
AcDbEntity
  8
94799901000_BL0
100
AcDbLine
 62
7
  6
CONTINUOUS
 10
83.2943996605
 20
148.4554204797
 11
81.7943996605
 21
148.4554204797
  0
LINE
  5
282
100
AcDbEntity
  8
94799901000_BL0
100
AcDbLine
 62
7
  6
CONTINUOUS
 10
60.7943996605
 20
148.4554204797
 11
59.2943996605
 21
148.4554204797
  0
LINE
  5
283
100
AcDbEntity
  8
94799901000_BL0
100
AcDbLine
 62
7
  6
CONTINUOUS
 10
66.2943996605
 20
151.4554204797
 11
76.2943996605
 21
151.4554204797
  0
LINE
  5
284
100
AcDbEntity
  8
94799901000_BL0
100
AcDbLine
 62
7
  6
CONTINUOUS
 10
59.2943996605
 20
231.4554204797
 11
59.2943996605
 21
111.4554204797
  0
LINE
  5
285
100
AcDbEntity
  8
94799901000_BL0
100
AcDbLine
 62
9
  6
CONTINUOUS
 10
60.7943996605
 20
194.4554204797
 11
60.7943996605
 21
148.4554204797
  0
LINE
  5
286
100
AcDbEntity
  8
94799901000_BL0
100
AcDbLine
 62
7
  6
CONTINUOUS
 10
64.2943996605
 20
189.4554204797
 11
64.2943996605
 21
153.4554204797
  0
LINE
  5
287
100
AcDbEntity
  8
94799901000_BL0
100
AcDbLine
 62
7
  6
CENTER
 10
71.2943996605
 20
219.4554204797
 11
71.2943996605
 21
211.6554204797
  0
LINE
  5
288
100
AcDbEntity
  8
94799901000_BL0
100
AcDbLine
 62
7
  6
CENTER
 10
71.2943996605
 20
123.4554204797
 11
71.2943996605
 21
115.6554204797
  0
LINE
  5
289
100
AcDbEntity
  8
94799901000_BL0
100
AcDbLine
 62
7
  6
CENTER
 10
71.2943996605
 20
123.4554204797
 11
71.2943996605
 21
131.2554204797
  0
LINE
  5
28A
100
AcDbEntity
  8
94799901000_BL0
100
AcDbLine
 62
7
  6
CENTER
 10
71.2943996605
 20
219.4554204797
 11
71.2943996605
 21
227.2554204797
  0
LINE
  5
28B
100
AcDbEntity
  8
94799901000_BL0
100
AcDbLine
 62
7
  6
CONTINUOUS
 10
78.2943996605
 20
153.4554204797
 11
78.2943996605
 21
189.4554204797
  0
LINE
  5
28C
100
AcDbEntity
  8
94799901000_BL0
100
AcDbLine
 62
9
  6
CONTINUOUS
 10
81.7943996605
 20
148.4554204797
 11
81.7943996605
 21
194.4554204797
  0
LINE
  5
28D
100
AcDbEntity
  8
94799901000_BL0
100
AcDbLine
 62
7
  6
CONTINUOUS
 10
83.2943996605
 20
231.4554204797
 11
83.2943996605
 21
111.4554204797
  0
LINE
  5
28E
100
AcDbEntity
  8
94799901000_BL0
100
AcDbLine
 62
7
  6
CONTINUOUS
 10
76.2943996605
 20
191.4554204797
 11
66.2943996605
 21
191.4554204797
  0
LINE
  5
28F
100
AcDbEntity
  8
94799901000_BL0
100
AcDbLine
 62
7
  6
CONTINUOUS
 10
83.2943996605
 20
194.4554204797
 11
81.7943996605
 21
194.4554204797
  0
LINE
  5
290
100
AcDbEntity
  8
94799901000_BL0
100
AcDbLine
 62
7
  6
CONTINUOUS
 10
60.7943996605
 20
194.4554204797
 11
59.2943996605
 21
194.4554204797
  0
LINE
  5
291
100
AcDbEntity
  8
94799901000_BL0
100
AcDbLine
 62
7
  6
CENTER
 10
71.2943996605
 20
219.4554204797
 11
63.4943996605
 21
219.4554204797
  0
LINE
  5
292
100
AcDbEntity
  8
94799901000_BL0
100
AcDbLine
 62
7
  6
CENTER
 10
71.2943996605
 20
219.4554204797
 11
79.0943996605
 21
219.4554204797
  0
LINE
  5
293
100
AcDbEntity
  8
94799901000_BL0
100
AcDbLine
 62
7
  6
CONTINUOUS
 10
83.2943996605
 20
231.4554204797
 11
59.2943996605
 21
231.4554204797
  0
LINE
  5
294
100
AcDbEntity
  8
94799901000_BL0
100
AcDbLine
 62
7
  6
CONTINUOUS
 10
12.830962216
 20
111.4554204797
 11
9.830962216
 21
111.4554204797
  0
LINE
  5
295
100
AcDbEntity
  8
94799901000_BL0
100
AcDbLine
 62
7
  6
CENTER
 10
6.830962216
 20
123.4554204797
 11
15.830962216
 21
123.4554204797
  0
LINE
  5
296
100
AcDbEntity
  8
94799901000_BL0
100
AcDbLine
 62
7
  6
CONTINUOUS
 10
11.330962216
 20
148.4554204797
 11
9.830962216
 21
148.4554204797
  0
LINE
  5
297
100
AcDbEntity
  8
94799901000_BL0
100
AcDbLine
 62
7
  6
CONTINUOUS
 10
9.830962216
 20
111.4554204797
 11
9.830962216
 21
231.4554204797
  0
LINE
  5
298
100
AcDbEntity
  8
94799901000_BL0
100
AcDbLine
 62
9
  6
CONTINUOUS
 10
11.330962216
 20
148.4554204797
 11
11.330962216
 21
194.4554204797
  0
LINE
  5
299
100
AcDbEntity
  8
94799901000_BL0
100
AcDbLine
 62
7
  6
CONTINUOUS
 10
12.830962216
 20
231.4554204797
 11
12.830962216
 21
111.4554204797
  0
LINE
  5
29A
100
AcDbEntity
  8
94799901000_BL0
100
AcDbLine
 62
7
  6
CONTINUOUS
 10
11.330962216
 20
194.4554204797
 11
9.830962216
 21
194.4554204797
  0
LINE
  5
29B
100
AcDbEntity
  8
94799901000_BL0
100
AcDbLine
 62
7
  6
CENTER
 10
6.830962216
 20
219.4554204797
 11
15.830962216
 21
219.4554204797
  0
LINE
  5
29C
100
AcDbEntity
  8
94799901000_BL0
100
AcDbLine
 62
7
  6
CONTINUOUS
 10
12.830962216
 20
231.4554204797
 11
9.830962216
 21
231.4554204797
  0
LINE
  5
29D
100
AcDbEntity
  8
94799901000_BL0
100
AcDbLine
 62
7
  6
CONTINUOUS
 10
12.830962216
 20
66.8430455415
 11
9.830962216
 21
66.8430455415
  0
LINE
  5
29E
100
AcDbEntity
  8
94799901000_BL0
100
AcDbLine
 62
7
  6
CONTINUOUS
 10
9.830962216
 20
66.8430455415
 11
9.830962216
 21
90.8430455415
  0
LINE
  5
29F
100
AcDbEntity
  8
94799901000_BL0
100
AcDbLine
 62
7
  6
CONTINUOUS
 10
12.830962216
 20
90.8430455415
 11
12.830962216
 21
66.8430455415
  0
LINE
  5
2A0
100
AcDbEntity
  8
94799901000_BL0
100
AcDbLine
 62
7
  6
CONTINUOUS
 10
9.830962216
 20
90.8430455415
 11
12.830962216
 21
90.8430455415
  0
ARC
  5
2A1
100
AcDbEntity
  8
94799901000_BL0
100
AcDbCircle
 62
7
  6
CONTINUOUS
 10
66.2943996605
 20
153.4554204797
 40
2.0
100
AcDbArc
 50
180.0
 51
270.0
  0
ARC
  5
2A2
100
AcDbEntity
  8
94799901000_BL0
100
AcDbCircle
 62
7
  6
CONTINUOUS
 10
69.1431309644
 20
127.1815271623
 40
1.5525373924
100
AcDbArc
 50
238.03273698
 51
1.96726302
  0
ARC
  5
2A3
100
AcDbEntity
  8
94799901000_BL0
100
AcDbCircle
 62
7
  6
CONTINUOUS
 10
69.1431309644
 20
119.7293137972
 40
1.5525373924
100
AcDbArc
 50
358.03273698
 51
121.96726302
  0
ARC
  5
2A4
100
AcDbEntity
  8
94799901000_BL0
100
AcDbCircle
 62
7
  6
CONTINUOUS
 10
66.9918622682
 20
123.4554204797
 40
1.5525373924
100
AcDbArc
 50
298.03273698
 51
61.96726302
  0
ARC
  5
2A5
100
AcDbEntity
  8
94799901000_BL0
100
AcDbCircle
 62
7
  6
CONTINUOUS
 10
68.0035031262
 20
125.3554204797
 40
0.6
100
AcDbArc
 50
58.03273698
 51
241.96726302
  0
ARC
  5
2A6
100
AcDbEntity
  8
94799901000_BL0
100
AcDbCircle
 62
7
  6
CONTINUOUS
 10
68.0035031262
 20
121.5554204797
 40
0.6
100
AcDbArc
 50
118.03273698
 51
301.96726302
  0
ARC
  5
2A7
100
AcDbEntity
  8
94799901000_BL0
100
AcDbCircle
 62
7
  6
CONTINUOUS
 10
66.2943996605
 20
189.4554204797
 40
2.0
100
AcDbArc
 50
90.0
 51
180.0
  0
ARC
  5
2A8
100
AcDbEntity
  8
94799901000_BL0
100
AcDbCircle
 62
7
  6
CONTINUOUS
 10
69.1431309644
 20
223.1815271623
 40
1.5525373924
100
AcDbArc
 50
238.03273698
 51
1.96726302
  0
ARC
  5
2A9
100
AcDbEntity
  8
94799901000_BL0
100
AcDbCircle
 62
7
  6
CONTINUOUS
 10
69.1431309644
 20
215.7293137972
 40
1.5525373924
100
AcDbArc
 50
358.03273698
 51
121.96726302
  0
ARC
  5
2AA
100
AcDbEntity
  8
94799901000_BL0
100
AcDbCircle
 62
7
  6
CONTINUOUS
 10
66.9918622682
 20
219.4554204797
 40
1.5525373924
100
AcDbArc
 50
298.03273698
 51
61.96726302
  0
ARC
  5
2AB
100
AcDbEntity
  8
94799901000_BL0
100
AcDbCircle
 62
7
  6
CONTINUOUS
 10
68.0035031262
 20
221.3554204797
 40
0.6
100
AcDbArc
 50
58.03273698
 51
241.96726302
  0
ARC
  5
2AC
100
AcDbEntity
  8
94799901000_BL0
100
AcDbCircle
 62
7
  6
CONTINUOUS
 10
68.0035031262
 20
217.5554204797
 40
0.6
100
AcDbArc
 50
118.03273698
 51
301.96726302
  0
CIRCLE
  5
2AD
100
AcDbEntity
  8
94799901000_BL0
100
AcDbCircle
 62
7
  6
CONTINUOUS
 10
71.2943996605
 20
123.4554204797
 40
4.8
  0
ARC
  5
2AE
100
AcDbEntity
  8
94799901000_BL0
100
AcDbCircle
 62
7
  6
CONTINUOUS
 10
73.4456683567
 20
127.1815271623
 40
1.5525373924
100
AcDbArc
 50
178.03273698
 51
301.96726302
  0
ARC
  5
2AF
100
AcDbEntity
  8
94799901000_BL0
100
AcDbCircle
 62
7
  6
CONTINUOUS
 10
75.5969370529
 20
123.4554204797
 40
1.5525373924
100
AcDbArc
 50
118.03273698
 51
241.96726302
  0
ARC
  5
2B0
100
AcDbEntity
  8
94799901000_BL0
100
AcDbCircle
 62
7
  6
CONTINUOUS
 10
73.4456683567
 20
119.7293137972
 40
1.5525373924
100
AcDbArc
 50
58.03273698
 51
181.96726302
  0
ARC
  5
2B1
100
AcDbEntity
  8
94799901000_BL0
100
AcDbCircle
 62
7
  6
CONTINUOUS
 10
74.5852961949
 20
125.3554204797
 40
0.6
100
AcDbArc
 50
298.03273698
 51
121.96726302
  0
ARC
  5
2B2
100
AcDbEntity
  8
94799901000_BL0
100
AcDbCircle
 62
7
  6
CONTINUOUS
 10
71.2943996605
 20
127.2554204797
 40
0.6
100
AcDbArc
 50
358.03273698
 51
181.96726302
  0
ARC
  5
2B3
100
AcDbEntity
  8
94799901000_BL0
100
AcDbCircle
 62
7
  6
CONTINUOUS
 10
74.5852961949
 20
121.5554204797
 40
0.6
100
AcDbArc
 50
238.03273698
 51
61.96726302
  0
ARC
  5
2B4
100
AcDbEntity
  8
94799901000_BL0
100
AcDbCircle
 62
7
  6
CONTINUOUS
 10
71.2943996605
 20
119.6554204797
 40
0.6
100
AcDbArc
 50
178.03273698
 51
1.96726302
  0
CIRCLE
  5
2B5
100
AcDbEntity
  8
94799901000_BL0
100
AcDbCircle
 62
7
  6
CONTINUOUS
 10
71.2943996605
 20
141.3554204797
 40
5.65
  0
ARC
  5
2B6
100
AcDbEntity
  8
94799901000_BL0
100
AcDbCircle
 62
7
  6
CONTINUOUS
 10
76.2943996605
 20
153.4554204797
 40
2.0
100
AcDbArc
 50
270.0
 51
360.0
  0
CIRCLE
  5
2B7
100
AcDbEntity
  8
94799901000_BL0
100
AcDbCircle
 62
7
  6
CONTINUOUS
 10
71.2943996605
 20
201.5554204797
 40
5.65
  0
CIRCLE
  5
2B8
100
AcDbEntity
  8
94799901000_BL0
100
AcDbCircle
 62
7
  6
CONTINUOUS
 10
71.2943996605
 20
219.4554204797
 40
4.8
  0
ARC
  5
2B9
100
AcDbEntity
  8
94799901000_BL0
100
AcDbCircle
 62
7
  6
CONTINUOUS
 10
73.4456683567
 20
223.1815271623
 40
1.5525373924
100
AcDbArc
 50
178.03273698
 51
301.96726302
  0
ARC
  5
2BA
100
AcDbEntity
  8
94799901000_BL0
100
AcDbCircle
 62
7
  6
CONTINUOUS
 10
75.5969370529
 20
219.4554204797
 40
1.5525373924
100
AcDbArc
 50
118.03273698
 51
241.96726302
  0
ARC
  5
2BB
100
AcDbEntity
  8
94799901000_BL0
100
AcDbCircle
 62
7
  6
CONTINUOUS
 10
73.4456683567
 20
215.7293137972
 40
1.5525373924
100
AcDbArc
 50
58.03273698
 51
181.96726302
  0
ARC
  5
2BC
100
AcDbEntity
  8
94799901000_BL0
100
AcDbCircle
 62
7
  6
CONTINUOUS
 10
74.5852961949
 20
221.3554204797
 40
0.6
100
AcDbArc
 50
298.03273698
 51
121.96726302
  0
ARC
  5
2BD
100
AcDbEntity
  8
94799901000_BL0
100
AcDbCircle
 62
7
  6
CONTINUOUS
 10
71.2943996605
 20
223.2554204797
 40
0.6
100
AcDbArc
 50
358.03273698
 51
181.96726302
  0
ARC
  5
2BE
100
AcDbEntity
  8
94799901000_BL0
100
AcDbCircle
 62
7
  6
CONTINUOUS
 10
74.5852961949
 20
217.5554204797
 40
0.6
100
AcDbArc
 50
238.03273698
 51
61.96726302
  0
ARC
  5
2BF
100
AcDbEntity
  8
94799901000_BL0
100
AcDbCircle
 62
7
  6
CONTINUOUS
 10
71.2943996605
 20
215.6554204797
 40
0.6
100
AcDbArc
 50
178.03273698
 51
1.96726302
  0
ARC
  5
2C0
100
AcDbEntity
  8
94799901000_BL0
100
AcDbCircle
 62
7
  6
CONTINUOUS
 10
76.2943996605
 20
189.4554204797
 40
2.0
100
AcDbArc
 50
0.0
 51
90.0
  0
ENDBLK
  5
2C1
100
AcDbEntity
  8
0
  6
BYBLOCK
 62
0
100
AcDbBlockEnd
  0
BLOCK
  5
2C2
100
AcDbEntity
  8
94528902000_M_BL1
100
AcDbBlockBegin
  2
94528902000_M_BL1
 70
64
 10
47.4626809383
 20
141.3554204797
  3
94528902000_M_BL1
  1

  0
LINE
  5
2C3
100
AcDbEntity
  8
94528902000_M_BL1
100
AcDbLine
 62
7
  6
CONTINUOUS
 10
70.4193996605
 20
138.3398760231
 11
72.1693996605
 21
138.3398760231
  0
LINE
  5
2C4
100
AcDbEntity
  8
94528902000_M_BL1
100
AcDbLine
 62
7
  6
CONTINUOUS
 10
72.1693996605
 20
141.3709649364
 11
70.4193996605
 21
141.3709649364
  0
LINE
  5
2C5
100
AcDbEntity
  8
94528902000_M_BL1
100
AcDbLine
 62
7
  6
CONTINUOUS
 10
69.5443996605
 20
139.8554204797
 11
70.4193996605
 21
138.3398760231
  0
LINE
  5
2C6
100
AcDbEntity
  8
94528902000_M_BL1
100
AcDbLine
 62
7
  6
CONTINUOUS
 10
73.0443996605
 20
139.8554204797
 11
72.1693996605
 21
141.3709649364
  0
LINE
  5
2C7
100
AcDbEntity
  8
94528902000_M_BL1
100
AcDbLine
 62
7
  6
CONTINUOUS
 10
70.4193996605
 20
141.3709649364
 11
69.5443996605
 21
139.8554204797
  0
LINE
  5
2C8
100
AcDbEntity
  8
94528902000_M_BL1
100
AcDbLine
 62
7
  6
CONTINUOUS
 10
72.1693996605
 20
138.3398760231
 11
73.0443996605
 21
139.8554204797
  0
CIRCLE
  5
2C9
100
AcDbEntity
  8
94528902000_M_BL1
100
AcDbCircle
 62
7
  6
CONTINUOUS
 10
71.2943996605
 20
141.3554204797
 40
5.5
  0
CIRCLE
  5
2CA
100
AcDbEntity
  8
94528902000_M_BL1
100
AcDbCircle
 62
7
  6
CONTINUOUS
 10
71.2943996605
 20
139.8554204797
 40
1.75
  0
CIRCLE
  5
2CB
100
AcDbEntity
  8
94528902000_M_BL1
100
AcDbCircle
 62
7
  6
CONTINUOUS
 10
71.2943996605
 20
139.8554204797
 40
1.515
  0
CIRCLE
  5
2CC
100
AcDbEntity
  8
94528902000_M_BL1
100
AcDbCircle
 62
7
  6
CONTINUOUS
 10
71.2943996605
 20
143.8554204797
 40
0.75
  0
ARC
  5
2CD
100
AcDbEntity
  8
94528902000_M_BL1
100
AcDbCircle
 62
7
  6
CONTINUOUS
 10
15.4852109049
 20
139.8554204797
 40
4.0
100
AcDbArc
 50
311.4096221093
 51
48.5903778907
  0
ENDBLK
  5
2CE
100
AcDbEntity
  8
0
  6
BYBLOCK
 62
0
100
AcDbBlockEnd
  0
BLOCK
  5
2CF
100
AcDbEntity
  8
95056301000_BL2
100
AcDbBlockBegin
  2
95056301000_BL2
 70
64
 10
45.4126809383
 20
139.0242330106
  3
95056301000_BL2
  1

  0
LINE
  5
2D0
100
AcDbEntity
  8
95056301000_BL2
100
AcDbLine
 62
7
  6
CONTINUOUS
 10
67.5943996605
 20
151.5054204797
 11
74.9943996605
 21
151.5054204797
  0
LINE
  5
2D1
100
AcDbEntity
  8
95056301000_BL2
100
AcDbLine
 62
9
  6
CONTINUOUS
 10
68.5409878806
 20
152.2277660037
 11
74.0478114405
 21
152.2277660037
  0
LINE
  5
2D2
100
AcDbEntity
  8
95056301000_BL2
100
AcDbLine
 62
9
  6
CONTINUOUS
 10
68.5409393867
 20
153.2222941886
 11
74.0478646216
 21
153.2222947948
  0
LINE
  5
2D3
100
AcDbEntity
  8
95056301000_BL2
100
AcDbLine
 62
9
  6
CONTINUOUS
 10
65.5943996605
 20
153.5054204797
 11
64.5943996605
 21
153.5054204797
  0
LINE
  5
2D4
100
AcDbEntity
  8
95056301000_BL2
100
AcDbLine
 62
9
  6
CONTINUOUS
 10
76.9943996605
 20
153.5054204797
 11
77.9943996605
 21
153.5054204797
  0
LINE
  5
2D5
100
AcDbEntity
  8
95056301000_BL2
100
AcDbLine
 62
9
  6
CONTINUOUS
 10
76.0332165643
 20
154.2131685115
 11
75.0429420781
 21
154.2131684963
  0
LINE
  5
2D6
100
AcDbEntity
  8
95056301000_BL2
100
AcDbLine
 62
9
  6
CONTINUOUS
 10
66.5555827568
 20
154.2131685123
 11
67.5458578628
 21
154.2131684963
  0
LINE
  5
2D7
100
AcDbEntity
  8
95056301000_BL2
100
AcDbLine
 62
9
  6
CONTINUOUS
 10
74.7273794805
 20
191.1912936477
 11
74.0478114405
 21
190.6830749558
  0
LINE
  5
2D8
100
AcDbEntity
  8
95056301000_BL2
100
AcDbLine
 62
9
  6
CONTINUOUS
 10
74.0478114405
 20
152.2277660037
 11
74.7273794805
 21
151.7195473118
  0
LINE
  5
2D9
100
AcDbEntity
  8
95056301000_BL2
100
AcDbLine
 62
9
  6
CONTINUOUS
 10
76.707915618
 20
189.2022498569
 11
76.0332165643
 21
188.6976724633
  0
LINE
  5
2DA
100
AcDbEntity
  8
95056301000_BL2
100
AcDbLine
 62
9
  6
CONTINUOUS
 10
76.0332165643
 20
154.2131684962
 11
76.707915618
 21
153.7085911026
  0
LINE
  5
2DB
100
AcDbEntity
  8
95056301000_BL2
100
AcDbLine
 62
7
  6
CONTINUOUS
 10
64.5943996605
 20
153.5054204797
 11
64.5943996605
 21
189.4054204797
  0
LINE
  5
2DC
100
AcDbEntity
  8
95056301000_BL2
100
AcDbLine
 62
9
  6
CONTINUOUS
 10
65.3015064417
 20
189.4054205326
 11
65.3015064417
 21
153.5054204269
  0
LINE
  5
2DD
100
AcDbEntity
  8
95056301000_BL2
100
AcDbLine
 62
7
  6
CONTINUOUS
 10
65.5943996605
 20
189.4054204797
 11
65.5943996605
 21
153.5054204797
  0
LINE
  5
2DE
100
AcDbEntity
  8
95056301000_BL2
100
AcDbLine
 62
9
  6
CONTINUOUS
 10
66.5555827568
 20
188.6976724633
 11
66.5555827568
 21
154.2131684962
  0
LINE
  5
2DF
100
AcDbEntity
  8
95056301000_BL2
100
AcDbLine
 62
9
  6
CONTINUOUS
 10
67.5458578598
 20
188.6977263148
 11
67.5458578628
 21
154.2131146214
  0
LINE
  5
2E0
100
AcDbEntity
  8
95056301000_BL2
100
AcDbLine
 62
9
  6
CONTINUOUS
 10
67.5943996605
 20
151.5054204797
 11
67.5943996605
 21
151.4554204797
  0
LINE
  5
2E1
100
AcDbEntity
  8
95056301000_BL2
100
AcDbLine
 62
9
  6
CONTINUOUS
 10
67.5943996605
 20
191.4054204797
 11
67.5943996605
 21
191.4554204797
  0
LINE
  5
2E2
100
AcDbEntity
  8
95056301000_BL2
100
AcDbLine
 62
9
  6
CONTINUOUS
 10
68.540987894
 20
190.6830749558
 11
68.5409878806
 21
189.6885467676
  0
LINE
  5
2E3
100
AcDbEntity
  8
95056301000_BL2
100
AcDbLine
 62
9
  6
CONTINUOUS
 10
68.540987894
 20
152.2277660037
 11
68.5409878806
 21
153.2222941886
  0
LINE
  5
2E4
100
AcDbEntity
  8
95056301000_BL2
100
AcDbLine
 62
9
  6
CONTINUOUS
 10
74.0478114263
 20
190.6830749558
 11
74.0478114405
 21
189.6885461679
  0
LINE
  5
2E5
100
AcDbEntity
  8
95056301000_BL2
100
AcDbLine
 62
9
  6
CONTINUOUS
 10
74.0478114263
 20
152.2277660037
 11
74.0478114405
 21
153.2222947948
  0
LINE
  5
2E6
100
AcDbEntity
  8
95056301000_BL2
100
AcDbLine
 62
9
  6
CONTINUOUS
 10
74.9943996605
 20
151.5054204797
 11
74.9943996606
 21
151.4554204797
  0
LINE
  5
2E7
100
AcDbEntity
  8
95056301000_BL2
100
AcDbLine
 62
9
  6
CONTINUOUS
 10
74.9943996605
 20
191.4054204797
 11
74.9943996605
 21
191.4554204797
  0
LINE
  5
2E8
100
AcDbEntity
  8
95056301000_BL2
100
AcDbLine
 62
9
  6
CONTINUOUS
 10
75.042942075
 20
188.6977216038
 11
75.0429420781
 21
154.2131193794
  0
LINE
  5
2E9
100
AcDbEntity
  8
95056301000_BL2
100
AcDbLine
 62
9
  6
CONTINUOUS
 10
76.0332165643
 20
188.6976724633
 11
76.0332165643
 21
154.2131684962
  0
LINE
  5
2EA
100
AcDbEntity
  8
95056301000_BL2
100
AcDbLine
 62
7
  6
CONTINUOUS
 10
76.9943996605
 20
153.5054204797
 11
76.9943996605
 21
189.4054204797
  0
LINE
  5
2EB
100
AcDbEntity
  8
95056301000_BL2
100
AcDbLine
 62
9
  6
CONTINUOUS
 10
77.2872928794
 20
153.5054204269
 11
77.2872928794
 21
189.4054205326
  0
LINE
  5
2EC
100
AcDbEntity
  8
95056301000_BL2
100
AcDbLine
 62
7
  6
CONTINUOUS
 10
77.9943996605
 20
189.4054204797
 11
77.9943996605
 21
153.5054204797
  0
LINE
  5
2ED
100
AcDbEntity
  8
95056301000_BL2
100
AcDbLine
 62
9
  6
CONTINUOUS
 10
66.5555827568
 20
154.2131684962
 11
65.8808837031
 21
153.7085911026
  0
LINE
  5
2EE
100
AcDbEntity
  8
95056301000_BL2
100
AcDbLine
 62
9
  6
CONTINUOUS
 10
65.8808837031
 20
189.2022498569
 11
66.5555827568
 21
188.6976724633
  0
LINE
  5
2EF
100
AcDbEntity
  8
95056301000_BL2
100
AcDbLine
 62
9
  6
CONTINUOUS
 10
68.5409878806
 20
152.2277660037
 11
67.8614198405
 21
151.7195473118
  0
LINE
  5
2F0
100
AcDbEntity
  8
95056301000_BL2
100
AcDbLine
 62
9
  6
CONTINUOUS
 10
67.8614198405
 20
191.1912936477
 11
68.5409878806
 21
190.6830749558
  0
LINE
  5
2F1
100
AcDbEntity
  8
95056301000_BL2
100
AcDbLine
 62
9
  6
CONTINUOUS
 10
76.0332165643
 20
188.697672448
 11
75.042942075
 21
188.6976724632
  0
LINE
  5
2F2
100
AcDbEntity
  8
95056301000_BL2
100
AcDbLine
 62
9
  6
CONTINUOUS
 10
66.5555827568
 20
188.6976724472
 11
67.5458578598
 21
188.6976724632
  0
LINE
  5
2F3
100
AcDbEntity
  8
95056301000_BL2
100
AcDbLine
 62
9
  6
CONTINUOUS
 10
77.9943996605
 20
189.4054204797
 11
76.9943996605
 21
189.4054204797
  0
LINE
  5
2F4
100
AcDbEntity
  8
95056301000_BL2
100
AcDbLine
 62
9
  6
CONTINUOUS
 10
64.5943996605
 20
189.4054204797
 11
65.5943996605
 21
189.4054204797
  0
LINE
  5
2F5
100
AcDbEntity
  8
95056301000_BL2
100
AcDbLine
 62
9
  6
CONTINUOUS
 10
74.047864597
 20
189.6885461679
 11
68.5409393612
 21
189.6885467676
  0
LINE
  5
2F6
100
AcDbEntity
  8
95056301000_BL2
100
AcDbLine
 62
9
  6
CONTINUOUS
 10
74.0478114405
 20
190.6830749558
 11
68.5409878806
 21
190.6830749558
  0
LINE
  5
2F7
100
AcDbEntity
  8
95056301000_BL2
100
AcDbLine
 62
7
  6
CONTINUOUS
 10
74.9943996605
 20
191.4054204797
 11
67.5943996605
 21
191.4054204797
  0
LINE
  5
2F8
100
AcDbEntity
  8
95056301000_BL2
100
AcDbLine
 62
7
  6
CONTINUOUS
 10
13.330962216
 20
134.4554204797
 11
16.930962216
 21
134.4554204797
  0
LINE
  5
2F9
100
AcDbEntity
  8
95056301000_BL2
100
AcDbLine
 62
7
  6
CONTINUOUS
 10
16.630962216
 20
138.5183606424
 11
16.930962216
 21
138.5183606424
  0
LINE
  5
2FA
100
AcDbEntity
  8
95056301000_BL2
100
AcDbLine
 62
9
  6
CONTINUOUS
 10
12.830962216
 20
142.9554204797
 11
15.630962216
 21
142.9554204797
  0
LINE
  5
2FB
100
AcDbEntity
  8
95056301000_BL2
100
AcDbLine
 62
7
  6
CONTINUOUS
 10
21.8309715177
 20
150.2054214574
 11
29.0400191425
 21
150.963122895
  0
LINE
  5
2FC
100
AcDbEntity
  8
95056301000_BL2
100
AcDbLine
 62
7
  6
CONTINUOUS
 10
21.830962216
 20
150.2054204797
 11
20.430962216
 21
150.2054204797
  0
LINE
  5
2FD
100
AcDbEntity
  8
95056301000_BL2
100
AcDbLine
 62
9
  6
CONTINUOUS
 10
21.8318438403
 20
153.1781549339
 11
29.1093084179
 21
153.943047283
  0
LINE
  5
2FE
100
AcDbEntity
  8
95056301000_BL2
100
AcDbLine
 62
9
  6
CONTINUOUS
 10
21.830962216
 20
153.2054204797
 11
20.430962216
 21
153.2054204797
  0
LINE
  5
2FF
100
AcDbEntity
  8
95056301000_BL2
100
AcDbLine
 62
9
  6
CONTINUOUS
 10
30.830962216
 20
153.943047283
 11
29.1093084179
 21
153.9430472878
  0
LINE
  5
300
100
AcDbEntity
  8
95056301000_BL2
100
AcDbLine
 62
9
  6
CONTINUOUS
 10
13.330962216
 20
208.4554204797
 11
13.330962216
 21
134.4554204797
  0
LINE
  5
301
100
AcDbEntity
  8
95056301000_BL2
100
AcDbLine
 62
7
  6
CONTINUOUS
 10
15.630962216
 20
140.9090822868
 11
15.630962216
 21
202.0017586727
  0
LINE
  5
302
100
AcDbEntity
  8
95056301000_BL2
100
AcDbLine
 62
9
  6
CONTINUOUS
 10
16.630962216
 20
138.5183606424
 11
16.630962216
 21
204.3924803171
  0
LINE
  5
303
100
AcDbEntity
  8
95056301000_BL2
100
AcDbLine
 62
7
  6
CONTINUOUS
 10
16.930962216
 20
134.4554204797
 11
16.930962216
 21
147.4391391824
  0
LINE
  5
304
100
AcDbEntity
  8
95056301000_BL2
100
AcDbLine
 62
7
  6
CONTINUOUS
 10
16.930962216
 20
195.4717017771
 11
16.930962216
 21
208.4554204797
  0
LINE
  5
305
100
AcDbEntity
  8
95056301000_BL2
100
AcDbLine
 62
9
  6
CONTINUOUS
 10
20.430962216
 20
150.2054204797
 11
20.430962216
 21
153.2054204797
  0
LINE
  5
306
100
AcDbEntity
  8
95056301000_BL2
100
AcDbLine
 62
9
  6
CONTINUOUS
 10
20.430962216
 20
189.7054204797
 11
20.430962216
 21
192.7054204797
  0
LINE
  5
307
100
AcDbEntity
  8
95056301000_BL2
100
AcDbLine
 62
7
  6
CONTINUOUS
 10
21.830962216
 20
189.7054204797
 11
21.830962216
 21
153.2054204797
  0
LINE
  5
308
100
AcDbEntity
  8
95056301000_BL2
100
AcDbLine
 62
9
  6
CONTINUOUS
 10
29.1093084179
 20
188.9677936765
 11
29.1093084179
 21
153.943047283
  0
LINE
  5
309
100
AcDbEntity
  8
95056301000_BL2
100
AcDbLine
 62
7
  6
CONTINUOUS
 10
30.830962216
 20
189.9586742738
 11
30.830962216
 21
152.9521666857
  0
LINE
  5
30A
100
AcDbEntity
  8
95056301000_BL2
100
AcDbLine
 62
9
  6
CONTINUOUS
 10
30.830962216
 20
188.9677936765
 11
29.1093084179
 21
188.9677936765
  0
LINE
  5
30B
100
AcDbEntity
  8
95056301000_BL2
100
AcDbLine
 62
9
  6
CONTINUOUS
 10
20.430962216
 20
189.7054204797
 11
21.830962216
 21
189.7054204797
  0
LINE
  5
30C
100
AcDbEntity
  8
95056301000_BL2
100
AcDbLine
 62
9
  6
CONTINUOUS
 10
29.1093084179
 20
188.9677936765
 11
21.8318438403
 21
189.7326860256
  0
LINE
  5
30D
100
AcDbEntity
  8
95056301000_BL2
100
AcDbLine
 62
7
  6
CONTINUOUS
 10
20.430962216
 20
192.7054204797
 11
21.830962216
 21
192.7054204797
  0
LINE
  5
30E
100
AcDbEntity
  8
95056301000_BL2
100
AcDbLine
 62
7
  6
CONTINUOUS
 10
29.0400191425
 20
191.9477180645
 11
21.8312975379
 21
192.705385236
  0
LINE
  5
30F
100
AcDbEntity
  8
95056301000_BL2
100
AcDbLine
 62
9
  6
CONTINUOUS
 10
15.630962216
 20
199.9554204797
 11
12.830962216
 21
199.9554204797
  0
LINE
  5
310
100
AcDbEntity
  8
95056301000_BL2
100
AcDbLine
 62
7
  6
CONTINUOUS
 10
16.930962216
 20
204.3924803171
 11
16.630962216
 21
204.3924803171
  0
LINE
  5
311
100
AcDbEntity
  8
95056301000_BL2
100
AcDbLine
 62
7
  6
CONTINUOUS
 10
16.930962216
 20
208.4554204797
 11
13.330962216
 21
208.4554204797
  0
LINE
  5
312
100
AcDbEntity
  8
95056301000_BL2
100
AcDbLine
 62
7
  6
CONTINUOUS
 10
15.630962216
 20
70.3430455415
 11
13.330962216
 21
70.3430455415
  0
LINE
  5
313
100
AcDbEntity
  8
95056301000_BL2
100
AcDbLine
 62
7
  6
CONTINUOUS
 10
29.1093084179
 20
72.6159503919
 11
21.8318438403
 21
71.5931694457
  0
LINE
  5
314
100
AcDbEntity
  8
95056301000_BL2
100
AcDbLine
 62
9
  6
CONTINUOUS
 10
13.330962216
 20
87.3430455415
 11
13.330962216
 21
70.3430455415
  0
LINE
  5
315
100
AcDbEntity
  8
95056301000_BL2
100
AcDbLine
 62
7
  6
CONTINUOUS
 10
16.630962216
 20
71.5930455415
 11
21.830962216
 21
71.5930455415
  0
LINE
  5
316
100
AcDbEntity
  8
95056301000_BL2
100
AcDbLine
 62
7
  6
CONTINUOUS
 10
15.630962216
 20
87.3430455415
 11
15.630962216
 21
87.0930455415
  0
LINE
  5
317
100
AcDbEntity
  8
95056301000_BL2
100
AcDbLine
 62
7
  6
CONTINUOUS
 10
15.630962216
 20
70.5930455415
 11
15.630962216
 21
70.3430455415
  0
LINE
  5
318
100
AcDbEntity
  8
95056301000_BL2
100
AcDbLine
 62
9
  6
CONTINUOUS
 10
29.0400191425
 20
75.5916235845
 11
21.8312975379
 21
74.578503833
  0
LINE
  5
319
100
AcDbEntity
  8
95056301000_BL2
100
AcDbLine
 62
9
  6
CONTINUOUS
 10
16.930962216
 20
74.5930455495
 11
21.830962216
 21
74.5930455415
  0
LINE
  5
31A
100
AcDbEntity
  8
95056301000_BL2
100
AcDbLine
 62
7
  6
CONTINUOUS
 10
16.930962216
 20
86.0930455415
 11
16.930962216
 21
71.5930455415
  0
LINE
  5
31B
100
AcDbEntity
  8
95056301000_BL2
100
AcDbLine
 62
9
  6
CONTINUOUS
 10
30.830962216
 20
75.5916235845
 11
29.0400191426
 21
75.5916235903
  0
LINE
  5
31C
100
AcDbEntity
  8
95056301000_BL2
100
AcDbLine
 62
9
  6
CONTINUOUS
 10
20.430962216
 20
71.5930455415
 11
20.430962216
 21
86.0930455415
  0
LINE
  5
31D
100
AcDbEntity
  8
95056301000_BL2
100
AcDbLine
 62
7
  6
CONTINUOUS
 10
21.830962216
 20
83.0930455415
 11
21.830962216
 21
74.5930455415
  0
LINE
  5
31E
100
AcDbEntity
  8
95056301000_BL2
100
AcDbLine
 62
9
  6
CONTINUOUS
 10
30.830962216
 20
82.0944674985
 11
29.0400191425
 21
82.0944674985
  0
LINE
  5
31F
100
AcDbEntity
  8
95056301000_BL2
100
AcDbLine
 62
9
  6
CONTINUOUS
 10
21.830962216
 20
83.0930455415
 11
16.930962216
 21
83.0930455415
  0
LINE
  5
320
100
AcDbEntity
  8
95056301000_BL2
100
AcDbLine
 62
9
  6
CONTINUOUS
 10
21.8312975379
 20
83.1075872499
 11
29.0400191425
 21
82.0944674985
  0
LINE
  5
321
100
AcDbEntity
  8
95056301000_BL2
100
AcDbLine
 62
7
  6
CONTINUOUS
 10
16.630962216
 20
86.0930455415
 11
21.830962216
 21
86.0930455415
  0
LINE
  5
322
100
AcDbEntity
  8
95056301000_BL2
100
AcDbLine
 62
7
  6
CONTINUOUS
 10
21.8318438403
 20
86.0929216372
 11
29.1093084179
 21
85.070140691
  0
LINE
  5
323
100
AcDbEntity
  8
95056301000_BL2
100
AcDbLine
 62
7
  6
CONTINUOUS
 10
15.630962216
 20
87.3430455415
 11
13.330962216
 21
87.3430455415
  0
LINE
  5
324
100
AcDbEntity
  8
95056301000_BL2
100
AcDbLine
 62
9
  6
CONTINUOUS
 10
29.0400191425
 20
82.0944674985
 11
29.0400191425
 21
75.5916235845
  0
LINE
  5
325
100
AcDbEntity
  8
95056301000_BL2
100
AcDbLine
 62
7
  6
CONTINUOUS
 10
30.830962216
 20
83.0896045535
 11
30.830962216
 21
74.5964865294
  0
ARC
  5
326
100
AcDbEntity
  8
95056301000_BL2
100
AcDbCircle
 62
9
  6
CONTINUOUS
 10
61.8228324377
 20
159.1271462644
 40
6.7696765148
100
AcDbArc
 50
303.8573186827
 51
306.8301857516
  0
ARC
  5
327
100
AcDbEntity
  8
95056301000_BL2
100
AcDbCircle
 62
7
  6
CONTINUOUS
 10
67.5943996605
 20
153.5054204797
 40
3.0
100
AcDbArc
 50
180.0
 51
213.4226045393
  0
ARC
  5
328
100
AcDbEntity
  8
95056301000_BL2
100
AcDbCircle
 62
9
  6
CONTINUOUS
 10
67.5943996605
 20
153.5054204797
 40
2.2928932188
100
AcDbArc
 50
180.0000013195
 51
243.6352111972
  0
ARC
  5
329
100
AcDbEntity
  8
95056301000_BL2
100
AcDbCircle
 62
7
  6
CONTINUOUS
 10
67.5943996605
 20
153.5054204797
 40
2.0
100
AcDbArc
 50
180.0
 51
270.0
  0
ARC
  5
32A
100
AcDbEntity
  8
95056301000_BL2
100
AcDbCircle
 62
9
  6
CONTINUOUS
 10
68.5553784201
 20
154.227561686
 40
1.9998474589
100
AcDbArc
 50
180.4123695263
 51
269.5877064061
  0
ARC
  5
32B
100
AcDbEntity
  8
95056301000_BL2
100
AcDbCircle
 62
9
  6
CONTINUOUS
 10
61.8228324376
 20
183.783694695
 40
6.7696765149
100
AcDbArc
 50
53.1698142484
 51
56.1426813173
  0
ARC
  5
32C
100
AcDbEntity
  8
95056301000_BL2
100
AcDbCircle
 62
7
  6
CONTINUOUS
 10
67.5943996605
 20
189.4054204797
 40
3.0
100
AcDbArc
 50
146.5773954607
 51
180.0
  0
ARC
  5
32D
100
AcDbEntity
  8
95056301000_BL2
100
AcDbCircle
 62
9
  6
CONTINUOUS
 10
67.5943996605
 20
189.4054204797
 40
2.2928932188
100
AcDbArc
 50
116.364803013
 51
179.9999986805
  0
ARC
  5
32E
100
AcDbEntity
  8
95056301000_BL2
100
AcDbCircle
 62
7
  6
CONTINUOUS
 10
67.5943996605
 20
189.4054204797
 40
2.0
100
AcDbArc
 50
90.0
 51
180.0
  0
ARC
  5
32F
100
AcDbEntity
  8
95056301000_BL2
100
AcDbCircle
 62
9
  6
CONTINUOUS
 10
68.5553784204
 20
188.6832792732
 40
1.9998474592
100
AcDbArc
 50
90.4122936023
 51
179.5876304653
  0
ARC
  5
330
100
AcDbEntity
  8
95056301000_BL2
100
AcDbCircle
 62
7
  6
CONTINUOUS
 10
74.9943996605
 20
153.5054204797
 40
3.0
100
AcDbArc
 50
326.5773954607
 51
360.0
  0
ARC
  5
331
100
AcDbEntity
  8
95056301000_BL2
100
AcDbCircle
 62
9
  6
CONTINUOUS
 10
74.9943996605
 20
153.5054204797
 40
2.2928932188
100
AcDbArc
 50
296.364803013
 51
359.9999986805
  0
ARC
  5
332
100
AcDbEntity
  8
95056301000_BL2
100
AcDbCircle
 62
7
  6
CONTINUOUS
 10
74.9943996605
 20
153.5054204797
 40
2.0
100
AcDbArc
 50
270.0
 51
360.0
  0
ARC
  5
333
100
AcDbEntity
  8
95056301000_BL2
100
AcDbCircle
 62
9
  6
CONTINUOUS
 10
74.03342058
 20
154.227562007
 40
1.9998477822
100
AcDbArc
 50
270.4123027223
 51
359.5876213453
  0
ARC
  5
334
100
AcDbEntity
  8
95056301000_BL2
100
AcDbCircle
 62
9
  6
CONTINUOUS
 10
80.7659668836
 20
159.1271462647
 40
6.7696765151
100
AcDbArc
 50
233.1698142484
 51
236.1426813172
  0
ARC
  5
335
100
AcDbEntity
  8
95056301000_BL2
100
AcDbCircle
 62
7
  6
CONTINUOUS
 10
74.9943996605
 20
189.4054204797
 40
3.0
100
AcDbArc
 50
0.0
 51
33.4226045393
  0
ARC
  5
336
100
AcDbEntity
  8
95056301000_BL2
100
AcDbCircle
 62
9
  6
CONTINUOUS
 10
74.9943996605
 20
189.4054204797
 40
2.2928932188
100
AcDbArc
 50
0.0000013195
 51
63.6352111972
  0
ARC
  5
337
100
AcDbEntity
  8
95056301000_BL2
100
AcDbCircle
 62
7
  6
CONTINUOUS
 10
74.9943996605
 20
189.4054204797
 40
2.0
100
AcDbArc
 50
0.0
 51
90.0
  0
ARC
  5
338
100
AcDbEntity
  8
95056301000_BL2
100
AcDbCircle
 62
9
  6
CONTINUOUS
 10
74.0334205804
 20
188.6832789529
 40
1.9998477818
100
AcDbArc
 50
0.4123786436
 51
89.5876972888
  0
ARC
  5
339
100
AcDbEntity
  8
95056301000_BL2
100
AcDbCircle
 62
9
  6
CONTINUOUS
 10
80.7659668835
 20
183.7836946949
 40
6.769676515
100
AcDbArc
 50
123.8573186828
 51
126.8301857516
  0
ARC
  5
33A
100
AcDbEntity
  8
95056301000_BL2
100
AcDbCircle
 62
7
  6
CONTINUOUS
 10
20.430962216
 20
146.7054204797
 40
3.5
100
AcDbArc
 50
90.0
 51
180.0
  0
ARC
  5
33B
100
AcDbEntity
  8
95056301000_BL2
100
AcDbCircle
 62
7
  6
CONTINUOUS
 10
20.430962216
 20
196.2054204797
 40
3.5
100
AcDbArc
 50
184.0882614211
 51
270.0
  0
ARC
  5
33C
100
AcDbEntity
  8
95056301000_BL2
100
AcDbCircle
 62
7
  6
CONTINUOUS
 10
28.830962216
 20
152.9521814691
 40
2.0
100
AcDbArc
 50
275.999955734
 51
359.9995764886
  0
ARC
  5
33D
100
AcDbEntity
  8
95056301000_BL2
100
AcDbCircle
 62
7
  6
CONTINUOUS
 10
28.830962216
 20
189.9586594904
 40
2.0
100
AcDbArc
 50
0.0004235114
 51
84.000044266
  0
ARC
  5
33E
100
AcDbEntity
  8
95056301000_BL2
100
AcDbCircle
 62
7
  6
CONTINUOUS
 10
13.330962216
 20
134.9554204797
 40
0.5
100
AcDbArc
 50
180.0
 51
270.0
  0
ARC
  5
33F
100
AcDbEntity
  8
95056301000_BL2
100
AcDbCircle
 62
7
  6
CONTINUOUS
 10
13.330962216
 20
207.9554204797
 40
0.5
100
AcDbArc
 50
90.0
 51
180.0
  0
ARC
  5
340
100
AcDbEntity
  8
95056301000_BL2
100
AcDbCircle
 62
7
  6
CONTINUOUS
 10
28.830962216
 20
83.0895943902
 40
2.0
100
AcDbArc
 50
0.0002911576
 51
82.0000405195
  0
ARC
  5
341
100
AcDbEntity
  8
95056301000_BL2
100
AcDbCircle
 62
7
  6
CONTINUOUS
 10
28.830962216
 20
74.5964865294
 40
2.0
100
AcDbArc
 50
278.0
 51
360.0
  0
ARC
  5
342
100
AcDbEntity
  8
95056301000_BL2
100
AcDbCircle
 62
7
  6
CONTINUOUS
 10
16.630962216
 20
70.5930455415
 40
1.0
100
AcDbArc
 50
90.0
 51
180.0
  0
ARC
  5
343
100
AcDbEntity
  8
95056301000_BL2
100
AcDbCircle
 62
7
  6
CONTINUOUS
 10
16.630962216
 20
87.0930455415
 40
1.0
100
AcDbArc
 50
180.0
 51
270.0
  0
ARC
  5
344
100
AcDbEntity
  8
95056301000_BL2
100
AcDbCircle
 62
7
  6
CONTINUOUS
 10
13.330962216
 20
86.8430455415
 40
0.5
100
AcDbArc
 50
90.0
 51
180.0
  0
ARC
  5
345
100
AcDbEntity
  8
95056301000_BL2
100
AcDbCircle
 62
7
  6
CONTINUOUS
 10
13.330962216
 20
70.8430455415
 40
0.5
100
AcDbArc
 50
180.0
 51
270.0
  0
SPLINE
  5
346
100
AcDbEntity
  8
95056301000_BL2
100
AcDbSpline
 62
9
  6
CONTINUOUS
 70
0
 71
3
 72
11
 73
7
 74
0
 42
0.0000001
 43
0.0000001
 44
0.0000000001
 40
0.0
 40
0.0
 40
0.0
 40
0.0
 40
0.2501843567
 40
0.5006913459
 40
0.7507918151
 40
1.0
 40
1.0
 40
1.0
 40
1.0
 10
76.7079156094
 20
153.708591109
 30
0.0
 10
76.7041919752
 20
153.4515286213
 30
0.0
 10
76.5912535851
 20
152.9345724841
 30
0.0
 10
76.1547365843
 20
152.2760489805
 30
0.0
 10
75.4989840858
 20
151.8370207184
 30
0.0
 10
74.9834384865
 20
151.7232883509
 30
0.0
 10
74.7273794722
 20
151.719547318
 30
0.0
  0
SPLINE
  5
347
100
AcDbEntity
  8
95056301000_BL2
100
AcDbSpline
 62
9
  6
CONTINUOUS
 70
0
 71
3
 72
11
 73
7
 74
0
 42
0.0000001
 43
0.0000001
 44
0.0000000001
 40
0.0
 40
0.0
 40
0.0
 40
0.0
 40
0.2492081849
 40
0.4993086541
 40
0.7498156433
 40
1.0
 40
1.0
 40
1.0
 40
1.0
 10
74.7273794722
 20
191.1912936414
 30
0.0
 10
74.9834384865
 20
191.1875526086
 30
0.0
 10
75.4989840858
 20
191.0738202411
 30
0.0
 10
76.1547365843
 20
190.634791979
 30
0.0
 10
76.5912535851
 20
189.9762684754
 30
0.0
 10
76.7041919752
 20
189.4593123382
 30
0.0
 10
76.7079156094
 20
189.2022498505
 30
0.0
  0
SPLINE
  5
348
100
AcDbEntity
  8
95056301000_BL2
100
AcDbSpline
 62
9
  6
CONTINUOUS
 70
0
 71
3
 72
11
 73
7
 74
0
 42
0.0000001
 43
0.0000001
 44
0.0000000001
 40
0.0
 40
0.0
 40
0.0
 40
0.0
 40
0.2492081849
 40
0.4993086541
 40
0.7498156433
 40
1.0
 40
1.0
 40
1.0
 40
1.0
 10
67.8614198489
 20
151.719547318
 30
0.0
 10
67.6053608345
 20
151.7232883509
 30
0.0
 10
67.0898152353
 20
151.8370207184
 30
0.0
 10
66.4340627368
 20
152.2760489805
 30
0.0
 10
65.997545736
 20
152.9345724841
 30
0.0
 10
65.8846073459
 20
153.4515286213
 30
0.0
 10
65.8808837117
 20
153.708591109
 30
0.0
  0
SPLINE
  5
349
100
AcDbEntity
  8
95056301000_BL2
100
AcDbSpline
 62
9
  6
CONTINUOUS
 70
0
 71
3
 72
11
 73
7
 74
0
 42
0.0000001
 43
0.0000001
 44
0.0000000001
 40
0.0
 40
0.0
 40
0.0
 40
0.0
 40
0.2501843567
 40
0.5006913459
 40
0.7507918151
 40
1.0
 40
1.0
 40
1.0
 40
1.0
 10
65.8808837117
 20
189.2022498505
 30
0.0
 10
65.8846073459
 20
189.4593123382
 30
0.0
 10
65.997545736
 20
189.9762684754
 30
0.0
 10
66.4340627368
 20
190.634791979
 30
0.0
 10
67.0898152353
 20
191.0738202411
 30
0.0
 10
67.6053608345
 20
191.1875526086
 30
0.0
 10
67.8614198489
 20
191.1912936414
 30
0.0
  0
SPLINE
  5
34A
100
AcDbEntity
  8
95056301000_BL2
100
AcDbSpline
 62
9
  6
CONTINUOUS
 70
0
 71
3
 72
11
 73
7
 74
0
 42
0.0000001
 43
0.0000001
 44
0.0000000001
 40
0.0
 40
0.0
 40
0.0
 40
0.0
 40
0.2500414059
 40
0.5000204115
 40
0.7499876647
 40
1.0
 40
1.0
 40
1.0
 40
1.0
 10
68.5409393612
 20
189.6885467676
 30
0.0
 10
68.4116915117
 20
189.6884991236
 30
0.0
 10
68.1503843151
 20
189.6379239458
 30
0.0
 10
67.8189346893
 20
189.4183928317
 30
0.0
 10
67.5972043599
 20
189.0883040942
 30
0.0
 10
67.5459041519
 20
188.826959138
 30
0.0
 10
67.5458578598
 20
188.6977263148
 30
0.0
  0
SPLINE
  5
34B
100
AcDbEntity
  8
95056301000_BL2
100
AcDbSpline
 62
9
  6
CONTINUOUS
 70
0
 71
3
 72
11
 73
7
 74
0
 42
0.0000001
 43
0.0000001
 44
0.0000000001
 40
0.0
 40
0.0
 40
0.0
 40
0.0
 40
0.2500127325
 40
0.4999801496
 40
0.7499589952
 40
1.0
 40
1.0
 40
1.0
 40
1.0
 10
75.042942075
 20
188.6977216038
 30
0.0
 10
75.0428931464
 20
188.8269546386
 30
0.0
 10
74.9916000479
 20
189.088300359
 30
0.0
 10
74.7698673254
 20
189.4183900742
 30
0.0
 10
74.438418761
 20
189.6379190249
 30
0.0
 10
74.1771122473
 20
189.688501087
 30
0.0
 10
74.047864597
 20
189.6885461679
 30
0.0
  0
SPLINE
  5
34C
100
AcDbEntity
  8
95056301000_BL2
100
AcDbSpline
 62
9
  6
CONTINUOUS
 70
0
 71
3
 72
11
 73
7
 74
0
 42
0.0000001
 43
0.0000001
 44
0.0000000001
 40
0.0
 40
0.0
 40
0.0
 40
0.0
 40
0.2500410054
 40
0.50001985
 40
0.7499872677
 40
1.0
 40
1.0
 40
1.0
 40
1.0
 10
74.0478646216
 20
153.2222947948
 30
0.0
 10
74.1771122721
 20
153.2223398656
 30
0.0
 10
74.4384187843
 20
153.2729219534
 30
0.0
 10
74.7698673432
 20
153.4924509022
 30
0.0
 10
74.9916000621
 20
153.8225406241
 30
0.0
 10
75.042893145
 20
154.0838863449
 30
0.0
 10
75.0429420781
 20
154.2131193794
 30
0.0
  0
SPLINE
  5
34D
100
AcDbEntity
  8
95056301000_BL2
100
AcDbSpline
 62
9
  6
CONTINUOUS
 70
0
 71
3
 72
11
 73
7
 74
0
 42
0.0000001
 43
0.0000001
 44
0.0000000001
 40
0.0
 40
0.0
 40
0.0
 40
0.0
 40
0.2500123357
 40
0.4999795882
 40
0.7499585945
 40
1.0
 40
1.0
 40
1.0
 40
1.0
 10
67.5458578628
 20
154.2131146214
 30
0.0
 10
67.5459041477
 20
154.0838817977
 30
0.0
 10
67.5972043756
 20
153.8225368419
 30
0.0
 10
67.8189347073
 20
153.4924481107
 30
0.0
 10
68.150384339
 20
153.2729169965
 30
0.0
 10
68.4116915372
 20
153.2223418396
 30
0.0
 10
68.5409393867
 20
153.2222941886
 30
0.0
  0
SPLINE
  5
34E
100
AcDbEntity
  8
95056301000_BL2
100
AcDbSpline
 62
9
  6
CONTINUOUS
 70
0
 71
3
 72
21
 73
17
 74
0
 42
0.0000001
 43
0.0000001
 44
0.0000000001
 40
0.0
 40
0.0
 40
0.0
 40
0.0
 40
0.0230194988
 40
0.0413414745
 40
0.0623293425
 40
0.0891520103
 40
0.1592514863
 40
0.2425382949
 40
0.3259669987
 40
0.3977994358
 40
0.5133790853
 40
0.6259376718
 40
0.7696533548
 40
0.846304994
 40
0.9144286985
 40
1.0
 40
1.0
 40
1.0
 40
1.0
 10
67.5943996605
 20
191.3983379562
 30
0.0
 10
67.592348554
 20
191.3965577099
 30
0.0
 10
67.5888421737
 20
191.392730456
 30
0.0
 10
67.5885006375
 20
191.3848312125
 30
0.0
 10
67.5929844428
 20
191.3780875417
 30
0.0
 10
67.6034620025
 20
191.3689208224
 30
0.0
 10
67.6221897997
 20
191.3584944124
 30
0.0
 10
67.6473777996
 20
191.3465200561
 30
0.0
 10
67.6728786705
 20
191.3345932632
 30
0.0
 10
67.700678771
 20
191.3186030587
 30
0.0
 10
67.7273305607
 20
191.2951600402
 30
0.0
 10
67.759579451
 20
191.2650493037
 30
0.0
 10
67.794489409
 20
191.2469607623
 30
0.0
 10
67.8250172778
 20
191.2305731787
 30
0.0
 10
67.8469003944
 20
191.2180460335
 30
0.0
 10
67.8645410827
 20
191.2008951219
 30
0.0
 10
67.8614198405
 20
191.1912936477
 30
0.0
  0
SPLINE
  5
34F
100
AcDbEntity
  8
95056301000_BL2
100
AcDbSpline
 62
9
  6
CONTINUOUS
 70
0
 71
3
 72
21
 73
17
 74
0
 42
0.0000001
 43
0.0000001
 44
0.0000000001
 40
0.0
 40
0.0
 40
0.0
 40
0.0
 40
0.0230194988
 40
0.0413414745
 40
0.0623293425
 40
0.0891520103
 40
0.1592514863
 40
0.2425382949
 40
0.3259669987
 40
0.3977994358
 40
0.5133790853
 40
0.6259376718
 40
0.7696533548
 40
0.846304994
 40
0.9144286985
 40
1.0
 40
1.0
 40
1.0
 40
1.0
 10
74.9943996605
 20
191.3983379562
 30
0.0
 10
74.996450767
 20
191.3965577099
 30
0.0
 10
74.9999571473
 20
191.392730456
 30
0.0
 10
75.0002986835
 20
191.3848312125
 30
0.0
 10
74.9958148783
 20
191.3780875417
 30
0.0
 10
74.9853373186
 20
191.3689208224
 30
0.0
 10
74.9666095214
 20
191.3584944124
 30
0.0
 10
74.9414215215
 20
191.3465200561
 30
0.0
 10
74.9159206506
 20
191.3345932632
 30
0.0
 10
74.88812055
 20
191.3186030587
 30
0.0
 10
74.8614687604
 20
191.2951600402
 30
0.0
 10
74.8292198701
 20
191.2650493037
 30
0.0
 10
74.7943099121
 20
191.2469607623
 30
0.0
 10
74.7637820433
 20
191.2305731787
 30
0.0
 10
74.7418989267
 20
191.2180460335
 30
0.0
 10
74.7242582383
 20
191.2008951219
 30
0.0
 10
74.7273794805
 20
191.1912936477
 30
0.0
  0
SPLINE
  5
350
100
AcDbEntity
  8
95056301000_BL2
100
AcDbSpline
 62
9
  6
CONTINUOUS
 70
0
 71
3
 72
21
 73
17
 74
0
 42
0.0000001
 43
0.0000001
 44
0.0000000001
 40
0.0
 40
0.0
 40
0.0
 40
0.0
 40
0.0230194988
 40
0.0413414745
 40
0.0623293425
 40
0.0891520103
 40
0.1592514863
 40
0.2425382949
 40
0.3259669987
 40
0.3977994358
 40
0.5133790853
 40
0.6259376718
 40
0.7696533548
 40
0.846304994
 40
0.9144286985
 40
1.0
 40
1.0
 40
1.0
 40
1.0
 10
74.9943996605
 20
151.5125030032
 30
0.0
 10
74.996450767
 20
151.5142832495
 30
0.0
 10
74.9999571473
 20
151.5181105035
 30
0.0
 10
75.0002986835
 20
151.526009747
 30
0.0
 10
74.9958148783
 20
151.5327534178
 30
0.0
 10
74.9853373186
 20
151.5419201371
 30
0.0
 10
74.9666095214
 20
151.5523465471
 30
0.0
 10
74.9414215215
 20
151.5643209034
 30
0.0
 10
74.9159206506
 20
151.5762476963
 30
0.0
 10
74.88812055
 20
151.5922379008
 30
0.0
 10
74.8614687604
 20
151.6156809193
 30
0.0
 10
74.8292198701
 20
151.6457916558
 30
0.0
 10
74.7943099121
 20
151.6638801972
 30
0.0
 10
74.7637820433
 20
151.6802677808
 30
0.0
 10
74.7418989267
 20
151.6927949259
 30
0.0
 10
74.7242582383
 20
151.7099458375
 30
0.0
 10
74.7273794805
 20
151.7195473118
 30
0.0
  0
SPLINE
  5
351
100
AcDbEntity
  8
95056301000_BL2
100
AcDbSpline
 62
9
  6
CONTINUOUS
 70
0
 71
3
 72
21
 73
17
 74
0
 42
0.0000001
 43
0.0000001
 44
0.0000000001
 40
0.0
 40
0.0
 40
0.0
 40
0.0
 40
0.0230194988
 40
0.0413414745
 40
0.0623293425
 40
0.0891520103
 40
0.1592514863
 40
0.2425382949
 40
0.3259669987
 40
0.3977994358
 40
0.5133790853
 40
0.6259376718
 40
0.7696533548
 40
0.846304994
 40
0.9144286985
 40
1.0
 40
1.0
 40
1.0
 40
1.0
 10
67.5943996605
 20
151.5125030032
 30
0.0
 10
67.592348554
 20
151.5142832495
 30
0.0
 10
67.5888421737
 20
151.5181105035
 30
0.0
 10
67.5885006375
 20
151.526009747
 30
0.0
 10
67.5929844428
 20
151.5327534178
 30
0.0
 10
67.6034620025
 20
151.5419201371
 30
0.0
 10
67.6221897997
 20
151.5523465471
 30
0.0
 10
67.6473777996
 20
151.5643209034
 30
0.0
 10
67.6728786705
 20
151.5762476963
 30
0.0
 10
67.700678771
 20
151.5922379008
 30
0.0
 10
67.7273305607
 20
151.6156809193
 30
0.0
 10
67.759579451
 20
151.6457916558
 30
0.0
 10
67.794489409
 20
151.6638801972
 30
0.0
 10
67.8250172778
 20
151.6802677808
 30
0.0
 10
67.8469003944
 20
151.6927949259
 30
0.0
 10
67.8645410827
 20
151.7099458375
 30
0.0
 10
67.8614198405
 20
151.7195473118
 30
0.0
  0
SPLINE
  5
352
100
AcDbEntity
  8
95056301000_BL2
100
AcDbSpline
 62
7
  6
CONTINUOUS
 70
0
 71
3
 72
13
 73
9
 74
0
 42
0.0000001
 43
0.0000001
 44
0.0000000001
 40
0.0
 40
0.0
 40
0.0
 40
0.0
 40
0.1250206428
 40
0.2500143672
 40
0.3750173145
 40
0.5000318698
 40
0.749909564
 40
1.0
 40
1.0
 40
1.0
 40
1.0
 10
16.930962216
 20
147.4391391824
 30
0.0
 10
16.930962216
 20
147.7287919824
 30
0.0
 10
16.9879281217
 20
148.3092658715
 30
0.0
 10
17.2239522092
 20
149.1492812228
 30
0.0
 10
17.5854937934
 20
149.9426052912
 30
0.0
 10
18.2000866768
 20
150.9274252514
 30
0.0
 10
19.1557408465
 20
152.0250297113
 30
0.0
 10
20.0057845621
 20
152.8117824619
 30
0.0
 10
20.430962216
 20
153.2054204797
 30
0.0
  0
SPLINE
  5
353
100
AcDbEntity
  8
95056301000_BL2
100
AcDbSpline
 62
7
  6
CONTINUOUS
 70
0
 71
3
 72
13
 73
9
 74
0
 42
0.0000001
 43
0.0000001
 44
0.0000000001
 40
0.0
 40
0.0
 40
0.0
 40
0.0
 40
0.2500900345
 40
0.4999672098
 40
0.6249816532
 40
0.7499848189
 40
0.8749789667
 40
1.0
 40
1.0
 40
1.0
 40
1.0
 10
20.430962216
 20
189.7054204797
 30
0.0
 10
20.0057852453
 20
190.0990578652
 30
0.0
 10
19.1557431063
 20
190.8858091786
 30
0.0
 10
18.2000901193
 20
191.983411404
 30
0.0
 10
17.5854968709
 20
192.9682299913
 30
0.0
 10
17.2239539836
 20
193.7615548169
 30
0.0
 10
16.9879284861
 20
194.6015722851
 30
0.0
 10
16.930962216
 20
195.1820480727
 30
0.0
 10
16.930962216
 20
195.4717017771
 30
0.0
  0
SPLINE
  5
354
100
AcDbEntity
  8
95056301000_BL2
100
AcDbSpline
 62
7
  6
CONTINUOUS
 70
0
 71
3
 72
17
 73
13
 74
0
 42
0.0000001
 43
0.0000001
 44
0.0000000001
 40
0.0
 40
0.0
 40
0.0
 40
0.0
 40
0.1283786017
 40
0.2551044218
 40
0.3799820501
 40
0.5029589098
 40
0.6243115503
 40
0.7451591079
 40
0.8064505693
 40
0.8690767661
 40
0.9336745634
 40
1.0
 40
1.0
 40
1.0
 40
1.0
 10
15.630962216
 20
202.0017586727
 30
0.0
 10
15.630962216
 20
202.1229330141
 30
0.0
 10
15.6336163133
 20
202.3637421701
 30
0.0
 10
15.6506027614
 20
202.7221165824
 30
0.0
 10
15.6867468897
 20
203.0740655595
 30
0.0
 10
15.7504012233
 20
203.4172913187
 30
0.0
 10
15.8534410959
 20
203.7472376514
 30
0.0
 10
15.9883169684
 20
204.0033315283
 30
0.0
 10
16.1380212591
 20
204.1805941984
 30
0.0
 10
16.2771935197
 20
204.2936424168
 30
0.0
 10
16.4440448902
 20
204.3728451938
 30
0.0
 10
16.5683587836
 20
204.3924803171
 30
0.0
 10
16.630962216
 20
204.3924803171
 30
0.0
  0
SPLINE
  5
355
100
AcDbEntity
  8
95056301000_BL2
100
AcDbSpline
 62
7
  6
CONTINUOUS
 70
0
 71
3
 72
17
 73
13
 74
0
 42
0.0000001
 43
0.0000001
 44
0.0000000001
 40
0.0
 40
0.0
 40
0.0
 40
0.0
 40
0.0663172342
 40
0.1309049269
 40
0.1935245942
 40
0.2548196697
 40
0.3756682294
 40
0.4970247992
 40
0.620006076
 40
0.7448882067
 40
0.8716180934
 40
1.0
 40
1.0
 40
1.0
 40
1.0
 10
16.630962216
 20
138.5183606424
 30
0.0
 10
16.5683664527
 20
138.5183606424
 30
0.0
 10
16.4440624494
 20
138.537962174
 30
0.0
 10
16.2772491982
 20
138.6171922477
 30
0.0
 10
16.138062072
 20
138.7301969379
 30
0.0
 10
15.9883505284
 20
138.90745564
 30
0.0
 10
15.8534585604
 20
139.1635489361
 30
0.0
 10
15.7504101314
 20
139.4935034036
 30
0.0
 10
15.6867499798
 20
139.8367406683
 30
0.0
 10
15.6506034068
 20
140.1887022649
 30
0.0
 10
15.633616855
 20
140.5470882936
 30
0.0
 10
15.630962216
 20
140.7879046845
 30
0.0
 10
15.630962216
 20
140.9090822868
 30
0.0
  0
SPLINE
  5
356
100
AcDbEntity
  8
95056301000_BL2
100
AcDbSpline
 62
9
  6
CONTINUOUS
 70
0
 71
3
 72
19
 73
15
 74
0
 42
0.0000001
 43
0.0000001
 44
0.0000000001
 40
0.0
 40
0.0
 40
0.0
 40
0.0
 40
0.1926682164
 40
0.3778023184
 40
0.5483775333
 40
0.6980867592
 40
0.8213758255
 40
0.871699198
 40
0.9138786107
 40
0.9476219464
 40
0.9728152371
 40
0.9822693919
 40
0.9897608543
 40
1.0
 40
1.0
 40
1.0
 40
1.0
 10
29.1093084179
 20
153.943047283
 30
0.0
 10
29.1225082099
 20
153.7503298194
 30
0.0
 10
29.1450444707
 20
153.3721918794
 30
0.0
 10
29.1676760662
 20
152.8228246292
 30
0.0
 10
29.1780917737
 20
152.3161500025
 30
0.0
 10
29.1759768453
 20
151.8713871404
 30
0.0
 10
29.1636841188
 20
151.5473318141
 30
0.0
 10
29.1461467272
 20
151.3316569533
 30
0.0
 10
29.1311525882
 20
151.2059292129
 30
0.0
 10
29.1134432137
 20
151.1060326393
 30
0.0
 10
29.0959209603
 20
151.039622212
 30
0.0
 10
29.0791065437
 20
151.0005346405
 30
0.0
 10
29.0654786864
 20
150.9774243094
 30
0.0
 10
29.0502276433
 20
150.9642056262
 30
0.0
 10
29.0400191425
 20
150.963122895
 30
0.0
  0
SPLINE
  5
357
100
AcDbEntity
  8
95056301000_BL2
100
AcDbSpline
 62
7
  6
CONTINUOUS
 70
0
 71
3
 72
20
 73
16
 74
0
 42
0.0000001
 43
0.0000001
 44
0.0000000001
 40
0.0
 40
0.0
 40
0.0
 40
0.0
 40
0.194318125
 40
0.3811224053
 40
0.5530716134
 40
0.7038331175
 40
0.7694238616
 40
0.8276652296
 40
0.8780096144
 40
0.9199944042
 40
0.9532891126
 40
0.977616213
 40
0.9929204269
 40
0.9973342915
 40
1.0
 40
1.0
 40
1.0
 40
1.0
 10
21.8318438403
 20
153.1781549339
 30
0.0
 10
21.8443161081
 20
152.985297193
 30
0.0
 10
21.8655954975
 20
152.6068274332
 30
0.0
 10
21.8880733671
 20
152.0572042557
 30
0.0
 10
21.9007714277
 20
151.5505999657
 30
0.0
 10
21.9035645077
 20
151.1643911163
 30
0.0
 10
21.900507272
 20
150.8912997275
 30
0.0
 10
21.896097701
 20
150.7181249402
 30
0.0
 10
21.8896311096
 20
150.5684888535
 30
0.0
 10
21.8812872398
 20
150.4438532719
 30
0.0
 10
21.8714179211
 20
150.3451474198
 30
0.0
 10
21.8603916739
 20
150.2736597626
 30
0.0
 10
21.849588163
 20
150.2306315737
 30
0.0
 10
21.8398925162
 20
150.2108010176
 30
0.0
 10
21.8339342157
 20
150.2057328495
 30
0.0
 10
21.8312975379
 20
150.2054557235
 30
0.0
  0
SPLINE
  5
358
100
AcDbEntity
  8
95056301000_BL2
100
AcDbSpline
 62
9
  6
CONTINUOUS
 70
0
 71
3
 72
19
 73
15
 74
0
 42
0.0000001
 43
0.0000001
 44
0.0000000001
 40
0.0
 40
0.0
 40
0.0
 40
0.0
 40
0.0102391459
 40
0.0177306089
 40
0.0271847642
 40
0.0523780551
 40
0.0861213903
 40
0.1283008025
 40
0.1786241751
 40
0.3019132415
 40
0.4516224672
 40
0.622197682
 40
0.8073317838
 40
1.0
 40
1.0
 40
1.0
 40
1.0
 10
29.0400191425
 20
191.9477180645
 30
0.0
 10
29.0502276437
 20
191.9466353354
 30
0.0
 10
29.0654786888
 20
191.9334166516
 30
0.0
 10
29.0791065477
 20
191.9103063204
 30
0.0
 10
29.0959209661
 20
191.8712187479
 30
0.0
 10
29.1134432175
 20
191.8048083197
 30
0.0
 10
29.1311525869
 20
191.7049117459
 30
0.0
 10
29.1461467239
 20
191.5791840062
 30
0.0
 10
29.1636841189
 20
191.3635091458
 30
0.0
 10
29.1759768457
 20
191.0394538192
 30
0.0
 10
29.1780917747
 20
190.5946909569
 30
0.0
 10
29.1676760667
 20
190.0880163302
 30
0.0
 10
29.1450444637
 20
189.5386490805
 30
0.0
 10
29.1225082146
 20
189.1605111398
 30
0.0
 10
29.1093084179
 20
188.9677936765
 30
0.0
  0
SPLINE
  5
359
100
AcDbEntity
  8
95056301000_BL2
100
AcDbSpline
 62
7
  6
CONTINUOUS
 70
0
 71
3
 72
20
 73
16
 74
0
 42
0.0000001
 43
0.0000001
 44
0.0000000001
 40
0.0
 40
0.0
 40
0.0
 40
0.0
 40
0.0026657085
 40
0.0070795731
 40
0.022383787
 40
0.0467108874
 40
0.0800055958
 40
0.1219903856
 40
0.1723347704
 40
0.2305761384
 40
0.2961668825
 40
0.4469283866
 40
0.6188775947
 40
0.805681875
 40
1.0
 40
1.0
 40
1.0
 40
1.0
 10
21.8312975379
 20
192.705385236
 30
0.0
 10
21.8339342157
 20
192.70510811
 30
0.0
 10
21.8398925162
 20
192.7000399419
 30
0.0
 10
21.849588163
 20
192.6802093858
 30
0.0
 10
21.8603916739
 20
192.6371811969
 30
0.0
 10
21.8714179211
 20
192.5656935397
 30
0.0
 10
21.8812872398
 20
192.4669876876
 30
0.0
 10
21.8896311096
 20
192.342352106
 30
0.0
 10
21.896097701
 20
192.1927160193
 30
0.0
 10
21.900507272
 20
192.019541232
 30
0.0
 10
21.9035645077
 20
191.7464498432
 30
0.0
 10
21.9007714277
 20
191.3602409938
 30
0.0
 10
21.8880733671
 20
190.8536367038
 30
0.0
 10
21.8655954975
 20
190.3040135263
 30
0.0
 10
21.8443161081
 20
189.9255437665
 30
0.0
 10
21.8318438403
 20
189.7326860256
 30
0.0
  0
SPLINE
  5
35A
100
AcDbEntity
  8
95056301000_BL2
100
AcDbSpline
 62
7
  6
CONTINUOUS
 70
0
 71
3
 72
19
 73
15
 74
0
 42
0.0000001
 43
0.0000001
 44
0.0000000001
 40
0.0
 40
0.0
 40
0.0
 40
0.0
 40
0.0081138918
 40
0.014967885
 40
0.0239624158
 40
0.0485875184
 40
0.0820812741
 40
0.1241991917
 40
0.1746220467
 40
0.2984476519
 40
0.4489774132
 40
0.6204566151
 40
0.8065666553
 40
1.0
 40
1.0
 40
1.0
 40
1.0
 10
21.8318438403
 20
86.0929216372
 30
0.0
 10
21.8398750576
 20
86.0917929233
 30
0.0
 10
21.8500412086
 20
86.0769200695
 30
0.0
 10
21.8582399694
 20
86.0554176662
 30
0.0
 10
21.8688961388
 20
86.0158623191
 30
0.0
 10
21.8790109797
 20
85.9497369097
 30
0.0
 10
21.8885487185
 20
85.8498536102
 30
0.0
 10
21.8956134661
 20
85.7240971349
 30
0.0
 10
21.9023767425
 20
85.5079030681
 30
0.0
 10
21.9034667906
 20
85.1832374119
 30
0.0
 10
21.8959857067
 20
84.73765441
 30
0.0
 10
21.880309297
 20
84.2299992426
 30
0.0
 10
21.8578448399
 20
83.6796841717
 30
0.0
 10
21.840204886
 20
83.3007259745
 30
0.0
 10
21.8312975379
 20
83.1075872499
 30
0.0
  0
SPLINE
  5
35B
100
AcDbEntity
  8
95056301000_BL2
100
AcDbSpline
 62
9
  6
CONTINUOUS
 70
0
 71
3
 72
19
 73
15
 74
0
 42
0.0000001
 43
0.0000001
 44
0.0000000001
 40
0.0
 40
0.0
 40
0.0
 40
0.0
 40
0.0084035408
 40
0.0153305889
 40
0.0243732226
 40
0.04904794
 40
0.0825285384
 40
0.12461831
 40
0.1749807916
 40
0.298635046
 40
0.4489741719
 40
0.6203490173
 40
0.8063838103
 40
1.0
 40
1.0
 40
1.0
 40
1.0
 10
29.1093084179
 20
85.070140691
 30
0.0
 10
29.1176090909
 20
85.0689610563
 30
0.0
 10
29.1284586365
 20
85.0543185455
 30
0.0
 10
29.1371525038
 20
85.0325050847
 30
0.0
 10
29.1482458823
 20
84.9930195295
 30
0.0
 10
29.1585116169
 20
84.9268947055
 30
0.0
 10
29.1677236985
 20
84.8271762442
 30
0.0
 10
29.1738072544
 20
84.7016891183
 30
0.0
 10
29.1781700883
 20
84.4860937464
 30
0.0
 10
29.1741718243
 20
84.1624515074
 30
0.0
 10
29.1576696634
 20
83.7183949733
 30
0.0
 10
29.129274415
 20
83.2125921503
 30
0.0
 10
29.0899793587
 20
82.6642312441
 30
0.0
 10
29.0577089736
 20
82.2868234926
 30
0.0
 10
29.0400191425
 20
82.0944674985
 30
0.0
  0
SPLINE
  5
35C
100
AcDbEntity
  8
95056301000_BL2
100
AcDbSpline
 62
9
  6
CONTINUOUS
 70
0
 71
3
 72
19
 73
15
 74
0
 42
0.0000001
 43
0.0000001
 44
0.0000000001
 40
0.0
 40
0.0
 40
0.0
 40
0.0
 40
0.1936161897
 40
0.3796509829
 40
0.5510258282
 40
0.7013649542
 40
0.8250192085
 40
0.8753816901
 40
0.9174714619
 40
0.9509520607
 40
0.9756267777
 40
0.9846694109
 40
0.9915964585
 40
1.0
 40
1.0
 40
1.0
 40
1.0
 10
29.0400191425
 20
75.5916235845
 30
0.0
 10
29.0577089732
 20
75.3992675903
 30
0.0
 10
29.0899793687
 20
75.0218598396
 30
0.0
 10
29.1292744126
 20
74.4734989324
 30
0.0
 10
29.1576696617
 20
73.9676961095
 30
0.0
 10
29.1741718253
 20
73.5236395755
 30
0.0
 10
29.1781700882
 20
73.1999973366
 30
0.0
 10
29.1738072564
 20
72.9844019646
 30
0.0
 10
29.1677236987
 20
72.8589148382
 30
0.0
 10
29.1585116132
 20
72.7591963771
 30
0.0
 10
29.1482458783
 20
72.6930715537
 30
0.0
 10
29.1371525028
 20
72.6535859995
 30
0.0
 10
29.1284586377
 20
72.6317725373
 30
0.0
 10
29.1176090914
 20
72.6171300283
 30
0.0
 10
29.1093084179
 20
72.6159503919
 30
0.0
  0
SPLINE
  5
35D
100
AcDbEntity
  8
95056301000_BL2
100
AcDbSpline
 62
7
  6
CONTINUOUS
 70
0
 71
3
 72
19
 73
15
 74
0
 42
0.0000001
 43
0.0000001
 44
0.0000000001
 40
0.0
 40
0.0
 40
0.0
 40
0.0
 40
0.1934333447
 40
0.3795433849
 40
0.5510225868
 40
0.7015523481
 40
0.8253779533
 40
0.8758008083
 40
0.9179187259
 40
0.9514124816
 40
0.9760375842
 40
0.985032115
 40
0.9918861082
 40
1.0
 40
1.0
 40
1.0
 40
1.0
 10
21.8312975379
 20
74.578503833
 30
0.0
 10
21.840204886
 20
74.3853651085
 30
0.0
 10
21.8578448399
 20
74.0064069112
 30
0.0
 10
21.880309297
 20
73.4560918404
 30
0.0
 10
21.8959857067
 20
72.9484366729
 30
0.0
 10
21.9034667906
 20
72.502853671
 30
0.0
 10
21.9023767425
 20
72.1781880148
 30
0.0
 10
21.8956134661
 20
71.961993948
 30
0.0
 10
21.8885487185
 20
71.8362374727
 30
0.0
 10
21.8790109797
 20
71.7363541732
 30
0.0
 10
21.8688961388
 20
71.6702287638
 30
0.0
 10
21.8582399694
 20
71.6306734167
 30
0.0
 10
21.8500412086
 20
71.6091710134
 30
0.0
 10
21.8398750576
 20
71.5942981597
 30
0.0
 10
21.8318438403
 20
71.5931694457
 30
0.0
  0
ELLIPSE
  5
35E
100
AcDbEntity
  8
95056301000_BL2
100
AcDbEllipse
 62
7
  6
CONTINUOUS
 10
43.1770713831
 20
153.2054204797
 30
0.0
 11
21.3461091672
 21
-0.0
 31
0.0
 40
0.1405408347
 41
3.1415926536
 42
3.150681294
  0
ELLIPSE
  5
35F
100
AcDbEntity
  8
95056301000_BL2
100
AcDbEllipse
 62
7
  6
CONTINUOUS
 10
43.1770713831
 20
189.7054204797
 30
0.0
 11
21.3461091672
 21
0.0
 31
0.0
 40
0.1405408347
 41
3.1325040132
 42
3.1415926536
  0
ELLIPSE
  5
360
100
AcDbEntity
  8
95056301000_BL2
100
AcDbEllipse
 62
7
  6
CONTINUOUS
 10
50.3740555786
 20
74.5930455415
 30
0.0
 11
28.5430933627
 21
0.0
 31
0.0
 40
0.1051042353
 41
3.1415926536
 42
3.1464399087
  0
ELLIPSE
  5
361
100
AcDbEntity
  8
95056301000_BL2
100
AcDbEllipse
 62
7
  6
CONTINUOUS
 10
50.3740555786
 20
83.0930455415
 30
0.0
 11
28.5430933627
 21
0.0
 31
0.0
 40
0.1051042353
 41
3.1367453985
 42
3.1415926536
  0
ENDBLK
  5
362
100
AcDbEntity
  8
0
  6
BYBLOCK
 62
0
100
AcDbBlockEnd
  0
BLOCK
  5
363
100
AcDbEntity
  8
94528902000_M_BL3
100
AcDbBlockBegin
  2
94528902000_M_BL3
 70
64
 10
47.4626809383
 20
141.4492330106
  3
94528902000_M_BL3
  1

  0
LINE
  5
364
100
AcDbEntity
  8
94528902000_M_BL3
100
AcDbLine
 62
7
  6
CONTINUOUS
 10
70.4193996605
 20
204.5709649364
 11
69.5443996605
 21
203.0554204797
  0
LINE
  5
365
100
AcDbEntity
  8
94528902000_M_BL3
100
AcDbLine
 62
7
  6
CONTINUOUS
 10
72.1693996605
 20
201.5398760231
 11
73.0443996605
 21
203.0554204797
  0
LINE
  5
366
100
AcDbEntity
  8
94528902000_M_BL3
100
AcDbLine
 62
7
  6
CONTINUOUS
 10
69.5443996605
 20
203.0554204797
 11
70.4193996605
 21
201.5398760231
  0
LINE
  5
367
100
AcDbEntity
  8
94528902000_M_BL3
100
AcDbLine
 62
7
  6
CONTINUOUS
 10
73.0443996605
 20
203.0554204797
 11
72.1693996605
 21
204.5709649364
  0
LINE
  5
368
100
AcDbEntity
  8
94528902000_M_BL3
100
AcDbLine
 62
7
  6
CONTINUOUS
 10
70.4193996605
 20
201.5398760231
 11
72.1693996605
 21
201.5398760231
  0
LINE
  5
369
100
AcDbEntity
  8
94528902000_M_BL3
100
AcDbLine
 62
7
  6
CONTINUOUS
 10
72.1693996605
 20
204.5709649364
 11
70.4193996605
 21
204.5709649364
  0
CIRCLE
  5
36A
100
AcDbEntity
  8
94528902000_M_BL3
100
AcDbCircle
 62
7
  6
CONTINUOUS
 10
71.2943996605
 20
201.5554204797
 40
5.5
  0
CIRCLE
  5
36B
100
AcDbEntity
  8
94528902000_M_BL3
100
AcDbCircle
 62
7
  6
CONTINUOUS
 10
71.2943996605
 20
203.0554204797
 40
1.75
  0
CIRCLE
  5
36C
100
AcDbEntity
  8
94528902000_M_BL3
100
AcDbCircle
 62
7
  6
CONTINUOUS
 10
71.2943996605
 20
203.0554204797
 40
1.515
  0
CIRCLE
  5
36D
100
AcDbEntity
  8
94528902000_M_BL3
100
AcDbCircle
 62
7
  6
CONTINUOUS
 10
71.2943996605
 20
199.0554204797
 40
0.75
  0
ARC
  5
36E
100
AcDbEntity
  8
94528902000_M_BL3
100
AcDbCircle
 62
7
  6
CONTINUOUS
 10
15.4852109049
 20
203.0554204797
 40
4.0
100
AcDbArc
 50
311.4096221093
 51
48.5903778907
  0
ARC
  5
36F
100
AcDbEntity
  8
94528902000_M_BL3
100
AcDbCircle
 62
7
  6
CONTINUOUS
 10
15.4852109049
 20
78.8430455415
 40
4.0
100
AcDbArc
 50
311.4096221093
 51
48.5903778907
  0
ENDBLK
  5
370
100
AcDbEntity
  8
0
  6
BYBLOCK
 62
0
100
AcDbBlockEnd
  0
BLOCK
  5
371
100
AcDbEntity
  8
91511100000_BL4
100
AcDbBlockBegin
  2
91511100000_BL4
 70
64
 10
17.530962216
 20
139.8554204797
  3
91511100000_BL4
  1

  0
LINE
  5
372
100
AcDbEntity
  8
91511100000_BL4
100
AcDbLine
 62
7
  6
CONTINUOUS
 10
18.130962216
 20
135.8554204797
 11
16.930962216
 21
135.8554204797
  0
LINE
  5
373
100
AcDbEntity
  8
91511100000_BL4
100
AcDbLine
 62
7
  6
CONTINUOUS
 10
18.130962216
 20
143.8554204797
 11
16.930962216
 21
143.8554204797
  0
LINE
  5
374
100
AcDbEntity
  8
91511100000_BL4
100
AcDbLine
 62
7
  6
CONTINUOUS
 10
18.130962216
 20
135.8554204797
 11
18.130962216
 21
143.8554204797
  0
ENDBLK
  5
375
100
AcDbEntity
  8
0
  6
BYBLOCK
 62
0
100
AcDbBlockEnd
  0
BLOCK
  5
376
100
AcDbEntity
  8
91511100000_BL5
100
AcDbBlockBegin
  2
91511100000_BL5
 70
64
 10
17.530962216
 20
140.9492330106
  3
91511100000_BL5
  1

  0
LINE
  5
377
100
AcDbEntity
  8
91511100000_BL5
100
AcDbLine
 62
7
  6
CONTINUOUS
 10
18.130962216
 20
199.0554204797
 11
18.130962216
 21
207.0554204797
  0
LINE
  5
378
100
AcDbEntity
  8
91511100000_BL5
100
AcDbLine
 62
7
  6
CONTINUOUS
 10
18.130962216
 20
199.0554204797
 11
16.930962216
 21
199.0554204797
  0
LINE
  5
379
100
AcDbEntity
  8
91511100000_BL5
100
AcDbLine
 62
7
  6
CONTINUOUS
 10
18.130962216
 20
207.0554204797
 11
16.930962216
 21
207.0554204797
  0
LINE
  5
37A
100
AcDbEntity
  8
91511100000_BL5
100
AcDbLine
 62
7
  6
CONTINUOUS
 10
18.130962216
 20
74.8430455415
 11
16.930962216
 21
74.8430455415
  0
LINE
  5
37B
100
AcDbEntity
  8
91511100000_BL5
100
AcDbLine
 62
7
  6
CONTINUOUS
 10
18.130962216
 20
74.8430455415
 11
18.130962216
 21
82.8430455415
  0
LINE
  5
37C
100
AcDbEntity
  8
91511100000_BL5
100
AcDbLine
 62
7
  6
CONTINUOUS
 10
18.130962216
 20
82.8430455415
 11
16.930962216
 21
82.8430455415
  0
ENDBLK
  5
37D
100
AcDbEntity
  8
0
  6
BYBLOCK
 62
0
100
AcDbBlockEnd
  0
BLOCK
  5
37E
100
AcDbEntity
  8
0
100
AcDbBlockBegin
  2
_FILLED
 70
64
 10
0.0
 20
0.0
  3
_FILLED
  1

  0
SOLID
  5
37F
100
AcDbEntity
  8
0
  6
BYBLOCK
 62
0
100
AcDbTrace
 10
0.0
 20
0.0
 11
-1.0
 21
0.1428571429
 12
-1.0
 22
-0.1428571429
 13
-1.0
 23
-0.1428571429
  0
ENDBLK
  5
380
100
AcDbEntity
  8
0
  6
BYBLOCK
 62
0
100
AcDbBlockEnd
  0
BLOCK
  5
381
100
AcDbEntity
  8
0
100
AcDbBlockBegin
 62
2
  6
CONTINUOUS
  2
*D0
 70
65
 10
0.0
 20
0.0
  3
*D0
  1

  0
TEXT
  5
382
100
AcDbEntity
  8
0
100
AcDbText
 62
5
  6
CONTINUOUS
 10
40.205962216
 20
169.5130412976
  7
STANDARD
 40
2.5
  1
74
 50
90.0
 72
5
 11
40.205962216
 21
173.3977996619
100
AcDbText
  0
LINE
  5
383
100
AcDbEntity
  8
0
100
AcDbLine
 62
2
  6
CONTINUOUS
 10
16.930962216
 20
208.4554204797
 11
41.830962216
 21
208.4554204797
  0
LINE
  5
384
100
AcDbEntity
  8
0
100
AcDbLine
 62
2
  6
CONTINUOUS
 10
16.930962216
 20
134.4554204797
 11
41.830962216
 21
134.4554204797
  0
LINE
  5
385
100
AcDbEntity
  8
0
100
AcDbLine
 62
2
  6
CONTINUOUS
 10
40.830962216
 20
208.4554204797
 11
40.830962216
 21
171.4554204797
  0
LINE
  5
386
100
AcDbEntity
  8
0
100
AcDbLine
 62
2
  6
CONTINUOUS
 10
40.830962216
 20
134.4554204797
 11
40.830962216
 21
171.4554204797
  0
INSERT
  5
387
100
AcDbEntity
  8
0
100
AcDbBlockReference
 62
2
  6
CONTINUOUS
  2
_FILLED
 10
40.830962216
 20
208.4554204797
 41
3.5
 42
3.5
 43
3.5
 50
90.0
  0
INSERT
  5
388
100
AcDbEntity
  8
0
100
AcDbBlockReference
 62
2
  6
CONTINUOUS
  2
_FILLED
 10
40.830962216
 20
134.4554204797
 41
3.5
 42
3.5
 43
3.5
 50
270.0
  0
ENDBLK
  5
389
100
AcDbEntity
  8
0
  6
BYBLOCK
 62
0
100
AcDbBlockEnd
  0
BLOCK
  5
38A
100
AcDbEntity
  8
0
100
AcDbBlockBegin
 62
2
  6
CONTINUOUS
  2
*D1
 70
65
 10
0.0
 20
0.0
  3
*D1
  1

  0
TEXT
  5
38B
100
AcDbEntity
  8
0
100
AcDbText
 62
5
  6
CONTINUOUS
 10
18.3885830338
 20
102.0804204797
  7
STANDARD
 40
2.5
  1
21
 72
5
 11
22.2733413981
 21
102.0804204797
100
AcDbText
  0
LINE
  5
38C
100
AcDbEntity
  8
0
100
AcDbLine
 62
2
  6
CONTINUOUS
 10
30.830962216
 20
153.943047283
 11
30.830962216
 21
100.4554204797
  0
LINE
  5
38D
100
AcDbEntity
  8
0
100
AcDbLine
 62
2
  6
CONTINUOUS
 10
9.830962216
 20
111.4554204797
 11
9.830962216
 21
100.4554204797
  0
LINE
  5
38E
100
AcDbEntity
  8
0
100
AcDbLine
 62
2
  6
CONTINUOUS
 10
30.830962216
 20
101.4554204797
 11
20.330962216
 21
101.4554204797
  0
LINE
  5
38F
100
AcDbEntity
  8
0
100
AcDbLine
 62
2
  6
CONTINUOUS
 10
9.830962216
 20
101.4554204797
 11
20.330962216
 21
101.4554204797
  0
INSERT
  5
390
100
AcDbEntity
  8
0
100
AcDbBlockReference
 62
2
  6
CONTINUOUS
  2
_FILLED
 10
30.830962216
 20
101.4554204797
 41
3.5
 42
3.5
 43
3.5
  0
INSERT
  5
391
100
AcDbEntity
  8
0
100
AcDbBlockReference
 62
2
  6
CONTINUOUS
  2
_FILLED
 10
9.830962216
 20
101.4554204797
 41
3.5
 42
3.5
 43
3.5
 50
180.0
  0
ENDBLK
  5
392
100
AcDbEntity
  8
0
  6
BYBLOCK
 62
0
100
AcDbBlockEnd
  0
BLOCK
  5
393
100
AcDbEntity
  8
0
100
AcDbBlockBegin
 62
2
  6
CONTINUOUS
  2
*D2
 70
65
 10
0.0
 20
0.0
  3
*D2
  1

  0
TEXT
  5
394
100
AcDbEntity
  8
0
100
AcDbText
 62
5
  6
CONTINUOUS
 10
10.3597726249
 20
242.0804204797
  7
STANDARD
 40
2.5
  1
3
 72
5
 11
12.302151807
 21
242.0804204797
100
AcDbText
  0
LINE
  5
395
100
AcDbEntity
  8
0
100
AcDbLine
 62
2
  6
CONTINUOUS
 10
9.830962216
 20
231.4554204797
 11
9.830962216
 21
242.4554204797
  0
LINE
  5
396
100
AcDbEntity
  8
0
100
AcDbLine
 62
2
  6
CONTINUOUS
 10
12.830962216
 20
231.4554204797
 11
12.830962216
 21
242.4554204797
  0
LINE
  5
397
100
AcDbEntity
  8
0
100
AcDbLine
 62
2
  6
CONTINUOUS
 10
9.830962216
 20
241.4554204797
 11
2.830962216
 21
241.4554204797
  0
LINE
  5
398
100
AcDbEntity
  8
0
100
AcDbLine
 62
2
  6
CONTINUOUS
 10
2.830962216
 20
241.4554204797
 11
11.330962216
 21
241.4554204797
  0
LINE
  5
399
100
AcDbEntity
  8
0
100
AcDbLine
 62
2
  6
CONTINUOUS
 10
12.830962216
 20
241.4554204797
 11
19.830962216
 21
241.4554204797
  0
LINE
  5
39A
100
AcDbEntity
  8
0
100
AcDbLine
 62
2
  6
CONTINUOUS
 10
19.830962216
 20
241.4554204797
 11
11.330962216
 21
241.4554204797
  0
INSERT
  5
39B
100
AcDbEntity
  8
0
100
AcDbBlockReference
 62
2
  6
CONTINUOUS
  2
_FILLED
 10
9.830962216
 20
241.4554204797
 41
3.5
 42
3.5
 43
3.5
  0
INSERT
  5
39C
100
AcDbEntity
  8
0
100
AcDbBlockReference
 62
2
  6
CONTINUOUS
  2
_FILLED
 10
12.830962216
 20
241.4554204797
 41
3.5
 42
3.5
 43
3.5
 50
180.0
  0
ENDBLK
  5
39D
100
AcDbEntity
  8
0
  6
BYBLOCK
 62
0
100
AcDbBlockEnd
  0
BLOCK
  5
39E
100
AcDbEntity
  8
0
100
AcDbBlockBegin
 62
2
  6
CONTINUOUS
  2
*D3
 70
65
 10
0.0
 20
0.0
  3
*D3
  1

  0
TEXT
  5
39F
100
AcDbEntity
  8
0
100
AcDbText
 62
5
  6
CONTINUOUS
 10
69.3520204784
 20
242.0804204797
  7
STANDARD
 40
2.5
  1
24
 72
5
 11
73.2367788427
 21
242.0804204797
100
AcDbText
  0
LINE
  5
3A0
100
AcDbEntity
  8
0
100
AcDbLine
 62
2
  6
CONTINUOUS
 10
59.2943996605
 20
231.4554204797
 11
59.2943996605
 21
242.4554204797
  0
LINE
  5
3A1
100
AcDbEntity
  8
0
100
AcDbLine
 62
2
  6
CONTINUOUS
 10
83.2943996605
 20
231.4554204797
 11
83.2943996605
 21
242.4554204797
  0
LINE
  5
3A2
100
AcDbEntity
  8
0
100
AcDbLine
 62
2
  6
CONTINUOUS
 10
59.2943996605
 20
241.4554204797
 11
71.2943996605
 21
241.4554204797
  0
LINE
  5
3A3
100
AcDbEntity
  8
0
100
AcDbLine
 62
2
  6
CONTINUOUS
 10
83.2943996605
 20
241.4554204797
 11
71.2943996605
 21
241.4554204797
  0
INSERT
  5
3A4
100
AcDbEntity
  8
0
100
AcDbBlockReference
 62
2
  6
CONTINUOUS
  2
_FILLED
 10
59.2943996605
 20
241.4554204797
 41
3.5
 42
3.5
 43
3.5
 50
180.0
  0
INSERT
  5
3A5
100
AcDbEntity
  8
0
100
AcDbBlockReference
 62
2
  6
CONTINUOUS
  2
_FILLED
 10
83.2943996605
 20
241.4554204797
 41
3.5
 42
3.5
 43
3.5
  0
ENDBLK
  5
3A6
100
AcDbEntity
  8
0
  6
BYBLOCK
 62
0
100
AcDbBlockEnd
  0
BLOCK
  5
3A7
100
AcDbEntity
  8
0
100
AcDbBlockBegin
 62
2
  6
CONTINUOUS
  2
*D4
 70
65
 10
0.0
 20
0.0
  3
*D4
  1

  0
TEXT
  5
3A8
100
AcDbEntity
  8
0
100
AcDbText
 62
5
  6
CONTINUOUS
 10
48.6693996605
 20
168.5418517065
  7
STANDARD
 40
2.5
  1
120
 50
90.0
 72
5
 11
48.6693996605
 21
174.368989253
100
AcDbText
  0
LINE
  5
3A9
100
AcDbEntity
  8
0
100
AcDbLine
 62
2
  6
CONTINUOUS
 10
59.2943996605
 20
231.4554204797
 11
48.2943996605
 21
231.4554204797
  0
LINE
  5
3AA
100
AcDbEntity
  8
0
100
AcDbLine
 62
2
  6
CONTINUOUS
 10
59.2943996605
 20
111.4554204797
 11
48.2943996605
 21
111.4554204797
  0
LINE
  5
3AB
100
AcDbEntity
  8
0
100
AcDbLine
 62
2
  6
CONTINUOUS
 10
49.2943996605
 20
231.4554204797
 11
49.2943996605
 21
171.4554204797
  0
LINE
  5
3AC
100
AcDbEntity
  8
0
100
AcDbLine
 62
2
  6
CONTINUOUS
 10
49.2943996605
 20
111.4554204797
 11
49.2943996605
 21
171.4554204797
  0
INSERT
  5
3AD
100
AcDbEntity
  8
0
100
AcDbBlockReference
 62
2
  6
CONTINUOUS
  2
_FILLED
 10
49.2943996605
 20
231.4554204797
 41
3.5
 42
3.5
 43
3.5
 50
90.0
  0
INSERT
  5
3AE
100
AcDbEntity
  8
0
100
AcDbBlockReference
 62
2
  6
CONTINUOUS
  2
_FILLED
 10
49.2943996605
 20
111.4554204797
 41
3.5
 42
3.5
 43
3.5
 50
270.0
  0
ENDBLK
  5
3AF
100
AcDbEntity
  8
0
  6
BYBLOCK
 62
0
100
AcDbBlockEnd
  0
BLOCK
  5
3B0
100
AcDbEntity
  8
0
100
AcDbBlockBegin
 62
2
  6
CONTINUOUS
  2
*D5
 70
65
 10
0.0
 20
0.0
  3
*D5
  1

  0
TEXT
  5
3B1
100
AcDbEntity
  8
0
100
AcDbText
 62
5
  6
CONTINUOUS
 10
92.6693996605
 20
169.5130412976
  7
STANDARD
 40
2.5
  1
96
 50
90.0
 72
5
 11
92.6693996605
 21
173.3977996619
100
AcDbText
  0
LINE
  5
3B2
100
AcDbEntity
  8
0
100
AcDbLine
 62
2
  6
CONTINUOUS
 10
79.0943996605
 20
123.4554204797
 11
94.2943996605
 21
123.4554204797
  0
LINE
  5
3B3
100
AcDbEntity
  8
0
100
AcDbLine
 62
2
  6
CONTINUOUS
 10
79.0943996605
 20
219.4554204797
 11
94.2943996605
 21
219.4554204797
  0
LINE
  5
3B4
100
AcDbEntity
  8
0
100
AcDbLine
 62
2
  6
CONTINUOUS
 10
93.2943996605
 20
123.4554204797
 11
93.2943996605
 21
171.4554204797
  0
LINE
  5
3B5
100
AcDbEntity
  8
0
100
AcDbLine
 62
2
  6
CONTINUOUS
 10
93.2943996605
 20
219.4554204797
 11
93.2943996605
 21
171.4554204797
  0
INSERT
  5
3B6
100
AcDbEntity
  8
0
100
AcDbBlockReference
 62
2
  6
CONTINUOUS
  2
_FILLED
 10
93.2943996605
 20
123.4554204797
 41
3.5
 42
3.5
 43
3.5
 50
270.0
  0
INSERT
  5
3B7
100
AcDbEntity
  8
0
100
AcDbBlockReference
 62
2
  6
CONTINUOUS
  2
_FILLED
 10
93.2943996605
 20
219.4554204797
 41
3.5
 42
3.5
 43
3.5
 50
90.0
  0
ENDBLK
  5
3B8
100
AcDbEntity
  8
0
  6
BYBLOCK
 62
0
100
AcDbBlockEnd
  0
BLOCK
  5
3B9
100
AcDbEntity
  8
0
100
AcDbBlockBegin
 62
2
  6
CONTINUOUS
  2
*D6
 70
65
 10
0.0
 20
0.0
  3
*D6
  1

  0
TEXT
  5
3BA
100
AcDbEntity
  8
0
100
AcDbText
 62
5
  6
CONTINUOUS
 10
40.205962216
 20
76.9006663593
  7
STANDARD
 40
2.5
  1
17
 50
90.0
 72
5
 11
40.205962216
 21
80.7854247236
100
AcDbText
  0
LINE
  5
3BB
100
AcDbEntity
  8
0
100
AcDbLine
 62
2
  6
CONTINUOUS
 10
15.630962216
 20
70.3430455415
 11
41.830962216
 21
70.3430455415
  0
LINE
  5
3BC
100
AcDbEntity
  8
0
100
AcDbLine
 62
2
  6
CONTINUOUS
 10
15.630962216
 20
87.3430455415
 11
41.830962216
 21
87.3430455415
  0
LINE
  5
3BD
100
AcDbEntity
  8
0
100
AcDbLine
 62
2
  6
CONTINUOUS
 10
40.830962216
 20
70.3430455415
 11
40.830962216
 21
78.8430455415
  0
LINE
  5
3BE
100
AcDbEntity
  8
0
100
AcDbLine
 62
2
  6
CONTINUOUS
 10
40.830962216
 20
87.3430455415
 11
40.830962216
 21
78.8430455415
  0
INSERT
  5
3BF
100
AcDbEntity
  8
0
100
AcDbBlockReference
 62
2
  6
CONTINUOUS
  2
_FILLED
 10
40.830962216
 20
70.3430455415
 41
3.5
 42
3.5
 43
3.5
 50
270.0
  0
INSERT
  5
3C0
100
AcDbEntity
  8
0
100
AcDbBlockReference
 62
2
  6
CONTINUOUS
  2
_FILLED
 10
40.830962216
 20
87.3430455415
 41
3.5
 42
3.5
 43
3.5
 50
90.0
  0
ENDBLK
  5
3C1
100
AcDbEntity
  8
0
  6
BYBLOCK
 62
0
100
AcDbBlockEnd
  0
ENDSEC
  0
SECTION
  2
ENTITIES
  0
DIMENSION
  5
3C2
100
AcDbEntity
  8
0
100
AcDbDimension
 62
2
  6
CONTINUOUS
  2
*D0
 10
40.830962216
 20
134.4554204797
 11
40.830962216
 21
171.4554204797
 70
160
 71
2
 42
74.0
  3
DIMSTYLE_1
100
AcDbAlignedDimension
 13
16.930962216
 23
208.4554204797
 14
16.930962216
 24
134.4554204797
 50
270.0
100
AcDbRotatedDimension
  0
DIMENSION
  5
3C3
100
AcDbEntity
  8
0
100
AcDbDimension
 62
2
  6
CONTINUOUS
  2
*D1
 10
9.830962216
 20
101.4554204797
 11
20.330962216
 21
101.4554204797
 70
160
 71
2
 42
21.0
  3
DIMSTYLE_2
100
AcDbAlignedDimension
 13
30.830962216
 23
153.943047283
 14
9.830962216
 24
111.4554204797
 50
180.0
100
AcDbRotatedDimension
  0
DIMENSION
  5
3C4
100
AcDbEntity
  8
0
100
AcDbDimension
 62
2
  6
CONTINUOUS
  2
*D2
 10
12.830962216
 20
241.4554204797
 11
11.330962216
 21
241.4554204797
 70
160
 71
2
 42
3.0
  3
DIMSTYLE_3
100
AcDbAlignedDimension
 13
9.830962216
 23
231.4554204797
 14
12.830962216
 24
231.4554204797
100
AcDbRotatedDimension
  0
DIMENSION
  5
3C5
100
AcDbEntity
  8
0
100
AcDbDimension
 62
2
  6
CONTINUOUS
  2
*D3
 10
83.2943996605
 20
241.4554204797
 11
71.2943996605
 21
241.4554204797
 70
160
 71
2
 42
24.0
  3
DIMSTYLE_2
100
AcDbAlignedDimension
 13
59.2943996605
 23
231.4554204797
 14
83.2943996605
 24
231.4554204797
100
AcDbRotatedDimension
  0
DIMENSION
  5
3C6
100
AcDbEntity
  8
0
100
AcDbDimension
 62
2
  6
CONTINUOUS
  2
*D4
 10
49.2943996605
 20
111.4554204797
 11
49.2943996605
 21
171.4554204797
 70
160
 71
2
 42
120.0
  3
DIMSTYLE_1
100
AcDbAlignedDimension
 13
59.2943996605
 23
231.4554204797
 14
59.2943996605
 24
111.4554204797
 50
270.0
100
AcDbRotatedDimension
  0
DIMENSION
  5
3C7
100
AcDbEntity
  8
0
100
AcDbDimension
 62
2
  6
CONTINUOUS
  2
*D5
 10
93.2943996605
 20
219.4554204797
 11
93.2943996605
 21
171.4554204797
 70
160
 71
2
 42
96.0
  3
DIMSTYLE_1
100
AcDbAlignedDimension
 13
79.0943996605
 23
123.4554204797
 14
79.0943996605
 24
219.4554204797
 50
90.0
100
AcDbRotatedDimension
  0
DIMENSION
  5
3C8
100
AcDbEntity
  8
0
100
AcDbDimension
 62
2
  6
CONTINUOUS
  2
*D6
 10
40.830962216
 20
87.3430455415
 11
40.830962216
 21
78.8430455415
 70
160
 71
2
 42
17.0
  3
DIMSTYLE_2
100
AcDbAlignedDimension
 13
15.630962216
 23
70.3430455415
 14
15.630962216
 24
87.3430455415
 50
90.0
100
AcDbRotatedDimension
  0
INSERT
  5
3C9
100
AcDbEntity
  8
0
100
AcDbBlockReference
 62
2
  6
CONTINUOUS
  2
SYMBOL_0_BL6
 10
31.0000000239
 20
34.9999999785
  0
LINE
  5
3CA
100
AcDbEntity
  8
S-AXIS
100
AcDbLine
 62
7
  6
CENTER
 10
86.2943996605
 20
171.4554204797
 11
56.2943996605
 21
171.4554204797
  0
LINE
  5
3CB
100
AcDbEntity
  8
S-AXIS
100
AcDbLine
 62
7
  6
CENTER
 10
33.830962216
 20
171.4554204797
 11
6.830962216
 21
171.4554204797
  0
LINE
  5
3CC
100
AcDbEntity
  8
S-AXIS
100
AcDbLine
 62
7
  6
CENTER
 10
33.830962216
 20
78.8430455415
 11
6.830962216
 21
78.8430455415
  0
INSERT
  5
3CD
100
AcDbEntity
  8
94799901000_BL0
100
AcDbBlockReference
  2
94799901000_BL0
 10
45.0626809383
 20
149.1492330106
  0
INSERT
  5
3CE
100
AcDbEntity
  8
94528902000_M_BL1
100
AcDbBlockReference
  2
94528902000_M_BL1
 10
47.4626809383
 20
141.3554204797
  0
INSERT
  5
3CF
100
AcDbEntity
  8
95056301000_BL2
100
AcDbBlockReference
  2
95056301000_BL2
 10
45.4126809383
 20
139.0242330106
  0
INSERT
  5
3D0
100
AcDbEntity
  8
94528902000_M_BL3
100
AcDbBlockReference
  2
94528902000_M_BL3
 10
47.4626809383
 20
141.4492330106
  0
INSERT
  5
3D1
100
AcDbEntity
  8
91511100000_BL4
100
AcDbBlockReference
  2
91511100000_BL4
 10
17.530962216
 20
139.8554204797
  0
INSERT
  5
3D2
100
AcDbEntity
  8
91511100000_BL5
100
AcDbBlockReference
  2
91511100000_BL5
 10
17.530962216
 20
140.9492330106
  0
ENDSEC
  0
SECTION
  2
OBJECTS
  0
DICTIONARY
  5
C
100
AcDbDictionary
280
0
281
1
  3
ACAD_GROUP
350
D
  3
ACAD_MLINESTYLE
350
17
  3
ACAD_LAYOUT
350
1A
  3
ACAD_PLOTSETTINGS
350
19
  3
ACAD_PLOTSTYLENAME
350
E
  0
DICTIONARY
  5
D
102
{ACAD_REACTORS
330
C
102
}
100
AcDbDictionary
280
0
281
1
  0
ACDBDICTIONARYWDFLT
  5
E
102
{ACAD_REACTORS
330
C
102
}
100
AcDbDictionary
281
1
  3
Normal
350
F
100
AcDbDictionaryWithDefault
340
F
  0
DICTIONARY
  5
17
102
{ACAD_REACTORS
330
C
102
}
100
AcDbDictionary
280
0
281
1
  3
Standard
350
18
  0
DICTIONARY
  5
19
102
{ACAD_REACTORS
330
C
102
}
100
AcDbDictionary
281
1
  0
DICTIONARY
  5
1A
102
{ACAD_REACTORS
330
C
102
}
100
AcDbDictionary
281
1
  3
Model
350
3D3
  3
Layout1
350
3D4
  0
ACDBPLACEHOLDER
  5
F
102
{ACAD_REACTORS
330
E
102
}
  0
MLINESTYLE
  5
18
102
{ACAD_REACTORS
330
17
102
}
100
AcDbMlineStyle
  2
STANDARD
 70
0
  3

 62
256
 51
90.0
 52
90.0
 71
2
 49
0.5
 62
256
  6
BYLAYER
 49
-0.5
 62
256
  6
BYLAYER
  0
LAYOUT
  5
3D3
102
{ACAD_REACTORS
330
1A
102
}
100
AcDbPlotSettings
  1

  2
none_device
  4

  6

 40
0.0
 41
0.0
 42
0.0
 43
0.0
 44
100.0
 45
250.0
 46
0.0
 47
0.0
 48
0.0
 49
0.0
140
0.0
141
0.0
142
1.0
143
1.0
 70
1024
 72
1
 73
0
 74
0
  7

 75
0
147
1.0
148
0.0
149
0.0
100
AcDbLayout
  1
Model
 70
0
 71
0
 10
0.0
 20
0.0
 11
100.0
 21
250.0
 12
0.0
 22
0.0
 32
0.0
 14
0.0
 24
0.0
 34
0.0
 15
0.0
 25
0.0
 35
0.0
146
0.0
 13
0.0
 23
0.0
 33
0.0
 16
1.0
 26
0.0
 36
0.0
 17
0.0
 27
1.0
 37
0.0
 76
0
330
211
345
0
346
0
  0
LAYOUT
  5
3D4
102
{ACAD_REACTORS
330
1A
102
}
100
AcDbPlotSettings
  1

  2
none_device
  4

  6

 40
0.0
 41
0.0
 42
0.0
 43
0.0
 44
100.0
 45
250.0
 46
0.0
 47
0.0
 48
0.0
 49
0.0
140
0.0
141
0.0
142
1.0
143
1.0
 70
0
 72
1
 73
0
 74
0
  7

 75
0
147
1.0
148
0.0
149
0.0
100
AcDbLayout
  1
Layout1
 70
0
 71
1
 10
0.0
 20
0.0
 11
100.0
 21
250.0
 12
0.0
 22
0.0
 32
0.0
 14
0.0
 24
0.0
 34
0.0
 15
0.0
 25
0.0
 35
0.0
146
0.0
 13
0.0
 23
0.0
 33
0.0
 16
1.0
 26
0.0
 36
0.0
 17
0.0
 27
1.0
 37
0.0
 76
0
330
212
345
0
346
0
  0
ENDSEC
  0
EOF
