  0
SECTION
  2
HEADER
  9
$ACADVER
  1
AC1021
  9
$DWGCODEPAGE
  3
ANSI_1252
  9
$EXTMAX
 10
420.0
 20
297.0
 30
0.0
  9
$EXTMIN
 10
0.0
 20
0.0
 30
0.0
  9
$LIMMIN
 10
0.0
 20
0.0
  9
$LIMMAX
 10
420.0
 20
297.0
  9
$VIEWCTR
 10
210.0
 20
148.5
  9
$VIEWSIZE
 40
297.0
  9
$CLAYER
  8
0
  9
$LTSCALE
 40
23.1
  9
$CELTYPE
  6
BYLAYER
  9
$DIMSCALE
 40
1.0
  9
$DIMASZ
 40
3.5
  9
$DIMEXO
 40
0.0
  9
$DIMDLI
 40
15.96
  9
$DIMEXE
 40
1.0
  9
$DIMCEN
 40
3.78
  9
$DIMLFAC
 40
1.0
  9
$DIMBLK
  1
_FILLED
  9
$DIMTXT
 40
2.5
  9
$DIMTOL
 70
1
  9
$DIMLIM
 70
0
  9
$DIMTFAC
 40
1.0
  9
$DIMTP
 40
0.001
  9
$DIMTM
 40
0.001
  9
$DIMGAP
 40
0.625
  9
$DIMDSEP
 70
46
  9
$PDMODE
 70
3
  9
$PDSIZE
 40
2.0
  9
$HANDSEED
  5
40B
  9
$TILEMODE
 70
1
  9
$MEASUREMENT
 70
1
  9
$INSUNITS
 70
4
  0
ENDSEC
  0
SECTION
  2
CLASSES
  0
CLASS
  1
ACDBDICTIONARYWDFLT
  2
AcDbDictionaryWithDefault
  3
AutoCAD 2000
 90
0
 91
1
280
0
281
0
  0
CLASS
  1
ACDBPLACEHOLDER
  2
AcDbPlaceHolder
  3
AutoCAD 2000
 90
0
 91
1
280
0
281
0
  0
CLASS
  1
LAYOUT
  2
AcDbLayout
  3
AutoCAD 2000
 90
0
 91
0
280
0
281
0
  0
CLASS
  1
TABLESTYLE
  2
AcDbTableStyle
  3
ObjectDBX Classes
 90
2047
 91
1
280
0
281
0
  0
CLASS
  1
ACAD_TABLE
  2
AcDbTable
  3
ObjectDBX Classes
 90
1025
 91
2
280
0
281
1
  0
ENDSEC
  0
SECTION
  2
TABLES
  0
TABLE
  2
VPORT
  5
8
100
AcDbSymbolTable
 70
2
  0
VPORT
  5
1F4
100
AcDbSymbolTableRecord
100
AcDbViewportTableRecord
  2
*ACTIVE
 70
0
 10
0.0
 20
0.0
 11
1.0
 21
1.0
 12
210.0
 22
148.5
 13
0.0
 23
0.0
 14
1.0
 24
1.0
 15
0.0
 25
0.0
 16
0.0
 26
0.0
 36
1.0
 17
0.0
 27
0.0
 37
0.0
 40
297.0
 41
1.4141414141
 42
50.0
 43
0.0
 44
0.0
 50
0.0
 51
0.0
 71
0
 72
100
 73
1
 74
1
 75
0
 76
0
 77
0
 78
0
  0
ENDTAB
  0
TABLE
  2
LTYPE
  5
5
100
AcDbSymbolTable
 70
6
  0
LTYPE
  5
14
100
AcDbSymbolTableRecord
100
AcDbLinetypeTableRecord
  2
BYBLOCK
 70
0
  3

 72
65
 73
0
 40
0.0
  0
LTYPE
  5
15
100
AcDbSymbolTableRecord
100
AcDbLinetypeTableRecord
  2
BYLAYER
 70
0
  3

 72
65
 73
0
 40
0.0
  0
LTYPE
  5
16
100
AcDbSymbolTableRecord
100
AcDbLinetypeTableRecord
  2
CONTINUOUS
 70
64
  3
Solid line
 72
65
 73
0
 40
0.0
  0
LTYPE
  5
1F5
100
AcDbSymbolTableRecord
100
AcDbLinetypeTableRecord
  2
CENTER
 70
64
  3
____ _ ____ _ ____ _ ____ _ ____ _ ____ _ ____
 72
65
 73
4
 40
0.6
 49
0.375
 74
0
 49
-0.075
 74
0
 49
0.075
 74
0
 49
-0.075
 74
0
  0
LTYPE
  5
1F6
100
AcDbSymbolTableRecord
100
AcDbLinetypeTableRecord
  2
HIDDEN
 70
64
  3
- - - - - - - - - - - - - - - - - - - -
 72
65
 73
2
 40
0.2
 49
0.1
 74
0
 49
-0.1
 74
0
  0
LTYPE
  5
1F7
100
AcDbSymbolTableRecord
100
AcDbLinetypeTableRecord
  2
PHANTOM
 70
64
  3
_____ _ _ _____ _ _ _____ _ _ _____
 72
65
 73
6
 40
0.8
 49
0.45
 74
0
 49
-0.05
 74
0
 49
0.1
 74
0
 49
-0.05
 74
0
 49
0.1
 74
0
 49
-0.05
 74
0
  0
LTYPE
  5
1F8
100
AcDbSymbolTableRecord
100
AcDbLinetypeTableRecord
  2
DOT
 70
64
  3
. . . . . . . . . . . . . . . . . . . .
 72
65
 73
2
 40
0.2
 49
0.1
 74
0
 49
-0.1
 74
0
  0
LTYPE
  5
1F9
100
AcDbSymbolTableRecord
100
AcDbLinetypeTableRecord
  2
DASHED
 70
64
  3
- - - - - - - - - - - - - - - - - - - -
 72
65
 73
2
 40
0.2
 49
0.1
 74
0
 49
-0.1
 74
0
  0
ENDTAB
  0
TABLE
  2
LAYER
  5
2
100
AcDbSymbolTable
 70
36
  0
LAYER
  5
10
100
AcDbSymbolTableRecord
100
AcDbLayerTableRecord
  2
0
 70
0
 62
7
  6
CONTINUOUS
370
-3
390
F
  0
LAYER
  5
1FA
100
AcDbSymbolTableRecord
100
AcDbLayerTableRecord
  2
DEFAULT_1
 70
0
 62
7
  6
CENTER
370
-3
390
F
  0
LAYER
  5
1FB
100
AcDbSymbolTableRecord
100
AcDbLayerTableRecord
  2
DEFAULT_2
 70
0
 62
8
  6
HIDDEN
370
-3
390
F
  0
LAYER
  5
1FC
100
AcDbSymbolTableRecord
100
AcDbLayerTableRecord
  2
DEFAULT_3
 70
0
 62
7
  6
PHANTOM
370
-3
390
F
  0
LAYER
  5
1FD
100
AcDbSymbolTableRecord
100
AcDbLayerTableRecord
  2
AXIS
 70
0
 62
7
  6
CONTINUOUS
370
-3
390
F
  0
LAYER
  5
1FE
100
AcDbSymbolTableRecord
100
AcDbLayerTableRecord
  2
COORDSYS
 70
0
 62
7
  6
CONTINUOUS
370
-3
390
F
  0
LAYER
  5
1FF
100
AcDbSymbolTableRecord
100
AcDbLayerTableRecord
  2
CURVES
 70
0
 62
7
  6
CONTINUOUS
370
-3
390
F
  0
LAYER
  5
200
100
AcDbSymbolTableRecord
100
AcDbLayerTableRecord
  2
PLANES
 70
0
 62
7
  6
CONTINUOUS
370
-3
390
F
  0
LAYER
  5
201
100
AcDbSymbolTableRecord
100
AcDbLayerTableRecord
  2
POINTS
 70
0
 62
7
  6
CONTINUOUS
370
-3
390
F
  0
LAYER
  5
202
100
AcDbSymbolTableRecord
100
AcDbLayerTableRecord
  2
S-AXIS
 70
0
 62
7
  6
CONTINUOUS
370
-3
390
F
  0
LAYER
  5
203
100
AcDbSymbolTableRecord
100
AcDbLayerTableRecord
  2
S-COORDSYS
 70
0
 62
7
  6
CONTINUOUS
370
-3
390
F
  0
LAYER
  5
204
100
AcDbSymbolTableRecord
100
AcDbLayerTableRecord
  2
S-PLANES
 70
0
 62
7
  6
CONTINUOUS
370
-3
390
F
  0
LAYER
  5
205
100
AcDbSymbolTableRecord
100
AcDbLayerTableRecord
  2
THREADS
 70
0
 62
7
  6
CONTINUOUS
370
-3
390
F
  0
ENDTAB
  0
TABLE
  2
STYLE
  5
3
100
AcDbSymbolTable
 70
1
  0
STYLE
  5
11
100
AcDbSymbolTableRecord
100
AcDbTextStyleTableRecord
  2
STANDARD
 70
0
 40
0.0
 41
0.8
 50
0.0
 71
0
 42
0.2
  3
txt
  4

  0
STYLE
  5
206
100
AcDbSymbolTableRecord
100
AcDbTextStyleTableRecord
  2
TEXTSTYLE_1
 70
0
 40
0.0
 41
0.8
 50
0.0
 71
0
 42
0.2
  3
gdt
  4

  0
STYLE
  5
207
100
AcDbSymbolTableRecord
100
AcDbTextStyleTableRecord
  2
TEXTSTYLE_2
 70
0
 40
0.0
 41
1.0
 50
0.0
 71
0
 42
0.2
  3
txt
  4

  0
STYLE
  5
208
100
AcDbSymbolTableRecord
100
AcDbTextStyleTableRecord
  2
TEXTSTYLE_3
 70
0
 40
0.0
 41
0.8
 50
0.0
 71
0
 42
0.2
  3
txt
  4

  0
STYLE
  5
209
100
AcDbSymbolTableRecord
100
AcDbTextStyleTableRecord
  2
TEXTSTYLE_4
 70
0
 40
0.0
 41
0.8
 50
0.0
 71
0
 42
0.2
  3
txt
  4

  0
ENDTAB
  0
TABLE
  2
VIEW
  5
6
100
AcDbSymbolTable
 70
0
  0
ENDTAB
  0
TABLE
  2
UCS
  5
7
100
AcDbSymbolTable
 70
0
  0
ENDTAB
  0
TABLE
  2
APPID
  5
9
100
AcDbSymbolTable
 70
1
  0
APPID
  5
20A
100
AcDbSymbolTableRecord
100
AcDbRegAppTableRecord
  2
ACAD
 70
0
  0
ENDTAB
  0
TABLE
  2
BLOCK_RECORD
  5
1
100
AcDbSymbolTable
 70
0
  0
BLOCK_RECORD
  5
20B
100
AcDbSymbolTableRecord
100
AcDbBlockTableRecord
  2
*Model_Space
  0
BLOCK_RECORD
  5
20C
100
AcDbSymbolTableRecord
100
AcDbBlockTableRecord
  2
*Paper_Space
  0
BLOCK_RECORD
  5
20D
100
AcDbSymbolTableRecord
100
AcDbBlockTableRecord
  2
_FILLED
  0
BLOCK_RECORD
  5
20E
100
AcDbSymbolTableRecord
100
AcDbBlockTableRecord
  2
*D0
  0
BLOCK_RECORD
  5
20F
100
AcDbSymbolTableRecord
100
AcDbBlockTableRecord
  2
*D1
  0
BLOCK_RECORD
  5
210
100
AcDbSymbolTableRecord
100
AcDbBlockTableRecord
  2
*D2
  0
BLOCK_RECORD
  5
211
100
AcDbSymbolTableRecord
100
AcDbBlockTableRecord
  2
*D3
  0
BLOCK_RECORD
  5
212
100
AcDbSymbolTableRecord
100
AcDbBlockTableRecord
  2
*D4
  0
BLOCK_RECORD
  5
213
100
AcDbSymbolTableRecord
100
AcDbBlockTableRecord
  2
*D5
  0
BLOCK_RECORD
  5
214
100
AcDbSymbolTableRecord
100
AcDbBlockTableRecord
  2
*D6
  0
BLOCK_RECORD
  5
215
100
AcDbSymbolTableRecord
100
AcDbBlockTableRecord
  2
SYMBOL_5_BL1
  0
BLOCK_RECORD
  5
216
100
AcDbSymbolTableRecord
100
AcDbBlockTableRecord
  2
SYMBOL_2_BL0
  0
BLOCK_RECORD
  5
217
100
AcDbSymbolTableRecord
100
AcDbBlockTableRecord
  2
*T1
  0
BLOCK_RECORD
  5
218
100
AcDbSymbolTableRecord
100
AcDbBlockTableRecord
  2
*T2
  0
ENDTAB
  0
TABLE
  2
DIMSTYLE
  5
A
100
AcDbSymbolTable
 70
1
100
AcDbDimStyleTable
 71
0
  0
DIMSTYLE
105
219
100
AcDbSymbolTableRecord
100
AcDbDimStyleTableRecord
  2
STANDARD
 70
0
  3

  4

 40
1.0
 41
3.5
 42
0.0
 43
0.38
 44
1.0
 45
0.0
 46
0.0
 47
0.001
 48
0.001
140
2.5
141
0.09
142
0.0
143
25.4
144
1.0
145
0.0
146
1.0
147
0.625
 71
1.0
 72
0.0
 73
0
 74
0
 75
0
 76
0
 77
1
 78
8
170
0
171
2
172
0
173
0
174
0
175
0
176
0
177
0
178
5
270
2
271
3
272
3
273
2
274
2
275
0
280
0
281
0
282
0
283
1
284
8
285
0
286
0
287
3
288
0
340
11
278
46
341
20D
342
20D
343
20D
344
20D
  0
DIMSTYLE
105
21A
100
AcDbSymbolTableRecord
100
AcDbDimStyleTableRecord
  2
DIMSTYLE_1
 70
0
  3

  4

 40
1.0
 41
3.5
 42
0.0
 43
0.38
 44
1.0
 45
0.0
 46
0.0
 47
0.3
 48
0.3
140
2.5
141
0.09
142
0.0
143
25.4
144
1.0
145
0.0
146
1.0
147
0.625
 71
0.0
 72
0.0
 73
0
 74
0
 75
0
 76
0
 77
1
 78
8
170
0
171
2
172
0
173
0
174
0
175
0
176
0
177
0
178
5
270
2
271
3
272
3
273
2
274
2
275
0
280
0
281
0
282
0
283
1
284
8
285
0
286
0
287
3
288
0
340
11
278
46
341
20D
342
20D
343
20D
344
20D
  0
DIMSTYLE
105
21B
100
AcDbSymbolTableRecord
100
AcDbDimStyleTableRecord
  2
DIMSTYLE_2
 70
0
  3

  4

 40
1.0
 41
3.5
 42
0.0
 43
0.38
 44
1.0
 45
0.0
 46
0.0
 47
0.2
 48
0.2
140
2.5
141
0.09
142
0.0
143
25.4
144
1.0
145
0.0
146
1.0
147
0.625
 71
0.0
 72
0.0
 73
0
 74
0
 75
0
 76
0
 77
1
 78
8
170
0
171
2
172
0
173
0
174
0
175
0
176
0
177
0
178
5
270
2
271
3
272
3
273
2
274
2
275
0
280
0
281
0
282
0
283
1
284
8
285
0
286
0
287
3
288
0
340
11
278
46
341
20D
342
20D
343
20D
344
20D
  0
DIMSTYLE
105
21C
100
AcDbSymbolTableRecord
100
AcDbDimStyleTableRecord
  2
DIMSTYLE_3
 70
0
  3

  4

 40
1.0
 41
3.5
 42
0.0
 43
0.38
 44
1.0
 45
0.0
 46
0.0
 47
0.1
 48
0.1
140
2.5
141
0.09
142
0.0
143
25.4
144
1.0
145
0.0
146
1.0
147
0.625
 71
0.0
 72
0.0
 73
0
 74
0
 75
0
 76
0
 77
1
 78
8
170
0
171
2
172
0
173
0
174
0
175
0
176
0
177
0
178
5
270
2
271
3
272
3
273
2
274
2
275
0
280
0
281
0
282
0
283
1
284
8
285
0
286
0
287
3
288
0
340
11
278
46
341
20D
342
20D
343
20D
344
20D
  0
ENDTAB
  0
ENDSEC
  0
SECTION
  2
BLOCKS
  0
BLOCK
  5
20
100
AcDbEntity
  8
0
100
AcDbBlockBegin
  2
*Model_Space
 70
0
 10
0.0
 20
0.0
 30
0.0
  3
*Model_Space
  1

  0
ENDBLK
  5
21
100
AcDbEntity
  8
0
100
AcDbBlockEnd
  0
BLOCK
  5
1C
100
AcDbEntity
  8
0
100
AcDbBlockBegin
  2
*Paper_Space
 70
0
 10
0.0
 20
0.0
 30
0.0
  3
*Paper_Space
  1

  0
ENDBLK
  5
1D
100
AcDbEntity
  8
0
100
AcDbBlockEnd
  0
BLOCK
  5
21D
100
AcDbEntity
  8
0
100
AcDbBlockBegin
 62
2
  6
CONTINUOUS
  2
SYMBOL_5_BL1
 70
64
 10
14.6760682863
 20
285.9565270313
  3
SYMBOL_5_BL1
  1

  0
TEXT
  5
21E
100
AcDbEntity
  8
0
100
AcDbText
 62
5
  6
CONTINUOUS
 10
6.0250051001
 20
279.9582916417
  7
STANDARD
 40
1.5763325545
  1
GRETSCH-UNITAS
 72
5
 11
23.3271314725
 21
279.9582916417
100
AcDbText
  0
SPLINE
  5
21F
100
AcDbEntity
  8
0
100
AcDbSpline
 62
2
  6
CONTINUOUS
 70
0
 71
3
 72
22
 73
18
 74
0
 42
0.0000001
 43
0.0000001
 44
0.0000000001
 40
0.0
 40
0.0
 40
0.0
 40
0.0
 40
0.012997001
 40
0.0685257445
 40
0.124054488
 40
0.235111975
 40
0.3461694621
 40
0.5682844361
 40
0.6793419231
 40
0.7903994101
 40
0.8459281536
 40
0.9014568971
 40
0.9292212689
 40
0.9569856406
 40
0.9847500124
 40
0.9887308104
 40
1.0
 40
1.0
 40
1.0
 40
1.0
 10
15.4801156353
 20
286.7085698414
 30
0.0
 10
15.4810241934
 20
286.7160556825
 30
0.0
 10
15.4857439912
 20
286.7555135418
 30
0.0
 10
15.4936523307
 20
286.8269871937
 30
0.0
 10
15.505912165
 20
286.9548379269
 30
0.0
 10
15.517682724
 20
287.1145416616
 30
0.0
 10
15.528837276
 20
287.3686580301
 30
0.0
 10
15.5285310708
 20
287.6264882096
 30
0.0
 10
15.5167815446
 20
287.8851209532
 30
0.0
 10
15.5046937915
 20
288.0471327101
 30
0.0
 10
15.4921853722
 20
288.1767706018
 30
0.0
 10
15.4831828527
 20
288.2578106668
 30
0.0
 10
15.4752803543
 20
288.3225694289
 30
0.0
 10
15.4689789575
 20
288.3712649965
 30
0.0
 10
15.4642806989
 20
288.4056567057
 30
0.0
 10
15.4606931447
 20
288.4311042458
 30
0.0
 10
15.4594161574
 20
288.4400384015
 30
0.0
 10
15.4585123173
 20
288.4463017026
 30
0.0
  0
LINE
  5
220
100
AcDbEntity
  8
0
100
AcDbLine
 62
2
  6
CONTINUOUS
 10
16.6257546957
 20
291.7417996716
 11
18.7756543471
 21
291.7417996716
  0
LINE
  5
221
100
AcDbEntity
  8
0
100
AcDbLine
 62
2
  6
CONTINUOUS
 10
18.7756543471
 20
291.7417996716
 11
18.7675001076
 21
286.1887625424
  0
LINE
  5
222
100
AcDbEntity
  8
0
100
AcDbLine
 62
2
  6
CONTINUOUS
 10
20.7328380589
 20
291.7408943502
 11
20.7246809285
 21
286.1858885617
  0
LINE
  5
223
100
AcDbEntity
  8
0
100
AcDbLine
 62
2
  6
CONTINUOUS
 10
20.7328380589
 20
291.7408943502
 11
22.8560234527
 21
291.7377766037
  0
LINE
  5
224
100
AcDbEntity
  8
0
100
AcDbLine
 62
2
  6
CONTINUOUS
 10
16.6257546957
 20
291.7417996716
 11
16.6257546957
 21
288.4463017026
  0
LINE
  5
225
100
AcDbEntity
  8
0
100
AcDbLine
 62
2
  6
CONTINUOUS
 10
22.8464682804
 20
286.2121871597
 11
22.8560234527
 21
291.7377766037
  0
LINE
  5
226
100
AcDbEntity
  8
0
100
AcDbLine
 62
2
  6
CONTINUOUS
 10
16.5962635235
 20
286.7097707
 11
16.5962635235
 21
286.206571522
  0
ARC
  5
227
100
AcDbEntity
  8
0
100
AcDbCircle
 62
2
  6
CONTINUOUS
 10
19.7460905181
 20
286.187325552
 40
0.9785914655
100
AcDbArc
 50
179.9158652888
 51
359.9158652888
  0
ARC
  5
228
100
AcDbEntity
  8
0
100
AcDbCircle
 62
2
  6
CONTINUOUS
 10
19.7213585238
 20
286.2175912822
 40
3.1251144292
100
AcDbArc
 50
180.2020364601
 51
359.9009208878
  0
LINE
  5
229
100
AcDbEntity
  8
0
100
AcDbLine
 62
2
  6
CONTINUOUS
 10
10.6219179927
 20
288.4396050427
 11
14.7006991753
 21
288.4396050427
  0
LINE
  5
22A
100
AcDbEntity
  8
0
100
AcDbLine
 62
2
  6
CONTINUOUS
 10
12.2217882659
 20
288.8789329709
 11
13.9483889974
 21
290.1646806597
  0
ARC
  5
22B
100
AcDbEntity
  8
0
100
AcDbCircle
 62
2
  6
CONTINUOUS
 10
10.4114667665
 20
287.5821675482
 40
4.3761240935
100
AcDbArc
 50
36.126840858
 51
11.344332349
  0
ARC
  5
22C
100
AcDbEntity
  8
0
100
AcDbCircle
 62
2
  6
CONTINUOUS
 10
10.3470540354
 20
287.5511016176
 40
2.3065617406
100
AcDbArc
 50
34.9390168225
 51
338.4896426737
  0
ARC
  5
22D
100
AcDbEntity
  8
0
100
AcDbCircle
 62
2
  6
CONTINUOUS
 10
10.6219179927
 20
287.5714742336
 40
0.8681308092
100
AcDbArc
 50
90.0
 51
270.0681567641
  0
LINE
  5
22E
100
AcDbEntity
  8
0
100
AcDbLine
 62
2
  6
CONTINUOUS
 10
15.4585123173
 20
288.4463017026
 11
16.6257546957
 21
288.4463017026
  0
LINE
  5
22F
100
AcDbEntity
  8
0
100
AcDbLine
 62
2
  6
CONTINUOUS
 10
10.6229506861
 20
286.7033440387
 11
12.4929667506
 21
286.7053559808
  0
LINE
  5
230
100
AcDbEntity
  8
0
100
AcDbLine
 62
2
  6
CONTINUOUS
 10
15.4801156353
 20
286.7085698414
 11
16.5962635235
 21
286.7097707
  0
LWPOLYLINE
  5
231
100
AcDbEntity
  8
0
100
AcDbPolyline
 62
2
  6
CONTINUOUS
 90
23
 70
0
 10
10.5871829024
 20
291.954762421
 10
11.2387137148
 20
291.8793904384
 10
11.8716622299
 20
291.7074907222
 10
12.4718106408
 20
291.4429246243
 10
13.0256779232
 20
291.0916350448
 10
13.5208226575
 20
290.6615129372
 10
13.9461224977
 20
290.162220056
 10
12.2217882659
 20
288.8789329709
 10
12.0237458929
 20
289.1350623109
 10
11.7733581523
 20
289.3638022628
 10
11.4921356799
 20
289.5533541218
 10
11.1861581185
 20
289.6996200375
 10
10.8620402817
 20
289.7994379423
 10
10.5267891511
 20
289.8506499105
 10
10.1876523947
 20
289.8521488096
 10
6.7057365377
 20
289.9098328062
 10
7.0952373539
 20
290.4375282198
 10
7.5592300262
 20
290.9010841876
 10
8.0872919719
 20
291.2900879365
 10
8.667561432
 20
291.5958013464
 10
9.2870039194
 20
291.8113572327
 10
9.9317050105
 20
291.9319136028
 10
10.5871829024
 20
291.954762421
  0
HATCH
  5
232
100
AcDbEntity
  8
0
100
AcDbHatch
 62
2
  6
CONTINUOUS
 10
0.0
 20
0.0
 30
0.0
210
0.0
220
0.0
230
1.0
  2
SOLID
 70
1
 71
1
 91
1
 92
1
 93
22
 72
1
 10
10.5871829024
 20
291.954762421
 11
11.2387137148
 21
291.8793904384
 72
1
 10
11.2387137148
 20
291.8793904384
 11
11.8716622299
 21
291.7074907222
 72
1
 10
11.8716622299
 20
291.7074907222
 11
12.4718106408
 21
291.4429246243
 72
1
 10
12.4718106408
 20
291.4429246243
 11
13.0256779232
 21
291.0916350448
 72
1
 10
13.0256779232
 20
291.0916350448
 11
13.5208226575
 21
290.6615129372
 72
1
 10
13.5208226575
 20
290.6615129372
 11
13.9461224977
 21
290.162220056
 72
1
 10
13.9461224977
 20
290.162220056
 11
12.2217882659
 21
288.8789329709
 72
1
 10
12.2217882659
 20
288.8789329709
 11
12.0237458929
 21
289.1350623109
 72
1
 10
12.0237458929
 20
289.1350623109
 11
11.7733581523
 21
289.3638022628
 72
1
 10
11.7733581523
 20
289.3638022628
 11
11.4921356799
 21
289.5533541218
 72
1
 10
11.4921356799
 20
289.5533541218
 11
11.1861581185
 21
289.6996200375
 72
1
 10
11.1861581185
 20
289.6996200375
 11
10.8620402817
 21
289.7994379423
 72
1
 10
10.8620402817
 20
289.7994379423
 11
10.5267891511
 21
289.8506499105
 72
1
 10
10.5267891511
 20
289.8506499105
 11
10.1876523947
 21
289.8521488096
 72
1
 10
10.1876523947
 20
289.8521488096
 11
6.7057365377
 21
289.9098328062
 72
1
 10
6.7057365377
 20
289.9098328062
 11
7.0952373539
 21
290.4375282198
 72
1
 10
7.0952373539
 20
290.4375282198
 11
7.5592300262
 21
290.9010841876
 72
1
 10
7.5592300262
 20
290.9010841876
 11
8.0872919719
 21
291.2900879365
 72
1
 10
8.0872919719
 20
291.2900879365
 11
8.667561432
 21
291.5958013464
 72
1
 10
8.667561432
 20
291.5958013464
 11
9.2870039194
 21
291.8113572327
 72
1
 10
9.2870039194
 20
291.8113572327
 11
9.9317050105
 21
291.9319136028
 72
1
 10
9.9317050105
 20
291.9319136028
 11
10.5871829024
 21
291.954762421
 97
1
330
231
 75
0
 76
1
 98
1
 10
0.0
 20
0.0
  0
LWPOLYLINE
  5
233
100
AcDbEntity
  8
0
100
AcDbPolyline
 62
2
  6
CONTINUOUS
 90
10
 70
0
 10
8.9368286897
 20
289.3763390097
 10
8.6844288245
 20
289.1498212526
 10
6.1833377863
 20
288.7106122342
 10
6.3994768635
 20
289.3298514727
 10
6.7057365377
 20
289.9098328062
 10
10.1876523947
 20
289.8521488096
 10
9.8519616824
 20
289.8039022357
 10
9.5269741853
 20
289.7069532133
 10
9.2197156858
 20
289.5633976467
 10
8.9368286897
 20
289.3763390097
  0
HATCH
  5
234
100
AcDbEntity
  8
0
100
AcDbHatch
 62
2
  6
CONTINUOUS
 10
0.0
 20
0.0
 30
0.0
210
0.0
220
0.0
230
1.0
  2
SOLID
 70
1
 71
1
 91
1
 92
1
 93
9
 72
1
 10
8.9368286897
 20
289.3763390097
 11
8.6844288245
 21
289.1498212526
 72
1
 10
8.6844288245
 20
289.1498212526
 11
6.1833377863
 21
288.7106122342
 72
1
 10
6.1833377863
 20
288.7106122342
 11
6.3994768635
 21
289.3298514727
 72
1
 10
6.3994768635
 20
289.3298514727
 11
6.7057365377
 21
289.9098328062
 72
1
 10
6.7057365377
 20
289.9098328062
 11
10.1876523947
 21
289.8521488096
 72
1
 10
10.1876523947
 20
289.8521488096
 11
9.8519616824
 21
289.8039022357
 72
1
 10
9.8519616824
 20
289.8039022357
 11
9.5269741853
 21
289.7069532133
 72
1
 10
9.5269741853
 20
289.7069532133
 11
9.2197156858
 21
289.5633976467
 72
1
 10
9.2197156858
 20
289.5633976467
 11
8.9368286897
 21
289.3763390097
 97
1
330
233
 75
0
 76
1
 98
1
 10
0.0
 20
0.0
  0
LWPOLYLINE
  5
235
100
AcDbEntity
  8
0
100
AcDbPolyline
 62
2
  6
CONTINUOUS
 90
6
 70
0
 10
8.4679726279
 20
288.8887413775
 10
8.2921395849
 20
288.5987435719
 10
6.062174399
 20
288.0660249485
 10
6.1833377863
 20
288.7106122342
 10
8.6844288245
 20
289.1498212526
 10
8.4679726279
 20
288.8887413775
  0
HATCH
  5
236
100
AcDbEntity
  8
0
100
AcDbHatch
 62
2
  6
CONTINUOUS
 10
0.0
 20
0.0
 30
0.0
210
0.0
220
0.0
230
1.0
  2
SOLID
 70
1
 71
1
 91
1
 92
1
 93
5
 72
1
 10
8.4679726279
 20
288.8887413775
 11
8.2921395849
 21
288.5987435719
 72
1
 10
8.2921395849
 20
288.5987435719
 11
6.062174399
 21
288.0660249485
 72
1
 10
6.062174399
 20
288.0660249485
 11
6.1833377863
 21
288.7106122342
 72
1
 10
6.1833377863
 20
288.7106122342
 11
8.6844288245
 21
289.1498212526
 72
1
 10
8.6844288245
 20
289.1498212526
 11
8.4679726279
 21
288.8887413775
 97
1
330
235
 75
0
 76
1
 98
1
 10
0.0
 20
0.0
  0
LWPOLYLINE
  5
237
100
AcDbEntity
  8
0
100
AcDbPolyline
 62
2
  6
CONTINUOUS
 90
50
 70
0
 10
10.5085615232
 20
288.4321724459
 10
10.6219179927
 20
288.4396084532
 10
14.7006991753
 20
288.4396084532
 10
14.7825548759
 20
287.7920504222
 10
14.7648293565
 20
287.1364139823
 10
14.6493150475
 20
286.4907904235
 10
14.438606726
 20
285.8696822699
 10
14.1374374943
 20
285.2870413606
 10
13.7525724621
 20
284.7559554521
 10
13.2926567823
 20
284.2883542302
 10
12.768021457
 20
283.8947413358
 10
12.1904512736
 20
283.5839584235
 10
11.5729200859
 20
283.3629865532
 10
8.987451348
 20
283.4442161022
 10
8.3850092311
 20
283.7035167597
 10
7.82808706
 20
284.0499428422
 10
7.3291948758
 20
284.4757126437
 10
6.8995392027
 20
284.9712621748
 10
10.3886755226
 20
285.2449154336
 10
10.7263929127
 20
285.2759468801
 10
11.0559095183
 20
285.3561640404
 10
11.3701016442
 20
285.48383273
 10
11.6621768888
 20
285.6561929275
 10
11.9258209876
 20
285.8695184427
 10
12.1553343179
 20
286.1191974716
 10
12.3457551174
 20
286.3998322972
 10
12.4929667506
 20
286.7053559808
 10
10.5095854553
 20
286.710641786
 10
10.398143719
 20
286.7326797556
 10
10.2905337187
 20
286.7690805866
 10
10.1885980837
 20
286.8192209795
 10
10.0940822803
 20
286.8822423694
 10
10.0086047233
 20
286.9570656274
 10
9.9336290636
 20
287.0424095382
 10
9.8704391257
 20
287.1368127396
 10
9.8201169249
 20
287.2386587449
 10
9.7835241392
 20
287.3462036225
 10
9.7612873548
 20
287.4576058581
 10
9.7537873371
 20
287.5709578868
 10
9.7611525105
 20
287.684318757
 10
9.7832567595
 20
287.7957473658
 10
9.8197215883
 20
287.9033356966
 10
9.8699226017
 20
288.0052414911
 10
9.9330001965
 20
288.0997197939
 10
10.0078742816
 20
288.1851528324
 10
10.0932627714
 20
288.260077718
 10
10.1877035402
 20
288.3232114955
 10
10.289579458
 20
288.3734731115
 10
10.3971460813
 20
288.4100019252
 10
10.5085615232
 20
288.4321724459
  0
HATCH
  5
238
100
AcDbEntity
  8
0
100
AcDbHatch
 62
2
  6
CONTINUOUS
 10
0.0
 20
0.0
 30
0.0
210
0.0
220
0.0
230
1.0
  2
SOLID
 70
1
 71
1
 91
1
 92
1
 93
49
 72
1
 10
10.5085615232
 20
288.4321724459
 11
10.6219179927
 21
288.4396084532
 72
1
 10
10.6219179927
 20
288.4396084532
 11
14.7006991753
 21
288.4396084532
 72
1
 10
14.7006991753
 20
288.4396084532
 11
14.7825548759
 21
287.7920504222
 72
1
 10
14.7825548759
 20
287.7920504222
 11
14.7648293565
 21
287.1364139823
 72
1
 10
14.7648293565
 20
287.1364139823
 11
14.6493150475
 21
286.4907904235
 72
1
 10
14.6493150475
 20
286.4907904235
 11
14.438606726
 21
285.8696822699
 72
1
 10
14.438606726
 20
285.8696822699
 11
14.1374374943
 21
285.2870413606
 72
1
 10
14.1374374943
 20
285.2870413606
 11
13.7525724621
 21
284.7559554521
 72
1
 10
13.7525724621
 20
284.7559554521
 11
13.2926567823
 21
284.2883542302
 72
1
 10
13.2926567823
 20
284.2883542302
 11
12.768021457
 21
283.8947413358
 72
1
 10
12.768021457
 20
283.8947413358
 11
12.1904512736
 21
283.5839584235
 72
1
 10
12.1904512736
 20
283.5839584235
 11
11.5729200859
 21
283.3629865532
 72
1
 10
11.5729200859
 20
283.3629865532
 11
8.987451348
 21
283.4442161022
 72
1
 10
8.987451348
 20
283.4442161022
 11
8.3850092311
 21
283.7035167597
 72
1
 10
8.3850092311
 20
283.7035167597
 11
7.82808706
 21
284.0499428422
 72
1
 10
7.82808706
 20
284.0499428422
 11
7.3291948758
 21
284.4757126437
 72
1
 10
7.3291948758
 20
284.4757126437
 11
6.8995392027
 21
284.9712621748
 72
1
 10
6.8995392027
 20
284.9712621748
 11
10.3886755226
 21
285.2449154336
 72
1
 10
10.3886755226
 20
285.2449154336
 11
10.7263929127
 21
285.2759468801
 72
1
 10
10.7263929127
 20
285.2759468801
 11
11.0559095183
 21
285.3561640404
 72
1
 10
11.0559095183
 20
285.3561640404
 11
11.3701016442
 21
285.48383273
 72
1
 10
11.3701016442
 20
285.48383273
 11
11.6621768888
 21
285.6561929275
 72
1
 10
11.6621768888
 20
285.6561929275
 11
11.9258209876
 21
285.8695184427
 72
1
 10
11.9258209876
 20
285.8695184427
 11
12.1553343179
 21
286.1191974716
 72
1
 10
12.1553343179
 20
286.1191974716
 11
12.3457551174
 21
286.3998322972
 72
1
 10
12.3457551174
 20
286.3998322972
 11
12.4929667506
 21
286.7053559808
 72
1
 10
12.4929667506
 20
286.7053559808
 11
10.5095854553
 21
286.710641786
 72
1
 10
10.5095854553
 20
286.710641786
 11
10.398143719
 21
286.7326797556
 72
1
 10
10.398143719
 20
286.7326797556
 11
10.2905337187
 21
286.7690805866
 72
1
 10
10.2905337187
 20
286.7690805866
 11
10.1885980837
 21
286.8192209795
 72
1
 10
10.1885980837
 20
286.8192209795
 11
10.0940822803
 21
286.8822423694
 72
1
 10
10.0940822803
 20
286.8822423694
 11
10.0086047233
 21
286.9570656274
 72
1
 10
10.0086047233
 20
286.9570656274
 11
9.9336290636
 21
287.0424095382
 72
1
 10
9.9336290636
 20
287.0424095382
 11
9.8704391257
 21
287.1368127396
 72
1
 10
9.8704391257
 20
287.1368127396
 11
9.8201169249
 21
287.2386587449
 72
1
 10
9.8201169249
 20
287.2386587449
 11
9.7835241392
 21
287.3462036225
 72
1
 10
9.7835241392
 20
287.3462036225
 11
9.7612873548
 21
287.4576058581
 72
1
 10
9.7612873548
 20
287.4576058581
 11
9.7537873371
 21
287.5709578868
 72
1
 10
9.7537873371
 20
287.5709578868
 11
9.7611525105
 21
287.684318757
 72
1
 10
9.7611525105
 20
287.684318757
 11
9.7832567595
 21
287.7957473658
 72
1
 10
9.7832567595
 20
287.7957473658
 11
9.8197215883
 21
287.9033356966
 72
1
 10
9.8197215883
 20
287.9033356966
 11
9.8699226017
 21
288.0052414911
 72
1
 10
9.8699226017
 20
288.0052414911
 11
9.9330001965
 21
288.0997197939
 72
1
 10
9.9330001965
 20
288.0997197939
 11
10.0078742816
 21
288.1851528324
 72
1
 10
10.0078742816
 20
288.1851528324
 11
10.0932627714
 21
288.260077718
 72
1
 10
10.0932627714
 20
288.260077718
 11
10.1877035402
 21
288.3232114955
 72
1
 10
10.1877035402
 20
288.3232114955
 11
10.289579458
 21
288.3734731115
 72
1
 10
10.289579458
 20
288.3734731115
 11
10.3971460813
 21
288.4100019252
 72
1
 10
10.3971460813
 20
288.4100019252
 11
10.5085615232
 21
288.4321724459
 97
1
330
237
 75
0
 76
1
 98
1
 10
0.0
 20
0.0
  0
LWPOLYLINE
  5
239
100
AcDbEntity
  8
0
100
AcDbPolyline
 62
2
  6
CONTINUOUS
 90
6
 70
0
 10
8.1607309639
 20
288.2860971893
 10
8.0765876384
 20
287.9575612141
 10
6.0387083724
 20
287.4105688624
 10
6.062174399
 20
288.0660249485
 10
8.2921395849
 20
288.5987435719
 10
8.1607309639
 20
288.2860971893
  0
HATCH
  5
23A
100
AcDbEntity
  8
0
100
AcDbHatch
 62
2
  6
CONTINUOUS
 10
0.0
 20
0.0
 30
0.0
210
0.0
220
0.0
230
1.0
  2
SOLID
 70
1
 71
1
 91
1
 92
1
 93
5
 72
1
 10
8.1607309639
 20
288.2860971893
 11
8.0765876384
 21
287.9575612141
 72
1
 10
8.0765876384
 20
287.9575612141
 11
6.0387083724
 21
287.4105688624
 72
1
 10
6.0387083724
 20
287.4105688624
 11
6.062174399
 21
288.0660249485
 72
1
 10
6.062174399
 20
288.0660249485
 11
8.2921395849
 21
288.5987435719
 72
1
 10
8.2921395849
 20
288.5987435719
 11
8.1607309639
 21
288.2860971893
 97
1
330
239
 75
0
 76
1
 98
1
 10
0.0
 20
0.0
  0
LWPOLYLINE
  5
23B
100
AcDbEntity
  8
0
100
AcDbPolyline
 62
2
  6
CONTINUOUS
 90
6
 70
0
 10
8.0415286713
 20
287.6202381419
 10
8.0563119892
 20
287.2814204332
 10
6.1134668197
 20
286.7589673662
 10
6.0387083724
 20
287.4105688624
 10
8.0765876384
 20
287.9575612141
 10
8.0415286713
 20
287.6202381419
  0
HATCH
  5
23C
100
AcDbEntity
  8
0
100
AcDbHatch
 62
2
  6
CONTINUOUS
 10
0.0
 20
0.0
 30
0.0
210
0.0
220
0.0
230
1.0
  2
SOLID
 70
1
 71
1
 91
1
 92
1
 93
5
 72
1
 10
8.0415286713
 20
287.6202381419
 11
8.0563119892
 21
287.2814204332
 72
1
 10
8.0563119892
 20
287.2814204332
 11
6.1134668197
 21
286.7589673662
 72
1
 10
6.1134668197
 20
286.7589673662
 11
6.0387083724
 21
287.4105688624
 72
1
 10
6.0387083724
 20
287.4105688624
 11
8.0765876384
 21
287.9575612141
 72
1
 10
8.0765876384
 20
287.9575612141
 11
8.0415286713
 21
287.6202381419
 97
1
330
23B
 75
0
 76
1
 98
1
 10
0.0
 20
0.0
  0
LWPOLYLINE
  5
23D
100
AcDbEntity
  8
0
100
AcDbPolyline
 62
2
  6
CONTINUOUS
 90
6
 70
0
 10
8.1206179971
 20
286.9484328604
 10
8.2330564876
 20
286.6284741567
 10
6.2847704556
 20
286.1258572655
 10
6.1134668197
 20
286.7589673662
 10
8.0563119892
 20
287.2814204332
 10
8.1206179971
 20
286.9484328604
  0
HATCH
  5
23E
100
AcDbEntity
  8
0
100
AcDbHatch
 62
2
  6
CONTINUOUS
 10
0.0
 20
0.0
 30
0.0
210
0.0
220
0.0
230
1.0
  2
SOLID
 70
1
 71
1
 91
1
 92
1
 93
5
 72
1
 10
8.1206179971
 20
286.9484328604
 11
8.2330564876
 21
286.6284741567
 72
1
 10
8.2330564876
 20
286.6284741567
 11
6.2847704556
 21
286.1258572655
 72
1
 10
6.2847704556
 20
286.1258572655
 11
6.1134668197
 21
286.7589673662
 72
1
 10
6.1134668197
 20
286.7589673662
 11
8.0563119892
 21
287.2814204332
 72
1
 10
8.0563119892
 20
287.2814204332
 11
8.1206179971
 21
286.9484328604
 97
1
330
23D
 75
0
 76
1
 98
1
 10
0.0
 20
0.0
  0
SOLID
  5
23F
100
AcDbEntity
  8
0
100
AcDbTrace
 62
2
  6
CONTINUOUS
 10
10.6229506861
 20
286.7033440387
 11
10.5095854553
 21
286.710641786
 12
12.4929667506
 22
286.7053559808
 13
12.4929667506
 23
286.7053559808
  0
LWPOLYLINE
  5
240
100
AcDbEntity
  8
0
100
AcDbPolyline
 62
2
  6
CONTINUOUS
 90
6
 70
0
 10
8.3911966954
 20
286.3284613888
 10
8.5916198468
 20
286.0548804198
 10
6.5487713176
 20
285.5254599969
 10
6.2847704556
 20
286.1258572655
 10
8.2330564876
 20
286.6284741567
 10
8.3911966954
 20
286.3284613888
  0
HATCH
  5
241
100
AcDbEntity
  8
0
100
AcDbHatch
 62
2
  6
CONTINUOUS
 10
0.0
 20
0.0
 30
0.0
210
0.0
220
0.0
230
1.0
  2
SOLID
 70
1
 71
1
 91
1
 92
1
 93
5
 72
1
 10
8.3911966954
 20
286.3284613888
 11
8.5916198468
 21
286.0548804198
 72
1
 10
8.5916198468
 20
286.0548804198
 11
6.5487713176
 21
285.5254599969
 72
1
 10
6.5487713176
 20
285.5254599969
 11
6.2847704556
 21
286.1258572655
 72
1
 10
6.2847704556
 20
286.1258572655
 11
8.2330564876
 21
286.6284741567
 72
1
 10
8.2330564876
 20
286.6284741567
 11
8.3911966954
 21
286.3284613888
 97
1
330
240
 75
0
 76
1
 98
1
 10
0.0
 20
0.0
  0
LWPOLYLINE
  5
242
100
AcDbEntity
  8
0
100
AcDbPolyline
 62
2
  6
CONTINUOUS
 90
7
 70
0
 10
9.1011630614
 20
285.609972373
 10
9.3992675016
 20
285.4482635949
 10
6.8995392027
 20
284.9712621748
 10
6.5487713176
 20
285.5254599969
 10
8.5916198468
 20
286.0548804198
 10
8.8299930691
 20
285.8136456936
 10
9.1011630614
 20
285.609972373
  0
HATCH
  5
243
100
AcDbEntity
  8
0
100
AcDbHatch
 62
2
  6
CONTINUOUS
 10
0.0
 20
0.0
 30
0.0
210
0.0
220
0.0
230
1.0
  2
SOLID
 70
1
 71
1
 91
1
 92
1
 93
6
 72
1
 10
9.1011630614
 20
285.609972373
 11
9.3992675016
 21
285.4482635949
 72
1
 10
9.3992675016
 20
285.4482635949
 11
6.8995392027
 21
284.9712621748
 72
1
 10
6.8995392027
 20
284.9712621748
 11
6.5487713176
 21
285.5254599969
 72
1
 10
6.5487713176
 20
285.5254599969
 11
8.5916198468
 21
286.0548804198
 72
1
 10
8.5916198468
 20
286.0548804198
 11
8.8299930691
 21
285.8136456936
 72
1
 10
8.8299930691
 20
285.8136456936
 11
9.1011630614
 21
285.609972373
 97
1
330
242
 75
0
 76
1
 98
1
 10
0.0
 20
0.0
  0
LWPOLYLINE
  5
244
100
AcDbEntity
  8
0
100
AcDbPolyline
 62
2
  6
CONTINUOUS
 90
6
 70
0
 10
10.3886755226
 20
285.2449154336
 10
6.8995392027
 20
284.9712621748
 10
9.3992675016
 20
285.4482635949
 10
9.7178617822
 20
285.3320152804
 10
10.0500583332
 20
285.2637405581
 10
10.3886755226
 20
285.2449154336
  0
HATCH
  5
245
100
AcDbEntity
  8
0
100
AcDbHatch
 62
2
  6
CONTINUOUS
 10
0.0
 20
0.0
 30
0.0
210
0.0
220
0.0
230
1.0
  2
SOLID
 70
1
 71
1
 91
1
 92
1
 93
5
 72
1
 10
10.3886755226
 20
285.2449154336
 11
6.8995392027
 21
284.9712621748
 72
1
 10
6.8995392027
 20
284.9712621748
 11
9.3992675016
 21
285.4482635949
 72
1
 10
9.3992675016
 20
285.4482635949
 11
9.7178617822
 21
285.3320152804
 72
1
 10
9.7178617822
 20
285.3320152804
 11
10.0500583332
 21
285.2637405581
 72
1
 10
10.0500583332
 20
285.2637405581
 11
10.3886755226
 21
285.2449154336
 97
1
330
244
 75
0
 76
1
 98
1
 10
0.0
 20
0.0
  0
LWPOLYLINE
  5
246
100
AcDbEntity
  8
0
100
AcDbPolyline
 62
2
  6
CONTINUOUS
 90
6
 70
0
 10
9.6218808634
 20
283.2778654929
 10
8.987451348
 20
283.4442161022
 10
11.5729200859
 20
283.3629865532
 10
10.9292993842
 20
283.2367893757
 10
10.2740467029
 20
283.2082016352
 10
9.6218808634
 20
283.2778654929
  0
HATCH
  5
247
100
AcDbEntity
  8
0
100
AcDbHatch
 62
2
  6
CONTINUOUS
 10
0.0
 20
0.0
 30
0.0
210
0.0
220
0.0
230
1.0
  2
SOLID
 70
1
 71
1
 91
1
 92
1
 93
5
 72
1
 10
9.6218808634
 20
283.2778654929
 11
8.987451348
 21
283.4442161022
 72
1
 10
8.987451348
 20
283.4442161022
 11
11.5729200859
 21
283.3629865532
 72
1
 10
11.5729200859
 20
283.3629865532
 11
10.9292993842
 21
283.2367893757
 72
1
 10
10.9292993842
 20
283.2367893757
 11
10.2740467029
 21
283.2082016352
 72
1
 10
10.2740467029
 20
283.2082016352
 11
9.6218808634
 21
283.2778654929
 97
1
330
246
 75
0
 76
1
 98
1
 10
0.0
 20
0.0
  0
LWPOLYLINE
  5
248
100
AcDbEntity
  8
0
100
AcDbPolyline
 62
2
  6
CONTINUOUS
 90
8
 70
0
 10
16.6257546957
 20
288.4462983908
 10
16.6257546957
 20
291.7418023453
 10
18.7756543471
 20
291.7418023453
 10
18.7675001076
 20
286.1887625424
 10
16.6243458713
 20
285.7994372127
 10
16.5962635235
 20
286.206571522
 10
16.5962635235
 20
286.7097707
 10
16.6257546957
 20
288.4462983908
  0
HATCH
  5
249
100
AcDbEntity
  8
0
100
AcDbHatch
 62
2
  6
CONTINUOUS
 10
0.0
 20
0.0
 30
0.0
210
0.0
220
0.0
230
1.0
  2
SOLID
 70
1
 71
1
 91
1
 92
1
 93
7
 72
1
 10
16.6257546957
 20
288.4462983908
 11
16.6257546957
 21
291.7418023453
 72
1
 10
16.6257546957
 20
291.7418023453
 11
18.7756543471
 21
291.7418023453
 72
1
 10
18.7756543471
 20
291.7418023453
 11
18.7675001076
 21
286.1887625424
 72
1
 10
18.7675001076
 20
286.1887625424
 11
16.6243458713
 21
285.7994372127
 72
1
 10
16.6243458713
 20
285.7994372127
 11
16.5962635235
 21
286.206571522
 72
1
 10
16.5962635235
 20
286.206571522
 11
16.5962635235
 21
286.7097707
 72
1
 10
16.5962635235
 20
286.7097707
 11
16.6257546957
 21
288.4462983908
 97
1
330
248
 75
0
 76
1
 98
1
 10
0.0
 20
0.0
  0
LWPOLYLINE
  5
24A
100
AcDbEntity
  8
0
100
AcDbPolyline
 62
2
  6
CONTINUOUS
 90
19
 70
0
 10
15.4613006768
 20
288.4267864074
 10
15.4585123173
 20
288.4462983908
 10
16.6257546957
 20
288.4462983908
 10
16.5962635235
 20
286.7097707
 10
15.4828019239
 20
286.7310241374
 10
15.4934148613
 20
286.8269721689
 10
15.5026102575
 20
286.9228679315
 10
15.5167229312
 20
287.1143654607
 10
15.5250935749
 20
287.3054384223
 10
15.5277298368
 20
287.4977613022
 10
15.5246400792
 20
287.6912132758
 10
15.5158326847
 20
287.8851942116
 10
15.5013301686
 20
288.0795445568
 10
15.4919484207
 20
288.1767738783
 10
15.4811488546
 20
288.2739942498
 10
15.4752179338
 20
288.3225905116
 10
15.4689331963
 20
288.3711718509
 10
15.4622948389
 20
288.4197340355
 10
15.4613006768
 20
288.4267864074
  0
HATCH
  5
24B
100
AcDbEntity
  8
0
100
AcDbHatch
 62
2
  6
CONTINUOUS
 10
0.0
 20
0.0
 30
0.0
210
0.0
220
0.0
230
1.0
  2
SOLID
 70
1
 71
1
 91
1
 92
1
 93
18
 72
1
 10
15.4613006768
 20
288.4267864074
 11
15.4585123173
 21
288.4462983908
 72
1
 10
15.4585123173
 20
288.4462983908
 11
16.6257546957
 21
288.4462983908
 72
1
 10
16.6257546957
 20
288.4462983908
 11
16.5962635235
 21
286.7097707
 72
1
 10
16.5962635235
 20
286.7097707
 11
15.4828019239
 21
286.7310241374
 72
1
 10
15.4828019239
 20
286.7310241374
 11
15.4934148613
 21
286.8269721689
 72
1
 10
15.4934148613
 20
286.8269721689
 11
15.5026102575
 21
286.9228679315
 72
1
 10
15.5026102575
 20
286.9228679315
 11
15.5167229312
 21
287.1143654607
 72
1
 10
15.5167229312
 20
287.1143654607
 11
15.5250935749
 21
287.3054384223
 72
1
 10
15.5250935749
 20
287.3054384223
 11
15.5277298368
 21
287.4977613022
 72
1
 10
15.5277298368
 20
287.4977613022
 11
15.5246400792
 21
287.6912132758
 72
1
 10
15.5246400792
 20
287.6912132758
 11
15.5158326847
 21
287.8851942116
 72
1
 10
15.5158326847
 20
287.8851942116
 11
15.5013301686
 21
288.0795445568
 72
1
 10
15.5013301686
 20
288.0795445568
 11
15.4919484207
 21
288.1767738783
 72
1
 10
15.4919484207
 20
288.1767738783
 11
15.4811488546
 21
288.2739942498
 72
1
 10
15.4811488546
 20
288.2739942498
 11
15.4752179338
 21
288.3225905116
 72
1
 10
15.4752179338
 20
288.3225905116
 11
15.4689331963
 21
288.3711718509
 72
1
 10
15.4689331963
 20
288.3711718509
 11
15.4622948389
 21
288.4197340355
 72
1
 10
15.4622948389
 20
288.4197340355
 11
15.4613006768
 21
288.4267864074
 97
1
330
24A
 75
0
 76
1
 98
1
 10
0.0
 20
0.0
  0
SOLID
  5
24C
100
AcDbEntity
  8
0
100
AcDbTrace
 62
2
  6
CONTINUOUS
 10
15.4801156353
 20
286.7085698414
 11
15.4828019239
 21
286.7310241374
 12
16.5962635235
 22
286.7097707
 13
16.5962635235
 23
286.7097707
  0
LWPOLYLINE
  5
24D
100
AcDbEntity
  8
0
100
AcDbPolyline
 62
2
  6
CONTINUOUS
 90
19
 70
0
 10
22.8464682804
 20
286.2121871597
 10
22.8191175755
 20
285.8050030454
 10
22.7389402891
 20
285.4048548643
 10
22.6073036975
 20
285.0185664075
 10
19.8723975014
 20
285.2169195533
 10
19.9979803276
 20
285.2417078807
 10
20.1192532493
 20
285.2826759887
 10
20.2341412532
 20
285.3391229015
 10
20.3406785737
 20
285.4100827968
 10
20.4370423277
 20
285.4943415312
 10
20.5215837047
 20
285.5904574143
 10
20.5928561783
 20
285.6967858767
 10
20.6496402566
 20
285.8115076089
 10
20.6909643484
 20
285.9326596904
 10
20.716121387
 20
286.0581691753
 10
20.7246809285
 20
286.1858885617
 10
20.7328380589
 20
291.7408943502
 10
22.8560234527
 20
291.7377766037
 10
22.8464682804
 20
286.2121871597
  0
HATCH
  5
24E
100
AcDbEntity
  8
0
100
AcDbHatch
 62
2
  6
CONTINUOUS
 10
0.0
 20
0.0
 30
0.0
210
0.0
220
0.0
230
1.0
  2
SOLID
 70
1
 71
1
 91
1
 92
1
 93
18
 72
1
 10
22.8464682804
 20
286.2121871597
 11
22.8191175755
 21
285.8050030454
 72
1
 10
22.8191175755
 20
285.8050030454
 11
22.7389402891
 21
285.4048548643
 72
1
 10
22.7389402891
 20
285.4048548643
 11
22.6073036975
 21
285.0185664075
 72
1
 10
22.6073036975
 20
285.0185664075
 11
19.8723975014
 21
285.2169195533
 72
1
 10
19.8723975014
 20
285.2169195533
 11
19.9979803276
 21
285.2417078807
 72
1
 10
19.9979803276
 20
285.2417078807
 11
20.1192532493
 21
285.2826759887
 72
1
 10
20.1192532493
 20
285.2826759887
 11
20.2341412532
 21
285.3391229015
 72
1
 10
20.2341412532
 20
285.3391229015
 11
20.3406785737
 21
285.4100827968
 72
1
 10
20.3406785737
 20
285.4100827968
 11
20.4370423277
 21
285.4943415312
 72
1
 10
20.4370423277
 20
285.4943415312
 11
20.5215837047
 21
285.5904574143
 72
1
 10
20.5215837047
 20
285.5904574143
 11
20.5928561783
 21
285.6967858767
 72
1
 10
20.5928561783
 20
285.6967858767
 11
20.6496402566
 21
285.8115076089
 72
1
 10
20.6496402566
 20
285.8115076089
 11
20.6909643484
 21
285.9326596904
 72
1
 10
20.6909643484
 20
285.9326596904
 11
20.716121387
 21
286.0581691753
 72
1
 10
20.716121387
 20
286.0581691753
 11
20.7246809285
 21
286.1858885617
 72
1
 10
20.7246809285
 20
286.1858885617
 11
20.7328380589
 21
291.7408943502
 72
1
 10
20.7328380589
 20
291.7408943502
 11
22.8560234527
 21
291.7377766037
 72
1
 10
22.8560234527
 20
291.7377766037
 11
22.8464682804
 21
286.2121871597
 97
1
330
24D
 75
0
 76
1
 98
1
 10
0.0
 20
0.0
  0
LWPOLYLINE
  5
24F
100
AcDbEntity
  8
0
100
AcDbPolyline
 62
2
  6
CONTINUOUS
 90
8
 70
0
 10
18.8414409547
 20
285.8141628208
 10
18.8978878675
 20
285.6992748169
 10
16.7052420719
 20
285.3994337518
 10
16.6243458713
 20
285.7994372127
 10
18.7675001076
 20
286.1887625424
 10
18.7756845193
 20
286.0610185687
 10
18.8004728468
 20
285.9354357425
 10
18.8414409547
 20
285.8141628208
  0
HATCH
  5
250
100
AcDbEntity
  8
0
100
AcDbHatch
 62
2
  6
CONTINUOUS
 10
0.0
 20
0.0
 30
0.0
210
0.0
220
0.0
230
1.0
  2
SOLID
 70
1
 71
1
 91
1
 92
1
 93
7
 72
1
 10
18.8414409547
 20
285.8141628208
 11
18.8978878675
 21
285.6992748169
 72
1
 10
18.8978878675
 20
285.6992748169
 11
16.7052420719
 21
285.3994337518
 72
1
 10
16.7052420719
 20
285.3994337518
 11
16.6243458713
 21
285.7994372127
 72
1
 10
16.6243458713
 20
285.7994372127
 11
18.7675001076
 21
286.1887625424
 72
1
 10
18.7675001076
 20
286.1887625424
 11
18.7756845193
 21
286.0610185687
 72
1
 10
18.7756845193
 20
286.0610185687
 11
18.8004728468
 21
285.9354357425
 72
1
 10
18.8004728468
 20
285.9354357425
 11
18.8414409547
 21
285.8141628208
 97
1
330
24F
 75
0
 76
1
 98
1
 10
0.0
 20
0.0
  0
LWPOLYLINE
  5
251
100
AcDbEntity
  8
0
100
AcDbPolyline
 62
2
  6
CONTINUOUS
 90
8
 70
0
 10
19.1492223803
 20
285.4118323654
 10
19.2555508427
 20
285.3405598918
 10
16.8375725897
 20
285.0133824622
 10
16.7052420719
 20
285.3994337518
 10
18.8978878675
 20
285.6992748169
 10
18.9688477629
 20
285.5927374964
 10
19.0531064972
 20
285.4963737424
 10
19.1492223803
 20
285.4118323654
  0
HATCH
  5
252
100
AcDbEntity
  8
0
100
AcDbHatch
 62
2
  6
CONTINUOUS
 10
0.0
 20
0.0
 30
0.0
210
0.0
220
0.0
230
1.0
  2
SOLID
 70
1
 71
1
 91
1
 92
1
 93
7
 72
1
 10
19.1492223803
 20
285.4118323654
 11
19.2555508427
 21
285.3405598918
 72
1
 10
19.2555508427
 20
285.3405598918
 11
16.8375725897
 21
285.0133824622
 72
1
 10
16.8375725897
 20
285.0133824622
 11
16.7052420719
 21
285.3994337518
 72
1
 10
16.7052420719
 20
285.3994337518
 11
18.8978878675
 21
285.6992748169
 72
1
 10
18.8978878675
 20
285.6992748169
 11
18.9688477629
 21
285.5927374964
 72
1
 10
18.9688477629
 20
285.5927374964
 11
19.0531064972
 21
285.4963737424
 72
1
 10
19.0531064972
 20
285.4963737424
 11
19.1492223803
 21
285.4118323654
 97
1
330
251
 75
0
 76
1
 98
1
 10
0.0
 20
0.0
  0
LWPOLYLINE
  5
253
100
AcDbEntity
  8
0
100
AcDbPolyline
 62
2
  6
CONTINUOUS
 90
26
 70
0
 10
19.7446535277
 20
285.2087351416
 10
19.8723975014
 20
285.2169195533
 10
22.6073036975
 20
285.0185664075
 10
22.4264526204
 20
284.6527251141
 10
22.1994711403
 20
284.3135697341
 10
21.9302300087
 20
284.0068839387
 10
21.6233206378
 20
283.7378976897
 10
21.2839768022
 20
283.5111980529
 10
20.9179853868
 20
283.3306509734
 10
20.5315877017
 20
283.1993353496
 10
20.1313730487
 20
283.1194905277
 10
19.7241663523
 20
283.0924781144
 10
19.3169117736
 20
283.1187587566
 10
18.91655429
 20
283.1978842863
 10
18.529921262
 20
283.3285053633
 10
18.1636060046
 20
283.5083944853
 10
17.8238553504
 20
283.7344839743
 10
17.5164631218
 20
284.0029182901
 10
17.2466713278
 20
284.3091197792
 10
17.019080771
 20
284.6478667387
 10
16.8375725897
 20
285.0133824622
 10
19.2555508427
 20
285.3405598918
 10
19.370272575
 20
285.2837758135
 10
19.4914246564
 20
285.2424517217
 10
19.6169341414
 20
285.2172946831
 10
19.7446535277
 20
285.2087351416
  0
HATCH
  5
254
100
AcDbEntity
  8
0
100
AcDbHatch
 62
2
  6
CONTINUOUS
 10
0.0
 20
0.0
 30
0.0
210
0.0
220
0.0
230
1.0
  2
SOLID
 70
1
 71
1
 91
1
 92
1
 93
25
 72
1
 10
19.7446535277
 20
285.2087351416
 11
19.8723975014
 21
285.2169195533
 72
1
 10
19.8723975014
 20
285.2169195533
 11
22.6073036975
 21
285.0185664075
 72
1
 10
22.6073036975
 20
285.0185664075
 11
22.4264526204
 21
284.6527251141
 72
1
 10
22.4264526204
 20
284.6527251141
 11
22.1994711403
 21
284.3135697341
 72
1
 10
22.1994711403
 20
284.3135697341
 11
21.9302300087
 21
284.0068839387
 72
1
 10
21.9302300087
 20
284.0068839387
 11
21.6233206378
 21
283.7378976897
 72
1
 10
21.6233206378
 20
283.7378976897
 11
21.2839768022
 21
283.5111980529
 72
1
 10
21.2839768022
 20
283.5111980529
 11
20.9179853868
 21
283.3306509734
 72
1
 10
20.9179853868
 20
283.3306509734
 11
20.5315877017
 21
283.1993353496
 72
1
 10
20.5315877017
 20
283.1993353496
 11
20.1313730487
 21
283.1194905277
 72
1
 10
20.1313730487
 20
283.1194905277
 11
19.7241663523
 21
283.0924781144
 72
1
 10
19.7241663523
 20
283.0924781144
 11
19.3169117736
 21
283.1187587566
 72
1
 10
19.3169117736
 20
283.1187587566
 11
18.91655429
 21
283.1978842863
 72
1
 10
18.91655429
 20
283.1978842863
 11
18.529921262
 21
283.3285053633
 72
1
 10
18.529921262
 20
283.3285053633
 11
18.1636060046
 21
283.5083944853
 72
1
 10
18.1636060046
 20
283.5083944853
 11
17.8238553504
 21
283.7344839743
 72
1
 10
17.8238553504
 20
283.7344839743
 11
17.5164631218
 21
284.0029182901
 72
1
 10
17.5164631218
 20
284.0029182901
 11
17.2466713278
 21
284.3091197792
 72
1
 10
17.2466713278
 20
284.3091197792
 11
17.019080771
 21
284.6478667387
 72
1
 10
17.019080771
 20
284.6478667387
 11
16.8375725897
 21
285.0133824622
 72
1
 10
16.8375725897
 20
285.0133824622
 11
19.2555508427
 21
285.3405598918
 72
1
 10
19.2555508427
 20
285.3405598918
 11
19.370272575
 21
285.2837758135
 72
1
 10
19.370272575
 20
285.2837758135
 11
19.4914246564
 21
285.2424517217
 72
1
 10
19.4914246564
 20
285.2424517217
 11
19.6169341414
 21
285.2172946831
 72
1
 10
19.6169341414
 20
285.2172946831
 11
19.7446535277
 21
285.2087351416
 97
1
330
253
 75
0
 76
1
 98
1
 10
0.0
 20
0.0
  0
ENDBLK
  5
255
100
AcDbEntity
  8
0
  6
BYBLOCK
 62
0
100
AcDbBlockEnd
  0
BLOCK
  5
256
100
AcDbEntity
  8
0
100
AcDbBlockBegin
 62
2
  6
CONTINUOUS
  2
SYMBOL_2_BL0
 70
64
 10
252.0051336987
 20
17.0063304868
  3
SYMBOL_2_BL0
  1

  0
LINE
  5
257
100
AcDbEntity
  8
0
100
AcDbLine
 62
2
  6
CONTINUOUS
 10
245.0471016852
 20
14.0149327834
 11
245.0471016852
 21
19.9977281901
  0
LINE
  5
258
100
AcDbEntity
  8
0
100
AcDbLine
 62
2
  6
CONTINUOUS
 10
258.3545634155
 20
13.4063304868
 11
245.6557039818
 21
13.4063304868
  0
LINE
  5
259
100
AcDbEntity
  8
0
100
AcDbLine
 62
2
  6
CONTINUOUS
 10
245.6557039818
 20
20.6063304868
 11
258.3545634155
 21
20.6063304868
  0
LINE
  5
25A
100
AcDbEntity
  8
0
100
AcDbLine
 62
2
  6
CONTINUOUS
 10
258.9631657122
 20
19.9977281901
 11
258.9631657122
 21
14.0149327834
  0
SPLINE
  5
25B
100
AcDbEntity
  8
0
100
AcDbSpline
 62
2
  6
CONTINUOUS
 70
2
 71
3
 72
62
 73
58
 74
0
 42
0.0000001
 43
0.0000001
 44
0.0000000001
 40
0.0
 40
0.0
 40
0.0
 40
0.0
 40
1.0
 40
1.0
 40
1.0
 40
2.0
 40
2.0
 40
2.0
 40
3.0
 40
3.0
 40
3.0
 40
4.0
 40
4.0
 40
4.0
 40
5.0
 40
5.0
 40
5.0
 40
6.0
 40
6.0
 40
6.0
 40
7.0
 40
7.0
 40
7.0
 40
8.0
 40
8.0
 40
8.0
 40
9.0
 40
9.0
 40
9.0
 40
10.0
 40
10.0
 40
10.0
 40
11.0
 40
11.0
 40
11.0
 40
12.0
 40
12.0
 40
12.0
 40
13.0
 40
13.0
 40
13.0
 40
14.0
 40
14.0
 40
14.0
 40
15.0
 40
15.0
 40
15.0
 40
16.0
 40
16.0
 40
16.0
 40
17.0
 40
17.0
 40
17.0
 40
18.0
 40
18.0
 40
18.0
 40
19.0
 40
19.0
 40
19.0
 40
19.0
 10
255.4248786001
 20
19.4367908873
 30
0.0
 10
255.4248786001
 20
19.4367908873
 30
0.0
 10
255.4248786001
 20
16.2760496648
 30
0.0
 10
255.4248786001
 20
16.2760496648
 30
0.0
 10
255.4248786001
 20
16.2760496648
 30
0.0
 10
255.4290021113
 20
16.1446564266
 30
0.0
 10
255.4290021113
 20
16.1446564266
 30
0.0
 10
255.4290021113
 20
15.8401456082
 30
0.0
 10
255.1623017939
 20
15.5932591116
 30
0.0
 10
254.8577210855
 20
15.5932591116
 30
0.0
 10
254.5532102671
 20
15.5932591116
 30
0.0
 10
254.2963644425
 20
15.8401456082
 30
0.0
 10
254.2963644425
 20
16.1446564266
 30
0.0
 10
254.2963644425
 20
16.1446564266
 30
0.0
 10
254.28776797
 20
16.2760496648
 30
0.0
 10
254.28776797
 20
16.2760496648
 30
0.0
 10
254.28776797
 20
16.2760496648
 30
0.0
 10
254.28776797
 20
19.4367908873
 30
0.0
 10
254.28776797
 20
19.4367908873
 30
0.0
 10
254.28776797
 20
19.4367908873
 30
0.0
 10
253.0008131365
 20
19.4367908873
 30
0.0
 10
253.0008131365
 20
19.4367908873
 30
0.0
 10
253.0008131365
 20
19.4367908873
 30
0.0
 10
253.0008131365
 20
17.4753274679
 30
0.0
 10
253.0008131365
 20
17.4753274679
 30
0.0
 10
253.0008131365
 20
17.4753274679
 30
0.0
 10
252.160403115
 20
17.4753274679
 30
0.0
 10
252.160403115
 20
17.4753274679
 30
0.0
 10
252.191189669
 20
17.3044813133
 30
0.0
 10
252.2080506363
 20
17.1286729673
 30
0.0
 10
252.2080506363
 20
16.948636275
 30
0.0
 10
252.2080506363
 20
16.7697178231
 30
0.0
 10
252.191364394
 20
16.5948180473
 30
0.0
 10
252.1609272902
 20
16.424915408
 30
0.0
 10
252.1609272902
 20
16.424915408
 30
0.0
 10
253.0008131365
 20
16.424915408
 30
0.0
 10
253.0008131365
 20
16.424915408
 30
0.0
 10
253.0008131365
 20
16.424915408
 30
0.0
 10
253.0008131365
 20
16.2760496648
 30
0.0
 10
253.0008131365
 20
16.2760496648
 30
0.0
 10
253.0008131365
 20
16.2760496648
 30
0.0
 10
253.0008131365
 20
16.1446564266
 30
0.0
 10
253.0008131365
 20
16.1446564266
 30
0.0
 10
253.0008131365
 20
15.1281410266
 30
0.0
 10
253.8348107486
 20
14.3041027424
 30
0.0
 10
254.8513261486
 20
14.3041027424
 30
0.0
 10
255.8678764937
 20
14.3041027424
 30
0.0
 10
256.7118334337
 20
15.1281410266
 30
0.0
 10
256.7118334337
 20
16.1446564266
 30
0.0
 10
256.7118334337
 20
16.1446564266
 30
0.0
 10
256.7118334337
 20
16.2760496648
 30
0.0
 10
256.7118334337
 20
16.2760496648
 30
0.0
 10
256.7118334337
 20
16.2760496648
 30
0.0
 10
256.7118334337
 20
19.4367908873
 30
0.0
 10
256.7118334337
 20
19.4367908873
 30
0.0
 10
256.7118334337
 20
19.4367908873
 30
0.0
 10
255.4248786001
 20
19.4367908873
 30
0.0
 10
255.4248786001
 20
19.4367908873
 30
0.0
  0
SPLINE
  5
25C
100
AcDbEntity
  8
0
100
AcDbSpline
 62
2
  6
CONTINUOUS
 70
2
 71
3
 72
59
 73
55
 74
0
 42
0.0000001
 43
0.0000001
 44
0.0000000001
 40
0.0
 40
0.0
 40
0.0
 40
0.0
 40
1.0
 40
1.0
 40
1.0
 40
2.0
 40
2.0
 40
2.0
 40
3.0
 40
3.0
 40
3.0
 40
4.0
 40
4.0
 40
4.0
 40
5.0
 40
5.0
 40
5.0
 40
6.0
 40
6.0
 40
6.0
 40
7.0
 40
7.0
 40
7.0
 40
8.0
 40
8.0
 40
8.0
 40
9.0
 40
9.0
 40
9.0
 40
10.0
 40
10.0
 40
10.0
 40
11.0
 40
11.0
 40
11.0
 40
12.0
 40
12.0
 40
12.0
 40
13.0
 40
13.0
 40
13.0
 40
14.0
 40
14.0
 40
14.0
 40
15.0
 40
15.0
 40
15.0
 40
16.0
 40
16.0
 40
16.0
 40
17.0
 40
17.0
 40
17.0
 40
18.0
 40
18.0
 40
18.0
 40
18.0
 10
251.8823281968
 20
17.4753274679
 30
0.0
 10
251.8823281968
 20
17.4753274679
 30
0.0
 10
251.0738928596
 20
17.4753274679
 30
0.0
 10
251.0738928596
 20
17.4753274679
 30
0.0
 10
251.0738928596
 20
17.4753274679
 30
0.0
 10
250.5255008154
 20
17.4753274679
 30
0.0
 10
250.5255008154
 20
17.4753274679
 30
0.0
 10
250.5255008154
 20
17.4753274679
 30
0.0
 10
249.3703760326
 20
17.4753274679
 30
0.0
 10
249.3703760326
 20
17.4753274679
 30
0.0
 10
249.3703760326
 20
17.4753274679
 30
0.0
 10
249.3703760326
 20
17.4736151624
 30
0.0
 10
249.3703760326
 20
17.4736151624
 30
0.0
 10
249.0824466216
 20
17.4711690117
 30
0.0
 10
248.849747799
 20
17.2371772238
 30
0.0
 10
248.849747799
 20
16.948636275
 30
0.0
 10
248.849747799
 20
16.6585926908
 30
0.0
 10
249.0848927723
 20
16.4234477176
 30
0.0
 10
249.3749713015
 20
16.4234477176
 30
0.0
 10
249.3849131569
 20
16.4234477176
 30
0.0
 10
249.3946453422
 20
16.4243912328
 30
0.0
 10
249.4044823625
 20
16.424915408
 30
0.0
 10
249.4044823625
 20
16.424915408
 30
0.0
 10
250.5265841108
 20
16.424915408
 30
0.0
 10
250.5265841108
 20
16.424915408
 30
0.0
 10
250.3383877586
 20
15.935929881
 30
0.0
 10
249.8889774557
 20
15.5922806513
 30
0.0
 10
249.325209607
 20
15.5922806513
 30
0.0
 10
248.5766175997
 20
15.5922806513
 30
0.0
 10
248.0189301828
 20
16.1996249276
 30
0.0
 10
248.0189301828
 20
16.948636275
 30
0.0
 10
248.0189301828
 20
17.6976126774
 30
0.0
 10
248.5766175997
 20
18.3049918987
 30
0.0
 10
249.325209607
 20
18.3049918987
 30
0.0
 10
249.7912187898
 20
18.3049918987
 30
0.0
 10
250.1790559849
 20
18.0701264856
 30
0.0
 10
250.4058840457
 20
17.7124643067
 30
0.0
 10
250.4058840457
 20
17.7124643067
 30
0.0
 10
251.4479617207
 20
18.4876494667
 30
0.0
 10
251.4479617207
 20
18.4876494667
 30
0.0
 10
250.9776018842
 20
19.1531771849
 30
0.0
 10
250.2077283657
 20
19.5869845409
 30
0.0
 10
249.325209607
 20
19.5869845409
 30
0.0
 10
247.8681249916
 20
19.5869845409
 30
0.0
 10
246.7166869073
 20
18.405773308
 30
0.0
 10
246.7166869073
 20
16.948636275
 30
0.0
 10
246.7166869073
 20
15.4916040771
 30
0.0
 10
247.8681249916
 20
14.3103229542
 30
0.0
 10
249.325209607
 20
14.3103229542
 30
0.0
 10
250.7822592775
 20
14.3103229542
 30
0.0
 10
251.9337672517
 20
15.4916040771
 30
0.0
 10
251.9337672517
 20
16.948636275
 30
0.0
 10
251.9337672517
 20
17.1290224174
 30
0.0
 10
251.9159977141
 20
17.3051103235
 30
0.0
 10
251.8823281968
 20
17.4753274679
 30
0.0
  0
LWPOLYLINE
  5
25D
100
AcDbEntity
  8
0
100
AcDbPolyline
 62
2
  6
CONTINUOUS
 90
7
 70
0
 10
258.3545634155
 20
20.6063304868
 10
258.6135025194
 20
20.5481472868
 10
245.1833440306
 20
20.3804003931
 10
245.396764878
 20
20.5481472868
 10
245.6557039818
 20
20.6063304868
 10
246.976385363
 20
20.6063304868
 10
258.3545634155
 20
20.6063304868
  0
HATCH
  5
25E
100
AcDbEntity
  8
0
100
AcDbHatch
 62
2
  6
CONTINUOUS
 10
0.0
 20
0.0
 30
0.0
210
0.0
220
0.0
230
1.0
  2
SOLID
 70
1
 71
1
 91
1
 92
1
 93
6
 72
1
 10
258.3545634155
 20
20.6063304868
 11
258.6135025194
 21
20.5481472868
 72
1
 10
258.6135025194
 20
20.5481472868
 11
245.1833440306
 21
20.3804003931
 72
1
 10
245.1833440306
 20
20.3804003931
 11
245.396764878
 21
20.5481472868
 72
1
 10
245.396764878
 20
20.5481472868
 11
245.6557039818
 21
20.6063304868
 72
1
 10
245.6557039818
 20
20.6063304868
 11
246.976385363
 21
20.6063304868
 72
1
 10
246.976385363
 20
20.6063304868
 11
258.3545634155
 21
20.6063304868
 97
1
330
25D
 75
0
 76
1
 98
1
 10
0.0
 20
0.0
  0
LWPOLYLINE
  5
25F
100
AcDbEntity
  8
0
100
AcDbPolyline
 62
2
  6
CONTINUOUS
 90
18
 70
0
 10
258.7372356185
 20
20.4700881413
 10
258.9049797998
 20
20.2566696868
 10
258.9631657122
 20
19.9977288868
 10
249.325209607
 20
19.5869845409
 10
248.9334803387
 20
19.5579960868
 10
248.5550040651
 20
19.471971883
 10
248.1947230793
 20
19.3304912714
 10
247.8586654322
 20
19.1358046711
 10
247.5537188479
 20
18.8913367601
 10
247.4119396722
 20
18.7483930295
 10
247.1682265858
 20
18.4393007054
 10
246.9735692326
 20
18.0976677811
 10
245.0471016852
 20
14.6371435057
 10
245.0471016852
 20
19.9977288868
 10
245.1052875976
 20
20.2566696868
 10
245.1833440306
 20
20.3804003931
 10
258.6135025194
 20
20.5481472868
 10
258.7372356185
 20
20.4700881413
  0
HATCH
  5
260
100
AcDbEntity
  8
0
100
AcDbHatch
 62
2
  6
CONTINUOUS
 10
0.0
 20
0.0
 30
0.0
210
0.0
220
0.0
230
1.0
  2
SOLID
 70
1
 71
1
 91
1
 92
1
 93
17
 72
1
 10
258.7372356185
 20
20.4700881413
 11
258.9049797998
 21
20.2566696868
 72
1
 10
258.9049797998
 20
20.2566696868
 11
258.9631657122
 21
19.9977288868
 72
1
 10
258.9631657122
 20
19.9977288868
 11
249.325209607
 21
19.5869845409
 72
1
 10
249.325209607
 20
19.5869845409
 11
248.9334803387
 21
19.5579960868
 72
1
 10
248.9334803387
 20
19.5579960868
 11
248.5550040651
 21
19.471971883
 72
1
 10
248.5550040651
 20
19.471971883
 11
248.1947230793
 21
19.3304912714
 72
1
 10
248.1947230793
 20
19.3304912714
 11
247.8586654322
 21
19.1358046711
 72
1
 10
247.8586654322
 20
19.1358046711
 11
247.5537188479
 21
18.8913367601
 72
1
 10
247.5537188479
 20
18.8913367601
 11
247.4119396722
 21
18.7483930295
 72
1
 10
247.4119396722
 20
18.7483930295
 11
247.1682265858
 21
18.4393007054
 72
1
 10
247.1682265858
 20
18.4393007054
 11
246.9735692326
 21
18.0976677811
 72
1
 10
246.9735692326
 20
18.0976677811
 11
245.0471016852
 21
14.6371435057
 72
1
 10
245.0471016852
 20
14.6371435057
 11
245.0471016852
 21
19.9977288868
 72
1
 10
245.0471016852
 20
19.9977288868
 11
245.1052875976
 21
20.2566696868
 72
1
 10
245.1052875976
 20
20.2566696868
 11
245.1833440306
 21
20.3804003931
 72
1
 10
245.1833440306
 20
20.3804003931
 11
258.6135025194
 21
20.5481472868
 72
1
 10
258.6135025194
 20
20.5481472868
 11
258.7372356185
 21
20.4700881413
 97
1
330
25F
 75
0
 76
1
 98
1
 10
0.0
 20
0.0
  0
LWPOLYLINE
  5
261
100
AcDbEntity
  8
0
100
AcDbPolyline
 62
2
  6
CONTINUOUS
 90
37
 70
0
 10
249.325209607
 20
19.5869845409
 10
258.9631657122
 20
19.9977288868
 10
258.9631657122
 20
19.3755174678
 10
258.9631657122
 20
14.0149320868
 10
256.4752842789
 20
15.2498839876
 10
256.6058234665
 20
15.5339693186
 10
256.6851487731
 20
15.8341419967
 10
256.7118334337
 20
16.1446560868
 10
256.7118334337
 20
16.2760488868
 10
256.7118334337
 20
19.4367912868
 10
255.4248786001
 20
19.4367912868
 10
255.4248786001
 20
16.2760488868
 10
255.4290021113
 20
16.1446560868
 10
254.322400757
 20
15.9796854106
 10
254.2963644425
 20
16.1446560868
 10
254.28776797
 20
16.2760488868
 10
254.28776797
 20
19.4367912868
 10
253.0008131365
 20
19.4367912868
 10
253.0008131365
 20
17.4753240868
 10
252.160403115
 20
17.4753240868
 10
252.1817813755
 20
17.3392843749
 10
252.2080506363
 20
16.9486368868
 10
251.9047597321
 20
16.551295021
 10
251.9337672517
 20
16.9486368868
 10
251.9048627125
 20
17.3446039815
 10
251.8823281968
 20
17.4753240868
 10
251.0738928596
 20
17.4753240868
 10
250.5255008154
 20
17.4753240868
 10
250.4058840457
 20
17.7124643067
 10
251.4479617207
 20
18.4876494667
 10
251.1970647502
 20
18.7914885541
 10
251.0958813666
 20
18.8912338875
 10
250.790930515
 20
19.1357894408
 10
250.4549870227
 20
19.3305032225
 10
250.0949125483
 20
19.4719814385
 10
249.7166905268
 20
19.5579960868
 10
249.325209607
 20
19.5869845409
  0
HATCH
  5
262
100
AcDbEntity
  8
0
100
AcDbHatch
 62
2
  6
CONTINUOUS
 10
0.0
 20
0.0
 30
0.0
210
0.0
220
0.0
230
1.0
  2
SOLID
 70
1
 71
1
 91
1
 92
1
 93
36
 72
1
 10
249.325209607
 20
19.5869845409
 11
258.9631657122
 21
19.9977288868
 72
1
 10
258.9631657122
 20
19.9977288868
 11
258.9631657122
 21
19.3755174678
 72
1
 10
258.9631657122
 20
19.3755174678
 11
258.9631657122
 21
14.0149320868
 72
1
 10
258.9631657122
 20
14.0149320868
 11
256.4752842789
 21
15.2498839876
 72
1
 10
256.4752842789
 20
15.2498839876
 11
256.6058234665
 21
15.5339693186
 72
1
 10
256.6058234665
 20
15.5339693186
 11
256.6851487731
 21
15.8341419967
 72
1
 10
256.6851487731
 20
15.8341419967
 11
256.7118334337
 21
16.1446560868
 72
1
 10
256.7118334337
 20
16.1446560868
 11
256.7118334337
 21
16.2760488868
 72
1
 10
256.7118334337
 20
16.2760488868
 11
256.7118334337
 21
19.4367912868
 72
1
 10
256.7118334337
 20
19.4367912868
 11
255.4248786001
 21
19.4367912868
 72
1
 10
255.4248786001
 20
19.4367912868
 11
255.4248786001
 21
16.2760488868
 72
1
 10
255.4248786001
 20
16.2760488868
 11
255.4290021113
 21
16.1446560868
 72
1
 10
255.4290021113
 20
16.1446560868
 11
254.322400757
 21
15.9796854106
 72
1
 10
254.322400757
 20
15.9796854106
 11
254.2963644425
 21
16.1446560868
 72
1
 10
254.2963644425
 20
16.1446560868
 11
254.28776797
 21
16.2760488868
 72
1
 10
254.28776797
 20
16.2760488868
 11
254.28776797
 21
19.4367912868
 72
1
 10
254.28776797
 20
19.4367912868
 11
253.0008131365
 21
19.4367912868
 72
1
 10
253.0008131365
 20
19.4367912868
 11
253.0008131365
 21
17.4753240868
 72
1
 10
253.0008131365
 20
17.4753240868
 11
252.160403115
 21
17.4753240868
 72
1
 10
252.160403115
 20
17.4753240868
 11
252.1817813755
 21
17.3392843749
 72
1
 10
252.1817813755
 20
17.3392843749
 11
252.2080506363
 21
16.9486368868
 72
1
 10
252.2080506363
 20
16.9486368868
 11
251.9047597321
 21
16.551295021
 72
1
 10
251.9047597321
 20
16.551295021
 11
251.9337672517
 21
16.9486368868
 72
1
 10
251.9337672517
 20
16.9486368868
 11
251.9048627125
 21
17.3446039815
 72
1
 10
251.9048627125
 20
17.3446039815
 11
251.8823281968
 21
17.4753240868
 72
1
 10
251.8823281968
 20
17.4753240868
 11
251.0738928596
 21
17.4753240868
 72
1
 10
251.0738928596
 20
17.4753240868
 11
250.5255008154
 21
17.4753240868
 72
1
 10
250.5255008154
 20
17.4753240868
 11
250.4058840457
 21
17.7124643067
 72
1
 10
250.4058840457
 20
17.7124643067
 11
251.4479617207
 21
18.4876494667
 72
1
 10
251.4479617207
 20
18.4876494667
 11
251.1970647502
 21
18.7914885541
 72
1
 10
251.1970647502
 20
18.7914885541
 11
251.0958813666
 21
18.8912338875
 72
1
 10
251.0958813666
 20
18.8912338875
 11
250.790930515
 21
19.1357894408
 72
1
 10
250.790930515
 20
19.1357894408
 11
250.4549870227
 21
19.3305032225
 72
1
 10
250.4549870227
 20
19.3305032225
 11
250.0949125483
 21
19.4719814385
 72
1
 10
250.0949125483
 20
19.4719814385
 11
249.7166905268
 21
19.5579960868
 72
1
 10
249.7166905268
 20
19.5579960868
 11
249.325209607
 21
19.5869845409
 97
1
330
261
 75
0
 76
1
 98
1
 10
0.0
 20
0.0
  0
SOLID
  5
263
100
AcDbEntity
  8
0
100
AcDbTrace
 62
2
  6
CONTINUOUS
 10
249.325209607
 20
18.3049918987
 11
249.6015515005
 21
18.2762808868
 12
249.0486742656
 22
18.2762808868
 13
248.7909051555
 23
18.1920110388
  0
LWPOLYLINE
  5
264
100
AcDbEntity
  8
0
100
AcDbPolyline
 62
2
  6
CONTINUOUS
 90
14
 70
0
 10
249.8579130326
 20
18.1921822192
 10
250.0891502471
 20
18.0556253582
 10
250.2884401432
 20
17.8702844777
 10
250.4058840457
 20
17.7124643067
 10
250.5255008154
 20
17.4753240868
 10
249.3703760326
 20
17.4753240868
 10
248.0477447543
 20
17.2392773781
 10
248.1325818034
 20
17.5126161474
 10
248.1953316196
 20
17.6405558557
 10
248.3562755347
 20
17.8692181101
 10
248.5576291346
 20
18.055033615
 10
248.7909051555
 20
18.1920110388
 10
249.6015515005
 20
18.2762808868
 10
249.8579130326
 20
18.1921822192
  0
HATCH
  5
265
100
AcDbEntity
  8
0
100
AcDbHatch
 62
2
  6
CONTINUOUS
 10
0.0
 20
0.0
 30
0.0
210
0.0
220
0.0
230
1.0
  2
SOLID
 70
1
 71
1
 91
1
 92
1
 93
13
 72
1
 10
249.8579130326
 20
18.1921822192
 11
250.0891502471
 21
18.0556253582
 72
1
 10
250.0891502471
 20
18.0556253582
 11
250.2884401432
 21
17.8702844777
 72
1
 10
250.2884401432
 20
17.8702844777
 11
250.4058840457
 21
17.7124643067
 72
1
 10
250.4058840457
 20
17.7124643067
 11
250.5255008154
 21
17.4753240868
 72
1
 10
250.5255008154
 20
17.4753240868
 11
249.3703760326
 21
17.4753240868
 72
1
 10
249.3703760326
 20
17.4753240868
 11
248.0477447543
 21
17.2392773781
 72
1
 10
248.0477447543
 20
17.2392773781
 11
248.1325818034
 21
17.5126161474
 72
1
 10
248.1325818034
 20
17.5126161474
 11
248.1953316196
 21
17.6405558557
 72
1
 10
248.1953316196
 20
17.6405558557
 11
248.3562755347
 21
17.8692181101
 72
1
 10
248.3562755347
 20
17.8692181101
 11
248.5576291346
 21
18.055033615
 72
1
 10
248.5576291346
 20
18.055033615
 11
248.7909051555
 21
18.1920110388
 72
1
 10
248.7909051555
 20
18.1920110388
 11
249.6015515005
 21
18.2762808868
 72
1
 10
249.6015515005
 20
18.2762808868
 11
249.8579130326
 21
18.1921822192
 97
1
330
264
 75
0
 76
1
 98
1
 10
0.0
 20
0.0
  0
LWPOLYLINE
  5
266
100
AcDbEntity
  8
0
100
AcDbPolyline
 62
2
  6
CONTINUOUS
 90
10
 70
0
 10
248.9600917894
 20
17.2706650389
 10
248.8778731999
 20
17.1186159758
 10
248.849747799
 20
16.9486368868
 10
248.0477447543
 20
16.6579846804
 10
248.0189301828
 20
16.9486368868
 10
248.0477447543
 20
17.2392773781
 10
249.3703760326
 20
17.4753240868
 10
249.2006281149
 20
17.4440361074
 10
249.0491376174
 20
17.360461771
 10
248.9600917894
 20
17.2706650389
  0
HATCH
  5
267
100
AcDbEntity
  8
0
100
AcDbHatch
 62
2
  6
CONTINUOUS
 10
0.0
 20
0.0
 30
0.0
210
0.0
220
0.0
230
1.0
  2
SOLID
 70
1
 71
1
 91
1
 92
1
 93
9
 72
1
 10
248.9600917894
 20
17.2706650389
 11
248.8778731999
 21
17.1186159758
 72
1
 10
248.8778731999
 20
17.1186159758
 11
248.849747799
 21
16.9486368868
 72
1
 10
248.849747799
 20
16.9486368868
 11
248.0477447543
 21
16.6579846804
 72
1
 10
248.0477447543
 20
16.6579846804
 11
248.0189301828
 21
16.9486368868
 72
1
 10
248.0189301828
 20
16.9486368868
 11
248.0477447543
 21
17.2392773781
 72
1
 10
248.0477447543
 20
17.2392773781
 11
249.3703760326
 21
17.4753240868
 72
1
 10
249.3703760326
 20
17.4753240868
 11
249.2006281149
 21
17.4440361074
 72
1
 10
249.2006281149
 20
17.4440361074
 11
249.0491376174
 21
17.360461771
 72
1
 10
249.0491376174
 20
17.360461771
 11
248.9600917894
 21
17.2706650389
 97
1
330
266
 75
0
 76
1
 98
1
 10
0.0
 20
0.0
  0
SOLID
  5
268
100
AcDbEntity
  8
0
100
AcDbTrace
 62
2
  6
CONTINUOUS
 10
249.3703760326
 20
17.4736151624
 11
249.2006281149
 21
17.4440361074
 12
249.3703760326
 22
17.4753240868
 13
249.3703760326
 23
17.4753240868
  0
LWPOLYLINE
  5
269
100
AcDbEntity
  8
0
100
AcDbPolyline
 62
2
  6
CONTINUOUS
 90
6
 70
0
 10
248.8778737393
 20
16.7786383446
 10
248.9601041265
 20
16.6265254914
 10
248.1325807139
 20
16.3846438879
 10
248.0477447543
 20
16.6579846804
 10
248.849747799
 20
16.9486368868
 10
248.8778737393
 20
16.7786383446
  0
HATCH
  5
26A
100
AcDbEntity
  8
0
100
AcDbHatch
 62
2
  6
CONTINUOUS
 10
0.0
 20
0.0
 30
0.0
210
0.0
220
0.0
230
1.0
  2
SOLID
 70
1
 71
1
 91
1
 92
1
 93
5
 72
1
 10
248.8778737393
 20
16.7786383446
 11
248.9601041265
 21
16.6265254914
 72
1
 10
248.9601041265
 20
16.6265254914
 11
248.1325807139
 21
16.3846438879
 72
1
 10
248.1325807139
 20
16.3846438879
 11
248.0477447543
 21
16.6579846804
 72
1
 10
248.0477447543
 20
16.6579846804
 11
248.849747799
 21
16.9486368868
 72
1
 10
248.849747799
 20
16.9486368868
 11
248.8778737393
 21
16.7786383446
 97
1
330
269
 75
0
 76
1
 98
1
 10
0.0
 20
0.0
  0
LWPOLYLINE
  5
26B
100
AcDbEntity
  8
0
100
AcDbPolyline
 62
2
  6
CONTINUOUS
 90
6
 70
0
 10
252.1817998473
 20
16.5582257528
 10
252.1609272902
 20
16.4249160868
 10
251.8185823915
 20
16.1663693064
 10
251.9047597321
 20
16.551295021
 10
252.2080506363
 20
16.9486368868
 10
252.1817998473
 20
16.5582257528
  0
HATCH
  5
26C
100
AcDbEntity
  8
0
100
AcDbHatch
 62
2
  6
CONTINUOUS
 10
0.0
 20
0.0
 30
0.0
210
0.0
220
0.0
230
1.0
  2
SOLID
 70
1
 71
1
 91
1
 92
1
 93
5
 72
1
 10
252.1817998473
 20
16.5582257528
 11
252.1609272902
 21
16.4249160868
 72
1
 10
252.1609272902
 20
16.4249160868
 11
251.8185823915
 21
16.1663693064
 72
1
 10
251.8185823915
 20
16.1663693064
 11
251.9047597321
 21
16.551295021
 72
1
 10
251.9047597321
 20
16.551295021
 11
252.2080506363
 21
16.9486368868
 72
1
 10
252.2080506363
 20
16.9486368868
 11
252.1817998473
 21
16.5582257528
 97
1
330
26B
 75
0
 76
1
 98
1
 10
0.0
 20
0.0
  0
LWPOLYLINE
  5
26D
100
AcDbEntity
  8
0
100
AcDbPolyline
 62
2
  6
CONTINUOUS
 90
16
 70
0
 10
249.3749713015
 20
16.4234477176
 10
249.4044823625
 20
16.4249160868
 10
250.5265841108
 20
16.4249160868
 10
250.4477844956
 20
16.255468722
 10
250.2885110803
 20
16.0269603376
 10
250.0892358138
 20
15.8416414042
 10
249.8579848288
 20
15.7050904278
 10
249.6015902951
 20
15.6209928868
 10
249.325209607
 20
15.5922806513
 10
249.0486666225
 20
15.6209928868
 10
248.7908934768
 20
15.7052616083
 10
248.5576172154
 20
15.8422380361
 10
248.3562663537
 20
16.0280511814
 10
248.1953264356
 20
16.2567104668
 10
248.1325807139
 20
16.3846438879
 10
249.3749713015
 20
16.4234477176
  0
HATCH
  5
26E
100
AcDbEntity
  8
0
100
AcDbHatch
 62
2
  6
CONTINUOUS
 10
0.0
 20
0.0
 30
0.0
210
0.0
220
0.0
230
1.0
  2
SOLID
 70
1
 71
1
 91
1
 92
1
 93
15
 72
1
 10
249.3749713015
 20
16.4234477176
 11
249.4044823625
 21
16.4249160868
 72
1
 10
249.4044823625
 20
16.4249160868
 11
250.5265841108
 21
16.4249160868
 72
1
 10
250.5265841108
 20
16.4249160868
 11
250.4477844956
 21
16.255468722
 72
1
 10
250.4477844956
 20
16.255468722
 11
250.2885110803
 21
16.0269603376
 72
1
 10
250.2885110803
 20
16.0269603376
 11
250.0892358138
 21
15.8416414042
 72
1
 10
250.0892358138
 20
15.8416414042
 11
249.8579848288
 21
15.7050904278
 72
1
 10
249.8579848288
 20
15.7050904278
 11
249.6015902951
 21
15.6209928868
 72
1
 10
249.6015902951
 20
15.6209928868
 11
249.325209607
 21
15.5922806513
 72
1
 10
249.325209607
 20
15.5922806513
 11
249.0486666225
 21
15.6209928868
 72
1
 10
249.0486666225
 20
15.6209928868
 11
248.7908934768
 21
15.7052616083
 72
1
 10
248.7908934768
 20
15.7052616083
 11
248.5576172154
 21
15.8422380361
 72
1
 10
248.5576172154
 20
15.8422380361
 11
248.3562663537
 21
16.0280511814
 72
1
 10
248.3562663537
 20
16.0280511814
 11
248.1953264356
 21
16.2567104668
 72
1
 10
248.1953264356
 20
16.2567104668
 11
248.1325807139
 21
16.3846438879
 72
1
 10
248.1325807139
 20
16.3846438879
 11
249.3749713015
 21
16.4234477176
 97
1
330
26D
 75
0
 76
1
 98
1
 10
0.0
 20
0.0
  0
LWPOLYLINE
  5
26F
100
AcDbEntity
  8
0
100
AcDbPolyline
 62
2
  6
CONTINUOUS
 90
6
 70
0
 10
249.3749713015
 20
16.4234477176
 10
248.1325807139
 20
16.3846438879
 10
248.9601041265
 20
16.6265254914
 10
249.0528329113
 20
16.533801119
 10
249.2049559764
 20
16.4515733563
 10
249.3749713015
 20
16.4234477176
  0
HATCH
  5
270
100
AcDbEntity
  8
0
100
AcDbHatch
 62
2
  6
CONTINUOUS
 10
0.0
 20
0.0
 30
0.0
210
0.0
220
0.0
230
1.0
  2
SOLID
 70
1
 71
1
 91
1
 92
1
 93
5
 72
1
 10
249.3749713015
 20
16.4234477176
 11
248.1325807139
 21
16.3846438879
 72
1
 10
248.1325807139
 20
16.3846438879
 11
248.9601041265
 21
16.6265254914
 72
1
 10
248.9601041265
 20
16.6265254914
 11
249.0528329113
 21
16.533801119
 72
1
 10
249.0528329113
 20
16.533801119
 11
249.2049559764
 21
16.4515733563
 72
1
 10
249.2049559764
 20
16.4515733563
 11
249.3749713015
 21
16.4234477176
 97
1
330
26F
 75
0
 76
1
 98
1
 10
0.0
 20
0.0
  0
LWPOLYLINE
  5
271
100
AcDbEntity
  8
0
100
AcDbPolyline
 62
2
  6
CONTINUOUS
 90
7
 70
0
 10
253.0008131365
 20
16.2760488868
 10
253.0008131365
 20
16.1446560868
 10
251.6768798735
 20
15.7996736415
 10
251.8185823915
 20
16.1663693064
 10
252.1609272902
 20
16.4249160868
 10
253.0008131365
 20
16.4249160868
 10
253.0008131365
 20
16.2760488868
  0
HATCH
  5
272
100
AcDbEntity
  8
0
100
AcDbHatch
 62
2
  6
CONTINUOUS
 10
0.0
 20
0.0
 30
0.0
210
0.0
220
0.0
230
1.0
  2
SOLID
 70
1
 71
1
 91
1
 92
1
 93
6
 72
1
 10
253.0008131365
 20
16.2760488868
 11
253.0008131365
 21
16.1446560868
 72
1
 10
253.0008131365
 20
16.1446560868
 11
251.6768798735
 21
15.7996736415
 72
1
 10
251.6768798735
 20
15.7996736415
 11
251.8185823915
 21
16.1663693064
 72
1
 10
251.8185823915
 20
16.1663693064
 11
252.1609272902
 21
16.4249160868
 72
1
 10
252.1609272902
 20
16.4249160868
 11
253.0008131365
 21
16.4249160868
 72
1
 10
253.0008131365
 20
16.4249160868
 11
253.0008131365
 21
16.2760488868
 97
1
330
271
 75
0
 76
1
 98
1
 10
0.0
 20
0.0
  0
LWPOLYLINE
  5
273
100
AcDbEntity
  8
0
100
AcDbPolyline
 62
2
  6
CONTINUOUS
 90
13
 70
0
 10
255.4030133467
 20
15.9826031108
 10
255.3262264998
 20
15.8331418082
 10
255.2025553488
 20
15.7084443367
 10
255.186082282
 20
15.6966487652
 10
255.0277617393
 20
15.6193512868
 10
254.8577210855
 20
15.5932591116
 10
254.6886683179
 20
15.6193512868
 10
254.5333788168
 20
15.6962400335
 10
254.5216408071
 20
15.7047097411
 10
254.3990292504
 20
15.828830204
 10
254.322400757
 20
15.9796854106
 10
255.4290021113
 20
16.1446560868
 10
255.4030133467
 20
15.9826031108
  0
HATCH
  5
274
100
AcDbEntity
  8
0
100
AcDbHatch
 62
2
  6
CONTINUOUS
 10
0.0
 20
0.0
 30
0.0
210
0.0
220
0.0
230
1.0
  2
SOLID
 70
1
 71
1
 91
1
 92
1
 93
12
 72
1
 10
255.4030133467
 20
15.9826031108
 11
255.3262264998
 21
15.8331418082
 72
1
 10
255.3262264998
 20
15.8331418082
 11
255.2025553488
 21
15.7084443367
 72
1
 10
255.2025553488
 20
15.7084443367
 11
255.186082282
 21
15.6966487652
 72
1
 10
255.186082282
 20
15.6966487652
 11
255.0277617393
 21
15.6193512868
 72
1
 10
255.0277617393
 20
15.6193512868
 11
254.8577210855
 21
15.5932591116
 72
1
 10
254.8577210855
 20
15.5932591116
 11
254.6886683179
 21
15.6193512868
 72
1
 10
254.6886683179
 20
15.6193512868
 11
254.5333788168
 21
15.6962400335
 72
1
 10
254.5333788168
 20
15.6962400335
 11
254.5216408071
 21
15.7047097411
 72
1
 10
254.5216408071
 20
15.7047097411
 11
254.3990292504
 21
15.828830204
 72
1
 10
254.3990292504
 20
15.828830204
 11
254.322400757
 21
15.9796854106
 72
1
 10
254.322400757
 20
15.9796854106
 11
255.4290021113
 21
16.1446560868
 72
1
 10
255.4290021113
 20
16.1446560868
 11
255.4030133467
 21
15.9826031108
 97
1
330
273
 75
0
 76
1
 98
1
 10
0.0
 20
0.0
  0
LWPOLYLINE
  5
275
100
AcDbEntity
  8
0
100
AcDbPolyline
 62
2
  6
CONTINUOUS
 90
13
 70
0
 10
253.0275070267
 20
15.8323395089
 10
253.1068139436
 20
15.5307973706
 10
253.237192875
 20
15.2459281004
 10
253.4159117633
 20
14.9850893018
 10
253.6383386229
 20
14.7565471656
 10
250.4556712576
 20
14.5668192868
 10
250.7917377552
 20
14.7615072868
 10
251.096697622
 20
15.0059870805
 10
251.2384895038
 20
15.1489409451
 10
251.4822144736
 20
15.4580403019
 10
251.6768798735
 20
15.7996736415
 10
253.0008131365
 20
16.1446560868
 10
253.0275070267
 20
15.8323395089
  0
HATCH
  5
276
100
AcDbEntity
  8
0
100
AcDbHatch
 62
2
  6
CONTINUOUS
 10
0.0
 20
0.0
 30
0.0
210
0.0
220
0.0
230
1.0
  2
SOLID
 70
1
 71
1
 91
1
 92
1
 93
12
 72
1
 10
253.0275070267
 20
15.8323395089
 11
253.1068139436
 21
15.5307973706
 72
1
 10
253.1068139436
 20
15.5307973706
 11
253.237192875
 21
15.2459281004
 72
1
 10
253.237192875
 20
15.2459281004
 11
253.4159117633
 21
14.9850893018
 72
1
 10
253.4159117633
 20
14.9850893018
 11
253.6383386229
 21
14.7565471656
 72
1
 10
253.6383386229
 20
14.7565471656
 11
250.4556712576
 21
14.5668192868
 72
1
 10
250.4556712576
 20
14.5668192868
 11
250.7917377552
 21
14.7615072868
 72
1
 10
250.7917377552
 20
14.7615072868
 11
251.096697622
 21
15.0059870805
 72
1
 10
251.096697622
 20
15.0059870805
 11
251.2384895038
 21
15.1489409451
 72
1
 10
251.2384895038
 20
15.1489409451
 11
251.4822144736
 21
15.4580403019
 72
1
 10
251.4822144736
 20
15.4580403019
 11
251.6768798735
 21
15.7996736415
 72
1
 10
251.6768798735
 20
15.7996736415
 11
253.0008131365
 21
16.1446560868
 72
1
 10
253.0008131365
 20
16.1446560868
 11
253.0275070267
 21
15.8323395089
 97
1
330
275
 75
0
 76
1
 98
1
 10
0.0
 20
0.0
  0
LWPOLYLINE
  5
277
100
AcDbEntity
  8
0
100
AcDbPolyline
 62
2
  6
CONTINUOUS
 90
15
 70
0
 10
247.858685702
 20
14.7615072868
 10
248.194744671
 20
14.5668192868
 10
245.0471016852
 20
14.0149320868
 10
245.0471016852
 20
14.6371435057
 10
246.9735692326
 20
18.0976677811
 10
246.8318707549
 20
17.7309623756
 10
246.7456945048
 20
17.3460141724
 10
246.7166869073
 20
16.9486368868
 10
246.7456945048
 20
16.5512832218
 10
246.8318718054
 20
16.1663487824
 10
246.9735735794
 20
15.7996481549
 10
247.1682368871
 20
15.4580137829
 10
247.4119580123
 20
15.1489168423
 10
247.5537345207
 20
15.0059771128
 10
247.858685702
 20
14.7615072868
  0
HATCH
  5
278
100
AcDbEntity
  8
0
100
AcDbHatch
 62
2
  6
CONTINUOUS
 10
0.0
 20
0.0
 30
0.0
210
0.0
220
0.0
230
1.0
  2
SOLID
 70
1
 71
1
 91
1
 92
1
 93
14
 72
1
 10
247.858685702
 20
14.7615072868
 11
248.194744671
 21
14.5668192868
 72
1
 10
248.194744671
 20
14.5668192868
 11
245.0471016852
 21
14.0149320868
 72
1
 10
245.0471016852
 20
14.0149320868
 11
245.0471016852
 21
14.6371435057
 72
1
 10
245.0471016852
 20
14.6371435057
 11
246.9735692326
 21
18.0976677811
 72
1
 10
246.9735692326
 20
18.0976677811
 11
246.8318707549
 21
17.7309623756
 72
1
 10
246.8318707549
 20
17.7309623756
 11
246.7456945048
 21
17.3460141724
 72
1
 10
246.7456945048
 20
17.3460141724
 11
246.7166869073
 21
16.9486368868
 72
1
 10
246.7166869073
 20
16.9486368868
 11
246.7456945048
 21
16.5512832218
 72
1
 10
246.7456945048
 20
16.5512832218
 11
246.8318718054
 21
16.1663487824
 72
1
 10
246.8318718054
 20
16.1663487824
 11
246.9735735794
 21
15.7996481549
 72
1
 10
246.9735735794
 20
15.7996481549
 11
247.1682368871
 21
15.4580137829
 72
1
 10
247.1682368871
 20
15.4580137829
 11
247.4119580123
 21
15.1489168423
 72
1
 10
247.4119580123
 20
15.1489168423
 11
247.5537345207
 21
15.0059771128
 72
1
 10
247.5537345207
 20
15.0059771128
 11
247.858685702
 21
14.7615072868
 97
1
330
277
 75
0
 76
1
 98
1
 10
0.0
 20
0.0
  0
LWPOLYLINE
  5
279
100
AcDbEntity
  8
0
100
AcDbPolyline
 62
2
  6
CONTINUOUS
 90
26
 70
0
 10
253.6827887378
 20
14.7192695815
 10
253.9455555599
 20
14.5406473663
 10
254.2328304965
 20
14.4101853011
 10
254.5368664055
 20
14.3308032868
 10
254.8513261486
 20
14.3041027424
 10
255.1661041849
 20
14.3308032868
 10
255.4712575782
 20
14.4102752514
 10
255.7601639271
 20
14.5409814672
 10
256.0247418269
 20
14.7199485541
 10
256.07288731
 20
14.760197212
 10
256.2961255639
 20
14.9891822828
 10
256.4752842789
 20
15.2498839876
 10
258.9631657122
 20
14.0149320868
 10
258.9049797998
 20
13.7559912868
 10
245.2730317789
 20
13.5425728322
 10
245.1052875976
 20
13.7559912868
 10
245.0471016852
 20
14.0149320868
 10
248.194744671
 20
14.5668192868
 10
248.5550227396
 20
14.4253392868
 10
248.9334916615
 20
14.3393136868
 10
249.325209607
 20
14.3103229542
 10
249.7169204585
 20
14.3393136868
 10
250.0953887898
 20
14.4253392868
 10
250.4556712576
 20
14.5668192868
 10
253.6383386229
 20
14.7565471656
 10
253.6827887378
 20
14.7192695815
  0
HATCH
  5
27A
100
AcDbEntity
  8
0
100
AcDbHatch
 62
2
  6
CONTINUOUS
 10
0.0
 20
0.0
 30
0.0
210
0.0
220
0.0
230
1.0
  2
SOLID
 70
1
 71
1
 91
1
 92
1
 93
25
 72
1
 10
253.6827887378
 20
14.7192695815
 11
253.9455555599
 21
14.5406473663
 72
1
 10
253.9455555599
 20
14.5406473663
 11
254.2328304965
 21
14.4101853011
 72
1
 10
254.2328304965
 20
14.4101853011
 11
254.5368664055
 21
14.3308032868
 72
1
 10
254.5368664055
 20
14.3308032868
 11
254.8513261486
 21
14.3041027424
 72
1
 10
254.8513261486
 20
14.3041027424
 11
255.1661041849
 21
14.3308032868
 72
1
 10
255.1661041849
 20
14.3308032868
 11
255.4712575782
 21
14.4102752514
 72
1
 10
255.4712575782
 20
14.4102752514
 11
255.7601639271
 21
14.5409814672
 72
1
 10
255.7601639271
 20
14.5409814672
 11
256.0247418269
 21
14.7199485541
 72
1
 10
256.0247418269
 20
14.7199485541
 11
256.07288731
 21
14.760197212
 72
1
 10
256.07288731
 20
14.760197212
 11
256.2961255639
 21
14.9891822828
 72
1
 10
256.2961255639
 20
14.9891822828
 11
256.4752842789
 21
15.2498839876
 72
1
 10
256.4752842789
 20
15.2498839876
 11
258.9631657122
 21
14.0149320868
 72
1
 10
258.9631657122
 20
14.0149320868
 11
258.9049797998
 21
13.7559912868
 72
1
 10
258.9049797998
 20
13.7559912868
 11
245.2730317789
 21
13.5425728322
 72
1
 10
245.2730317789
 20
13.5425728322
 11
245.1052875976
 21
13.7559912868
 72
1
 10
245.1052875976
 20
13.7559912868
 11
245.0471016852
 21
14.0149320868
 72
1
 10
245.0471016852
 20
14.0149320868
 11
248.194744671
 21
14.5668192868
 72
1
 10
248.194744671
 20
14.5668192868
 11
248.5550227396
 21
14.4253392868
 72
1
 10
248.5550227396
 20
14.4253392868
 11
248.9334916615
 21
14.3393136868
 72
1
 10
248.9334916615
 20
14.3393136868
 11
249.325209607
 21
14.3103229542
 72
1
 10
249.325209607
 20
14.3103229542
 11
249.7169204585
 21
14.3393136868
 72
1
 10
249.7169204585
 20
14.3393136868
 11
250.0953887898
 21
14.4253392868
 72
1
 10
250.0953887898
 20
14.4253392868
 11
250.4556712576
 21
14.5668192868
 72
1
 10
250.4556712576
 20
14.5668192868
 11
253.6383386229
 21
14.7565471656
 72
1
 10
253.6383386229
 20
14.7565471656
 11
253.6827887378
 21
14.7192695815
 97
1
330
279
 75
0
 76
1
 98
1
 10
0.0
 20
0.0
  0
LWPOLYLINE
  5
27B
100
AcDbEntity
  8
0
100
AcDbPolyline
 62
2
  6
CONTINUOUS
 90
9
 70
0
 10
258.8269233668
 20
13.6322605804
 10
258.6135025194
 20
13.4645136868
 10
258.3545634155
 20
13.4063304868
 10
257.0338820344
 20
13.4063304868
 10
245.6557039818
 20
13.4063304868
 10
245.396764878
 20
13.4645136868
 10
245.2730317789
 20
13.5425728322
 10
258.9049797998
 20
13.7559912868
 10
258.8269233668
 20
13.6322605804
  0
HATCH
  5
27C
100
AcDbEntity
  8
0
100
AcDbHatch
 62
2
  6
CONTINUOUS
 10
0.0
 20
0.0
 30
0.0
210
0.0
220
0.0
230
1.0
  2
SOLID
 70
1
 71
1
 91
1
 92
1
 93
8
 72
1
 10
258.8269233668
 20
13.6322605804
 11
258.6135025194
 21
13.4645136868
 72
1
 10
258.6135025194
 20
13.4645136868
 11
258.3545634155
 21
13.4063304868
 72
1
 10
258.3545634155
 20
13.4063304868
 11
257.0338820344
 21
13.4063304868
 72
1
 10
257.0338820344
 20
13.4063304868
 11
245.6557039818
 21
13.4063304868
 72
1
 10
245.6557039818
 20
13.4063304868
 11
245.396764878
 21
13.4645136868
 72
1
 10
245.396764878
 20
13.4645136868
 11
245.2730317789
 21
13.5425728322
 72
1
 10
245.2730317789
 20
13.5425728322
 11
258.9049797998
 21
13.7559912868
 72
1
 10
258.9049797998
 20
13.7559912868
 11
258.8269233668
 21
13.6322605804
 97
1
330
27B
 75
0
 76
1
 98
1
 10
0.0
 20
0.0
  0
ENDBLK
  5
27D
100
AcDbEntity
  8
0
  6
BYBLOCK
 62
0
100
AcDbBlockEnd
  0
BLOCK
  5
27E
100
AcDbEntity
  8
0
100
AcDbBlockBegin
  2
_FILLED
 70
64
 10
0.0
 20
0.0
  3
_FILLED
  1

  0
SOLID
  5
27F
100
AcDbEntity
  8
0
  6
BYBLOCK
 62
0
100
AcDbTrace
 10
0.0
 20
0.0
 11
-1.0
 21
0.1428571429
 12
-1.0
 22
-0.1428571429
 13
-1.0
 23
-0.1428571429
  0
ENDBLK
  5
280
100
AcDbEntity
  8
0
  6
BYBLOCK
 62
0
100
AcDbBlockEnd
  0
BLOCK
  5
281
100
AcDbEntity
  8
0
100
AcDbBlockBegin
 62
2
  6
CONTINUOUS
  2
*D0
 70
65
 10
0.0
 20
0.0
  3
*D0
  1

  0
TEXT
  5
282
100
AcDbEntity
  8
0
100
AcDbText
 62
5
  6
CONTINUOUS
 10
289.8531031113
 20
161.7705102623
  7
STANDARD
 40
2.5
  1
96
 72
5
 11
293.7816745398
 21
161.7705102623
100
AcDbText
  0
LINE
  5
283
100
AcDbEntity
  8
0
100
AcDbLine
 62
2
  6
CONTINUOUS
 10
243.8173888255
 20
175.9955102623
 11
243.8173888255
 21
160.1455102623
  0
LINE
  5
284
100
AcDbEntity
  8
0
100
AcDbLine
 62
2
  6
CONTINUOUS
 10
339.8173888255
 20
175.9955102623
 11
339.8173888255
 21
160.1455102623
  0
LINE
  5
285
100
AcDbEntity
  8
0
100
AcDbLine
 62
2
  6
CONTINUOUS
 10
243.8173888255
 20
161.1455102623
 11
291.8173888255
 21
161.1455102623
  0
LINE
  5
286
100
AcDbEntity
  8
0
100
AcDbLine
 62
2
  6
CONTINUOUS
 10
339.8173888255
 20
161.1455102623
 11
291.8173888255
 21
161.1455102623
  0
INSERT
  5
287
100
AcDbEntity
  8
0
100
AcDbBlockReference
 62
2
  6
CONTINUOUS
  2
_FILLED
 10
243.8173888255
 20
161.1455102623
 41
3.5
 42
3.5
 43
3.5
 50
180.0
  0
INSERT
  5
288
100
AcDbEntity
  8
0
100
AcDbBlockReference
 62
2
  6
CONTINUOUS
  2
_FILLED
 10
339.8173888255
 20
161.1455102623
 41
3.5
 42
3.5
 43
3.5
  0
ENDBLK
  5
289
100
AcDbEntity
  8
0
  6
BYBLOCK
 62
0
100
AcDbBlockEnd
  0
BLOCK
  5
28A
100
AcDbEntity
  8
0
100
AcDbBlockBegin
 62
2
  6
CONTINUOUS
  2
*D1
 70
65
 10
0.0
 20
0.0
  3
*D1
  1

  0
TEXT
  5
28B
100
AcDbEntity
  8
0
100
AcDbText
 62
5
  6
CONTINUOUS
 10
289.138817397
 20
154.7705102623
  7
STANDARD
 40
2.5
  1
120
 72
5
 11
294.4959602541
 21
154.7705102623
100
AcDbText
  0
LINE
  5
28C
100
AcDbEntity
  8
0
100
AcDbLine
 62
2
  6
CONTINUOUS
 10
231.8173888255
 20
171.1455102623
 11
231.8173888255
 21
153.1455102623
  0
LINE
  5
28D
100
AcDbEntity
  8
0
100
AcDbLine
 62
2
  6
CONTINUOUS
 10
351.8173888255
 20
171.1455102623
 11
351.8173888255
 21
153.1455102623
  0
LINE
  5
28E
100
AcDbEntity
  8
0
100
AcDbLine
 62
2
  6
CONTINUOUS
 10
231.8173888255
 20
154.1455102623
 11
291.8173888255
 21
154.1455102623
  0
LINE
  5
28F
100
AcDbEntity
  8
0
100
AcDbLine
 62
2
  6
CONTINUOUS
 10
351.8173888255
 20
154.1455102623
 11
291.8173888255
 21
154.1455102623
  0
INSERT
  5
290
100
AcDbEntity
  8
0
100
AcDbBlockReference
 62
2
  6
CONTINUOUS
  2
_FILLED
 10
231.8173888255
 20
154.1455102623
 41
3.5
 42
3.5
 43
3.5
 50
180.0
  0
INSERT
  5
291
100
AcDbEntity
  8
0
100
AcDbBlockReference
 62
2
  6
CONTINUOUS
  2
_FILLED
 10
351.8173888255
 20
154.1455102623
 41
3.5
 42
3.5
 43
3.5
  0
ENDBLK
  5
292
100
AcDbEntity
  8
0
  6
BYBLOCK
 62
0
100
AcDbBlockEnd
  0
BLOCK
  5
293
100
AcDbEntity
  8
0
100
AcDbBlockBegin
 62
2
  6
CONTINUOUS
  2
*D2
 70
65
 10
0.0
 20
0.0
  3
*D2
  1

  0
TEXT
  5
294
100
AcDbEntity
  8
0
100
AcDbText
 62
5
  6
CONTINUOUS
 10
361.1923888255
 20
187.4490816908
  7
STANDARD
 40
2.5
  1
12
 50
90.0
 72
5
 11
361.1923888255
 21
190.8419388337
100
AcDbText
  0
LINE
  5
295
100
AcDbEntity
  8
0
100
AcDbLine
 62
2
  6
CONTINUOUS
 10
351.8173888255
 20
195.1455102623
 11
362.8173888255
 21
195.1455102623
  0
LINE
  5
296
100
AcDbEntity
  8
0
100
AcDbLine
 62
2
  6
CONTINUOUS
 10
354.8173888255
 20
183.1455102623
 11
362.8173888255
 21
183.1455102623
  0
LINE
  5
297
100
AcDbEntity
  8
0
100
AcDbLine
 62
2
  6
CONTINUOUS
 10
361.8173888255
 20
195.1455102623
 11
361.8173888255
 21
189.1455102623
  0
LINE
  5
298
100
AcDbEntity
  8
0
100
AcDbLine
 62
2
  6
CONTINUOUS
 10
361.8173888255
 20
183.1455102623
 11
361.8173888255
 21
189.1455102623
  0
INSERT
  5
299
100
AcDbEntity
  8
0
100
AcDbBlockReference
 62
2
  6
CONTINUOUS
  2
_FILLED
 10
361.8173888255
 20
195.1455102623
 41
3.5
 42
3.5
 43
3.5
 50
90.0
  0
INSERT
  5
29A
100
AcDbEntity
  8
0
100
AcDbBlockReference
 62
2
  6
CONTINUOUS
  2
_FILLED
 10
361.8173888255
 20
183.1455102623
 41
3.5
 42
3.5
 43
3.5
 50
270.0
  0
ENDBLK
  5
29B
100
AcDbEntity
  8
0
  6
BYBLOCK
 62
0
100
AcDbBlockEnd
  0
BLOCK
  5
29C
100
AcDbEntity
  8
0
100
AcDbBlockBegin
 62
2
  6
CONTINUOUS
  2
*D3
 70
65
 10
0.0
 20
0.0
  3
*D3
  1

  0
TEXT
  5
29D
100
AcDbEntity
  8
0
100
AcDbText
 62
5
  6
CONTINUOUS
 10
368.1923888255
 20
181.181224548
  7
STANDARD
 40
2.5
  1
24
 50
90.0
 72
5
 11
368.1923888255
 21
185.1097959765
100
AcDbText
  0
LINE
  5
29E
100
AcDbEntity
  8
0
100
AcDbLine
 62
2
  6
CONTINUOUS
 10
351.8173888255
 20
195.1455102623
 11
369.8173888255
 21
195.1455102623
  0
LINE
  5
29F
100
AcDbEntity
  8
0
100
AcDbLine
 62
2
  6
CONTINUOUS
 10
351.8173888255
 20
171.1455102623
 11
369.8173888255
 21
171.1455102623
  0
LINE
  5
2A0
100
AcDbEntity
  8
0
100
AcDbLine
 62
2
  6
CONTINUOUS
 10
368.8173888255
 20
195.1455102623
 11
368.8173888255
 21
183.1455102623
  0
LINE
  5
2A1
100
AcDbEntity
  8
0
100
AcDbLine
 62
2
  6
CONTINUOUS
 10
368.8173888255
 20
171.1455102623
 11
368.8173888255
 21
183.1455102623
  0
INSERT
  5
2A2
100
AcDbEntity
  8
0
100
AcDbBlockReference
 62
2
  6
CONTINUOUS
  2
_FILLED
 10
368.8173888255
 20
195.1455102623
 41
3.5
 42
3.5
 43
3.5
 50
90.0
  0
INSERT
  5
2A3
100
AcDbEntity
  8
0
100
AcDbBlockReference
 62
2
  6
CONTINUOUS
  2
_FILLED
 10
368.8173888255
 20
171.1455102623
 41
3.5
 42
3.5
 43
3.5
 50
270.0
  0
ENDBLK
  5
2A4
100
AcDbEntity
  8
0
  6
BYBLOCK
 62
0
100
AcDbBlockEnd
  0
BLOCK
  5
2A5
100
AcDbEntity
  8
0
100
AcDbBlockBegin
 62
2
  6
CONTINUOUS
  2
*D4
 70
65
 10
0.0
 20
0.0
  3
*D4
  1

  0
TEXT
  5
2A6
100
AcDbEntity
  8
0
100
AcDbText
 62
5
  6
CONTINUOUS
 10
361.1923888255
 20
243.4001267494
  7
STANDARD
 40
2.5
  1
3
 50
90.0
 72
5
 11
361.1923888255
 21
245.1858410351
100
AcDbText
  0
LINE
  5
2A7
100
AcDbEntity
  8
0
100
AcDbLine
 62
2
  6
CONTINUOUS
 10
351.8173888255
 20
238.0530569897
 11
362.8173888255
 21
238.0530569897
  0
LINE
  5
2A8
100
AcDbEntity
  8
0
100
AcDbLine
 62
2
  6
CONTINUOUS
 10
351.8173888255
 20
235.0530569897
 11
362.8173888255
 21
235.0530569897
  0
LINE
  5
2A9
100
AcDbEntity
  8
0
100
AcDbLine
 62
2
  6
CONTINUOUS
 10
361.8173888255
 20
238.0530569897
 11
361.8173888255
 21
245.1858410351
  0
LINE
  5
2AA
100
AcDbEntity
  8
0
100
AcDbLine
 62
2
  6
CONTINUOUS
 10
361.8173888255
 20
245.1858410351
 11
361.8173888255
 21
236.5530569897
  0
LINE
  5
2AB
100
AcDbEntity
  8
0
100
AcDbLine
 62
2
  6
CONTINUOUS
 10
361.8173888255
 20
235.0530569897
 11
361.8173888255
 21
228.0530569897
  0
LINE
  5
2AC
100
AcDbEntity
  8
0
100
AcDbLine
 62
2
  6
CONTINUOUS
 10
361.8173888255
 20
228.0530569897
 11
361.8173888255
 21
236.5530569897
  0
INSERT
  5
2AD
100
AcDbEntity
  8
0
100
AcDbBlockReference
 62
2
  6
CONTINUOUS
  2
_FILLED
 10
361.8173888255
 20
238.0530569897
 41
3.5
 42
3.5
 43
3.5
 50
270.0
  0
INSERT
  5
2AE
100
AcDbEntity
  8
0
100
AcDbBlockReference
 62
2
  6
CONTINUOUS
  2
_FILLED
 10
361.8173888255
 20
235.0530569897
 41
3.5
 42
3.5
 43
3.5
 50
90.0
  0
ENDBLK
  5
2AF
100
AcDbEntity
  8
0
  6
BYBLOCK
 62
0
100
AcDbBlockEnd
  0
BLOCK
  5
2B0
100
AcDbEntity
  8
0
100
AcDbBlockBegin
 62
2
  6
CONTINUOUS
  2
*D5
 70
65
 10
0.0
 20
0.0
  3
*D5
  1

  0
TEXT
  5
2B1
100
AcDbEntity
  8
0
100
AcDbText
 62
5
  6
CONTINUOUS
 10
289.8531031113
 20
205.7705102623
  7
STANDARD
 40
2.5
  1
40
 72
5
 11
293.7816745398
 21
205.7705102623
100
AcDbText
  0
LINE
  5
2B2
100
AcDbEntity
  8
0
100
AcDbLine
 62
2
  6
CONTINUOUS
 10
271.8173888255
 20
187.3955102623
 11
271.8173888255
 21
206.1455102623
  0
LINE
  5
2B3
100
AcDbEntity
  8
0
100
AcDbLine
 62
2
  6
CONTINUOUS
 10
311.8173888255
 20
187.3955102623
 11
311.8173888255
 21
206.1455102623
  0
LINE
  5
2B4
100
AcDbEntity
  8
0
100
AcDbLine
 62
2
  6
CONTINUOUS
 10
271.8173888255
 20
205.1455102623
 11
291.8173888255
 21
205.1455102623
  0
LINE
  5
2B5
100
AcDbEntity
  8
0
100
AcDbLine
 62
2
  6
CONTINUOUS
 10
311.8173888255
 20
205.1455102623
 11
291.8173888255
 21
205.1455102623
  0
INSERT
  5
2B6
100
AcDbEntity
  8
0
100
AcDbBlockReference
 62
2
  6
CONTINUOUS
  2
_FILLED
 10
271.8173888255
 20
205.1455102623
 41
3.5
 42
3.5
 43
3.5
 50
180.0
  0
INSERT
  5
2B7
100
AcDbEntity
  8
0
100
AcDbBlockReference
 62
2
  6
CONTINUOUS
  2
_FILLED
 10
311.8173888255
 20
205.1455102623
 41
3.5
 42
3.5
 43
3.5
  0
ENDBLK
  5
2B8
100
AcDbEntity
  8
0
  6
BYBLOCK
 62
0
100
AcDbBlockEnd
  0
BLOCK
  5
2B9
100
AcDbEntity
  8
0
100
AcDbBlockBegin
 62
2
  6
CONTINUOUS
  2
*D6
 70
65
 10
0.0
 20
0.0
  3
*D6
  1

  0
TEXT
  5
2BA
100
AcDbEntity
  8
0
100
AcDbText
 62
5
  6
CONTINUOUS
 10
322.1923888255
 20
197.6311020481
  7
STANDARD
 40
2.5
  1
13.5
 50
90.0
 72
5
 11
322.1923888255
 21
204.0596734766
100
AcDbText
  0
LINE
  5
2BB
100
AcDbEntity
  8
0
100
AcDbLine
 62
2
  6
CONTINUOUS
 10
309.8173888255
 20
189.3955102623
 11
323.8173888255
 21
189.3955102623
  0
LINE
  5
2BC
100
AcDbEntity
  8
0
100
AcDbLine
 62
2
  6
CONTINUOUS
 10
309.8173888255
 20
175.8955102623
 11
323.8173888255
 21
175.8955102623
  0
LINE
  5
2BD
100
AcDbEntity
  8
0
100
AcDbLine
 62
2
  6
CONTINUOUS
 10
322.8173888255
 20
189.3955102623
 11
322.8173888255
 21
204.0596734766
  0
LINE
  5
2BE
100
AcDbEntity
  8
0
100
AcDbLine
 62
2
  6
CONTINUOUS
 10
322.8173888255
 20
204.0596734766
 11
322.8173888255
 21
182.6455102623
  0
LINE
  5
2BF
100
AcDbEntity
  8
0
100
AcDbLine
 62
2
  6
CONTINUOUS
 10
322.8173888255
 20
175.8955102623
 11
322.8173888255
 21
168.8955102623
  0
LINE
  5
2C0
100
AcDbEntity
  8
0
100
AcDbLine
 62
2
  6
CONTINUOUS
 10
322.8173888255
 20
168.8955102623
 11
322.8173888255
 21
182.6455102623
  0
INSERT
  5
2C1
100
AcDbEntity
  8
0
100
AcDbBlockReference
 62
2
  6
CONTINUOUS
  2
_FILLED
 10
322.8173888255
 20
189.3955102623
 41
3.5
 42
3.5
 43
3.5
 50
270.0
  0
INSERT
  5
2C2
100
AcDbEntity
  8
0
100
AcDbBlockReference
 62
2
  6
CONTINUOUS
  2
_FILLED
 10
322.8173888255
 20
175.8955102623
 41
3.5
 42
3.5
 43
3.5
 50
90.0
  0
ENDBLK
  5
2C3
100
AcDbEntity
  8
0
  6
BYBLOCK
 62
0
100
AcDbBlockEnd
  0
BLOCK
  5
2C4
100
AcDbEntity
  8
0
100
AcDbBlockBegin
  2
*T1
 70
1
 10
0.0
 20
0.0
  3
*T1
  1

  0
LINE
  5
2C5
100
AcDbEntity
  8
0
100
AcDbLine
 62
2
  6
CONTINUOUS
 10
0.0
 20
0.0
 11
180.0
 21
0.0
  0
LINE
  5
2C6
100
AcDbEntity
  8
0
100
AcDbLine
 62
2
  6
CONTINUOUS
 10
0.0
 20
0.0
 11
0.0
 21
-45.875
  0
LINE
  5
2C7
100
AcDbEntity
  8
0
100
AcDbLine
 62
2
  6
CONTINUOUS
 10
0.0
 20
-21.875
 11
180.0
 21
-21.875
  0
LINE
  5
2C8
100
AcDbEntity
  8
0
100
AcDbLine
 62
2
  6
CONTINUOUS
 10
64.0
 20
-27.875
 11
109.0
 21
-27.875
  0
LINE
  5
2C9
100
AcDbEntity
  8
0
100
AcDbLine
 62
2
  6
CONTINUOUS
 10
64.0
 20
-33.875
 11
109.0
 21
-33.875
  0
LINE
  5
2CA
100
AcDbEntity
  8
0
100
AcDbLine
 62
2
  6
CONTINUOUS
 10
119.0
 20
-33.875
 11
180.0
 21
-33.875
  0
LINE
  5
2CB
100
AcDbEntity
  8
0
100
AcDbLine
 62
2
  6
CONTINUOUS
 10
34.0
 20
-39.875
 11
119.0
 21
-39.875
  0
LINE
  5
2CC
100
AcDbEntity
  8
0
100
AcDbLine
 62
2
  6
CONTINUOUS
 10
0.0
 20
-45.875
 11
180.0
 21
-45.875
  0
LINE
  5
2CD
100
AcDbEntity
  8
0
100
AcDbLine
 62
2
  6
CONTINUOUS
 10
34.0
 20
-21.875
 11
34.0
 21
-45.875
  0
LINE
  5
2CE
100
AcDbEntity
  8
0
100
AcDbLine
 62
2
  6
CONTINUOUS
 10
64.0
 20
-21.875
 11
64.0
 21
-39.875
  0
LINE
  5
2CF
100
AcDbEntity
  8
0
100
AcDbLine
 62
2
  6
CONTINUOUS
 10
76.0
 20
-21.875
 11
76.0
 21
-39.875
  0
LINE
  5
2D0
100
AcDbEntity
  8
0
100
AcDbLine
 62
2
  6
CONTINUOUS
 10
96.0
 20
-27.875
 11
96.0
 21
-39.875
  0
LINE
  5
2D1
100
AcDbEntity
  8
0
100
AcDbLine
 62
2
  6
CONTINUOUS
 10
109.0
 20
-21.875
 11
109.0
 21
-39.875
  0
LINE
  5
2D2
100
AcDbEntity
  8
0
100
AcDbLine
 62
2
  6
CONTINUOUS
 10
119.0
 20
-21.875
 11
119.0
 21
-45.875
  0
LINE
  5
2D3
100
AcDbEntity
  8
0
100
AcDbLine
 62
2
  6
CONTINUOUS
 10
170.0
 20
-21.875
 11
170.0
 21
-45.875
  0
LINE
  5
2D4
100
AcDbEntity
  8
0
100
AcDbLine
 62
2
  6
CONTINUOUS
 10
180.0
 20
0.0
 11
180.0
 21
-45.875
  0
TEXT
  5
2D5
100
AcDbEntity
  8
0
100
AcDbText
 62
5
  6
CONTINUOUS
 10
1.0
 20
-4.509375
  7
TEXTSTYLE_3
 40
1.3
  1
Description
 72
5
 11
13.9
 21
-4.509375
100
AcDbText
  0
TEXT
  5
2D6
100
AcDbEntity
  8
0
100
AcDbText
 62
5
  6
CONTINUOUS
 10
1.0
 20
-9.265625
  7
TEXTSTYLE_4
 40
2.9
  1
Schließblech/24x3/120/NL12
 72
5
 11
54.162890625
 21
-9.265625
100
AcDbText
  0
TEXT
  5
2D7
100
AcDbEntity
  8
0
100
AcDbText
 62
5
  6
CONTINUOUS
 10
1.0
 20
-14.340625
  7
TEXTSTYLE_4
 40
2.9
  1
--
 72
5
 11
3.35625
 21
-14.340625
100
AcDbText
  0
TEXT
  5
2D8
100
AcDbEntity
  8
0
100
AcDbText
 62
5
  6
CONTINUOUS
 10
1.0
 20
-19.415625
  7
TEXTSTYLE_4
 40
2.9
  1
Latch plate/24x3/120/AX12
 72
5
 11
50.571875
 21
-19.415625
100
AcDbText
  0
TEXT
  5
2D9
100
AcDbEntity
  8
0
100
AcDbText
 62
5
  6
CONTINUOUS
 10
35.0
 20
-26.7649038462
  7
TEXTSTYLE_3
 40
1.3
  1
Release No. 
 72
5
 11
51.5
 21
-26.7649038462
100
AcDbText
  0
TEXT
  5
2DA
100
AcDbEntity
  8
0
100
AcDbText
 62
5
  6
CONTINUOUS
 10
35.0
 20
-29.7774038462
  7
STANDARD
 40
2.0
  1
--
 72
5
 11
37.8571428571
 21
-29.7774038462
100
AcDbText
  0
TEXT
  5
2DB
100
AcDbEntity
  8
0
100
AcDbText
 62
5
  6
CONTINUOUS
 10
35.0
 20
-31.2629807692
  7
TEXTSTYLE_3
 40
0.5
  1
 
 72
5
 11
35.6153846154
 21
-31.2629807692
100
AcDbText
  0
TEXT
  5
2DC
100
AcDbEntity
  8
0
100
AcDbText
 62
5
  6
CONTINUOUS
 10
35.0
 20
-34.0225961538
  7
TEXTSTYLE_3
 40
1.3
  1
Mod. No.
 72
5
 11
46.7
 21
-34.0225961538
100
AcDbText
  0
TEXT
  5
2DD
100
AcDbEntity
  8
0
100
AcDbText
 62
5
  6
CONTINUOUS
 10
35.0
 20
-37.0350961538
  7
STANDARD
 40
2.0
  1
G29124
 72
5
 11
44.0
 21
-37.0350961538
100
AcDbText
  0
TEXT
  5
2DE
100
AcDbEntity
  8
0
100
AcDbText
 62
5
  6
CONTINUOUS
 10
65.0
 20
-25.9
  7
TEXTSTYLE_3
 40
1.3
  1
Level
 72
5
 11
71.4
 21
-25.9
100
AcDbText
  0
TEXT
  5
2DF
100
AcDbEntity
  8
0
100
AcDbText
 62
5
  6
CONTINUOUS
 10
77.0
 20
-25.875
  7
STANDARD
 40
2.0
  1
Released
 72
5
 11
88.1428571429
 21
-25.875
100
AcDbText
  0
TEXT
  5
2E0
100
AcDbEntity
  8
0
100
AcDbText
 62
5
  6
CONTINUOUS
 10
110.8
 20
-25.175
  7
TEXTSTYLE_3
 40
1.3
  1
Scale
 72
5
 11
117.2
 21
-25.175
100
AcDbText
  0
TEXT
  5
2E1
100
AcDbEntity
  8
0
100
AcDbText
 62
5
  6
CONTINUOUS
 10
113.0178571429
 20
-28.8125
  7
STANDARD
 40
2.5
  1
 
 72
5
 11
114.9821428571
 21
-28.8125
100
AcDbText
  0
TEXT
  5
2E2
100
AcDbEntity
  8
0
100
AcDbText
 62
5
  6
CONTINUOUS
 10
112.125
 20
-32.5625
  7
STANDARD
 40
2.5
  1
1:1
 72
5
 11
115.875
 21
-32.5625
100
AcDbText
  0
TEXT
  5
2E3
100
AcDbEntity
  8
0
100
AcDbText
 62
5
  6
CONTINUOUS
 10
120.0
 20
-25.175
  7
TEXTSTYLE_3
 40
1.3
  1
Modification 
 72
5
 11
135.6
 21
-25.175
100
AcDbText
  0
TEXT
  5
2E4
100
AcDbEntity
  8
0
100
AcDbText
 62
5
  6
CONTINUOUS
 10
120.0
 20
-32.8375
  7
STANDARD
 40
3.5
  1
1
 72
5
 11
122.0
 21
-32.8375
100
AcDbText
  0
TEXT
  5
2E5
100
AcDbEntity
  8
0
100
AcDbText
 62
5
  6
CONTINUOUS
 10
172.55
 20
-25.175
  7
TEXTSTYLE_3
 40
1.3
  1
Size
 72
5
 11
177.45
 21
-25.175
100
AcDbText
  0
TEXT
  5
2E6
100
AcDbEntity
  8
0
100
AcDbText
 62
5
  6
CONTINUOUS
 10
172.375
 20
-32.8375
  7
STANDARD
 40
3.5
  1
 3
 72
5
 11
177.625
 21
-32.8375
100
AcDbText
  0
TEXT
  5
2E7
100
AcDbEntity
  8
0
100
AcDbText
 62
5
  6
CONTINUOUS
 10
65.0
 20
-31.9
  7
TEXTSTYLE_3
 40
1.3
  1
Ver.
 72
5
 11
70.4
 21
-31.9
100
AcDbText
  0
TEXT
  5
2E8
100
AcDbEntity
  8
0
100
AcDbText
 62
5
  6
CONTINUOUS
 10
77.0
 20
-31.875
  7
STANDARD
 40
2.0
  1
--
 72
5
 11
79.8571428571
 21
-31.875
100
AcDbText
  0
TEXT
  5
2E9
100
AcDbEntity
  8
0
100
AcDbText
 62
5
  6
CONTINUOUS
 10
97.0
 20
-31.875
  7
STANDARD
 40
2.0
  1
--
 72
5
 11
99.8571428571
 21
-31.875
100
AcDbText
  0
TEXT
  5
2EA
100
AcDbEntity
  8
0
100
AcDbText
 62
5
  6
CONTINUOUS
 10
65.0
 20
-37.9
  7
TEXTSTYLE_3
 40
1.3
  1
Draft
 72
5
 11
71.0
 21
-37.9
100
AcDbText
  0
TEXT
  5
2EB
100
AcDbEntity
  8
0
100
AcDbText
 62
5
  6
CONTINUOUS
 10
77.0
 20
-37.875
  7
STANDARD
 40
2.0
  1
15.05.2014
 72
5
 11
90.7142857143
 21
-37.875
100
AcDbText
  0
TEXT
  5
2EC
100
AcDbEntity
  8
0
100
AcDbText
 62
5
  6
CONTINUOUS
 10
97.0
 20
-37.875
  7
STANDARD
 40
2.0
  1
Aj
 72
5
 11
99.7142857143
 21
-37.875
100
AcDbText
  0
TEXT
  5
2ED
100
AcDbEntity
  8
0
100
AcDbText
 62
5
  6
CONTINUOUS
 10
120.0
 20
-37.175
  7
TEXTSTYLE_3
 40
1.3
  1
Drawing No.
 72
5
 11
135.0
 21
-37.175
100
AcDbText
  0
TEXT
  5
2EE
100
AcDbEntity
  8
0
100
AcDbText
 62
5
  6
CONTINUOUS
 10
120.0
 20
-42.6875
  7
TEXTSTYLE_4
 40
4.0
  1
9-43501-02-0-01
 72
5
 11
162.078125
 21
-42.6875
100
AcDbText
  0
TEXT
  5
2EF
100
AcDbEntity
  8
0
100
AcDbText
 62
5
  6
CONTINUOUS
 10
171.7
 20
-37.175
  7
TEXTSTYLE_3
 40
1.3
  1
Sheet
 72
5
 11
178.3
 21
-37.175
100
AcDbText
  0
TEXT
  5
2F0
100
AcDbEntity
  8
0
100
AcDbText
 62
5
  6
CONTINUOUS
 10
171.6666666667
 20
-44.8375
  7
STANDARD
 40
3.5
  1
1
 72
5
 11
173.6666666667
 21
-44.8375
100
AcDbText
  0
TEXT
  5
2F1
100
AcDbEntity
  8
0
100
AcDbText
 62
5
  6
CONTINUOUS
 10
173.6666666667
 20
-44.8375
  7
STANDARD
 40
3.5
  1
/
 72
5
 11
176.3333333333
 21
-44.8375
100
AcDbText
  0
TEXT
  5
2F2
100
AcDbEntity
  8
0
100
AcDbText
 62
5
  6
CONTINUOUS
 10
176.3333333333
 20
-44.8375
  7
STANDARD
 40
3.5
  1
1
 72
5
 11
178.3333333333
 21
-44.8375
100
AcDbText
  0
TEXT
  5
2F3
100
AcDbEntity
  8
0
100
AcDbText
 62
5
  6
CONTINUOUS
 10
35.0
 20
-43.9
  7
TEXTSTYLE_3
 40
1.3
  1
Replacement for 
 72
5
 11
56.6
 21
-43.9
100
AcDbText
  0
TEXT
  5
2F4
100
AcDbEntity
  8
0
100
AcDbText
 62
5
  6
CONTINUOUS
 10
56.6
 20
-43.9
  7
STANDARD
 40
2.0
  1
--
 72
5
 11
59.4571428571
 21
-43.9
100
AcDbText
  0
ENDBLK
  5
2F5
100
AcDbEntity
  8
0
  6
BYBLOCK
 62
0
100
AcDbBlockEnd
  0
BLOCK
  5
2F6
100
AcDbEntity
  8
0
100
AcDbBlockBegin
  2
*T2
 70
1
 10
0.0
 20
0.0
  3
*T2
  1

  0
LINE
  5
2F7
100
AcDbEntity
  8
0
100
AcDbLine
 62
2
  6
CONTINUOUS
 10
0.0
 20
0.0
 11
11.2
 21
0.0
  0
LINE
  5
2F8
100
AcDbEntity
  8
0
100
AcDbLine
 62
2
  6
CONTINUOUS
 10
0.0
 20
0.0
 11
0.0
 21
-45.0
  0
LINE
  5
2F9
100
AcDbEntity
  8
0
100
AcDbLine
 62
2
  6
CONTINUOUS
 10
0.0
 20
-9.0
 11
11.2
 21
-9.0
  0
LINE
  5
2FA
100
AcDbEntity
  8
0
100
AcDbLine
 62
2
  6
CONTINUOUS
 10
0.0
 20
-18.0
 11
11.2
 21
-18.0
  0
LINE
  5
2FB
100
AcDbEntity
  8
0
100
AcDbLine
 62
2
  6
CONTINUOUS
 10
0.0
 20
-27.0
 11
11.2
 21
-27.0
  0
LINE
  5
2FC
100
AcDbEntity
  8
0
100
AcDbLine
 62
2
  6
CONTINUOUS
 10
0.0
 20
-36.0
 11
11.2
 21
-36.0
  0
LINE
  5
2FD
100
AcDbEntity
  8
0
100
AcDbLine
 62
2
  6
CONTINUOUS
 10
0.0
 20
-45.0
 11
11.2
 21
-45.0
  0
LINE
  5
2FE
100
AcDbEntity
  8
0
100
AcDbLine
 62
2
  6
CONTINUOUS
 10
11.2
 20
0.0
 11
11.2
 21
-45.0
  0
TEXT
  5
2FF
100
AcDbEntity
  8
0
100
AcDbText
 62
5
  6
CONTINUOUS
 10
4.35
 20
-6.25
  7
STANDARD
 40
3.5
  1
-
 72
5
 11
6.85
 21
-6.25
100
AcDbText
  0
TEXT
  5
300
100
AcDbEntity
  8
0
100
AcDbText
 62
5
  6
CONTINUOUS
 10
4.35
 20
-15.25
  7
STANDARD
 40
3.5
  1
-
 72
5
 11
6.85
 21
-15.25
100
AcDbText
  0
TEXT
  5
301
100
AcDbEntity
  8
0
100
AcDbText
 62
5
  6
CONTINUOUS
 10
4.35
 20
-24.25
  7
STANDARD
 40
3.5
  1
-
 72
5
 11
6.85
 21
-24.25
100
AcDbText
  0
TEXT
  5
302
100
AcDbEntity
  8
0
100
AcDbText
 62
5
  6
CONTINUOUS
 10
4.35
 20
-33.25
  7
STANDARD
 40
3.5
  1
-
 72
5
 11
6.85
 21
-33.25
100
AcDbText
  0
TEXT
  5
303
100
AcDbEntity
  8
0
100
AcDbText
 62
5
  6
CONTINUOUS
 10
4.35
 20
-42.25
  7
STANDARD
 40
3.5
  1
-
 72
5
 11
6.85
 21
-42.25
100
AcDbText
  0
ENDBLK
  5
304
100
AcDbEntity
  8
0
  6
BYBLOCK
 62
0
100
AcDbBlockEnd
  0
ENDSEC
  0
SECTION
  2
ENTITIES
  0
TEXT
  5
305
100
AcDbEntity
  8
0
100
AcDbText
 62
5
  6
CONTINUOUS
 10
22.5735775821
 20
117.9209551035
  7
TEXTSTYLE_2
 40
1.5
  1
Proprietary rights apply in accordance with ISO 16016.
 50
90.0
 72
5
 11
22.5735775821
 21
173.5995265321
100
AcDbText
  0
TEXT
  5
306
100
AcDbEntity
  8
0
100
AcDbText
 62
5
  6
CONTINUOUS
 10
24.0389181064
 20
5.9968186418
  7
STANDARD
 40
2.0
  1
V3
 50
90.0
 72
5
 11
24.0389181064
 21
9.473009118
100
AcDbText
  0
INSERT
  5
307
100
AcDbEntity
  8
0
100
AcDbBlockReference
 62
2
  6
CONTINUOUS
  2
SYMBOL_2_BL0
 10
252.0051336987
 20
17.0063304868
  0
INSERT
  5
308
100
AcDbEntity
  8
0
100
AcDbBlockReference
 62
2
  6
CONTINUOUS
  2
SYMBOL_5_BL1
 10
14.6760682863
 20
285.9565270313
  0
DIMENSION
  5
309
100
AcDbEntity
  8
0
100
AcDbDimension
 62
2
  6
CONTINUOUS
  2
*D0
 10
339.8173888255
 20
161.1455102623
 11
291.8173888255
 21
161.1455102623
 70
160
 71
2
 42
96.0
  3
DIMSTYLE_1
100
AcDbAlignedDimension
 13
243.8173888255
 23
175.9955102623
 14
339.8173888255
 24
175.9955102623
100
AcDbRotatedDimension
  0
DIMENSION
  5
30A
100
AcDbEntity
  8
0
100
AcDbDimension
 62
2
  6
CONTINUOUS
  2
*D1
 10
351.8173888255
 20
154.1455102623
 11
291.8173888255
 21
154.1455102623
 70
160
 71
2
 42
120.0
  3
DIMSTYLE_1
100
AcDbAlignedDimension
 13
231.8173888255
 23
171.1455102623
 14
351.8173888255
 24
171.1455102623
100
AcDbRotatedDimension
  0
DIMENSION
  5
30B
100
AcDbEntity
  8
0
100
AcDbDimension
 62
2
  6
CONTINUOUS
  2
*D2
 10
361.8173888255
 20
183.1455102623
 11
361.8173888255
 21
189.1455102623
 70
160
 71
2
 42
12.0
  3
DIMSTYLE_2
100
AcDbAlignedDimension
 13
351.8173888255
 23
195.1455102623
 14
354.8173888255
 24
183.1455102623
 50
270.0
100
AcDbRotatedDimension
  0
DIMENSION
  5
30C
100
AcDbEntity
  8
0
100
AcDbDimension
 62
2
  6
CONTINUOUS
  2
*D3
 10
368.8173888255
 20
171.1455102623
 11
368.8173888255
 21
183.1455102623
 70
160
 71
2
 42
24.0
  3
DIMSTYLE_2
100
AcDbAlignedDimension
 13
351.8173888255
 23
195.1455102623
 14
351.8173888255
 24
171.1455102623
 50
270.0
100
AcDbRotatedDimension
  0
DIMENSION
  5
30D
100
AcDbEntity
  8
0
100
AcDbDimension
 62
2
  6
CONTINUOUS
  2
*D4
 10
361.8173888255
 20
235.0530569897
 11
361.8173888255
 21
244.2929838922
 70
160
 71
1
 42
3.0
  3
DIMSTYLE_3
100
AcDbAlignedDimension
 13
351.8173888255
 23
238.0530569897
 14
351.8173888255
 24
235.0530569897
 50
270.0
100
AcDbRotatedDimension
  0
DIMENSION
  5
30E
100
AcDbEntity
  8
0
100
AcDbDimension
 62
2
  6
CONTINUOUS
  2
*D5
 10
311.8173888255
 20
205.1455102623
 11
291.8173888255
 21
205.1455102623
 70
160
 71
2
 42
40.0
  3
DIMSTYLE_1
100
AcDbAlignedDimension
 13
271.8173888255
 23
187.3955102623
 14
311.8173888255
 24
187.3955102623
100
AcDbRotatedDimension
  0
DIMENSION
  5
30F
100
AcDbEntity
  8
0
100
AcDbDimension
 62
2
  6
CONTINUOUS
  2
*D6
 10
322.8173888255
 20
175.8955102623
 11
322.8173888255
 21
200.8453877624
 70
160
 71
1
 42
13.5
  3
DIMSTYLE_2
100
AcDbAlignedDimension
 13
309.8173888255
 23
189.3955102623
 14
309.8173888255
 24
175.8955102623
 50
270.0
100
AcDbRotatedDimension
  0
ACAD_TABLE
  5
310
100
AcDbEntity
  8
0
 62
2
  6
CONTINUOUS
100
AcDbBlockReference
  2
*T1
 10
235.0
 20
50.875
 30
0.0
100
AcDbTable
342
       409
343
217
 11
1.0
 21
0.0
 31
0.0
 90
22
 91
5
 92
9
 93
0
 94
0
 95
0
 96
0
141
21.875
141
6.0
141
6.0
141
6.0
141
6.0
142
34.0
142
30.0
142
12.0
142
20.0
142
13.0
142
10.0
142
41.0
142
10.0
142
10.0
171
1
172
0
173
0
174
0
175
9
176
1
 91
41
178
0
145
0.0
301
CELL_VALUE
 90
4
  1
Description\P\H2.9;Schließblech/24x3/120/NL12\P--\PLatch plate/24x3/120/AX12
304
ACVALUE_END
170
4
140
1.3
 64
5
171
1
172
0
173
1
174
0
175
1
176
1
 91
1
178
0
145
0.0
170
1
171
1
172
0
173
1
174
0
175
1
176
1
 91
1
178
0
145
0.0
170
1
171
1
172
0
173
1
174
0
175
1
176
1
 91
1
178
0
145
0.0
170
1
171
1
172
0
173
1
174
0
175
1
176
1
 91
1
178
0
145
0.0
170
1
171
1
172
0
173
1
174
0
175
1
176
1
 91
1
178
0
145
0.0
170
1
171
1
172
0
173
1
174
0
175
1
176
1
 91
1
178
0
145
0.0
170
1
171
1
172
0
173
1
174
0
175
1
176
1
 91
1
178
0
145
0.0
170
1
171
1
172
0
173
1
174
0
175
1
176
1
 91
1
178
0
145
0.0
170
1
171
1
172
0
173
0
174
0
175
1
176
4
 91
1
178
0
145
0.0
170
1
171
1
172
0
173
0
174
0
175
1
176
3
 91
41
178
0
145
0.0
301
CELL_VALUE
 90
4
  1
Release No. \P\H2.0;--\P\H0.5; \P\H1.3;Mod. No.\P\H2.0;G29124
304
ACVALUE_END
170
4
140
1.3
 64
5
171
1
172
0
173
0
174
0
175
1
176
1
 91
41
178
0
145
0.0
301
CELL_VALUE
 90
4
  1
Level
304
ACVALUE_END
170
4
140
1.3
 64
5
171
1
172
0
173
0
174
0
175
2
176
1
 91
41
178
0
145
0.0
301
CELL_VALUE
 90
4
  1
Released
304
ACVALUE_END
170
4
140
2.0
 64
5
171
1
172
0
173
1
174
0
175
1
176
1
 91
1
178
0
145
0.0
170
1
171
1
172
0
173
0
174
0
175
1
176
3
 91
41
178
0
145
0.0
301
CELL_VALUE
 90
4
  1
Scale\P\H2.5; \P1:1
304
ACVALUE_END
170
2
140
1.3
 64
5
171
1
172
0
173
0
174
0
175
2
176
2
 91
41
178
0
145
0.0
301
CELL_VALUE
 90
4
  1
Modification \P\H3.5;1
304
ACVALUE_END
170
1
140
1.3
 64
5
171
1
172
0
173
1
174
0
175
1
176
1
 91
1
178
0
145
0.0
170
1
171
1
172
0
173
0
174
0
175
1
176
2
 91
41
178
0
145
0.0
301
CELL_VALUE
 90
4
  1
Size\P\H3.5; 3
304
ACVALUE_END
170
2
140
1.3
 64
5
171
1
172
0
173
1
174
0
175
1
176
1
 91
1
178
0
145
0.0
170
1
171
1
172
0
173
1
174
0
175
1
176
1
 91
1
178
0
145
0.0
170
1
171
1
172
0
173
0
174
0
175
1
176
1
 91
41
178
0
145
0.0
301
CELL_VALUE
 90
4
  1
Ver.
304
ACVALUE_END
170
4
140
1.3
 64
5
171
1
172
0
173
0
174
0
175
1
176
1
 91
41
178
0
145
0.0
301
CELL_VALUE
 90
4
  1
--
304
ACVALUE_END
170
4
140
2.0
 64
5
171
1
172
0
173
0
174
0
175
1
176
1
 91
41
178
0
145
0.0
301
CELL_VALUE
 90
4
  1
--
304
ACVALUE_END
170
4
140
2.0
 64
5
171
1
172
0
173
1
174
0
175
1
176
1
 91
1
178
0
145
0.0
170
1
171
1
172
0
173
1
174
0
175
1
176
1
 91
1
178
0
145
0.0
170
1
171
1
172
0
173
1
174
0
175
1
176
1
 91
1
178
0
145
0.0
170
1
171
1
172
0
173
1
174
0
175
1
176
1
 91
1
178
0
145
0.0
170
1
171
1
172
0
173
1
174
0
175
1
176
1
 91
1
178
0
145
0.0
170
1
171
1
172
0
173
1
174
0
175
1
176
1
 91
1
178
0
145
0.0
170
1
171
1
172
0
173
0
174
0
175
1
176
1
 91
41
178
0
145
0.0
301
CELL_VALUE
 90
4
  1
Draft
304
ACVALUE_END
170
4
140
1.3
 64
5
171
1
172
0
173
0
174
0
175
1
176
1
 91
41
178
0
145
0.0
301
CELL_VALUE
 90
4
  1
15.05.2014
304
ACVALUE_END
170
4
140
2.0
 64
5
171
1
172
0
173
0
174
0
175
1
176
1
 91
41
178
0
145
0.0
301
CELL_VALUE
 90
4
  1
Aj
304
ACVALUE_END
170
4
140
2.0
 64
5
171
1
172
0
173
1
174
0
175
1
176
1
 91
1
178
0
145
0.0
170
1
171
1
172
0
173
0
174
0
175
2
176
2
 91
41
178
0
145
0.0
301
CELL_VALUE
 90
4
  1
Drawing No.\P\H4.0;9-43501-02-0-01
304
ACVALUE_END
170
1
140
1.3
 64
5
171
1
172
0
173
1
174
0
175
1
176
1
 91
1
178
0
145
0.0
170
1
171
1
172
0
173
0
174
0
175
1
176
2
 91
41
178
0
145
0.0
301
CELL_VALUE
 90
4
  1
Sheet\P\H3.5;1/1
304
ACVALUE_END
170
2
140
1.3
 64
5
171
1
172
0
173
1
174
0
175
1
176
1
 91
1
178
0
145
0.0
170
1
171
1
172
0
173
0
174
0
175
5
176
1
 91
41
178
0
145
0.0
301
CELL_VALUE
 90
4
  1
Replacement for \H2.0;--
304
ACVALUE_END
170
4
140
1.3
 64
5
171
1
172
0
173
1
174
0
175
1
176
1
 91
1
178
0
145
0.0
170
1
171
1
172
0
173
1
174
0
175
1
176
1
 91
1
178
0
145
0.0
170
1
171
1
172
0
173
1
174
0
175
1
176
1
 91
1
178
0
145
0.0
170
1
171
1
172
0
173
1
174
0
175
1
176
1
 91
1
178
0
145
0.0
170
1
171
1
172
0
173
1
174
0
175
1
176
1
 91
1
178
0
145
0.0
170
1
171
1
172
0
173
1
174
0
175
1
176
1
 91
1
178
0
145
0.0
170
1
171
1
172
0
173
1
174
0
175
1
176
1
 91
1
178
0
145
0.0
170
1
  0
ACAD_TABLE
  5
311
100
AcDbEntity
  8
0
 62
2
  6
CONTINUOUS
100
AcDbBlockReference
  2
*T2
 10
13.8
 20
104.9999999999
 30
0.0
100
AcDbTable
342
       409
343
218
 11
1.0
 21
0.0
 31
0.0
 90
22
 91
5
 92
1
 93
0
 94
0
 95
0
 96
0
141
9.0
141
9.0
141
9.0
141
9.0
141
9.0
142
11.2
171
1
172
0
173
0
174
0
175
1
176
1
 91
41
178
0
145
0.0
301
CELL_VALUE
 90
4
  1
-
304
ACVALUE_END
170
5
140
3.5
 64
5
171
1
172
0
173
0
174
0
175
1
176
1
 91
41
178
0
145
0.0
301
CELL_VALUE
 90
4
  1
-
304
ACVALUE_END
170
5
140
3.5
 64
5
171
1
172
0
173
0
174
0
175
1
176
1
 91
41
178
0
145
0.0
301
CELL_VALUE
 90
4
  1
-
304
ACVALUE_END
170
5
140
3.5
 64
5
171
1
172
0
173
0
174
0
175
1
176
1
 91
41
178
0
145
0.0
301
CELL_VALUE
 90
4
  1
-
304
ACVALUE_END
170
5
140
3.5
 64
5
171
1
172
0
173
0
174
0
175
1
176
1
 91
41
178
0
145
0.0
301
CELL_VALUE
 90
4
  1
-
304
ACVALUE_END
170
5
140
3.5
 64
5
  0
LINE
  5
312
100
AcDbEntity
  8
0
100
AcDbLine
 62
5
  6
CONTINUOUS
 10
0.0
 20
297.0
 11
0.0
 21
0.0
  0
LINE
  5
313
100
AcDbEntity
  8
0
100
AcDbLine
 62
5
  6
CONTINUOUS
 10
25.0
 20
292.0
 11
25.0
 21
5.0
  0
LINE
  5
314
100
AcDbEntity
  8
0
100
AcDbLine
 62
5
  6
CONTINUOUS
 10
0.0
 20
0.0
 11
420.0
 21
0.0
  0
LINE
  5
315
100
AcDbEntity
  8
0
100
AcDbLine
 62
5
  6
CONTINUOUS
 10
25.0
 20
5.0
 11
415.0
 21
5.0
  0
LINE
  5
316
100
AcDbEntity
  8
0
100
AcDbLine
 62
5
  6
CONTINUOUS
 10
1.0
 20
148.5
 11
15.0
 21
148.5
  0
LINE
  5
317
100
AcDbEntity
  8
0
100
AcDbLine
 62
5
  6
CONTINUOUS
 10
25.0
 20
292.0
 11
415.0
 21
292.0
  0
LINE
  5
318
100
AcDbEntity
  8
0
100
AcDbLine
 62
5
  6
CONTINUOUS
 10
0.0
 20
297.0
 11
420.0
 21
297.0
  0
LINE
  5
319
100
AcDbEntity
  8
0
100
AcDbLine
 62
5
  6
CONTINUOUS
 10
415.0
 20
292.0
 11
415.0
 21
5.0
  0
LINE
  5
31A
100
AcDbEntity
  8
0
100
AcDbLine
 62
5
  6
CONTINUOUS
 10
420.0
 20
297.0
 11
420.0
 21
0.0
  0
LINE
  5
31B
100
AcDbEntity
  8
AXIS
100
AcDbLine
 62
7
  6
CONTINUOUS
 10
231.8173888255
 20
171.1455102623
 11
231.8173888255
 21
195.1455102623
  0
LINE
  5
31C
100
AcDbEntity
  8
AXIS
100
AcDbLine
 62
7
  6
CENTER
 10
243.8173888255
 20
183.1455102623
 11
243.8173888255
 21
175.9955102623
  0
LINE
  5
31D
100
AcDbEntity
  8
AXIS
100
AcDbLine
 62
7
  6
CENTER
 10
243.8173888255
 20
183.1455102623
 11
243.8173888255
 21
190.2955102623
  0
LINE
  5
31E
100
AcDbEntity
  8
AXIS
100
AcDbLine
 62
7
  6
CONTINUOUS
 10
268.8173888255
 20
171.1455102623
 11
268.8173888255
 21
172.6455102623
  0
LINE
  5
31F
100
AcDbEntity
  8
AXIS
100
AcDbLine
 62
7
  6
CONTINUOUS
 10
268.8173888255
 20
193.6455102623
 11
268.8173888255
 21
195.1455102623
  0
LINE
  5
320
100
AcDbEntity
  8
AXIS
100
AcDbLine
 62
7
  6
CONTINUOUS
 10
270.8173888255
 20
187.3955102623
 11
270.8173888255
 21
177.8955102623
  0
LINE
  5
321
100
AcDbEntity
  8
AXIS
100
AcDbLine
 62
7
  6
CONTINUOUS
 10
271.8173888255
 20
187.3955102623
 11
271.8173888255
 21
177.8955102623
  0
LINE
  5
322
100
AcDbEntity
  8
AXIS
100
AcDbLine
 62
9
  6
CONTINUOUS
 10
273.8173888255
 20
190.3955102623
 11
273.8173888255
 21
189.3955102623
  0
LINE
  5
323
100
AcDbEntity
  8
AXIS
100
AcDbLine
 62
9
  6
CONTINUOUS
 10
273.8173888255
 20
174.8955102623
 11
273.8173888255
 21
175.8955102623
  0
LINE
  5
324
100
AcDbEntity
  8
AXIS
100
AcDbLine
 62
7
  6
CONTINUOUS
 10
351.8173888255
 20
171.1455102623
 11
231.8173888255
 21
171.1455102623
  0
LINE
  5
325
100
AcDbEntity
  8
AXIS
100
AcDbLine
 62
9
  6
CONTINUOUS
 10
314.8173888255
 20
172.6455102623
 11
268.8173888255
 21
172.6455102623
  0
LINE
  5
326
100
AcDbEntity
  8
AXIS
100
AcDbLine
 62
7
  6
CONTINUOUS
 10
273.8173888255
 20
174.8955102623
 11
309.8173888255
 21
174.8955102623
  0
LINE
  5
327
100
AcDbEntity
  8
AXIS
100
AcDbLine
 62
7
  6
CONTINUOUS
 10
273.8173888255
 20
175.8955102623
 11
309.8173888255
 21
175.8955102623
  0
LINE
  5
328
100
AcDbEntity
  8
AXIS
100
AcDbLine
 62
9
  6
CONTINUOUS
 10
312.8173888255
 20
177.8955102623
 11
311.8173888255
 21
177.8955102623
  0
LINE
  5
329
100
AcDbEntity
  8
AXIS
100
AcDbLine
 62
9
  6
CONTINUOUS
 10
270.8173888255
 20
177.8955102623
 11
271.8173888255
 21
177.8955102623
  0
LINE
  5
32A
100
AcDbEntity
  8
S-AXIS
100
AcDbLine
 62
7
  6
CENTER
 10
291.8173888255
 20
168.1455102623
 11
291.8173888255
 21
198.1455102623
  0
LINE
  5
32B
100
AcDbEntity
  8
S-AXIS
100
AcDbLine
 62
7
  6
CENTER
 10
228.8173888255
 20
183.1455102623
 11
354.5273540087
 21
183.1455102623
  0
LINE
  5
32C
100
AcDbEntity
  8
AXIS
100
AcDbLine
 62
9
  6
CONTINUOUS
 10
312.8173888255
 20
187.3955102623
 11
311.8173888255
 21
187.3955102623
  0
LINE
  5
32D
100
AcDbEntity
  8
AXIS
100
AcDbLine
 62
9
  6
CONTINUOUS
 10
270.8173888255
 20
187.3955102623
 11
271.8173888255
 21
187.3955102623
  0
LINE
  5
32E
100
AcDbEntity
  8
AXIS
100
AcDbLine
 62
7
  6
CONTINUOUS
 10
309.8173888255
 20
189.3955102623
 11
273.8173888255
 21
189.3955102623
  0
LINE
  5
32F
100
AcDbEntity
  8
AXIS
100
AcDbLine
 62
7
  6
CONTINUOUS
 10
309.8173888255
 20
190.3955102623
 11
273.8173888255
 21
190.3955102623
  0
LINE
  5
330
100
AcDbEntity
  8
AXIS
100
AcDbLine
 62
9
  6
CONTINUOUS
 10
314.8173888255
 20
193.6455102623
 11
268.8173888255
 21
193.6455102623
  0
LINE
  5
331
100
AcDbEntity
  8
AXIS
100
AcDbLine
 62
7
  6
CONTINUOUS
 10
351.8173888255
 20
195.1455102623
 11
231.8173888255
 21
195.1455102623
  0
LINE
  5
332
100
AcDbEntity
  8
AXIS
100
AcDbLine
 62
9
  6
CONTINUOUS
 10
309.8173888255
 20
190.3955102623
 11
309.8173888255
 21
189.3955102623
  0
LINE
  5
333
100
AcDbEntity
  8
AXIS
100
AcDbLine
 62
9
  6
CONTINUOUS
 10
309.8173888255
 20
174.8955102623
 11
309.8173888255
 21
175.8955102623
  0
LINE
  5
334
100
AcDbEntity
  8
AXIS
100
AcDbLine
 62
7
  6
CONTINUOUS
 10
311.8173888255
 20
177.8955102623
 11
311.8173888255
 21
187.3955102623
  0
LINE
  5
335
100
AcDbEntity
  8
AXIS
100
AcDbLine
 62
7
  6
CONTINUOUS
 10
312.8173888255
 20
177.8955102623
 11
312.8173888255
 21
187.3955102623
  0
LINE
  5
336
100
AcDbEntity
  8
AXIS
100
AcDbLine
 62
7
  6
CONTINUOUS
 10
314.8173888255
 20
171.1455102623
 11
314.8173888255
 21
172.6455102623
  0
LINE
  5
337
100
AcDbEntity
  8
AXIS
100
AcDbLine
 62
7
  6
CONTINUOUS
 10
314.8173888255
 20
193.6455102623
 11
314.8173888255
 21
195.1455102623
  0
LINE
  5
338
100
AcDbEntity
  8
AXIS
100
AcDbLine
 62
7
  6
CENTER
 10
339.8173888255
 20
183.1455102623
 11
339.8173888255
 21
175.9955102623
  0
LINE
  5
339
100
AcDbEntity
  8
AXIS
100
AcDbLine
 62
7
  6
CENTER
 10
339.8173888255
 20
183.1455102623
 11
339.8173888255
 21
190.2955102623
  0
LINE
  5
33A
100
AcDbEntity
  8
AXIS
100
AcDbLine
 62
7
  6
CONTINUOUS
 10
351.8173888255
 20
171.1455102623
 11
351.8173888255
 21
195.1455102623
  0
LINE
  5
33B
100
AcDbEntity
  8
AXIS
100
AcDbLine
 62
7
  6
CONTINUOUS
 10
231.8173888255
 20
235.0530569897
 11
231.8173888255
 21
238.0530569897
  0
LINE
  5
33C
100
AcDbEntity
  8
AXIS
100
AcDbLine
 62
7
  6
CENTER
 10
243.8173888255
 20
232.0530569897
 11
243.8173888255
 21
241.0530569897
  0
LINE
  5
33D
100
AcDbEntity
  8
AXIS
100
AcDbLine
 62
7
  6
CONTINUOUS
 10
268.8173888255
 20
238.0530569897
 11
268.8173888255
 21
236.5530569897
  0
LINE
  5
33E
100
AcDbEntity
  8
S-AXIS
100
AcDbLine
 62
7
  6
CENTER
 10
291.8173888255
 20
232.0530569897
 11
291.8173888255
 21
241.0530569897
  0
LINE
  5
33F
100
AcDbEntity
  8
AXIS
100
AcDbLine
 62
7
  6
CONTINUOUS
 10
351.8173888255
 20
235.0530569897
 11
231.8173888255
 21
235.0530569897
  0
LINE
  5
340
100
AcDbEntity
  8
AXIS
100
AcDbLine
 62
9
  6
CONTINUOUS
 10
314.8173888255
 20
236.5530569897
 11
268.8173888255
 21
236.5530569897
  0
LINE
  5
341
100
AcDbEntity
  8
AXIS
100
AcDbLine
 62
7
  6
CONTINUOUS
 10
351.8173888255
 20
238.0530569897
 11
231.8173888255
 21
238.0530569897
  0
LINE
  5
342
100
AcDbEntity
  8
AXIS
100
AcDbLine
 62
7
  6
CONTINUOUS
 10
314.8173888255
 20
238.0530569897
 11
314.8173888255
 21
236.5530569897
  0
LINE
  5
343
100
AcDbEntity
  8
AXIS
100
AcDbLine
 62
7
  6
CENTER
 10
339.8173888255
 20
232.0530569897
 11
339.8173888255
 21
241.0530569897
  0
LINE
  5
344
100
AcDbEntity
  8
AXIS
100
AcDbLine
 62
7
  6
CONTINUOUS
 10
351.8173888255
 20
235.0530569897
 11
351.8173888255
 21
238.0530569897
  0
LINE
  5
345
100
AcDbEntity
  8
AXIS
100
AcDbLine
 62
7
  6
CONTINUOUS
 10
155.2324507184
 20
235.0530569897
 11
155.2324507184
 21
238.0530569897
  0
LINE
  5
346
100
AcDbEntity
  8
AXIS
100
AcDbLine
 62
7
  6
CONTINUOUS
 10
179.2324507184
 20
235.0530569897
 11
155.2324507184
 21
235.0530569897
  0
LINE
  5
347
100
AcDbEntity
  8
S-AXIS
100
AcDbLine
 62
7
  6
CENTER
 10
167.2324507184
 20
232.0530569897
 11
167.2324507184
 21
241.0530569897
  0
LINE
  5
348
100
AcDbEntity
  8
AXIS
100
AcDbLine
 62
7
  6
CONTINUOUS
 10
155.2324507184
 20
238.0530569897
 11
179.2324507184
 21
238.0530569897
  0
LINE
  5
349
100
AcDbEntity
  8
AXIS
100
AcDbLine
 62
7
  6
CONTINUOUS
 10
179.2324507184
 20
238.0530569897
 11
179.2324507184
 21
235.0530569897
  0
LINE
  5
34A
100
AcDbEntity
  8
AXIS
100
AcDbLine
 62
7
  6
CONTINUOUS
 10
234.4631443767
 20
80.7443537441
 11
234.4631443767
 21
78.2948464927
  0
LINE
  5
34B
100
AcDbEntity
  8
AXIS
100
AcDbLine
 62
7
  6
CONTINUOUS
 10
234.4631443767
 20
78.2948464927
 11
251.4337777802
 21
68.4970683842
  0
LINE
  5
34C
100
AcDbEntity
  8
AXIS
100
AcDbLine
 62
7
  6
CONTINUOUS
 10
251.4337777802
 20
70.9465756356
 11
234.4631443767
 21
80.7443537441
  0
LINE
  5
34D
100
AcDbEntity
  8
AXIS
100
AcDbLine
 62
7
  6
CONTINUOUS
 10
251.4337777802
 20
68.4970683842
 11
251.4337777802
 21
70.9465756356
  0
LINE
  5
34E
100
AcDbEntity
  8
AXIS
100
AcDbLine
 62
9
  6
CONTINUOUS
 10
268.2273864593
 20
94.7267214511
 11
268.2273864593
 21
93.0937166168
  0
LINE
  5
34F
100
AcDbEntity
  8
AXIS
100
AcDbLine
 62
9
  6
CONTINUOUS
 10
267.5202767341
 20
95.9514646227
 11
268.2273864593
 21
94.7267214511
  0
LINE
  5
350
100
AcDbEntity
  8
AXIS
100
AcDbLine
 62
7
  6
CONTINUOUS
 10
277.5966197571
 20
86.0516093289
 11
276.5359551694
 21
86.6639704607
  0
LINE
  5
351
100
AcDbEntity
  8
AXIS
100
AcDbLine
 62
7
  6
CONTINUOUS
 10
261.6866509413
 20
95.2370263056
 11
260.6259863536
 21
95.8493874374
  0
LINE
  5
352
100
AcDbEntity
  8
AXIS
100
AcDbLine
 62
7
  6
CONTINUOUS
 10
267.5202943979
 20
93.5020098976
 11
274.2378367868
 21
89.6237227296
  0
LINE
  5
353
100
AcDbEntity
  8
AXIS
100
AcDbLine
 62
7
  6
CONTINUOUS
 10
277.5966197571
 20
86.0516093289
 11
277.5966197571
 21
84.8268557032
  0
LINE
  5
354
100
AcDbEntity
  8
AXIS
100
AcDbLine
 62
7
  6
CONTINUOUS
 10
319.3156048424
 20
129.7336522087
 11
293.1527628654
 21
114.6286185154
  0
LINE
  5
355
100
AcDbEntity
  8
AXIS
100
AcDbLine
 62
7
  6
CONTINUOUS
 10
260.6259863536
 20
95.8493874374
 11
234.4631443767
 21
80.7443537441
  0
LINE
  5
356
100
AcDbEntity
  8
AXIS
100
AcDbLine
 62
7
  6
CONTINUOUS
 10
293.4634308108
 20
114.0905438022
 11
261.2473146523
 21
95.4906714921
  0
LINE
  5
357
100
AcDbEntity
  8
AXIS
100
AcDbLine
 62
9
  6
CONTINUOUS
 10
294.2134274532
 20
114.0162573837
 11
261.6866509413
 21
95.2370263056
  0
LINE
  5
358
100
AcDbEntity
  8
AXIS
100
AcDbLine
 62
7
  6
CONTINUOUS
 10
292.9760148738
 20
110.6482541621
 11
267.5202767341
 21
95.9514646227
  0
LINE
  5
359
100
AcDbEntity
  8
AXIS
100
AcDbLine
 62
7
  6
CONTINUOUS
 10
293.683124599
 20
109.4235109905
 11
268.2273864593
 21
94.7267214511
  0
LINE
  5
35A
100
AcDbEntity
  8
AXIS
100
AcDbLine
 62
7
  6
CONTINUOUS
 10
293.683124599
 20
107.7905061562
 11
268.2273864593
 21
93.0937166168
  0
LINE
  5
35B
100
AcDbEntity
  8
AXIS
100
AcDbLine
 62
9
  6
CONTINUOUS
 10
297.2186555609
 20
110.6482643602
 11
296.5115517237
 21
109.4235177892
  0
LINE
  5
35C
100
AcDbEntity
  8
AXIS
100
AcDbLine
 62
7
  6
CONTINUOUS
 10
293.1527628654
 20
114.6286185154
 11
293.1527628654
 21
113.9111806509
  0
LINE
  5
35D
100
AcDbEntity
  8
AXIS
100
AcDbLine
 62
9
  6
CONTINUOUS
 10
293.683124599
 20
109.4235109905
 11
293.683124599
 21
107.7905061562
  0
LINE
  5
35E
100
AcDbEntity
  8
AXIS
100
AcDbLine
 62
7
  6
CONTINUOUS
 10
278.4804774739
 20
89.6237329277
 11
303.9362156136
 21
104.3205224671
  0
LINE
  5
35F
100
AcDbEntity
  8
AXIS
100
AcDbLine
 62
9
  6
CONTINUOUS
 10
309.0627316813
 20
105.4432015387
 11
276.5359551694
 21
86.6639704607
  0
LINE
  5
360
100
AcDbEntity
  8
AXIS
100
AcDbLine
 62
7
  6
CONTINUOUS
 10
336.2862382459
 20
119.9358741002
 11
310.123396269
 21
104.830840407
  0
LINE
  5
361
100
AcDbEntity
  8
AXIS
100
AcDbLine
 62
7
  6
CONTINUOUS
 10
277.5966197571
 20
86.0516093289
 11
251.4337777802
 21
70.9465756356
  0
LINE
  5
362
100
AcDbEntity
  8
AXIS
100
AcDbLine
 62
9
  6
CONTINUOUS
 10
296.5115517237
 20
109.4235177892
 11
296.5115517237
 21
107.7905129549
  0
LINE
  5
363
100
AcDbEntity
  8
AXIS
100
AcDbLine
 62
9
  6
CONTINUOUS
 10
303.9361979498
 20
106.7699771922
 11
303.2290941126
 21
105.5452306212
  0
LINE
  5
364
100
AcDbEntity
  8
AXIS
100
AcDbLine
 62
9
  6
CONTINUOUS
 10
310.123396269
 20
103.6060867813
 11
277.5966197571
 21
84.8268557032
  0
LINE
  5
365
100
AcDbEntity
  8
AXIS
100
AcDbLine
 62
7
  6
CONTINUOUS
 10
336.2862382459
 20
117.4863668488
 11
251.4337777802
 21
68.4970683842
  0
LINE
  5
366
100
AcDbEntity
  8
AXIS
100
AcDbLine
 62
9
  6
CONTINUOUS
 10
292.9760148738
 20
110.6482541621
 11
293.683124599
 21
109.4235109905
  0
LINE
  5
367
100
AcDbEntity
  8
AXIS
100
AcDbLine
 62
7
  6
CONTINUOUS
 10
303.2290941126
 20
103.912225787
 11
296.5115517237
 21
107.7905129549
  0
LINE
  5
368
100
AcDbEntity
  8
AXIS
100
AcDbLine
 62
7
  6
CONTINUOUS
 10
303.2290941126
 20
105.5452306212
 11
296.5115517237
 21
109.4235177892
  0
LINE
  5
369
100
AcDbEntity
  8
AXIS
100
AcDbLine
 62
7
  6
CONTINUOUS
 10
303.9361979498
 20
106.7699771922
 11
297.2186555609
 21
110.6482643602
  0
LINE
  5
36A
100
AcDbEntity
  8
AXIS
100
AcDbLine
 62
9
  6
CONTINUOUS
 10
303.2290941126
 20
105.5452306212
 11
303.2290941126
 21
103.912225787
  0
LINE
  5
36B
100
AcDbEntity
  8
AXIS
100
AcDbLine
 62
7
  6
CONTINUOUS
 10
310.123396269
 20
104.830840407
 11
309.0627316813
 21
105.4432015387
  0
LINE
  5
36C
100
AcDbEntity
  8
AXIS
100
AcDbLine
 62
7
  6
CONTINUOUS
 10
294.2134274532
 20
114.0162573837
 11
293.1527628654
 21
114.6286185154
  0
LINE
  5
36D
100
AcDbEntity
  8
AXIS
100
AcDbLine
 62
7
  6
CONTINUOUS
 10
310.123396269
 20
104.830840407
 11
310.123396269
 21
103.6060867813
  0
LINE
  5
36E
100
AcDbEntity
  8
AXIS
100
AcDbLine
 62
7
  6
CONTINUOUS
 10
336.2862382459
 20
119.9358741002
 11
319.3156048424
 21
129.7336522087
  0
LINE
  5
36F
100
AcDbEntity
  8
AXIS
100
AcDbLine
 62
7
  6
CONTINUOUS
 10
336.2862382459
 20
117.4863668488
 11
336.2862382459
 21
119.9358741002
  0
LINE
  5
370
100
AcDbEntity
  8
AXIS
100
AcDbLine
 62
7
  6
CONTINUOUS
 10
110.7899370065
 20
86.6750804621
 11
87.6077171756
 21
84.5505686165
  0
LINE
  5
371
100
AcDbEntity
  8
AXIS
100
AcDbLine
 62
7
  6
CONTINUOUS
 10
87.6077171756
 20
84.5505686165
 11
86.8312600403
 21
85.5416668851
  0
LINE
  5
372
100
AcDbEntity
  8
AXIS
100
AcDbLine
 62
7
  6
CONTINUOUS
 10
110.7899370065
 20
121.4437074312
 11
109.3410482671
 21
121.3109254408
  0
LINE
  5
373
100
AcDbEntity
  8
AXIS
100
AcDbLine
 62
7
  6
CONTINUOUS
 10
89.056605915
 20
119.4519775759
 11
87.6077171756
 21
119.3191955855
  0
LINE
  5
374
100
AcDbEntity
  8
AXIS
100
AcDbLine
 62
7
  6
CONTINUOUS
 10
95.0936423293
 20
121.8846211106
 11
104.269937679
 21
122.7255737162
  0
LINE
  5
375
100
AcDbEntity
  8
AXIS
100
AcDbLine
 62
7
  6
CONTINUOUS
 10
87.6077171756
 20
119.3191955855
 11
87.2194886079
 21
119.8147447199
  0
LINE
  5
376
100
AcDbEntity
  8
AXIS
100
AcDbLine
 62
9
  6
CONTINUOUS
 10
92.1958648504
 20
158.2670693405
 11
92.9029716316
 21
158.685956757
  0
LINE
  5
377
100
AcDbEntity
  8
AXIS
100
AcDbLine
 62
7
  6
CONTINUOUS
 10
94.8348232842
 20
123.1546798209
 11
104.0111186339
 21
123.9956324265
  0
LINE
  5
378
100
AcDbEntity
  8
AXIS
100
AcDbLine
 62
7
  6
CONTINUOUS
 10
94.317185194
 20
123.815412
 11
103.4934805437
 21
124.6563646056
  0
LINE
  5
379
100
AcDbEntity
  8
AXIS
100
AcDbLine
 62
7
  6
CONTINUOUS
 10
86.8312600403
 20
198.3047813794
 11
86.8312600403
 21
85.5416668851
  0
LINE
  5
37A
100
AcDbEntity
  8
AXIS
100
AcDbLine
 62
9
  6
CONTINUOUS
 10
87.2194886079
 20
163.040605276
 11
87.2194886079
 21
119.8147447199
  0
LINE
  5
37B
100
AcDbEntity
  8
AXIS
100
AcDbLine
 62
9
  6
CONTINUOUS
 10
107.1677151579
 20
125.8102155592
 11
105.9429702865
 21
126.0520603219
  0
LINE
  5
37C
100
AcDbEntity
  8
AXIS
100
AcDbLine
 62
9
  6
CONTINUOUS
 10
94.8348232842
 20
123.1546798209
 11
94.317185194
 21
123.815412
  0
LINE
  5
37D
100
AcDbEntity
  8
AXIS
100
AcDbLine
 62
7
  6
CONTINUOUS
 10
87.6077171756
 20
197.3136831108
 11
87.6077171756
 21
162.5450561417
  0
LINE
  5
37E
100
AcDbEntity
  8
AXIS
100
AcDbLine
 62
7
  6
CONTINUOUS
 10
87.6077171756
 20
119.3191955855
 11
87.6077171756
 21
84.5505686165
  0
LINE
  5
37F
100
AcDbEntity
  8
AXIS
100
AcDbLine
 62
9
  6
CONTINUOUS
 10
89.056605915
 20
162.677838132
 11
89.056605915
 21
119.4519775759
  0
LINE
  5
380
100
AcDbEntity
  8
AXIS
100
AcDbLine
 62
9
  6
CONTINUOUS
 10
95.0936423293
 20
161.3517111836
 11
94.8348232842
 21
160.7423846524
  0
LINE
  5
381
100
AcDbEntity
  8
AXIS
100
AcDbLine
 62
9
  6
CONTINUOUS
 10
95.0936423293
 20
121.8846211106
 11
94.8348232842
 21
123.1546798209
  0
LINE
  5
382
100
AcDbEntity
  8
AXIS
100
AcDbLine
 62
7
  6
CONTINUOUS
 10
92.1958648504
 20
158.2670693405
 11
92.1958648504
 21
124.4381349922
  0
LINE
  5
383
100
AcDbEntity
  8
AXIS
100
AcDbLine
 62
7
  6
CONTINUOUS
 10
92.9029716316
 20
158.685956757
 11
92.9029716316
 21
124.8570224087
  0
LINE
  5
384
100
AcDbEntity
  8
AXIS
100
AcDbLine
 62
9
  6
CONTINUOUS
 10
104.0111186339
 20
123.9956324265
 11
103.4934805437
 21
124.6563646056
  0
LINE
  5
385
100
AcDbEntity
  8
AXIS
100
AcDbLine
 62
9
  6
CONTINUOUS
 10
105.9429702865
 20
126.0520603219
 11
105.4253321963
 21
126.712792501
  0
LINE
  5
386
100
AcDbEntity
  8
AXIS
100
AcDbLine
 62
7
  6
CONTINUOUS
 10
110.7899370065
 20
121.4437074312
 11
110.4528196994
 21
121.8740162843
  0
LINE
  5
387
100
AcDbEntity
  8
AXIS
100
AcDbLine
 62
9
  6
CONTINUOUS
 10
104.269937679
 20
162.1926637892
 11
104.0111186339
 21
161.5833372579
  0
LINE
  5
388
100
AcDbEntity
  8
AXIS
100
AcDbLine
 62
7
  6
CONTINUOUS
 10
87.6077171756
 20
162.5450561417
 11
87.2194886079
 21
163.040605276
  0
LINE
  5
389
100
AcDbEntity
  8
AXIS
100
AcDbLine
 62
9
  6
CONTINUOUS
 10
104.269937679
 20
122.7255737162
 11
104.0111186339
 21
123.9956324265
  0
LINE
  5
38A
100
AcDbEntity
  8
AXIS
100
AcDbLine
 62
7
  6
CONTINUOUS
 10
105.4253321963
 20
126.712792501
 11
105.4253321963
 21
160.5417268493
  0
LINE
  5
38B
100
AcDbEntity
  8
AXIS
100
AcDbLine
 62
7
  6
CONTINUOUS
 10
105.9429702865
 20
126.0520603219
 11
105.9429702865
 21
159.8809946702
  0
LINE
  5
38C
100
AcDbEntity
  8
AXIS
100
AcDbLine
 62
7
  6
CONTINUOUS
 10
107.1677151579
 20
125.8102155592
 11
107.1677151579
 21
159.6391499075
  0
LINE
  5
38D
100
AcDbEntity
  8
AXIS
100
AcDbLine
 62
9
  6
CONTINUOUS
 10
109.3410482671
 20
164.536785997
 11
109.3410482671
 21
121.3109254408
  0
LINE
  5
38E
100
AcDbEntity
  8
AXIS
100
AcDbLine
 62
7
  6
CONTINUOUS
 10
110.4528196994
 20
164.6386732017
 11
110.4528196994
 21
121.8064745751
  0
LINE
  5
38F
100
AcDbEntity
  8
AXIS
100
AcDbLine
 62
7
  6
CONTINUOUS
 10
110.7899370065
 20
199.4381949564
 11
110.7899370065
 21
164.6695679873
  0
LINE
  5
390
100
AcDbEntity
  8
AXIS
100
AcDbLine
 62
7
  6
CONTINUOUS
 10
110.7899370065
 20
121.4437074312
 11
110.7899370065
 21
86.6750804621
  0
LINE
  5
391
100
AcDbEntity
  8
AXIS
100
AcDbLine
 62
9
  6
CONTINUOUS
 10
92.1958648504
 20
124.4381349922
 11
92.9029716316
 21
124.8570224087
  0
LINE
  5
392
100
AcDbEntity
  8
AXIS
100
AcDbLine
 62
7
  6
CONTINUOUS
 10
104.0111186339
 20
161.5833372579
 11
94.8348232842
 21
160.7423846524
  0
LINE
  5
393
100
AcDbEntity
  8
AXIS
100
AcDbLine
 62
7
  6
CONTINUOUS
 10
104.269937679
 20
162.1926637892
 11
95.0936423293
 21
161.3517111836
  0
LINE
  5
394
100
AcDbEntity
  8
AXIS
100
AcDbLine
 62
9
  6
CONTINUOUS
 10
107.1677151579
 20
159.6391499075
 11
105.9429702865
 21
159.8809946702
  0
LINE
  5
395
100
AcDbEntity
  8
AXIS
100
AcDbLine
 62
9
  6
CONTINUOUS
 10
105.9429702865
 20
159.8809946702
 11
105.4253321963
 21
160.5417268493
  0
LINE
  5
396
100
AcDbEntity
  8
AXIS
100
AcDbLine
 62
7
  6
CONTINUOUS
 10
110.7899370065
 20
164.6695679873
 11
109.3410482671
 21
164.536785997
  0
LINE
  5
397
100
AcDbEntity
  8
AXIS
100
AcDbLine
 62
7
  6
CONTINUOUS
 10
89.056605915
 20
162.677838132
 11
87.6077171756
 21
162.5450561417
  0
LINE
  5
398
100
AcDbEntity
  8
AXIS
100
AcDbLine
 62
7
  6
CONTINUOUS
 10
87.6077171756
 20
197.3136831108
 11
86.8312600403
 21
198.3047813794
  0
LINE
  5
399
100
AcDbEntity
  8
AXIS
100
AcDbLine
 62
7
  6
CONTINUOUS
 10
110.0134798712
 20
200.429293225
 11
110.7899370065
 21
199.4381949564
  0
LINE
  5
39A
100
AcDbEntity
  8
AXIS
100
AcDbLine
 62
7
  6
CONTINUOUS
 10
110.7899370065
 20
199.4381949564
 11
87.6077171756
 21
197.3136831108
  0
LINE
  5
39B
100
AcDbEntity
  8
AXIS
100
AcDbLine
 62
7
  6
CONTINUOUS
 10
86.8312600403
 20
198.3047813794
 11
110.0134798712
 21
200.429293225
  0
CIRCLE
  5
39C
100
AcDbEntity
  8
AXIS
100
AcDbCircle
 62
7
  6
CONTINUOUS
 10
243.8173888255
 20
183.1455102623
 40
4.15
  0
CIRCLE
  5
39D
100
AcDbEntity
  8
AXIS
100
AcDbCircle
 62
7
  6
CONTINUOUS
 10
339.8173888255
 20
183.1455102623
 40
4.15
  0
ARC
  5
39E
100
AcDbEntity
  8
AXIS
100
AcDbCircle
 62
7
  6
CONTINUOUS
 10
273.8173888255
 20
177.8955102623
 40
3.0
100
AcDbArc
 50
180.0
 51
270.0
  0
ARC
  5
39F
100
AcDbEntity
  8
AXIS
100
AcDbCircle
 62
7
  6
CONTINUOUS
 10
273.8173888255
 20
187.3955102623
 40
3.0
100
AcDbArc
 50
90.0
 51
180.0
  0
ARC
  5
3A0
100
AcDbEntity
  8
AXIS
100
AcDbCircle
 62
7
  6
CONTINUOUS
 10
309.8173888255
 20
187.3955102623
 40
3.0
100
AcDbArc
 50
0.0
 51
90.0
  0
ARC
  5
3A1
100
AcDbEntity
  8
AXIS
100
AcDbCircle
 62
7
  6
CONTINUOUS
 10
309.8173888255
 20
177.8955102623
 40
3.0
100
AcDbArc
 50
270.0
 51
360.0
  0
CIRCLE
  5
3A2
100
AcDbEntity
  8
AXIS
100
AcDbCircle
 62
7
  6
CONTINUOUS
 10
243.8173888255
 20
183.1455102623
 40
2.6
  0
CIRCLE
  5
3A3
100
AcDbEntity
  8
AXIS
100
AcDbCircle
 62
7
  6
CONTINUOUS
 10
339.8173888255
 20
183.1455102623
 40
2.6
  0
ARC
  5
3A4
100
AcDbEntity
  8
AXIS
100
AcDbCircle
 62
7
  6
CONTINUOUS
 10
309.8173888255
 20
187.3955102623
 40
2.0
100
AcDbArc
 50
0.0
 51
90.0
  0
ARC
  5
3A5
100
AcDbEntity
  8
AXIS
100
AcDbCircle
 62
7
  6
CONTINUOUS
 10
309.8173888255
 20
177.8955102623
 40
2.0
100
AcDbArc
 50
270.0
 51
360.0
  0
ARC
  5
3A6
100
AcDbEntity
  8
AXIS
100
AcDbCircle
 62
7
  6
CONTINUOUS
 10
273.8173888255
 20
177.8955102623
 40
2.0
100
AcDbArc
 50
180.0
 51
270.0
  0
ARC
  5
3A7
100
AcDbEntity
  8
AXIS
100
AcDbCircle
 62
7
  6
CONTINUOUS
 10
273.8173888255
 20
187.3955102623
 40
2.0
100
AcDbArc
 50
90.0
 51
180.0
  0
ARC
  5
3A8
100
AcDbEntity
  8
AXIS
100
AcDbCircle
 62
7
  6
CONTINUOUS
 10
248.7092049568
 20
80.4945700941
 40
1.4258099725
100
AcDbArc
 50
168.9561987917
 51
169.9828032346
  0
ARC
  5
3A9
100
AcDbEntity
  8
AXIS
100
AcDbCircle
 62
7
  6
CONTINUOUS
 10
316.5911733281
 20
119.686008866
 40
1.4258099712
100
AcDbArc
 50
168.9561987913
 51
169.982803235
  0
ARC
  5
3AA
100
AcDbEntity
  8
AXIS
100
AcDbCircle
 62
7
  6
CONTINUOUS
 10
322.0408529282
 20
119.68609955
 40
1.4251298454
100
AcDbArc
 50
9.9905349257
 51
11.0462354478
  0
ARC
  5
3AB
100
AcDbEntity
  8
AXIS
100
AcDbCircle
 62
7
  6
CONTINUOUS
 10
254.1588845557
 20
80.4946607783
 40
1.4251298454
100
AcDbArc
 50
9.9905349257
 51
11.0462354478
  0
ARC
  5
3AC
100
AcDbEntity
  8
AXIS
100
AcDbCircle
 62
7
  6
CONTINUOUS
 10
248.6894374914
 20
80.4978611066
 40
1.4057714132
100
AcDbArc
 50
169.974750193
 51
175.8953360584
  0
ARC
  5
3AD
100
AcDbEntity
  8
AXIS
100
AcDbCircle
 62
7
  6
CONTINUOUS
 10
316.5714058639
 20
119.6892998783
 40
1.4057714133
100
AcDbArc
 50
169.9747501931
 51
175.8953360584
  0
ARC
  5
3AE
100
AcDbEntity
  8
AXIS
100
AcDbCircle
 62
7
  6
CONTINUOUS
 10
322.0604673621
 20
119.6893587763
 40
1.4052474212
100
AcDbArc
 50
4.0810602401
 51
9.9984046675
  0
ARC
  5
3AF
100
AcDbEntity
  8
AXIS
100
AcDbCircle
 62
7
  6
CONTINUOUS
 10
254.1784989896
 20
80.4979200046
 40
1.4052474212
100
AcDbArc
 50
4.08106024
 51
9.9984046675
  0
ARC
  5
3B0
100
AcDbEntity
  8
AXIS
100
AcDbCircle
 62
7
  6
CONTINUOUS
 10
248.6732882558
 20
80.7446793015
 40
1.3895711289
100
AcDbArc
 50
179.9975210915
 51
185.189612857
  0
ARC
  5
3B1
100
AcDbEntity
  8
AXIS
100
AcDbCircle
 62
7
  6
CONTINUOUS
 10
316.5552566283
 20
119.9361180732
 40
1.3895711289
100
AcDbArc
 50
179.9975210915
 51
185.189612857
  0
ARC
  5
3B2
100
AcDbEntity
  8
AXIS
100
AcDbCircle
 62
7
  6
CONTINUOUS
 10
254.197791076
 20
80.7443171895
 40
1.3859060716
100
AcDbArc
 50
354.8124621196
 51
359.9889394981
  0
ARC
  5
3B3
100
AcDbEntity
  8
AXIS
100
AcDbCircle
 62
7
  6
CONTINUOUS
 10
322.0797594486
 20
119.9357559612
 40
1.3859060716
100
AcDbArc
 50
354.8124621196
 51
359.9889394981
  0
ARC
  5
3B4
100
AcDbEntity
  8
AXIS
100
AcDbCircle
 62
7
  6
CONTINUOUS
 10
98.757753605
 20
98.1480652325
 40
2.1710888938
100
AcDbArc
 50
22.0123774371
 51
29.5687201999
  0
ARC
  5
3B5
100
AcDbEntity
  8
AXIS
100
AcDbCircle
 62
7
  6
CONTINUOUS
 10
98.757753605
 20
188.3585568279
 40
2.1710888938
100
AcDbArc
 50
22.0123774371
 51
29.5687201999
  0
ARC
  5
3B6
100
AcDbEntity
  8
AXIS
100
AcDbCircle
 62
7
  6
CONTINUOUS
 10
98.0772136354
 20
187.8234811534
 40
2.1636169062
100
AcDbArc
 50
224.8223476829
 51
232.3968489885
  0
ARC
  5
3B7
100
AcDbEntity
  8
AXIS
100
AcDbCircle
 62
7
  6
CONTINUOUS
 10
98.0772136354
 20
97.612989558
 40
2.1636169062
100
AcDbArc
 50
224.8223476829
 51
232.3968489885
  0
ARC
  5
3B8
100
AcDbEntity
  8
AXIS
100
AcDbCircle
 62
7
  6
CONTINUOUS
 10
98.76984565
 20
98.1545679126
 40
2.1573628264
100
AcDbArc
 50
29.5769858271
 51
31.3662275503
  0
ARC
  5
3B9
100
AcDbEntity
  8
AXIS
100
AcDbCircle
 62
7
  6
CONTINUOUS
 10
98.7698456498
 20
188.3650595079
 40
2.1573628267
100
AcDbArc
 50
29.5769858272
 51
31.3662275503
  0
ARC
  5
3BA
100
AcDbEntity
  8
AXIS
100
AcDbCircle
 62
7
  6
CONTINUOUS
 10
94.0793963904
 20
125.5284620227
 40
1.7123101737
100
AcDbArc
 50
232.6329655803
 51
244.834357209
  0
SPLINE
  5
3BB
100
AcDbEntity
  8
AXIS
100
AcDbSpline
 62
7
  6
CONTINUOUS
 70
0
 71
3
 72
11
 73
7
 74
0
 42
0.0000001
 43
0.0000001
 44
0.0000000001
 40
0.0
 40
0.0
 40
0.0
 40
0.0
 40
0.2177856284
 40
0.450915097
 40
0.7102990497
 40
1.0
 40
1.0
 40
1.0
 40
1.0
 10
267.6416059096
 20
93.9102399421
 30
0.0
 10
267.6416059059
 20
93.8340643232
 30
0.0
 10
267.6697571418
 20
93.6752905393
 30
0.0
 10
267.7901237528
 20
93.45407079
 30
0.0
 10
267.9804002263
 20
93.2540965227
 30
0.0
 10
268.1396085806
 20
93.1444384933
 30
0.0
 10
268.2273620221
 20
93.093772542
 30
0.0
  0
SPLINE
  5
3BC
100
AcDbEntity
  8
AXIS
100
AcDbSpline
 62
7
  6
CONTINUOUS
 70
0
 71
3
 72
9
 73
5
 74
0
 42
0.0000001
 43
0.0000001
 44
0.0000000001
 40
0.0
 40
0.0
 40
0.0
 40
0.0
 40
0.2740286147
 40
1.0
 40
1.0
 40
1.0
 40
1.0
 10
321.1541454743
 20
118.5477608567
 30
0.0
 10
321.2188458319
 20
118.5104069329
 30
0.0
 10
321.4481481722
 20
118.3637478832
 30
0.0
 10
321.6516967611
 20
118.1689754016
 30
0.0
 10
321.7575924991
 20
118.0017636443
 30
0.0
  0
SPLINE
  5
3BD
100
AcDbEntity
  8
AXIS
100
AcDbSpline
 62
7
  6
CONTINUOUS
 70
0
 71
3
 72
11
 73
7
 74
0
 42
0.0000001
 43
0.0000001
 44
0.0000000001
 40
0.0
 40
0.0
 40
0.0
 40
0.0
 40
0.2897009115
 40
0.549084889
 40
0.7822143659
 40
1.0
 40
1.0
 40
1.0
 40
1.0
 10
303.2291303257
 20
103.9122749134
 30
0.0
 10
303.3168837595
 20
103.9629408507
 30
0.0
 10
303.4760921011
 20
104.072598891
 30
0.0
 10
303.6663685837
 20
104.272573143
 30
0.0
 10
303.7867352121
 20
104.4937929032
 30
0.0
 10
303.8148864345
 20
104.6525666927
 30
0.0
 10
303.8148864382
 20
104.7287423135
 30
0.0
  0
SPLINE
  5
3BE
100
AcDbEntity
  8
AXIS
100
AcDbSpline
 62
7
  6
CONTINUOUS
 70
0
 71
3
 72
9
 73
5
 74
0
 42
0.0000001
 43
0.0000001
 44
0.0000000001
 40
0.0
 40
0.0
 40
0.0
 40
0.0
 40
0.2740286147
 40
1.0
 40
1.0
 40
1.0
 40
1.0
 10
253.2721771018
 20
79.356322085
 30
0.0
 10
253.3368774593
 20
79.3189681612
 30
0.0
 10
253.5661797997
 20
79.1723091115
 30
0.0
 10
253.7697283886
 20
78.9775366299
 30
0.0
 10
253.8756241266
 20
78.8103248726
 30
0.0
  0
SPLINE
  5
3BF
100
AcDbEntity
  8
AXIS
100
AcDbSpline
 62
7
  6
CONTINUOUS
 70
0
 71
3
 72
11
 73
7
 74
0
 42
0.0000001
 43
0.0000001
 44
0.0000000001
 40
0.0
 40
0.0
 40
0.0
 40
0.0
 40
0.2372375478
 40
0.5000005262
 40
0.7627632181
 40
1.0
 40
1.0
 40
1.0
 40
1.0
 10
296.5115517237
 20
107.7905129549
 30
0.0
 10
296.3107744272
 20
107.9064291587
 30
0.0
 10
295.8438671765
 20
108.0755842179
 30
0.0
 10
295.0973359378
 20
108.1566278408
 30
0.0
 10
294.3508058257
 20
108.0755808111
 30
0.0
 10
293.8839004113
 20
107.9064234336
 30
0.0
 10
293.683124599
 20
107.7905061562
 30
0.0
  0
SPLINE
  5
3C0
100
AcDbEntity
  8
AXIS
100
AcDbSpline
 62
7
  6
CONTINUOUS
 70
0
 71
3
 72
9
 73
5
 74
0
 42
0.0000001
 43
0.0000001
 44
0.0000000001
 40
0.0
 40
0.0
 40
0.0
 40
0.0
 40
0.2580099522
 40
1.0
 40
1.0
 40
1.0
 40
1.0
 10
253.9419509362
 20
78.8386022856
 30
0.0
 10
253.9569365803
 20
78.8702951624
 30
0.0
 10
254.0089054572
 20
78.9958855276
 30
0.0
 10
254.0337138339
 20
79.1330468575
 30
0.0
 10
254.0337071254
 20
79.2338650646
 30
0.0
  0
SPLINE
  5
3C1
100
AcDbEntity
  8
AXIS
100
AcDbSpline
 62
7
  6
CONTINUOUS
 70
0
 71
3
 72
17
 73
13
 74
0
 42
0.0000001
 43
0.0000001
 44
0.0000000001
 40
0.0
 40
0.0
 40
0.0
 40
0.0
 40
0.04296613
 40
0.0881628259
 40
0.1368058821
 40
0.1896253673
 40
0.3082299161
 40
0.4423112048
 40
0.5861392018
 40
0.7321530176
 40
0.8724066563
 40
1.0
 40
1.0
 40
1.0
 40
1.0
 10
255.5780205985
 20
80.6190091502
 30
0.0
 10
255.5674742332
 20
80.5028329951
 30
0.0
 10
255.515245355
 20
80.2663577471
 30
0.0
 10
255.3517912855
 20
79.9296889205
 30
0.0
 10
255.1075028712
 20
79.6122047716
 30
0.0
 10
254.6650085501
 20
79.2071509588
 30
0.0
 10
253.9351483729
 20
78.7923119684
 30
0.0
 10
252.9020851308
 20
78.4691742769
 30
0.0
 10
251.7547796116
 20
78.3233224128
 30
0.0
 10
250.5825278007
 20
78.3666169825
 30
0.0
 10
249.4770827876
 20
78.5949604226
 30
0.0
 10
248.7992350119
 20
78.8769750482
 30
0.0
 10
248.4992262006
 20
79.0501812978
 30
0.0
  0
SPLINE
  5
3C2
100
AcDbEntity
  8
AXIS
100
AcDbSpline
 62
7
  6
CONTINUOUS
 70
0
 71
3
 72
15
 73
11
 74
0
 42
0.0000001
 43
0.0000001
 44
0.0000000001
 40
0.0
 40
0.0
 40
0.0
 40
0.0
 40
0.0964598829
 40
0.2075384444
 40
0.3322856481
 40
0.4671234741
 40
0.60694967
 40
0.7460031467
 40
0.8786123323
 40
1.0
 40
1.0
 40
1.0
 40
1.0
 10
248.9917820834
 20
78.8102802428
 30
0.0
 10
249.0715171968
 20
78.9362453447
 30
0.0
 10
249.2942920869
 20
79.1753416429
 30
0.0
 10
249.7324982915
 20
79.4502373199
 30
0.0
 10
250.2710147876
 20
79.6547205409
 30
0.0
 10
250.878510101
 20
79.7770649205
 30
0.0
 10
251.5192217788
 20
79.8105580484
 30
0.0
 10
252.1548845785
 20
79.753041094
 30
0.0
 10
252.747166629
 20
79.6081787895
 30
0.0
 10
253.1097042566
 20
79.4501237038
 30
0.0
 10
253.2721771018
 20
79.356322085
 30
0.0
  0
SPLINE
  5
3C3
100
AcDbEntity
  8
AXIS
100
AcDbSpline
 62
7
  6
CONTINUOUS
 70
0
 71
3
 72
9
 73
5
 74
0
 42
0.0000001
 43
0.0000001
 44
0.0000000001
 40
0.0
 40
0.0
 40
0.0
 40
0.0
 40
0.2579774488
 40
1.0
 40
1.0
 40
1.0
 40
1.0
 10
248.9254669009
 20
78.8385916175
 30
0.0
 10
248.9104881707
 20
78.8702836449
 30
0.0
 10
248.8585353922
 20
78.9958830213
 30
0.0
 10
248.8337138335
 20
79.133040446
 30
0.0
 10
248.8337071246
 20
79.2338650646
 30
0.0
  0
SPLINE
  5
3C4
100
AcDbEntity
  8
AXIS
100
AcDbSpline
 62
7
  6
CONTINUOUS
 70
0
 71
3
 72
9
 73
5
 74
0
 42
0.0000001
 43
0.0000001
 44
0.0000000001
 40
0.0
 40
0.0
 40
0.0
 40
0.0
 40
0.2580099522
 40
1.0
 40
1.0
 40
1.0
 40
1.0
 10
321.8239193087
 20
118.0300410573
 30
0.0
 10
321.8389049528
 20
118.061733934
 30
0.0
 10
321.8908738298
 20
118.1873242993
 30
0.0
 10
321.9156822064
 20
118.3244856292
 30
0.0
 10
321.915675498
 20
118.4253038363
 30
0.0
  0
SPLINE
  5
3C5
100
AcDbEntity
  8
AXIS
100
AcDbSpline
 62
7
  6
CONTINUOUS
 70
0
 71
3
 72
17
 73
13
 74
0
 42
0.0000001
 43
0.0000001
 44
0.0000000001
 40
0.0
 40
0.0
 40
0.0
 40
0.0
 40
0.04296613
 40
0.0881628259
 40
0.1368058821
 40
0.1896253673
 40
0.3082299161
 40
0.4423112048
 40
0.5861392018
 40
0.7321530176
 40
0.8724066563
 40
1.0
 40
1.0
 40
1.0
 40
1.0
 10
323.459988971
 20
119.8104479219
 30
0.0
 10
323.4494426058
 20
119.6942717668
 30
0.0
 10
323.3972137275
 20
119.4577965188
 30
0.0
 10
323.2337596581
 20
119.1211276922
 30
0.0
 10
322.9894712437
 20
118.8036435432
 30
0.0
 10
322.5469769226
 20
118.3985897305
 30
0.0
 10
321.8171167455
 20
117.9837507401
 30
0.0
 10
320.7840535034
 20
117.6606130486
 30
0.0
 10
319.6367479841
 20
117.5147611844
 30
0.0
 10
318.4644961732
 20
117.5580557542
 30
0.0
 10
317.3590511601
 20
117.7863991943
 30
0.0
 10
316.6812033844
 20
118.0684138199
 30
0.0
 10
316.3811945731
 20
118.2416200694
 30
0.0
  0
SPLINE
  5
3C6
100
AcDbEntity
  8
AXIS
100
AcDbSpline
 62
7
  6
CONTINUOUS
 70
0
 71
3
 72
15
 73
11
 74
0
 42
0.0000001
 43
0.0000001
 44
0.0000000001
 40
0.0
 40
0.0
 40
0.0
 40
0.0
 40
0.0964598829
 40
0.2075384444
 40
0.3322856481
 40
0.4671234741
 40
0.60694967
 40
0.7460031467
 40
0.8786123323
 40
1.0
 40
1.0
 40
1.0
 40
1.0
 10
316.873750456
 20
118.0017190144
 30
0.0
 10
316.9534855693
 20
118.1276841163
 30
0.0
 10
317.1762604594
 20
118.3667804146
 30
0.0
 10
317.614466664
 20
118.6416760916
 30
0.0
 10
318.1529831601
 20
118.8461593125
 30
0.0
 10
318.7604784735
 20
118.9685036922
 30
0.0
 10
319.4011901514
 20
119.0019968201
 30
0.0
 10
320.036852951
 20
118.9444798657
 30
0.0
 10
320.6291350015
 20
118.7996175612
 30
0.0
 10
320.9916726291
 20
118.6415624755
 30
0.0
 10
321.1541454743
 20
118.5477608567
 30
0.0
  0
SPLINE
  5
3C7
100
AcDbEntity
  8
AXIS
100
AcDbSpline
 62
7
  6
CONTINUOUS
 70
0
 71
3
 72
9
 73
5
 74
0
 42
0.0000001
 43
0.0000001
 44
0.0000000001
 40
0.0
 40
0.0
 40
0.0
 40
0.0
 40
0.2579774488
 40
1.0
 40
1.0
 40
1.0
 40
1.0
 10
316.8074352734
 20
118.0300303892
 30
0.0
 10
316.7924565432
 20
118.0617224166
 30
0.0
 10
316.7405037647
 20
118.1873217929
 30
0.0
 10
316.715682206
 20
118.3244792177
 30
0.0
 10
316.7156754971
 20
118.4253038363
 30
0.0
  0
SPLINE
  5
3C8
100
AcDbEntity
  8
AXIS
100
AcDbSpline
 62
7
  6
CONTINUOUS
 70
0
 71
3
 72
11
 73
7
 74
0
 42
0.0000001
 43
0.0000001
 44
0.0000000001
 40
0.0
 40
0.0
 40
0.0
 40
0.0
 40
0.2372251801
 40
0.5000005261
 40
0.7627755858
 40
1.0
 40
1.0
 40
1.0
 40
1.0
 10
274.2378367868
 20
89.6237227296
 30
0.0
 10
274.5389870024
 20
89.449857505
 30
0.0
 10
275.2393429573
 20
89.1961111719
 30
0.0
 10
276.3591604655
 20
89.0745632244
 30
0.0
 10
277.4789762842
 20
89.1961162821
 30
0.0
 10
278.1793294845
 20
89.4498660927
 30
0.0
 10
278.4804774739
 20
89.6237329277
 30
0.0
  0
SPLINE
  5
3C9
100
AcDbEntity
  8
AXIS
100
AcDbSpline
 62
7
  6
CONTINUOUS
 70
0
 71
3
 72
11
 73
7
 74
0
 42
0.0000001
 43
0.0000001
 44
0.0000000001
 40
0.0
 40
0.0
 40
0.0
 40
0.0
 40
0.2879024368
 40
0.5475216049
 40
0.7820881528
 40
1.0
 40
1.0
 40
1.0
 40
1.0
 10
248.4992262006
 20
79.0501812978
 30
0.0
 10
248.328583638
 20
79.1486995984
 30
0.0
 10
248.0171422985
 20
79.3608925908
 30
0.0
 10
247.6372965703
 20
79.7436362978
 30
0.0
 10
247.3820664559
 20
80.1651035184
 30
0.0
 10
247.3028959292
 20
80.4704619563
 30
0.0
 10
247.2894132388
 20
80.6189897651
 30
0.0
  0
SPLINE
  5
3CA
100
AcDbEntity
  8
AXIS
100
AcDbSpline
 62
7
  6
CONTINUOUS
 70
0
 71
3
 72
11
 73
7
 74
0
 42
0.0000001
 43
0.0000001
 44
0.0000000001
 40
0.0
 40
0.0
 40
0.0
 40
0.0
 40
0.2879024368
 40
0.5475216049
 40
0.7820881528
 40
1.0
 40
1.0
 40
1.0
 40
1.0
 10
316.3811945731
 20
118.2416200694
 30
0.0
 10
316.2105520105
 20
118.3401383701
 30
0.0
 10
315.8991106711
 20
118.5523313625
 30
0.0
 10
315.5192649428
 20
118.9350750694
 30
0.0
 10
315.2640348285
 20
119.35654229
 30
0.0
 10
315.1848643018
 20
119.661900728
 30
0.0
 10
315.1713816113
 20
119.8104285368
 30
0.0
  0
SPLINE
  5
3CB
100
AcDbEntity
  8
AXIS
100
AcDbSpline
 62
7
  6
CONTINUOUS
 70
0
 71
3
 72
17
 73
13
 74
0
 42
0.0000001
 43
0.0000001
 44
0.0000000001
 40
0.0
 40
0.0
 40
0.0
 40
0.0
 40
0.0433170972
 40
0.0892991556
 40
0.1389223009
 40
0.1927126267
 40
0.3127472324
 40
0.4471743945
 40
0.5903177891
 40
0.7349730219
 40
0.8736754729
 40
1.0
 40
1.0
 40
1.0
 40
1.0
 10
247.3097995195
 20
80.7676973532
 30
0.0
 10
247.3319317304
 20
80.8810996469
 30
0.0
 10
247.4063881015
 20
81.1099655477
 30
0.0
 10
247.5956200943
 20
81.4313150589
 30
0.0
 10
247.8596008167
 20
81.7325453685
 30
0.0
 10
248.3202950587
 20
82.1138778231
 30
0.0
 10
249.0558643096
 20
82.5003401266
 30
0.0
 10
250.0797737168
 20
82.7965522603
 30
0.0
 10
251.2040855233
 20
82.9223607675
 30
0.0
 10
252.3453795979
 20
82.8680809966
 30
0.0
 10
253.4186590597
 20
82.6383895239
 30
0.0
 10
254.0763777118
 20
82.3621300154
 30
0.0
 10
254.3681880495
 20
82.1936570498
 30
0.0
  0
SPLINE
  5
3CC
100
AcDbEntity
  8
AXIS
100
AcDbSpline
 62
7
  6
CONTINUOUS
 70
0
 71
3
 72
17
 73
13
 74
0
 42
0.0000001
 43
0.0000001
 44
0.0000000001
 40
0.0
 40
0.0
 40
0.0
 40
0.0
 40
0.0428592829
 40
0.0874892112
 40
0.1353250776
 40
0.1872925801
 40
0.3045603453
 40
0.4382332859
 40
0.5825791363
 40
0.7297327027
 40
0.871314953
 40
1.0
 40
1.0
 40
1.0
 40
1.0
 10
247.2837171282
 20
80.7447394214
 30
0.0
 10
247.2837334585
 20
80.8628733212
 30
0.0
 10
247.3154174873
 20
81.1050380992
 30
0.0
 10
247.4543455236
 20
81.4546933343
 30
0.0
 10
247.6797710314
 20
81.7861942228
 30
0.0
 10
248.1041431127
 20
82.2119071336
 30
0.0
 10
248.8270920296
 20
82.6519603569
 30
0.0
 10
249.8665959171
 20
82.9990743418
 30
0.0
 10
251.0330801005
 20
83.162945724
 30
0.0
 10
252.2320074245
 20
83.129732001
 30
0.0
 10
253.365518237
 20
82.9029076061
 30
0.0
 10
254.0610095471
 20
82.6159533538
 30
0.0
 10
254.3681880495
 20
82.4386077749
 30
0.0
  0
SPLINE
  5
3CD
100
AcDbEntity
  8
AXIS
100
AcDbSpline
 62
7
  6
CONTINUOUS
 70
0
 71
3
 72
11
 73
7
 74
0
 42
0.0000001
 43
0.0000001
 44
0.0000000001
 40
0.0
 40
0.0
 40
0.0
 40
0.0
 40
0.2177836649
 40
0.4509127634
 40
0.7102976676
 40
1.0
 40
1.0
 40
1.0
 40
1.0
 10
321.915675498
 20
118.4253038363
 30
0.0
 10
321.9156689084
 20
118.5243351336
 30
0.0
 10
321.8790747573
 20
118.7307468072
 30
0.0
 10
321.7225914792
 20
119.0183448252
 30
0.0
 10
321.4752134316
 20
119.2783143304
 30
0.0
 10
321.2682314463
 20
119.4208725598
 30
0.0
 10
321.1541454743
 20
119.4867386364
 30
0.0
  0
SPLINE
  5
3CE
100
AcDbEntity
  8
AXIS
100
AcDbSpline
 62
7
  6
CONTINUOUS
 70
0
 71
3
 72
11
 73
7
 74
0
 42
0.0000001
 43
0.0000001
 44
0.0000000001
 40
0.0
 40
0.0
 40
0.0
 40
0.0
 40
0.2187505048
 40
0.4548749869
 40
0.7146255988
 40
1.0
 40
1.0
 40
1.0
 40
1.0
 10
323.439579234
 20
119.9591559501
 30
0.0
 10
323.4128947427
 20
120.0958528687
 30
0.0
 10
323.3149068023
 20
120.3729101888
 30
0.0
 10
323.0576911935
 20
120.7528872537
 30
0.0
 10
322.6967780691
 20
121.0994886865
 30
0.0
 10
322.4075107678
 20
121.2942493027
 30
0.0
 10
322.250156422
 20
121.3850958214
 30
0.0
  0
SPLINE
  5
3CF
100
AcDbEntity
  8
AXIS
100
AcDbSpline
 62
7
  6
CONTINUOUS
 70
0
 71
3
 72
11
 73
7
 74
0
 42
0.0000001
 43
0.0000001
 44
0.0000000001
 40
0.0
 40
0.0
 40
0.0
 40
0.0
 40
0.2177842323
 40
0.4509131322
 40
0.7102976887
 40
1.0
 40
1.0
 40
1.0
 40
1.0
 10
303.8148864382
 20
104.7287423135
 30
0.0
 10
303.8148864418
 20
104.8049204616
 30
0.0
 10
303.7867332136
 20
104.9636998923
 30
0.0
 10
303.6663585764
 20
105.1849262662
 30
0.0
 10
303.4760701862
 20
105.384905044
 30
0.0
 10
303.316852579
 20
105.4945643932
 30
0.0
 10
303.2290941126
 20
105.5452306212
 30
0.0
  0
SPLINE
  5
3D0
100
AcDbEntity
  8
AXIS
100
AcDbSpline
 62
7
  6
CONTINUOUS
 70
0
 71
3
 72
11
 73
7
 74
0
 42
0.0000001
 43
0.0000001
 44
0.0000000001
 40
0.0
 40
0.0
 40
0.0
 40
0.0
 40
0.2187505048
 40
0.4548749869
 40
0.7146255988
 40
1.0
 40
1.0
 40
1.0
 40
1.0
 10
255.5576108615
 20
80.7677171785
 30
0.0
 10
255.5309263702
 20
80.904414097
 30
0.0
 10
255.4329384298
 20
81.1814714171
 30
0.0
 10
255.175722821
 20
81.561448482
 30
0.0
 10
254.8148096966
 20
81.9080499149
 30
0.0
 10
254.5255423953
 20
82.102810531
 30
0.0
 10
254.3681880495
 20
82.1936570498
 30
0.0
  0
SPLINE
  5
3D1
100
AcDbEntity
  8
AXIS
100
AcDbSpline
 62
7
  6
CONTINUOUS
 70
0
 71
3
 72
17
 73
13
 74
0
 42
0.0000001
 43
0.0000001
 44
0.0000000001
 40
0.0
 40
0.0
 40
0.0
 40
0.0
 40
0.0428604269
 40
0.0874877562
 40
0.1353229972
 40
0.1872861687
 40
0.3045516874
 40
0.4382226946
 40
0.5825681499
 40
0.7297280578
 40
0.8713111312
 40
1.0
 40
1.0
 40
1.0
 40
1.0
 10
316.7156754971
 20
118.4253038363
 30
0.0
 10
316.7156705721
 20
118.4993202158
 30
0.0
 10
316.7355130557
 20
118.651040477
 30
0.0
 10
316.8224771672
 20
118.8701373492
 30
0.0
 10
316.9637065417
 20
119.0778237664
 30
0.0
 10
317.2295105504
 20
119.3446018087
 30
0.0
 10
317.6824596176
 20
119.6203007423
 30
0.0
 10
318.3337067553
 20
119.8378284889
 30
0.0
 10
319.0645517935
 20
119.9405296656
 30
0.0
 10
319.8157249195
 20
119.9197223833
 30
0.0
 10
320.5259320827
 20
119.7776526717
 30
0.0
 10
320.961683287
 20
119.5978542182
 30
0.0
 10
321.1541454743
 20
119.4867386364
 30
0.0
  0
SPLINE
  5
3D2
100
AcDbEntity
  8
AXIS
100
AcDbSpline
 62
7
  6
CONTINUOUS
 70
0
 71
3
 72
17
 73
13
 74
0
 42
0.0000001
 43
0.0000001
 44
0.0000000001
 40
0.0
 40
0.0
 40
0.0
 40
0.0
 40
0.0433170972
 40
0.0892991556
 40
0.1389223009
 40
0.1927126267
 40
0.3127472324
 40
0.4471743945
 40
0.5903177891
 40
0.7349730219
 40
0.8736754729
 40
1.0
 40
1.0
 40
1.0
 40
1.0
 10
315.191767892
 20
119.9591361248
 30
0.0
 10
315.2139001029
 20
120.0725384185
 30
0.0
 10
315.288356474
 20
120.3014043194
 30
0.0
 10
315.4775884668
 20
120.6227538306
 30
0.0
 10
315.7415691892
 20
120.9239841402
 30
0.0
 10
316.2022634312
 20
121.3053165948
 30
0.0
 10
316.9378326821
 20
121.6917788982
 30
0.0
 10
317.9617420893
 20
121.987991032
 30
0.0
 10
319.0860538958
 20
122.1137995391
 30
0.0
 10
320.2273479704
 20
122.0595197683
 30
0.0
 10
321.3006274322
 20
121.8298282956
 30
0.0
 10
321.9583460843
 20
121.553568787
 30
0.0
 10
322.250156422
 20
121.3850958214
 30
0.0
  0
SPLINE
  5
3D3
100
AcDbEntity
  8
AXIS
100
AcDbSpline
 62
7
  6
CONTINUOUS
 70
0
 71
3
 72
17
 73
13
 74
0
 42
0.0000001
 43
0.0000001
 44
0.0000000001
 40
0.0
 40
0.0
 40
0.0
 40
0.0
 40
0.0428592829
 40
0.0874892112
 40
0.1353250776
 40
0.1872925801
 40
0.3045603453
 40
0.4382332859
 40
0.5825791363
 40
0.7297327027
 40
0.871314953
 40
1.0
 40
1.0
 40
1.0
 40
1.0
 10
315.1656855007
 20
119.9361781931
 30
0.0
 10
315.165701831
 20
120.0543120929
 30
0.0
 10
315.1973858598
 20
120.2964768709
 30
0.0
 10
315.3363138962
 20
120.6461321059
 30
0.0
 10
315.5617394039
 20
120.9776329945
 30
0.0
 10
315.9861114852
 20
121.4033459053
 30
0.0
 10
316.7090604022
 20
121.8433991286
 30
0.0
 10
317.7485642896
 20
122.1905131135
 30
0.0
 10
318.9150484731
 20
122.3543844956
 30
0.0
 10
320.113975797
 20
122.3211707727
 30
0.0
 10
321.2474866096
 20
122.0943463778
 30
0.0
 10
321.9429779197
 20
121.8073921255
 30
0.0
 10
322.250156422
 20
121.6300465466
 30
0.0
  0
SPLINE
  5
3D4
100
AcDbEntity
  8
AXIS
100
AcDbSpline
 62
7
  6
CONTINUOUS
 70
0
 71
3
 72
11
 73
7
 74
0
 42
0.0000001
 43
0.0000001
 44
0.0000000001
 40
0.0
 40
0.0
 40
0.0
 40
0.0
 40
0.2177836649
 40
0.4509127634
 40
0.7102976676
 40
1.0
 40
1.0
 40
1.0
 40
1.0
 10
254.0337071254
 20
79.2338650646
 30
0.0
 10
254.0337005359
 20
79.3328963619
 30
0.0
 10
253.9971063847
 20
79.5393080356
 30
0.0
 10
253.8406231066
 20
79.8269060535
 30
0.0
 10
253.5932450591
 20
80.0868755587
 30
0.0
 10
253.3862630737
 20
80.2294337882
 30
0.0
 10
253.2721771018
 20
80.2952998647
 30
0.0
  0
SPLINE
  5
3D5
100
AcDbEntity
  8
AXIS
100
AcDbSpline
 62
7
  6
CONTINUOUS
 70
0
 71
3
 72
15
 73
11
 74
0
 42
0.0000001
 43
0.0000001
 44
0.0000000001
 40
0.0
 40
0.0
 40
0.0
 40
0.0
 40
0.144885556
 40
0.2745307073
 40
0.391109266
 40
0.4999970377
 40
0.6088853506
 40
0.7254653434
 40
0.8551124415
 40
1.0
 40
1.0
 40
1.0
 40
1.0
 10
303.9362528738
 20
104.3205439795
 30
0.0
 10
304.0679181082
 20
104.3965631773
 30
0.0
 10
304.3067625577
 20
104.5610284376
 30
0.0
 10
304.5921199424
 20
104.8609650278
 30
0.0
 10
304.7726829948
 20
105.1930435149
 30
0.0
 10
304.8352514911
 20
105.5452682459
 30
0.0
 10
304.7726666543
 20
105.8974914729
 30
0.0
 10
304.5920888856
 20
106.2295663658
 30
0.0
 10
304.3067185018
 20
106.5294981371
 30
0.0
 10
304.0678667183
 20
106.693959913
 30
0.0
 10
303.9361979498
 20
106.7699771922
 30
0.0
  0
SPLINE
  5
3D6
100
AcDbEntity
  8
AXIS
100
AcDbSpline
 62
7
  6
CONTINUOUS
 70
0
 71
3
 72
17
 73
13
 74
0
 42
0.0000001
 43
0.0000001
 44
0.0000000001
 40
0.0
 40
0.0
 40
0.0
 40
0.0
 40
0.0428604269
 40
0.0874877562
 40
0.1353229972
 40
0.1872861687
 40
0.3045516874
 40
0.4382226946
 40
0.5825681499
 40
0.7297280578
 40
0.8713111312
 40
1.0
 40
1.0
 40
1.0
 40
1.0
 10
248.8337071246
 20
79.2338650646
 30
0.0
 10
248.8337021996
 20
79.3078814441
 30
0.0
 10
248.8535446831
 20
79.4596017053
 30
0.0
 10
248.9405087946
 20
79.6786985776
 30
0.0
 10
249.0817381691
 20
79.8863849947
 30
0.0
 10
249.3475421779
 20
80.153163037
 30
0.0
 10
249.8004912451
 20
80.4288619707
 30
0.0
 10
250.4517383828
 20
80.6463897173
 30
0.0
 10
251.182583421
 20
80.7490908939
 30
0.0
 10
251.9337565469
 20
80.7282836116
 30
0.0
 10
252.6439637101
 20
80.5862139
 30
0.0
 10
253.0797149145
 20
80.4064154466
 30
0.0
 10
253.2721771018
 20
80.2952998647
 30
0.0
  0
SPLINE
  5
3D7
100
AcDbEntity
  8
AXIS
100
AcDbSpline
 62
7
  6
CONTINUOUS
 70
0
 71
3
 72
11
 73
7
 74
0
 42
0.0000001
 43
0.0000001
 44
0.0000000001
 40
0.0
 40
0.0
 40
0.0
 40
0.0
 40
0.2372465045
 40
0.4999989083
 40
0.7627519059
 40
1.0
 40
1.0
 40
1.0
 40
1.0
 10
309.0627316813
 20
105.4432015387
 30
0.0
 10
309.2133202289
 20
105.3562611671
 30
0.0
 10
309.4983066389
 20
105.1164529035
 30
0.0
 10
309.8308005635
 20
104.6619046197
 30
0.0
 10
310.0582067672
 20
104.1466822507
 30
0.0
 10
310.123396269
 20
103.7799716399
 30
0.0
 10
310.123396269
 20
103.6060867813
 30
0.0
  0
SPLINE
  5
3D8
100
AcDbEntity
  8
AXIS
100
AcDbSpline
 62
7
  6
CONTINUOUS
 70
0
 71
3
 72
11
 73
7
 74
0
 42
0.0000001
 43
0.0000001
 44
0.0000000001
 40
0.0
 40
0.0
 40
0.0
 40
0.0
 40
0.2177508332
 40
0.4508940054
 40
0.7104650964
 40
1.0
 40
1.0
 40
1.0
 40
1.0
 10
293.463465708
 20
114.0904834824
 30
0.0
 10
293.5129364695
 20
114.1190452672
 30
0.0
 10
293.6265669383
 20
114.1604266859
 30
0.0
 10
293.8154674075
 20
114.1651633057
 30
0.0
 10
294.0166840945
 20
114.1164583942
 30
0.0
 10
294.1476478127
 20
114.0542344176
 30
0.0
 10
294.2134274532
 20
114.0162573837
 30
0.0
  0
SPLINE
  5
3D9
100
AcDbEntity
  8
AXIS
100
AcDbSpline
 62
7
  6
CONTINUOUS
 70
0
 71
3
 72
11
 73
7
 74
0
 42
0.0000001
 43
0.0000001
 44
0.0000000001
 40
0.0
 40
0.0
 40
0.0
 40
0.0
 40
0.2372251801
 40
0.5000005261
 40
0.7627755858
 40
1.0
 40
1.0
 40
1.0
 40
1.0
 10
297.2186555609
 20
110.6482643602
 30
0.0
 10
296.9175053453
 20
110.8221295848
 30
0.0
 10
296.2171493904
 20
111.0758759179
 30
0.0
 10
295.0973318822
 20
111.1974238654
 30
0.0
 10
293.9775160636
 20
111.0758708077
 30
0.0
 10
293.2771628633
 20
110.822120997
 30
0.0
 10
292.9760148738
 20
110.6482541621
 30
0.0
  0
SPLINE
  5
3DA
100
AcDbEntity
  8
AXIS
100
AcDbSpline
 62
7
  6
CONTINUOUS
 70
0
 71
3
 72
11
 73
7
 74
0
 42
0.0000001
 43
0.0000001
 44
0.0000000001
 40
0.0
 40
0.0
 40
0.0
 40
0.0
 40
0.2897018299
 40
0.5490862149
 40
0.782215308
 40
1.0
 40
1.0
 40
1.0
 40
1.0
 10
268.2273864593
 20
94.7267214511
 30
0.0
 10
268.1396296345
 20
94.6760553271
 30
0.0
 10
267.9804150489
 20
94.5663963962
 30
0.0
 10
267.7901305247
 20
94.3664191004
 30
0.0
 10
267.6697584801
 20
94.1451948697
 30
0.0
 10
267.6416059132
 20
93.9864172697
 30
0.0
 10
267.6416059096
 20
93.9102399421
 30
0.0
  0
SPLINE
  5
3DB
100
AcDbEntity
  8
AXIS
100
AcDbSpline
 62
7
  6
CONTINUOUS
 70
0
 71
3
 72
15
 73
11
 74
0
 42
0.0000001
 43
0.0000001
 44
0.0000000001
 40
0.0
 40
0.0
 40
0.0
 40
0.0
 40
0.1448871126
 40
0.2745338599
 40
0.3911136734
 40
0.5000020168
 40
0.6088899893
 40
0.725468823
 40
0.8551142277
 40
1.0
 40
1.0
 40
1.0
 40
1.0
 10
267.5202767341
 20
95.9514646227
 30
0.0
 10
267.388609781
 20
95.8754471257
 30
0.0
 10
267.1497614698
 20
95.7109851172
 30
0.0
 10
266.8643960866
 20
95.4110537252
 30
0.0
 10
266.6838226261
 20
95.0789799035
 30
0.0
 10
266.6212410886
 20
94.7267584643
 30
0.0
 10
266.6838114305
 20
94.3745359896
 30
0.0
 10
266.8643748175
 20
94.0424597197
 30
0.0
 10
267.1497312983
 20
93.7425249901
 30
0.0
 10
267.3885746275
 20
93.5780606136
 30
0.0
 10
267.5202391827
 20
93.5020417762
 30
0.0
  0
SPLINE
  5
3DC
100
AcDbEntity
  8
AXIS
100
AcDbSpline
 62
7
  6
CONTINUOUS
 70
0
 71
3
 72
11
 73
7
 74
0
 42
0.0000001
 43
0.0000001
 44
0.0000000001
 40
0.0
 40
0.0
 40
0.0
 40
0.0
 40
0.2897951355
 40
0.5490599114
 40
0.7822266924
 40
1.0
 40
1.0
 40
1.0
 40
1.0
 10
254.3681880495
 20
82.4386077749
 30
0.0
 10
254.5503755398
 20
82.3334241579
 30
0.0
 10
254.8808549158
 20
82.1059226383
 30
0.0
 10
255.2756260245
 20
81.6907646597
 30
0.0
 10
255.5254600527
 20
81.2317137026
 30
0.0
 10
255.5837189751
 20
80.9021376921
 30
0.0
 10
255.5836971218
 20
80.7440496512
 30
0.0
  0
SPLINE
  5
3DD
100
AcDbEntity
  8
AXIS
100
AcDbSpline
 62
7
  6
CONTINUOUS
 70
0
 71
3
 72
11
 73
7
 74
0
 42
0.0000001
 43
0.0000001
 44
0.0000000001
 40
0.0
 40
0.0
 40
0.0
 40
0.0
 40
0.2897951355
 40
0.5490599114
 40
0.7822266924
 40
1.0
 40
1.0
 40
1.0
 40
1.0
 10
322.250156422
 20
121.6300465466
 30
0.0
 10
322.4323439123
 20
121.5248629295
 30
0.0
 10
322.7628232883
 20
121.29736141
 30
0.0
 10
323.157594397
 20
120.8822034313
 30
0.0
 10
323.4074284252
 20
120.4231524743
 30
0.0
 10
323.4656873477
 20
120.0935764638
 30
0.0
 10
323.4656654944
 20
119.9354884229
 30
0.0
  0
SPLINE
  5
3DE
100
AcDbEntity
  8
AXIS
100
AcDbSpline
 62
7
  6
CONTINUOUS
 70
0
 71
3
 72
11
 73
7
 74
0
 42
0.0000001
 43
0.0000001
 44
0.0000000001
 40
0.0
 40
0.0
 40
0.0
 40
0.0
 40
0.2372375478
 40
0.5000005262
 40
0.7627632181
 40
1.0
 40
1.0
 40
1.0
 40
1.0
 10
296.5115517237
 20
109.4235177892
 30
0.0
 10
296.3107744272
 20
109.5394339929
 30
0.0
 10
295.8438671765
 20
109.7085890521
 30
0.0
 10
295.0973359378
 20
109.7896326751
 30
0.0
 10
294.3508058257
 20
109.7085856454
 30
0.0
 10
293.8839004113
 20
109.5394282678
 30
0.0
 10
293.683124599
 20
109.4235109905
 30
0.0
  0
SPLINE
  5
3DF
100
AcDbEntity
  8
AXIS
100
AcDbSpline
 62
7
  6
CONTINUOUS
 70
0
 71
3
 72
9
 73
5
 74
0
 42
0.0000001
 43
0.0000001
 44
0.0000000001
 40
0.0
 40
0.0
 40
0.0
 40
0.0
 40
0.5082320383
 40
1.0
 40
1.0
 40
1.0
 40
1.0
 10
98.4223699557
 20
185.6475250388
 30
0.0
 10
98.1256306333
 20
185.620330654
 30
0.0
 10
97.5267498532
 20
185.6673346069
 30
0.0
 10
96.9854328753
 20
185.9334107383
 30
0.0
 10
96.7569989716
 20
186.1093424898
 30
0.0
  0
SPLINE
  5
3E0
100
AcDbEntity
  8
AXIS
100
AcDbSpline
 62
7
  6
CONTINUOUS
 70
0
 71
3
 72
9
 73
5
 74
0
 42
0.0000001
 43
0.0000001
 44
0.0000000001
 40
0.0
 40
0.0
 40
0.0
 40
0.0
 40
0.4937524061
 40
1.0
 40
1.0
 40
1.0
 40
1.0
 10
93.3512593677
 20
123.978680552
 30
0.0
 10
93.4984632697
 20
123.9094738746
 30
0.0
 10
93.8177405612
 20
123.8110518804
 30
0.0
 10
94.1511039196
 20
123.8001916442
 30
0.0
 10
94.317185194
 20
123.815412
 30
0.0
  0
SPLINE
  5
3E1
100
AcDbEntity
  8
AXIS
100
AcDbSpline
 62
7
  6
CONTINUOUS
 70
0
 71
3
 72
9
 73
5
 74
0
 42
0.0000001
 43
0.0000001
 44
0.0000000001
 40
0.0
 40
0.0
 40
0.0
 40
0.0
 40
0.5082320383
 40
1.0
 40
1.0
 40
1.0
 40
1.0
 10
98.4223699557
 20
95.4370334433
 30
0.0
 10
98.1256306333
 20
95.4098390586
 30
0.0
 10
97.5267498532
 20
95.4568430114
 30
0.0
 10
96.9854328753
 20
95.7229191428
 30
0.0
 10
96.7569989716
 20
95.8988508943
 30
0.0
  0
SPLINE
  5
3E2
100
AcDbEntity
  8
AXIS
100
AcDbSpline
 62
7
  6
CONTINUOUS
 70
0
 71
3
 72
11
 73
7
 74
0
 42
0.0000001
 43
0.0000001
 44
0.0000000001
 40
0.0
 40
0.0
 40
0.0
 40
0.0
 40
0.2440099566
 40
0.4907881647
 40
0.7425111378
 40
1.0
 40
1.0
 40
1.0
 40
1.0
 10
105.5854774053
 20
160.9373535236
 30
0.0
 10
105.4966600971
 20
161.0506984465
 30
0.0
 10
105.2868870534
 20
161.2560499953
 30
0.0
 10
104.9012132689
 20
161.4736714276
 30
0.0
 10
104.4661091554
 20
161.5905548287
 30
0.0
 10
104.1624374491
 20
161.5972047226
 30
0.0
 10
104.0111186339
 20
161.5833372579
 30
0.0
  0
SPLINE
  5
3E3
100
AcDbEntity
  8
AXIS
100
AcDbSpline
 62
7
  6
CONTINUOUS
 70
0
 71
3
 72
11
 73
7
 74
0
 42
0.0000001
 43
0.0000001
 44
0.0000000001
 40
0.0
 40
0.0
 40
0.0
 40
0.0
 40
0.2505932541
 40
0.5049125057
 40
0.7564018126
 40
1.0
 40
1.0
 40
1.0
 40
1.0
 10
103.4934805437
 20
124.6563646056
 30
0.0
 10
103.7486824965
 20
124.6797523388
 30
0.0
 10
104.2578948538
 20
124.8271663685
 30
0.0
 10
104.8910904587
 20
125.2981147885
 30
0.0
 10
105.3194410206
 20
125.9530403252
 30
0.0
 10
105.4253321963
 20
126.4636746822
 30
0.0
 10
105.4253321963
 20
126.712792501
 30
0.0
  0
SPLINE
  5
3E4
100
AcDbEntity
  8
AXIS
100
AcDbSpline
 62
7
  6
CONTINUOUS
 70
0
 71
3
 72
15
 73
11
 74
0
 42
0.0000001
 43
0.0000001
 44
0.0000000001
 40
0.0
 40
0.0
 40
0.0
 40
0.0
 40
0.1184391149
 40
0.2393222603
 40
0.3630447645
 40
0.4893471262
 40
0.6174098148
 40
0.746048756
 40
0.8739634689
 40
1.0
 40
1.0
 40
1.0
 40
1.0
 10
100.7705764314
 20
98.9618042901
 30
0.0
 10
100.8426757015
 20
98.7834665054
 30
0.0
 10
100.9408016637
 20
98.402022154
 30
0.0
 10
100.9389407513
 20
97.806593349
 30
0.0
 10
100.7912020435
 20
97.2166838584
 30
0.0
 10
100.5068823353
 20
96.6664611804
 30
0.0
 10
100.1028996501
 20
96.1868232074
 30
0.0
 10
99.6022986091
 20
95.8047921894
 30
0.0
 10
99.0338862991
 20
95.5420586458
 30
0.0
 10
98.6262157231
 20
95.4557146891
 30
0.0
 10
98.4223699557
 20
95.4370334433
 30
0.0
  0
SPLINE
  5
3E5
100
AcDbEntity
  8
AXIS
100
AcDbSpline
 62
7
  6
CONTINUOUS
 70
0
 71
3
 72
11
 73
7
 74
0
 42
0.0000001
 43
0.0000001
 44
0.0000000001
 40
0.0
 40
0.0
 40
0.0
 40
0.0
 40
0.2440033237
 40
0.4907846908
 40
0.7425092781
 40
1.0
 40
1.0
 40
1.0
 40
1.0
 10
100.7666889571
 20
99.1037435958
 30
0.0
 10
100.6512314166
 20
99.2510895085
 30
0.0
 10
100.3785074369
 20
99.5180227658
 30
0.0
 10
99.8771474623
 20
99.8009504666
 30
0.0
 10
99.3115029447
 20
99.9528948143
 30
0.0
 10
98.9167278133
 20
99.9615419096
 30
0.0
 10
98.7200118576
 20
99.9435140684
 30
0.0
  0
SPLINE
  5
3E6
100
AcDbEntity
  8
AXIS
100
AcDbSpline
 62
7
  6
CONTINUOUS
 70
0
 71
3
 72
15
 73
11
 74
0
 42
0.0000001
 43
0.0000001
 44
0.0000000001
 40
0.0
 40
0.0
 40
0.0
 40
0.0
 40
0.1178758322
 40
0.2375037234
 40
0.3600653467
 40
0.4858385923
 40
0.6141754031
 40
0.7437377553
 40
0.8728561061
 40
1.0
 40
1.0
 40
1.0
 40
1.0
 10
96.6733347581
 20
95.896882913
 30
0.0
 10
96.5407305116
 20
96.0661113035
 30
0.0
 10
96.3242689127
 20
96.4502809657
 30
0.0
 10
96.1828266616
 20
97.1008003528
 30
0.0
 10
96.231046338
 20
97.7789916682
 30
0.0
 10
96.4635959241
 20
98.4338821383
 30
0.0
 10
96.8617152048
 20
99.0184022217
 30
0.0
 10
97.3960793439
 20
99.4907449263
 30
0.0
 10
98.0273753401
 20
99.8170516483
 30
0.0
 10
98.4890822534
 20
99.9223507509
 30
0.0
 10
98.7200118576
 20
99.9435140684
 30
0.0
  0
SPLINE
  5
3E7
100
AcDbEntity
  8
AXIS
100
AcDbSpline
 62
7
  6
CONTINUOUS
 70
0
 71
3
 72
9
 73
5
 74
0
 42
0.0000001
 43
0.0000001
 44
0.0000000001
 40
0.0
 40
0.0
 40
0.0
 40
0.0
 40
0.2531854344
 40
1.0
 40
1.0
 40
1.0
 40
1.0
 10
105.4253321963
 20
160.5417268493
 30
0.0
 10
105.4253321963
 20
160.6011208989
 30
0.0
 10
105.4139063758
 20
160.8355419841
 30
0.0
 10
105.3554020335
 20
161.0678800999
 30
0.0
 10
105.2863675943
 20
161.228898325
 30
0.0
  0
SPLINE
  5
3E8
100
AcDbEntity
  8
AXIS
100
AcDbSpline
 62
7
  6
CONTINUOUS
 70
0
 71
3
 72
17
 73
13
 74
0
 42
0.0000001
 43
0.0000001
 44
0.0000000001
 40
0.0
 40
0.0
 40
0.0
 40
0.0
 40
0.1178088873
 40
0.177438684
 40
0.2376861723
 40
0.3601778416
 40
0.4858786501
 40
0.5498917298
 40
0.6143993524
 40
0.7438860092
 40
0.8729260121
 40
1.0
 40
1.0
 40
1.0
 40
1.0
 10
95.9319166047
 20
94.3299141279
 30
0.0
 10
95.7202912433
 20
94.60005067
 30
0.0
 10
95.4617355706
 20
95.0593200978
 30
0.0
 10
95.2636497779
 20
95.7245458186
 30
0.0
 10
95.1615831423
 20
96.4254670686
 30
0.0
 10
95.2259436286
 20
97.3341057149
 30
0.0
 10
95.5342259503
 20
98.2014384388
 30
0.0
 10
95.9115019903
 20
98.8406063163
 30
0.0
 10
96.3729013392
 20
99.4360197421
 30
0.0
 10
97.0858056704
 20
100.0663498704
 30
0.0
 10
98.0932389993
 20
100.5869554343
 30
0.0
 10
98.8302234509
 20
100.7550800452
 30
0.0
 10
99.198827091
 20
100.788860365
 30
0.0
  0
SPLINE
  5
3E9
100
AcDbEntity
  8
AXIS
100
AcDbSpline
 62
7
  6
CONTINUOUS
 70
0
 71
3
 72
15
 73
11
 74
0
 42
0.0000001
 43
0.0000001
 44
0.0000000001
 40
0.0
 40
0.0
 40
0.0
 40
0.0
 40
0.1184391149
 40
0.2393222603
 40
0.3630447645
 40
0.4893471262
 40
0.6174098148
 40
0.746048756
 40
0.8739634689
 40
1.0
 40
1.0
 40
1.0
 40
1.0
 10
100.7705764314
 20
189.1722958855
 30
0.0
 10
100.8426757015
 20
188.9939581008
 30
0.0
 10
100.9408016637
 20
188.6125137494
 30
0.0
 10
100.9389407513
 20
188.0170849444
 30
0.0
 10
100.7912020435
 20
187.4271754538
 30
0.0
 10
100.5068823353
 20
186.8769527759
 30
0.0
 10
100.1028996501
 20
186.3973148029
 30
0.0
 10
99.6022986091
 20
186.0152837848
 30
0.0
 10
99.0338862991
 20
185.7525502413
 30
0.0
 10
98.6262157231
 20
185.6662062846
 30
0.0
 10
98.4223699557
 20
185.6475250388
 30
0.0
  0
SPLINE
  5
3EA
100
AcDbEntity
  8
AXIS
100
AcDbSpline
 62
7
  6
CONTINUOUS
 70
0
 71
3
 72
11
 73
7
 74
0
 42
0.0000001
 43
0.0000001
 44
0.0000000001
 40
0.0
 40
0.0
 40
0.0
 40
0.0
 40
0.2440033237
 40
0.4907846908
 40
0.7425092781
 40
1.0
 40
1.0
 40
1.0
 40
1.0
 10
100.7666889571
 20
189.3142351912
 30
0.0
 10
100.6512314166
 20
189.461581104
 30
0.0
 10
100.3785074369
 20
189.7285143613
 30
0.0
 10
99.8771474623
 20
190.011442062
 30
0.0
 10
99.3115029447
 20
190.1633864097
 30
0.0
 10
98.9167278133
 20
190.1720335051
 30
0.0
 10
98.7200118576
 20
190.1540056639
 30
0.0
  0
SPLINE
  5
3EB
100
AcDbEntity
  8
AXIS
100
AcDbSpline
 62
7
  6
CONTINUOUS
 70
0
 71
3
 72
15
 73
11
 74
0
 42
0.0000001
 43
0.0000001
 44
0.0000000001
 40
0.0
 40
0.0
 40
0.0
 40
0.0
 40
0.1178758322
 40
0.2375037234
 40
0.3600653467
 40
0.4858385923
 40
0.6141754031
 40
0.7437377553
 40
0.8728561061
 40
1.0
 40
1.0
 40
1.0
 40
1.0
 10
96.6733347581
 20
186.1073745084
 30
0.0
 10
96.5407305116
 20
186.276602899
 30
0.0
 10
96.3242689127
 20
186.6607725611
 30
0.0
 10
96.1828266616
 20
187.3112919482
 30
0.0
 10
96.231046338
 20
187.9894832636
 30
0.0
 10
96.4635959241
 20
188.6443737337
 30
0.0
 10
96.8617152048
 20
189.2288938172
 30
0.0
 10
97.3960793439
 20
189.7012365217
 30
0.0
 10
98.0273753401
 20
190.0275432437
 30
0.0
 10
98.4890822534
 20
190.1328423463
 30
0.0
 10
98.7200118576
 20
190.1540056639
 30
0.0
  0
SPLINE
  5
3EC
100
AcDbEntity
  8
AXIS
100
AcDbSpline
 62
7
  6
CONTINUOUS
 70
0
 71
3
 72
17
 73
13
 74
0
 42
0.0000001
 43
0.0000001
 44
0.0000000001
 40
0.0
 40
0.0
 40
0.0
 40
0.0
 40
0.1178088873
 40
0.177438684
 40
0.2376861723
 40
0.3601778416
 40
0.4858786501
 40
0.5498917298
 40
0.6143993524
 40
0.7438860092
 40
0.8729260121
 40
1.0
 40
1.0
 40
1.0
 40
1.0
 10
95.9319166047
 20
184.5404057234
 30
0.0
 10
95.7202912433
 20
184.8105422655
 30
0.0
 10
95.4617355706
 20
185.2698116932
 30
0.0
 10
95.2636497779
 20
185.935037414
 30
0.0
 10
95.1615831423
 20
186.6359586641
 30
0.0
 10
95.2259436286
 20
187.5445973103
 30
0.0
 10
95.5342259503
 20
188.4119300342
 30
0.0
 10
95.9115019903
 20
189.0510979117
 30
0.0
 10
96.3729013392
 20
189.6465113376
 30
0.0
 10
97.0858056704
 20
190.2768414659
 30
0.0
 10
98.0932389993
 20
190.7974470298
 30
0.0
 10
98.8302234509
 20
190.9655716406
 30
0.0
 10
99.198827091
 20
190.9993519604
 30
0.0
  0
SPLINE
  5
3ED
100
AcDbEntity
  8
AXIS
100
AcDbSpline
 62
7
  6
CONTINUOUS
 70
0
 71
3
 72
9
 73
5
 74
0
 42
0.0000001
 43
0.0000001
 44
0.0000000001
 40
0.0
 40
0.0
 40
0.0
 40
0.0
 40
0.5046480239
 40
1.0
 40
1.0
 40
1.0
 40
1.0
 10
92.9029716316
 20
124.8570224087
 30
0.0
 10
92.9029716316
 20
124.6667866571
 30
0.0
 10
92.9626480222
 20
124.2868787293
 30
0.0
 10
93.1452898594
 20
123.9476446164
 30
0.0
 10
93.2604645128
 20
123.8006635552
 30
0.0
  0
SPLINE
  5
3EE
100
AcDbEntity
  8
AXIS
100
AcDbSpline
 62
7
  6
CONTINUOUS
 70
0
 71
3
 72
11
 73
7
 74
0
 42
0.0000001
 43
0.0000001
 44
0.0000000001
 40
0.0
 40
0.0
 40
0.0
 40
0.0
 40
0.2505932541
 40
0.5049125057
 40
0.7564018126
 40
1.0
 40
1.0
 40
1.0
 40
1.0
 10
94.8348232842
 20
160.7423846524
 30
0.0
 10
94.5796213315
 20
160.7189969192
 30
0.0
 10
94.0704089741
 20
160.5715828894
 30
0.0
 10
93.4372133692
 20
160.1006344694
 30
0.0
 10
93.0088628074
 20
159.4457089328
 30
0.0
 10
92.9029716316
 20
158.9350745757
 30
0.0
 10
92.9029716316
 20
158.685956757
 30
0.0
  0
SPLINE
  5
3EF
100
AcDbEntity
  8
AXIS
100
AcDbSpline
 62
7
  6
CONTINUOUS
 70
0
 71
3
 72
11
 73
7
 74
0
 42
0.0000001
 43
0.0000001
 44
0.0000000001
 40
0.0
 40
0.0
 40
0.0
 40
0.0
 40
0.2575236867
 40
0.5091992822
 40
0.7560010158
 40
1.0
 40
1.0
 40
1.0
 40
1.0
 10
99.198827091
 20
100.788860365
 30
0.0
 10
99.5128689415
 20
100.817640423
 30
0.0
 10
100.1430087737
 20
100.803895982
 30
0.0
 10
101.0458591077
 20
100.561205113
 30
0.0
 10
101.8461470347
 20
100.109703693
 30
0.0
 10
102.281471639
 20
99.6835705059
 30
0.0
 10
102.4657375774
 20
99.4483578495
 30
0.0
  0
SPLINE
  5
3F0
100
AcDbEntity
  8
AXIS
100
AcDbSpline
 62
7
  6
CONTINUOUS
 70
0
 71
3
 72
11
 73
7
 74
0
 42
0.0000001
 43
0.0000001
 44
0.0000000001
 40
0.0
 40
0.0
 40
0.0
 40
0.0
 40
0.2575236867
 40
0.5091992822
 40
0.7560010158
 40
1.0
 40
1.0
 40
1.0
 40
1.0
 10
99.198827091
 20
190.9993519604
 30
0.0
 10
99.5128689415
 20
191.0281320184
 30
0.0
 10
100.1430087737
 20
191.0143875775
 30
0.0
 10
101.0458591077
 20
190.7716967085
 30
0.0
 10
101.8461470347
 20
190.3201952885
 30
0.0
 10
102.281471639
 20
189.8940621013
 30
0.0
 10
102.4657375774
 20
189.6588494449
 30
0.0
  0
SPLINE
  5
3F1
100
AcDbEntity
  8
AXIS
100
AcDbSpline
 62
7
  6
CONTINUOUS
 70
0
 71
3
 72
17
 73
13
 74
0
 42
0.0000001
 43
0.0000001
 44
0.0000000001
 40
0.0
 40
0.0
 40
0.0
 40
0.0
 40
0.1178088873
 40
0.177438684
 40
0.2376861723
 40
0.3601778416
 40
0.4858786501
 40
0.5498917298
 40
0.6143993524
 40
0.7438860092
 40
0.8729260121
 40
1.0
 40
1.0
 40
1.0
 40
1.0
 10
102.4657375774
 20
189.6588494449
 30
0.0
 10
102.6773629387
 20
189.3887129028
 30
0.0
 10
102.9359186115
 20
188.9294434751
 30
0.0
 10
103.1340044042
 20
188.2642177543
 30
0.0
 10
103.2360710398
 20
187.5632965042
 30
0.0
 10
103.1717105535
 20
186.654657858
 30
0.0
 10
102.8634282318
 20
185.7873251341
 30
0.0
 10
102.4861521918
 20
185.1481572566
 30
0.0
 10
102.0247528428
 20
184.5527438307
 30
0.0
 10
101.3118485117
 20
183.9224137024
 30
0.0
 10
100.3044151827
 20
183.4018081385
 30
0.0
 10
99.5674307312
 20
183.2336835277
 30
0.0
 10
99.198827091
 20
183.1999032079
 30
0.0
  0
SPLINE
  5
3F2
100
AcDbEntity
  8
AXIS
100
AcDbSpline
 62
7
  6
CONTINUOUS
 70
0
 71
3
 72
11
 73
7
 74
0
 42
0.0000001
 43
0.0000001
 44
0.0000000001
 40
0.0
 40
0.0
 40
0.0
 40
0.0
 40
0.2440099566
 40
0.4907881647
 40
0.7425111378
 40
1.0
 40
1.0
 40
1.0
 40
1.0
 10
93.2604645128
 20
123.8006635552
 30
0.0
 10
93.349281821
 20
123.6873186324
 30
0.0
 10
93.5590548648
 20
123.4819670836
 30
0.0
 10
93.9447286493
 20
123.2643456513
 30
0.0
 10
94.3798327627
 20
123.1474622502
 30
0.0
 10
94.6835044691
 20
123.1408123562
 30
0.0
 10
94.8348232842
 20
123.1546798209
 30
0.0
  0
SPLINE
  5
3F3
100
AcDbEntity
  8
AXIS
100
AcDbSpline
 62
7
  6
CONTINUOUS
 70
0
 71
3
 72
17
 73
13
 74
0
 42
0.0000001
 43
0.0000001
 44
0.0000000001
 40
0.0
 40
0.0
 40
0.0
 40
0.0
 40
0.1178088873
 40
0.177438684
 40
0.2376861723
 40
0.3601778416
 40
0.4858786501
 40
0.5498917298
 40
0.6143993524
 40
0.7438860092
 40
0.8729260121
 40
1.0
 40
1.0
 40
1.0
 40
1.0
 10
102.4657375774
 20
99.4483578495
 30
0.0
 10
102.6773629387
 20
99.1782213074
 30
0.0
 10
102.9359186115
 20
98.7189518796
 30
0.0
 10
103.1340044042
 20
98.0537261588
 30
0.0
 10
103.2360710398
 20
97.3528049088
 30
0.0
 10
103.1717105535
 20
96.4441662625
 30
0.0
 10
102.8634282318
 20
95.5768335386
 30
0.0
 10
102.4861521918
 20
94.9376656612
 30
0.0
 10
102.0247528428
 20
94.3422522353
 30
0.0
 10
101.3118485117
 20
93.711922107
 30
0.0
 10
100.3044151827
 20
93.1913165431
 30
0.0
 10
99.5674307312
 20
93.0231919323
 30
0.0
 10
99.198827091
 20
92.9894116124
 30
0.0
  0
SPLINE
  5
3F4
100
AcDbEntity
  8
AXIS
100
AcDbSpline
 62
7
  6
CONTINUOUS
 70
0
 71
3
 72
14
 73
10
 74
0
 42
0.0000001
 43
0.0000001
 44
0.0000000001
 40
0.0
 40
0.0
 40
0.0
 40
0.0
 40
0.3499706427
 40
0.5046108897
 40
0.6413188948
 40
0.7581913614
 40
0.8547854172
 40
0.9331653408
 40
1.0
 40
1.0
 40
1.0
 40
1.0
 10
109.3410482671
 20
121.3109254408
 30
0.0
 10
109.4904793317
 20
121.3246199045
 30
0.0
 10
109.7054380496
 20
121.3559780833
 30
0.0
 10
109.9714109113
 20
121.4268165649
 30
0.0
 10
110.135941488
 20
121.4874822597
 30
0.0
 10
110.2699046168
 20
121.5563878222
 30
0.0
 10
110.3705573862
 20
121.632128305
 30
0.0
 10
110.4360522597
 20
121.7147383841
 30
0.0
 10
110.4527577792
 20
121.7773906945
 30
0.0
 10
110.452780159
 20
121.806047449
 30
0.0
  0
SPLINE
  5
3F5
100
AcDbEntity
  8
AXIS
100
AcDbSpline
 62
7
  6
CONTINUOUS
 70
0
 71
3
 72
13
 73
9
 74
0
 42
0.0000001
 43
0.0000001
 44
0.0000000001
 40
0.0
 40
0.0
 40
0.0
 40
0.0
 40
0.0728786782
 40
0.1652652127
 40
0.2767443264
 40
0.4049712425
 40
0.6956083983
 40
1.0
 40
1.0
 40
1.0
 40
1.0
 10
87.2194886079
 20
119.8147447199
 30
0.0
 10
87.248243604
 20
119.7780407918
 30
0.0
 10
87.3304832369
 20
119.7086013852
 30
0.0
 10
87.4876830541
 20
119.6259566709
 30
0.0
 10
87.688553288
 20
119.5548214515
 30
0.0
 10
88.0189960767
 20
119.4759552352
 30
0.0
 10
88.4808699699
 20
119.4263153522
 30
0.0
 10
88.8626742901
 20
119.4342049019
 30
0.0
 10
89.056605915
 20
119.4519775759
 30
0.0
  0
SPLINE
  5
3F6
100
AcDbEntity
  8
AXIS
100
AcDbSpline
 62
7
  6
CONTINUOUS
 70
0
 71
3
 72
11
 73
7
 74
0
 42
0.0000001
 43
0.0000001
 44
0.0000000001
 40
0.0
 40
0.0
 40
0.0
 40
0.0
 40
0.2505812962
 40
0.5049124104
 40
0.756413525
 40
1.0
 40
1.0
 40
1.0
 40
1.0
 10
95.0936423293
 20
161.3517111836
 30
0.0
 10
94.7108578111
 20
161.3166312711
 30
0.0
 10
93.947033045
 20
161.095529322
 30
0.0
 10
92.997241534
 20
160.3890735631
 30
0.0
 10
92.3546816516
 20
159.406684437
 30
0.0
 10
92.1958648504
 20
158.6407279612
 30
0.0
 10
92.1958648504
 20
158.2670693405
 30
0.0
  0
SPLINE
  5
3F7
100
AcDbEntity
  8
AXIS
100
AcDbSpline
 62
7
  6
CONTINUOUS
 70
0
 71
3
 72
11
 73
7
 74
0
 42
0.0000001
 43
0.0000001
 44
0.0000000001
 40
0.0
 40
0.0
 40
0.0
 40
0.0
 40
0.2494319869
 40
0.494521035
 40
0.7428789628
 40
1.0
 40
1.0
 40
1.0
 40
1.0
 10
107.1677151579
 20
159.6391499075
 30
0.0
 10
107.1677151579
 20
159.9996046089
 30
0.0
 10
107.0223394728
 20
160.7246590334
 30
0.0
 10
106.3673704622
 20
161.6175119927
 30
0.0
 10
105.389406104
 20
162.1568391287
 30
0.0
 10
104.6399532809
 20
162.2265735068
 30
0.0
 10
104.269937679
 20
162.1926637892
 30
0.0
  0
SPLINE
  5
3F8
100
AcDbEntity
  8
AXIS
100
AcDbSpline
 62
7
  6
CONTINUOUS
 70
0
 71
3
 72
11
 73
7
 74
0
 42
0.0000001
 43
0.0000001
 44
0.0000000001
 40
0.0
 40
0.0
 40
0.0
 40
0.0
 40
0.2505812962
 40
0.5049124104
 40
0.756413525
 40
1.0
 40
1.0
 40
1.0
 40
1.0
 10
104.269937679
 20
122.7255737162
 30
0.0
 10
104.6527221973
 20
122.7606536287
 30
0.0
 10
105.4165469633
 20
122.9817555777
 30
0.0
 10
106.3663384744
 20
123.6882113367
 30
0.0
 10
107.0088983567
 20
124.6706004628
 30
0.0
 10
107.1677151579
 20
125.4365569385
 30
0.0
 10
107.1677151579
 20
125.8102155592
 30
0.0
  0
SPLINE
  5
3F9
100
AcDbEntity
  8
AXIS
100
AcDbSpline
 62
7
  6
CONTINUOUS
 70
0
 71
3
 72
11
 73
7
 74
0
 42
0.0000001
 43
0.0000001
 44
0.0000000001
 40
0.0
 40
0.0
 40
0.0
 40
0.0
 40
0.2572658155
 40
0.5090384419
 40
0.7560392057
 40
1.0
 40
1.0
 40
1.0
 40
1.0
 10
99.1211813775
 20
183.2990130348
 30
0.0
 10
98.8250424681
 20
183.2718736743
 30
0.0
 10
98.23107978
 20
183.2810206594
 30
0.0
 10
97.3751653301
 20
183.4918528486
 30
0.0
 10
96.605350807
 20
183.8896718507
 30
0.0
 10
96.1741836313
 20
184.2690423409
 30
0.0
 10
95.9871378115
 20
184.4800826774
 30
0.0
  0
SPLINE
  5
3FA
100
AcDbEntity
  8
AXIS
100
AcDbSpline
 62
7
  6
CONTINUOUS
 70
0
 71
3
 72
11
 73
7
 74
0
 42
0.0000001
 43
0.0000001
 44
0.0000000001
 40
0.0
 40
0.0
 40
0.0
 40
0.0
 40
0.2574907219
 40
0.5092153092
 40
0.7559966763
 40
1.0
 40
1.0
 40
1.0
 40
1.0
 10
98.7200118576
 20
185.2676040358
 30
0.0
 10
98.5232959018
 20
185.2495761946
 30
0.0
 10
98.1285207705
 20
185.2582232899
 30
0.0
 10
97.5628762528
 20
185.4101676376
 30
0.0
 10
97.0615162783
 20
185.6930953384
 30
0.0
 10
96.7887922985
 20
185.9600285956
 30
0.0
 10
96.6733347581
 20
186.1073745084
 30
0.0
  0
SPLINE
  5
3FB
100
AcDbEntity
  8
AXIS
100
AcDbSpline
 62
7
  6
CONTINUOUS
 70
0
 71
3
 72
16
 73
12
 74
0
 42
0.0000001
 43
0.0000001
 44
0.0000000001
 40
0.0
 40
0.0
 40
0.0
 40
0.0
 40
0.1268813491
 40
0.2557085356
 40
0.3850578168
 40
0.4495427078
 40
0.5135785702
 40
0.6394728627
 40
0.762277133
 40
0.8821230365
 40
1.0
 40
1.0
 40
1.0
 40
1.0
 10
99.1211813775
 20
183.2990130348
 30
0.0
 10
99.4801306773
 20
183.331908592
 30
0.0
 10
100.197854968
 20
183.4930108312
 30
0.0
 10
101.18346916
 20
183.9901633276
 30
0.0
 10
101.8872959233
 20
184.5926238082
 30
0.0
 10
102.3492907274
 20
185.1632047784
 30
0.0
 10
102.7328274617
 20
185.7776225086
 30
0.0
 10
103.0595383589
 20
186.6149592333
 30
0.0
 10
103.1762688954
 20
187.6680622049
 30
0.0
 10
103.0061354885
 20
188.6913581064
 30
0.0
 10
102.7048613798
 20
189.3084790803
 30
0.0
 10
102.5153295888
 20
189.5845547161
 30
0.0
  0
SPLINE
  5
3FC
100
AcDbEntity
  8
AXIS
100
AcDbSpline
 62
7
  6
CONTINUOUS
 70
0
 71
3
 72
15
 73
11
 74
0
 42
0.0000001
 43
0.0000001
 44
0.0000000001
 40
0.0
 40
0.0
 40
0.0
 40
0.0
 40
0.1271438939
 40
0.2562622447
 40
0.3858245969
 40
0.5141614077
 40
0.6399346533
 40
0.7624962766
 40
0.8821241678
 40
1.0
 40
1.0
 40
1.0
 40
1.0
 10
98.7200118576
 20
185.2676040358
 30
0.0
 10
98.9509414618
 20
185.2887673533
 30
0.0
 10
99.4126483751
 20
185.3940664559
 30
0.0
 10
100.0439443712
 20
185.7203731779
 30
0.0
 10
100.5783085103
 20
186.1927158825
 30
0.0
 10
100.976427791
 20
186.7772359659
 30
0.0
 10
101.2089773772
 20
187.432126436
 30
0.0
 10
101.2571970536
 20
188.1103177514
 30
0.0
 10
101.1157548025
 20
188.7608371385
 30
0.0
 10
100.8992932036
 20
189.1450068006
 30
0.0
 10
100.7666889571
 20
189.3142351912
 30
0.0
  0
SPLINE
  5
3FD
100
AcDbEntity
  8
AXIS
100
AcDbSpline
 62
7
  6
CONTINUOUS
 70
0
 71
3
 72
11
 73
7
 74
0
 42
0.0000001
 43
0.0000001
 44
0.0000000001
 40
0.0
 40
0.0
 40
0.0
 40
0.0
 40
0.2572658155
 40
0.5090384419
 40
0.7560392057
 40
1.0
 40
1.0
 40
1.0
 40
1.0
 10
99.1211813775
 20
93.0885214393
 30
0.0
 10
98.8250424681
 20
93.0613820788
 30
0.0
 10
98.23107978
 20
93.0705290639
 30
0.0
 10
97.3751653301
 20
93.2813612532
 30
0.0
 10
96.605350807
 20
93.6791802552
 30
0.0
 10
96.1741836313
 20
94.0585507455
 30
0.0
 10
95.9871378115
 20
94.2695910819
 30
0.0
  0
SPLINE
  5
3FE
100
AcDbEntity
  8
AXIS
100
AcDbSpline
 62
7
  6
CONTINUOUS
 70
0
 71
3
 72
11
 73
7
 74
0
 42
0.0000001
 43
0.0000001
 44
0.0000000001
 40
0.0
 40
0.0
 40
0.0
 40
0.0
 40
0.2574907219
 40
0.5092153092
 40
0.7559966763
 40
1.0
 40
1.0
 40
1.0
 40
1.0
 10
98.7200118576
 20
95.0571124403
 30
0.0
 10
98.5232959018
 20
95.0390845991
 30
0.0
 10
98.1285207705
 20
95.0477316945
 30
0.0
 10
97.5628762528
 20
95.1996760422
 30
0.0
 10
97.0615162783
 20
95.4826037429
 30
0.0
 10
96.7887922985
 20
95.7495370002
 30
0.0
 10
96.6733347581
 20
95.896882913
 30
0.0
  0
SPLINE
  5
3FF
100
AcDbEntity
  8
AXIS
100
AcDbSpline
 62
7
  6
CONTINUOUS
 70
0
 71
3
 72
16
 73
12
 74
0
 42
0.0000001
 43
0.0000001
 44
0.0000000001
 40
0.0
 40
0.0
 40
0.0
 40
0.0
 40
0.1268813491
 40
0.2557085356
 40
0.3850578168
 40
0.4495427078
 40
0.5135785702
 40
0.6394728627
 40
0.762277133
 40
0.8821230365
 40
1.0
 40
1.0
 40
1.0
 40
1.0
 10
99.1211813775
 20
93.0885214393
 30
0.0
 10
99.4801306773
 20
93.1214169965
 30
0.0
 10
100.197854968
 20
93.2825192358
 30
0.0
 10
101.18346916
 20
93.7796717322
 30
0.0
 10
101.8872959233
 20
94.3821322127
 30
0.0
 10
102.3492907274
 20
94.9527131829
 30
0.0
 10
102.7328274617
 20
95.5671309131
 30
0.0
 10
103.0595383589
 20
96.4044676378
 30
0.0
 10
103.1762688954
 20
97.4575706095
 30
0.0
 10
103.0061354885
 20
98.480866511
 30
0.0
 10
102.7048613798
 20
99.0979874848
 30
0.0
 10
102.5153295888
 20
99.3740631206
 30
0.0
  0
SPLINE
  5
400
100
AcDbEntity
  8
AXIS
100
AcDbSpline
 62
7
  6
CONTINUOUS
 70
0
 71
3
 72
15
 73
11
 74
0
 42
0.0000001
 43
0.0000001
 44
0.0000000001
 40
0.0
 40
0.0
 40
0.0
 40
0.0
 40
0.1271438939
 40
0.2562622447
 40
0.3858245969
 40
0.5141614077
 40
0.6399346533
 40
0.7624962766
 40
0.8821241678
 40
1.0
 40
1.0
 40
1.0
 40
1.0
 10
98.7200118576
 20
95.0571124403
 30
0.0
 10
98.9509414618
 20
95.0782757579
 30
0.0
 10
99.4126483751
 20
95.1835748605
 30
0.0
 10
100.0439443712
 20
95.5098815825
 30
0.0
 10
100.5783085103
 20
95.982224287
 30
0.0
 10
100.976427791
 20
96.5667443705
 30
0.0
 10
101.2089773772
 20
97.2216348406
 30
0.0
 10
101.2571970536
 20
97.899826156
 30
0.0
 10
101.1157548025
 20
98.5503455431
 30
0.0
 10
100.8992932036
 20
98.9345152052
 30
0.0
 10
100.7666889571
 20
99.1037435958
 30
0.0
  0
SPLINE
  5
401
100
AcDbEntity
  8
AXIS
100
AcDbSpline
 62
7
  6
CONTINUOUS
 70
0
 71
3
 72
11
 73
7
 74
0
 42
0.0000001
 43
0.0000001
 44
0.0000000001
 40
0.0
 40
0.0
 40
0.0
 40
0.0
 40
0.2505932541
 40
0.5049125057
 40
0.7564018126
 40
1.0
 40
1.0
 40
1.0
 40
1.0
 10
104.0111186339
 20
123.9956324265
 30
0.0
 10
104.2663205867
 20
124.0190201597
 30
0.0
 10
104.775532944
 20
124.1664341894
 30
0.0
 10
105.4087285489
 20
124.6373826094
 30
0.0
 10
105.8370791108
 20
125.2923081461
 30
0.0
 10
105.9429702865
 20
125.8029425031
 30
0.0
 10
105.9429702865
 20
126.0520603219
 30
0.0
  0
SPLINE
  5
402
100
AcDbEntity
  8
AXIS
100
AcDbSpline
 62
7
  6
CONTINUOUS
 70
0
 71
3
 72
9
 73
5
 74
0
 42
0.0000001
 43
0.0000001
 44
0.0000000001
 40
0.0
 40
0.0
 40
0.0
 40
0.0
 40
0.5046480239
 40
1.0
 40
1.0
 40
1.0
 40
1.0
 10
105.9429702865
 20
159.8809946702
 30
0.0
 10
105.9429702865
 20
160.0712304218
 30
0.0
 10
105.883293896
 20
160.4511383495
 30
0.0
 10
105.7006520587
 20
160.7903724625
 30
0.0
 10
105.5854774053
 20
160.9373535236
 30
0.0
  0
SPLINE
  5
403
100
AcDbEntity
  8
AXIS
100
AcDbSpline
 62
7
  6
CONTINUOUS
 70
0
 71
3
 72
11
 73
7
 74
0
 42
0.0000001
 43
0.0000001
 44
0.0000000001
 40
0.0
 40
0.0
 40
0.0
 40
0.0
 40
0.2494319869
 40
0.494521035
 40
0.7428789628
 40
1.0
 40
1.0
 40
1.0
 40
1.0
 10
92.1958648504
 20
124.4381349922
 30
0.0
 10
92.1958648504
 20
124.0776802909
 30
0.0
 10
92.3412405355
 20
123.3526258664
 30
0.0
 10
92.9962095462
 20
122.4597729071
 30
0.0
 10
93.9741739043
 20
121.9204457711
 30
0.0
 10
94.7236267274
 20
121.8507113929
 30
0.0
 10
95.0936423293
 20
121.8846211106
 30
0.0
  0
SPLINE
  5
404
100
AcDbEntity
  8
AXIS
100
AcDbSpline
 62
7
  6
CONTINUOUS
 70
0
 71
3
 72
11
 73
7
 74
0
 42
0.0000001
 43
0.0000001
 44
0.0000000001
 40
0.0
 40
0.0
 40
0.0
 40
0.0
 40
0.2575236867
 40
0.5091992822
 40
0.7560010158
 40
1.0
 40
1.0
 40
1.0
 40
1.0
 10
99.198827091
 20
92.9894116124
 30
0.0
 10
98.8847852405
 20
92.9606315544
 30
0.0
 10
98.2546454084
 20
92.9743759954
 30
0.0
 10
97.3517950743
 20
93.2170668644
 30
0.0
 10
96.5515071474
 20
93.6685682844
 30
0.0
 10
96.116182543
 20
94.0947014715
 30
0.0
 10
95.9319166047
 20
94.3299141279
 30
0.0
  0
SPLINE
  5
405
100
AcDbEntity
  8
AXIS
100
AcDbSpline
 62
7
  6
CONTINUOUS
 70
0
 71
3
 72
11
 73
7
 74
0
 42
0.0000001
 43
0.0000001
 44
0.0000000001
 40
0.0
 40
0.0
 40
0.0
 40
0.0
 40
0.2575236867
 40
0.5091992822
 40
0.7560010158
 40
1.0
 40
1.0
 40
1.0
 40
1.0
 10
99.198827091
 20
183.1999032079
 30
0.0
 10
98.8847852405
 20
183.1711231499
 30
0.0
 10
98.2546454084
 20
183.1848675908
 30
0.0
 10
97.3517950743
 20
183.4275584598
 30
0.0
 10
96.5515071474
 20
183.8790598798
 30
0.0
 10
96.116182543
 20
184.305193067
 30
0.0
 10
95.9319166047
 20
184.5404057234
 30
0.0
  0
ENDSEC
  0
SECTION
  2
OBJECTS
  0
DICTIONARY
  5
C
100
AcDbDictionary
280
0
281
1
  3
ACAD_GROUP
350
D
  3
ACAD_MLINESTYLE
350
17
  3
ACAD_LAYOUT
350
1A
  3
ACAD_PLOTSETTINGS
350
19
  3
ACAD_PLOTSTYLENAME
350
E
  3
ACAD_TABLESTYLE
350
       406
  0
DICTIONARY
  5
D
102
{ACAD_REACTORS
330
C
102
}
100
AcDbDictionary
280
0
281
1
  0
ACDBDICTIONARYWDFLT
  5
E
102
{ACAD_REACTORS
330
C
102
}
100
AcDbDictionary
281
1
  3
Normal
350
F
100
AcDbDictionaryWithDefault
340
F
  0
DICTIONARY
  5
17
102
{ACAD_REACTORS
330
C
102
}
100
AcDbDictionary
280
0
281
1
  3
Standard
350
18
  0
DICTIONARY
  5
406
330
C
100
AcDbDictionary
281
1
  3
Standard
350
       409
  3
Standard1
350
       40A
  0
DICTIONARY
  5
19
102
{ACAD_REACTORS
330
C
102
}
100
AcDbDictionary
281
1
  0
DICTIONARY
  5
1A
102
{ACAD_REACTORS
330
C
102
}
100
AcDbDictionary
281
1
  3
Model
350
407
  3
Layout1
350
408
  0
ACDBPLACEHOLDER
  5
F
102
{ACAD_REACTORS
330
E
102
}
  0
MLINESTYLE
  5
18
102
{ACAD_REACTORS
330
17
102
}
100
AcDbMlineStyle
  2
STANDARD
 70
0
  3

 62
256
 51
90.0
 52
90.0
 71
2
 49
0.5
 62
256
  6
BYLAYER
 49
-0.5
 62
256
  6
BYLAYER
  0
LAYOUT
  5
407
102
{ACAD_REACTORS
330
1A
102
}
100
AcDbPlotSettings
  1

  2
none_device
  4
ISO_A3_(420.00_x_297.00_MM)
  6

 40
0.0
 41
0.0
 42
0.0
 43
0.0
 44
420.0
 45
297.0
 46
0.0
 47
0.0
 48
0.0
 49
0.0
140
0.0
141
0.0
142
1.0
143
1.0
 70
1024
 72
1
 73
0
 74
0
  7

 75
0
147
1.0
148
0.0
149
0.0
100
AcDbLayout
  1
Model
 70
0
 71
0
 10
0.0
 20
0.0
 11
420.0
 21
297.0
 12
0.0
 22
0.0
 32
0.0
 14
0.0
 24
0.0
 34
0.0
 15
0.0
 25
0.0
 35
0.0
146
0.0
 13
0.0
 23
0.0
 33
0.0
 16
1.0
 26
0.0
 36
0.0
 17
0.0
 27
1.0
 37
0.0
 76
0
330
20B
345
0
346
0
  0
LAYOUT
  5
408
102
{ACAD_REACTORS
330
1A
102
}
100
AcDbPlotSettings
  1

  2
none_device
  4
ISO_A3_(420.00_x_297.00_MM)
  6

 40
0.0
 41
0.0
 42
0.0
 43
0.0
 44
420.0
 45
297.0
 46
0.0
 47
0.0
 48
0.0
 49
0.0
140
0.0
141
0.0
142
1.0
143
1.0
 70
0
 72
1
 73
0
 74
0
  7

 75
0
147
1.0
148
0.0
149
0.0
100
AcDbLayout
  1
Layout1
 70
0
 71
1
 10
0.0
 20
0.0
 11
420.0
 21
297.0
 12
0.0
 22
0.0
 32
0.0
 14
0.0
 24
0.0
 34
0.0
 15
0.0
 25
0.0
 35
0.0
146
0.0
 13
0.0
 23
0.0
 33
0.0
 16
1.0
 26
0.0
 36
0.0
 17
0.0
 27
1.0
 37
0.0
 76
0
330
20C
345
0
346
0
  0
TABLESTYLE
  5
409
102
{ACAD_REACTORS
330
406
330
310
330
311
102
}
330
406
100
AcDbTableStyle
  3
Standard
 70
0
 71
0
 40
0.06
 41
0.06
280
1
281
1
  7
Standard
140
0.18
170
1
 62
0
 63
7
283
0
  7
Standard
140
0.18
170
1
 62
0
 63
7
283
0
  7
Standard
140
0.18
170
1
 62
0
 63
7
283
0
  0
TABLESTYLE
  5
40A
102
{ACAD_REACTORS
330
406
102
}
330
406
100
AcDbTableStyle
  3
Standard1
 70
1
 71
0
 40
0.06
 41
0.06
280
1
281
1
  7
Standard
140
0.18
170
1
 62
0
 63
7
283
0
  7
Standard
140
0.18
170
1
 62
0
 63
7
283
0
  7
Standard
140
0.18
170
1
 62
0
 63
7
283
0
  0
ENDSEC
  0
EOF
