  0
SECTION
  2
HEADER
  9
$ACADVER
  1
AC1015
  9
$ACADMAINTVER
 70
    14
  9
$DWGCODEPAGE
  3
ANSI_1252
  9
$INSBASE
 10
0.0
 20
0.0
 30
0.0
  9
$EXTMIN
 10
33.75
 20
15.23464897184111
 30
0.0
  9
$EXTMAX
 10
1490.857295858755
 20
588.1317878558345
 30
0.0
  9
$LIMMIN
 10
0.0
 20
0.0
  9
$LIMMAX
 10
550.0
 20
600.0
  9
$ORTHOMODE
 70
     0
  9
$REGENMODE
 70
     1
  9
$FILLMODE
 70
     1
  9
$QTEXTMODE
 70
     0
  9
$MIRRTEXT
 70
     1
  9
$LTSCALE
 40
6.0
  9
$ATTMODE
 70
     1
  9
$TEXTSIZE
 40
5.0
  9
$TRACEWID
 40
1.0
  9
$TEXTSTYLE
  7
NORM
  9
$CLAYER
  8
BEMASSUNG
  9
$CELTYPE
  6
BYLAYER
  9
$CECOLOR
 62
   256
  9
$CELTSCALE
 40
1.0
  9
$DISPSILH
 70
     0
  9
$DIMSCALE
 40
1.5
  9
$DIMASZ
 40
3.5
  9
$DIMEXO
 40
0.5
  9
$DIMDLI
 40
8.0
  9
$DIMRND
 40
0.0
  9
$DIMDLE
 40
0.0
  9
$DIMEXE
 40
1.3
  9
$DIMTP
 40
0.0
  9
$DIMTM
 40
0.0
  9
$DIMTXT
 40
3.5
  9
$DIMCEN
 40
1.5
  9
$DIMTSZ
 40
0.0
  9
$DIMTOL
 70
     0
  9
$DIMLIM
 70
     0
  9
$DIMTIH
 70
     0
  9
$DIMTOH
 70
     0
  9
$DIMSE1
 70
     0
  9
$DIMSE2
 70
     0
  9
$DIMTAD
 70
     1
  9
$DIMZIN
 70
     8
  9
$DIMBLK
  1

  9
$DIMASO
 70
     1
  9
$DIMSHO
 70
     1
  9
$DIMPOST
  1

  9
$DIMAPOST
  1

  9
$DIMALT
 70
     0
  9
$DIMALTD
 70
     2
  9
$DIMALTF
 40
25.39999999999999
  9
$DIMLFAC
 40
1.0
  9
$DIMTOFL
 70
     1
  9
$DIMTVP
 40
0.0
  9
$DIMTIX
 70
     1
  9
$DIMSOXD
 70
     0
  9
$DIMSAH
 70
     0
  9
$DIMBLK1
  1

  9
$DIMBLK2
  1

  9
$DIMSTYLE
  2
PROSPEKT
  9
$DIMCLRD
 70
     2
  9
$DIMCLRE
 70
     2
  9
$DIMCLRT
 70
     3
  9
$DIMTFAC
 40
0.5
  9
$DIMGAP
 40
1.0
  9
$DIMJUST
 70
     0
  9
$DIMSD1
 70
     0
  9
$DIMSD2
 70
     0
  9
$DIMTOLJ
 70
     1
  9
$DIMTZIN
 70
     8
  9
$DIMALTZ
 70
     8
  9
$DIMALTTZ
 70
     8
  9
$DIMUPT
 70
     0
  9
$DIMDEC
 70
     2
  9
$DIMTDEC
 70
     2
  9
$DIMALTU
 70
     2
  9
$DIMALTTD
 70
     2
  9
$DIMTXSTY
  7
NORM
  9
$DIMAUNIT
 70
     0
  9
$DIMADEC
 70
     0
  9
$DIMALTRND
 40
0.0
  9
$DIMAZIN
 70
     0
  9
$DIMDSEP
 70
    46
  9
$DIMATFIT
 70
     3
  9
$DIMFRAC
 70
     0
  9
$DIMLDRBLK
  1

  9
$DIMLUNIT
 70
     2
  9
$DIMLWD
 70
    -2
  9
$DIMLWE
 70
    -2
  9
$DIMTMOVE
 70
     2
  9
$LUNITS
 70
     2
  9
$LUPREC
 70
     2
  9
$SKETCHINC
 40
1.0
  9
$FILLETRAD
 40
16.0
  9
$AUNITS
 70
     0
  9
$AUPREC
 70
     0
  9
$MENU
  1
CADIM
  9
$ELEVATION
 40
0.0
  9
$PELEVATION
 40
0.0
  9
$THICKNESS
 40
0.0
  9
$LIMCHECK
 70
     0
  9
$CHAMFERA
 40
0.0
  9
$CHAMFERB
 40
0.0
  9
$CHAMFERC
 40
0.0
  9
$CHAMFERD
 40
0.0
  9
$SKPOLY
 70
     0
  9
$TDCREATE
 40
2451039.448067361
  9
$TDUCREATE
 40
2451039.364734028
  9
$TDUPDATE
 40
2452402.462379120
  9
$TDUUPDATE
 40
2452402.379045787
  9
$TDINDWG
 40
0.3059229167
  9
$TDUSRTIMER
 40
0.3059229167
  9
$USRTIMER
 70
     1
  9
$ANGBASE
 50
0.0
  9
$ANGDIR
 70
     0
  9
$PDMODE
 70
     0
  9
$PDSIZE
 40
-1.0
  9
$PLINEWID
 40
0.0
  9
$SPLFRAME
 70
     0
  9
$SPLINETYPE
 70
     6
  9
$SPLINESEGS
 70
     8
  9
$HANDSEED
  5
24A
  9
$SURFTAB1
 70
    16
  9
$SURFTAB2
 70
    16
  9
$SURFTYPE
 70
     6
  9
$SURFU
 70
    12
  9
$SURFV
 70
    12
  9
$UCSBASE
  2

  9
$UCSNAME
  2

  9
$UCSORG
 10
0.0
 20
0.0
 30
0.0
  9
$UCSXDIR
 10
1.0
 20
0.0
 30
0.0
  9
$UCSYDIR
 10
0.0
 20
1.0
 30
0.0
  9
$UCSORTHOREF
  2

  9
$UCSORTHOVIEW
 70
     0
  9
$UCSORGTOP
 10
0.0
 20
0.0
 30
0.0
  9
$UCSORGBOTTOM
 10
0.0
 20
0.0
 30
0.0
  9
$UCSORGLEFT
 10
0.0
 20
0.0
 30
0.0
  9
$UCSORGRIGHT
 10
0.0
 20
0.0
 30
0.0
  9
$UCSORGFRONT
 10
0.0
 20
0.0
 30
0.0
  9
$UCSORGBACK
 10
0.0
 20
0.0
 30
0.0
  9
$PUCSBASE
  2

  9
$PUCSNAME
  2

  9
$PUCSORG
 10
0.0
 20
0.0
 30
0.0
  9
$PUCSXDIR
 10
1.0
 20
0.0
 30
0.0
  9
$PUCSYDIR
 10
0.0
 20
1.0
 30
0.0
  9
$PUCSORTHOREF
  2

  9
$PUCSORTHOVIEW
 70
     0
  9
$PUCSORGTOP
 10
0.0
 20
0.0
 30
0.0
  9
$PUCSORGBOTTOM
 10
0.0
 20
0.0
 30
0.0
  9
$PUCSORGLEFT
 10
0.0
 20
0.0
 30
0.0
  9
$PUCSORGRIGHT
 10
0.0
 20
0.0
 30
0.0
  9
$PUCSORGFRONT
 10
0.0
 20
0.0
 30
0.0
  9
$PUCSORGBACK
 10
0.0
 20
0.0
 30
0.0
  9
$USERI1
 70
     0
  9
$USERI2
 70
   100
  9
$USERI3
 70
     0
  9
$USERI4
 70
     0
  9
$USERI5
 70
     0
  9
$USERR1
 40
0.0
  9
$USERR2
 40
0.0
  9
$USERR3
 40
0.0
  9
$USERR4
 40
0.0
  9
$USERR5
 40
0.0
  9
$WORLDVIEW
 70
     1
  9
$SHADEDGE
 70
     3
  9
$SHADEDIF
 70
    70
  9
$TILEMODE
 70
     1
  9
$MAXACTVP
 70
    16
  9
$PINSBASE
 10
0.0
 20
0.0
 30
0.0
  9
$PLIMCHECK
 70
     0
  9
$PEXTMIN
 10
5.0
 20
5.0
 30
0.0
  9
$PEXTMAX
 10
415.0
 20
300.0
 30
0.0
  9
$PLIMMIN
 10
0.0
 20
0.0
  9
$PLIMMAX
 10
420.0
 20
297.0
  9
$UNITMODE
 70
     0
  9
$VISRETAIN
 70
     0
  9
$PLINEGEN
 70
     0
  9
$PSLTSCALE
 70
     0
  9
$TREEDEPTH
 70
  3020
  9
$CMLSTYLE
  2
STANDARD
  9
$CMLJUST
 70
     0
  9
$CMLSCALE
 40
1.0
  9
$PROXYGRAPHICS
 70
     1
  9
$MEASUREMENT
 70
     1
  9
$CELWEIGHT
370
    -1
  9
$ENDCAPS
280
     0
  9
$JOINSTYLE
280
     0
  9
$LWDISPLAY
290
     0
  9
$INSUNITS
 70
     4
  9
$HYPERLINKBASE
  1

  9
$STYLESHEET
  1

  9
$XEDIT
290
     1
  9
$CEPSNTYPE
380
     0
  9
$PSTYLEMODE
290
     1
  9
$FINGERPRINTGUID
  2
{428C5470-06ED-4766-BA3C-CA2B15925F11}
  9
$VERSIONGUID
  2
{C883C737-5D08-4042-B081-1BBBA0B300AB}
  9
$EXTNAMES
290
     1
  9
$PSVPSCALE
 40
0.0
  9
$OLESTARTUP
290
     0
  0
ENDSEC
  0
SECTION
  2
CLASSES
  0
CLASS
  1
DICTIONARYVAR
  2
AcDbDictionaryVar
  3
AutoCAD 2000
 90
        0
280
     0
281
     0
  0
CLASS
  1
LWPOLYLINE
  2
AcDbPolyline
  3
AutoCAD 2000
 90
    32768
280
     0
281
     1
  0
CLASS
  1
HATCH
  2
AcDbHatch
  3
AutoCAD 2000
 90
    32768
280
     0
281
     1
  0
CLASS
  1
XRECORD
  2
AcDbXrecord
  3
AutoCAD 2000
 90
    32768
280
     0
281
     0
  0
CLASS
  1
ACDBDICTIONARYWDFLT
  2
AcDbDictionaryWithDefault
  3
AutoCAD 2000
 90
        0
280
     0
281
     0
  0
CLASS
  1
ACDBPLACEHOLDER
  2
AcDbPlaceHolder
  3
AutoCAD 2000
 90
        0
280
     0
281
     0
  0
CLASS
  1
LAYOUT
  2
AcDbLayout
  3
AutoCAD 2000
 90
        0
280
     0
281
     0
  0
CLASS
  1
ACME_DOCUMENT
  2
AcMeDbDoc
  3
AcMeServices
 90
    32768
280
     0
281
     0
  0
CLASS
  1
AMGSETTINGSOBJ
  2
AmgSettingsObj
  3
"AcadM|Product Description: AutoCAD Mechanical 2000|Company: Autodesk"
 90
        0
280
     0
281
     0
  0
CLASS
  1
ACMESCOPE
  2
AcMeScope
  3
AcMeServices
 90
        0
280
     0
281
     0
  0
CLASS
  1
ACMECOMMANDHISTORY
  2
AcMeCommandHistory
  3
AcMeServices
 90
    32768
280
     0
281
     0
  0
CLASS
  1
ACIMSYSVARMAN
  2
AcImSysVarManager
  3
AcMeServices
 90
        0
280
     0
281
     0
  0
CLASS
  1
ACIMREALSYSVAR
  2
AcImRealSysVar
  3
AcMeServices
 90
    32768
280
     0
281
     0
  0
CLASS
  1
ACIMINTSYSVAR
  2
AcImIntSysVar
  3
AcMeServices
 90
    32768
280
     0
281
     0
  0
CLASS
  1
ACMEDRAWINGMAN
  2
AcMeDrawingMan
  3
AcMeServices
 90
    32768
280
     0
281
     0
  0
CLASS
  1
ACMEVIEW
  2
AcMeView
  3
AcMeServices
 90
    32768
280
     0
281
     0
  0
CLASS
  1
ACDBENTITYCACHE
  2
AcMeEntityCache
  3
AcMeServices
 90
    32768
280
     0
281
     0
  0
CLASS
  1
GSMANAGER
  2
AcMeGSManager
  3
AcMeServices
 90
    32768
280
     0
281
     0
  0
CLASS
  1
AMDTINTERNALREACTOR
  2
AmdtInternalReactor
  3
AcMeServices
 90
    32768
280
     0
281
     0
  0
CLASS
  1
ACMESTATEMGR
  2
AcMeStateMgr
  3
AcMeServices
 90
        0
280
     0
281
     0
  0
CLASS
  1
ACGREFMASTER
  2
AcGrefMaster
  3
AcAttribServices
 90
        0
280
     0
281
     0
  0
CLASS
  1
ACME_DATABASE
  2
AcMeDbDatabase
  3
AcMeServices
 90
    32768
280
     0
281
     0
  0
CLASS
  1
ACRFINSADJUSTERMGR
  2
AcRfInsAdjusterMgr
  3
AcMeServices
 90
    32768
280
     0
281
     0
  0
CLASS
  1
ACGREFACADMASTER
  2
AcGrefacadMaster
  3
AcGrefServices
 90
    32768
280
     0
281
     0
  0
CLASS
  1
AMIMASTER
  2
AmiMaster
  3
AmiServices
 90
    32768
280
     0
281
     0
  0
CLASS
  1
ACMDATADICTIONARY
  2
AcmDataDictionary
  3
"AcmSymBB|Product Description: AutoCAD Mechanical 2000|Company: Autodesk"
 90
    32768
280
     0
281
     0
  0
CLASS
  1
ACMDATAENTRYBLOCK
  2
AcmDataEntryBlock
  3
"AcmSymBB|Product Description: AutoCAD Mechanical 2000|Company: Autodesk"
 90
    32768
280
     0
281
     0
  0
CLASS
  1
ACIMSTRSYSVAR
  2
AcImStrSysVar
  3
AcMeServices
 90
        0
280
     0
281
     0
  0
CLASS
  1
ACMSTANDARDDIN
  2
AcmStandardDIN
  3
"Amdt_StdImp|Product Description: AutoCAD Mechanical 2000|Company: Autodesk"
 90
        0
280
     0
281
     0
  0
CLASS
  1
AMGOBJPROPCFG
  2
AmgObjPropCfg
  3
"AmgLay|Product Description: AutoCAD Mechanical 2000|Company: Autodesk"
 90
        1
280
     0
281
     0
  0
CLASS
  1
AMDTEDGESTANDARDDIN
  2
AmdtEdgeStdDIN
  3
"Amdt_StdImp|Product Description: AutoCAD Mechanical 2000|Company: Autodesk"
 90
        0
280
     0
281
     0
  0
CLASS
  1
ACMSURFSTANDARDDIN
  2
AcmSurfTextStdDIN
  3
"Amdt_StdImp|Product Description: AutoCAD Mechanical 2000|Company: Autodesk"
 90
        0
280
     0
281
     0
  0
CLASS
  1
ACMFCFSTANDARDDIN
  2
AcmFCFStdDIN
  3
"Amdt_StdImp|Product Description: AutoCAD Mechanical 2000|Company: Autodesk"
 90
        0
280
     0
281
     0
  0
CLASS
  1
ACMWELDSTANDARDDIN
  2
AcmWeldingStdDIN
  3
"Amdt_StdImp|Product Description: AutoCAD Mechanical 2000|Company: Autodesk"
 90
        0
280
     0
281
     0
  0
CLASS
  1
ACMIDSTANDARDDIN
  2
AcmIdStdDIN
  3
"Amdt_StdImp|Product Description: AutoCAD Mechanical 2000|Company: Autodesk"
 90
        0
280
     0
281
     0
  0
CLASS
  1
ACMDATUMSTANDARDDIN
  2
AcmDatumStdDIN
  3
"Amdt_StdImp|Product Description: AutoCAD Mechanical 2000|Company: Autodesk"
 90
        0
280
     0
281
     0
  0
CLASS
  1
ACMBOMSTANDARDDIN
  2
AcmBOMStdDIN
  3
"Amdt_StdImp|Product Description: AutoCAD Mechanical 2000|Company: Autodesk"
 90
        0
280
     0
281
     0
  0
CLASS
  1
ACMDETAILSTANDARDDIN
  2
AmdtDetailSymStdDIN
  3
"Amdt_StdImp|Product Description: AutoCAD Mechanical 2000|Company: Autodesk"
 90
        0
280
     0
281
     0
  0
CLASS
  1
ACMSECTIONSTANDARDDIN
  2
AmdtSectionSymStdDIN
  3
"Amdt_StdImp|Product Description: AutoCAD Mechanical 2000|Company: Autodesk"
 90
        0
280
     0
281
     0
  0
CLASS
  1
ACMCENTERLINESTANDARDDIN
  2
AmdtCenterLineStdDIN
  3
"Amdt_StdImp|Product Description: AutoCAD Mechanical 2000|Company: Autodesk"
 90
        0
280
     0
281
     0
  0
CLASS
  1
ACMNOTESTANDARDDIN
  2
AmdtNoteStdDIN
  3
"Amdt_StdImp|Product Description: AutoCAD Mechanical 2000|Company: Autodesk"
 90
        0
280
     0
281
     0
  0
CLASS
  1
ACAMGLAYSTD
  2
AcAmgLayStd
  3
"AcAmgLayStd|Product Description: AutoCAD Mechanical 2000|Company: Autodesk"
 90
        0
280
     0
281
     0
  0
CLASS
  1
ACAMGDIMSTD
  2
AcAmgDimStd
  3
"AcAmgDimStd|Product Description: AutoCAD Mechanical 2000|Company: Autodesk"
 90
        0
280
     0
281
     0
  0
CLASS
  1
ACAMGHOLECHARTSTDDIN
  2
AcAmgHoleChartStdDIN
  3
ACMSYMBB_MODULE_NAME
 90
        0
280
     0
281
     0
  0
CLASS
  1
ACAMGTITLESTD
  2
AcAmgTitleStd
  3
"TITLEAPP"
 90
        0
280
     0
281
     0
  0
CLASS
  1
ACAMGFILTERDAT
  2
AcAmgFilterDat
  3
"AcadM|Product Description: AutoCAD Mechanical 2000|Company: Autodesk"
 90
    32768
280
     0
281
     0
  0
ENDSEC
  0
SECTION
  2
TABLES
  0
TABLE
  2
VPORT
  5
19
330
0
100
AcDbSymbolTable
 70
     1
  0
VPORT
  5
1A
330
19
100
AcDbSymbolTableRecord
100
AcDbViewportTableRecord
  2
*Active
 70
     0
 10
0.0
 20
0.0
 11
1.0
 21
1.0
 12
401.5144800217537
 22
285.3870194382586
 13
0.0
 23
0.0
 14
1.0
 24
1.0
 15
10.0
 25
10.0
 16
0.0
 26
0.0
 36
1.0
 17
0.0
 27
0.0
 37
0.0
 40
477.3570962710095
 41
1.712406015037593
 42
50.0
 43
-210.0
 44
-210.0
 50
0.0
 51
0.0
 71
     0
 72
  5000
 73
     1
 74
     2
 75
     0
 76
     0
 77
     0
 78
     0
281
     0
 65
     1
110
0.0
120
0.0
130
0.0
111
1.0
121
0.0
131
0.0
112
0.0
122
1.0
132
0.0
 79
     0
146
0.0
  0
ENDTAB
  0
TABLE
  2
LTYPE
  5
14
330
0
100
AcDbSymbolTable
 70
    13
  0
LTYPE
  5
15
330
14
100
AcDbSymbolTableRecord
100
AcDbLinetypeTableRecord
  2
BYBLOCK
 70
     0
  3

 72
    65
 73
     0
 40
0.0
  0
LTYPE
  5
16
330
14
100
AcDbSymbolTableRecord
100
AcDbLinetypeTableRecord
  2
BYLAYER
 70
     0
  3

 72
    65
 73
     0
 40
0.0
  0
LTYPE
  5
8
330
14
100
AcDbSymbolTableRecord
100
AcDbLinetypeTableRecord
  2
CONTINUOUS
 70
     0
  3
Solid line
 72
    65
 73
     0
 40
0.0
  0
LTYPE
  5
7C
330
14
100
AcDbSymbolTableRecord
100
AcDbLinetypeTableRecord
  2
STRICHPUNKT
 70
     0
  3
__ . __ . __ . __ . __ . __ . __ . __ . __ . __
 72
    65
 73
     4
 40
1.0
 49
0.5
 74
     0
 49
-0.25
 74
     0
 49
0.0
 74
     0
 49
-0.25
 74
     0
  0
LTYPE
  5
223
330
14
100
AcDbSymbolTableRecord
100
AcDbLinetypeTableRecord
  2
AM_ISO02W050
 70
     0
  3
__ __ __ __ __ __ __ __ __ __ __ __ __ __ __
 72
    65
 73
     2
 40
7.5
 49
6.0
 74
     0
 49
-1.5
 74
     0
  0
LTYPE
  5
235
330
14
100
AcDbSymbolTableRecord
100
AcDbLinetypeTableRecord
  2
ACDINWELD
 70
     0
  3
_ _ _ _ _
 72
    65
 73
     2
 40
2.0
 49
2.0
 74
     0
 49
-1.0
 74
     0
  0
LTYPE
  5
238
330
14
100
AcDbSymbolTableRecord
100
AcDbLinetypeTableRecord
  2
ACDINTGB
 70
     0
  3
__ . . __ . .
 72
    65
 73
     6
 40
9.0
 49
4.0
 74
     0
 49
-1.0
 74
     0
 49
1.0
 74
     0
 49
-1.0
 74
     0
 49
1.0
 74
     0
 49
-1.0
 74
     0
  0
LTYPE
  5
239
330
14
100
AcDbSymbolTableRecord
100
AcDbLinetypeTableRecord
  2
ACDINTGL
 70
     0
  3
_ _ _ _ _
 72
    65
 73
     2
 40
3.0
 49
2.0
 74
     0
 49
-1.0
 74
     0
  0
LTYPE
  5
23D
330
14
100
AcDbSymbolTableRecord
100
AcDbLinetypeTableRecord
  2
CENTER
 70
     0
  3
__ . __
 72
    65
 73
     4
 40
7.0
 49
4.0
 74
     0
 49
-1.0
 74
     0
 49
1.0
 74
     0
 49
-1.0
 74
     0
  0
LTYPE
  5
21E
330
14
100
AcDbSymbolTableRecord
100
AcDbLinetypeTableRecord
  2
gen3
 70
     0
  3
-- -- -- -- -- -- -- -- -- -- -- -- -- -- --
 72
    65
 73
     2
 40
6.25
 49
4.75
 74
     0
 49
-1.5
 74
     0
  0
LTYPE
  5
21F
330
14
100
AcDbSymbolTableRecord
100
AcDbLinetypeTableRecord
  2
gen7
 70
     0
  3
____ . ____ . ____ . ____ . ____ . ____ . ____
 72
    65
 73
     4
 40
13.75
 49
9.75
 74
     0
 49
-1.5
 74
     0
 49
1.0
 74
     0
 49
-1.5
 74
     0
  0
LTYPE
  5
220
330
14
100
AcDbSymbolTableRecord
100
AcDbLinetypeTableRecord
  2
gen3a
 70
     0
  3
 - - - - -
 72
    65
 73
     2
 40
3.125
 49
2.25
 74
     0
 49
-0.875
 74
     0
  0
LTYPE
  5
221
330
14
100
AcDbSymbolTableRecord
100
AcDbLinetypeTableRecord
  2
gen7a
 70
     0
  3
__ . __ . __
 72
    65
 73
     4
 40
6.875
 49
4.75
 74
     0
 49
-0.875
 74
     0
 49
0.375
 74
     0
 49
-0.875
 74
     0
  0
LTYPE
  5
222
330
14
100
AcDbSymbolTableRecord
100
AcDbLinetypeTableRecord
  2
gen4a
 70
     0
  3
_____ . . _____ . . _____ . . ____ .. ____
 72
    65
 73
     6
 40
16.25
 49
9.75
 74
     0
 49
-1.5
 74
     0
 49
1.0
 74
     0
 49
-1.5
 74
     0
 49
1.0
 74
     0
 49
-1.5
 74
     0
  0
LTYPE
  5
224
330
14
100
AcDbSymbolTableRecord
100
AcDbLinetypeTableRecord
  2
genzigzag
 70
     0
  3
/\/-/\/-/\/-/\/-/\/-/\/
 72
    65
 73
     2
 40
12.0001
 49
0.0001
 74
     4
 75
   135
340
225
 46
2.0
 50
0.0
 44
0.0
 45
0.0
 49
-12.0
 74
     0
  0
ENDTAB
  0
TABLE
  2
LAYER
  5
10
330
0
100
AcDbSymbolTable
 70
     6
  0
LAYER
  5
4
330
10
100
AcDbSymbolTableRecord
100
AcDbLayerTableRecord
  2
0
 70
     0
 62
     7
  6
CONTINUOUS
370
    -3
390
5
  0
LAYER
  5
78
330
10
100
AcDbSymbolTableRecord
100
AcDbLayerTableRecord
  2
UMRISS05
 70
     0
 62
     4
  6
CONTINUOUS
370
    -3
390
5
  0
LAYER
  5
22
330
10
100
AcDbSymbolTableRecord
100
AcDbLayerTableRecord
  2
BEMASSUNG
 70
     0
 62
     2
  6
CONTINUOUS
370
    -3
390
5
  0
LAYER
  5
7B
330
10
100
AcDbSymbolTableRecord
100
AcDbLayerTableRecord
  2
ACHSEN
 70
     0
 62
    12
  6
STRICHPUNKT
370
    -3
390
5
  0
LAYER
  5
2F
330
10
100
AcDbSymbolTableRecord
100
AcDbLayerTableRecord
  2
DEFPOINTS
 70
     0
 62
     7
  6
CONTINUOUS
290
     0
370
    -3
390
5
  0
LAYER
  5
B7
330
10
100
AcDbSymbolTableRecord
100
AcDbLayerTableRecord
  2
BEMASSUNG-DEUTSCH
 70
     0
 62
     3
  6
CONTINUOUS
370
    -3
390
5
  0
ENDTAB
  0
TABLE
  2
STYLE
  5
11
330
0
100
AcDbSymbolTable
 70
     5
  0
STYLE
  5
12
330
11
100
AcDbSymbolTableRecord
100
AcDbTextStyleTableRecord
  2
STANDARD
 70
     0
 40
0.0
 41
1.0
 50
0.0
 71
     0
 42
3.5
  3
txt
  4

  0
STYLE
  5
23
330
11
100
AcDbSymbolTableRecord
100
AcDbTextStyleTableRecord
  2
NORM
 70
     0
 40
0.0
 41
0.8
 50
0.0
 71
     0
 42
5.0
  3
SIMPLEX.shx
  4

  0
STYLE
  5
22F
330
11
100
AcDbSymbolTableRecord
100
AcDbTextStyleTableRecord
  2
ACDINTS
 70
     0
 40
1.0
 41
1.0
 50
0.0
 71
     0
 42
5.0
  3
isocp.shx
  4

  0
STYLE
  5
233
330
11
100
AcDbSymbolTableRecord
100
AcDbTextStyleTableRecord
  2
ACDINGDT
 70
     0
 40
0.0
 41
1.0
 50
0.0
 71
     0
 42
5.0
  3
amgdt.shx
  4

  0
STYLE
  5
225
330
11
100
AcDbSymbolTableRecord
100
AcDbTextStyleTableRecord
  2

 70
     1
 40
0.0
 41
1.0
 50
0.0
 71
     0
 42
5.0
  3
genltshp.shx
  4

  0
ENDTAB
  0
TABLE
  2
VIEW
  5
17
330
0
100
AcDbSymbolTable
 70
     0
  0
ENDTAB
  0
TABLE
  2
UCS
  5
18
330
0
100
AcDbSymbolTable
 70
     0
  0
ENDTAB
  0
TABLE
  2
APPID
  5
1B
330
0
100
AcDbSymbolTable
 70
     1
  0
APPID
  5
1C
330
1B
100
AcDbSymbolTableRecord
100
AcDbRegAppTableRecord
  2
ACAD
 70
     0
  0
ENDTAB
  0
TABLE
  2
DIMSTYLE
  5
1D
330
0
100
AcDbSymbolTable
 70
     1
100
AcDbDimStyleTable
 71
     0
  0
DIMSTYLE
105
25
102
{ACAD_REACTORS
330
26
330
1FB
330
187
330
16D
330
6A
330
8C
330
11D
330
C4
330
7F
330
160
330
12B
330
1C3
330
1A2
330
1D5
330
195
330
1B5
330
17A
330
5D
330
13C
330
50
330
B6
330
A9
330
20B
330
43
330
99
330
106
330
E8
330
D4
330
34
330
14D
330
1EB
330
F6
102
}
330
1D
100
AcDbSymbolTableRecord
100
AcDbDimStyleTableRecord
  2
PROSPEKT
 70
     0
 40
1.5
 41
3.5
 42
0.5
 43
8.0
 44
1.3
 73
     0
 74
     0
 77
     1
 78
     8
140
3.5
141
1.5
143
25.39999999999999
146
0.5
147
1.0
172
     1
174
     1
176
     2
177
     2
178
     3
271
     2
272
     2
279
     2
284
     8
285
     8
286
     8
340
23
  0
ENDTAB
  0
TABLE
  2
BLOCK_RECORD
  5
1
330
0
100
AcDbSymbolTable
 70
    32
  0
BLOCK_RECORD
  5
2
330
1
100
AcDbSymbolTableRecord
100
AcDbBlockTableRecord
  2
*MODEL_SPACE
340
A
  0
BLOCK_RECORD
  5
C
330
1
100
AcDbSymbolTableRecord
100
AcDbBlockTableRecord
  2
*PAPER_SPACE
340
F
  0
BLOCK_RECORD
  5
35
330
1
100
AcDbSymbolTableRecord
100
AcDbBlockTableRecord
  2
*D0
340
0
  0
BLOCK_RECORD
  5
14E
330
1
100
AcDbSymbolTableRecord
100
AcDbBlockTableRecord
  2
*D1
340
0
  0
BLOCK_RECORD
  5
1EC
330
1
100
AcDbSymbolTableRecord
100
AcDbBlockTableRecord
  2
*D2
340
0
  0
BLOCK_RECORD
  5
F7
330
1
100
AcDbSymbolTableRecord
100
AcDbBlockTableRecord
  2
*D3
340
0
  0
BLOCK_RECORD
  5
44
330
1
100
AcDbSymbolTableRecord
100
AcDbBlockTableRecord
  2
*D4
340
0
  0
BLOCK_RECORD
  5
5E
330
1
100
AcDbSymbolTableRecord
100
AcDbBlockTableRecord
  2
*D5
340
0
  0
BLOCK_RECORD
  5
6B
330
1
100
AcDbSymbolTableRecord
100
AcDbBlockTableRecord
  2
*D6
340
0
  0
BLOCK_RECORD
  5
51
330
1
100
AcDbSymbolTableRecord
100
AcDbBlockTableRecord
  2
*D7
340
0
  0
BLOCK_RECORD
  5
9A
330
1
100
AcDbSymbolTableRecord
100
AcDbBlockTableRecord
  2
*D8
340
0
  0
BLOCK_RECORD
  5
C5
330
1
100
AcDbSymbolTableRecord
100
AcDbBlockTableRecord
  2
*D9
340
0
  0
BLOCK_RECORD
  5
B8
330
1
100
AcDbSymbolTableRecord
100
AcDbBlockTableRecord
  2
*D10
340
0
  0
BLOCK_RECORD
  5
80
330
1
100
AcDbSymbolTableRecord
100
AcDbBlockTableRecord
  2
*D11
340
0
  0
BLOCK_RECORD
  5
AA
330
1
100
AcDbSymbolTableRecord
100
AcDbBlockTableRecord
  2
*D12
340
0
  0
BLOCK_RECORD
  5
D5
330
1
100
AcDbSymbolTableRecord
100
AcDbBlockTableRecord
  2
*D13
340
0
  0
BLOCK_RECORD
  5
E9
330
1
100
AcDbSymbolTableRecord
100
AcDbBlockTableRecord
  2
*D14
340
0
  0
BLOCK_RECORD
  5
8D
330
1
100
AcDbSymbolTableRecord
100
AcDbBlockTableRecord
  2
*D15
340
0
  0
BLOCK_RECORD
  5
11E
330
1
100
AcDbSymbolTableRecord
100
AcDbBlockTableRecord
  2
*D16
340
0
  0
BLOCK_RECORD
  5
12C
330
1
100
AcDbSymbolTableRecord
100
AcDbBlockTableRecord
  2
*D17
340
0
  0
BLOCK_RECORD
  5
13D
330
1
100
AcDbSymbolTableRecord
100
AcDbBlockTableRecord
  2
*D18
340
0
  0
BLOCK_RECORD
  5
107
330
1
100
AcDbSymbolTableRecord
100
AcDbBlockTableRecord
  2
*D19
340
0
  0
BLOCK_RECORD
  5
20C
330
1
100
AcDbSymbolTableRecord
100
AcDbBlockTableRecord
  2
*D20
340
0
  0
BLOCK_RECORD
  5
188
330
1
100
AcDbSymbolTableRecord
100
AcDbBlockTableRecord
  2
*D21
340
0
  0
BLOCK_RECORD
  5
17B
330
1
100
AcDbSymbolTableRecord
100
AcDbBlockTableRecord
  2
*D22
340
0
  0
BLOCK_RECORD
  5
161
330
1
100
AcDbSymbolTableRecord
100
AcDbBlockTableRecord
  2
*D23
340
0
  0
BLOCK_RECORD
  5
1A3
330
1
100
AcDbSymbolTableRecord
100
AcDbBlockTableRecord
  2
*D24
340
0
  0
BLOCK_RECORD
  5
1D6
330
1
100
AcDbSymbolTableRecord
100
AcDbBlockTableRecord
  2
*D25
340
0
  0
BLOCK_RECORD
  5
16E
330
1
100
AcDbSymbolTableRecord
100
AcDbBlockTableRecord
  2
*D26
340
0
  0
BLOCK_RECORD
  5
196
330
1
100
AcDbSymbolTableRecord
100
AcDbBlockTableRecord
  2
*D27
340
0
  0
BLOCK_RECORD
  5
1B6
330
1
100
AcDbSymbolTableRecord
100
AcDbBlockTableRecord
  2
*D28
340
0
  0
BLOCK_RECORD
  5
1C4
330
1
100
AcDbSymbolTableRecord
100
AcDbBlockTableRecord
  2
*D29
340
0
  0
BLOCK_RECORD
  5
1FC
330
1
100
AcDbSymbolTableRecord
100
AcDbBlockTableRecord
  2
*D30
340
0
  0
BLOCK_RECORD
  5
27
330
1
100
AcDbSymbolTableRecord
100
AcDbBlockTableRecord
  2
*D31
340
0
  0
ENDTAB
  0
ENDSEC
  0
SECTION
  2
BLOCKS
  0
BLOCK
  5
3
330
2
100
AcDbEntity
  8
0
100
AcDbBlockBegin
  2
*MODEL_SPACE
 70
     0
 10
0.0
 20
0.0
 30
0.0
  3
*MODEL_SPACE
  1

  0
ENDBLK
  5
9
330
2
100
AcDbEntity
  8
0
100
AcDbBlockEnd
  0
BLOCK
  5
D
330
C
100
AcDbEntity
 67
     1
  8
0
100
AcDbBlockBegin
  2
*PAPER_SPACE
 70
     0
 10
0.0
 20
0.0
 30
0.0
  3
*PAPER_SPACE
  1

  0
ENDBLK
  5
E
330
C
100
AcDbEntity
 67
     1
  8
0
100
AcDbBlockEnd
  0
BLOCK
  5
41
330
35
100
AcDbEntity
  8
0
100
AcDbBlockBegin
  2
*D0
 70
     1
 10
0.0
 20
0.0
 30
0.0
  3
*D0
  1
ACA_CFG
  0
LINE
  5
36
330
35
100
AcDbEntity
  8
0
  6
ByBlock
 62
     2
100
AcDbLine
 10
446.5722937432579
 20
283.1078489066289
 30
0.0
 11
446.5722937432579
 21
295.9338487339757
 31
0.0
  0
LINE
  5
37
330
35
100
AcDbEntity
  8
0
  6
ByBlock
 62
     2
100
AcDbLine
 10
442.5722937432579
 20
293.9133058079396
 30
0.0
 11
442.5722937432579
 21
295.9338487339757
 31
0.0
  0
LINE
  5
38
330
35
100
AcDbEntity
  8
0
  6
ByBlock
 62
     2
100
AcDbLine
 10
451.8222937432579
 20
293.9838487339757
 30
0.0
 11
457.0722937432578
 21
293.9838487339757
 31
0.0
  0
LINE
  5
39
330
35
100
AcDbEntity
  8
0
  6
ByBlock
 62
     2
100
AcDbLine
 10
437.3222937432578
 20
293.9838487339757
 30
0.0
 11
432.0722937432578
 21
293.9838487339757
 31
0.0
  0
LINE
  5
3A
330
35
100
AcDbEntity
  8
0
  6
ByBlock
 62
     2
100
AcDbLine
 10
446.5722937432579
 20
293.9838487339757
 30
0.0
 11
442.5722937432579
 21
293.9838487339757
 31
0.0
  0
SOLID
  5
3B
330
35
100
AcDbEntity
  8
0
  6
ByBlock
 62
     2
100
AcDbTrace
 10
451.8222937432579
 20
294.8588487339757
 30
0.0
 11
451.8222937432579
 21
293.1088487339757
 31
0.0
 12
446.5722937432579
 22
293.9838487339757
 32
0.0
 13
446.5722937432579
 23
293.9838487339757
 33
0.0
  0
SOLID
  5
3C
330
35
100
AcDbEntity
  8
0
  6
ByBlock
 62
     2
100
AcDbTrace
 10
437.3222937432578
 20
294.8588487339757
 30
0.0
 11
437.3222937432578
 21
293.1088487339757
 31
0.0
 12
442.5722937432579
 22
293.9838487339757
 32
0.0
 13
442.5722937432579
 23
293.9838487339757
 33
0.0
  0
MTEXT
  5
3D
330
35
100
AcDbEntity
  8
0
  6
ByBlock
 62
     3
100
AcDbMText
 10
444.5722937432578
 20
298.1088487339757
 30
0.0
 40
5.25
 41
0.0
 71
     5
 72
     1
  1
\A1;4
  7
NORM
 73
     1
 44
1.0
  0
POINT
  5
3E
330
35
100
AcDbEntity
  8
DEFPOINTS
  6
ByBlock
 62
     0
100
AcDbPoint
 10
446.5722937432579
 20
282.357848906629
 30
0.0
  0
POINT
  5
3F
330
35
100
AcDbEntity
  8
DEFPOINTS
  6
ByBlock
 62
     0
100
AcDbPoint
 10
442.5722937432579
 20
293.1633058079396
 30
0.0
  0
POINT
  5
40
330
35
100
AcDbEntity
  8
DEFPOINTS
  6
ByBlock
 62
     0
100
AcDbPoint
 10
442.5722937432579
 20
293.9838487339757
 30
0.0
  0
ENDBLK
  5
42
330
35
100
AcDbEntity
  8
0
100
AcDbBlockEnd
  0
BLOCK
  5
15A
330
14E
100
AcDbEntity
  8
0
100
AcDbBlockBegin
  2
*D1
 70
     1
 10
0.0
 20
0.0
 30
0.0
  3
*D1
  1
ACA_CFG
  0
LINE
  5
14F
330
14E
100
AcDbEntity
  8
0
  6
ByBlock
 62
     2
100
AcDbLine
 10
446.5722937432579
 20
249.6078489066289
 30
0.0
 11
446.5722937432579
 21
237.8779732608866
 31
0.0
  0
LINE
  5
150
330
14E
100
AcDbEntity
  8
0
  6
ByBlock
 62
     2
100
AcDbLine
 10
455.5722937432578
 20
249.6078489066289
 30
0.0
 11
455.5722937432578
 21
237.8779732608866
 31
0.0
  0
LINE
  5
151
330
14E
100
AcDbEntity
  8
0
  6
ByBlock
 62
     2
100
AcDbLine
 10
441.3222937432578
 20
239.8279732608866
 30
0.0
 11
436.0722937432578
 21
239.8279732608866
 31
0.0
  0
LINE
  5
152
330
14E
100
AcDbEntity
  8
0
  6
ByBlock
 62
     2
100
AcDbLine
 10
460.8222937432579
 20
239.8279732608866
 30
0.0
 11
466.0722937432579
 21
239.8279732608866
 31
0.0
  0
LINE
  5
153
330
14E
100
AcDbEntity
  8
0
  6
ByBlock
 62
     2
100
AcDbLine
 10
446.5722937432579
 20
239.8279732608866
 30
0.0
 11
455.5722937432578
 21
239.8279732608866
 31
0.0
  0
SOLID
  5
154
330
14E
100
AcDbEntity
  8
0
  6
ByBlock
 62
     2
100
AcDbTrace
 10
441.3222937432578
 20
240.7029732608866
 30
0.0
 11
441.3222937432578
 21
238.9529732608866
 31
0.0
 12
446.5722937432579
 22
239.8279732608866
 32
0.0
 13
446.5722937432579
 23
239.8279732608866
 33
0.0
  0
SOLID
  5
155
330
14E
100
AcDbEntity
  8
0
  6
ByBlock
 62
     2
100
AcDbTrace
 10
460.8222937432579
 20
240.7029732608866
 30
0.0
 11
460.8222937432579
 21
238.9529732608866
 31
0.0
 12
455.5722937432578
 22
239.8279732608866
 32
0.0
 13
455.5722937432578
 23
239.8279732608866
 33
0.0
  0
MTEXT
  5
156
330
14E
100
AcDbEntity
  8
0
  6
ByBlock
 62
     3
100
AcDbMText
 10
451.0722937432579
 20
243.9529732608866
 30
0.0
 40
5.25
 41
0.0
 71
     5
 72
     1
  1
\A1;9
  7
NORM
 73
     1
 44
1.0
  0
POINT
  5
157
330
14E
100
AcDbEntity
  8
DEFPOINTS
  6
ByBlock
 62
     0
100
AcDbPoint
 10
446.5722937432579
 20
250.3578489066289
 30
0.0
  0
POINT
  5
158
330
14E
100
AcDbEntity
  8
DEFPOINTS
  6
ByBlock
 62
     0
100
AcDbPoint
 10
455.5722937432578
 20
250.3578489066289
 30
0.0
  0
POINT
  5
159
330
14E
100
AcDbEntity
  8
DEFPOINTS
  6
ByBlock
 62
     0
100
AcDbPoint
 10
455.5722937432578
 20
239.8279732608866
 30
0.0
  0
ENDBLK
  5
15B
330
14E
100
AcDbEntity
  8
0
100
AcDbBlockEnd
  0
BLOCK
  5
1F9
330
1EC
100
AcDbEntity
  8
0
100
AcDbBlockBegin
  2
*D2
 70
     1
 10
0.0
 20
0.0
 30
0.0
  3
*D2
  1
ACA_CFG
  0
LINE
  5
1ED
330
1EC
100
AcDbEntity
  8
0
  6
ByBlock
 62
     2
100
AcDbLine
 10
446.5722937432579
 20
335.6078489066289
 30
0.0
 11
446.5722937432579
 21
324.0350493210751
 31
0.0
  0
LINE
  5
1EE
330
1EC
100
AcDbEntity
  8
0
  6
ByBlock
 62
     2
100
AcDbLine
 10
458.0722937432579
 20
338.1578489066291
 30
0.0
 11
458.0722937432579
 21
324.0350493210751
 31
0.0
  0
LINE
  5
1EF
330
1EC
100
AcDbEntity
  8
0
  6
ByBlock
 62
     2
100
AcDbLine
 10
441.3222937432578
 20
325.9850493210751
 30
0.0
 11
436.0722937432578
 21
325.9850493210751
 31
0.0
  0
LINE
  5
1F0
330
1EC
100
AcDbEntity
  8
0
  6
ByBlock
 62
     2
100
AcDbLine
 10
463.3222937432578
 20
325.9850493210751
 30
0.0
 11
468.5722937432578
 21
325.9850493210751
 31
0.0
  0
MTEXT
  5
1F1
330
1EC
100
AcDbEntity
  8
0
  6
ByBlock
 62
     3
100
AcDbMText
 10
450.2398792208942
 20
330.1100493210751
 30
0.0
 40
5.25
 41
0.0
 71
     5
 72
     1
  1
\A1;11.5
  7
NORM
 73
     1
 44
1.0
  0
LINE
  5
1F2
330
1EC
100
AcDbEntity
  8
0
  6
ByBlock
 62
     2
100
AcDbLine
 10
446.5722937432579
 20
325.9850493210751
 30
0.0
 11
458.0722937432579
 21
325.9850493210751
 31
0.0
  0
LINE
  5
1F3
330
1EC
100
AcDbEntity
  8
0
  6
ByBlock
 62
     2
100
AcDbLine
 10
446.5722937432579
 20
325.9850493210751
 30
0.0
 11
458.0722937432579
 21
325.9850493210751
 31
0.0
  0
SOLID
  5
1F4
330
1EC
100
AcDbEntity
  8
0
  6
ByBlock
 62
     2
100
AcDbTrace
 10
441.3222937432578
 20
326.8600493210751
 30
0.0
 11
441.3222937432578
 21
325.1100493210751
 31
0.0
 12
446.5722937432579
 22
325.9850493210751
 32
0.0
 13
446.5722937432579
 23
325.9850493210751
 33
0.0
  0
SOLID
  5
1F5
330
1EC
100
AcDbEntity
  8
0
  6
ByBlock
 62
     2
100
AcDbTrace
 10
463.3222937432578
 20
326.8600493210751
 30
0.0
 11
463.3222937432578
 21
325.1100493210751
 31
0.0
 12
458.0722937432579
 22
325.9850493210751
 32
0.0
 13
458.0722937432579
 23
325.9850493210751
 33
0.0
  0
POINT
  5
1F6
330
1EC
100
AcDbEntity
  8
DEFPOINTS
  6
ByBlock
 62
     0
100
AcDbPoint
 10
446.5722937432579
 20
336.357848906629
 30
0.0
  0
POINT
  5
1F7
330
1EC
100
AcDbEntity
  8
DEFPOINTS
  6
ByBlock
 62
     0
100
AcDbPoint
 10
458.0722937432579
 20
338.9078489066291
 30
0.0
  0
POINT
  5
1F8
330
1EC
100
AcDbEntity
  8
DEFPOINTS
  6
ByBlock
 62
     0
100
AcDbPoint
 10
458.0722937432579
 20
325.9850493210751
 30
0.0
  0
ENDBLK
  5
1FA
330
1EC
100
AcDbEntity
  8
0
100
AcDbBlockEnd
  0
BLOCK
  5
104
330
F7
100
AcDbEntity
  8
0
100
AcDbBlockBegin
  2
*D3
 70
     1
 10
0.0
 20
0.0
 30
0.0
  3
*D3
  1
ACA_CFG
  0
LINE
  5
F8
330
F7
100
AcDbEntity
  8
0
  6
ByBlock
 62
     2
100
AcDbLine
 10
316.5155791102779
 20
187.6078489066289
 30
0.0
 11
316.5155791102779
 21
172.8794124500973
 31
0.0
  0
LINE
  5
F9
330
F7
100
AcDbEntity
  8
0
  6
ByBlock
 62
     2
100
AcDbLine
 10
313.5155791102779
 20
187.6078489066289
 30
0.0
 11
313.5155791102779
 21
172.8794124500973
 31
0.0
  0
LINE
  5
FA
330
F7
100
AcDbEntity
  8
0
  6
ByBlock
 62
     2
100
AcDbLine
 10
321.7655791102779
 20
174.8294124500973
 30
0.0
 11
327.0155791102779
 21
174.8294124500973
 31
0.0
  0
LINE
  5
FB
330
F7
100
AcDbEntity
  8
0
  6
ByBlock
 62
     2
100
AcDbLine
 10
308.2655791102779
 20
174.8294124500973
 30
0.0
 11
303.0155791102779
 21
174.8294124500973
 31
0.0
  0
MTEXT
  5
FC
330
F7
100
AcDbEntity
  8
0
  6
ByBlock
 62
     3
100
AcDbMText
 10
324.894377095301
 20
179.2482555129797
 30
0.0
 40
5.25
 41
0.0
 71
     5
 72
     1
  1
\A1;3
  7
NORM
 73
     1
 44
1.0
  0
LINE
  5
FD
330
F7
100
AcDbEntity
  8
0
  6
ByBlock
 62
     2
100
AcDbLine
 10
316.5155791102779
 20
174.8294124500973
 30
0.0
 11
313.5155791102779
 21
174.8294124500973
 31
0.0
  0
LINE
  5
FE
330
F7
100
AcDbEntity
  8
0
  6
ByBlock
 62
     2
100
AcDbLine
 10
316.5155791102779
 20
174.8294124500973
 30
0.0
 11
313.5155791102779
 21
174.8294124500973
 31
0.0
  0
SOLID
  5
FF
330
F7
100
AcDbEntity
  8
0
  6
ByBlock
 62
     2
100
AcDbTrace
 10
321.7655791102779
 20
175.7044124500973
 30
0.0
 11
321.7655791102779
 21
173.9544124500973
 31
0.0
 12
316.5155791102779
 22
174.8294124500973
 32
0.0
 13
316.5155791102779
 23
174.8294124500973
 33
0.0
  0
SOLID
  5
100
330
F7
100
AcDbEntity
  8
0
  6
ByBlock
 62
     2
100
AcDbTrace
 10
308.2655791102779
 20
175.7044124500973
 30
0.0
 11
308.2655791102779
 21
173.9544124500973
 31
0.0
 12
313.5155791102779
 22
174.8294124500973
 32
0.0
 13
313.5155791102779
 23
174.8294124500973
 33
0.0
  0
POINT
  5
101
330
F7
100
AcDbEntity
  8
DEFPOINTS
  6
ByBlock
 62
     0
100
AcDbPoint
 10
316.5155791102779
 20
188.3578489066289
 30
0.0
  0
POINT
  5
102
330
F7
100
AcDbEntity
  8
DEFPOINTS
  6
ByBlock
 62
     0
100
AcDbPoint
 10
313.5155791102779
 20
188.3578489066289
 30
0.0
  0
POINT
  5
103
330
F7
100
AcDbEntity
  8
DEFPOINTS
  6
ByBlock
 62
     0
100
AcDbPoint
 10
313.5155791102779
 20
174.8294124500973
 30
0.0
  0
ENDBLK
  5
105
330
F7
100
AcDbEntity
  8
0
100
AcDbBlockEnd
  0
BLOCK
  5
4E
330
44
100
AcDbEntity
  8
0
100
AcDbBlockBegin
  2
*D4
 70
     1
 10
0.0
 20
0.0
 30
0.0
  3
*D4
  1
ACA_CFG
  0
LINE
  5
45
330
44
100
AcDbEntity
  8
0
  6
ByBlock
 62
     2
100
AcDbLine
 10
443.872293743258
 20
418.3578489066285
 30
0.0
 11
422.6625440370267
 21
418.3578489066285
 31
0.0
  0
LINE
  5
46
330
44
100
AcDbEntity
  8
0
  6
ByBlock
 62
     2
100
AcDbLine
 10
443.872293743258
 20
198.357848906629
 30
0.0
 11
422.6625440370267
 21
198.357848906629
 31
0.0
  0
LINE
  5
47
330
44
100
AcDbEntity
  8
0
  6
ByBlock
 62
     2
100
AcDbLine
 10
424.6125440370267
 20
413.1078489066285
 30
0.0
 11
424.6125440370267
 21
203.6078489066289
 31
0.0
  0
SOLID
  5
48
330
44
100
AcDbEntity
  8
0
  6
ByBlock
 62
     2
100
AcDbTrace
 10
423.7375440370267
 20
413.1078489066285
 30
0.0
 11
425.4875440370267
 21
413.1078489066285
 31
0.0
 12
424.6125440370267
 22
418.3578489066285
 32
0.0
 13
424.6125440370267
 23
418.3578489066285
 33
0.0
  0
SOLID
  5
49
330
44
100
AcDbEntity
  8
0
  6
ByBlock
 62
     2
100
AcDbTrace
 10
423.7375440370267
 20
203.6078489066289
 30
0.0
 11
425.4875440370267
 21
203.6078489066289
 31
0.0
 12
424.6125440370267
 22
198.357848906629
 32
0.0
 13
424.6125440370267
 23
198.357848906629
 33
0.0
  0
MTEXT
  5
4A
330
44
100
AcDbEntity
  8
0
  6
ByBlock
 62
     3
100
AcDbMText
 10
420.4875440370267
 20
308.3578489066287
 30
0.0
 40
5.25
 41
0.0
 71
     5
 72
     1
  1
\A1;220
  7
NORM
 11
0.0000000000000001
 21
1.0
 31
0.0
 73
     1
 44
1.0
  0
POINT
  5
4B
330
44
100
AcDbEntity
  8
DEFPOINTS
  6
ByBlock
 62
     0
100
AcDbPoint
 10
444.6222937432581
 20
418.3578489066285
 30
0.0
  0
POINT
  5
4C
330
44
100
AcDbEntity
  8
DEFPOINTS
  6
ByBlock
 62
     0
100
AcDbPoint
 10
444.6222937432581
 20
198.357848906629
 30
0.0
  0
POINT
  5
4D
330
44
100
AcDbEntity
  8
DEFPOINTS
  6
ByBlock
 62
     0
100
AcDbPoint
 10
424.6125440370267
 20
198.357848906629
 30
0.0
  0
ENDBLK
  5
4F
330
44
100
AcDbEntity
  8
0
100
AcDbBlockEnd
  0
BLOCK
  5
68
330
5E
100
AcDbEntity
  8
0
100
AcDbBlockBegin
  2
*D5
 70
     1
 10
0.0
 20
0.0
 30
0.0
  3
*D5
  1
ACA_CFG
  0
LINE
  5
5F
330
5E
100
AcDbEntity
  8
0
  6
ByBlock
 62
     2
100
AcDbLine
 10
356.7655791102779
 20
323.3578489066289
 30
0.0
 11
372.4255956178878
 21
323.3578489066289
 31
0.0
  0
LINE
  5
60
330
5E
100
AcDbEntity
  8
0
  6
ByBlock
 62
     2
100
AcDbLine
 10
358.8655791102778
 20
245.3578489066289
 30
0.0
 11
372.4255956178878
 21
245.3578489066289
 31
0.0
  0
LINE
  5
61
330
5E
100
AcDbEntity
  8
0
  6
ByBlock
 62
     2
100
AcDbLine
 10
370.4755956178878
 20
318.1078489066289
 30
0.0
 11
370.4755956178878
 21
250.6078489066289
 31
0.0
  0
SOLID
  5
62
330
5E
100
AcDbEntity
  8
0
  6
ByBlock
 62
     2
100
AcDbTrace
 10
369.6005956178878
 20
318.1078489066289
 30
0.0
 11
371.3505956178878
 21
318.1078489066289
 31
0.0
 12
370.4755956178878
 22
323.3578489066289
 32
0.0
 13
370.4755956178878
 23
323.3578489066289
 33
0.0
  0
SOLID
  5
63
330
5E
100
AcDbEntity
  8
0
  6
ByBlock
 62
     2
100
AcDbTrace
 10
369.6005956178878
 20
250.6078489066289
 30
0.0
 11
371.3505956178878
 21
250.6078489066289
 31
0.0
 12
370.4755956178878
 22
245.3578489066289
 32
0.0
 13
370.4755956178878
 23
245.3578489066289
 33
0.0
  0
MTEXT
  5
64
330
5E
100
AcDbEntity
  8
0
  6
ByBlock
 62
     3
100
AcDbMText
 10
366.3505956178878
 20
284.357848906629
 30
0.0
 40
5.25
 41
0.0
 71
     5
 72
     1
  1
\A1;78
  7
NORM
 11
0.0000000000000001
 21
1.0
 31
0.0
 73
     1
 44
1.0
  0
POINT
  5
65
330
5E
100
AcDbEntity
  8
DEFPOINTS
  6
ByBlock
 62
     0
100
AcDbPoint
 10
356.0155791102779
 20
323.3578489066289
 30
0.0
  0
POINT
  5
66
330
5E
100
AcDbEntity
  8
DEFPOINTS
  6
ByBlock
 62
     0
100
AcDbPoint
 10
358.1155791102778
 20
245.3578489066289
 30
0.0
  0
POINT
  5
67
330
5E
100
AcDbEntity
  8
DEFPOINTS
  6
ByBlock
 62
     0
100
AcDbPoint
 10
370.4755956178878
 20
245.3578489066289
 30
0.0
  0
ENDBLK
  5
69
330
5E
100
AcDbEntity
  8
0
100
AcDbBlockEnd
  0
BLOCK
  5
75
330
6B
100
AcDbEntity
  8
0
100
AcDbBlockBegin
  2
*D6
 70
     1
 10
0.0
 20
0.0
 30
0.0
  3
*D6
  1
ACA_CFG
  0
LINE
  5
6C
330
6B
100
AcDbEntity
  8
0
  6
ByBlock
 62
     2
100
AcDbLine
 10
302.7655791102779
 20
336.3578489066285
 30
0.0
 11
276.8938557715691
 21
336.3578489066285
 31
0.0
  0
LINE
  5
6D
330
6B
100
AcDbEntity
  8
0
  6
ByBlock
 62
     2
100
AcDbLine
 10
300.7655791102779
 20
282.3578489066285
 30
0.0
 11
276.8938557715691
 21
282.3578489066285
 31
0.0
  0
LINE
  5
6E
330
6B
100
AcDbEntity
  8
0
  6
ByBlock
 62
     2
100
AcDbLine
 10
278.8438557715691
 20
331.1078489066285
 30
0.0
 11
278.8438557715691
 21
287.6078489066285
 31
0.0
  0
SOLID
  5
6F
330
6B
100
AcDbEntity
  8
0
  6
ByBlock
 62
     2
100
AcDbTrace
 10
277.9688557715691
 20
331.1078489066285
 30
0.0
 11
279.7188557715691
 21
331.1078489066285
 31
0.0
 12
278.8438557715691
 22
336.3578489066285
 32
0.0
 13
278.8438557715691
 23
336.3578489066285
 33
0.0
  0
SOLID
  5
70
330
6B
100
AcDbEntity
  8
0
  6
ByBlock
 62
     2
100
AcDbTrace
 10
277.9688557715691
 20
287.6078489066285
 30
0.0
 11
279.7188557715691
 21
287.6078489066285
 31
0.0
 12
278.8438557715691
 22
282.3578489066285
 32
0.0
 13
278.8438557715691
 23
282.3578489066285
 33
0.0
  0
MTEXT
  5
71
330
6B
100
AcDbEntity
  8
0
  6
ByBlock
 62
     3
100
AcDbMText
 10
274.7188557715691
 20
309.3578489066285
 30
0.0
 40
5.25
 41
0.0
 71
     5
 72
     1
  1
\A1;54
  7
NORM
 11
0.0000000000000001
 21
1.0
 31
0.0
 73
     1
 44
1.0
  0
POINT
  5
72
330
6B
100
AcDbEntity
  8
DEFPOINTS
  6
ByBlock
 62
     0
100
AcDbPoint
 10
303.5155791102779
 20
336.3578489066285
 30
0.0
  0
POINT
  5
73
330
6B
100
AcDbEntity
  8
DEFPOINTS
  6
ByBlock
 62
     0
100
AcDbPoint
 10
301.5155791102779
 20
282.3578489066285
 30
0.0
  0
POINT
  5
74
330
6B
100
AcDbEntity
  8
DEFPOINTS
  6
ByBlock
 62
     0
100
AcDbPoint
 10
278.8438557715691
 20
282.3578489066285
 30
0.0
  0
ENDBLK
  5
76
330
6B
100
AcDbEntity
  8
0
100
AcDbBlockEnd
  0
BLOCK
  5
5B
330
51
100
AcDbEntity
  8
0
100
AcDbBlockBegin
  2
*D7
 70
     1
 10
0.0
 20
0.0
 30
0.0
  3
*D7
  1
ACA_CFG
  0
LINE
  5
52
330
51
100
AcDbEntity
  8
0
  6
ByBlock
 62
     2
100
AcDbLine
 10
343.7655791102752
 20
398.3578489066289
 30
0.0
 11
384.2967588865078
 21
398.3578489066289
 31
0.0
  0
LINE
  5
53
330
51
100
AcDbEntity
  8
0
  6
ByBlock
 62
     2
100
AcDbLine
 10
343.765579110277
 20
218.3578489066289
 30
0.0
 11
384.2967588865078
 21
218.3578489066289
 31
0.0
  0
LINE
  5
54
330
51
100
AcDbEntity
  8
0
  6
ByBlock
 62
     2
100
AcDbLine
 10
382.3467588865078
 20
393.1078489066289
 30
0.0
 11
382.3467588865078
 21
223.607848906629
 31
0.0
  0
SOLID
  5
55
330
51
100
AcDbEntity
  8
0
  6
ByBlock
 62
     2
100
AcDbTrace
 10
381.4717588865078
 20
393.1078489066289
 30
0.0
 11
383.2217588865077
 21
393.1078489066289
 31
0.0
 12
382.3467588865078
 22
398.3578489066289
 32
0.0
 13
382.3467588865078
 23
398.3578489066289
 33
0.0
  0
SOLID
  5
56
330
51
100
AcDbEntity
  8
0
  6
ByBlock
 62
     2
100
AcDbTrace
 10
381.4717588865078
 20
223.607848906629
 30
0.0
 11
383.2217588865077
 21
223.607848906629
 31
0.0
 12
382.3467588865078
 22
218.3578489066289
 32
0.0
 13
382.3467588865078
 23
218.3578489066289
 33
0.0
  0
MTEXT
  5
57
330
51
100
AcDbEntity
  8
0
  6
ByBlock
 62
     3
100
AcDbMText
 10
378.2217588865078
 20
308.3578489066289
 30
0.0
 40
5.25
 41
0.0
 71
     5
 72
     1
  1
\A1;180
  7
NORM
 11
0.0000000000000001
 21
1.0
 31
0.0
 73
     1
 44
1.0
  0
POINT
  5
58
330
51
100
AcDbEntity
  8
DEFPOINTS
  6
ByBlock
 62
     0
100
AcDbPoint
 10
343.0155791102752
 20
398.3578489066289
 30
0.0
  0
POINT
  5
59
330
51
100
AcDbEntity
  8
DEFPOINTS
  6
ByBlock
 62
     0
100
AcDbPoint
 10
343.015579110277
 20
218.3578489066289
 30
0.0
  0
POINT
  5
5A
330
51
100
AcDbEntity
  8
DEFPOINTS
  6
ByBlock
 62
     0
100
AcDbPoint
 10
382.3467588865078
 20
218.3578489066289
 30
0.0
  0
ENDBLK
  5
5C
330
51
100
AcDbEntity
  8
0
100
AcDbBlockEnd
  0
BLOCK
  5
A7
330
9A
100
AcDbEntity
  8
0
100
AcDbBlockBegin
  2
*D8
 70
     1
 10
0.0
 20
0.0
 30
0.0
  3
*D8
  1
ACA_CFG
  0
LINE
  5
9B
330
9A
100
AcDbEntity
  8
0
  6
ByBlock
 62
     2
100
AcDbLine
 10
443.872293743258
 20
198.357848906629
 30
0.0
 11
422.6625440370267
 21
198.357848906629
 31
0.0
  0
LINE
  5
9C
330
9A
100
AcDbEntity
  8
0
  6
ByBlock
 62
     2
100
AcDbLine
 10
441.8222937432578
 20
188.3578489066289
 30
0.0
 11
422.6625440370267
 21
188.3578489066289
 31
0.0
  0
LINE
  5
9D
330
9A
100
AcDbEntity
  8
0
  6
ByBlock
 62
     2
100
AcDbLine
 10
424.6125440370267
 20
203.6078489066289
 30
0.0
 11
424.6125440370267
 21
208.8578489066289
 31
0.0
  0
LINE
  5
9E
330
9A
100
AcDbEntity
  8
0
  6
ByBlock
 62
     2
100
AcDbLine
 10
424.6125440370267
 20
183.1078489066289
 30
0.0
 11
424.6125440370267
 21
177.8578489066289
 31
0.0
  0
MTEXT
  5
9F
330
9A
100
AcDbEntity
  8
0
  6
ByBlock
 62
     3
100
AcDbMText
 10
420.991207781129
 20
193.3006775639854
 30
0.0
 40
5.25
 41
0.0
 71
     5
 72
     1
  1
\A1;10
  7
NORM
 11
0.0000000000000001
 21
1.0
 31
0.0
 73
     1
 44
1.0
  0
LINE
  5
A0
330
9A
100
AcDbEntity
  8
0
  6
ByBlock
 62
     2
100
AcDbLine
 10
424.6125440370267
 20
198.357848906629
 30
0.0
 11
424.6125440370267
 21
188.3578489066289
 31
0.0
  0
LINE
  5
A1
330
9A
100
AcDbEntity
  8
0
  6
ByBlock
 62
     2
100
AcDbLine
 10
424.6125440370267
 20
198.357848906629
 30
0.0
 11
424.6125440370267
 21
188.3578489066289
 31
0.0
  0
SOLID
  5
A2
330
9A
100
AcDbEntity
  8
0
  6
ByBlock
 62
     2
100
AcDbTrace
 10
423.7375440370267
 20
203.6078489066289
 30
0.0
 11
425.4875440370267
 21
203.6078489066289
 31
0.0
 12
424.6125440370267
 22
198.357848906629
 32
0.0
 13
424.6125440370267
 23
198.357848906629
 33
0.0
  0
SOLID
  5
A3
330
9A
100
AcDbEntity
  8
0
  6
ByBlock
 62
     2
100
AcDbTrace
 10
423.7375440370267
 20
183.1078489066289
 30
0.0
 11
425.4875440370267
 21
183.1078489066289
 31
0.0
 12
424.6125440370267
 22
188.3578489066289
 32
0.0
 13
424.6125440370267
 23
188.3578489066289
 33
0.0
  0
POINT
  5
A4
330
9A
100
AcDbEntity
  8
DEFPOINTS
  6
ByBlock
 62
     0
100
AcDbPoint
 10
444.6222937432581
 20
198.357848906629
 30
0.0
  0
POINT
  5
A5
330
9A
100
AcDbEntity
  8
DEFPOINTS
  6
ByBlock
 62
     0
100
AcDbPoint
 10
442.5722937432579
 20
188.3578489066289
 30
0.0
  0
POINT
  5
A6
330
9A
100
AcDbEntity
  8
DEFPOINTS
  6
ByBlock
 62
     0
100
AcDbPoint
 10
424.6125440370267
 20
188.3578489066289
 30
0.0
  0
ENDBLK
  5
A8
330
9A
100
AcDbEntity
  8
0
100
AcDbBlockEnd
  0
BLOCK
  5
CF
330
C5
100
AcDbEntity
  8
0
100
AcDbBlockBegin
  2
*D9
 70
     1
 10
0.0
 20
0.0
 30
0.0
  3
*D9
  1
ACA_CFG
  0
LINE
  5
C6
330
C5
100
AcDbEntity
  8
0
  6
ByBlock
 62
     2
100
AcDbLine
 10
315.7655791102779
 20
218.3578489066289
 30
0.0
 11
287.4755972030104
 21
218.3578489066289
 31
0.0
  0
LINE
  5
C7
330
C5
100
AcDbEntity
  8
0
  6
ByBlock
 62
     2
100
AcDbLine
 10
312.7655791102779
 20
188.3578489066289
 30
0.0
 11
287.4755972030104
 21
188.3578489066289
 31
0.0
  0
LINE
  5
C8
330
C5
100
AcDbEntity
  8
0
  6
ByBlock
 62
     2
100
AcDbLine
 10
289.4255972030104
 20
213.1078489066289
 30
0.0
 11
289.4255972030104
 21
193.6078489066289
 31
0.0
  0
SOLID
  5
C9
330
C5
100
AcDbEntity
  8
0
  6
ByBlock
 62
     2
100
AcDbTrace
 10
288.5505972030104
 20
213.1078489066289
 30
0.0
 11
290.3005972030104
 21
213.1078489066289
 31
0.0
 12
289.4255972030104
 22
218.3578489066289
 32
0.0
 13
289.4255972030104
 23
218.3578489066289
 33
0.0
  0
SOLID
  5
CA
330
C5
100
AcDbEntity
  8
0
  6
ByBlock
 62
     2
100
AcDbTrace
 10
288.5505972030104
 20
193.6078489066289
 30
0.0
 11
290.3005972030104
 21
193.6078489066289
 31
0.0
 12
289.4255972030104
 22
188.3578489066289
 32
0.0
 13
289.4255972030104
 23
188.3578489066289
 33
0.0
  0
MTEXT
  5
CB
330
C5
100
AcDbEntity
  8
0
  6
ByBlock
 62
     3
100
AcDbMText
 10
285.3005972030104
 20
203.357848906629
 30
0.0
 40
5.25
 41
0.0
 71
     5
 72
     1
  1
\A1;30
  7
NORM
 11
0.0000000000000001
 21
1.0
 31
0.0
 73
     1
 44
1.0
  0
POINT
  5
CC
330
C5
100
AcDbEntity
  8
DEFPOINTS
  6
ByBlock
 62
     0
100
AcDbPoint
 10
316.5155791102779
 20
218.3578489066289
 30
0.0
  0
POINT
  5
CD
330
C5
100
AcDbEntity
  8
DEFPOINTS
  6
ByBlock
 62
     0
100
AcDbPoint
 10
313.5155791102779
 20
188.3578489066289
 30
0.0
  0
POINT
  5
CE
330
C5
100
AcDbEntity
  8
DEFPOINTS
  6
ByBlock
 62
     0
100
AcDbPoint
 10
289.4255972030104
 20
188.3578489066289
 30
0.0
  0
ENDBLK
  5
D0
330
C5
100
AcDbEntity
  8
0
100
AcDbBlockEnd
  0
BLOCK
  5
C2
330
B8
100
AcDbEntity
  8
0
100
AcDbBlockBegin
  2
*D10
 70
     1
 10
0.0
 20
0.0
 30
0.0
  3
*D10
  1
ACA_CFG
  0
LINE
  5
B9
330
B8
100
AcDbEntity
  8
0
  6
ByBlock
 62
     2
100
AcDbLine
 10
313.5155791102779
 20
200.1673756267825
 30
0.0
 11
313.5155791102779
 21
197.5508209497589
 31
0.0
  0
LINE
  5
BA
330
B8
100
AcDbEntity
  8
0
  6
ByBlock
 62
     2
100
AcDbLine
 10
343.5155791102779
 20
215.500656064772
 30
0.0
 11
343.5155791102779
 21
197.5508209497589
 31
0.0
  0
LINE
  5
BB
330
B8
100
AcDbEntity
  8
0
  6
ByBlock
 62
     2
100
AcDbLine
 10
318.7655791102779
 20
199.5008209497589
 30
0.0
 11
338.2655791102779
 21
199.5008209497589
 31
0.0
  0
SOLID
  5
BC
330
B8
100
AcDbEntity
  8
0
  6
ByBlock
 62
     2
100
AcDbTrace
 10
318.7655791102779
 20
200.3758209497589
 30
0.0
 11
318.7655791102779
 21
198.6258209497589
 31
0.0
 12
313.5155791102779
 22
199.5008209497589
 32
0.0
 13
313.5155791102779
 23
199.5008209497589
 33
0.0
  0
SOLID
  5
BD
330
B8
100
AcDbEntity
  8
0
  6
ByBlock
 62
     2
100
AcDbTrace
 10
338.2655791102779
 20
200.3758209497589
 30
0.0
 11
338.2655791102779
 21
198.6258209497589
 31
0.0
 12
343.5155791102779
 22
199.5008209497589
 32
0.0
 13
343.5155791102779
 23
199.5008209497589
 33
0.0
  0
MTEXT
  5
BE
330
B8
100
AcDbEntity
  8
0
  6
ByBlock
 62
     3
100
AcDbMText
 10
328.5155791102779
 20
203.6258209497589
 30
0.0
 40
5.25
 41
0.0
 71
     5
 72
     1
  1
\A1;DM
  7
NORM
 73
     1
 44
1.0
  0
POINT
  5
BF
330
B8
100
AcDbEntity
  8
DEFPOINTS
  6
ByBlock
 62
     0
100
AcDbPoint
 10
313.5155791102779
 20
200.9173756267825
 30
0.0
  0
POINT
  5
C0
330
B8
100
AcDbEntity
  8
DEFPOINTS
  6
ByBlock
 62
     0
100
AcDbPoint
 10
343.5155791102779
 20
216.2506560647721
 30
0.0
  0
POINT
  5
C1
330
B8
100
AcDbEntity
  8
DEFPOINTS
  6
ByBlock
 62
     0
100
AcDbPoint
 10
343.5155791102779
 20
199.5008209497589
 30
0.0
  0
ENDBLK
  5
C3
330
B8
100
AcDbEntity
  8
0
100
AcDbBlockEnd
  0
BLOCK
  5
8A
330
80
100
AcDbEntity
  8
0
100
AcDbBlockBegin
  2
*D11
 70
     1
 10
0.0
 20
0.0
 30
0.0
  3
*D11
  1
ACA_CFG
  0
LINE
  5
81
330
80
100
AcDbEntity
  8
0
  6
ByBlock
 62
     2
100
AcDbLine
 10
312.7655791102779
 20
188.3578489066289
 30
0.0
 11
276.8938557715691
 21
188.3578489066289
 31
0.0
  0
LINE
  5
82
330
80
100
AcDbEntity
  8
0
  6
ByBlock
 62
     2
100
AcDbLine
 10
300.7655791102779
 20
250.3578489066285
 30
0.0
 11
276.8938557715691
 21
250.3578489066285
 31
0.0
  0
LINE
  5
83
330
80
100
AcDbEntity
  8
0
  6
ByBlock
 62
     2
100
AcDbLine
 10
278.8438557715691
 20
193.6078489066289
 30
0.0
 11
278.8438557715691
 21
245.1078489066285
 31
0.0
  0
SOLID
  5
84
330
80
100
AcDbEntity
  8
0
  6
ByBlock
 62
     2
100
AcDbTrace
 10
277.9688557715691
 20
193.6078489066289
 30
0.0
 11
279.7188557715691
 21
193.6078489066289
 31
0.0
 12
278.8438557715691
 22
188.3578489066289
 32
0.0
 13
278.8438557715691
 23
188.3578489066289
 33
0.0
  0
SOLID
  5
85
330
80
100
AcDbEntity
  8
0
  6
ByBlock
 62
     2
100
AcDbTrace
 10
277.9688557715691
 20
245.1078489066285
 30
0.0
 11
279.7188557715691
 21
245.1078489066285
 31
0.0
 12
278.8438557715691
 22
250.3578489066285
 32
0.0
 13
278.8438557715691
 23
250.3578489066285
 33
0.0
  0
MTEXT
  5
86
330
80
100
AcDbEntity
  8
0
  6
ByBlock
 62
     3
100
AcDbMText
 10
274.7188557715691
 20
219.3578489066287
 30
0.0
 40
5.25
 41
0.0
 71
     5
 72
     1
  1
\A1;62
  7
NORM
 11
0.0000000000000001
 21
1.0
 31
0.0
 73
     1
 44
1.0
  0
POINT
  5
87
330
80
100
AcDbEntity
  8
DEFPOINTS
  6
ByBlock
 62
     0
100
AcDbPoint
 10
313.5155791102779
 20
188.3578489066289
 30
0.0
  0
POINT
  5
88
330
80
100
AcDbEntity
  8
DEFPOINTS
  6
ByBlock
 62
     0
100
AcDbPoint
 10
301.5155791102779
 20
250.3578489066285
 30
0.0
  0
POINT
  5
89
330
80
100
AcDbEntity
  8
DEFPOINTS
  6
ByBlock
 62
     0
100
AcDbPoint
 10
278.8438557715691
 20
250.3578489066285
 30
0.0
  0
ENDBLK
  5
8B
330
80
100
AcDbEntity
  8
0
100
AcDbBlockEnd
  0
BLOCK
  5
B4
330
AA
100
AcDbEntity
  8
0
100
AcDbBlockBegin
  2
*D12
 70
     1
 10
0.0
 20
0.0
 30
0.0
  3
*D12
  1
ACA_CFG
  0
LINE
  5
AB
330
AA
100
AcDbEntity
  8
0
  6
ByBlock
 62
     2
100
AcDbLine
 10
343.5155791102779
 20
215.500656064772
 30
0.0
 11
343.5155791102779
 21
197.5508209497589
 31
0.0
  0
LINE
  5
AC
330
AA
100
AcDbEntity
  8
0
  6
ByBlock
 62
     2
100
AcDbLine
 10
359.5155791102779
 20
233.6078489066288
 30
0.0
 11
359.5155791102779
 21
197.5508209497589
 31
0.0
  0
LINE
  5
AD
330
AA
100
AcDbEntity
  8
0
  6
ByBlock
 62
     2
100
AcDbLine
 10
348.7655791102779
 20
199.5008209497589
 30
0.0
 11
354.2655791102779
 21
199.5008209497589
 31
0.0
  0
SOLID
  5
AE
330
AA
100
AcDbEntity
  8
0
  6
ByBlock
 62
     2
100
AcDbTrace
 10
348.7655791102779
 20
200.3758209497589
 30
0.0
 11
348.7655791102779
 21
198.6258209497589
 31
0.0
 12
343.5155791102779
 22
199.5008209497589
 32
0.0
 13
343.5155791102779
 23
199.5008209497589
 33
0.0
  0
SOLID
  5
AF
330
AA
100
AcDbEntity
  8
0
  6
ByBlock
 62
     2
100
AcDbTrace
 10
354.2655791102779
 20
200.3758209497589
 30
0.0
 11
354.2655791102779
 21
198.6258209497589
 31
0.0
 12
359.5155791102779
 22
199.5008209497589
 32
0.0
 13
359.5155791102779
 23
199.5008209497589
 33
0.0
  0
MTEXT
  5
B0
330
AA
100
AcDbEntity
  8
0
  6
ByBlock
 62
     3
100
AcDbMText
 10
351.5155791102779
 20
203.6258209497589
 30
0.0
 40
5.25
 41
0.0
 71
     5
 72
     1
  1
\A1;16
  7
NORM
 73
     1
 44
1.0
  0
POINT
  5
B1
330
AA
100
AcDbEntity
  8
DEFPOINTS
  6
ByBlock
 62
     0
100
AcDbPoint
 10
343.5155791102779
 20
216.2506560647721
 30
0.0
  0
POINT
  5
B2
330
AA
100
AcDbEntity
  8
DEFPOINTS
  6
ByBlock
 62
     0
100
AcDbPoint
 10
359.5155791102779
 20
234.3578489066288
 30
0.0
  0
POINT
  5
B3
330
AA
100
AcDbEntity
  8
DEFPOINTS
  6
ByBlock
 62
     0
100
AcDbPoint
 10
359.5155791102779
 20
199.5008209497589
 30
0.0
  0
ENDBLK
  5
B5
330
AA
100
AcDbEntity
  8
0
100
AcDbBlockEnd
  0
BLOCK
  5
E2
330
D5
100
AcDbEntity
  8
0
100
AcDbBlockBegin
  2
*D13
 70
     1
 10
0.0
 20
0.0
 30
0.0
  3
*D13
  1
ACA_CFG
  0
LINE
  5
D6
330
D5
100
AcDbEntity
  8
0
  6
ByBlock
 62
     2
100
AcDbLine
 10
317.1071062962212
 20
141.4555008334672
 30
0.0
 11
331.3298988746634
 21
141.4555008334672
 31
0.0
  0
LINE
  5
D7
330
D5
100
AcDbEntity
  8
0
  6
ByBlock
 62
     2
100
AcDbLine
 10
328.6298988746634
 20
139.6555008334673
 30
0.0
 11
327.4298988746634
 21
139.6555008334673
 31
0.0
  0
LINE
  5
D8
330
D5
100
AcDbEntity
  8
0
  6
ByBlock
 62
     2
100
AcDbLine
 10
329.3798988746634
 20
146.7055008334672
 30
0.0
 11
329.3798988746634
 21
151.9555008334672
 31
0.0
  0
LINE
  5
D9
330
D5
100
AcDbEntity
  8
0
  6
ByBlock
 62
     2
100
AcDbLine
 10
329.3798988746634
 20
134.4055008334673
 30
0.0
 11
329.3798988746634
 21
129.1555008334673
 31
0.0
  0
MTEXT
  5
DA
330
D5
100
AcDbEntity
  8
0
  6
ByBlock
 62
     3
100
AcDbMText
 10
323.981963590154
 20
148.9793145672181
 30
0.0
 40
5.25
 41
0.0
 71
     5
 72
     1
  1
\A1;1.8
  7
NORM
 11
0.0000000000000001
 21
1.0
 31
0.0
 73
     1
 44
1.0
  0
LINE
  5
DB
330
D5
100
AcDbEntity
  8
0
  6
ByBlock
 62
     2
100
AcDbLine
 10
329.3798988746634
 20
141.4555008334672
 30
0.0
 11
329.3798988746634
 21
139.6555008334673
 31
0.0
  0
LINE
  5
DC
330
D5
100
AcDbEntity
  8
0
  6
ByBlock
 62
     2
100
AcDbLine
 10
329.3798988746634
 20
141.4555008334672
 30
0.0
 11
329.3798988746634
 21
139.6555008334673
 31
0.0
  0
SOLID
  5
DD
330
D5
100
AcDbEntity
  8
0
  6
ByBlock
 62
     2
100
AcDbTrace
 10
328.5048988746634
 20
146.7055008334672
 30
0.0
 11
330.2548988746634
 21
146.7055008334672
 31
0.0
 12
329.3798988746634
 22
141.4555008334672
 32
0.0
 13
329.3798988746634
 23
141.4555008334672
 33
0.0
  0
SOLID
  5
DE
330
D5
100
AcDbEntity
  8
0
  6
ByBlock
 62
     2
100
AcDbTrace
 10
328.5048988746634
 20
134.4055008334673
 30
0.0
 11
330.2548988746634
 21
134.4055008334673
 31
0.0
 12
329.3798988746634
 22
139.6555008334673
 32
0.0
 13
329.3798988746634
 23
139.6555008334673
 33
0.0
  0
POINT
  5
DF
330
D5
100
AcDbEntity
  8
DEFPOINTS
  6
ByBlock
 62
     0
100
AcDbPoint
 10
316.3571062962212
 20
141.4555008334672
 30
0.0
  0
POINT
  5
E0
330
D5
100
AcDbEntity
  8
DEFPOINTS
  6
ByBlock
 62
     0
100
AcDbPoint
 10
329.3798988746634
 20
139.6555008334673
 30
0.0
  0
POINT
  5
E1
330
D5
100
AcDbEntity
  8
DEFPOINTS
  6
ByBlock
 62
     0
100
AcDbPoint
 10
329.3798988746634
 20
139.6555008334673
 30
0.0
  0
ENDBLK
  5
E3
330
D5
100
AcDbEntity
  8
0
100
AcDbBlockEnd
  0
BLOCK
  5
F4
330
E9
100
AcDbEntity
  8
0
100
AcDbBlockBegin
  2
*D14
 70
     1
 10
0.0
 20
0.0
 30
0.0
  3
*D14
  1
ACA_CFG
  0
LINE
  5
EA
330
E9
100
AcDbEntity
  8
0
  6
ByBlock
 62
     2
100
AcDbLine
 10
359.6071062962214
 20
139.6555008334674
 30
0.0
 11
370.0879864168415
 21
139.6555008334674
 31
0.0
  0
LINE
  5
EB
330
E9
100
AcDbEntity
  8
0
  6
ByBlock
 62
     2
100
AcDbLine
 10
359.6071062962214
 20
125.6555008334675
 30
0.0
 11
370.0879864168415
 21
125.6555008334675
 31
0.0
  0
LINE
  5
EC
330
E9
100
AcDbEntity
  8
0
  6
ByBlock
 62
     2
100
AcDbLine
 10
368.1379864168416
 20
134.4055008334674
 30
0.0
 11
368.1379864168416
 21
132.9055008334675
 31
0.0
  0
LINE
  5
ED
330
E9
100
AcDbEntity
  8
0
  6
ByBlock
 62
     2
100
AcDbLine
 10
368.1379864168416
 20
130.9055008334675
 30
0.0
 11
368.1379864168416
 21
132.4055008334674
 31
0.0
  0
MTEXT
  5
EE
330
E9
100
AcDbEntity
  8
0
  6
ByBlock
 62
     3
100
AcDbMText
 10
364.3872039911325
 20
132.6555008334675
 30
0.0
 40
5.25
 41
0.0
 71
     5
 72
     1
  1
\A1;14
  7
NORM
 11
0.0000000000000001
 21
1.0
 31
0.0
 73
     1
 44
1.0
  0
SOLID
  5
EF
330
E9
100
AcDbEntity
  8
0
  6
ByBlock
 62
     2
100
AcDbTrace
 10
367.2629864168416
 20
134.4055008334674
 30
0.0
 11
369.0129864168416
 21
134.4055008334674
 31
0.0
 12
368.1379864168416
 22
139.6555008334674
 32
0.0
 13
368.1379864168416
 23
139.6555008334674
 33
0.0
  0
SOLID
  5
F0
330
E9
100
AcDbEntity
  8
0
  6
ByBlock
 62
     2
100
AcDbTrace
 10
367.2629864168416
 20
130.9055008334675
 30
0.0
 11
369.0129864168416
 21
130.9055008334675
 31
0.0
 12
368.1379864168416
 22
125.6555008334675
 32
0.0
 13
368.1379864168416
 23
125.6555008334675
 33
0.0
  0
POINT
  5
F1
330
E9
100
AcDbEntity
  8
DEFPOINTS
  6
ByBlock
 62
     0
100
AcDbPoint
 10
358.8571062962214
 20
139.6555008334674
 30
0.0
  0
POINT
  5
F2
330
E9
100
AcDbEntity
  8
DEFPOINTS
  6
ByBlock
 62
     0
100
AcDbPoint
 10
358.8571062962214
 20
125.6555008334675
 30
0.0
  0
POINT
  5
F3
330
E9
100
AcDbEntity
  8
DEFPOINTS
  6
ByBlock
 62
     0
100
AcDbPoint
 10
368.1379864168416
 20
125.6555008334675
 30
0.0
  0
ENDBLK
  5
F5
330
E9
100
AcDbEntity
  8
0
100
AcDbBlockEnd
  0
BLOCK
  5
97
330
8D
100
AcDbEntity
  8
0
100
AcDbBlockBegin
  2
*D15
 70
     1
 10
0.0
 20
0.0
 30
0.0
  3
*D15
  1
ACA_CFG
  0
LINE
  5
8E
330
8D
100
AcDbEntity
  8
0
  6
ByBlock
 62
     2
100
AcDbLine
 10
300.7655791102779
 20
282.3578489066285
 30
0.0
 11
276.8938557715691
 21
282.3578489066285
 31
0.0
  0
LINE
  5
8F
330
8D
100
AcDbEntity
  8
0
  6
ByBlock
 62
     2
100
AcDbLine
 10
300.7655791102779
 20
250.3578489066285
 30
0.0
 11
276.8938557715691
 21
250.3578489066285
 31
0.0
  0
LINE
  5
90
330
8D
100
AcDbEntity
  8
0
  6
ByBlock
 62
     2
100
AcDbLine
 10
278.8438557715691
 20
277.1078489066285
 30
0.0
 11
278.8438557715691
 21
255.6078489066285
 31
0.0
  0
SOLID
  5
91
330
8D
100
AcDbEntity
  8
0
  6
ByBlock
 62
     2
100
AcDbTrace
 10
277.9688557715691
 20
277.1078489066285
 30
0.0
 11
279.7188557715691
 21
277.1078489066285
 31
0.0
 12
278.8438557715691
 22
282.3578489066285
 32
0.0
 13
278.8438557715691
 23
282.3578489066285
 33
0.0
  0
SOLID
  5
92
330
8D
100
AcDbEntity
  8
0
  6
ByBlock
 62
     2
100
AcDbTrace
 10
277.9688557715691
 20
255.6078489066285
 30
0.0
 11
279.7188557715691
 21
255.6078489066285
 31
0.0
 12
278.8438557715691
 22
250.3578489066285
 32
0.0
 13
278.8438557715691
 23
250.3578489066285
 33
0.0
  0
MTEXT
  5
93
330
8D
100
AcDbEntity
  8
0
  6
ByBlock
 62
     3
100
AcDbMText
 10
274.7188557715691
 20
266.3578489066285
 30
0.0
 40
5.25
 41
0.0
 71
     5
 72
     1
  1
\A1;32
  7
NORM
 11
0.0000000000000001
 21
1.0
 31
0.0
 73
     1
 44
1.0
  0
POINT
  5
94
330
8D
100
AcDbEntity
  8
DEFPOINTS
  6
ByBlock
 62
     0
100
AcDbPoint
 10
301.5155791102779
 20
282.3578489066285
 30
0.0
  0
POINT
  5
95
330
8D
100
AcDbEntity
  8
DEFPOINTS
  6
ByBlock
 62
     0
100
AcDbPoint
 10
301.5155791102779
 20
250.3578489066285
 30
0.0
  0
POINT
  5
96
330
8D
100
AcDbEntity
  8
DEFPOINTS
  6
ByBlock
 62
     0
100
AcDbPoint
 10
278.8438557715691
 20
250.3578489066285
 30
0.0
  0
ENDBLK
  5
98
330
8D
100
AcDbEntity
  8
0
100
AcDbBlockEnd
  0
BLOCK
  5
128
330
11E
100
AcDbEntity
  8
0
100
AcDbBlockBegin
  2
*D16
 70
     1
 10
0.0
 20
0.0
 30
0.0
  3
*D16
  1
ACA_CFG
  0
LINE
  5
11F
330
11E
100
AcDbEntity
  8
0
  6
ByBlock
 62
     2
100
AcDbLine
 10
300.7655791102779
 20
250.3578489066285
 30
0.0
 11
287.4755972030104
 21
250.3578489066285
 31
0.0
  0
LINE
  5
120
330
11E
100
AcDbEntity
  8
0
  6
ByBlock
 62
     2
100
AcDbLine
 10
315.7655791102779
 20
218.3578489066289
 30
0.0
 11
287.4755972030104
 21
218.3578489066289
 31
0.0
  0
LINE
  5
121
330
11E
100
AcDbEntity
  8
0
  6
ByBlock
 62
     2
100
AcDbLine
 10
289.4255972030104
 20
245.1078489066285
 30
0.0
 11
289.4255972030104
 21
223.607848906629
 31
0.0
  0
SOLID
  5
122
330
11E
100
AcDbEntity
  8
0
  6
ByBlock
 62
     2
100
AcDbTrace
 10
288.5505972030104
 20
245.1078489066285
 30
0.0
 11
290.3005972030104
 21
245.1078489066285
 31
0.0
 12
289.4255972030104
 22
250.3578489066285
 32
0.0
 13
289.4255972030104
 23
250.3578489066285
 33
0.0
  0
SOLID
  5
123
330
11E
100
AcDbEntity
  8
0
  6
ByBlock
 62
     2
100
AcDbTrace
 10
288.5505972030104
 20
223.607848906629
 30
0.0
 11
290.3005972030104
 21
223.607848906629
 31
0.0
 12
289.4255972030104
 22
218.3578489066289
 32
0.0
 13
289.4255972030104
 23
218.3578489066289
 33
0.0
  0
MTEXT
  5
124
330
11E
100
AcDbEntity
  8
0
  6
ByBlock
 62
     3
100
AcDbMText
 10
285.3005972030104
 20
234.3578489066287
 30
0.0
 40
5.25
 41
0.0
 71
     5
 72
     1
  1
\A1;32
  7
NORM
 11
0.0000000000000001
 21
1.0
 31
0.0
 73
     1
 44
1.0
  0
POINT
  5
125
330
11E
100
AcDbEntity
  8
DEFPOINTS
  6
ByBlock
 62
     0
100
AcDbPoint
 10
301.5155791102779
 20
250.3578489066285
 30
0.0
  0
POINT
  5
126
330
11E
100
AcDbEntity
  8
DEFPOINTS
  6
ByBlock
 62
     0
100
AcDbPoint
 10
316.5155791102779
 20
218.3578489066289
 30
0.0
  0
POINT
  5
127
330
11E
100
AcDbEntity
  8
DEFPOINTS
  6
ByBlock
 62
     0
100
AcDbPoint
 10
289.4255972030104
 20
218.3578489066289
 30
0.0
  0
ENDBLK
  5
129
330
11E
100
AcDbEntity
  8
0
100
AcDbBlockEnd
  0
BLOCK
  5
139
330
12C
100
AcDbEntity
  8
0
100
AcDbBlockBegin
  2
*D17
 70
     1
 10
0.0
 20
0.0
 30
0.0
  3
*D17
  1
ACA_CFG
  0
LINE
  5
12D
330
12C
100
AcDbEntity
  8
0
  6
ByBlock
 62
     2
100
AcDbLine
 10
301.5155791102779
 20
249.6078489066285
 30
0.0
 11
301.5155791102779
 21
237.1903517949454
 31
0.0
  0
LINE
  5
12E
330
12C
100
AcDbEntity
  8
0
  6
ByBlock
 62
     2
100
AcDbLine
 10
313.5155791102779
 20
239.044058718835
 30
0.0
 11
313.5155791102779
 21
241.0903517949453
 31
0.0
  0
LINE
  5
12F
330
12C
100
AcDbEntity
  8
0
  6
ByBlock
 62
     2
100
AcDbLine
 10
296.2655791102779
 20
239.1403517949453
 30
0.0
 11
291.0155791102779
 21
239.1403517949453
 31
0.0
  0
LINE
  5
130
330
12C
100
AcDbEntity
  8
0
  6
ByBlock
 62
     2
100
AcDbLine
 10
318.7655791102779
 20
239.1403517949453
 30
0.0
 11
324.0155791102779
 21
239.1403517949453
 31
0.0
  0
MTEXT
  5
131
330
12C
100
AcDbEntity
  8
0
  6
ByBlock
 62
     3
100
AcDbMText
 10
307.7077732811958
 20
242.6403517949454
 30
0.0
 40
5.25
 41
0.0
 71
     5
 72
     1
  1
\A1;12
  7
NORM
 73
     1
 44
1.0
  0
LINE
  5
132
330
12C
100
AcDbEntity
  8
0
  6
ByBlock
 62
     2
100
AcDbLine
 10
301.5155791102779
 20
239.1403517949453
 30
0.0
 11
313.5155791102779
 21
239.1403517949453
 31
0.0
  0
LINE
  5
133
330
12C
100
AcDbEntity
  8
0
  6
ByBlock
 62
     2
100
AcDbLine
 10
301.5155791102779
 20
239.1403517949453
 30
0.0
 11
313.5155791102779
 21
239.1403517949453
 31
0.0
  0
SOLID
  5
134
330
12C
100
AcDbEntity
  8
0
  6
ByBlock
 62
     2
100
AcDbTrace
 10
296.2655791102779
 20
240.0153517949453
 30
0.0
 11
296.2655791102779
 21
238.2653517949453
 31
0.0
 12
301.5155791102779
 22
239.1403517949453
 32
0.0
 13
301.5155791102779
 23
239.1403517949453
 33
0.0
  0
SOLID
  5
135
330
12C
100
AcDbEntity
  8
0
  6
ByBlock
 62
     2
100
AcDbTrace
 10
318.7655791102779
 20
240.0153517949453
 30
0.0
 11
318.7655791102779
 21
238.2653517949453
 31
0.0
 12
313.5155791102779
 22
239.1403517949453
 32
0.0
 13
313.5155791102779
 23
239.1403517949453
 33
0.0
  0
POINT
  5
136
330
12C
100
AcDbEntity
  8
DEFPOINTS
  6
ByBlock
 62
     0
100
AcDbPoint
 10
301.5155791102779
 20
250.3578489066285
 30
0.0
  0
POINT
  5
137
330
12C
100
AcDbEntity
  8
DEFPOINTS
  6
ByBlock
 62
     0
100
AcDbPoint
 10
313.5155791102779
 20
238.294058718835
 30
0.0
  0
POINT
  5
138
330
12C
100
AcDbEntity
  8
DEFPOINTS
  6
ByBlock
 62
     0
100
AcDbPoint
 10
313.5155791102779
 20
239.1403517949453
 30
0.0
  0
ENDBLK
  5
13A
330
12C
100
AcDbEntity
  8
0
100
AcDbBlockEnd
  0
BLOCK
  5
147
330
13D
100
AcDbEntity
  8
0
100
AcDbBlockBegin
  2
*D18
 70
     1
 10
0.0
 20
0.0
 30
0.0
  3
*D18
  1
ACA_CFG
  0
LINE
  5
13E
330
13D
100
AcDbEntity
  8
0
  6
ByBlock
 62
     2
100
AcDbLine
 10
358.8655791102778
 20
245.3578489066289
 30
0.0
 11
372.4255956178878
 21
245.3578489066289
 31
0.0
  0
LINE
  5
13F
330
13D
100
AcDbEntity
  8
0
  6
ByBlock
 62
     2
100
AcDbLine
 10
343.7655791102779
 20
218.3578489066289
 30
0.0
 11
372.4255956178878
 21
218.3578489066289
 31
0.0
  0
LINE
  5
140
330
13D
100
AcDbEntity
  8
0
  6
ByBlock
 62
     2
100
AcDbLine
 10
370.4755956178878
 20
240.1078489066289
 30
0.0
 11
370.4755956178878
 21
223.607848906629
 31
0.0
  0
SOLID
  5
141
330
13D
100
AcDbEntity
  8
0
  6
ByBlock
 62
     2
100
AcDbTrace
 10
369.6005956178878
 20
240.1078489066289
 30
0.0
 11
371.3505956178878
 21
240.1078489066289
 31
0.0
 12
370.4755956178878
 22
245.3578489066289
 32
0.0
 13
370.4755956178878
 23
245.3578489066289
 33
0.0
  0
SOLID
  5
142
330
13D
100
AcDbEntity
  8
0
  6
ByBlock
 62
     2
100
AcDbTrace
 10
369.6005956178878
 20
223.607848906629
 30
0.0
 11
371.3505956178878
 21
223.607848906629
 31
0.0
 12
370.4755956178878
 22
218.3578489066289
 32
0.0
 13
370.4755956178878
 23
218.3578489066289
 33
0.0
  0
MTEXT
  5
143
330
13D
100
AcDbEntity
  8
0
  6
ByBlock
 62
     3
100
AcDbMText
 10
366.3505956178878
 20
231.8578489066289
 30
0.0
 40
5.25
 41
0.0
 71
     5
 72
     1
  1
\A1;27
  7
NORM
 11
0.0000000000000001
 21
1.0
 31
0.0
 73
     1
 44
1.0
  0
POINT
  5
144
330
13D
100
AcDbEntity
  8
DEFPOINTS
  6
ByBlock
 62
     0
100
AcDbPoint
 10
358.1155791102778
 20
245.3578489066289
 30
0.0
  0
POINT
  5
145
330
13D
100
AcDbEntity
  8
DEFPOINTS
  6
ByBlock
 62
     0
100
AcDbPoint
 10
343.0155791102779
 20
218.3578489066289
 30
0.0
  0
POINT
  5
146
330
13D
100
AcDbEntity
  8
DEFPOINTS
  6
ByBlock
 62
     0
100
AcDbPoint
 10
370.4755956178878
 20
218.3578489066289
 30
0.0
  0
ENDBLK
  5
148
330
13D
100
AcDbEntity
  8
0
100
AcDbBlockEnd
  0
BLOCK
  5
111
330
107
100
AcDbEntity
  8
0
100
AcDbBlockBegin
  2
*D19
 70
     1
 10
0.0
 20
0.0
 30
0.0
  3
*D19
  1
ACA_CFG
  0
LINE
  5
108
330
107
100
AcDbEntity
  8
0
  6
ByBlock
 62
     2
100
AcDbLine
 10
442.5722937432579
 20
187.6078489066289
 30
0.0
 11
442.5722937432579
 21
175.3134477421589
 31
0.0
  0
LINE
  5
109
330
107
100
AcDbEntity
  8
0
  6
ByBlock
 62
     2
100
AcDbLine
 10
462.5722937432579
 20
187.6078489066289
 30
0.0
 11
462.5722937432579
 21
175.3134477421589
 31
0.0
  0
LINE
  5
10A
330
107
100
AcDbEntity
  8
0
  6
ByBlock
 62
     2
100
AcDbLine
 10
447.8222937432579
 20
177.2634477421589
 30
0.0
 11
457.3222937432579
 21
177.2634477421589
 31
0.0
  0
SOLID
  5
10B
330
107
100
AcDbEntity
  8
0
  6
ByBlock
 62
     2
100
AcDbTrace
 10
447.8222937432579
 20
178.1384477421589
 30
0.0
 11
447.8222937432579
 21
176.3884477421589
 31
0.0
 12
442.5722937432579
 22
177.2634477421589
 32
0.0
 13
442.5722937432579
 23
177.2634477421589
 33
0.0
  0
SOLID
  5
10C
330
107
100
AcDbEntity
  8
0
  6
ByBlock
 62
     2
100
AcDbTrace
 10
457.3222937432579
 20
178.1384477421589
 30
0.0
 11
457.3222937432579
 21
176.3884477421589
 31
0.0
 12
462.5722937432579
 22
177.2634477421589
 32
0.0
 13
462.5722937432579
 23
177.2634477421589
 33
0.0
  0
MTEXT
  5
10D
330
107
100
AcDbEntity
  8
0
  6
ByBlock
 62
     3
100
AcDbMText
 10
452.5722937432578
 20
181.3884477421589
 30
0.0
 40
5.25
 41
0.0
 71
     5
 72
     1
  1
\A1;20
  7
NORM
 73
     1
 44
1.0
  0
POINT
  5
10E
330
107
100
AcDbEntity
  8
DEFPOINTS
  6
ByBlock
 62
     0
100
AcDbPoint
 10
442.5722937432579
 20
188.3578489066289
 30
0.0
  0
POINT
  5
10F
330
107
100
AcDbEntity
  8
DEFPOINTS
  6
ByBlock
 62
     0
100
AcDbPoint
 10
462.5722937432579
 20
188.3578489066289
 30
0.0
  0
POINT
  5
110
330
107
100
AcDbEntity
  8
DEFPOINTS
  6
ByBlock
 62
     0
100
AcDbPoint
 10
462.5722937432579
 20
177.2634477421589
 30
0.0
  0
ENDBLK
  5
112
330
107
100
AcDbEntity
  8
0
100
AcDbBlockEnd
  0
BLOCK
  5
219
330
20C
100
AcDbEntity
  8
0
100
AcDbBlockBegin
  2
*D20
 70
     1
 10
0.0
 20
0.0
 30
0.0
  3
*D20
  1
ACA_CFG
  0
LINE
  5
20D
330
20C
100
AcDbEntity
  8
0
  6
ByBlock
 62
     2
100
AcDbLine
 10
441.8222937432578
 20
428.357848906629
 30
0.0
 11
422.6625440370267
 21
428.357848906629
 31
0.0
  0
LINE
  5
20E
330
20C
100
AcDbEntity
  8
0
  6
ByBlock
 62
     2
100
AcDbLine
 10
443.872293743258
 20
418.3578489066285
 30
0.0
 11
422.6625440370267
 21
418.3578489066285
 31
0.0
  0
LINE
  5
20F
330
20C
100
AcDbEntity
  8
0
  6
ByBlock
 62
     2
100
AcDbLine
 10
424.6125440370267
 20
433.607848906629
 30
0.0
 11
424.6125440370267
 21
438.8578489066289
 31
0.0
  0
LINE
  5
210
330
20C
100
AcDbEntity
  8
0
  6
ByBlock
 62
     2
100
AcDbLine
 10
424.6125440370267
 20
413.1078489066285
 30
0.0
 11
424.6125440370267
 21
407.8578489066285
 31
0.0
  0
MTEXT
  5
211
330
20C
100
AcDbEntity
  8
0
  6
ByBlock
 62
     3
100
AcDbMText
 10
421.3536564197818
 20
423.7519905750618
 30
0.0
 40
5.25
 41
0.0
 71
     5
 72
     1
  1
\A1;10
  7
NORM
 11
0.0000000000000001
 21
1.0
 31
0.0
 73
     1
 44
1.0
  0
LINE
  5
212
330
20C
100
AcDbEntity
  8
0
  6
ByBlock
 62
     2
100
AcDbLine
 10
424.6125440370267
 20
428.357848906629
 30
0.0
 11
424.6125440370267
 21
418.3578489066285
 31
0.0
  0
LINE
  5
213
330
20C
100
AcDbEntity
  8
0
  6
ByBlock
 62
     2
100
AcDbLine
 10
424.6125440370267
 20
428.357848906629
 30
0.0
 11
424.6125440370267
 21
418.3578489066285
 31
0.0
  0
SOLID
  5
214
330
20C
100
AcDbEntity
  8
0
  6
ByBlock
 62
     2
100
AcDbTrace
 10
423.7375440370267
 20
433.607848906629
 30
0.0
 11
425.4875440370267
 21
433.607848906629
 31
0.0
 12
424.6125440370267
 22
428.357848906629
 32
0.0
 13
424.6125440370267
 23
428.357848906629
 33
0.0
  0
SOLID
  5
215
330
20C
100
AcDbEntity
  8
0
  6
ByBlock
 62
     2
100
AcDbTrace
 10
423.7375440370267
 20
413.1078489066285
 30
0.0
 11
425.4875440370267
 21
413.1078489066285
 31
0.0
 12
424.6125440370267
 22
418.3578489066285
 32
0.0
 13
424.6125440370267
 23
418.3578489066285
 33
0.0
  0
POINT
  5
216
330
20C
100
AcDbEntity
  8
DEFPOINTS
  6
ByBlock
 62
     0
100
AcDbPoint
 10
442.5722937432579
 20
428.357848906629
 30
0.0
  0
POINT
  5
217
330
20C
100
AcDbEntity
  8
DEFPOINTS
  6
ByBlock
 62
     0
100
AcDbPoint
 10
444.6222937432581
 20
418.3578489066285
 30
0.0
  0
POINT
  5
218
330
20C
100
AcDbEntity
  8
DEFPOINTS
  6
ByBlock
 62
     0
100
AcDbPoint
 10
424.6125440370267
 20
418.3578489066285
 30
0.0
  0
ENDBLK
  5
21A
330
20C
100
AcDbEntity
  8
0
100
AcDbBlockEnd
  0
BLOCK
  5
192
330
188
100
AcDbEntity
  8
0
100
AcDbBlockBegin
  2
*D21
 70
     1
 10
0.0
 20
0.0
 30
0.0
  3
*D21
  1
ACA_CFG
  0
LINE
  5
189
330
188
100
AcDbEntity
  8
0
  6
ByBlock
 62
     2
100
AcDbLine
 10
315.7655791102779
 20
398.3578489066289
 30
0.0
 11
287.4755972030104
 21
398.3578489066289
 31
0.0
  0
LINE
  5
18A
330
188
100
AcDbEntity
  8
0
  6
ByBlock
 62
     2
100
AcDbLine
 10
302.7655791102779
 20
366.3578489066289
 30
0.0
 11
287.4755972030104
 21
366.3578489066289
 31
0.0
  0
LINE
  5
18B
330
188
100
AcDbEntity
  8
0
  6
ByBlock
 62
     2
100
AcDbLine
 10
289.4255972030104
 20
393.1078489066289
 30
0.0
 11
289.4255972030104
 21
371.607848906629
 31
0.0
  0
SOLID
  5
18C
330
188
100
AcDbEntity
  8
0
  6
ByBlock
 62
     2
100
AcDbTrace
 10
288.5505972030104
 20
393.1078489066289
 30
0.0
 11
290.3005972030104
 21
393.1078489066289
 31
0.0
 12
289.4255972030104
 22
398.3578489066289
 32
0.0
 13
289.4255972030104
 23
398.3578489066289
 33
0.0
  0
SOLID
  5
18D
330
188
100
AcDbEntity
  8
0
  6
ByBlock
 62
     2
100
AcDbTrace
 10
288.5505972030104
 20
371.607848906629
 30
0.0
 11
290.3005972030104
 21
371.607848906629
 31
0.0
 12
289.4255972030104
 22
366.3578489066289
 32
0.0
 13
289.4255972030104
 23
366.3578489066289
 33
0.0
  0
MTEXT
  5
18E
330
188
100
AcDbEntity
  8
0
  6
ByBlock
 62
     3
100
AcDbMText
 10
285.3005972030104
 20
382.357848906629
 30
0.0
 40
5.25
 41
0.0
 71
     5
 72
     1
  1
\A1;32
  7
NORM
 11
0.0000000000000001
 21
1.0
 31
0.0
 73
     1
 44
1.0
  0
POINT
  5
18F
330
188
100
AcDbEntity
  8
DEFPOINTS
  6
ByBlock
 62
     0
100
AcDbPoint
 10
316.5155791102779
 20
398.3578489066289
 30
0.0
  0
POINT
  5
190
330
188
100
AcDbEntity
  8
DEFPOINTS
  6
ByBlock
 62
     0
100
AcDbPoint
 10
303.5155791102779
 20
366.3578489066289
 30
0.0
  0
POINT
  5
191
330
188
100
AcDbEntity
  8
DEFPOINTS
  6
ByBlock
 62
     0
100
AcDbPoint
 10
289.4255972030104
 20
366.3578489066289
 30
0.0
  0
ENDBLK
  5
193
330
188
100
AcDbEntity
  8
0
100
AcDbBlockEnd
  0
BLOCK
  5
185
330
17B
100
AcDbEntity
  8
0
100
AcDbBlockBegin
  2
*D22
 70
     1
 10
0.0
 20
0.0
 30
0.0
  3
*D22
  1
ACA_CFG
  0
LINE
  5
17C
330
17B
100
AcDbEntity
  8
0
  6
ByBlock
 62
     2
100
AcDbLine
 10
343.7655791102752
 20
398.3578489066289
 30
0.0
 11
372.4255956178878
 21
398.3578489066289
 31
0.0
  0
LINE
  5
17D
330
17B
100
AcDbEntity
  8
0
  6
ByBlock
 62
     2
100
AcDbLine
 10
358.7655791102779
 20
323.357848906629
 30
0.0
 11
372.4255956178878
 21
323.357848906629
 31
0.0
  0
LINE
  5
17E
330
17B
100
AcDbEntity
  8
0
  6
ByBlock
 62
     2
100
AcDbLine
 10
370.4755956178878
 20
393.1078489066289
 30
0.0
 11
370.4755956178878
 21
328.607848906629
 31
0.0
  0
SOLID
  5
17F
330
17B
100
AcDbEntity
  8
0
  6
ByBlock
 62
     2
100
AcDbTrace
 10
369.6005956178878
 20
393.1078489066289
 30
0.0
 11
371.3505956178878
 21
393.1078489066289
 31
0.0
 12
370.4755956178878
 22
398.3578489066289
 32
0.0
 13
370.4755956178878
 23
398.3578489066289
 33
0.0
  0
SOLID
  5
180
330
17B
100
AcDbEntity
  8
0
  6
ByBlock
 62
     2
100
AcDbTrace
 10
369.6005956178878
 20
328.607848906629
 30
0.0
 11
371.3505956178878
 21
328.607848906629
 31
0.0
 12
370.4755956178878
 22
323.357848906629
 32
0.0
 13
370.4755956178878
 23
323.357848906629
 33
0.0
  0
MTEXT
  5
181
330
17B
100
AcDbEntity
  8
0
  6
ByBlock
 62
     3
100
AcDbMText
 10
366.3505956178878
 20
360.8578489066289
 30
0.0
 40
5.25
 41
0.0
 71
     5
 72
     1
  1
\A1;75
  7
NORM
 11
0.0000000000000001
 21
1.0
 31
0.0
 73
     1
 44
1.0
  0
POINT
  5
182
330
17B
100
AcDbEntity
  8
DEFPOINTS
  6
ByBlock
 62
     0
100
AcDbPoint
 10
343.0155791102752
 20
398.3578489066289
 30
0.0
  0
POINT
  5
183
330
17B
100
AcDbEntity
  8
DEFPOINTS
  6
ByBlock
 62
     0
100
AcDbPoint
 10
358.0155791102779
 20
323.357848906629
 30
0.0
  0
POINT
  5
184
330
17B
100
AcDbEntity
  8
DEFPOINTS
  6
ByBlock
 62
     0
100
AcDbPoint
 10
370.4755956178878
 20
323.357848906629
 30
0.0
  0
ENDBLK
  5
186
330
17B
100
AcDbEntity
  8
0
100
AcDbBlockEnd
  0
BLOCK
  5
16B
330
161
100
AcDbEntity
  8
0
100
AcDbBlockBegin
  2
*D23
 70
     1
 10
0.0
 20
0.0
 30
0.0
  3
*D23
  1
ACA_CFG
  0
LINE
  5
162
330
161
100
AcDbEntity
  8
0
  6
ByBlock
 62
     2
100
AcDbLine
 10
302.7655791102779
 20
366.3578489066289
 30
0.0
 11
276.8938557715691
 21
366.3578489066289
 31
0.0
  0
LINE
  5
163
330
161
100
AcDbEntity
  8
0
  6
ByBlock
 62
     2
100
AcDbLine
 10
312.7655791102779
 20
428.357848906629
 30
0.0
 11
276.8938557715691
 21
428.357848906629
 31
0.0
  0
LINE
  5
164
330
161
100
AcDbEntity
  8
0
  6
ByBlock
 62
     2
100
AcDbLine
 10
278.8438557715691
 20
371.607848906629
 30
0.0
 11
278.8438557715691
 21
423.1078489066289
 31
0.0
  0
SOLID
  5
165
330
161
100
AcDbEntity
  8
0
  6
ByBlock
 62
     2
100
AcDbTrace
 10
277.9688557715691
 20
371.607848906629
 30
0.0
 11
279.7188557715691
 21
371.607848906629
 31
0.0
 12
278.8438557715691
 22
366.3578489066289
 32
0.0
 13
278.8438557715691
 23
366.3578489066289
 33
0.0
  0
SOLID
  5
166
330
161
100
AcDbEntity
  8
0
  6
ByBlock
 62
     2
100
AcDbTrace
 10
277.9688557715691
 20
423.1078489066289
 30
0.0
 11
279.7188557715691
 21
423.1078489066289
 31
0.0
 12
278.8438557715691
 22
428.357848906629
 32
0.0
 13
278.8438557715691
 23
428.357848906629
 33
0.0
  0
MTEXT
  5
167
330
161
100
AcDbEntity
  8
0
  6
ByBlock
 62
     3
100
AcDbMText
 10
274.7188557715691
 20
397.3578489066289
 30
0.0
 40
5.25
 41
0.0
 71
     5
 72
     1
  1
\A1;62
  7
NORM
 11
0.0000000000000001
 21
1.0
 31
0.0
 73
     1
 44
1.0
  0
POINT
  5
168
330
161
100
AcDbEntity
  8
DEFPOINTS
  6
ByBlock
 62
     0
100
AcDbPoint
 10
303.5155791102779
 20
366.3578489066289
 30
0.0
  0
POINT
  5
169
330
161
100
AcDbEntity
  8
DEFPOINTS
  6
ByBlock
 62
     0
100
AcDbPoint
 10
313.5155791102779
 20
428.357848906629
 30
0.0
  0
POINT
  5
16A
330
161
100
AcDbEntity
  8
DEFPOINTS
  6
ByBlock
 62
     0
100
AcDbPoint
 10
278.8438557715691
 20
428.357848906629
 30
0.0
  0
ENDBLK
  5
16C
330
161
100
AcDbEntity
  8
0
100
AcDbBlockEnd
  0
BLOCK
  5
1AF
330
1A3
100
AcDbEntity
  8
0
100
AcDbBlockBegin
  2
*D24
 70
     1
 10
0.0
 20
0.0
 30
0.0
  3
*D24
  1
ACA_CFG
  0
LINE
  5
1A4
330
1A3
100
AcDbEntity
  8
0
  6
ByBlock
 62
     2
100
AcDbLine
 10
338.9471461825536
 20
328.5482901427749
 30
0.0
 11
338.7767957870484
 21
342.2848815754083
 31
0.0
  0
LINE
  5
1A5
330
1A3
100
AcDbEntity
  8
0
  6
ByBlock
 62
     2
100
AcDbLine
 10
347.9464572820536
 20
328.6598925160852
 30
0.0
 11
347.7761068865483
 21
342.3964839487186
 31
0.0
  0
LINE
  5
1A6
330
1A3
100
AcDbEntity
  8
0
  6
ByBlock
 62
     2
100
AcDbLine
 10
333.5513799454121
 20
340.26993014126
 30
0.0
 11
328.301783597821
 21
340.2048287790742
 31
0.0
  0
LINE
  5
1A7
330
1A3
100
AcDbEntity
  8
0
  6
ByBlock
 62
     2
100
AcDbLine
 10
353.0498837400941
 20
340.511735238942
 30
0.0
 11
358.2994800876852
 21
340.5768366011279
 31
0.0
  0
LINE
  5
1A8
330
1A3
100
AcDbEntity
  8
0
  6
ByBlock
 62
     2
100
AcDbLine
 10
338.8009762930031
 20
340.3350315034459
 30
0.0
 11
347.8002873925031
 21
340.4466338767562
 31
0.0
  0
SOLID
  5
1A9
330
1A3
100
AcDbEntity
  8
0
  6
ByBlock
 62
     2
100
AcDbTrace
 10
333.5405297183811
 20
341.1448628658586
 30
0.0
 11
333.562230172443
 21
339.3949974166615
 31
0.0
 12
338.8009762930031
 22
340.3350315034459
 32
0.0
 13
338.8009762930031
 23
340.3350315034459
 33
0.0
  0
SOLID
  5
1AA
330
1A3
100
AcDbEntity
  8
0
  6
ByBlock
 62
     2
100
AcDbTrace
 10
353.0390335130632
 20
341.3866679635406
 30
0.0
 11
353.0607339671251
 21
339.6368025143435
 31
0.0
 12
347.8002873925031
 22
340.4466338767562
 32
0.0
 13
347.8002873925031
 23
340.4466338767562
 33
0.0
  0
MTEXT
  5
1AB
330
1A3
100
AcDbEntity
  8
0
  6
ByBlock
 62
     3
100
AcDbMText
 10
343.2494807724642
 20
344.5155155346369
 30
0.0
 40
5.25
 41
0.0
 71
     5
 72
     1
  1
\A1;9
  7
NORM
 11
0.9999231138268712
 21
0.0124002594639761
 31
0.0
 73
     1
 44
1.0
  0
POINT
  5
1AC
330
1A3
100
AcDbEntity
  8
DEFPOINTS
  6
ByBlock
 62
     0
100
AcDbPoint
 10
338.9564463771516
 20
327.7983478074047
 30
0.0
  0
POINT
  5
1AD
330
1A3
100
AcDbEntity
  8
DEFPOINTS
  6
ByBlock
 62
     0
100
AcDbPoint
 10
347.9557574766516
 20
327.909950180715
 30
0.0
  0
POINT
  5
1AE
330
1A3
100
AcDbEntity
  8
DEFPOINTS
  6
ByBlock
 62
     0
100
AcDbPoint
 10
347.8002873925031
 20
340.4466338767562
 30
0.0
  0
ENDBLK
  5
1B0
330
1A3
100
AcDbEntity
  8
0
100
AcDbBlockEnd
  0
BLOCK
  5
1E2
330
1D6
100
AcDbEntity
  8
0
100
AcDbBlockBegin
  2
*D25
 70
     1
 10
0.0
 20
0.0
 30
0.0
  3
*D25
  1
ACA_CFG
  0
LINE
  5
1D7
330
1D6
100
AcDbEntity
  8
0
  6
ByBlock
 62
     2
100
AcDbLine
 10
339.0155791102779
 20
370.107848906629
 30
0.0
 11
339.0155791102779
 21
384.1755125880882
 31
0.0
  0
LINE
  5
1D8
330
1D6
100
AcDbEntity
  8
0
  6
ByBlock
 62
     2
100
AcDbLine
 10
348.0155791102779
 20
370.107848906629
 30
0.0
 11
348.0155791102779
 21
384.1755125880882
 31
0.0
  0
LINE
  5
1D9
330
1D6
100
AcDbEntity
  8
0
  6
ByBlock
 62
     2
100
AcDbLine
 10
333.7655791102779
 20
382.2255125880882
 30
0.0
 11
328.5155791102779
 21
382.2255125880882
 31
0.0
  0
LINE
  5
1DA
330
1D6
100
AcDbEntity
  8
0
  6
ByBlock
 62
     2
100
AcDbLine
 10
353.2655791102779
 20
382.2255125880882
 30
0.0
 11
358.5155791102779
 21
382.2255125880882
 31
0.0
  0
LINE
  5
1DB
330
1D6
100
AcDbEntity
  8
0
  6
ByBlock
 62
     2
100
AcDbLine
 10
339.0155791102779
 20
382.2255125880882
 30
0.0
 11
348.0155791102779
 21
382.2255125880882
 31
0.0
  0
SOLID
  5
1DC
330
1D6
100
AcDbEntity
  8
0
  6
ByBlock
 62
     2
100
AcDbTrace
 10
333.7655791102779
 20
383.1005125880882
 30
0.0
 11
333.7655791102779
 21
381.3505125880882
 31
0.0
 12
339.0155791102779
 22
382.2255125880882
 32
0.0
 13
339.0155791102779
 23
382.2255125880882
 33
0.0
  0
SOLID
  5
1DD
330
1D6
100
AcDbEntity
  8
0
  6
ByBlock
 62
     2
100
AcDbTrace
 10
353.2655791102779
 20
383.1005125880882
 30
0.0
 11
353.2655791102779
 21
381.3505125880882
 31
0.0
 12
348.0155791102779
 22
382.2255125880882
 32
0.0
 13
348.0155791102779
 23
382.2255125880882
 33
0.0
  0
MTEXT
  5
1DE
330
1D6
100
AcDbEntity
  8
0
  6
ByBlock
 62
     3
100
AcDbMText
 10
343.5155791102779
 20
386.3505125880882
 30
0.0
 40
5.25
 41
0.0
 71
     5
 72
     1
  1
\A1;9
  7
NORM
 73
     1
 44
1.0
  0
POINT
  5
1DF
330
1D6
100
AcDbEntity
  8
DEFPOINTS
  6
ByBlock
 62
     0
100
AcDbPoint
 10
339.0155791102779
 20
369.357848906629
 30
0.0
  0
POINT
  5
1E0
330
1D6
100
AcDbEntity
  8
DEFPOINTS
  6
ByBlock
 62
     0
100
AcDbPoint
 10
348.0155791102779
 20
369.357848906629
 30
0.0
  0
POINT
  5
1E1
330
1D6
100
AcDbEntity
  8
DEFPOINTS
  6
ByBlock
 62
     0
100
AcDbPoint
 10
348.0155791102779
 20
382.2255125880882
 30
0.0
  0
ENDBLK
  5
1E3
330
1D6
100
AcDbEntity
  8
0
100
AcDbBlockEnd
  0
BLOCK
  5
178
330
16E
100
AcDbEntity
  8
0
100
AcDbBlockBegin
  2
*D26
 70
     1
 10
0.0
 20
0.0
 30
0.0
  3
*D26
  1
ACA_CFG
  0
LINE
  5
16F
330
16E
100
AcDbEntity
  8
0
  6
ByBlock
 62
     2
100
AcDbLine
 10
302.7655791102779
 20
366.3578489066289
 30
0.0
 11
276.8938557715691
 21
366.3578489066289
 31
0.0
  0
LINE
  5
170
330
16E
100
AcDbEntity
  8
0
  6
ByBlock
 62
     2
100
AcDbLine
 10
302.7655791102779
 20
336.3578489066285
 30
0.0
 11
276.8938557715691
 21
336.3578489066285
 31
0.0
  0
LINE
  5
171
330
16E
100
AcDbEntity
  8
0
  6
ByBlock
 62
     2
100
AcDbLine
 10
278.8438557715691
 20
361.107848906629
 30
0.0
 11
278.8438557715691
 21
341.6078489066285
 31
0.0
  0
SOLID
  5
172
330
16E
100
AcDbEntity
  8
0
  6
ByBlock
 62
     2
100
AcDbTrace
 10
277.9688557715691
 20
361.107848906629
 30
0.0
 11
279.7188557715691
 21
361.107848906629
 31
0.0
 12
278.8438557715691
 22
366.3578489066289
 32
0.0
 13
278.8438557715691
 23
366.3578489066289
 33
0.0
  0
SOLID
  5
173
330
16E
100
AcDbEntity
  8
0
  6
ByBlock
 62
     2
100
AcDbTrace
 10
277.9688557715691
 20
341.6078489066285
 30
0.0
 11
279.7188557715691
 21
341.6078489066285
 31
0.0
 12
278.8438557715691
 22
336.3578489066285
 32
0.0
 13
278.8438557715691
 23
336.3578489066285
 33
0.0
  0
MTEXT
  5
174
330
16E
100
AcDbEntity
  8
0
  6
ByBlock
 62
     3
100
AcDbMText
 10
274.7188557715691
 20
351.3578489066287
 30
0.0
 40
5.25
 41
0.0
 71
     5
 72
     1
  1
\A1;30
  7
NORM
 11
0.0000000000000001
 21
1.0
 31
0.0
 73
     1
 44
1.0
  0
POINT
  5
175
330
16E
100
AcDbEntity
  8
DEFPOINTS
  6
ByBlock
 62
     0
100
AcDbPoint
 10
303.5155791102779
 20
366.3578489066289
 30
0.0
  0
POINT
  5
176
330
16E
100
AcDbEntity
  8
DEFPOINTS
  6
ByBlock
 62
     0
100
AcDbPoint
 10
303.5155791102779
 20
336.3578489066285
 30
0.0
  0
POINT
  5
177
330
16E
100
AcDbEntity
  8
DEFPOINTS
  6
ByBlock
 62
     0
100
AcDbPoint
 10
278.8438557715691
 20
336.3578489066285
 30
0.0
  0
ENDBLK
  5
179
330
16E
100
AcDbEntity
  8
0
100
AcDbBlockEnd
  0
BLOCK
  5
1A0
330
196
100
AcDbEntity
  8
0
100
AcDbBlockBegin
  2
*D27
 70
     1
 10
0.0
 20
0.0
 30
0.0
  3
*D27
  1
ACA_CFG
  0
LINE
  5
197
330
196
100
AcDbEntity
  8
0
  6
ByBlock
 62
     2
100
AcDbLine
 10
335.2655791102779
 20
369.357848906629
 30
0.0
 11
324.3648652867996
 21
369.357848906629
 31
0.0
  0
LINE
  5
198
330
196
100
AcDbEntity
  8
0
  6
ByBlock
 62
     2
100
AcDbLine
 10
330.7655791102779
 20
323.3578489066289
 30
0.0
 11
324.3648652867996
 21
323.3578489066289
 31
0.0
  0
LINE
  5
199
330
196
100
AcDbEntity
  8
0
  6
ByBlock
 62
     2
100
AcDbLine
 10
326.3148652867996
 20
364.1078489066289
 30
0.0
 11
326.3148652867996
 21
328.6078489066289
 31
0.0
  0
SOLID
  5
19A
330
196
100
AcDbEntity
  8
0
  6
ByBlock
 62
     2
100
AcDbTrace
 10
325.4398652867996
 20
364.1078489066289
 30
0.0
 11
327.1898652867996
 21
364.1078489066289
 31
0.0
 12
326.3148652867996
 22
369.357848906629
 32
0.0
 13
326.3148652867996
 23
369.357848906629
 33
0.0
  0
SOLID
  5
19B
330
196
100
AcDbEntity
  8
0
  6
ByBlock
 62
     2
100
AcDbTrace
 10
325.4398652867996
 20
328.6078489066289
 30
0.0
 11
327.1898652867996
 21
328.6078489066289
 31
0.0
 12
326.3148652867996
 22
323.3578489066289
 32
0.0
 13
326.3148652867996
 23
323.3578489066289
 33
0.0
  0
MTEXT
  5
19C
330
196
100
AcDbEntity
  8
0
  6
ByBlock
 62
     3
100
AcDbMText
 10
322.1898652867996
 20
346.3578489066289
 30
0.0
 40
5.25
 41
0.0
 71
     5
 72
     1
  1
\A1;46
  7
NORM
 11
0.0000000000000001
 21
1.0
 31
0.0
 73
     1
 44
1.0
  0
POINT
  5
19D
330
196
100
AcDbEntity
  8
DEFPOINTS
  6
ByBlock
 62
     0
100
AcDbPoint
 10
336.0155791102779
 20
369.357848906629
 30
0.0
  0
POINT
  5
19E
330
196
100
AcDbEntity
  8
DEFPOINTS
  6
ByBlock
 62
     0
100
AcDbPoint
 10
331.5155791102779
 20
323.3578489066289
 30
0.0
  0
POINT
  5
19F
330
196
100
AcDbEntity
  8
DEFPOINTS
  6
ByBlock
 62
     0
100
AcDbPoint
 10
326.3148652867996
 20
323.3578489066289
 30
0.0
  0
ENDBLK
  5
1A1
330
196
100
AcDbEntity
  8
0
100
AcDbBlockEnd
  0
BLOCK
  5
1C0
330
1B6
100
AcDbEntity
  8
0
100
AcDbBlockBegin
  2
*D28
 70
     1
 10
0.0
 20
0.0
 30
0.0
  3
*D28
  1
ACA_CFG
  0
LINE
  5
1B7
330
1B6
100
AcDbEntity
  8
0
  6
ByBlock
 62
     2
100
AcDbLine
 10
330.7655791102779
 20
323.3578489066289
 30
0.0
 11
324.3648652867996
 21
323.3578489066289
 31
0.0
  0
LINE
  5
1B8
330
1B6
100
AcDbEntity
  8
0
  6
ByBlock
 62
     2
100
AcDbLine
 10
335.2655791102779
 20
301.8578489066289
 30
0.0
 11
324.3648652867996
 21
301.8578489066289
 31
0.0
  0
LINE
  5
1B9
330
1B6
100
AcDbEntity
  8
0
  6
ByBlock
 62
     2
100
AcDbLine
 10
326.3148652867996
 20
318.1078489066289
 30
0.0
 11
326.3148652867996
 21
307.107848906629
 31
0.0
  0
SOLID
  5
1BA
330
1B6
100
AcDbEntity
  8
0
  6
ByBlock
 62
     2
100
AcDbTrace
 10
325.4398652867996
 20
318.1078489066289
 30
0.0
 11
327.1898652867996
 21
318.1078489066289
 31
0.0
 12
326.3148652867996
 22
323.3578489066289
 32
0.0
 13
326.3148652867996
 23
323.3578489066289
 33
0.0
  0
SOLID
  5
1BB
330
1B6
100
AcDbEntity
  8
0
  6
ByBlock
 62
     2
100
AcDbTrace
 10
325.4398652867996
 20
307.107848906629
 30
0.0
 11
327.1898652867996
 21
307.107848906629
 31
0.0
 12
326.3148652867996
 22
301.8578489066289
 32
0.0
 13
326.3148652867996
 23
301.8578489066289
 33
0.0
  0
MTEXT
  5
1BC
330
1B6
100
AcDbEntity
  8
0
  6
ByBlock
 62
     3
100
AcDbMText
 10
322.1898652867996
 20
312.6078489066289
 30
0.0
 40
5.25
 41
0.0
 71
     5
 72
     1
  1
\A1;21.5
  7
NORM
 11
0.0000000000000001
 21
1.0
 31
0.0
 73
     1
 44
1.0
  0
POINT
  5
1BD
330
1B6
100
AcDbEntity
  8
DEFPOINTS
  6
ByBlock
 62
     0
100
AcDbPoint
 10
331.5155791102779
 20
323.3578489066289
 30
0.0
  0
POINT
  5
1BE
330
1B6
100
AcDbEntity
  8
DEFPOINTS
  6
ByBlock
 62
     0
100
AcDbPoint
 10
336.0155791102779
 20
301.8578489066289
 30
0.0
  0
POINT
  5
1BF
330
1B6
100
AcDbEntity
  8
DEFPOINTS
  6
ByBlock
 62
     0
100
AcDbPoint
 10
326.3148652867996
 20
301.8578489066289
 30
0.0
  0
ENDBLK
  5
1C1
330
1B6
100
AcDbEntity
  8
0
100
AcDbBlockEnd
  0
BLOCK
  5
1D1
330
1C4
100
AcDbEntity
  8
0
100
AcDbBlockBegin
  2
*D29
 70
     1
 10
0.0
 20
0.0
 30
0.0
  3
*D29
  1
ACA_CFG
  0
LINE
  5
1C5
330
1C4
100
AcDbEntity
  8
0
  6
ByBlock
 62
     2
100
AcDbLine
 10
303.5155791102779
 20
335.6078489066285
 30
0.0
 11
303.5155791102779
 21
323.935608673911
 31
0.0
  0
LINE
  5
1C6
330
1C4
100
AcDbEntity
  8
0
  6
ByBlock
 62
     2
100
AcDbLine
 10
313.5155791102779
 20
326.635608673911
 30
0.0
 11
313.5155791102779
 21
327.835608673911
 31
0.0
  0
LINE
  5
1C7
330
1C4
100
AcDbEntity
  8
0
  6
ByBlock
 62
     2
100
AcDbLine
 10
298.2655791102779
 20
325.885608673911
 30
0.0
 11
293.0155791102779
 21
325.885608673911
 31
0.0
  0
LINE
  5
1C8
330
1C4
100
AcDbEntity
  8
0
  6
ByBlock
 62
     2
100
AcDbLine
 10
318.7655791102779
 20
325.885608673911
 30
0.0
 11
324.0155791102779
 21
325.885608673911
 31
0.0
  0
MTEXT
  5
1C9
330
1C4
100
AcDbEntity
  8
0
  6
ByBlock
 62
     3
100
AcDbMText
 10
308.3404260383506
 20
329.385608673911
 30
0.0
 40
5.25
 41
0.0
 71
     5
 72
     1
  1
\A1;10
  7
NORM
 73
     1
 44
1.0
  0
LINE
  5
1CA
330
1C4
100
AcDbEntity
  8
0
  6
ByBlock
 62
     2
100
AcDbLine
 10
303.5155791102779
 20
325.885608673911
 30
0.0
 11
313.5155791102779
 21
325.885608673911
 31
0.0
  0
LINE
  5
1CB
330
1C4
100
AcDbEntity
  8
0
  6
ByBlock
 62
     2
100
AcDbLine
 10
303.5155791102779
 20
325.885608673911
 30
0.0
 11
313.5155791102779
 21
325.885608673911
 31
0.0
  0
SOLID
  5
1CC
330
1C4
100
AcDbEntity
  8
0
  6
ByBlock
 62
     2
100
AcDbTrace
 10
298.2655791102779
 20
326.760608673911
 30
0.0
 11
298.2655791102779
 21
325.010608673911
 31
0.0
 12
303.5155791102779
 22
325.885608673911
 32
0.0
 13
303.5155791102779
 23
325.885608673911
 33
0.0
  0
SOLID
  5
1CD
330
1C4
100
AcDbEntity
  8
0
  6
ByBlock
 62
     2
100
AcDbTrace
 10
318.7655791102779
 20
326.760608673911
 30
0.0
 11
318.7655791102779
 21
325.010608673911
 31
0.0
 12
313.5155791102779
 22
325.885608673911
 32
0.0
 13
313.5155791102779
 23
325.885608673911
 33
0.0
  0
POINT
  5
1CE
330
1C4
100
AcDbEntity
  8
DEFPOINTS
  6
ByBlock
 62
     0
100
AcDbPoint
 10
303.5155791102779
 20
336.3578489066285
 30
0.0
  0
POINT
  5
1CF
330
1C4
100
AcDbEntity
  8
DEFPOINTS
  6
ByBlock
 62
     0
100
AcDbPoint
 10
313.5155791102779
 20
325.885608673911
 30
0.0
  0
POINT
  5
1D0
330
1C4
100
AcDbEntity
  8
DEFPOINTS
  6
ByBlock
 62
     0
100
AcDbPoint
 10
313.5155791102779
 20
325.885608673911
 30
0.0
  0
ENDBLK
  5
1D2
330
1C4
100
AcDbEntity
  8
0
100
AcDbBlockEnd
  0
BLOCK
  5
206
330
1FC
100
AcDbEntity
  8
0
100
AcDbBlockBegin
  2
*D30
 70
     1
 10
0.0
 20
0.0
 30
0.0
  3
*D30
  1
ACA_CFG
  0
LINE
  5
1FD
330
1FC
100
AcDbEntity
  8
0
  6
ByBlock
 62
     2
100
AcDbLine
 10
312.7655791102779
 20
428.357848906629
 30
0.0
 11
287.4755972030104
 21
428.357848906629
 31
0.0
  0
LINE
  5
1FE
330
1FC
100
AcDbEntity
  8
0
  6
ByBlock
 62
     2
100
AcDbLine
 10
315.7655791102779
 20
398.3578489066289
 30
0.0
 11
287.4755972030104
 21
398.3578489066289
 31
0.0
  0
LINE
  5
1FF
330
1FC
100
AcDbEntity
  8
0
  6
ByBlock
 62
     2
100
AcDbLine
 10
289.4255972030104
 20
423.1078489066289
 30
0.0
 11
289.4255972030104
 21
403.6078489066289
 31
0.0
  0
SOLID
  5
200
330
1FC
100
AcDbEntity
  8
0
  6
ByBlock
 62
     2
100
AcDbTrace
 10
288.5505972030104
 20
423.1078489066289
 30
0.0
 11
290.3005972030104
 21
423.1078489066289
 31
0.0
 12
289.4255972030104
 22
428.357848906629
 32
0.0
 13
289.4255972030104
 23
428.357848906629
 33
0.0
  0
SOLID
  5
201
330
1FC
100
AcDbEntity
  8
0
  6
ByBlock
 62
     2
100
AcDbTrace
 10
288.5505972030104
 20
403.6078489066289
 30
0.0
 11
290.3005972030104
 21
403.6078489066289
 31
0.0
 12
289.4255972030104
 22
398.3578489066289
 32
0.0
 13
289.4255972030104
 23
398.3578489066289
 33
0.0
  0
MTEXT
  5
202
330
1FC
100
AcDbEntity
  8
0
  6
ByBlock
 62
     3
100
AcDbMText
 10
285.3005972030104
 20
413.3578489066289
 30
0.0
 40
5.25
 41
0.0
 71
     5
 72
     1
  1
\A1;30
  7
NORM
 11
0.0000000000000001
 21
1.0
 31
0.0
 73
     1
 44
1.0
  0
POINT
  5
203
330
1FC
100
AcDbEntity
  8
DEFPOINTS
  6
ByBlock
 62
     0
100
AcDbPoint
 10
313.5155791102779
 20
428.357848906629
 30
0.0
  0
POINT
  5
204
330
1FC
100
AcDbEntity
  8
DEFPOINTS
  6
ByBlock
 62
     0
100
AcDbPoint
 10
316.5155791102779
 20
398.3578489066289
 30
0.0
  0
POINT
  5
205
330
1FC
100
AcDbEntity
  8
DEFPOINTS
  6
ByBlock
 62
     0
100
AcDbPoint
 10
289.4255972030104
 20
398.3578489066289
 30
0.0
  0
ENDBLK
  5
207
330
1FC
100
AcDbEntity
  8
0
100
AcDbBlockEnd
  0
BLOCK
  5
32
330
27
100
AcDbEntity
  8
0
100
AcDbBlockBegin
  2
*D31
 70
     1
 10
0.0
 20
0.0
 30
0.0
  3
*D31
  1
ACA_CFG
  0
LINE
  5
28
330
27
100
AcDbEntity
  8
0
  6
ByBlock
 62
     2
100
AcDbLine
 10
463.3222937432578
 20
188.3578489066289
 30
0.0
 11
480.8991179082733
 21
188.3578489066289
 31
0.0
  0
LINE
  5
29
330
27
100
AcDbEntity
  8
0
  6
ByBlock
 62
     2
100
AcDbLine
 10
463.3222937432578
 20
428.357848906629
 30
0.0
 11
480.8991179082733
 21
428.3578489066289
 31
0.0
  0
LINE
  5
2A
330
27
100
AcDbEntity
  8
0
  6
ByBlock
 62
     2
100
AcDbLine
 10
478.9491179082733
 20
193.6078489066289
 30
0.0
 11
478.9491179082733
 21
423.1078489066289
 31
0.0
  0
SOLID
  5
2B
330
27
100
AcDbEntity
  8
0
  6
ByBlock
 62
     2
100
AcDbTrace
 10
478.0741179082733
 20
193.6078489066289
 30
0.0
 11
479.8241179082733
 21
193.6078489066289
 31
0.0
 12
478.9491179082733
 22
188.3578489066289
 32
0.0
 13
478.9491179082733
 23
188.3578489066289
 33
0.0
  0
SOLID
  5
2C
330
27
100
AcDbEntity
  8
0
  6
ByBlock
 62
     2
100
AcDbTrace
 10
478.0741179082733
 20
423.1078489066289
 30
0.0
 11
479.8241179082733
 21
423.1078489066289
 31
0.0
 12
478.9491179082733
 22
428.3578489066289
 32
0.0
 13
478.9491179082733
 23
428.3578489066289
 33
0.0
  0
MTEXT
  5
2D
330
27
100
AcDbEntity
  8
0
  6
ByBlock
 62
     3
100
AcDbMText
 10
474.8241179082733
 20
308.3578489066289
 30
0.0
 40
5.25
 41
0.0
 71
     5
 72
     1
  1
\A1;240
  7
NORM
 11
0.0000000000000001
 21
1.0
 31
0.0
 73
     1
 44
1.0
  0
POINT
  5
2E
330
27
100
AcDbEntity
  8
DEFPOINTS
  6
ByBlock
 62
     0
100
AcDbPoint
 10
462.5722937432579
 20
188.3578489066289
 30
0.0
  0
POINT
  5
30
330
27
100
AcDbEntity
  8
DEFPOINTS
  6
ByBlock
 62
     0
100
AcDbPoint
 10
462.5722937432579
 20
428.357848906629
 30
0.0
  0
POINT
  5
31
330
27
100
AcDbEntity
  8
DEFPOINTS
  6
ByBlock
 62
     0
100
AcDbPoint
 10
478.9491179082733
 20
428.3578489066289
 30
0.0
  0
ENDBLK
  5
33
330
27
100
AcDbEntity
  8
0
100
AcDbBlockEnd
  0
ENDSEC
  0
SECTION
  2
ENTITIES
  0
DIMENSION
  5
26
330
2
100
AcDbEntity
  8
BEMASSUNG
100
AcDbDimension
  2
*D31
 10
478.9491179082733
 20
428.3578489066289
 30
0.0
 11
474.8241179082733
 21
308.3578489066289
 31
0.0
 71
     5
 42
-1.0
  3
PROSPEKT
100
AcDbAlignedDimension
 13
462.5722937432579
 23
188.3578489066289
 33
0.0
 14
462.5722937432579
 24
428.357848906629
 34
0.0
 50
90.0
100
AcDbRotatedDimension
  0
DIMENSION
  5
34
330
2
100
AcDbEntity
  8
BEMASSUNG
100
AcDbDimension
  2
*D0
 10
442.5722937432579
 20
293.9838487339757
 30
0.0
 11
444.5722937432578
 21
298.1088487339757
 31
0.0
 71
     5
 42
-1.0
  3
PROSPEKT
100
AcDbAlignedDimension
 13
446.5722937432579
 23
282.357848906629
 33
0.0
 14
442.5722937432579
 24
293.1633058079396
 34
0.0
100
AcDbRotatedDimension
1001
ACAD
1000
DSTYLE
1002
{
1002
}
  0
DIMENSION
  5
43
330
2
100
AcDbEntity
  8
BEMASSUNG
100
AcDbDimension
  2
*D4
 10
424.6125440370267
 20
198.357848906629
 30
0.0
 11
420.4875440370267
 21
308.3578489066287
 31
0.0
 71
     5
 42
-1.0
  3
PROSPEKT
100
AcDbAlignedDimension
 13
444.6222937432581
 23
418.3578489066285
 33
0.0
 14
444.6222937432581
 24
198.357848906629
 34
0.0
 50
90.0
100
AcDbRotatedDimension
  0
DIMENSION
  5
50
330
2
100
AcDbEntity
  8
BEMASSUNG
100
AcDbDimension
  2
*D7
 10
382.3467588865078
 20
218.3578489066289
 30
0.0
 11
378.2217588865078
 21
308.3578489066289
 31
0.0
 71
     5
 42
-1.0
  3
PROSPEKT
100
AcDbAlignedDimension
 13
343.0155791102752
 23
398.3578489066289
 33
0.0
 14
343.015579110277
 24
218.3578489066289
 34
0.0
 50
90.0
100
AcDbRotatedDimension
  0
DIMENSION
  5
5D
330
2
100
AcDbEntity
  8
BEMASSUNG
100
AcDbDimension
  2
*D5
 10
370.4755956178878
 20
245.3578489066289
 30
0.0
 11
366.3505956178878
 21
284.357848906629
 31
0.0
 71
     5
 42
-1.0
  3
PROSPEKT
100
AcDbAlignedDimension
 13
356.0155791102779
 23
323.3578489066289
 33
0.0
 14
358.1155791102778
 24
245.3578489066289
 34
0.0
 50
90.0
100
AcDbRotatedDimension
  0
DIMENSION
  5
6A
330
2
100
AcDbEntity
  8
BEMASSUNG
100
AcDbDimension
  2
*D6
 10
278.8438557715691
 20
282.3578489066285
 30
0.0
 11
274.7188557715691
 21
309.3578489066285
 31
0.0
 71
     5
 42
-1.0
  3
PROSPEKT
100
AcDbAlignedDimension
 13
303.5155791102779
 23
336.3578489066285
 33
0.0
 14
301.5155791102779
 24
282.3578489066285
 34
0.0
 50
90.0
100
AcDbRotatedDimension
  0
LWPOLYLINE
  5
77
330
2
100
AcDbEntity
  8
UMRISS05
100
AcDbPolyline
 90
        4
 70
     1
 43
0.0
 10
313.5155791102779
 20
428.357848906629
 10
316.5155791102779
 20
428.357848906629
 10
316.5155791102779
 20
188.3578489066289
 10
313.5155791102779
 20
188.3578489066289
  0
LWPOLYLINE
  5
79
330
2
100
AcDbEntity
  8
UMRISS05
100
AcDbPolyline
 90
        6
 70
     0
 43
0.0
 10
316.5155791102779
 20
398.3578489066289
 10
343.0155791102779
 20
398.3578489066289
 42
-0.4077927893824423
 10
359.5155791102779
 20
382.357848906629
 10
359.5155791102779
 20
234.357848906629
 42
-0.4077927893824464
 10
343.0155791102779
 20
218.3578489066289
 10
316.5155791102779
 20
218.3578489066289
  0
LINE
  5
7A
330
2
100
AcDbEntity
  8
ACHSEN
100
AcDbLine
 10
343.5155791102779
 20
294.3578489066289
 30
0.0
 11
343.5155791102779
 21
309.357848906629
 31
0.0
  0
CIRCLE
  5
7D
330
2
100
AcDbEntity
  8
UMRISS05
100
AcDbCircle
 10
343.5155791102779
 20
301.8578489066289
 30
0.0
 40
4.5
  0
LWPOLYLINE
  5
7E
330
2
100
AcDbEntity
  8
UMRISS05
100
AcDbPolyline
 90
        4
 70
     1
 43
0.0
 10
442.5722937432579
 20
188.3578489066289
 10
442.5722937432579
 20
428.357848906629
 10
462.5722937432579
 20
428.357848906629
 10
462.5722937432579
 20
188.3578489066289
  0
DIMENSION
  5
7F
330
2
100
AcDbEntity
  8
BEMASSUNG
100
AcDbDimension
  2
*D11
 10
278.8438557715691
 20
250.3578489066285
 30
0.0
 11
274.7188557715691
 21
219.3578489066287
 31
0.0
 71
     5
 42
-1.0
  3
PROSPEKT
100
AcDbAlignedDimension
 13
313.5155791102779
 23
188.3578489066289
 33
0.0
 14
301.5155791102779
 24
250.3578489066285
 34
0.0
 50
90.0
100
AcDbRotatedDimension
  0
DIMENSION
  5
8C
330
2
100
AcDbEntity
  8
BEMASSUNG
100
AcDbDimension
  2
*D15
 10
278.8438557715691
 20
250.3578489066285
 30
0.0
 11
274.7188557715691
 21
266.3578489066285
 31
0.0
 71
     5
 42
-1.0
  3
PROSPEKT
100
AcDbAlignedDimension
 13
301.5155791102779
 23
282.3578489066285
 33
0.0
 14
301.5155791102779
 24
250.3578489066285
 34
0.0
 50
90.0
100
AcDbRotatedDimension
  0
DIMENSION
  5
99
330
2
100
AcDbEntity
  8
BEMASSUNG
100
AcDbDimension
  2
*D8
 10
424.6125440370267
 20
188.3578489066289
 30
0.0
 11
420.991207781129
 21
193.3006775639854
 31
0.0
 70
   128
 71
     5
 42
-1.0
  3
PROSPEKT
100
AcDbAlignedDimension
 13
444.6222937432581
 23
198.357848906629
 33
0.0
 14
442.5722937432579
 24
188.3578489066289
 34
0.0
 50
90.0
100
AcDbRotatedDimension
  0
DIMENSION
  5
A9
330
2
100
AcDbEntity
  8
BEMASSUNG
100
AcDbDimension
  2
*D12
 10
359.5155791102779
 20
199.5008209497589
 30
0.0
 11
351.5155791102779
 21
203.6258209497589
 31
0.0
 71
     5
 42
-1.0
  3
PROSPEKT
100
AcDbAlignedDimension
 13
343.5155791102779
 23
216.2506560647721
 33
0.0
 14
359.5155791102779
 24
234.3578489066288
 34
0.0
100
AcDbRotatedDimension
  0
DIMENSION
  5
B6
330
2
100
AcDbEntity
  8
BEMASSUNG-DEUTSCH
100
AcDbDimension
  2
*D10
 10
343.5155791102779
 20
199.5008209497589
 30
0.0
 11
328.5155791102779
 21
203.6258209497589
 31
0.0
  1
DM
 71
     5
 42
-1.0
  3
PROSPEKT
100
AcDbAlignedDimension
 13
313.5155791102779
 23
200.9173756267825
 33
0.0
 14
343.5155791102779
 24
216.2506560647721
 34
0.0
100
AcDbRotatedDimension
  0
DIMENSION
  5
C4
330
2
100
AcDbEntity
  8
BEMASSUNG
100
AcDbDimension
  2
*D9
 10
289.4255972030104
 20
188.3578489066289
 30
0.0
 11
285.3005972030104
 21
203.357848906629
 31
0.0
 71
     5
 42
-1.0
  3
PROSPEKT
100
AcDbAlignedDimension
 13
316.5155791102779
 23
218.3578489066289
 33
0.0
 14
313.5155791102779
 24
188.3578489066289
 34
0.0
 50
90.0
100
AcDbRotatedDimension
  0
LINE
  5
D1
330
2
100
AcDbEntity
  8
ACHSEN
100
AcDbLine
 10
452.5722937432578
 20
206.3078489066287
 30
0.0
 11
452.5722937432578
 21
190.4078489066289
 31
0.0
  0
LWPOLYLINE
  5
D2
330
2
100
AcDbEntity
  8
UMRISS05
100
AcDbPolyline
 90
        2
 70
     0
 43
0.0
 10
358.8571062962214
 20
127.1555008334674
 10
316.3571062962214
 20
127.155500833467
  0
LWPOLYLINE
  5
D3
330
2
100
AcDbEntity
  8
UMRISS05
100
AcDbPolyline
 90
        4
 70
     0
 43
0.0
 10
316.3571062962214
 20
139.6555008334672
 10
358.8571062962214
 20
139.6555008334674
 10
358.8571062962214
 20
125.6555008334675
 10
316.3571062962214
 20
125.655500833467
  0
DIMENSION
  5
D4
330
2
100
AcDbEntity
  8
BEMASSUNG
100
AcDbDimension
  2
*D13
 10
329.3798988746634
 20
139.6555008334673
 30
0.0
 11
323.981963590154
 21
148.9793145672181
 31
0.0
 70
   128
 71
     5
 42
-1.0
  3
PROSPEKT
100
AcDbAlignedDimension
 13
316.3571062962212
 23
141.4555008334672
 33
0.0
 14
329.3798988746634
 24
139.6555008334673
 34
0.0
 50
90.0
100
AcDbRotatedDimension
  0
LWPOLYLINE
  5
E4
330
2
100
AcDbEntity
  8
UMRISS05
100
AcDbPolyline
 90
        4
 70
     0
 43
0.0
 10
313.3571062962214
 20
125.9555008334674
 10
303.3571062962214
 20
135.4555008334667
 10
303.3571062962214
 20
137.455500833467
 10
313.3571062962214
 20
137.4555008334674
  0
LWPOLYLINE
  5
E5
330
2
100
AcDbEntity
  8
UMRISS05
100
AcDbPolyline
 90
        4
 70
     0
 43
0.0
 10
310.7255273488531
 20
128.4555008334674
 10
302.3571062962223
 20
128.4555008334649
 42
-0.2222222222222713
 10
302.3571062962219
 20
137.4555008334679
 10
303.3571062962214
 20
137.455500833467
  0
LWPOLYLINE
  5
E6
330
2
100
AcDbEntity
  8
UMRISS05
100
AcDbPolyline
 90
        4
 70
     1
 43
0.0
 10
313.3571062962212
 20
141.4555008334672
 10
316.3571062962212
 20
141.4555008334672
 10
316.3571062962214
 20
121.4555008334672
 10
313.3571062962214
 20
121.455500833467
  0
LINE
  5
E7
330
2
100
AcDbEntity
  8
UMRISS05
100
AcDbLine
 10
303.3571062962214
 20
135.455500833467
 30
0.0
 11
313.3571062962214
 21
135.4555008334674
 31
0.0
  0
DIMENSION
  5
E8
330
2
100
AcDbEntity
  8
BEMASSUNG
100
AcDbDimension
  2
*D14
 10
368.1379864168416
 20
125.6555008334675
 30
0.0
 11
364.3872039911325
 21
132.6555008334675
 31
0.0
 70
   128
 71
     5
 42
-1.0
  3
PROSPEKT
100
AcDbAlignedDimension
 13
358.8571062962214
 23
139.6555008334674
 33
0.0
 14
358.8571062962214
 24
125.6555008334675
 34
0.0
 50
90.0
100
AcDbRotatedDimension
  0
DIMENSION
  5
F6
330
2
100
AcDbEntity
  8
BEMASSUNG
100
AcDbDimension
  2
*D3
 10
313.5155791102779
 20
174.8294124500973
 30
0.0
 11
324.894377095301
 21
179.2482555129797
 31
0.0
 70
   128
 71
     5
 42
-1.0
  3
PROSPEKT
100
AcDbAlignedDimension
 13
316.5155791102779
 23
188.3578489066289
 33
0.0
 14
313.5155791102779
 24
188.3578489066289
 34
0.0
100
AcDbRotatedDimension
1001
ACAD
1000
DSTYLE
1002
{
1002
}
  0
DIMENSION
  5
106
330
2
100
AcDbEntity
  8
BEMASSUNG
100
AcDbDimension
  2
*D19
 10
462.5722937432579
 20
177.2634477421589
 30
0.0
 11
452.5722937432578
 21
181.3884477421589
 31
0.0
 71
     5
 42
-1.0
  3
PROSPEKT
100
AcDbAlignedDimension
 13
442.5722937432579
 23
188.3578489066289
 33
0.0
 14
462.5722937432579
 24
188.3578489066289
 34
0.0
100
AcDbRotatedDimension
  0
CIRCLE
  5
113
330
2
100
AcDbEntity
  8
UMRISS05
100
AcDbCircle
 10
452.5722937432578
 20
198.357848906629
 30
0.0
 40
4.75
  0
CIRCLE
  5
114
330
2
100
AcDbEntity
  8
UMRISS05
100
AcDbCircle
 10
452.5722937432578
 20
198.357848906629
 30
0.0
 40
2.6
  0
LINE
  5
115
330
2
100
AcDbEntity
  8
ACHSEN
100
AcDbLine
 10
444.6222937432581
 20
198.357848906629
 30
0.0
 11
460.5222937432579
 21
198.357848906629
 31
0.0
  0
LWPOLYLINE
  5
116
330
2
100
AcDbEntity
  8
ACHSEN
100
AcDbPolyline
 90
        4
 70
     1
 43
0.0
 10
348.6155791102778
 20
225.3578489066289
 10
348.615579110278
 20
238.4332550557235
 42
3.044038009981353
 10
338.4155791102776
 20
238.4332550557235
 10
338.4155791102779
 20
225.3578489066289
 42
1.0
  0
LWPOLYLINE
  5
117
330
2
100
AcDbEntity
  8
UMRISS05
100
AcDbPolyline
 90
        4
 70
     1
 43
0.0
 10
348.6155791102778
 20
226.1578489066289
 10
348.6155791102778
 20
235.498842871536
 42
4.109609026488783
 10
338.4155791102778
 20
235.498842871536
 10
338.415579110278
 20
226.1578489066289
 42
1.000000000000002
  0
LWPOLYLINE
  5
118
330
2
100
AcDbEntity
  8
UMRISS05
100
AcDbPolyline
 90
        4
 70
     0
 43
0.0
 10
313.5155791102779
 20
282.3578489066285
 10
301.5155791102779
 20
282.3578489066285
 10
301.5155791102779
 20
250.3578489066285
 10
313.5155791102779
 20
250.3578489066285
  0
LINE
  5
119
330
2
100
AcDbEntity
  8
ACHSEN
100
AcDbLine
 10
343.5155791102779
 20
216.2506560647721
 30
0.0
 11
343.5155791102779
 21
259.4578489066261
 31
0.0
  0
LINE
  5
11A
330
2
100
AcDbEntity
  8
UMRISS05
100
AcDbLine
 10
302.5155791102779
 20
282.3578489066285
 30
0.0
 11
302.5155791102779
 21
250.3578489066285
 31
0.0
  0
LINE
  5
11B
330
2
100
AcDbEntity
  8
ACHSEN
100
AcDbLine
 10
328.9155791102659
 20
232.357848906629
 30
0.0
 11
338.1155791102778
 21
232.357848906629
 31
0.0
  0
LINE
  5
11C
330
2
100
AcDbEntity
  8
ACHSEN
100
AcDbLine
 10
330.157534451188
 20
245.3578489066289
 30
0.0
 11
358.1155791102778
 21
245.3578489066289
 31
0.0
  0
DIMENSION
  5
11D
330
2
100
AcDbEntity
  8
BEMASSUNG
100
AcDbDimension
  2
*D16
 10
289.4255972030104
 20
218.3578489066289
 30
0.0
 11
285.3005972030104
 21
234.3578489066287
 31
0.0
 71
     5
 42
-1.0
  3
PROSPEKT
100
AcDbAlignedDimension
 13
301.5155791102779
 23
250.3578489066285
 33
0.0
 14
316.5155791102779
 24
218.3578489066289
 34
0.0
 50
90.0
100
AcDbRotatedDimension
  0
LINE
  5
12A
330
2
100
AcDbEntity
  8
ACHSEN
100
AcDbLine
 10
333.5155791102779
 20
236.9578489066288
 30
0.0
 11
333.5155791102779
 21
227.757848906629
 31
0.0
  0
DIMENSION
  5
12B
330
2
100
AcDbEntity
  8
BEMASSUNG
100
AcDbDimension
  2
*D17
 10
313.5155791102779
 20
239.1403517949453
 30
0.0
 11
307.7077732811958
 21
242.6403517949454
 31
0.0
 70
   128
 71
     5
 42
-1.0
  3
PROSPEKT
100
AcDbAlignedDimension
 13
301.5155791102779
 23
250.3578489066285
 33
0.0
 14
313.5155791102779
 24
238.294058718835
 34
0.0
100
AcDbRotatedDimension
  0
CIRCLE
  5
13B
330
2
100
AcDbEntity
  8
UMRISS05
100
AcDbCircle
 10
333.5155791102779
 20
232.357848906629
 30
0.0
 40
2.6
  0
DIMENSION
  5
13C
330
2
100
AcDbEntity
  8
BEMASSUNG
100
AcDbDimension
  2
*D18
 10
370.4755956178878
 20
218.3578489066289
 30
0.0
 11
366.3505956178878
 21
231.8578489066289
 31
0.0
 71
     5
 42
-1.0
  3
PROSPEKT
100
AcDbAlignedDimension
 13
358.1155791102778
 23
245.3578489066289
 33
0.0
 14
343.0155791102779
 24
218.3578489066289
 34
0.0
 50
90.0
100
AcDbRotatedDimension
  0
LINE
  5
149
330
2
100
AcDbEntity
  8
ACHSEN
100
AcDbLine
 10
353.5155791102779
 20
236.9578489066288
 30
0.0
 11
353.5155791102779
 21
227.757848906629
 31
0.0
  0
CIRCLE
  5
14A
330
2
100
AcDbEntity
  8
UMRISS05
100
AcDbCircle
 10
353.5155791102779
 20
232.357848906629
 30
0.0
 40
2.6
  0
LINE
  5
14B
330
2
100
AcDbEntity
  8
ACHSEN
100
AcDbLine
 10
348.915579110278
 20
232.357848906629
 30
0.0
 11
358.1155791102769
 21
232.3578489066292
 31
0.0
  0
LWPOLYLINE
  5
14C
330
2
100
AcDbEntity
  8
UMRISS05
100
AcDbPolyline
 90
        4
 70
     1
 43
0.0
 10
446.5722937432579
 20
282.357848906629
 10
446.5722937432579
 20
250.3578489066289
 10
455.5722937432578
 20
250.3578489066289
 10
455.5722937432578
 20
282.357848906629
  0
DIMENSION
  5
14D
330
2
100
AcDbEntity
  8
BEMASSUNG
100
AcDbDimension
  2
*D1
 10
455.5722937432578
 20
239.8279732608866
 30
0.0
 11
451.0722937432579
 21
243.9529732608866
 31
0.0
 71
     5
 42
-1.0
  3
PROSPEKT
100
AcDbAlignedDimension
 13
446.5722937432579
 23
250.3578489066289
 33
0.0
 14
455.5722937432578
 24
250.3578489066289
 34
0.0
100
AcDbRotatedDimension
1001
ACAD
1000
DSTYLE
1002
{
1002
}
  0
CIRCLE
  5
15C
330
2
100
AcDbEntity
  8
UMRISS05
100
AcDbCircle
 10
450.3722937432581
 20
226.9578489066288
 30
0.0
 40
4.75
  0
LINE
  5
15D
330
2
100
AcDbEntity
  8
ACHSEN
100
AcDbLine
 10
442.422293743258
 20
226.9578489066288
 30
0.0
 11
458.3222937432578
 21
226.9578489066288
 31
0.0
  0
LINE
  5
15E
330
2
100
AcDbEntity
  8
ACHSEN
100
AcDbLine
 10
450.3722937432581
 20
234.9078489066287
 30
0.0
 11
450.3722937432581
 21
219.007848906629
 31
0.0
  0
CIRCLE
  5
15F
330
2
100
AcDbEntity
  8
UMRISS05
100
AcDbCircle
 10
450.3722937432581
 20
226.9578489066288
 30
0.0
 40
2.6
  0
DIMENSION
  5
160
330
2
100
AcDbEntity
  8
BEMASSUNG
100
AcDbDimension
  2
*D23
 10
278.8438557715691
 20
428.357848906629
 30
0.0
 11
274.7188557715691
 21
397.3578489066289
 31
0.0
 71
     5
 42
-1.0
  3
PROSPEKT
100
AcDbAlignedDimension
 13
303.5155791102779
 23
366.3578489066289
 33
0.0
 14
313.5155791102779
 24
428.357848906629
 34
0.0
 50
90.0
100
AcDbRotatedDimension
  0
DIMENSION
  5
16D
330
2
100
AcDbEntity
  8
BEMASSUNG
100
AcDbDimension
  2
*D26
 10
278.8438557715691
 20
336.3578489066285
 30
0.0
 11
274.7188557715691
 21
351.3578489066287
 31
0.0
 71
     5
 42
-1.0
  3
PROSPEKT
100
AcDbAlignedDimension
 13
303.5155791102779
 23
366.3578489066289
 33
0.0
 14
303.5155791102779
 24
336.3578489066285
 34
0.0
 50
90.0
100
AcDbRotatedDimension
  0
DIMENSION
  5
17A
330
2
100
AcDbEntity
  8
BEMASSUNG
100
AcDbDimension
  2
*D22
 10
370.4755956178878
 20
323.357848906629
 30
0.0
 11
366.3505956178878
 21
360.8578489066289
 31
0.0
 71
     5
 42
-1.0
  3
PROSPEKT
100
AcDbAlignedDimension
 13
343.0155791102752
 23
398.3578489066289
 33
0.0
 14
358.0155791102779
 24
323.357848906629
 34
0.0
 50
90.0
100
AcDbRotatedDimension
  0
DIMENSION
  5
187
330
2
100
AcDbEntity
  8
BEMASSUNG
100
AcDbDimension
  2
*D21
 10
289.4255972030104
 20
366.3578489066289
 30
0.0
 11
285.3005972030104
 21
382.357848906629
 31
0.0
 71
     5
 42
-1.0
  3
PROSPEKT
100
AcDbAlignedDimension
 13
316.5155791102779
 23
398.3578489066289
 33
0.0
 14
303.5155791102779
 24
366.3578489066289
 34
0.0
 50
90.0
100
AcDbRotatedDimension
  0
ARC
  5
194
330
2
100
AcDbEntity
  8
UMRISS05
100
AcDbCircle
 10
392.3955791102782
 20
351.507848906639
 30
0.0
 40
79.87999999999875
100
AcDbArc
 50
170.9244549841866
 51
189.0755450158133
  0
DIMENSION
  5
195
330
2
100
AcDbEntity
  8
BEMASSUNG
100
AcDbDimension
  2
*D27
 10
326.3148652867996
 20
323.3578489066289
 30
0.0
 11
322.1898652867996
 21
346.3578489066289
 31
0.0
 71
     5
 42
-1.0
  3
PROSPEKT
100
AcDbAlignedDimension
 13
336.0155791102779
 23
369.357848906629
 33
0.0
 14
331.5155791102779
 24
323.3578489066289
 34
0.0
 50
90.0
100
AcDbRotatedDimension
  0
DIMENSION
  5
1A2
330
2
100
AcDbEntity
  8
BEMASSUNG
100
AcDbDimension
  2
*D24
 10
347.8002873925031
 20
340.4466338767562
 30
0.0
 11
343.2494807724642
 21
344.5155155346369
 31
0.0
 70
     1
 71
     5
 42
-1.0
  3
PROSPEKT
100
AcDbAlignedDimension
 13
338.9564463771516
 23
327.7983478074047
 33
0.0
 14
347.9557574766515
 24
327.909950180715
 34
0.0
  0
LWPOLYLINE
  5
1B1
330
2
100
AcDbEntity
  8
UMRISS05
100
AcDbPolyline
 90
        4
 70
     0
 43
0.0
 10
313.5155791102779
 20
366.3578489066289
 10
303.5155791102779
 20
366.3578489066289
 10
303.5155791102779
 20
336.3578489066285
 10
313.5155791102779
 20
336.3578489066285
  0
LINE
  5
1B2
330
2
100
AcDbEntity
  8
ACHSEN
100
AcDbLine
 10
336.0155791102779
 20
301.8578489066289
 30
0.0
 11
351.0155791102779
 21
301.8578489066292
 31
0.0
  0
LINE
  5
1B3
330
2
100
AcDbEntity
  8
ACHSEN
100
AcDbLine
 10
331.5155791102779
 20
323.3578489066289
 30
0.0
 11
356.0155791102779
 21
323.3578489066289
 31
0.0
  0
CIRCLE
  5
1B4
330
2
100
AcDbEntity
  8
UMRISS05
100
AcDbCircle
 10
343.5155791102779
 20
323.3578489066289
 30
0.0
 40
9.0
  0
DIMENSION
  5
1B5
330
2
100
AcDbEntity
  8
BEMASSUNG
100
AcDbDimension
  2
*D28
 10
326.3148652867996
 20
301.8578489066289
 30
0.0
 11
322.1898652867996
 21
312.6078489066289
 31
0.0
 71
     5
 42
-1.0
  3
PROSPEKT
100
AcDbAlignedDimension
 13
331.5155791102779
 23
323.3578489066289
 33
0.0
 14
336.0155791102779
 24
301.8578489066289
 34
0.0
 50
90.0
100
AcDbRotatedDimension
  0
LINE
  5
1C2
330
2
100
AcDbEntity
  8
UMRISS05
100
AcDbLine
 10
313.5155791102779
 20
338.9078489066296
 30
0.0
 11
303.5155791102779
 21
338.9078489066296
 31
0.0
  0
DIMENSION
  5
1C3
330
2
100
AcDbEntity
  8
BEMASSUNG
100
AcDbDimension
  2
*D29
 10
313.5155791102779
 20
325.885608673911
 30
0.0
 11
308.3404260383506
 21
329.385608673911
 31
0.0
 70
   128
 71
     5
 42
-1.0
  3
PROSPEKT
100
AcDbAlignedDimension
 13
303.5155791102779
 23
336.3578489066285
 33
0.0
 14
313.5155791102779
 24
325.885608673911
 34
0.0
100
AcDbRotatedDimension
  0
LINE
  5
1D3
330
2
100
AcDbEntity
  8
ACHSEN
100
AcDbLine
 10
343.5155791102779
 20
311.357848906629
 30
0.0
 11
343.5155791102779
 21
335.3578489066289
 31
0.0
  0
LWPOLYLINE
  5
1D4
330
2
100
AcDbEntity
  8
UMRISS05
100
AcDbPolyline
 90
        4
 70
     1
 43
0.0
 10
339.0754882189598
 20
318.7991347756724
 10
348.0747993184595
 20
318.9107371489835
 10
347.9557574766515
 20
327.909950180715
 10
338.9564463771516
 20
327.7983478074047
  0
DIMENSION
  5
1D5
330
2
100
AcDbEntity
  8
BEMASSUNG
100
AcDbDimension
  2
*D25
 10
348.0155791102779
 20
382.2255125880882
 30
0.0
 11
343.5155791102779
 21
386.3505125880882
 31
0.0
 71
     5
 42
-1.0
  3
PROSPEKT
100
AcDbAlignedDimension
 13
339.0155791102779
 23
369.357848906629
 33
0.0
 14
348.0155791102779
 24
369.357848906629
 34
0.0
100
AcDbRotatedDimension
  0
LINE
  5
1E4
330
2
100
AcDbEntity
  8
ACHSEN
100
AcDbLine
 10
336.0155791102779
 20
369.357848906629
 30
0.0
 11
351.0155791102779
 21
369.357848906629
 31
0.0
  0
LINE
  5
1E5
330
2
100
AcDbEntity
  8
UMRISS05
100
AcDbLine
 10
313.5155791102779
 20
364.1078489066289
 30
0.0
 11
303.5155791102779
 21
364.1078489066289
 31
0.0
  0
LINE
  5
1E6
330
2
100
AcDbEntity
  8
ACHSEN
100
AcDbLine
 10
343.5155791102779
 20
361.8578489066289
 30
0.0
 11
343.5155791102779
 21
376.8578489066289
 31
0.0
  0
CIRCLE
  5
1E7
330
2
100
AcDbEntity
  8
UMRISS05
100
AcDbCircle
 10
343.5155791102779
 20
369.357848906629
 30
0.0
 40
4.5
  0
LWPOLYLINE
  5
1E8
330
2
100
AcDbEntity
  8
UMRISS05
100
AcDbPolyline
 90
        4
 70
     1
 43
0.0
 10
448.7722937432579
 20
336.357848906629
 10
448.7722937432597
 20
366.6578489066291
 10
446.5722937432579
 20
366.6578489066291
 10
446.5722937432579
 20
336.357848906629
  0
LWPOLYLINE
  5
1E9
330
2
100
AcDbEntity
  8
UMRISS05
100
AcDbPolyline
 90
        4
 70
     0
 43
0.0
 10
448.7722937432579
 20
338.9078489066291
 10
458.0722937432579
 20
338.9078489066291
 10
458.0722937432581
 20
364.1078489066285
 10
448.7722937432579
 20
364.1078489066289
  0
ARC
  5
1EA
330
2
100
AcDbEntity
  8
UMRISS05
100
AcDbCircle
 10
369.8922937432594
 20
351.507848906629
 30
0.0
 40
79.87999999999875
100
AcDbArc
 50
350.9244549841866
 51
9.075545015813375
  0
DIMENSION
  5
1EB
330
2
100
AcDbEntity
  8
BEMASSUNG
100
AcDbDimension
  2
*D2
 10
458.0722937432579
 20
325.9850493210751
 30
0.0
 11
450.2398792208942
 21
330.1100493210751
 31
0.0
 70
   128
 71
     5
 42
-1.0
  3
PROSPEKT
100
AcDbAlignedDimension
 13
446.5722937432579
 23
336.357848906629
 33
0.0
 14
458.0722937432579
 24
338.9078489066291
 34
0.0
100
AcDbRotatedDimension
1001
ACAD
1000
DSTYLE
1002
{
1002
}
  0
DIMENSION
  5
1FB
330
2
100
AcDbEntity
  8
BEMASSUNG
100
AcDbDimension
  2
*D30
 10
289.4255972030104
 20
398.3578489066289
 30
0.0
 11
285.3005972030104
 21
413.3578489066289
 31
0.0
 71
     5
 42
-1.0
  3
PROSPEKT
100
AcDbAlignedDimension
 13
313.5155791102779
 23
428.357848906629
 33
0.0
 14
316.5155791102779
 24
398.3578489066289
 34
0.0
 50
90.0
100
AcDbRotatedDimension
  0
CIRCLE
  5
208
330
2
100
AcDbEntity
  8
UMRISS05
100
AcDbCircle
 10
452.5722937432578
 20
418.3578489066285
 30
0.0
 40
4.75
  0
CIRCLE
  5
209
330
2
100
AcDbEntity
  8
UMRISS05
100
AcDbCircle
 10
452.5722937432578
 20
418.3578489066285
 30
0.0
 40
2.6
  0
LINE
  5
20A
330
2
100
AcDbEntity
  8
ACHSEN
100
AcDbLine
 10
444.6222937432581
 20
418.3578489066285
 30
0.0
 11
460.5222937432579
 21
418.3578489066285
 31
0.0
  0
DIMENSION
  5
20B
330
2
100
AcDbEntity
  8
BEMASSUNG
100
AcDbDimension
  2
*D20
 10
424.6125440370267
 20
418.3578489066285
 30
0.0
 11
421.3536564197818
 21
423.7519905750618
 31
0.0
 70
   128
 71
     5
 42
-1.0
  3
PROSPEKT
100
AcDbAlignedDimension
 13
442.5722937432579
 23
428.357848906629
 33
0.0
 14
444.6222937432581
 24
418.3578489066285
 34
0.0
 50
90.0
100
AcDbRotatedDimension
  0
LINE
  5
21B
330
2
100
AcDbEntity
  8
ACHSEN
100
AcDbLine
 10
452.5722937432578
 20
426.3078489066283
 30
0.0
 11
452.5722937432578
 21
410.4078489066287
 31
0.0
  0
ENDSEC
  0
SECTION
  2
OBJECTS
  0
DICTIONARY
  5
7
330
0
100
AcDbDictionary
281
     1
  3
ACAD_GROUP
350
1F
  3
ACAD_LAYOUT
350
B
  3
ACAD_MLINESTYLE
350
20
  3
ACAD_PLOTSETTINGS
350
21
  3
ACAD_PLOTSTYLENAME
350
6
  3
AcDbVariableDictionary
350
247
  3
AcmDictionary
350
22C
  3
AMG
350
21D
  3
DWGPROPS
350
246
  0
DICTIONARY
  5
1F
102
{ACAD_REACTORS
330
7
102
}
330
7
100
AcDbDictionary
281
     1
  0
DICTIONARY
  5
B
102
{ACAD_REACTORS
330
7
102
}
330
7
100
AcDbDictionary
281
     1
  3
Layout1
350
F
  3
Model
350
A
  0
DICTIONARY
  5
20
102
{ACAD_REACTORS
330
7
102
}
330
7
100
AcDbDictionary
281
     1
  3
STANDARD
350
24
  0
DICTIONARY
  5
21
102
{ACAD_REACTORS
330
7
102
}
330
7
100
AcDbDictionary
281
     1
  0
ACDBDICTIONARYWDFLT
  5
6
102
{ACAD_REACTORS
330
7
102
}
330
7
100
AcDbDictionary
281
     1
  3
Normal
350
5
100
AcDbDictionaryWithDefault
340
5
  0
DICTIONARY
  5
247
102
{ACAD_REACTORS
330
7
102
}
330
7
100
AcDbDictionary
281
     1
  3
DIMASSOC
350
249
  3
HIDETEXT
350
248
  0
DICTIONARY
  5
22C
102
{ACAD_REACTORS
330
7
102
}
330
7
100
AcDbDictionary
281
     1
  3
AcmStdDictionary
350
22D
  0
DICTIONARY
  5
21D
102
{ACAD_REACTORS
330
7
102
}
330
7
100
AcDbDictionary
281
     1
  3
AcMgSettings
350
227
  3
AMGLAYCFG
350
21C
  0
XRECORD
  5
246
102
{ACAD_REACTORS
330
7
102
}
330
7
100
AcDbXrecord
280
     1
  1
DWGPROPS COOKIE
  2

  3

  4

  6

  7

  8

  9

300
AmdtFileType=84
301
=
302
=
303
=
304
=
305
=
306
=
307
=
308
=
309
=
 40
0.3059229166666666
 41
2451039.448067361
 42
2452402.46237912
  1

 90
        1
  0
LAYOUT
  5
F
102
{ACAD_REACTORS
330
B
102
}
330
B
100
AcDbPlotSettings
  1

  2
G:\VORLAGEN\AutoCAD2002\Plotten\A3hoch-MSL.pc3
  4

  6

 40
0.0
 41
0.0
 42
0.0
 43
0.0
 44
0.0
 45
0.0
 46
0.0
 47
0.0
 48
0.0
 49
0.0
140
0.0
141
0.0
142
1.0
143
1.0
 70
   688
 72
     0
 73
     0
 74
     5
  7
monochrome.ctb
 75
    16
147
1.0
148
0.0
149
0.0
100
AcDbLayout
  1
Layout1
 70
     0
 71
     1
 10
0.0
 20
0.0
 11
420.0
 21
297.0
 12
0.0
 22
0.0
 32
0.0
 14
5.0
 24
5.0
 34
0.0
 15
415.0
 25
300.0
 35
0.0
146
0.0
 13
0.0
 23
0.0
 33
0.0
 16
1.0
 26
0.0
 36
0.0
 17
0.0
 27
1.0
 37
0.0
 76
     0
330
C
  0
LAYOUT
  5
A
102
{ACAD_REACTORS
330
B
102
}
330
B
100
AcDbPlotSettings
  1

  2
G:\VORLAGEN\AutoCAD2002\Plotten\A3hoch-MSL.pc3
  4

  6

 40
0.0
 41
0.0
 42
0.0
 43
0.0
 44
0.0
 45
0.0
 46
0.0
 47
0.0
 48
0.0
 49
0.0
140
0.0
141
0.0
142
1.0
143
1.0
 70
  1712
 72
     0
 73
     0
 74
     0
  7
monochrome.ctb
 75
     0
147
1.0
148
0.0
149
0.0
100
AcDbLayout
  1
Model
 70
     1
 71
     0
 10
0.0
 20
0.0
 11
12.0
 21
9.0
 12
0.0
 22
0.0
 32
0.0
 14
0.0
 24
0.0
 34
0.0
 15
0.0
 25
0.0
 35
0.0
146
0.0
 13
0.0
 23
0.0
 33
0.0
 16
1.0
 26
0.0
 36
0.0
 17
0.0
 27
1.0
 37
0.0
 76
     0
330
2
  0
MLINESTYLE
  5
24
102
{ACAD_REACTORS
330
20
102
}
330
20
100
AcDbMlineStyle
  2
STANDARD
 70
     0
  3

 62
   256
 51
90.0
 52
90.0
 71
     2
 49
0.5
 62
   256
  6
BYLAYER
 49
-0.5
 62
   256
  6
BYLAYER
  0
ACDBPLACEHOLDER
  5
5
102
{ACAD_REACTORS
330
6
102
}
330
6
  0
DICTIONARYVAR
  5
249
102
{ACAD_REACTORS
330
247
102
}
330
247
100
DictionaryVariables
280
     0
  1
1
  0
DICTIONARYVAR
  5
248
102
{ACAD_REACTORS
330
247
102
}
330
247
100
DictionaryVariables
280
     0
  1
1
  0
DICTIONARY
  5
22D
102
{ACAD_REACTORS
330
22C
102
}
330
22C
100
AcDbDictionary
281
     1
  3
DIN
350
22E
  0
DICTIONARY
  5
227
102
{ACAD_REACTORS
330
21D
102
}
330
21D
100
AcDbDictionary
281
     1
  3
DWGSETTINGS
350
226
  3
TRANSSETTINGS
350
228
  0
ENDSEC
  0
EOF
