  0
SECTION
  2
HEADER
  9
$ACADVER
  1
AC1009
  9
$INSBASE
 10
0
 20
0
  9
$EXTMIN
 10
-99.9496503339829
 20
-63.5709100813751
  9
$EXTMAX
 10
85.066936084435
 20
113.2121572333584
  9
$LIMMIN
 10
-99.9496503339829
 20
-63.5709100813751
  9
$LIMMAX
 10
85.066936084435
 20
113.2121572333584
  9
$VIEWCTR
 10
10
 20
10
  9
$VIEWSIZE
 40
10
  9
$SNAPMODE
 70
0
  9
$SNAPUNIT
 10
1
 20
1
  9
$SNAPBASE
 10
0
 20
0
  9
$SNAPANG
 50
0
  9
$SNAPSTYLE
 70
0
  9
$SNAPISOPAIR
 70
0
  9
$GRIDMODE
 70
0
  9
$GRIDUNIT
 10
0
 20
0
  9
$ORTHOMODE
 70
0
  9
$REGENMODE
 70
1
  9
$FILLMODE
 70
1
  9
$QTEXTMODE
 70
0
  9
$DRAGMODE
 70
2
  9
$LTSCALE
 40
1
  9
$OSMODE
 70
0
  9
$ATTMODE
 70
1
  9
$TEXTSIZE
 40
3.5
  9
$TRACEWID
 40
0.5
  9
$TEXTSTYLE
  7
STANDARD
  9
$CLAYER
  8
0
  9
$CELTYPE
  6
BYLAYER
  9
$CECOLOR
 62
256
  9
$DIMSCALE
 40
1
  9
$DIMASZ
 40
0.18
  9
$DIMEXO
 40
0.0625
  9
$DIMDLI
 40
0.38
  9
$DIMRND
 40
0
  9
$DIMDLE
 40
0
  9
$DIMEXE
 40
0.18
  9
$DIMTP
 40
0
  9
$DIMTM
 40
0
  9
$DIMTXT
 40
0.18
  9
$DIMCEN
 40
0.09
  9
$DIMTSZ
 40
0
  9
$DIMTOL
 70
0
  9
$DIMLIM
 70
0
  9
$DIMTIH
 70
1
  9
$DIMTOH
 70
1
  9
$DIMSE1
 70
0
  9
$DIMSE2
 70
0
  9
$DIMTAD
 70
0
  9
$DIMZIN
 70
0
  9
$DIMBLK
  1

  9
$DIMASO
 70
1
  9
$DIMSHO
 70
1
  9
$DIMPOST
  1

  9
$DIMAPOST
  1

  9
$DIMALT
 70
0
  9
$DIMALTD
 70
2
  9
$DIMALTF
 40
25.4
  9
$DIMLFAC
 40
1
  9
$DIMTOFL
 70
0
  9
$DIMTVP
 40
0
  9
$DIMTIX
 70
0
  9
$DIMSOXD
 70
0
  9
$DIMSAH
 70
0
  9
$DIMBLK1
  1

  9
$DIMBLK2
  1

  9
$DIMSTYLE
  2
*UNNAMED
  9
$DIMCLRD
 70
0
  9
$DIMCLRE
 70
0
  9
$DIMCLRT
 70
0
  9
$DIMTFAC
 40
1
  9
$DIMGAP
 40
0.09
  9
$LUNITS
 70
2
  9
$LUPREC
 70
4
  9
$AXISMODE
 70
0
  9
$AXISUNIT
 10
0
 20
0
  9
$SKETCHINC
 40
0.1
  9
$FILLETRAD
 40
2
  9
$AUNITS
 70
0
  9
$AUPREC
 70
0
  9
$MENU
  1
ACAD
  9
$ELEVATION
 40
0
  9
$THICKNESS
 40
0
  9
$VIEWDIR
 10
0
 20
0
 30
1
  9
$LIMCHECK
 70
0
  9
$BLIPMODE
 70
1
  9
$CHAMFERA
 40
0
  9
$CHAMFERB
 40
0
  9
$FASTZOOM
 70
1
  9
$SKPOLY
 70
0
  9
$ANGBASE
 50
0
  9
$ANGDIR
 70
0
  9
$PDMODE
 70
0
  9
$PDSIZE
 40
0
  9
$PLINEWID
 40
0
  9
$COORDS
 70
2
  0
ENDSEC
  0
SECTION
  2
TABLES
  0
TABLE
  2
DIMSTYLE
 70
4
  0
DIMSTYLE
  2
DMST_1
 70
0
  3

  4

  5

  6

  7

 40
1
 41
5
 42
0
 43
7
 44
1.5
 45
0
 46
0
 47
0
 48
0
140
5
141
0
142
0
143
25.4
144
1
145
0
146
1
147
0.09
 71
0
 72
0
 73
0
 74
0
 75
0
 76
0
 77
1
 78
1
170
0
171
2
172
0
173
0
174
0
175
0
176
1
177
1
178
7
  0
DIMSTYLE
  2
DMST_2
 70
0
  3

  4

  5

  6

  7

 40
1
 41
5
 42
0
 43
7
 44
1.5
 45
0
 46
0
 47
0
 48
0
140
5
141
0
142
0
143
25.4
144
1
145
0
146
1
147
0.09
 71
0
 72
0
 73
0
 74
0
 75
0
 76
0
 77
1
 78
1
170
0
171
2
172
0
173
0
174
0
175
0
176
7
177
7
178
7
  0
DIMSTYLE
  2
DMST_3
 70
0
  3

  4

  5

  6

  7

 40
1
 41
5
 42
0
 43
7
 44
2
 45
0
 46
0
 47
0
 48
0
140
5
141
0
142
0
143
25.4
144
1
145
0
146
1
147
0.09
 71
0
 72
0
 73
0
 74
0
 75
0
 76
0
 77
1
 78
9
170
0
171
2
172
0
173
0
174
0
175
0
176
1
177
1
178
7
  0
DIMSTYLE
  2
DMST_4
 70
0
  3

  4

  5

  6

  7

 40
1
 41
5
 42
0
 43
7
 44
2
 45
0
 46
0
 47
0
 48
0
140
5
141
0
142
0
143
25.4
144
1
145
0
146
1
147
0.09
 71
0
 72
0
 73
0
 74
0
 75
0
 76
0
 77
1
 78
9
170
0
171
2
172
0
173
0
174
0
175
0
176
7
177
7
178
7
  0
ENDTAB
  0
TABLE
  2
LTYPE
 70
9
  0
LTYPE
  2
CONTINUOUS
 70
64
  3
Solid line
 72
65
 73
0
 40
0
  0
LTYPE
  2
BORDER
 70
64
  3
__ __ . __ __ .
 72
65
 73
6
 40
8.520500690321876
 49
2.434428768663393
 49
-1.217214384331697
 49
2.434428768663393
 49
-1.217214384331697
 49
0
 49
-1.217214384331697
  0
LTYPE
  2
CENTER
 70
64
  3
____ _ ____ _
 72
65
 73
4
 40
9.737715074653574
 49
6.086071921658483
 49
-1.217214384331697
 49
1.217214384331697
 49
-1.217214384331697
  0
LTYPE
  2
DASHDOT
 70
64
  3
__ . __ . __ .
 72
65
 73
4
 40
4.868857537326787
 49
2.434428768663393
 49
-1.217214384331697
 49
0
 49
-1.217214384331697
  0
LTYPE
  2
DASHED
 70
64
  3
__ __ __ __ __
 72
65
 73
2
 40
3.65164315299509
 49
2.434428768663393
 49
-1.217214384331697
  0
LTYPE
  2
DIVIDE
 70
64
  3
__ . . __ . . 
 72
65
 73
6
 40
6.086071921658483
 49
2.434428768663393
 49
-1.217214384331697
 49
0
 49
-1.217214384331697
 49
0
 49
-1.217214384331697
  0
LTYPE
  2
DOT
 70
64
  3
..............
 72
65
 73
4
 40
2.434428768663393
 49
0
 49
-1.217214384331697
 49
0
 49
-1.217214384331697
  0
LTYPE
  2
HIDDEN
 70
64
  3
_ _ _ _ _ _ _
 72
65
 73
2
 40
1.825821576497545
 49
1.217214384331697
 49
-0.6086071921658484
  0
LTYPE
  2
PHANTOM
 70
64
  3
_____ _ _ _____ _ _ 
 72
65
 73
6
 40
12.17214384331697
 49
6.086071921658483
 49
-1.217214384331697
 49
1.217214384331697
 49
-1.217214384331697
 49
1.217214384331697
 49
-1.217214384331697
  0
ENDTAB
  0
TABLE
  2
LAYER
 70
3
  0
LAYER
  2
1
 70
0
 62
7
  6
CONTINUOUS
  0
LAYER
  2
0
 70
0
 62
7
  6
CONTINUOUS
  0
ENDTAB
  0
TABLE
  2
STYLE
 70
4
  0
STYLE
  2
STANDARD
 70
0
 40
0
 41
1
 50
0
 71
0
 42
3.5
  3
txt
  4

  0
STYLE
  2
SIMPLEX
 70
0
 40
0
 41
1
 50
0
 71
0
 42
3.5
  3
simplex
  4

  0
STYLE
  2
COMPLEX
 70
0
 40
0
 41
1
 50
0
 71
0
 42
3.5
  3
complex
  4

  0
STYLE
  2
ITALIC
 70
0
 40
0
 41
1
 50
0
 71
0
 42
3.5
  3
italic
  4

  0
ENDTAB
  0
TABLE
  2
VIEW
 70
0
  0
ENDTAB
  0
ENDSEC
  0
SECTION
  2
BLOCKS
  0
BLOCK
  8
1
  2
*D0
 70
1
 10
0
 20
0
 30
0
  0
LINE
  8
1
 62
1
 10
-82.4496503339829
 20
25.8510481190782
 30
0
 11
-54.4496503339829
 21
25.8510481190782
 31
0
  0
LINE
  8
1
 62
1
 10
-54.4496503339829
 20
10.42908991862489
 30
0
 11
-54.4496503339829
 21
27.3510481190782
 31
0
  0
LINE
  8
1
 62
1
 10
-82.4496503339829
 20
39.42908991862489
 30
0
 11
-82.4496503339829
 21
24.3510481190782
 31
0
  0
SOLID
  8
1
 62
1
 10
-54.4496503339829
 20
25.8510481190782
 30
0
 11
-59.4496503339829
 21
25.2010481190782
 31
0
 12
-59.4496503339829
 22
26.5010481190782
 32
0
 13
-59.4496503339829
 23
26.5010481190782
 33
0
  0
SOLID
  8
1
 62
1
 10
-82.4496503339829
 20
25.8510481190782
 30
0
 11
-77.4496503339829
 21
26.5010481190782
 31
0
 12
-77.4496503339829
 22
25.2010481190782
 32
0
 13
-77.4496503339829
 23
25.2010481190782
 33
0
  0
TEXT
  8
1
 62
7
 10
-75.80040033398291
 20
25.9410481190782
 30
0
 40
5
  1
2x14
 41
0.88209
  0
ENDBLK
  8
0
  0
BLOCK
  8
1
  2
*D1
 70
1
 10
0
 20
0
 30
0
  0
LINE
  8
1
 62
1
 10
-94.8596503339829
 20
-47.5709100813751
 30
0
 11
-94.8596503339829
 21
-37.5709100813751
 31
0
  0
LINE
  8
1
 62
1
 10
-94.8596503339829
 20
-53.5709100813751
 30
0
 11
-94.8596503339829
 21
-63.5709100813751
 31
0
  0
LINE
  8
1
 62
1
 10
-94.8596503339829
 20
-53.5709100813751
 30
0
 11
-94.8596503339829
 21
-47.5709100813751
 31
0
  0
LINE
  8
1
 62
1
 10
-82.4496503339829
 20
-47.5709100813751
 30
0
 11
-96.3596503339829
 21
-47.5709100813751
 31
0
  0
LINE
  8
1
 62
1
 10
-82.4496503339829
 20
-53.5709100813751
 30
0
 11
-96.3596503339829
 21
-53.5709100813751
 31
0
  0
SOLID
  8
1
 62
1
 10
-94.8596503339829
 20
-47.5709100813751
 30
0
 11
-95.5096503339829
 21
-42.5709100813751
 31
0
 12
-94.20965033398291
 22
-42.5709100813751
 32
0
 13
-94.20965033398291
 23
-42.5709100813751
 33
0
  0
SOLID
  8
1
 62
1
 10
-94.8596503339829
 20
-53.5709100813751
 30
0
 11
-94.20965033398289
 21
-58.5709100813751
 31
0
 12
-95.5096503339829
 22
-58.5709100813751
 32
0
 13
-95.5096503339829
 23
-58.5709100813751
 33
0
  0
TEXT
  8
1
 62
7
 10
-94.9496503339829
 20
-52.04106008137509
 30
0
 40
5
  1
6
 50
90
 41
0.88209
  0
ENDBLK
  8
0
  0
BLOCK
  8
1
  2
*D2
 70
1
 10
0
 20
0
 30
0
  0
LINE
  8
1
 62
1
 10
-54.44965033398289
 20
-22.1609100813751
 30
0
 11
40.55034966601711
 21
-22.1609100813751
 31
0
  0
LINE
  8
1
 62
1
 10
40.55034966601711
 20
19.42908991862489
 30
0
 11
40.55034966601711
 21
-23.6609100813751
 31
0
  0
LINE
  8
1
 62
1
 10
-54.44965033398289
 20
10.42908991862489
 30
0
 11
-54.44965033398289
 21
-23.6609100813751
 31
0
  0
SOLID
  8
1
 62
1
 10
-54.44965033398289
 20
-22.1609100813751
 30
0
 11
-49.44965033398289
 21
-21.5109100813751
 31
0
 12
-49.44965033398289
 22
-22.81091008137509
 32
0
 13
-49.44965033398289
 23
-22.81091008137509
 33
0
  0
SOLID
  8
1
 62
1
 10
40.55034966601711
 20
-22.1609100813751
 30
0
 11
35.55034966601711
 21
-22.81091008137509
 31
0
 12
35.55034966601711
 22
-21.5109100813751
 32
0
 13
35.55034966601711
 23
-21.5109100813751
 33
0
  0
TEXT
  8
1
 62
7
 10
-10.62502533398289
 20
-22.0709100813751
 30
0
 40
5
  1
95
 41
0.88209
  0
ENDBLK
  8
0
  0
BLOCK
  8
1
  2
*D3
 70
1
 10
0
 20
0
 30
0
  0
LINE
  8
1
 62
1
 10
-54.4496503339829
 20
-7.160910081375107
 30
0
 11
10.5503496660171
 21
-7.160910081375107
 31
0
  0
LINE
  8
1
 62
1
 10
10.5503496660171
 20
16.4290899186249
 30
0
 11
10.5503496660171
 21
-8.660910081375107
 31
0
  0
LINE
  8
1
 62
1
 10
-54.4496503339829
 20
10.4290899186249
 30
0
 11
-54.4496503339829
 21
-8.660910081375107
 31
0
  0
SOLID
  8
1
 62
1
 10
-54.4496503339829
 20
-7.160910081375107
 30
0
 11
-49.4496503339829
 21
-6.510910081375107
 31
0
 12
-49.4496503339829
 22
-7.810910081375107
 32
0
 13
-49.4496503339829
 23
-7.810910081375107
 33
0
  0
SOLID
  8
1
 62
1
 10
10.5503496660171
 20
-7.160910081375107
 30
0
 11
5.550349666017102
 21
-7.810910081375106
 31
0
 12
5.550349666017102
 22
-6.510910081375107
 32
0
 13
5.550349666017102
 23
-6.510910081375107
 33
0
  0
TEXT
  8
1
 62
7
 10
-25.6250253339829
 20
-7.070910081375104
 30
0
 40
5
  1
65
 41
0.88209
  0
ENDBLK
  8
0
  0
BLOCK
  8
1
  2
*D4
 70
1
 10
0
 20
0
 30
0
  0
LINE
  8
1
 62
1
 10
55.766292811783
 20
-58.57091008137509
 30
0
 11
55.766292811783
 21
-42.57091008137509
 31
0
  0
LINE
  8
1
 62
1
 10
39.05034966601711
 20
-42.57091008137509
 30
0
 11
57.266292811783
 21
-42.57091008137509
 31
0
  0
LINE
  8
1
 62
1
 10
39.05034966601711
 20
-58.57091008137509
 30
0
 11
57.266292811783
 21
-58.57091008137509
 31
0
  0
SOLID
  8
1
 62
1
 10
55.766292811783
 20
-42.57091008137509
 30
0
 11
56.416292811783
 21
-47.57091008137509
 31
0
 12
55.116292811783
 22
-47.57091008137509
 32
0
 13
55.116292811783
 23
-47.57091008137509
 33
0
  0
SOLID
  8
1
 62
1
 10
55.766292811783
 20
-58.57091008137509
 30
0
 11
55.116292811783
 21
-53.57091008137509
 31
0
 12
56.416292811783
 22
-53.57091008137509
 32
0
 13
56.416292811783
 23
-53.57091008137509
 33
0
  0
TEXT
  8
1
 62
7
 10
55.676292811783
 20
-53.51121008137509
 30
0
 40
5
  1
16
 50
90
 41
0.88209
  0
ENDBLK
  8
0
  0
BLOCK
  8
1
  2
*D5
 70
1
 10
0
 20
0
 30
0
  0
LINE
  8
1
 62
1
 10
83.566936084435
 20
10.4290899186249
 30
0
 11
83.566936084435
 21
90.42908991862491
 31
0
  0
LINE
  8
1
 62
1
 10
31.55034966601712
 20
90.42908991862491
 30
0
 11
85.066936084435
 21
90.42908991862491
 31
0
  0
LINE
  8
1
 62
1
 10
31.55034966601712
 20
10.4290899186249
 30
0
 11
85.066936084435
 21
10.4290899186249
 31
0
  0
SOLID
  8
1
 62
1
 10
83.566936084435
 20
90.42908991862491
 30
0
 11
84.21693608443501
 21
85.42908991862491
 31
0
 12
82.91693608443499
 22
85.42908991862491
 32
0
 13
82.91693608443499
 23
85.42908991862491
 33
0
  0
SOLID
  8
1
 62
1
 10
83.566936084435
 20
10.4290899186249
 30
0
 11
82.91693608443499
 21
15.4290899186249
 31
0
 12
84.21693608443499
 22
15.4290899186249
 32
0
 13
84.21693608443499
 23
15.4290899186249
 33
0
  0
TEXT
  8
1
 62
7
 10
83.476936084435
 20
46.75371491862491
 30
0
 40
5
  1
80
 50
90
 41
0.88209
  0
ENDBLK
  8
0
  0
BLOCK
  8
1
  2
*D6
 70
1
 10
0
 20
0
 30
0
  0
LINE
  8
1
 62
7
 10
55.54388766560201
 20
10.4290899186249
 30
0
 11
55.54388766560201
 21
34.4290899186249
 31
0
  0
LINE
  8
1
 62
7
 10
15.4502755211291
 20
34.4290899186249
 30
0
 11
57.04388766560201
 21
34.4290899186249
 31
0
  0
LINE
  8
1
 62
7
 10
31.55034966601711
 20
10.4290899186249
 30
0
 11
57.04388766560201
 21
10.4290899186249
 31
0
  0
SOLID
  8
1
 62
7
 10
55.54388766560201
 20
10.4290899186249
 30
0
 11
54.89388766560202
 21
15.4290899186249
 31
0
 12
56.19388766560201
 22
15.4290899186249
 32
0
 13
56.19388766560201
 23
15.4290899186249
 33
0
  0
SOLID
  8
1
 62
7
 10
55.54388766560201
 20
34.4290899186249
 30
0
 11
56.19388766560201
 21
29.4290899186249
 31
0
 12
54.89388766560202
 22
29.4290899186249
 32
0
 13
54.89388766560202
 23
29.4290899186249
 33
0
  0
TEXT
  8
1
 62
7
 10
55.45388766560201
 20
18.7537149186249
 30
0
 40
5
  1
24
 50
90
 41
0.88209
  0
ENDBLK
  8
0
  0
BLOCK
  8
1
  2
*D7
 70
1
 10
0
 20
0
 30
0
  0
LINE
  8
1
 62
7
 10
55.493888675534
 20
34.4290899186249
 30
0
 11
55.493888675534
 21
90.42908991862491
 31
0
  0
LINE
  8
1
 62
7
 10
31.55034966601711
 20
90.42908991862491
 30
0
 11
56.993888675534
 21
90.42908991862491
 31
0
  0
LINE
  8
1
 62
7
 10
15.4502755211291
 20
34.4290899186249
 30
0
 11
56.993888675534
 21
34.4290899186249
 31
0
  0
SOLID
  8
1
 62
7
 10
55.493888675534
 20
90.42908991862491
 30
0
 11
56.14388867553399
 21
85.42908991862491
 31
0
 12
54.843888675534
 22
85.42908991862491
 32
0
 13
54.843888675534
 23
85.42908991862491
 33
0
  0
SOLID
  8
1
 62
7
 10
55.493888675534
 20
34.4290899186249
 30
0
 11
54.843888675534
 21
39.4290899186249
 31
0
 12
56.14388867553399
 22
39.4290899186249
 32
0
 13
56.14388867553399
 23
39.4290899186249
 33
0
  0
TEXT
  8
1
 62
7
 10
55.40388867553399
 20
55.32336491862491
 30
0
 40
5
  1
1=56
 50
90
 41
0.88209
  0
ENDBLK
  8
0
  0
BLOCK
  8
1
  2
*D8
 70
1
 10
0
 20
0
 30
0
  0
LINE
  8
1
 62
1
 10
-94.8596503339829
 20
10.4290899186249
 30
0
 11
-94.8596503339829
 21
39.4290899186249
 31
0
  0
LINE
  8
1
 62
1
 10
-82.4496503339829
 20
39.4290899186249
 30
0
 11
-96.3596503339829
 21
39.4290899186249
 31
0
  0
LINE
  8
1
 62
1
 10
-54.4496503339829
 20
10.4290899186249
 30
0
 11
-96.3596503339829
 21
10.4290899186249
 31
0
  0
SOLID
  8
1
 62
1
 10
-94.8596503339829
 20
10.4290899186249
 30
0
 11
-95.5096503339829
 21
15.4290899186249
 31
0
 12
-94.20965033398291
 22
15.4290899186249
 32
0
 13
-94.20965033398291
 23
15.4290899186249
 33
0
  0
SOLID
  8
1
 62
1
 10
-94.8596503339829
 20
39.4290899186249
 30
0
 11
-94.20965033398289
 21
34.4290899186249
 31
0
 12
-95.5096503339829
 22
34.4290899186249
 32
0
 13
-95.5096503339829
 23
34.4290899186249
 33
0
  0
TEXT
  8
1
 62
7
 10
-94.9496503339829
 20
21.2537149186249
 30
0
 40
5
  1
29
 50
90
 41
0.88209
  0
ENDBLK
  8
0
  0
BLOCK
  8
1
  2
*D9
 70
1
 10
0
 20
0
 30
0
  0
LINE
  8
1
 62
1
 10
-94.8596503339829
 20
69.42908991862491
 30
0
 11
-94.8596503339829
 21
90.42908991862491
 31
0
  0
LINE
  8
1
 62
1
 10
-54.4496503339829
 20
90.42908991862491
 30
0
 11
-96.3596503339829
 21
90.42908991862491
 31
0
  0
LINE
  8
1
 62
1
 10
-82.4496503339829
 20
69.42908991862491
 30
0
 11
-96.3596503339829
 21
69.42908991862491
 31
0
  0
SOLID
  8
1
 62
1
 10
-94.8596503339829
 20
90.42908991862491
 30
0
 11
-94.20965033398289
 21
85.42908991862491
 31
0
 12
-95.5096503339829
 22
85.42908991862491
 32
0
 13
-95.5096503339829
 23
85.42908991862491
 33
0
  0
SOLID
  8
1
 62
1
 10
-94.8596503339829
 20
69.42908991862491
 30
0
 11
-95.5096503339829
 21
74.42908991862491
 31
0
 12
-94.20965033398291
 22
74.42908991862491
 32
0
 13
-94.20965033398291
 23
74.42908991862491
 33
0
  0
TEXT
  8
1
 62
7
 10
-94.9496503339829
 20
76.98878991862492
 30
0
 40
5
  1
21
 50
90
 41
0.88209
  0
ENDBLK
  8
0
  0
BLOCK
  8
1
  2
*D10
 70
1
 10
0
 20
0
 30
0
  0
LINE
  8
1
 62
1
 10
-94.8596503339829
 20
39.4290899186249
 30
0
 11
-94.8596503339829
 21
69.42908991862491
 31
0
  0
LINE
  8
1
 62
1
 10
-82.4496503339829
 20
69.42908991862491
 30
0
 11
-96.3596503339829
 21
69.42908991862491
 31
0
  0
LINE
  8
1
 62
1
 10
-82.4496503339829
 20
39.4290899186249
 30
0
 11
-96.3596503339829
 21
39.4290899186249
 31
0
  0
SOLID
  8
1
 62
1
 10
-94.8596503339829
 20
39.4290899186249
 30
0
 11
-95.5096503339829
 21
44.4290899186249
 31
0
 12
-94.20965033398291
 22
44.4290899186249
 32
0
 13
-94.20965033398291
 23
44.4290899186249
 33
0
  0
SOLID
  8
1
 62
1
 10
-94.8596503339829
 20
69.42908991862491
 30
0
 11
-94.20965033398289
 21
64.42908991862491
 31
0
 12
-95.5096503339829
 22
64.42908991862491
 32
0
 13
-95.5096503339829
 23
64.42908991862491
 33
0
  0
TEXT
  8
1
 62
7
 10
-94.9496503339829
 20
50.75371491862491
 30
0
 40
5
  1
30
 50
90
 41
0.88209
  0
ENDBLK
  8
0
  0
BLOCK
  8
1
  2
*D11
 70
1
 10
0
 20
0
 30
0
  0
LINE
  8
1
 62
1
 10
70.58992358156699
 20
10.4290899186249
 30
0
 11
70.58992358156699
 21
34.4290899186249
 31
0
  0
LINE
  8
1
 62
1
 10
15.4502755211291
 20
34.4290899186249
 30
0
 11
72.08992358156699
 21
34.4290899186249
 31
0
  0
LINE
  8
1
 62
1
 10
31.55034966601711
 20
10.4290899186249
 30
0
 11
72.08992358156699
 21
10.4290899186249
 31
0
  0
SOLID
  8
1
 62
1
 10
70.58992358156699
 20
10.4290899186249
 30
0
 11
69.93992358156699
 21
15.4290899186249
 31
0
 12
71.23992358156698
 22
15.4290899186249
 32
0
 13
71.23992358156698
 23
15.4290899186249
 33
0
  0
SOLID
  8
1
 62
1
 10
70.58992358156699
 20
34.4290899186249
 30
0
 11
71.239923581567
 21
29.4290899186249
 31
0
 12
69.93992358156699
 22
29.4290899186249
 32
0
 13
69.93992358156699
 23
29.4290899186249
 33
0
  0
TEXT
  8
1
 62
7
 10
69.58992358156699
 20
18.6790899186249
 30
0
 40
5
  1
28
 50
90
 41
0.9
  0
ENDBLK
  8
0
  0
BLOCK
  8
1
  2
*D12
 70
1
 10
0
 20
0
 30
0
  0
LINE
  8
1
 62
1
 10
70.58992358156699
 20
34.4290899186249
 30
0
 11
70.58992358156699
 21
90.42908991862491
 31
0
  0
LINE
  8
1
 62
1
 10
31.55034966601711
 20
90.42908991862491
 30
0
 11
72.08992358156699
 21
90.42908991862491
 31
0
  0
LINE
  8
1
 62
1
 10
15.4502755211291
 20
34.4290899186249
 30
0
 11
72.08992358156699
 21
34.4290899186249
 31
0
  0
SOLID
  8
1
 62
1
 10
70.58992358156699
 20
34.4290899186249
 30
0
 11
69.93992358156699
 21
39.4290899186249
 31
0
 12
71.23992358156698
 22
39.4290899186249
 32
0
 13
71.23992358156698
 23
39.4290899186249
 33
0
  0
SOLID
  8
1
 62
1
 10
70.58992358156699
 20
90.42908991862491
 30
0
 11
71.239923581567
 21
85.42908991862491
 31
0
 12
69.93992358156699
 22
85.42908991862491
 32
0
 13
69.93992358156699
 23
85.42908991862491
 33
0
  0
TEXT
  8
1
 62
7
 10
69.58992358156699
 20
54.42908991862491
 30
0
 40
5
  1
3=52
 50
90
 41
0.9
  0
ENDBLK
  8
0
  0
BLOCK
  8
1
  2
*D13
 70
1
 10
0
 20
0
 30
0
  0
LINE
  8
1
 62
7
 10
63.43242140463501
 20
10.4290899186249
 30
0
 11
63.43242140463501
 21
34.4290899186249
 31
0
  0
LINE
  8
1
 62
7
 10
15.4502755211291
 20
34.4290899186249
 30
0
 11
64.93242140463501
 21
34.4290899186249
 31
0
  0
LINE
  8
1
 62
7
 10
31.55034966601711
 20
10.4290899186249
 30
0
 11
64.93242140463501
 21
10.4290899186249
 31
0
  0
SOLID
  8
1
 62
7
 10
63.43242140463501
 20
10.4290899186249
 30
0
 11
62.78242140463501
 21
15.4290899186249
 31
0
 12
64.082421404635
 22
15.4290899186249
 32
0
 13
64.082421404635
 23
15.4290899186249
 33
0
  0
SOLID
  8
1
 62
7
 10
63.43242140463501
 20
34.4290899186249
 30
0
 11
64.08242140463501
 21
29.4290899186249
 31
0
 12
62.78242140463501
 22
29.4290899186249
 32
0
 13
62.78242140463501
 23
29.4290899186249
 33
0
  0
TEXT
  8
1
 62
7
 10
62.43242140463501
 20
18.6790899186249
 30
0
 40
5
  1
26
 50
90
 41
0.9
  0
ENDBLK
  8
0
  0
BLOCK
  8
1
  2
*D14
 70
1
 10
0
 20
0
 30
0
  0
LINE
  8
1
 62
7
 10
63.39132523569201
 20
34.4290899186249
 30
0
 11
63.39132523569201
 21
90.42908991862491
 31
0
  0
LINE
  8
1
 62
7
 10
31.55034966601711
 20
90.42908991862491
 30
0
 11
64.89132523569201
 21
90.42908991862491
 31
0
  0
LINE
  8
1
 62
7
 10
15.4502755211291
 20
34.4290899186249
 30
0
 11
64.89132523569201
 21
34.4290899186249
 31
0
  0
SOLID
  8
1
 62
7
 10
63.39132523569201
 20
34.4290899186249
 30
0
 11
62.74132523569201
 21
39.4290899186249
 31
0
 12
64.041325235692
 22
39.4290899186249
 32
0
 13
64.041325235692
 23
39.4290899186249
 33
0
  0
SOLID
  8
1
 62
7
 10
63.39132523569201
 20
90.42908991862491
 30
0
 11
64.04132523569201
 21
85.42908991862491
 31
0
 12
62.74132523569201
 22
85.42908991862491
 32
0
 13
62.74132523569201
 23
85.42908991862491
 33
0
  0
TEXT
  8
1
 62
7
 10
62.39132523569201
 20
54.42908991862491
 30
0
 40
5
  1
2=54
 50
90
 41
0.9
  0
ENDBLK
  8
0
  0
ENDSEC
  0
SECTION
  2
ENTITIES
  0
LINE
  8
1
 62
7
 10
31.55034966601711
 20
28.9290899186249
 30
0
 11
31.55034966601711
 21
71.92908991862491
 31
0
  0
LINE
  8
1
 62
7
 10
22.0503496660171
 20
19.4290899186249
 30
0
 11
22.0503496660171
 21
16.4290899186249
 31
0
  0
LINE
  8
1
 62
2
  6
PHANTOM
 10
32.55034966601711
 20
28.3790899186249
 30
0
 11
32.55034966601711
 21
18.47908991862489
 31
0
  0
LINE
  8
1
 62
2
  6
PHANTOM
 10
37.5003496660171
 20
23.4290899186249
 30
0
 11
27.6003496660171
 21
23.4290899186249
 31
0
  0
LINE
  8
1
 62
7
 10
22.0503496660171
 20
81.42908991862491
 30
0
 11
22.0503496660171
 21
84.42908991862491
 31
0
  0
LINE
  8
1
 62
7
 10
-30.4496503339829
 20
80.42908991862491
 30
0
 11
-30.4496503339829
 21
20.4290899186249
 31
0
  0
LINE
  8
1
 62
7
 10
22.0503496660171
 20
84.42908991862491
 30
0
 11
-26.4496503339829
 21
84.42908991862491
 31
0
  0
LINE
  8
1
 62
7
 10
-26.4496503339829
 20
16.4290899186249
 30
0
 11
22.0503496660171
 21
16.4290899186249
 31
0
  0
LINE
  8
1
 62
2
  6
PHANTOM
 10
31.55034966601711
 20
75.13633691312991
 30
0
 11
31.55034966601711
 21
87.72184292411991
 31
0
  0
LINE
  8
1
 62
2
  6
PHANTOM
 10
25.2575966605221
 20
81.42908991862491
 30
0
 11
37.84310267151209
 21
81.42908991862491
 31
0
  0
LINE
  8
1
 62
2
  6
PHANTOM
 10
-40.4496503339829
 20
22.9877178188177
 30
0
 11
-40.4496503339829
 21
35.87046201843211
 31
0
  0
LINE
  8
1
 62
2
  6
PHANTOM
 10
-46.8910224337901
 20
29.4290899186249
 30
0
 11
-34.00827823417571
 21
29.4290899186249
 31
0
  0
LINE
  8
1
 62
2
  6
PHANTOM
 10
-40.4496503339829
 20
73.72078767244379
 30
0
 11
-40.4496503339829
 21
89.137392164806
 31
0
  0
LINE
  8
1
 62
2
  6
PHANTOM
 10
-48.157952580164
 20
81.42908991862491
 30
0
 11
-32.7413480878018
 21
81.42908991862491
 31
0
  0
LINE
  8
1
 62
7
 10
-52.9496503339829
 20
90.42908991862491
 30
0
 11
-52.9496503339829
 21
10.4290899186249
 31
0
  0
LINE
  8
1
 62
7
 10
-54.4496503339829
 20
90.42908991862491
 30
0
 11
-54.4496503339829
 21
10.4290899186249
 31
0
  0
LINE
  8
1
 62
7
 10
31.55034966601711
 20
90.42908991862491
 30
0
 11
-54.4496503339829
 21
90.42908991862491
 31
0
  0
LINE
  8
1
 62
7
 10
40.55034966601711
 20
19.4290899186249
 30
0
 11
40.55034966601711
 21
81.42908991862491
 31
0
  0
LINE
  8
1
 62
7
 10
-54.4496503339829
 20
10.4290899186249
 30
0
 11
31.55034966601711
 21
10.4290899186249
 31
0
  0
LINE
  8
1
 62
3
  6
PHANTOM
 10
-54.4496503339829
 20
39.4290899186249
 30
0
 11
-82.4496503339829
 21
39.4290899186249
 31
0
  0
LINE
  8
1
 62
3
  6
PHANTOM
 10
-82.4496503339829
 20
39.4290899186249
 30
0
 11
-82.4496503339829
 21
69.42908991862491
 31
0
  0
LINE
  8
1
 62
3
  6
PHANTOM
 10
-82.4496503339829
 20
69.42908991862491
 30
0
 11
-54.4496503339829
 21
69.42908991862491
 31
0
  0
LINE
  8
1
 62
3
  6
PHANTOM
 10
-68.4496503339829
 20
39.4290899186249
 30
0
 11
-68.4496503339829
 21
69.42908991862491
 31
0
  0
LINE
  8
1
 62
7
 10
8.958487532500897
 20
26.4972560963152
 30
0
 11
10.5133995031354
 21
28.1655346512061
 31
0
  0
LINE
  8
1
 62
7
 10
10.640994845187
 20
24.9290822721624
 30
0
 11
12.1959068158214
 21
26.59736082705331
 31
0
  0
LINE
  8
1
 62
7
 10
13.3503496660171
 20
20.4290899186249
 30
0
 11
11.2738215662464
 21
21.45769628204231
 31
0
  0
LINE
  8
1
 62
7
 10
7.750349666017101
 20
20.4290899186249
 30
0
 11
8.8962476997674
 21
20.4290899186249
 31
0
  0
LINE
  8
1
 62
7
 10
13.3503496660171
 20
19.17609454283092
 30
0
 11
13.3503496660171
 21
20.4290899186249
 31
0
  0
LINE
  8
1
 62
7
 10
7.750349666017101
 20
19.17609454283092
 30
0
 11
7.750349666017101
 21
20.4290899186249
 31
0
  0
LINE
  8
1
 62
7
 10
26.55034966601711
 20
36.4290899186249
 30
0
 11
26.55034966601711
 21
32.4290899186249
 31
0
  0
LINE
  8
1
 62
7
 10
30.05034966601711
 20
32.4290899186249
 30
0
 11
30.05034966601711
 21
36.4290899186249
 31
0
  0
LINE
  8
1
 62
7
 10
30.05034966601711
 20
36.4290899186249
 30
0
 11
26.55034966601711
 21
36.4290899186249
 31
0
  0
LINE
  8
1
 62
7
 10
26.55034966601711
 20
32.4290899186249
 30
0
 11
30.05034966601711
 21
32.4290899186249
 31
0
  0
LINE
  8
1
 62
7
 10
-8.949650333982902
 20
32.4290899186249
 30
0
 11
-8.949650333982902
 21
36.4290899186249
 31
0
  0
LINE
  8
1
 62
7
 10
-5.449650333982902
 20
36.4290899186249
 30
0
 11
-5.449650333982902
 21
32.4290899186249
 31
0
  0
LINE
  8
1
 62
7
 10
-5.449650333982902
 20
32.4290899186249
 30
0
 11
-8.949650333982902
 21
32.4290899186249
 31
0
  0
LINE
  8
1
 62
7
 10
-8.949650333982902
 20
36.4290899186249
 30
0
 11
-5.449650333982902
 21
36.4290899186249
 31
0
  0
LINE
  8
1
 62
2
  6
PHANTOM
 10
5.650423810905096
 20
34.4290899186249
 30
0
 11
15.4502755211291
 21
34.4290899186249
 31
0
  0
LINE
  8
1
 62
2
  6
PHANTOM
 10
10.5503496660171
 20
16.4290899186249
 30
0
 11
10.5503496660171
 21
39.3290157737368
 31
0
  0
LINE
  8
1
 62
7
 10
-54.4496503339829
 20
-58.57091008137513
 30
0
 11
-54.4496503339829
 21
-53.77091008137519
 31
0
  0
LINE
  8
1
 62
7
 10
40.55034966601711
 20
-44.07091008137509
 30
0
 11
40.55034966601711
 21
-50.57091008137509
 31
0
  0
LINE
  8
1
 62
7
 10
-54.4496503339829
 20
-58.57091008137513
 30
0
 11
-52.9496503339829
 21
-58.57091008137513
 31
0
  0
LINE
  8
1
 62
7
 10
-52.9496503339829
 20
-58.57091008137513
 30
0
 11
-52.9496503339829
 21
-53.77091008137519
 31
0
  0
LINE
  8
1
 62
7
 10
-52.9496503339829
 20
-50.57091008137509
 30
0
 11
-44.9996503339829
 21
-50.57091008137509
 31
0
  0
LINE
  8
1
 62
7
 10
-44.9496503339829
 20
-50.57091008137509
 30
0
 11
-44.9496503339829
 21
-52.57091008137509
 31
0
  0
LINE
  8
1
 62
7
 10
-44.9496503339829
 20
-52.57091008137509
 30
0
 11
-30.9496503339829
 21
-52.57091008137509
 31
0
  0
LINE
  8
1
 62
7
 10
-30.9496503339829
 20
-52.57091008137509
 30
0
 11
-30.9496503339829
 21
-50.57091008137509
 31
0
  0
LINE
  8
1
 62
7
 10
-30.9496503339829
 20
-50.57091008137509
 30
0
 11
40.55034966601711
 21
-50.57091008137509
 31
0
  0
LINE
  8
1
 62
7
 10
-52.9496503339829
 20
-50.57091008137509
 30
0
 11
-52.9496503339829
 21
-47.37091008137519
 31
0
  0
LINE
  8
1
 62
7
 10
-52.9496503339829
 20
-42.57091008137509
 30
0
 11
-30.4496503339829
 21
-42.57091008137509
 31
0
  0
LINE
  8
1
 62
7
 10
31.55034966601711
 20
-42.57091008137509
 30
0
 11
39.05034966601711
 21
-42.57091008137509
 31
0
  0
LINE
  8
1
 62
7
 10
-54.4496503339829
 20
-47.37091008137519
 30
0
 11
-54.4496503339829
 21
-44.07091008137509
 31
0
  0
LINE
  8
1
 62
7
 10
-52.9496503339829
 20
-47.37091008137519
 30
0
 11
-52.9496503339829
 21
-44.07091008137509
 31
0
  0
LINE
  8
1
 62
7
 10
-52.9496503339829
 20
-53.77091008137519
 30
0
 11
-52.9496503339829
 21
-50.57091008137509
 31
0
  0
LINE
  8
1
 62
7
 10
-54.4496503339829
 20
-53.77091008137519
 30
0
 11
-54.4496503339829
 21
-47.37091008137519
 31
0
  0
LINE
  8
1
 62
7
 10
-30.4496503339829
 20
-42.57091008137509
 30
0
 11
31.55034966601711
 21
-42.57091008137509
 31
0
  0
LINE
  8
1
 62
7
 10
-52.9496503339829
 20
-58.57091008137513
 30
0
 11
39.05034966601711
 21
-58.57091008137509
 31
0
  0
LINE
  8
1
 62
7
 10
40.55034966601711
 20
-57.07091008137509
 30
0
 11
40.55034966601711
 21
-50.57091008137509
 31
0
  0
LINE
  8
1
 62
3
  6
PHANTOM
 10
-54.4496503339829
 20
-47.57091008137509
 30
0
 11
-82.4496503339829
 21
-47.5709100813751
 31
0
  0
LINE
  8
1
 62
3
  6
PHANTOM
 10
-82.4496503339829
 20
-47.5709100813751
 30
0
 11
-82.4496503339829
 21
-53.5709100813751
 31
0
  0
LINE
  8
1
 62
3
  6
PHANTOM
 10
-82.4496503339829
 20
-53.5709100813751
 30
0
 11
-54.4496503339829
 21
-53.57091008137509
 31
0
  0
LINE
  8
1
 62
3
  6
PHANTOM
 10
-68.4496503339829
 20
-53.5709100813751
 30
0
 11
-68.4496503339829
 21
-47.5709100813751
 31
0
  0
ARC
  8
1
 62
7
 10
-26.4496503339829
 20
20.4290899186249
 30
0
 40
4
 50
180
 51
270
  0
ARC
  8
1
 62
7
 10
-26.4496503339829
 20
80.42908991862491
 30
0
 40
4
 50
90
 51
180
  0
ARC
  8
1
 62
7
 10
31.55034966601711
 20
19.4290899186249
 30
0
 40
9
 50
270
 51
0
  0
ARC
  8
1
 62
7
 10
31.55034966601711
 20
81.42908991862491
 30
0
 40
9.000000000000004
 50
0
 51
90
  0
ARC
  8
1
 62
7
 10
-52.9496503339829
 20
-44.07091008137509
 30
0
 40
1.5
 50
90
 51
180
  0
ARC
  8
1
 62
7
 10
39.05034966601711
 20
-44.07091008137509
 30
0
 40
1.5
 50
0
 51
90
  0
ARC
  8
1
 62
7
 10
39.05034966601711
 20
-57.07091008137509
 30
0
 40
1.5
 50
270
 51
0
  0
ARC
  8
1
 62
7
 10
32.55034966601711
 20
23.4290899186249
 30
0
 40
4.5
 50
0
 51
90
  0
ARC
  8
1
 62
7
 10
32.55034966601711
 20
23.4290899186249
 30
0
 40
4.5
 50
270
 51
0
  0
ARC
  8
1
 62
7
 10
32.55034966601711
 20
23.4290899186249
 30
0
 40
4.5
 50
90
 51
270
  0
ARC
  8
1
 62
7
 10
31.55034966601711
 20
19.4290899186249
 30
0
 40
9.5
 50
90
 51
180
  0
ARC
  8
1
 62
7
 10
31.55034966601711
 20
81.42908991862491
 30
0
 40
9.500000000000007
 50
180
 51
270
  0
ARC
  8
1
 62
7
 10
12.2503496660171
 20
23.4290899186249
 30
0
 40
4.500000000000099
 50
180
 51
221.8103148957785
  0
ARC
  8
1
 62
7
 10
12.2503496660171
 20
23.4290899186249
 30
0
 40
4.500000000000062
 50
137.0143861475348
 51
180
  0
ARC
  8
1
 62
7
 10
9.050349666017098
 20
29.52916406351289
 30
0
 40
2.000000000000012
 50
317.0143861475348
 51
33.49189907424505
  0
ARC
  8
1
 62
7
 10
10.5503496660171
 20
34.4290899186249
 30
0
 40
3.800000000000001
 50
0
 51
272.532811307289
  0
ARC
  8
1
 62
7
 10
9.050349666017098
 20
29.52916406351289
 30
0
 40
4.29999999999998
 50
317.0143861475345
 51
26.43213667503053
  0
ARC
  8
1
 62
7
 10
12.2503496660171
 20
23.4290899186249
 30
0
 40
2.200000000000011
 50
137.0143861475336
 51
180
  0
ARC
  8
1
 62
7
 10
12.2503496660171
 20
23.4290899186249
 30
0
 40
2.199999999999999
 50
180
 51
249.7741615361466
  0
ARC
  8
1
 62
7
 10
10.5503496660171
 20
22.032665914248
 30
0
 40
3.999999999999956
 50
225.5729959991937
 51
314.4270040008063
  0
ARC
  8
1
 62
7
 10
10.5503496660171
 20
34.4290899186249
 30
0
 40
3.800000000000006
 50
308.2102784732346
 51
180
  0
CIRCLE
  8
1
 62
7
 10
32.55034966601711
 20
23.4290899186249
 30
0
 40
2.5
  0
CIRCLE
  8
1
 62
7
 10
-40.4496503339829
 20
29.4290899186249
 30
0
 40
2.75
  0
CIRCLE
  8
1
 62
7
 10
-40.4496503339829
 20
29.4290899186249
 30
0
 40
4.75
  0
CIRCLE
  8
1
 62
7
 10
-40.4496503339829
 20
81.42908991862491
 30
0
 40
2.75
  0
CIRCLE
  8
1
 62
7
 10
-40.4496503339829
 20
81.42908991862491
 30
0
 40
4.75
  0
CIRCLE
  8
1
 62
7
 10
31.55034966601711
 20
81.42908991862491
 30
0
 40
4.750000000000004
  0
CIRCLE
  8
1
 62
7
 10
31.55034966601711
 20
81.42908991862491
 30
0
 40
2.750000000000004
  0
TEXT
  8
1
 62
7
 10
-50.19329214457498
 20
107.2121572333584
 30
0
 40
6
  1
2305.BB_RZ_PZ.DM65
 41
0.8732691000000004
  0
DIMENSION
  8
1
  6
CONTINUOUS
 62
1
  2
*D0
  3
DMST_1
 10
-54.4496503339829
 20
25.8510481190782
 30
0
 11
-68.4496503339829
 21
28.4410481190782
 31
0
 12
0
 22
0
 32
0
 70
0
  1
2x14
 13
-82.4496503339829
 23
39.4290899186249
 33
0
 14
-54.4496503339829
 24
10.4290899186249
 34
0
 53
0
  0
DIMENSION
  8
1
  6
CONTINUOUS
 62
1
  2
*D1
  3
DMST_1
 10
-94.8596503339829
 20
-47.5709100813751
 30
0
 11
-97.4496503339829
 21
-50.5709100813751
 31
0
 12
0
 22
0
 32
0
 70
0
 13
-82.4496503339829
 23
-53.5709100813751
 33
0
 14
-82.4496503339829
 24
-47.5709100813751
 34
0
 50
90
 53
0
  0
DIMENSION
  8
1
  6
CONTINUOUS
 62
1
  2
*D2
  3
DMST_1
 10
40.55034966601711
 20
-22.1609100813751
 30
0
 11
-6.949650333982888
 21
-19.5709100813751
 31
0
 12
0
 22
0
 32
0
 70
0
 13
-54.4496503339829
 23
10.4290899186249
 33
0
 14
40.55034966601711
 24
19.4290899186249
 34
0
 53
0
  0
DIMENSION
  8
1
  6
CONTINUOUS
 62
1
  2
*D3
  3
DMST_1
 10
10.5503496660171
 20
-7.160910081375107
 30
0
 11
-21.9496503339829
 21
-4.570910081375104
 31
0
 12
0
 22
0
 32
0
 70
0
 13
-54.4496503339829
 23
10.4290899186249
 33
0
 14
10.5503496660171
 24
16.4290899186249
 34
0
 53
0
  0
DIMENSION
  8
1
  6
CONTINUOUS
 62
1
  2
*D4
  3
DMST_1
 10
55.766292811783
 20
-42.57091008137509
 30
0
 11
53.176292811783
 21
-50.57091008137509
 31
0
 12
0
 22
0
 32
0
 70
0
 13
39.05034966601711
 23
-58.57091008137509
 33
0
 14
39.05034966601711
 24
-42.57091008137509
 34
0
 50
90
 53
0
  0
DIMENSION
  8
1
  6
CONTINUOUS
 62
1
  2
*D5
  3
DMST_1
 10
83.566936084435
 20
90.4290899186249
 30
0
 11
80.976936084435
 21
50.42908991862491
 31
0
 12
0
 22
0
 32
0
 70
0
 13
31.55034966601711
 23
10.4290899186249
 33
0
 14
31.55034966601711
 24
90.42908991862491
 34
0
 50
90
 53
0
  0
DIMENSION
  8
1
  6
CONTINUOUS
 62
7
  2
*D6
  3
DMST_2
 10
55.54388766560201
 20
34.4290899186249
 30
0
 11
52.95388766560201
 21
22.4290899186249
 31
0
 12
0
 22
0
 32
0
 70
0
 13
31.55034966601711
 23
10.4290899186249
 33
0
 14
15.4502755211291
 24
34.4290899186249
 34
0
 50
90
 53
0
  0
DIMENSION
  8
1
  6
CONTINUOUS
 62
7
  2
*D7
  3
DMST_2
 10
55.493888675534
 20
90.42908991862491
 30
0
 11
52.90388867553399
 21
62.42908991862491
 31
0
 12
0
 22
0
 32
0
 70
0
  1
1=56
 13
15.4502755211291
 23
34.4290899186249
 33
0
 14
31.55034966601711
 24
90.42908991862491
 34
0
 50
90
 53
0
  0
DIMENSION
  8
1
  6
CONTINUOUS
 62
1
  2
*D8
  3
DMST_1
 10
-94.8596503339829
 20
39.4290899186249
 30
0
 11
-97.4496503339829
 21
24.9290899186249
 31
0
 12
0
 22
0
 32
0
 70
0
 13
-54.4496503339829
 23
10.4290899186249
 33
0
 14
-82.4496503339829
 24
39.4290899186249
 34
0
 50
90
 53
0
  0
DIMENSION
  8
1
  6
CONTINUOUS
 62
1
  2
*D9
  3
DMST_1
 10
-94.8596503339829
 20
90.42908991862491
 30
0
 11
-97.4496503339829
 21
79.92908991862491
 31
0
 12
0
 22
0
 32
0
 70
0
 13
-82.4496503339829
 23
69.42908991862491
 33
0
 14
-54.4496503339829
 24
90.42908991862491
 34
0
 50
90
 53
0
  0
DIMENSION
  8
1
  6
CONTINUOUS
 62
1
  2
*D10
  3
DMST_1
 10
-94.8596503339829
 20
69.42908991862491
 30
0
 11
-97.4496503339829
 21
54.42908991862491
 31
0
 12
0
 22
0
 32
0
 70
0
 13
-82.4496503339829
 23
39.4290899186249
 33
0
 14
-82.4496503339829
 24
69.42908991862491
 34
0
 50
90
 53
0
  0
DIMENSION
  8
1
  6
CONTINUOUS
 62
1
  2
*D11
  3
DMST_3
 10
70.58992358156699
 20
34.4290899186249
 30
0
 11
67.08992358156699
 21
22.4290899186249
 31
0
 12
0
 22
0
 32
0
 70
0
  1
28
 13
31.55034966601711
 23
10.4290899186249
 33
0
 14
15.4502755211291
 24
34.4290899186249
 34
0
 50
90
 53
0
  0
DIMENSION
  8
1
  6
CONTINUOUS
 62
1
  2
*D12
  3
DMST_3
 10
70.58992358156699
 20
90.42908991862491
 30
0
 11
67.08992358156699
 21
62.42908991862491
 31
0
 12
0
 22
0
 32
0
 70
0
  1
3=52
 13
15.4502755211291
 23
34.4290899186249
 33
0
 14
31.55034966601711
 24
90.42908991862491
 34
0
 50
90
 53
0
  0
DIMENSION
  8
1
  6
CONTINUOUS
 62
7
  2
*D13
  3
DMST_4
 10
63.43242140463501
 20
34.4290899186249
 30
0
 11
59.93242140463501
 21
22.4290899186249
 31
0
 12
0
 22
0
 32
0
 70
0
  1
26
 13
31.55034966601711
 23
10.4290899186249
 33
0
 14
15.4502755211291
 24
34.4290899186249
 34
0
 50
90
 53
0
  0
DIMENSION
  8
1
  6
CONTINUOUS
 62
7
  2
*D14
  3
DMST_4
 10
63.39132523569201
 20
90.42908991862491
 30
0
 11
59.89132523569201
 21
62.42908991862491
 31
0
 12
0
 22
0
 32
0
 70
0
  1
2=54
 13
15.4502755211291
 23
34.4290899186249
 33
0
 14
31.55034966601711
 24
90.42908991862491
 34
0
 50
90
 53
0
  0
ENDSEC
  0
EOF
