  0
SECTION
  2
HEADER
  9
$ACADVER
  1
AC1009
  9
$INSBASE
 10
0
 20
0
  9
$EXTMIN
 10
-49.4777419795254
 20
-122
  9
$EXTMAX
 10
141.884107529794
 20
111.6637053087762
  9
$LIMMIN
 10
-49.4777419795254
 20
-122
  9
$LIMMAX
 10
141.884107529794
 20
111.6637053087762
  9
$VIEWCTR
 10
10
 20
10
  9
$VIEWSIZE
 40
10
  9
$SNAPMODE
 70
0
  9
$SNAPUNIT
 10
1
 20
1
  9
$SNAPBASE
 10
0
 20
0
  9
$SNAPANG
 50
0
  9
$SNAPSTYLE
 70
0
  9
$SNAPISOPAIR
 70
0
  9
$GRIDMODE
 70
0
  9
$GRIDUNIT
 10
0
 20
0
  9
$ORTHOMODE
 70
0
  9
$REGENMODE
 70
1
  9
$FILLMODE
 70
1
  9
$QTEXTMODE
 70
0
  9
$DRAGMODE
 70
2
  9
$LTSCALE
 40
1
  9
$OSMODE
 70
0
  9
$ATTMODE
 70
1
  9
$TEXTSIZE
 40
3.5
  9
$TRACEWID
 40
0.5
  9
$TEXTSTYLE
  7
STANDARD
  9
$CLAYER
  8
0
  9
$CELTYPE
  6
BYLAYER
  9
$CECOLOR
 62
256
  9
$DIMSCALE
 40
1
  9
$DIMASZ
 40
0.18
  9
$DIMEXO
 40
0.0625
  9
$DIMDLI
 40
0.38
  9
$DIMRND
 40
0
  9
$DIMDLE
 40
0
  9
$DIMEXE
 40
0.18
  9
$DIMTP
 40
0
  9
$DIMTM
 40
0
  9
$DIMTXT
 40
0.18
  9
$DIMCEN
 40
0.09
  9
$DIMTSZ
 40
0
  9
$DIMTOL
 70
0
  9
$DIMLIM
 70
0
  9
$DIMTIH
 70
1
  9
$DIMTOH
 70
1
  9
$DIMSE1
 70
0
  9
$DIMSE2
 70
0
  9
$DIMTAD
 70
0
  9
$DIMZIN
 70
0
  9
$DIMBLK
  1

  9
$DIMASO
 70
1
  9
$DIMSHO
 70
1
  9
$DIMPOST
  1

  9
$DIMAPOST
  1

  9
$DIMALT
 70
0
  9
$DIMALTD
 70
2
  9
$DIMALTF
 40
25.4
  9
$DIMLFAC
 40
1
  9
$DIMTOFL
 70
0
  9
$DIMTVP
 40
0
  9
$DIMTIX
 70
0
  9
$DIMSOXD
 70
0
  9
$DIMSAH
 70
0
  9
$DIMBLK1
  1

  9
$DIMBLK2
  1

  9
$DIMSTYLE
  2
*UNNAMED
  9
$DIMCLRD
 70
0
  9
$DIMCLRE
 70
0
  9
$DIMCLRT
 70
0
  9
$DIMTFAC
 40
1
  9
$DIMGAP
 40
0.09
  9
$LUNITS
 70
2
  9
$LUPREC
 70
4
  9
$AXISMODE
 70
0
  9
$AXISUNIT
 10
0
 20
0
  9
$SKETCHINC
 40
0.1
  9
$FILLETRAD
 40
2
  9
$AUNITS
 70
0
  9
$AUPREC
 70
0
  9
$MENU
  1
ACAD
  9
$ELEVATION
 40
0
  9
$THICKNESS
 40
0
  9
$VIEWDIR
 10
0
 20
0
 30
1
  9
$LIMCHECK
 70
0
  9
$BLIPMODE
 70
1
  9
$CHAMFERA
 40
0
  9
$CHAMFERB
 40
0
  9
$FASTZOOM
 70
1
  9
$SKPOLY
 70
0
  9
$ANGBASE
 50
0
  9
$ANGDIR
 70
0
  9
$PDMODE
 70
0
  9
$PDSIZE
 40
0
  9
$PLINEWID
 40
0
  9
$COORDS
 70
2
  0
ENDSEC
  0
SECTION
  2
TABLES
  0
TABLE
  2
DIMSTYLE
 70
1
  0
DIMSTYLE
  2
DMST_1
 70
0
  3

  4

  5

  6

  7

 40
1
 41
5
 42
0
 43
7
 44
2
 45
0
 46
0
 47
0
 48
0
140
5
141
0
142
0
143
25.4
144
1
145
0
146
1
147
0.09
 71
0
 72
0
 73
0
 74
0
 75
0
 76
0
 77
1
 78
9
170
0
171
2
172
0
173
0
174
0
175
0
176
1
177
1
178
7
  0
ENDTAB
  0
TABLE
  2
LTYPE
 70
9
  0
LTYPE
  2
CONTINUOUS
 70
64
  3
Solid line
 72
65
 73
0
 40
0
  0
LTYPE
  2
BORDER
 70
64
  3
__ __ . __ __ .
 72
65
 73
6
 40
10.7608285339568
 49
3.074522438273371
 49
-1.537261219136685
 49
3.074522438273371
 49
-1.537261219136685
 49
0
 49
-1.537261219136685
  0
LTYPE
  2
CENTER
 70
64
  3
____ _ ____ _
 72
65
 73
4
 40
12.29808975309348
 49
7.686306095683427
 49
-1.537261219136685
 49
1.537261219136685
 49
-1.537261219136685
  0
LTYPE
  2
DASHDOT
 70
64
  3
__ . __ . __ .
 72
65
 73
4
 40
6.149044876546742
 49
3.074522438273371
 49
-1.537261219136685
 49
0
 49
-1.537261219136685
  0
LTYPE
  2
DASHED
 70
64
  3
__ __ __ __ __
 72
65
 73
2
 40
4.611783657410056
 49
3.074522438273371
 49
-1.537261219136685
  0
LTYPE
  2
DIVIDE
 70
64
  3
__ . . __ . . 
 72
65
 73
6
 40
7.686306095683427
 49
3.074522438273371
 49
-1.537261219136685
 49
0
 49
-1.537261219136685
 49
0
 49
-1.537261219136685
  0
LTYPE
  2
DOT
 70
64
  3
..............
 72
65
 73
4
 40
3.074522438273371
 49
0
 49
-1.537261219136685
 49
0
 49
-1.537261219136685
  0
LTYPE
  2
HIDDEN
 70
64
  3
_ _ _ _ _ _ _
 72
65
 73
2
 40
2.305891828705028
 49
1.537261219136685
 49
-0.7686306095683427
  0
LTYPE
  2
PHANTOM
 70
64
  3
_____ _ _ _____ _ _ 
 72
65
 73
6
 40
15.37261219136685
 49
7.686306095683427
 49
-1.537261219136685
 49
1.537261219136685
 49
-1.537261219136685
 49
1.537261219136685
 49
-1.537261219136685
  0
ENDTAB
  0
TABLE
  2
LAYER
 70
3
  0
LAYER
  2
1
 70
0
 62
7
  6
CONTINUOUS
  0
LAYER
  2
0
 70
0
 62
7
  6
CONTINUOUS
  0
ENDTAB
  0
TABLE
  2
STYLE
 70
4
  0
STYLE
  2
STANDARD
 70
0
 40
0
 41
1
 50
0
 71
0
 42
3.5
  3
txt
  4

  0
STYLE
  2
SIMPLEX
 70
0
 40
0
 41
1
 50
0
 71
0
 42
3.5
  3
simplex
  4

  0
STYLE
  2
COMPLEX
 70
0
 40
0
 41
1
 50
0
 71
0
 42
3.5
  3
complex
  4

  0
STYLE
  2
ITALIC
 70
0
 40
0
 41
1
 50
0
 71
0
 42
3.5
  3
italic
  4

  0
ENDTAB
  0
TABLE
  2
VIEW
 70
0
  0
ENDTAB
  0
ENDSEC
  0
SECTION
  2
BLOCKS
  0
BLOCK
  8
1
  2
*D0
 70
1
 10
0
 20
0
 30
0
  0
LINE
  8
1
 62
1
 10
70
 20
-14.7437992485289
 30
0
 11
110
 21
-14.7437992485289
 31
0
  0
LINE
  8
1
 62
1
 10
110
 20
0
 30
0
 11
110
 21
-16.7437992485289
 31
0
  0
LINE
  8
1
 62
1
 10
70
 20
0.6237249788915005
 30
0
 11
70
 21
-16.7437992485289
 31
0
  0
SOLID
  8
1
 62
1
 10
110
 20
-14.7437992485289
 30
0
 11
105
 21
-15.3937992485289
 31
0
 12
105
 22
-14.0937992485289
 32
0
 13
105
 23
-14.0937992485289
 33
0
  0
SOLID
  8
1
 62
1
 10
70
 20
-14.7437992485289
 30
0
 11
75
 21
-14.0937992485289
 31
0
 12
75
 22
-15.3937992485289
 32
0
 13
75
 23
-15.3937992485289
 33
0
  0
TEXT
  8
1
 62
7
 10
86.25
 20
-13.7437992485289
 30
0
 40
5
  1
40
 41
0.9
  0
ENDBLK
  8
0
  0
BLOCK
  8
1
  2
*D1
 70
1
 10
0
 20
0
 30
0
  0
LINE
  8
1
 62
1
 10
0
 20
-14.75
 30
0
 11
70
 21
-14.75
 31
0
  0
LINE
  8
1
 62
1
 10
70
 20
0.6237249788915005
 30
0
 11
70
 21
-16.75
 31
0
  0
LINE
  8
1
 62
1
 10
0
 20
0
 30
0
 11
0
 21
-16.75
 31
0
  0
SOLID
  8
1
 62
1
 10
0
 20
-14.75
 30
0
 11
5.000000000000001
 21
-14.1
 31
0
 12
5.000000000000001
 22
-15.4
 32
0
 13
5.000000000000001
 23
-15.4
 33
0
  0
SOLID
  8
1
 62
1
 10
70
 20
-14.75
 30
0
 11
65
 21
-15.4
 31
0
 12
65
 22
-14.1
 32
0
 13
65
 23
-14.1
 33
0
  0
TEXT
  8
1
 62
7
 10
18.75
 20
-13.75
 30
0
 40
5
  1
55/70/80
 41
0.9
  0
ENDBLK
  8
0
  0
BLOCK
  8
1
  2
*D2
 70
1
 10
0
 20
0
 30
0
  0
LINE
  8
1
 62
1
 10
-28
 20
10.25
 30
0
 11
0
 21
10.25
 31
0
  0
LINE
  8
1
 62
1
 10
0
 20
0
 30
0
 11
0
 21
12.25
 31
0
  0
LINE
  8
1
 62
1
 10
-28
 20
25
 30
0
 11
-28
 21
8.25
 31
0
  0
SOLID
  8
1
 62
1
 10
-28
 20
10.25
 30
0
 11
-23
 21
10.9
 31
0
 12
-23
 22
9.6
 32
0
 13
-23
 23
9.6
 33
0
  0
SOLID
  8
1
 62
1
 10
0
 20
10.25
 30
0
 11
-5
 21
9.600000000000001
 31
0
 12
-5
 22
10.9
 32
0
 13
-5
 23
10.9
 33
0
  0
TEXT
  8
1
 62
7
 10
-21.5
 20
11.25
 30
0
 40
5
  1
2x14
 41
0.9
  0
ENDBLK
  8
0
  0
BLOCK
  8
1
  2
*D3
 70
1
 10
0
 20
0
 30
0
  0
LINE
  8
1
 62
1
 10
124.75
 20
-80
 30
0
 11
124.75
 21
-61
 31
0
  0
LINE
  8
1
 62
1
 10
108.75
 20
-61
 30
0
 11
126.75
 21
-61
 31
0
  0
LINE
  8
1
 62
1
 10
110
 20
-80
 30
0
 11
126.75
 21
-80
 31
0
  0
SOLID
  8
1
 62
1
 10
124.75
 20
-61
 30
0
 11
125.4
 21
-66
 31
0
 12
124.1
 22
-66
 32
0
 13
124.1
 23
-66
 33
0
  0
SOLID
  8
1
 62
1
 10
124.75
 20
-80
 30
0
 11
124.1
 21
-75
 31
0
 12
125.4
 22
-75
 32
0
 13
125.4
 23
-75
 33
0
  0
TEXT
  8
1
 62
7
 10
123.75
 20
-73.5
 30
0
 40
5
  1
19
 50
90
 41
0.9
  0
ENDBLK
  8
0
  0
BLOCK
  8
1
  2
*D4
 70
1
 10
0
 20
0
 30
0
  0
LINE
  8
1
 62
1
 10
90.25
 20
-119
 30
0
 11
90.25
 21
-80
 31
0
  0
LINE
  8
1
 62
1
 10
110
 20
-80
 30
0
 11
88.25
 21
-80
 31
0
  0
LINE
  8
1
 62
1
 10
75.5
 20
-119
 30
0
 11
92.25
 21
-119
 31
0
  0
SOLID
  8
1
 62
1
 10
90.25
 20
-80
 30
0
 11
90.90000000000001
 21
-85
 31
0
 12
89.59999999999999
 22
-85
 32
0
 13
89.59999999999999
 23
-85
 33
0
  0
SOLID
  8
1
 62
1
 10
90.25
 20
-119
 30
0
 11
89.59999999999999
 21
-114
 31
0
 12
90.89999999999999
 22
-114
 32
0
 13
90.89999999999999
 23
-114
 33
0
  0
TEXT
  8
1
 62
7
 10
89.25
 20
-103.25
 30
0
 40
5
  1
39
 50
90
 41
0.9
  0
ENDBLK
  8
0
  0
BLOCK
  8
1
  2
*D5
 70
1
 10
0
 20
0
 30
0
  0
LINE
  8
1
 62
1
 10
139.884107529794
 20
0
 30
0
 11
139.884107529794
 21
90
 31
0
  0
LINE
  8
1
 62
1
 10
110
 20
90
 30
0
 11
141.884107529794
 21
90
 31
0
  0
LINE
  8
1
 62
1
 10
110
 20
0
 30
0
 11
141.884107529794
 21
0
 31
0
  0
SOLID
  8
1
 62
1
 10
139.884107529794
 20
0
 30
0
 11
139.234107529794
 21
5
 31
0
 12
140.534107529794
 22
5
 32
0
 13
140.534107529794
 23
5
 33
0
  0
SOLID
  8
1
 62
1
 10
139.884107529794
 20
90
 30
0
 11
140.534107529794
 21
85
 31
0
 12
139.234107529794
 22
85
 32
0
 13
139.234107529794
 23
85
 33
0
  0
TEXT
  8
1
 62
7
 10
138.884107529794
 20
41.25
 30
0
 40
5
  1
90
 50
90
 41
0.9
  0
ENDBLK
  8
0
  0
BLOCK
  8
1
  2
*D6
 70
1
 10
0
 20
0
 30
0
  0
LINE
  8
1
 62
1
 10
124.75
 20
0
 30
0
 11
124.75
 21
21
 31
0
  0
LINE
  8
1
 62
1
 10
77.19485758020548
 20
21
 30
0
 11
126.75
 21
21
 31
0
  0
LINE
  8
1
 62
1
 10
110
 20
0
 30
0
 11
126.75
 21
0
 31
0
  0
SOLID
  8
1
 62
1
 10
124.75
 20
0
 30
0
 11
124.1
 21
5
 31
0
 12
125.4
 22
5
 32
0
 13
125.4
 23
5
 33
0
  0
SOLID
  8
1
 62
1
 10
124.75
 20
21
 30
0
 11
125.4
 21
16
 31
0
 12
124.1
 22
16
 32
0
 13
124.1
 23
16
 33
0
  0
TEXT
  8
1
 62
7
 10
123.75
 20
7.5
 30
0
 40
5
  1
21
 50
90
 41
0.9
  0
ENDBLK
  8
0
  0
BLOCK
  8
1
  2
*D7
 70
1
 10
0
 20
0
 30
0
  0
LINE
  8
1
 62
1
 10
124.75
 20
21
 30
0
 11
124.75
 21
90
 31
0
  0
LINE
  8
1
 62
1
 10
110
 20
90
 30
0
 11
126.75
 21
90
 31
0
  0
LINE
  8
1
 62
1
 10
77.19485758020548
 20
21
 30
0
 11
126.75
 21
21
 31
0
  0
SOLID
  8
1
 62
1
 10
124.75
 20
21
 30
0
 11
124.1
 21
26
 31
0
 12
125.4
 22
26
 32
0
 13
125.4
 23
26
 33
0
  0
SOLID
  8
1
 62
1
 10
124.75
 20
90
 30
0
 11
125.4
 21
85
 31
0
 12
124.1
 22
85
 32
0
 13
124.1
 23
85
 33
0
  0
TEXT
  8
1
 62
7
 10
123.75
 20
51.75
 30
0
 40
5
  1
69
 50
90
 41
0.9
  0
ENDBLK
  8
0
  0
BLOCK
  8
1
  2
*D8
 70
1
 10
0
 20
0
 30
0
  0
LINE
  8
1
 62
1
 10
-43.0117043622307
 20
0
 30
0
 11
-43.0117043622307
 21
25
 31
0
  0
LINE
  8
1
 62
1
 10
-28
 20
25
 30
0
 11
-45.0117043622307
 21
25
 31
0
  0
LINE
  8
1
 62
1
 10
0
 20
0
 30
0
 11
-45.0117043622307
 21
0
 31
0
  0
SOLID
  8
1
 62
1
 10
-43.0117043622307
 20
0
 30
0
 11
-43.6617043622307
 21
5
 31
0
 12
-42.3617043622307
 22
5
 32
0
 13
-42.3617043622307
 23
5
 33
0
  0
SOLID
  8
1
 62
1
 10
-43.0117043622307
 20
25
 30
0
 11
-42.3617043622307
 21
20
 31
0
 12
-43.6617043622307
 22
20
 32
0
 13
-43.6617043622307
 23
20
 33
0
  0
TEXT
  8
1
 62
7
 10
-44.0117043622307
 20
8.75
 30
0
 40
5
  1
25
 50
90
 41
0.9
  0
ENDBLK
  8
0
  0
BLOCK
  8
1
  2
*D9
 70
1
 10
0
 20
0
 30
0
  0
LINE
  8
1
 62
1
 10
-43.01289656327
 20
65
 30
0
 11
-43.01289656327
 21
90
 31
0
  0
LINE
  8
1
 62
1
 10
0
 20
90
 30
0
 11
-45.01289656327
 21
90
 31
0
  0
LINE
  8
1
 62
1
 10
-28
 20
65
 30
0
 11
-45.01289656327
 21
65
 31
0
  0
SOLID
  8
1
 62
1
 10
-43.01289656327
 20
65
 30
0
 11
-43.66289656327
 21
70
 31
0
 12
-42.36289656327
 22
70
 32
0
 13
-42.36289656327
 23
70
 33
0
  0
SOLID
  8
1
 62
1
 10
-43.01289656327
 20
90
 30
0
 11
-42.36289656327
 21
85
 31
0
 12
-43.66289656327
 22
85
 32
0
 13
-43.66289656327
 23
85
 33
0
  0
TEXT
  8
1
 62
7
 10
-44.01289656327
 20
73.75
 30
0
 40
5
  1
25
 50
90
 41
0.9
  0
ENDBLK
  8
0
  0
BLOCK
  8
1
  2
*D10
 70
1
 10
0
 20
0
 30
0
  0
LINE
  8
1
 62
1
 10
-43.01289656327
 20
25
 30
0
 11
-43.01289656327
 21
65
 31
0
  0
LINE
  8
1
 62
1
 10
-28
 20
65
 30
0
 11
-45.01289656327
 21
65
 31
0
  0
LINE
  8
1
 62
1
 10
-28
 20
25
 30
0
 11
-45.01289656327
 21
25
 31
0
  0
SOLID
  8
1
 62
1
 10
-43.01289656327
 20
25
 30
0
 11
-43.66289656327
 21
30
 31
0
 12
-42.36289656327
 22
30
 32
0
 13
-42.36289656327
 23
30
 33
0
  0
SOLID
  8
1
 62
1
 10
-43.01289656327
 20
65
 30
0
 11
-42.36289656327
 21
60
 31
0
 12
-43.66289656327
 22
60
 32
0
 13
-43.66289656327
 23
60
 33
0
  0
TEXT
  8
1
 62
7
 10
-44.01289656327
 20
41.25
 30
0
 40
5
  1
40
 50
90
 41
0.9
  0
ENDBLK
  8
0
  0
BLOCK
  8
1
  2
*D11
 70
1
 10
0
 20
0
 30
0
  0
LINE
  8
1
 62
1
 10
28
 20
-99
 30
0
 11
28
 21
-61
 31
0
  0
LINE
  8
1
 62
1
 10
15.5
 20
-61
 30
0
 11
30
 21
-61
 31
0
  0
LINE
  8
1
 62
1
 10
1.25
 20
-99
 30
0
 11
30
 21
-99
 31
0
  0
SOLID
  8
1
 62
1
 10
28
 20
-99
 30
0
 11
27.35
 21
-94
 31
0
 12
28.65
 22
-94
 32
0
 13
28.65
 23
-94
 33
0
  0
SOLID
  8
1
 62
1
 10
28
 20
-61
 30
0
 11
28.65
 21
-66
 31
0
 12
27.35
 22
-66
 32
0
 13
27.35
 23
-66
 33
0
  0
TEXT
  8
1
 62
7
 10
27
 20
-93.19758384987141
 30
0
 40
5
  1
38
 50
90
 41
0.9
  0
ENDBLK
  8
0
  0
BLOCK
  8
1
  2
*D12
 70
1
 10
0
 20
0
 30
0
  0
LINE
  8
1
 62
1
 10
28
 20
-60
 30
0
 11
28
 21
-50
 31
0
  0
LINE
  8
1
 62
1
 10
28
 20
-61
 30
0
 11
28
 21
-60
 31
0
  0
LINE
  8
1
 62
1
 10
28
 20
-71
 30
0
 11
28
 21
-61
 31
0
  0
LINE
  8
1
 62
1
 10
13
 20
-60
 30
0
 11
30
 21
-60
 31
0
  0
LINE
  8
1
 62
1
 10
15.5
 20
-61
 30
0
 11
30
 21
-61
 31
0
  0
SOLID
  8
1
 62
1
 10
28
 20
-61
 30
0
 11
28.65
 21
-66
 31
0
 12
27.35
 22
-66
 32
0
 13
27.35
 23
-66
 33
0
  0
SOLID
  8
1
 62
1
 10
28
 20
-60
 30
0
 11
27.35
 21
-55
 31
0
 12
28.65
 22
-55
 32
0
 13
28.65
 23
-55
 33
0
  0
TEXT
  8
1
 62
7
 10
27
 20
-57.7551391357914
 30
0
 40
5
  1
1
 50
90
 41
0.9
  0
ENDBLK
  8
0
  0
BLOCK
  8
1
  2
*D13
 70
1
 10
0
 20
0
 30
0
  0
LINE
  8
1
 62
1
 10
-42.9777419795254
 20
-60
 30
0
 11
-42.9777419795254
 21
-47.2528811379822
 31
0
  0
LINE
  8
1
 62
1
 10
-42.9777419795254
 20
-65.5
 30
0
 11
-42.9777419795254
 21
-60
 31
0
  0
LINE
  8
1
 62
1
 10
1.25
 20
-60
 30
0
 11
-44.9777419795254
 21
-60
 31
0
  0
LINE
  8
1
 62
1
 10
-28
 20
-65.5
 30
0
 11
-44.9777419795254
 21
-65.5
 31
0
  0
SOLID
  8
1
 62
1
 10
-42.9777419795254
 20
-60
 30
0
 11
-43.6277419795254
 21
-55
 31
0
 12
-42.3277419795254
 22
-55
 32
0
 13
-42.3277419795254
 23
-55
 33
0
  0
LINE
  8
1
 62
1
 10
-41.20997502655903
 20
-67.26776695296637
 30
0
 11
-44.74550893249177
 21
-63.73223304703363
 31
0
  0
TEXT
  8
1
 62
7
 10
-44.4777419795254
 20
-56.5028811379822
 30
0
 40
5
  1
5,5
 50
90
 41
0.9
  0
ENDBLK
  8
0
  0
BLOCK
  8
1
  2
*D14
 70
1
 10
0
 20
0
 30
0
  0
LINE
  8
1
 62
1
 10
-42.9777419795254
 20
-80
 30
0
 11
-42.9777419795254
 21
-91.4222906192886
 31
0
  0
LINE
  8
1
 62
1
 10
-42.9777419795254
 20
-80
 30
0
 11
-42.9777419795254
 21
-74.5
 31
0
  0
LINE
  8
1
 62
1
 10
-28
 20
-74.5
 30
0
 11
-44.9777419795254
 21
-74.5
 31
0
  0
LINE
  8
1
 62
1
 10
1.25
 20
-80
 30
0
 11
-44.9777419795254
 21
-80
 31
0
  0
LINE
  8
1
 62
1
 10
-44.74550893249177
 20
-72.73223304703363
 30
0
 11
-41.20997502655903
 21
-76.26776695296637
 31
0
  0
SOLID
  8
1
 62
1
 10
-42.9777419795254
 20
-80
 30
0
 11
-42.3277419795254
 21
-85
 31
0
 12
-43.6277419795254
 22
-85
 32
0
 13
-43.6277419795254
 23
-85
 33
0
  0
TEXT
  8
1
 62
7
 10
-44.4777419795254
 20
-91.4222906192886
 30
0
 40
5
  1
5,5
 50
90
 41
0.9
  0
ENDBLK
  8
0
  0
BLOCK
  8
1
  2
*D15
 70
1
 10
0
 20
0
 30
0
  0
LINE
  8
1
 62
1
 10
-43.0038319177714
 20
-74.5
 30
0
 11
-43.0038319177714
 21
-65.5
 31
0
  0
LINE
  8
1
 62
1
 10
-28
 20
-65.5
 30
0
 11
-45.0038319177714
 21
-65.5
 31
0
  0
LINE
  8
1
 62
1
 10
-28
 20
-74.5
 30
0
 11
-45.0038319177714
 21
-74.5
 31
0
  0
LINE
  8
1
 62
1
 10
-41.23606496480503
 20
-67.26776695296637
 30
0
 11
-44.77159887073777
 21
-63.73223304703363
 31
0
  0
TEXT
  8
1
 62
7
 10
-44.0038319177714
 20
-71.5
 30
0
 40
5
  1
9
 50
90
 41
0.9
  0
ENDBLK
  8
0
  0
ENDSEC
  0
SECTION
  2
ENTITIES
  0
LINE
  8
1
 62
7
 10
0
 20
0
 30
0
 11
110
 21
0
 31
0
  0
LINE
  8
1
 62
7
 10
110
 20
0
 30
0
 11
110
 21
90
 31
0
  0
LINE
  8
1
 62
7
 10
110
 20
90
 30
0
 11
0
 21
90
 31
0
  0
LINE
  8
1
 62
7
 10
0
 20
90
 30
0
 11
0
 21
0
 31
0
  0
LINE
  8
1
 62
7
 10
1.25
 20
90
 30
0
 11
1.25
 21
0
 31
0
  0
LINE
  8
1
 62
7
 10
1.25
 20
1.25
 30
0
 11
108.75
 21
1.25
 31
0
  0
LINE
  8
1
 62
7
 10
108.75
 20
0
 30
0
 11
108.75
 21
90
 31
0
  0
LINE
  8
1
 62
7
 10
108.75
 20
88.75
 30
0
 11
1.25
 21
88.75
 31
0
  0
LINE
  8
1
 62
2
  6
PHANTOM
 10
70
 20
28.19485758020548
 30
0
 11
70
 21
0.6237249788915022
 31
0
  0
LINE
  8
1
 62
2
  6
PHANTOM
 10
62.80514241979452
 20
21
 30
0
 11
77.19485758020548
 21
21
 31
0
  0
LINE
  8
1
 62
7
 10
68.19999999999993
 20
16.31572503831291
 30
0
 11
68.19999999999993
 21
17.36681957508301
 31
0
  0
LINE
  8
1
 62
7
 10
71.79999999999995
 20
16.31572503831291
 30
0
 11
71.79999999999995
 21
17.36681957508301
 31
0
  0
LINE
  8
1
 62
7
 10
73.79999999999995
 20
14.06625754306885
 30
0
 11
73.79999999999995
 21
15.1653566310919
 31
0
  0
LINE
  8
1
 62
7
 10
73.79999999999995
 20
9.727040342731733
 30
0
 11
73.79999999999995
 21
10.55763736772204
 31
0
  0
LINE
  8
1
 62
7
 10
70
 20
12.86802057154583
 30
0
 11
70
 21
11.90894396370902
 31
0
  0
LINE
  8
1
 62
7
 10
70
 20
8.271098784035019
 30
0
 11
70
 21
7.099999999999987
 31
0
  0
LINE
  8
1
 62
7
 10
66.19999999999993
 20
15.1653566310919
 30
0
 11
66.19999999999993
 21
4.85672529350245
 31
0
  0
LINE
  8
1
 62
7
 10
66.63041344952001
 20
15.66049066546267
 30
0
 11
67.76958655047997
 21
15.8205910039421
 31
0
  0
LINE
  8
1
 62
7
 10
73.36958655047999
 20
15.66049066546267
 30
0
 11
72.23041344951992
 21
15.8205910039421
 31
0
  0
LINE
  8
1
 62
7
 10
73.33487823687199
 20
13.56747551793892
 30
0
 11
70.46512176312797
 21
13.36680259667574
 31
0
  0
LINE
  8
1
 62
7
 10
73.36093467170258
 20
11.05391044354269
 30
0
 11
70.43906532829737
 21
11.41267088788834
 31
0
  0
LINE
  8
1
 62
7
 10
73.37821723252011
 20
9.233196172434162
 30
0
 11
70.42178276747984
 21
8.764942954332611
 31
0
  0
LINE
  8
1
 62
7
 10
73.29999999999995
 20
6.599999999999987
 30
0
 11
70.5
 21
6.599999999999987
 31
0
  0
LINE
  8
1
 62
7
 10
73.79999999999995
 20
4.85672529350245
 30
0
 11
73.79999999999995
 21
6.099999999999987
 31
0
  0
LINE
  8
1
 62
7
 10
44
 20
1.25
 30
0
 11
44
 21
88.75
 31
0
  0
LINE
  8
1
 62
7
 10
96
 20
1.25
 30
0
 11
96
 21
88.75
 31
0
  0
LINE
  8
1
 62
7
 10
52
 20
88.75
 30
0
 11
52
 21
90
 31
0
  0
LINE
  8
1
 62
7
 10
88
 20
88.75
 30
0
 11
88
 21
90
 31
0
  0
LINE
  8
1
 62
7
 10
0
 20
-99
 30
0
 11
0
 21
-61.25
 31
0
  0
LINE
  8
1
 62
7
 10
1.25
 20
-60
 30
0
 11
13
 21
-60
 31
0
  0
LINE
  8
1
 62
7
 10
110
 20
-62.25
 30
0
 11
110
 21
-80
 31
0
  0
LINE
  8
1
 62
7
 10
110
 20
-80
 30
0
 11
1.25
 21
-80
 31
0
  0
LINE
  8
1
 62
7
 10
1.25
 20
-80
 30
0
 11
1.25
 21
-99
 31
0
  0
LINE
  8
1
 62
7
 10
1.25
 20
-99
 30
0
 11
0
 21
-99
 31
0
  0
LINE
  8
1
 62
7
 10
1.25
 20
-80
 30
0
 11
1.25
 21
-61.25
 31
0
  0
LINE
  8
1
 62
7
 10
108.75
 20
-80
 30
0
 11
108.75
 21
-62.25
 31
0
  0
LINE
  8
1
 62
7
 10
52
 20
-80
 30
0
 11
52
 21
-78.75
 31
0
  0
LINE
  8
1
 62
7
 10
52
 20
-78.75
 30
0
 11
88
 21
-78.75
 31
0
  0
LINE
  8
1
 62
7
 10
88
 20
-78.75
 30
0
 11
88
 21
-80
 31
0
  0
LINE
  8
1
 62
7
 10
15.5
 20
-61
 30
0
 11
108.75
 21
-61
 31
0
  0
LINE
  8
1
 62
7
 10
15.5
 20
-61
 30
0
 11
13
 21
-60
 31
0
  0
LINE
  8
1
 62
2
 10
13
 20
1.25
 30
0
 11
13
 21
25
 31
0
  0
LINE
  8
1
 62
7
 10
44
 20
25
 30
0
 11
1.25
 21
25
 31
0
  0
LINE
  8
1
 62
3
  6
PHANTOM
 10
0
 20
25
 30
0
 11
-28
 21
25
 31
0
  0
LINE
  8
1
 62
3
  6
PHANTOM
 10
-28
 20
65
 30
0
 11
0
 21
65
 31
0
  0
LINE
  8
1
 62
7
 10
44
 20
65
 30
0
 11
1.25
 21
65
 31
0
  0
LINE
  8
1
 62
3
  6
PHANTOM
 10
-28
 20
25
 30
0
 11
-28
 21
65
 31
0
  0
LINE
  8
1
 62
3
  6
PHANTOM
 10
-14
 20
25
 30
0
 11
-14
 21
65
 31
0
  0
LINE
  8
1
 62
7
 10
31.25
 20
25
 30
0
 11
31.25
 21
65
 31
0
  0
LINE
  8
1
 62
2
 10
13
 20
65
 30
0
 11
13
 21
88.75
 31
0
  0
LINE
  8
1
 62
7
 10
64.5
 20
-119
 30
0
 11
75.5
 21
-119
 31
0
  0
LINE
  8
1
 62
7
 10
75.5
 20
-119
 30
0
 11
75.5
 21
-80
 31
0
  0
LINE
  8
1
 62
7
 10
75.5
 20
-80
 30
0
 11
64.5
 21
-80
 31
0
  0
LINE
  8
1
 62
7
 10
64.5
 20
-80
 30
0
 11
64.5
 21
-119
 31
0
  0
LINE
  8
1
 62
2
  6
PHANTOM
 10
70
 20
-75.75
 30
0
 11
70
 21
-122
 31
0
  0
LINE
  8
1
 62
3
  6
PHANTOM
 10
0
 20
-65.5
 30
0
 11
-28
 21
-65.5
 31
0
  0
LINE
  8
1
 62
3
  6
PHANTOM
 10
-28
 20
-65.5
 30
0
 11
-28
 21
-74.5
 31
0
  0
LINE
  8
1
 62
3
  6
PHANTOM
 10
-28
 20
-74.5
 30
0
 11
0
 21
-74.5
 31
0
  0
LINE
  8
1
 62
3
  6
PHANTOM
 10
-14
 20
-74.5
 30
0
 11
-14
 21
-65.5
 31
0
  0
LINE
  8
1
 62
2
  6
PHANTOM
 10
17
 20
8
 30
0
 11
23
 21
8
 31
0
  0
LINE
  8
1
 62
2
  6
PHANTOM
 10
20
 20
11
 30
0
 11
20
 21
5
 31
0
  0
LINE
  8
1
 62
2
  6
PHANTOM
 10
17
 20
82
 30
0
 11
23
 21
82
 31
0
  0
LINE
  8
1
 62
2
  6
PHANTOM
 10
20
 20
85
 30
0
 11
20
 21
79
 31
0
  0
LINE
  8
1
 62
2
  6
PHANTOM
 10
99
 20
82
 30
0
 11
105
 21
82
 31
0
  0
LINE
  8
1
 62
2
  6
PHANTOM
 10
102
 20
85
 30
0
 11
102
 21
79
 31
0
  0
LINE
  8
1
 62
2
  6
PHANTOM
 10
99
 20
8
 30
0
 11
105
 21
8
 31
0
  0
LINE
  8
1
 62
2
  6
PHANTOM
 10
102
 20
11
 30
0
 11
102
 21
5
 31
0
  0
ARC
  8
1
 62
7
 10
70
 20
21
 30
0
 40
5.500000000000006
 50
291.7310005330166
 51
0
  0
ARC
  8
1
 62
7
 10
70
 20
21
 30
0
 40
5.5
 50
0
 51
248.2689994669827
  0
ARC
  8
1
 62
7
 10
70
 20
9.5
 30
0
 40
6.000000000000036
 50
230.703519760812
 51
309.2964802391872
  0
ARC
  8
1
 62
7
 10
70
 20
21
 30
0
 40
3.800000000000022
 50
302.3360259975578
 51
237.6639740024422
  0
CIRCLE
  8
1
 62
7
 10
20
 20
8
 30
0
 40
2.5
  0
CIRCLE
  8
1
 62
7
 10
20
 20
82
 30
0
 40
2.5
  0
CIRCLE
  8
1
 62
7
 10
102
 20
82
 30
0
 40
2.5
  0
CIRCLE
  8
1
 62
7
 10
102
 20
8
 30
0
 40
2.5
  0
ARC
  8
1
 62
7
 10
73.29999999999995
 20
6.099999999999987
 30
0
 40
0.5
 50
0
 51
90
  0
ARC
  8
1
 62
7
 10
70.5
 20
7.099999999999987
 30
0
 40
0.5
 50
180
 51
270
  0
ARC
  8
1
 62
7
 10
70.5
 20
8.271098784035019
 30
0
 40
0.50000000000003
 50
99.00000000000462
 51
180
  0
ARC
  8
1
 62
7
 10
73.29999999999995
 20
9.727040342731733
 30
0
 40
0.5000000000000089
 50
279.000000000005
 51
0
  0
ARC
  8
1
 62
7
 10
73.29999999999995
 20
10.55763736772204
 30
0
 40
0.5
 50
0
 51
82.99999999999396
  0
ARC
  8
1
 62
7
 10
70.5
 20
11.90894396370902
 30
0
 40
0.5
 50
180
 51
262.9999999999944
  0
ARC
  8
1
 62
7
 10
70.5
 20
12.86802057154583
 30
0
 40
0.4999999999999948
 50
93.99999999999653
 51
180
  0
ARC
  8
1
 62
7
 10
73.29999999999995
 20
14.06625754306885
 30
0
 40
0.5000000000000161
 50
273.9999999999964
 51
0
  0
ARC
  8
1
 62
7
 10
73.29999999999995
 20
15.1653566310919
 30
0
 40
0.5
 50
0
 51
81.99999999999898
  0
ARC
  8
1
 62
7
 10
72.29999999999995
 20
16.31572503831291
 30
0
 40
0.5
 50
180
 51
261.9999999999996
  0
ARC
  8
1
 62
7
 10
72.29999999999995
 20
17.36681957508301
 30
0
 40
0.4999999999999544
 50
122.3360259975528
 51
180
  0
ARC
  8
1
 62
7
 10
66.69999999999993
 20
15.1653566310919
 30
0
 40
0.4999999999999696
 50
97.99999999998812
 51
180
  0
ARC
  8
1
 62
7
 10
67.69999999999993
 20
16.31572503831291
 30
0
 40
0.5000000000000241
 50
278.0000000000005
 51
0
  0
ARC
  8
1
 62
7
 10
67.69999999999993
 20
17.36681957508301
 30
0
 40
0.5
 50
0
 51
57.66397400243618
  0
ARC
  8
1
 62
7
 10
108.75
 20
-62.25
 30
0
 40
1.25
 50
0
 51
90
  0
ARC
  8
1
 62
7
 10
1.25
 20
-61.25
 30
0
 40
1.25
 50
90
 51
180
  0
TEXT
  8
1
 62
7
 10
34.44734388957302
 20
106.6637053087762
 30
0
 40
5
  1
2301.1XX.000
 41
0.9
  0
DIMENSION
  8
1
  6
CONTINUOUS
 62
1
  2
*D0
  3
DMST_1
 10
110
 20
-14.7437992485289
 30
0
 11
90
 21
-11.2437992485289
 31
0
 12
0
 22
0
 32
0
 70
0
 13
70
 23
0.6237249788915022
 33
0
 14
110
 24
0
 34
0
 53
0
  0
DIMENSION
  8
1
  6
CONTINUOUS
 62
1
  2
*D1
  3
DMST_1
 10
70
 20
-14.75
 30
0
 11
35
 21
-11.25
 31
0
 12
0
 22
0
 32
0
 70
0
  1
55/70/80
 13
0
 23
0
 33
0
 14
70
 24
0.6237249788915022
 34
0
 53
0
  0
DIMENSION
  8
1
  6
CONTINUOUS
 62
1
  2
*D2
  3
DMST_1
 10
0
 20
10.25
 30
0
 11
-14
 21
13.75
 31
0
 12
0
 22
0
 32
0
 70
0
  1
2x14
 13
-28
 23
25
 33
0
 14
0
 24
0
 34
0
 53
0
  0
DIMENSION
  8
1
  6
CONTINUOUS
 62
1
  2
*D3
  3
DMST_1
 10
124.75
 20
-61
 30
0
 11
121.25
 21
-70.5
 31
0
 12
0
 22
0
 32
0
 70
0
 13
110
 23
-80
 33
0
 14
108.75
 24
-61
 34
0
 50
90
 53
0
  0
DIMENSION
  8
1
  6
CONTINUOUS
 62
1
  2
*D4
  3
DMST_1
 10
90.25
 20
-80
 30
0
 11
86.75
 21
-99.5
 31
0
 12
0
 22
0
 32
0
 70
0
 13
75.5
 23
-119
 33
0
 14
110
 24
-80
 34
0
 50
90
 53
0
  0
DIMENSION
  8
1
  6
CONTINUOUS
 62
1
  2
*D5
  3
DMST_1
 10
139.884107529794
 20
90
 30
0
 11
136.384107529794
 21
45
 31
0
 12
0
 22
0
 32
0
 70
0
 13
110
 23
0
 33
0
 14
110
 24
90
 34
0
 50
90
 53
0
  0
DIMENSION
  8
1
  6
CONTINUOUS
 62
1
  2
*D6
  3
DMST_1
 10
124.75
 20
21
 30
0
 11
121.25
 21
10.5
 31
0
 12
0
 22
0
 32
0
 70
0
 13
110
 23
0
 33
0
 14
77.19485758020548
 24
21
 34
0
 50
90
 53
0
  0
DIMENSION
  8
1
  6
CONTINUOUS
 62
1
  2
*D7
  3
DMST_1
 10
124.75
 20
90
 30
0
 11
121.25
 21
55.5
 31
0
 12
0
 22
0
 32
0
 70
0
 13
77.19485758020548
 23
21
 33
0
 14
110
 24
90
 34
0
 50
90
 53
0
  0
DIMENSION
  8
1
  6
CONTINUOUS
 62
1
  2
*D8
  3
DMST_1
 10
-43.0117043622307
 20
25
 30
0
 11
-46.5117043622307
 21
12.5
 31
0
 12
0
 22
0
 32
0
 70
0
 13
0
 23
0
 33
0
 14
-28
 24
25
 34
0
 50
90
 53
0
  0
DIMENSION
  8
1
  6
CONTINUOUS
 62
1
  2
*D9
  3
DMST_1
 10
-43.01289656327
 20
90
 30
0
 11
-46.51289656327
 21
77.5
 31
0
 12
0
 22
0
 32
0
 70
0
 13
-28
 23
65
 33
0
 14
0
 24
90
 34
0
 50
90
 53
0
  0
DIMENSION
  8
1
  6
CONTINUOUS
 62
1
  2
*D10
  3
DMST_1
 10
-43.01289656327
 20
65
 30
0
 11
-46.51289656327
 21
45
 31
0
 12
0
 22
0
 32
0
 70
0
 13
-28
 23
25
 33
0
 14
-28
 24
65
 34
0
 50
90
 53
0
  0
DIMENSION
  8
1
  6
CONTINUOUS
 62
1
  2
*D11
  3
DMST_1
 10
28
 20
-99
 30
0
 11
24.5
 21
-89.44758384987141
 31
0
 12
0
 22
0
 32
0
 70
0
 13
15.5
 23
-61
 33
0
 14
1.25
 24
-99
 34
0
 50
90
 53
0
  0
DIMENSION
  8
1
  6
CONTINUOUS
 62
1
  2
*D12
  3
DMST_1
 10
28
 20
-60
 30
0
 11
24.5
 21
-57.0051391357914
 31
0
 12
0
 22
0
 32
0
 70
0
 13
15.5
 23
-61
 33
0
 14
13
 24
-60
 34
0
 50
90
 53
0
  0
INSERT
  8
1
  2
*D13
 10
0
 20
0
 30
0
  0
INSERT
  8
1
  2
*D14
 10
0
 20
0
 30
0
  0
INSERT
  8
1
  2
*D15
 10
0
 20
0
 30
0
  0
ENDSEC
  0
EOF
