  0
SECTION
  2
HEADER
  9
$ACADVER
  1
AC1021
  9
$ACADMAINTVER
 70
    25
  9
$DWGCODEPAGE
  3
ANSI_1252
  9
$INSBASE
 10
0.0
 20
0.0
 30
0.0
  9
$EXTMIN
 10
0.0
 20
0.0
 30
0.0
  9
$EXTMAX
 10
210.0
 20
297.0
 30
0.0
  9
$LIMMIN
 10
0.0
 20
0.0
  9
$LIMMAX
 10
210.0
 20
297.0
  9
$ORTHOMODE
 70
     0
  9
$REGENMODE
 70
     1
  9
$FILLMODE
 70
     1
  9
$QTEXTMODE
 70
     0
  9
$MIRRTEXT
 70
     1
  9
$LTSCALE
 40
1.0
  9
$ATTMODE
 70
     1
  9
$TEXTSIZE
 40
5.0
  9
$TRACEWID
 40
1.0
  9
$TEXTSTYLE
  7
Standard
  9
$CLAYER
  8
0
  9
$CELTYPE
  6
ByLayer
  9
$CECOLOR
 62
   256
  9
$CELTSCALE
 40
1.0
  9
$DISPSILH
 70
     0
  9
$DIMSCALE
 40
1.0
  9
$DIMASZ
 40
2.5
  9
$DIMEXO
 40
0.625
  9
$DIMDLI
 40
3.75
  9
$DIMRND
 40
0.0
  9
$DIMDLE
 40
0.0
  9
$DIMEXE
 40
1.25
  9
$DIMTP
 40
0.0
  9
$DIMTM
 40
0.0
  9
$DIMTXT
 40
2.5
  9
$DIMCEN
 40
2.5
  9
$DIMTSZ
 40
0.0
  9
$DIMTOL
 70
     0
  9
$DIMLIM
 70
     0
  9
$DIMTIH
 70
     0
  9
$DIMTOH
 70
     0
  9
$DIMSE1
 70
     0
  9
$DIMSE2
 70
     0
  9
$DIMTAD
 70
     1
  9
$DIMZIN
 70
     8
  9
$DIMBLK
  1

  9
$DIMASO
 70
     1
  9
$DIMSHO
 70
     1
  9
$DIMPOST
  1

  9
$DIMAPOST
  1

  9
$DIMALT
 70
     0
  9
$DIMALTD
 70
     3
  9
$DIMALTF
 40
0.0393700787
  9
$DIMLFAC
 40
1.0
  9
$DIMTOFL
 70
     1
  9
$DIMTVP
 40
0.0
  9
$DIMTIX
 70
     0
  9
$DIMSOXD
 70
     0
  9
$DIMSAH
 70
     0
  9
$DIMBLK1
  1

  9
$DIMBLK2
  1

  9
$DIMSTYLE
  2
ISO-25
  9
$DIMCLRD
 70
     0
  9
$DIMCLRE
 70
     0
  9
$DIMCLRT
 70
     0
  9
$DIMTFAC
 40
1.0
  9
$DIMGAP
 40
0.625
  9
$DIMJUST
 70
     0
  9
$DIMSD1
 70
     0
  9
$DIMSD2
 70
     0
  9
$DIMTOLJ
 70
     0
  9
$DIMTZIN
 70
     8
  9
$DIMALTZ
 70
     0
  9
$DIMALTTZ
 70
     0
  9
$DIMUPT
 70
     0
  9
$DIMDEC
 70
     2
  9
$DIMTDEC
 70
     2
  9
$DIMALTU
 70
     2
  9
$DIMALTTD
 70
     3
  9
$DIMTXSTY
  7
Standard
  9
$DIMAUNIT
 70
     0
  9
$DIMADEC
 70
     0
  9
$DIMALTRND
 40
0.0
  9
$DIMAZIN
 70
     0
  9
$DIMDSEP
 70
    44
  9
$DIMATFIT
 70
     3
  9
$DIMFRAC
 70
     0
  9
$DIMLDRBLK
  1

  9
$DIMLUNIT
 70
     2
  9
$DIMLWD
 70
    -2
  9
$DIMLWE
 70
    -2
  9
$DIMTMOVE
 70
     0
  9
$DIMFXL
 40
1.0
  9
$DIMFXLON
 70
     0
  9
$DIMJOGANG
 40
0.7853981634
  9
$DIMTFILL
 70
     0
  9
$DIMTFILLCLR
 70
     0
  9
$DIMARCSYM
 70
     0
  9
$DIMLTYPE
  6

  9
$DIMLTEX1
  6

  9
$DIMLTEX2
  6

  9
$LUNITS
 70
     2
  9
$LUPREC
 70
     4
  9
$SKETCHINC
 40
1.0
  9
$FILLETRAD
 40
10.0
  9
$AUNITS
 70
     0
  9
$AUPREC
 70
     0
  9
$MENU
  1
.
  9
$ELEVATION
 40
0.0
  9
$PELEVATION
 40
0.0
  9
$THICKNESS
 40
0.0
  9
$LIMCHECK
 70
     0
  9
$CHAMFERA
 40
0.0
  9
$CHAMFERB
 40
0.0
  9
$CHAMFERC
 40
0.0
  9
$CHAMFERD
 40
0.0
  9
$SKPOLY
 70
     0
  9
$TDCREATE
 40
2457109.5422225
  9
$TDUCREATE
 40
2457109.500555833
  9
$TDUPDATE
 40
2457109.542223773
  9
$TDUUPDATE
 40
2457109.500557106
  9
$TDINDWG
 40
0.0000000116
  9
$TDUSRTIMER
 40
0.0000000116
  9
$USRTIMER
 70
     1
  9
$ANGBASE
 50
0.0
  9
$ANGDIR
 70
     0
  9
$PDMODE
 70
     0
  9
$PDSIZE
 40
0.0
  9
$PLINEWID
 40
0.0
  9
$SPLFRAME
 70
     0
  9
$SPLINETYPE
 70
     6
  9
$SPLINESEGS
 70
     8
  9
$HANDSEED
  5
373
  9
$SURFTAB1
 70
     6
  9
$SURFTAB2
 70
     6
  9
$SURFTYPE
 70
     6
  9
$SURFU
 70
     6
  9
$SURFV
 70
     6
  9
$UCSBASE
  2

  9
$UCSNAME
  2

  9
$UCSORG
 10
0.0
 20
0.0
 30
0.0
  9
$UCSXDIR
 10
1.0
 20
0.0
 30
0.0
  9
$UCSYDIR
 10
0.0
 20
1.0
 30
0.0
  9
$UCSORTHOREF
  2

  9
$UCSORTHOVIEW
 70
     0
  9
$UCSORGTOP
 10
0.0
 20
0.0
 30
0.0
  9
$UCSORGBOTTOM
 10
0.0
 20
0.0
 30
0.0
  9
$UCSORGLEFT
 10
0.0
 20
0.0
 30
0.0
  9
$UCSORGRIGHT
 10
0.0
 20
0.0
 30
0.0
  9
$UCSORGFRONT
 10
0.0
 20
0.0
 30
0.0
  9
$UCSORGBACK
 10
0.0
 20
0.0
 30
0.0
  9
$PUCSBASE
  2

  9
$PUCSNAME
  2

  9
$PUCSORG
 10
0.0
 20
0.0
 30
0.0
  9
$PUCSXDIR
 10
1.0
 20
0.0
 30
0.0
  9
$PUCSYDIR
 10
0.0
 20
1.0
 30
0.0
  9
$PUCSORTHOREF
  2

  9
$PUCSORTHOVIEW
 70
     0
  9
$PUCSORGTOP
 10
0.0
 20
0.0
 30
0.0
  9
$PUCSORGBOTTOM
 10
0.0
 20
0.0
 30
0.0
  9
$PUCSORGLEFT
 10
0.0
 20
0.0
 30
0.0
  9
$PUCSORGRIGHT
 10
0.0
 20
0.0
 30
0.0
  9
$PUCSORGFRONT
 10
0.0
 20
0.0
 30
0.0
  9
$PUCSORGBACK
 10
0.0
 20
0.0
 30
0.0
  9
$USERI1
 70
     0
  9
$USERI2
 70
     0
  9
$USERI3
 70
     0
  9
$USERI4
 70
     0
  9
$USERI5
 70
     0
  9
$USERR1
 40
0.0
  9
$USERR2
 40
0.0
  9
$USERR3
 40
0.0
  9
$USERR4
 40
0.0
  9
$USERR5
 40
0.0
  9
$WORLDVIEW
 70
     1
  9
$SHADEDGE
 70
     3
  9
$SHADEDIF
 70
    70
  9
$TILEMODE
 70
     1
  9
$MAXACTVP
 70
    64
  9
$PINSBASE
 10
0.0
 20
0.0
 30
0.0
  9
$PLIMCHECK
 70
     0
  9
$PEXTMIN
 10
0.0
 20
0.0
 30
0.0
  9
$PEXTMAX
 10
210.0
 20
297.0
 30
0.0
  9
$PLIMMIN
 10
0.0
 20
0.0
  9
$PLIMMAX
 10
210.0
 20
297.0
  9
$UNITMODE
 70
     0
  9
$VISRETAIN
 70
     1
  9
$PLINEGEN
 70
     0
  9
$PSLTSCALE
 70
     1
  9
$TREEDEPTH
 70
  3020
  9
$CMLSTYLE
  2
Standard
  9
$CMLJUST
 70
     0
  9
$CMLSCALE
 40
20.0
  9
$PROXYGRAPHICS
 70
     1
  9
$MEASUREMENT
 70
     1
  9
$CELWEIGHT
370
    -1
  9
$ENDCAPS
280
     0
  9
$JOINSTYLE
280
     0
  9
$LWDISPLAY
290
     0
  9
$INSUNITS
 70
     4
  9
$HYPERLINKBASE
  1

  9
$STYLESHEET
  1

  9
$XEDIT
290
     1
  9
$CEPSNTYPE
380
     0
  9
$PSTYLEMODE
290
     1
  9
$FINGERPRINTGUID
  2
{ED3BFC3E-70D9-47D5-ACF7-F9267B6096F4}
  9
$VERSIONGUID
  2
{FAEB1C32-E019-11D5-929B-00C0DF256EC4}
  9
$EXTNAMES
290
     1
  9
$PSVPSCALE
 40
0.0
  9
$OLESTARTUP
290
     0
  9
$SORTENTS
280
   127
  9
$INDEXCTL
280
     0
  9
$HIDETEXT
280
     1
  9
$XCLIPFRAME
290
     0
  9
$HALOGAP
280
     0
  9
$OBSCOLOR
 70
   257
  9
$OBSLTYPE
280
     0
  9
$INTERSECTIONDISPLAY
280
     0
  9
$INTERSECTIONCOLOR
 70
   257
  9
$DIMASSOC
280
     2
  9
$PROJECTNAME
  1

  9
$CAMERADISPLAY
290
     0
  9
$LENSLENGTH
 40
50.0
  9
$CAMERAHEIGHT
 40
0.0
  9
$STEPSPERSEC
 40
2.0
  9
$STEPSIZE
 40
6.0
  9
$3DDWFPREC
 40
2.0
  9
$PSOLWIDTH
 40
5.0
  9
$PSOLHEIGHT
 40
80.0
  9
$LOFTANG1
 40
1.5707963268
  9
$LOFTANG2
 40
1.5707963268
  9
$LOFTMAG1
 40
0.0
  9
$LOFTMAG2
 40
0.0
  9
$LOFTPARAM
 70
     7
  9
$LOFTNORMALS
280
     1
  9
$LATITUDE
 40
37.795
  9
$LONGITUDE
 40
-122.394
  9
$NORTHDIRECTION
 40
0.0
  9
$TIMEZONE
 70
 -8000
  9
$LIGHTGLYPHDISPLAY
280
     1
  9
$TILEMODELIGHTSYNCH
280
     1
  9
$CMATERIAL
347
44
  9
$SOLIDHIST
280
     0
  9
$SHOWHIST
280
     1
  9
$DWFFRAME
280
     2
  9
$DGNFRAME
280
     2
  9
$REALWORLDSCALE
290
     1
  9
$INTERFERECOLOR
 62
   256
  9
$CSHADOW
280
     0
  9
$SHADOWPLANELOCATION
 40
0.0
  0
ENDSEC
  0
SECTION
  2
CLASSES
  0
CLASS
  1
ACDBDICTIONARYWDFLT
  2
AcDbDictionaryWithDefault
  3
ObjectDBX Classes
 90
        0
 91
        4
280
     0
281
     0
  0
CLASS
  1
VISUALSTYLE
  2
AcDbVisualStyle
  3
ObjectDBX Classes
 90
     4095
 91
        4
280
     0
281
     0
  0
CLASS
  1
MATERIAL
  2
AcDbMaterial
  3
ObjectDBX Classes
 90
     1153
 91
        4
280
     0
281
     0
  0
CLASS
  1
SCALE
  2
AcDbScale
  3
ObjectDBX Classes
 90
     1153
 91
        4
280
     0
281
     0
  0
CLASS
  1
TABLESTYLE
  2
AcDbTableStyle
  3
ObjectDBX Classes
 90
     4095
 91
        4
280
     0
281
     0
  0
CLASS
  1
MLEADERSTYLE
  2
AcDbMLeaderStyle
  3
ACDB_MLEADERSTYLE_CLASS
 90
     4095
 91
        4
280
     0
281
     0
  0
CLASS
  1
SUN
  2
AcDbSun
  3
SCENEOE
 90
     1153
 91
        4
280
     0
281
     0
  0
CLASS
  1
DICTIONARYVAR
  2
AcDbDictionaryVar
  3
ObjectDBX Classes
 90
        0
 91
        4
280
     0
281
     0
  0
CLASS
  1
CELLSTYLEMAP
  2
AcDbCellStyleMap
  3
ObjectDBX Classes
 90
     1152
 91
        4
280
     0
281
     0
  0
ENDSEC
  0
SECTION
  2
TABLES
  0
TABLE
  2
VPORT
  5
8
330
0
100
AcDbSymbolTable
 70
     1
  0
VPORT
  5
29
330
8
100
AcDbSymbolTableRecord
100
AcDbViewportTableRecord
  2
*Active
 70
     0
 10
0.0
 20
0.0
 11
1.0
 21
1.0
 12
344.1869158879
 22
148.5
 13
0.0
 23
0.0
 14
10.0
 24
10.0
 15
10.0
 25
10.0
 16
0.0
 26
0.0
 36
1.0
 17
0.0
 27
0.0
 37
0.0
 40
297.0
 41
1.9729729729
 42
50.0
 43
0.0
 44
0.0
 50
0.0
 51
0.0
 71
     0
 72
   100
 73
     1
 74
     3
 75
     0
 76
     0
 77
     0
 78
     0
281
     0
 65
     1
110
0.0
120
0.0
130
0.0
111
1.0
121
0.0
131
0.0
112
0.0
122
1.0
132
0.0
 79
     0
146
0.0
 60
     3
 61
     5
292
     1
282
     1
141
0.0
142
0.0
 63
   250
361
6D
  0
ENDTAB
  0
TABLE
  2
LTYPE
  5
5
330
0
100
AcDbSymbolTable
 70
     3
  0
LTYPE
  5
14
330
5
100
AcDbSymbolTableRecord
100
AcDbLinetypeTableRecord
  2
ByBlock
 70
     0
  3

 72
    65
 73
     0
 40
0.0
  0
LTYPE
  5
15
330
5
100
AcDbSymbolTableRecord
100
AcDbLinetypeTableRecord
  2
ByLayer
 70
     0
  3

 72
    65
 73
     0
 40
0.0
  0
LTYPE
  5
16
330
5
100
AcDbSymbolTableRecord
100
AcDbLinetypeTableRecord
  2
Continuous
 70
     0
  3
Solid line
 72
    65
 73
     0
 40
0.0
  0
LTYPE
  5
71
330
5
100
AcDbSymbolTableRecord
100
AcDbLinetypeTableRecord
  2
CENTER2
 70
     0
  3
Center (.5x) ___ _ ___ _ ___ _ ___ _ ___ _ ___
 72
    65
 73
     4
 40
28.575
 49
19.05
 74
     4
 75
     0
340
0
 46
0.0
 50
0.0
 44
0.0
 45
0.0
 49
-3.175
 74
     4
 75
     0
340
0
 46
0.0
 50
0.0
 44
0.0
 45
0.0
 49
3.175
 74
     4
 75
     0
340
0
 46
0.0
 50
0.0
 44
0.0
 45
0.0
 49
-3.175
 74
     4
 75
     0
340
0
 46
0.0
 50
0.0
 44
0.0
 45
0.0
  0
LTYPE
  5
F3
330
5
100
AcDbSymbolTableRecord
100
AcDbLinetypeTableRecord
  2
HIDDEN2
 70
     0
  3
Hidden (.5x) _ _ _ _ _ _ _ _ _ _ _ _ _ _ _ _ _ 
 72
    65
 73
     2
 40
4.7625
 49
3.175
 74
     4
 75
     0
340
0
 46
0.0
 50
0.0
 44
0.0
 45
0.0
 49
-1.5875
 74
     4
 75
     0
340
0
 46
0.0
 50
0.0
 44
0.0
 45
0.0
  0
ENDTAB
  0
TABLE
  2
LAYER
  5
2
330
0
100
AcDbSymbolTable
 70
     9
  0
LAYER
  5
10
330
2
100
AcDbSymbolTableRecord
100
AcDbLayerTableRecord
  2
0
 70
     0
 62
     7
  6
Continuous
370
    -3
390
F
347
46
  0
LAYER
  5
6E
330
2
100
AcDbSymbolTableRecord
100
AcDbLayerTableRecord
  2
Default
 70
     0
 62
     7
  6
Continuous
370
    -3
390
F
347
46
  0
LAYER
  5
CE
330
2
100
AcDbSymbolTableRecord
100
AcDbLayerTableRecord
  2
MEGA_002041
 70
     0
 62
     7
  6
Continuous
370
    -3
390
F
347
46
  0
LAYER
  5
DF
330
2
100
AcDbSymbolTableRecord
100
AcDbLayerTableRecord
  2
MEGA_002032
 70
     0
 62
     7
  6
Continuous
370
    -3
390
F
347
46
  0
LAYER
  5
E2
330
2
100
AcDbSymbolTableRecord
100
AcDbLayerTableRecord
  2
MEGA_000863
 70
     0
 62
     7
  6
Continuous
370
    -3
390
F
347
46
  0
LAYER
  5
E5
330
2
100
AcDbSymbolTableRecord
100
AcDbLayerTableRecord
  2
MEGA_002006
 70
     0
 62
     7
  6
Continuous
370
    -3
390
F
347
46
  0
LAYER
  5
F2
330
2
100
AcDbSymbolTableRecord
100
AcDbLayerTableRecord
  2
MEGA_000572
 70
     0
 62
     7
  6
Continuous
370
    -3
390
F
347
46
  0
LAYER
  5
F9
330
2
100
AcDbSymbolTableRecord
100
AcDbLayerTableRecord
  2
DV1_Standard
 70
     0
 62
     7
  6
Continuous
370
    -3
390
F
347
46
  0
LAYER
  5
11F
330
2
100
AcDbSymbolTableRecord
100
AcDbLayerTableRecord
  2
DV2_Standard
 70
     0
 62
     7
  6
Continuous
370
    -3
390
F
347
46
  0
ENDTAB
  0
TABLE
  2
STYLE
  5
3
330
0
100
AcDbSymbolTable
 70
     3
  0
STYLE
  5
11
330
3
100
AcDbSymbolTableRecord
100
AcDbTextStyleTableRecord
  2
Standard
 70
     0
 40
0.0
 41
1.0
 50
0.0
 71
     0
 42
5.0
  3
txt
  4

  0
STYLE
  5
102
330
3
100
AcDbSymbolTableRecord
100
AcDbTextStyleTableRecord
  2
SEACAD_Solid_Edge_ISO
 70
     0
 40
0.0
 41
1.0
 50
0.0
 71
     0
 42
5.0
  3
seiso.ttf
  4

1001
ACAD
1000
Solid Edge ISO
1071
        0
  0
STYLE
  5
300
330
3
100
AcDbSymbolTableRecord
100
AcDbTextStyleTableRecord
  2
SEACAD_Solid_Edge_ISO1_Symbols
 70
     0
 40
0.0
 41
1.0
 50
0.0
 71
     0
 42
5.0
  3
semeci1.ttf
  4

1001
ACAD
1000
Solid Edge ISO1 Symbols
1071
        0
  0
ENDTAB
  0
TABLE
  2
VIEW
  5
6
330
0
100
AcDbSymbolTable
 70
     0
  0
ENDTAB
  0
TABLE
  2
UCS
  5
7
330
0
100
AcDbSymbolTable
 70
     0
  0
ENDTAB
  0
TABLE
  2
APPID
  5
9
330
0
100
AcDbSymbolTable
 70
     2
  0
APPID
  5
12
330
9
100
AcDbSymbolTableRecord
100
AcDbRegAppTableRecord
  2
ACAD
 70
     0
  0
APPID
  5
36B
330
9
100
AcDbSymbolTableRecord
100
AcDbRegAppTableRecord
  2
ACAD_MLEADERVER
 70
     0
  0
ENDTAB
  0
TABLE
  2
DIMSTYLE
  5
A
330
0
100
AcDbSymbolTable
 70
     3
100
AcDbDimStyleTable
  0
DIMSTYLE
105
27
330
A
100
AcDbSymbolTableRecord
100
AcDbDimStyleTableRecord
  2
ISO-25
 70
     0
 41
2.5
 42
0.625
 43
3.75
 44
1.25
 73
     0
 74
     0
 77
     1
 78
     8
140
2.5
141
2.5
143
0.0393700787
147
0.625
171
     3
172
     1
178
     0
271
     2
272
     2
274
     3
278
    44
283
     0
284
     8
340
11
  0
DIMSTYLE
105
27D
330
A
100
AcDbSymbolTableRecord
100
AcDbDimStyleTableRecord
  2
Standard
 70
     0
178
     0
340
11
  0
DIMSTYLE
105
28F
102
{ACAD_REACTORS
330
290
330
29A
330
2A4
330
2AE
330
2B8
330
2C2
330
2CC
330
2D6
330
2E0
330
2EA
330
2F4
330
2FF
330
30B
330
316
330
324
330
32D
102
}
330
A
100
AcDbSymbolTableRecord
100
AcDbDimStyleTableRecord
  2
DIN
 70
     0
 41
3.0
 42
0.0
 44
1.5
 73
     0
 74
     0
 77
     1
 78
     8
140
3.0
141
1.5
147
1.5
172
     1
173
     1
178
     0
271
     2
272
     2
278
    44
284
     8
340
102
343
28A
344
28A
  0
ENDTAB
  0
TABLE
  2
BLOCK_RECORD
  5
1
330
0
100
AcDbSymbolTable
 70
    41
  0
BLOCK_RECORD
  5
1F
330
1
100
AcDbSymbolTableRecord
100
AcDbBlockTableRecord
  2
*Model_Space
340
22
 70
     0
280
     1
281
     0
  0
BLOCK_RECORD
  5
1B
330
1
100
AcDbSymbolTableRecord
100
AcDbBlockTableRecord
  2
*Paper_Space
340
1E
 70
     0
280
     1
281
     0
  0
BLOCK_RECORD
  5
6F
330
1
100
AcDbSymbolTableRecord
100
AcDbBlockTableRecord
  2
SEANNOT_GROUP
340
0
102
{BLKREFS
331
70
102
}
 70
     0
280
     1
281
     0
  0
BLOCK_RECORD
  5
75
330
1
100
AcDbSymbolTableRecord
100
AcDbBlockTableRecord
  2
SEANNOT_GROUP1
340
0
102
{BLKREFS
331
76
102
}
 70
     0
280
     1
281
     0
  0
BLOCK_RECORD
  5
7A
330
1
100
AcDbSymbolTableRecord
100
AcDbBlockTableRecord
  2
SEANNOT_GROUP2
340
0
102
{BLKREFS
331
7B
102
}
 70
     0
280
     1
281
     0
  0
BLOCK_RECORD
  5
7F
330
1
100
AcDbSymbolTableRecord
100
AcDbBlockTableRecord
  2
SEANNOT_GROUP3
340
0
102
{BLKREFS
331
80
102
}
 70
     0
280
     1
281
     0
  0
BLOCK_RECORD
  5
84
330
1
100
AcDbSymbolTableRecord
100
AcDbBlockTableRecord
  2
SEANNOT_GROUP4
340
0
102
{BLKREFS
331
85
102
}
 70
     0
280
     1
281
     0
  0
BLOCK_RECORD
  5
8E
330
1
100
AcDbSymbolTableRecord
100
AcDbBlockTableRecord
  2
SEANNOT_GROUP5
340
0
102
{BLKREFS
331
8F
102
}
 70
     0
280
     1
281
     0
  0
BLOCK_RECORD
  5
98
330
1
100
AcDbSymbolTableRecord
100
AcDbBlockTableRecord
  2
SEANNOT_GROUP6
340
0
102
{BLKREFS
331
99
102
}
 70
     0
280
     1
281
     0
  0
BLOCK_RECORD
  5
A2
330
1
100
AcDbSymbolTableRecord
100
AcDbBlockTableRecord
  2
SEANNOT_GROUP7
340
0
102
{BLKREFS
331
A3
102
}
 70
     0
280
     1
281
     0
  0
BLOCK_RECORD
  5
AC
330
1
100
AcDbSymbolTableRecord
100
AcDbBlockTableRecord
  2
SEANNOT_GROUP8
340
0
102
{BLKREFS
331
AD
102
}
 70
     0
280
     1
281
     0
  0
BLOCK_RECORD
  5
B8
330
1
100
AcDbSymbolTableRecord
100
AcDbBlockTableRecord
  2
SEANNOT_GROUP9
340
0
102
{BLKREFS
331
B9
102
}
 70
     0
280
     1
281
     0
  0
BLOCK_RECORD
  5
BD
330
1
100
AcDbSymbolTableRecord
100
AcDbBlockTableRecord
  2
SEANNOT_GROUP10
340
0
102
{BLKREFS
331
BE
102
}
 70
     0
280
     1
281
     0
  0
BLOCK_RECORD
  5
C2
330
1
100
AcDbSymbolTableRecord
100
AcDbBlockTableRecord
  2
SEANNOT_GROUP11
340
0
102
{BLKREFS
331
C3
102
}
 70
     0
280
     1
281
     0
  0
BLOCK_RECORD
  5
C7
330
1
100
AcDbSymbolTableRecord
100
AcDbBlockTableRecord
  2
SEANNOT_GROUP12
340
0
102
{BLKREFS
331
C8
102
}
 70
     0
280
     1
281
     0
  0
BLOCK_RECORD
  5
CC
330
1
100
AcDbSymbolTableRecord
100
AcDbBlockTableRecord
  2
SE
340
0
102
{BLKREFS
331
CD
102
}
 70
     0
280
     1
281
     0
  0
BLOCK_RECORD
  5
FE
330
1
100
AcDbSymbolTableRecord
100
AcDbBlockTableRecord
  2
SE1
340
0
102
{BLKREFS
331
FF
102
}
 70
     0
280
     1
281
     0
  0
BLOCK_RECORD
  5
100
330
1
100
AcDbSymbolTableRecord
100
AcDbBlockTableRecord
  2
SE2
340
0
102
{BLKREFS
331
101
102
}
 70
     0
280
     1
281
     0
  0
BLOCK_RECORD
  5
106
330
1
100
AcDbSymbolTableRecord
100
AcDbBlockTableRecord
  2
SE3
340
0
102
{BLKREFS
331
107
102
}
 70
     0
280
     1
281
     0
  0
BLOCK_RECORD
  5
10B
330
1
100
AcDbSymbolTableRecord
100
AcDbBlockTableRecord
  2
SEANNOT_GROUP13
340
0
102
{BLKREFS
331
10C
102
}
 70
     0
280
     1
281
     0
  0
BLOCK_RECORD
  5
111
330
1
100
AcDbSymbolTableRecord
100
AcDbBlockTableRecord
  2
SEANNOT_GROUP14
340
0
102
{BLKREFS
331
112
102
}
 70
     0
280
     1
281
     0
  0
BLOCK_RECORD
  5
11D
330
1
100
AcDbSymbolTableRecord
100
AcDbBlockTableRecord
  2
SE4
340
0
102
{BLKREFS
331
11E
102
}
 70
     0
280
     1
281
     0
  0
BLOCK_RECORD
  5
27E
330
1
100
AcDbSymbolTableRecord
100
AcDbBlockTableRecord
  2
_OBLIQUE
340
0
 70
     0
280
     1
281
     0
  0
BLOCK_RECORD
  5
282
330
1
100
AcDbSymbolTableRecord
100
AcDbBlockTableRecord
  2
_DOT
340
0
 70
     0
280
     1
281
     0
  0
BLOCK_RECORD
  5
28A
330
1
100
AcDbSymbolTableRecord
100
AcDbBlockTableRecord
  2
_SE_FILLED
340
0
 70
     0
280
     1
281
     0
  0
BLOCK_RECORD
  5
291
330
1
100
AcDbSymbolTableRecord
100
AcDbBlockTableRecord
  2
DMBLK39
340
0
 70
     0
280
     1
281
     0
  0
BLOCK_RECORD
  5
29B
330
1
100
AcDbSymbolTableRecord
100
AcDbBlockTableRecord
  2
DMBLK40
340
0
 70
     0
280
     1
281
     0
  0
BLOCK_RECORD
  5
2A5
330
1
100
AcDbSymbolTableRecord
100
AcDbBlockTableRecord
  2
DMBLK41
340
0
 70
     0
280
     1
281
     0
  0
BLOCK_RECORD
  5
2AF
330
1
100
AcDbSymbolTableRecord
100
AcDbBlockTableRecord
  2
DMBLK42
340
0
 70
     0
280
     1
281
     0
  0
BLOCK_RECORD
  5
2B9
330
1
100
AcDbSymbolTableRecord
100
AcDbBlockTableRecord
  2
DMBLK43
340
0
 70
     0
280
     1
281
     0
  0
BLOCK_RECORD
  5
2C3
330
1
100
AcDbSymbolTableRecord
100
AcDbBlockTableRecord
  2
DMBLK44
340
0
 70
     0
280
     1
281
     0
  0
BLOCK_RECORD
  5
2CD
330
1
100
AcDbSymbolTableRecord
100
AcDbBlockTableRecord
  2
DMBLK45
340
0
 70
     0
280
     1
281
     0
  0
BLOCK_RECORD
  5
2D7
330
1
100
AcDbSymbolTableRecord
100
AcDbBlockTableRecord
  2
DMBLK46
340
0
 70
     0
280
     1
281
     0
  0
BLOCK_RECORD
  5
2E1
330
1
100
AcDbSymbolTableRecord
100
AcDbBlockTableRecord
  2
DMBLK47
340
0
 70
     0
280
     1
281
     0
  0
BLOCK_RECORD
  5
2EB
330
1
100
AcDbSymbolTableRecord
100
AcDbBlockTableRecord
  2
DMBLK48
340
0
 70
     0
280
     1
281
     0
  0
BLOCK_RECORD
  5
2F5
330
1
100
AcDbSymbolTableRecord
100
AcDbBlockTableRecord
  2
DMBLK49
340
0
 70
     0
280
     1
281
     0
  0
BLOCK_RECORD
  5
301
330
1
100
AcDbSymbolTableRecord
100
AcDbBlockTableRecord
  2
DMBLK50
340
0
 70
     0
280
     1
281
     0
  0
BLOCK_RECORD
  5
30C
330
1
100
AcDbSymbolTableRecord
100
AcDbBlockTableRecord
  2
DMBLK51
340
0
 70
     0
280
     1
281
     0
  0
BLOCK_RECORD
  5
317
330
1
100
AcDbSymbolTableRecord
100
AcDbBlockTableRecord
  2
DMBLK52
340
0
 70
     0
280
     1
281
     0
  0
BLOCK_RECORD
  5
321
330
1
100
AcDbSymbolTableRecord
100
AcDbBlockTableRecord
  2
_SE_BLANK
340
0
 70
     0
280
     1
281
     0
  0
BLOCK_RECORD
  5
325
330
1
100
AcDbSymbolTableRecord
100
AcDbBlockTableRecord
  2
DMBLK53
340
0
 70
     0
280
     1
281
     0
  0
BLOCK_RECORD
  5
32E
330
1
100
AcDbSymbolTableRecord
100
AcDbBlockTableRecord
  2
DMBLK54
340
0
 70
     0
280
     1
281
     0
  0
ENDTAB
  0
ENDSEC
  0
SECTION
  2
BLOCKS
  0
BLOCK
  5
20
330
1F
100
AcDbEntity
  8
0
100
AcDbBlockBegin
  2
*Model_Space
 70
     0
 10
0.0
 20
0.0
 30
0.0
  3
*Model_Space
  1
*Model_Space
  0
ENDBLK
  5
21
330
1F
100
AcDbEntity
  8
0
100
AcDbBlockEnd
  0
BLOCK
  5
1C
330
1B
100
AcDbEntity
 67
     1
  8
0
100
AcDbBlockBegin
  2
*Paper_Space
 70
     0
 10
0.0
 20
0.0
 30
0.0
  3
*Paper_Space
  1
*Paper_Space
  0
ENDBLK
  5
1D
330
1B
100
AcDbEntity
 67
     1
  8
0
100
AcDbBlockEnd
  0
BLOCK
  5
73
330
6F
100
AcDbEntity
  8
0
100
AcDbBlockBegin
  2
SEANNOT_GROUP
 70
     0
 10
0.0
 20
0.0
 30
0.0
  3
SEANNOT_GROUP
  1
SEANNOT_GROUP
  0
LINE
  5
72
330
6F
100
AcDbEntity
  8
Default
  6
CENTER2
 62
     7
100
AcDbLine
 10
65.4459267575
 20
41.2600605501
 30
0.0
 11
40.7876741067
 21
41.2600605501
 31
0.0
  0
ENDBLK
  5
74
330
6F
100
AcDbEntity
  8
0
100
AcDbBlockEnd
  0
BLOCK
  5
78
330
75
100
AcDbEntity
  8
0
100
AcDbBlockBegin
  2
SEANNOT_GROUP1
 70
     0
 10
0.0
 20
0.0
 30
0.0
  3
SEANNOT_GROUP1
  1
SEANNOT_GROUP1
  0
LINE
  5
77
330
75
100
AcDbEntity
  8
Default
  6
CENTER2
 62
     7
100
AcDbLine
 10
31.240359808
 20
107.5600605501
 30
0.0
 11
56.7421842601
 21
107.5600605501
 31
0.0
  0
ENDBLK
  5
79
330
75
100
AcDbEntity
  8
0
100
AcDbBlockEnd
  0
BLOCK
  5
7D
330
7A
100
AcDbEntity
  8
0
100
AcDbBlockBegin
  2
SEANNOT_GROUP2
 70
     0
 10
0.0
 20
0.0
 30
0.0
  3
SEANNOT_GROUP2
  1
SEANNOT_GROUP2
  0
LINE
  5
7C
330
7A
100
AcDbEntity
  8
Default
  6
CENTER2
 62
     7
100
AcDbLine
 10
40.788451545
 20
259.2600605501
 30
0.0
 11
63.4891383173
 21
259.2600605501
 31
0.0
  0
ENDBLK
  5
7E
330
7A
100
AcDbEntity
  8
0
100
AcDbBlockEnd
  0
BLOCK
  5
82
330
7F
100
AcDbEntity
  8
0
100
AcDbBlockBegin
  2
SEANNOT_GROUP3
 70
     0
 10
0.0
 20
0.0
 30
0.0
  3
SEANNOT_GROUP3
  1
SEANNOT_GROUP3
  0
LINE
  5
81
330
7F
100
AcDbEntity
  8
Default
  6
CENTER2
 62
     7
100
AcDbLine
 10
144.8123991372
 20
28.4256056384
 30
0.0
 11
144.8123991372
 21
272.4410581471
 31
0.0
  0
ENDBLK
  5
83
330
7F
100
AcDbEntity
  8
0
100
AcDbBlockEnd
  0
BLOCK
  5
8C
330
84
100
AcDbEntity
  8
0
100
AcDbBlockBegin
  2
SEANNOT_GROUP4
 70
     0
 10
0.0
 20
0.0
 30
0.0
  3
SEANNOT_GROUP4
  1
SEANNOT_GROUP4
  0
LINE
  5
86
330
84
100
AcDbEntity
  8
Default
  6
CENTER2
 62
     7
100
AcDbLine
 10
136.8123991893
 20
41.2600605501
 30
0.0
 11
124.812399085
 21
41.2600605501
 31
0.0
  0
LINE
  5
87
330
84
100
AcDbEntity
  8
Default
  6
CENTER2
 62
     7
100
AcDbLine
 10
130.8123991372
 20
47.2600606023
 30
0.0
 11
130.8123991372
 21
35.260060498
 31
0.0
  0
LINE
  5
88
330
84
100
AcDbEntity
  8
Default
  6
CENTER2
 62
     7
100
AcDbLine
 10
138.3123994352
 20
41.2600605501
 30
0.0
 11
136.3123991372
 21
41.2600605501
 31
0.0
  0
LINE
  5
89
330
84
100
AcDbEntity
  8
Default
  6
CENTER2
 62
     7
100
AcDbLine
 10
130.8123991372
 20
48.7600608482
 30
0.0
 11
130.8123991372
 21
46.7600605501
 31
0.0
  0
LINE
  5
8A
330
84
100
AcDbEntity
  8
Default
  6
CENTER2
 62
     7
100
AcDbLine
 10
123.3123988392
 20
41.2600605501
 30
0.0
 11
125.3123991372
 21
41.2600605501
 31
0.0
  0
LINE
  5
8B
330
84
100
AcDbEntity
  8
Default
  6
CENTER2
 62
     7
100
AcDbLine
 10
130.8123991372
 20
33.7600602521
 30
0.0
 11
130.8123991372
 21
35.7600605501
 31
0.0
  0
ENDBLK
  5
8D
330
84
100
AcDbEntity
  8
0
100
AcDbBlockEnd
  0
BLOCK
  5
96
330
8E
100
AcDbEntity
  8
0
100
AcDbBlockBegin
  2
SEANNOT_GROUP5
 70
     0
 10
0.0
 20
0.0
 30
0.0
  3
SEANNOT_GROUP5
  1
SEANNOT_GROUP5
  0
LINE
  5
90
330
8E
100
AcDbEntity
  8
Default
  6
CENTER2
 62
     7
100
AcDbLine
 10
164.8123991893
 20
41.2600605501
 30
0.0
 11
152.812399085
 21
41.2600605501
 31
0.0
  0
LINE
  5
91
330
8E
100
AcDbEntity
  8
Default
  6
CENTER2
 62
     7
100
AcDbLine
 10
158.8123991372
 20
47.2600606023
 30
0.0
 11
158.8123991372
 21
35.260060498
 31
0.0
  0
LINE
  5
92
330
8E
100
AcDbEntity
  8
Default
  6
CENTER2
 62
     7
100
AcDbLine
 10
166.3123994352
 20
41.2600605501
 30
0.0
 11
164.3123991372
 21
41.2600605501
 31
0.0
  0
LINE
  5
93
330
8E
100
AcDbEntity
  8
Default
  6
CENTER2
 62
     7
100
AcDbLine
 10
158.8123991372
 20
48.7600608482
 30
0.0
 11
158.8123991372
 21
46.7600605501
 31
0.0
  0
LINE
  5
94
330
8E
100
AcDbEntity
  8
Default
  6
CENTER2
 62
     7
100
AcDbLine
 10
151.3123988392
 20
41.2600605501
 30
0.0
 11
153.3123991372
 21
41.2600605501
 31
0.0
  0
LINE
  5
95
330
8E
100
AcDbEntity
  8
Default
  6
CENTER2
 62
     7
100
AcDbLine
 10
158.8123991372
 20
33.7600602521
 30
0.0
 11
158.8123991372
 21
35.7600605501
 31
0.0
  0
ENDBLK
  5
97
330
8E
100
AcDbEntity
  8
0
100
AcDbBlockEnd
  0
BLOCK
  5
A0
330
98
100
AcDbEntity
  8
0
100
AcDbBlockBegin
  2
SEANNOT_GROUP6
 70
     0
 10
0.0
 20
0.0
 30
0.0
  3
SEANNOT_GROUP6
  1
SEANNOT_GROUP6
  0
LINE
  5
9A
330
98
100
AcDbEntity
  8
Default
  6
CENTER2
 62
     7
100
AcDbLine
 10
164.8123991893
 20
259.2600605501
 30
0.0
 11
152.812399085
 21
259.2600605501
 31
0.0
  0
LINE
  5
9B
330
98
100
AcDbEntity
  8
Default
  6
CENTER2
 62
     7
100
AcDbLine
 10
158.8123991372
 20
265.2600606023
 30
0.0
 11
158.8123991372
 21
253.260060498
 31
0.0
  0
LINE
  5
9C
330
98
100
AcDbEntity
  8
Default
  6
CENTER2
 62
     7
100
AcDbLine
 10
166.3123994352
 20
259.2600605501
 30
0.0
 11
164.3123991372
 21
259.2600605501
 31
0.0
  0
LINE
  5
9D
330
98
100
AcDbEntity
  8
Default
  6
CENTER2
 62
     7
100
AcDbLine
 10
158.8123991372
 20
266.7600608482
 30
0.0
 11
158.8123991372
 21
264.7600605501
 31
0.0
  0
LINE
  5
9E
330
98
100
AcDbEntity
  8
Default
  6
CENTER2
 62
     7
100
AcDbLine
 10
151.3123988392
 20
259.2600605501
 30
0.0
 11
153.3123991372
 21
259.2600605501
 31
0.0
  0
LINE
  5
9F
330
98
100
AcDbEntity
  8
Default
  6
CENTER2
 62
     7
100
AcDbLine
 10
158.8123991372
 20
251.7600602521
 30
0.0
 11
158.8123991372
 21
253.7600605501
 31
0.0
  0
ENDBLK
  5
A1
330
98
100
AcDbEntity
  8
0
100
AcDbBlockEnd
  0
BLOCK
  5
AA
330
A2
100
AcDbEntity
  8
0
100
AcDbBlockBegin
  2
SEANNOT_GROUP7
 70
     0
 10
0.0
 20
0.0
 30
0.0
  3
SEANNOT_GROUP7
  1
SEANNOT_GROUP7
  0
LINE
  5
A4
330
A2
100
AcDbEntity
  8
Default
  6
CENTER2
 62
     7
100
AcDbLine
 10
136.8123991893
 20
259.2600605501
 30
0.0
 11
124.812399085
 21
259.2600605501
 31
0.0
  0
LINE
  5
A5
330
A2
100
AcDbEntity
  8
Default
  6
CENTER2
 62
     7
100
AcDbLine
 10
130.8123991372
 20
265.2600606023
 30
0.0
 11
130.8123991372
 21
253.260060498
 31
0.0
  0
LINE
  5
A6
330
A2
100
AcDbEntity
  8
Default
  6
CENTER2
 62
     7
100
AcDbLine
 10
138.3123994352
 20
259.2600605501
 30
0.0
 11
136.3123991372
 21
259.2600605501
 31
0.0
  0
LINE
  5
A7
330
A2
100
AcDbEntity
  8
Default
  6
CENTER2
 62
     7
100
AcDbLine
 10
130.8123991372
 20
266.7600608482
 30
0.0
 11
130.8123991372
 21
264.7600605501
 31
0.0
  0
LINE
  5
A8
330
A2
100
AcDbEntity
  8
Default
  6
CENTER2
 62
     7
100
AcDbLine
 10
123.3123988392
 20
259.2600605501
 30
0.0
 11
125.3123991372
 21
259.2600605501
 31
0.0
  0
LINE
  5
A9
330
A2
100
AcDbEntity
  8
Default
  6
CENTER2
 62
     7
100
AcDbLine
 10
130.8123991372
 20
251.7600602521
 30
0.0
 11
130.8123991372
 21
253.7600605501
 31
0.0
  0
ENDBLK
  5
AB
330
A2
100
AcDbEntity
  8
0
100
AcDbBlockEnd
  0
BLOCK
  5
B4
330
AC
100
AcDbEntity
  8
0
100
AcDbBlockBegin
  2
SEANNOT_GROUP8
 70
     0
 10
0.0
 20
0.0
 30
0.0
  3
SEANNOT_GROUP8
  1
SEANNOT_GROUP8
  0
LINE
  5
AE
330
AC
100
AcDbEntity
  8
Default
  6
CENTER2
 62
     7
100
AcDbLine
 10
150.8264053813
 20
163.2600605501
 30
0.0
 11
138.826405277
 21
163.2600605501
 31
0.0
  0
LINE
  5
AF
330
AC
100
AcDbEntity
  8
Default
  6
CENTER2
 62
     7
100
AcDbLine
 10
144.8264053291
 20
169.2600606023
 30
0.0
 11
144.8264053291
 21
157.260060498
 31
0.0
  0
LINE
  5
B0
330
AC
100
AcDbEntity
  8
Default
  6
CENTER2
 62
     7
100
AcDbLine
 10
152.3264056272
 20
163.2600605501
 30
0.0
 11
150.3264053291
 21
163.2600605501
 31
0.0
  0
LINE
  5
B1
330
AC
100
AcDbEntity
  8
Default
  6
CENTER2
 62
     7
100
AcDbLine
 10
144.8264053291
 20
170.7600608482
 30
0.0
 11
144.8264053291
 21
168.7600605501
 31
0.0
  0
LINE
  5
B2
330
AC
100
AcDbEntity
  8
Default
  6
CENTER2
 62
     7
100
AcDbLine
 10
137.3264050311
 20
163.2600605501
 30
0.0
 11
139.3264053291
 21
163.2600605501
 31
0.0
  0
LINE
  5
B3
330
AC
100
AcDbEntity
  8
Default
  6
CENTER2
 62
     7
100
AcDbLine
 10
144.8264053291
 20
155.7600602521
 30
0.0
 11
144.8264053291
 21
157.7600605501
 31
0.0
  0
ENDBLK
  5
B5
330
AC
100
AcDbEntity
  8
0
100
AcDbBlockEnd
  0
BLOCK
  5
BB
330
B8
100
AcDbEntity
  8
0
100
AcDbBlockBegin
  2
SEANNOT_GROUP9
 70
     0
 10
0.0
 20
0.0
 30
0.0
  3
SEANNOT_GROUP9
  1
SEANNOT_GROUP9
  0
LINE
  5
BA
330
B8
100
AcDbEntity
  8
Default
  6
CENTER2
 62
     7
100
AcDbLine
 10
57.5850582059
 20
185.2600605501
 30
0.0
 11
40.6589921928
 21
185.2600605501
 31
0.0
  0
ENDBLK
  5
BC
330
B8
100
AcDbEntity
  8
0
100
AcDbBlockEnd
  0
BLOCK
  5
C0
330
BD
100
AcDbEntity
  8
0
100
AcDbBlockBegin
  2
SEANNOT_GROUP10
 70
     0
 10
0.0
 20
0.0
 30
0.0
  3
SEANNOT_GROUP10
  1
SEANNOT_GROUP10
  0
LINE
  5
BF
330
BD
100
AcDbEntity
  8
Default
  6
CENTER2
 62
     7
100
AcDbLine
 10
41.2279355882
 20
163.2600605501
 30
0.0
 11
64.4123789507
 21
163.2600605501
 31
0.0
  0
ENDBLK
  5
C1
330
BD
100
AcDbEntity
  8
0
100
AcDbBlockEnd
  0
BLOCK
  5
C5
330
C2
100
AcDbEntity
  8
0
100
AcDbBlockBegin
  2
SEANNOT_GROUP11
 70
     0
 10
0.0
 20
0.0
 30
0.0
  3
SEANNOT_GROUP11
  1
SEANNOT_GROUP11
  0
LINE
  5
C4
330
C2
100
AcDbEntity
  8
Default
  6
CENTER2
 62
     7
100
AcDbLine
 10
40.2322846462
 20
134.2510189961
 30
0.0
 11
56.7316431128
 21
134.2510189961
 31
0.0
  0
ENDBLK
  5
C6
330
C2
100
AcDbEntity
  8
0
100
AcDbBlockEnd
  0
BLOCK
  5
CA
330
C7
100
AcDbEntity
  8
0
100
AcDbBlockBegin
  2
SEANNOT_GROUP12
 70
     0
 10
0.0
 20
0.0
 30
0.0
  3
SEANNOT_GROUP12
  1
SEANNOT_GROUP12
  0
LINE
  5
C9
330
C7
100
AcDbEntity
  8
Default
  6
CENTER2
 62
     7
100
AcDbLine
 10
40.6589921928
 20
71.2510189961
 30
0.0
 11
57.1583506594
 21
71.2510189961
 31
0.0
  0
ENDBLK
  5
CB
330
C7
100
AcDbEntity
  8
0
100
AcDbBlockEnd
  0
BLOCK
  5
FC
330
CC
100
AcDbEntity
  8
0
100
AcDbBlockBegin
  2
SE
 70
     0
 10
0.0
 20
0.0
 30
0.0
  3
SE
  1
SE
  0
LINE
  5
CF
330
CC
100
AcDbEntity
  8
MEGA_002041
  6
Continuous
 62
     7
100
AcDbLine
 10
125.6314769996
 20
33.2600605501
 30
0.0
 11
163.9933212748
 21
33.2600605501
 31
0.0
  0
ELLIPSE
  5
D0
330
CC
100
AcDbEntity
  8
MEGA_002041
  6
Continuous
 62
     7
100
AcDbEllipse
 10
126.0049324546
 20
36.4525938676
 30
0.0
 11
2.385847644525138
 21
2.385847644525139
 31
0.0
210
0.0
220
0.0
230
1.0
 40
0.8891264907
 41
2.414817599270108
 42
3.868367707909481
  0
LINE
  5
D1
330
CC
100
AcDbEntity
  8
MEGA_002041
  6
Continuous
 62
     7
100
AcDbLine
 10
122.8123991372
 20
264.4409826878
 30
0.0
 11
122.8123991372
 21
36.0791384125
 31
0.0
  0
ELLIPSE
  5
D2
330
CC
100
AcDbEntity
  8
MEGA_002041
  6
Continuous
 62
     7
100
AcDbEllipse
 10
126.0049324546
 20
264.0675272327
 30
0.0
 11
2.385847644525138
 21
-2.385847644525139
 31
0.0
210
0.0
220
0.0
230
1.0
 40
0.8891264907
 41
2.4148175992701
 42
3.868367707909482
  0
LINE
  5
D3
330
CC
100
AcDbEntity
  8
MEGA_002041
  6
Continuous
 62
     7
100
AcDbLine
 10
163.9933212748
 20
267.2600605501
 30
0.0
 11
125.6314769996
 21
267.2600605501
 31
0.0
  0
ELLIPSE
  5
D4
330
CC
100
AcDbEntity
  8
MEGA_002041
  6
Continuous
 62
     7
100
AcDbEllipse
 10
163.6198658198
 20
264.0675272327
 30
0.0
 11
-2.385847644525139
 21
-2.385847644525138
 31
0.0
210
0.0
220
0.0
230
1.0
 40
0.8891264907
 41
2.414817599270087
 42
3.868367707909518
  0
LINE
  5
D5
330
CC
100
AcDbEntity
  8
MEGA_002041
  6
Continuous
 62
     7
100
AcDbLine
 10
166.8123991372
 20
36.0791384125
 30
0.0
 11
166.8123991372
 21
264.4409826878
 31
0.0
  0
ELLIPSE
  5
D6
330
CC
100
AcDbEntity
  8
MEGA_002041
  6
Continuous
 62
     7
100
AcDbEllipse
 10
163.6198658198
 20
36.4525938676
 30
0.0
 11
-2.385847644525139
 21
2.385847644525138
 31
0.0
210
0.0
220
0.0
230
1.0
 40
0.8891264907
 41
2.414817599270092
 42
3.868367707909477
  0
ARC
  5
D7
330
CC
100
AcDbEntity
  8
MEGA_002041
  6
Continuous
 62
     7
100
AcDbCircle
 10
132.8123991372
 20
119.0100605501
 30
0.0
 40
2.000000000000002
100
AcDbArc
 50
90.0
 51
180.0
  0
LINE
  5
D8
330
CC
100
AcDbEntity
  8
MEGA_002041
  6
Continuous
 62
     7
100
AcDbLine
 10
156.8123991372
 20
121.0100605501
 30
0.0
 11
132.8123991372
 21
121.0100605501
 31
0.0
  0
ARC
  5
D9
330
CC
100
AcDbEntity
  8
MEGA_002041
  6
Continuous
 62
     7
100
AcDbCircle
 10
156.8123991372
 20
119.0100605501
 30
0.0
 40
2.0
100
AcDbArc
 50
0.0
 51
90.0
  0
LINE
  5
DA
330
CC
100
AcDbEntity
  8
MEGA_002041
  6
Continuous
 62
     7
100
AcDbLine
 10
158.8123991372
 20
79.0100605501
 30
0.0
 11
158.8123991372
 21
119.0100605501
 31
0.0
  0
ARC
  5
DB
330
CC
100
AcDbEntity
  8
MEGA_002041
  6
Continuous
 62
     7
100
AcDbCircle
 10
156.8123991372
 20
79.0100605501
 30
0.0
 40
2.000000000000002
100
AcDbArc
 50
270.0
 51
0.0
  0
LINE
  5
DC
330
CC
100
AcDbEntity
  8
MEGA_002041
  6
Continuous
 62
     7
100
AcDbLine
 10
132.8123991372
 20
77.0100605501
 30
0.0
 11
156.8123991372
 21
77.0100605501
 31
0.0
  0
ARC
  5
DD
330
CC
100
AcDbEntity
  8
MEGA_002041
  6
Continuous
 62
     7
100
AcDbCircle
 10
132.8123991372
 20
79.0100605501
 30
0.0
 40
2.0
100
AcDbArc
 50
180.0
 51
270.0
  0
LINE
  5
DE
330
CC
100
AcDbEntity
  8
MEGA_002041
  6
Continuous
 62
     7
100
AcDbLine
 10
130.8123991372
 20
119.0100605501
 30
0.0
 11
130.8123991372
 21
79.0100605501
 31
0.0
  0
LINE
  5
E0
330
CC
100
AcDbEntity
  8
MEGA_002032
  6
Continuous
 62
     7
100
AcDbLine
 10
150.1123991372
 20
100.355062367
 30
0.0
 11
150.1123991372
 21
100.5351050343
 31
0.0
  0
LINE
  5
E1
330
CC
100
AcDbEntity
  8
MEGA_002032
  6
Continuous
 62
     7
100
AcDbLine
 10
139.5123991372
 20
100.5351050343
 30
0.0
 11
139.5123991372
 21
100.3166521349
 31
0.0
  0
CIRCLE
  5
E3
330
CC
100
AcDbEntity
  8
MEGA_000863
  6
Continuous
 62
     7
100
AcDbCircle
 10
144.8123991372
 20
185.2600605501
 30
0.0
 40
12.25
  0
CIRCLE
  5
E4
330
CC
100
AcDbEntity
  8
MEGA_000863
  6
Continuous
 62
     7
100
AcDbCircle
 10
144.8123991372
 20
185.2600605501
 30
0.0
 40
8.200000000000003
  0
ELLIPSE
  5
E6
330
CC
100
AcDbEntity
  8
MEGA_002006
  6
Continuous
 62
     7
100
AcDbEllipse
 10
152.6478664779
 20
114.8455278909
 30
0.0
 11
-1.60549057923116
 21
-1.605490579231158
 31
0.0
210
0.0
220
0.0
230
1.0
 40
0.8808607043
 41
2.419452941931396
 42
3.863732365248199
  0
LINE
  5
E7
330
CC
100
AcDbEntity
  8
MEGA_002006
  6
Continuous
 62
     7
100
AcDbLine
 10
136.6569662984
 20
116.9850605501
 30
0.0
 11
152.917831976
 21
116.9850605501
 31
0.0
  0
ELLIPSE
  5
E8
330
CC
100
AcDbEntity
  8
MEGA_002006
  6
Continuous
 62
     7
100
AcDbEllipse
 10
136.9269317964
 20
114.8455278909
 30
0.0
 11
1.60549057923116
 21
-1.605490579231158
 31
0.0
210
0.0
220
0.0
230
1.0
 40
0.8808607043
 41
2.419452941931415
 42
3.86373236524815
  0
LINE
  5
E9
330
CC
100
AcDbEntity
  8
MEGA_002006
  6
Continuous
 62
     7
100
AcDbLine
 10
134.7873991372
 20
82.8546277113
 30
0.0
 11
134.7873991372
 21
115.115493389
 31
0.0
  0
LINE
  5
EA
330
CC
100
AcDbEntity
  8
MEGA_002006
  6
Continuous
 62
     7
100
AcDbLine
 10
136.6569662984
 20
80.9850605501
 30
0.0
 11
152.917831976
 21
80.9850605501
 31
0.0
  0
ELLIPSE
  5
EB
330
CC
100
AcDbEntity
  8
MEGA_002006
  6
Continuous
 62
     7
100
AcDbEllipse
 10
136.9269317964
 20
83.1245932094
 30
0.0
 11
1.60549057923116
 21
1.605490579231158
 31
0.0
210
0.0
220
0.0
230
1.0
 40
0.8808607043
 41
2.419452941931436
 42
3.863732365248171
  0
LINE
  5
EC
330
CC
100
AcDbEntity
  8
MEGA_002006
  6
Continuous
 62
     7
100
AcDbLine
 10
154.7873991372
 20
82.8546277113
 30
0.0
 11
154.7873991372
 21
115.115493389
 31
0.0
  0
ELLIPSE
  5
ED
330
CC
100
AcDbEntity
  8
MEGA_002006
  6
Continuous
 62
     7
100
AcDbEllipse
 10
152.6478664779
 20
83.1245932094
 30
0.0
 11
-1.60549057923116
 21
1.605490579231158
 31
0.0
210
0.0
220
0.0
230
1.0
 40
0.8808607043
 41
2.419452941931401
 42
3.86373236524817
  0
ARC
  5
EE
330
CC
100
AcDbEntity
  8
MEGA_002006
  6
Continuous
 62
     7
100
AcDbCircle
 10
144.7873991372
 20
87.4850605501
 30
0.0
 40
5.15
100
AcDbArc
 50
180.0
 51
0.0
  0
LINE
  5
EF
330
CC
100
AcDbEntity
  8
MEGA_002006
  6
Continuous
 62
     7
100
AcDbLine
 10
139.6373991372
 20
87.4850605501
 30
0.0
 11
139.6373991372
 21
100.2231064716
 31
0.0
  0
ARC
  5
F0
330
CC
100
AcDbEntity
  8
MEGA_002006
  6
Continuous
 62
     7
100
AcDbCircle
 10
144.7873991372
 20
107.2350605501
 30
0.0
 40
8.699999999999996
100
AcDbArc
 50
306.2957945552
 51
233.7042054448
  0
LINE
  5
F1
330
CC
100
AcDbEntity
  8
MEGA_002006
  6
Continuous
 62
     7
100
AcDbLine
 10
149.9373991372
 20
100.2231064716
 30
0.0
 11
149.9373991372
 21
87.4850605501
 31
0.0
  0
CIRCLE
  5
F4
330
CC
100
AcDbEntity
  8
MEGA_000572
  6
HIDDEN2
 62
     7
100
AcDbCircle
 10
158.8123991372
 20
41.2600605501
 30
0.0
 40
3.749999999999999
  0
CIRCLE
  5
F5
330
CC
100
AcDbEntity
  8
MEGA_000572
  6
HIDDEN2
 62
     7
100
AcDbCircle
 10
130.8123991372
 20
41.2600605501
 30
0.0
 40
3.749999999999999
  0
CIRCLE
  5
F6
330
CC
100
AcDbEntity
  8
MEGA_000572
  6
HIDDEN2
 62
     7
100
AcDbCircle
 10
144.8264053291
 20
163.2600605501
 30
0.0
 40
3.749999999999999
  0
CIRCLE
  5
F7
330
CC
100
AcDbEntity
  8
MEGA_000572
  6
HIDDEN2
 62
     7
100
AcDbCircle
 10
158.8123991372
 20
259.2600605501
 30
0.0
 40
3.749999999999999
  0
CIRCLE
  5
F8
330
CC
100
AcDbEntity
  8
MEGA_000572
  6
HIDDEN2
 62
     7
100
AcDbCircle
 10
130.8123991372
 20
259.2600605501
 30
0.0
 40
3.749999999999999
  0
LINE
  5
FA
330
CC
100
AcDbEntity
  8
DV1_Standard
  6
CENTER2
 62
     7
100
AcDbLine
 10
117.3111339869
 20
185.2600605501
 30
0.0
 11
174.2503731009
 21
185.2600605501
 31
0.0
  0
LINE
  5
FB
330
CC
100
AcDbEntity
  8
DV1_Standard
  6
CENTER2
 62
     7
100
AcDbLine
 10
115.9707598809
 20
107.2350605501
 30
0.0
 11
175.327820599
 21
107.2350605501
 31
0.0
  0
ENDBLK
  5
FD
330
CC
100
AcDbEntity
  8
0
100
AcDbBlockEnd
  0
BLOCK
  5
11A
330
FE
100
AcDbEntity
  8
0
100
AcDbBlockBegin
  2
SE1
 70
     0
 10
0.0
 20
0.0
 30
0.0
  3
SE1
  1
SE1
  0
INSERT
  5
101
330
FE
100
AcDbEntity
  8
0
100
AcDbBlockReference
  2
SE2
 10
0.0
 20
0.0
 30
0.0
  0
INSERT
  5
107
330
FE
100
AcDbEntity
  8
0
100
AcDbBlockReference
  2
SE3
 10
0.0
 20
0.0
 30
0.0
  0
INSERT
  5
10C
330
FE
100
AcDbEntity
  8
0
100
AcDbBlockReference
  2
SEANNOT_GROUP13
 10
0.0
 20
0.0
 30
0.0
  0
INSERT
  5
112
330
FE
100
AcDbEntity
  8
0
100
AcDbBlockReference
  2
SEANNOT_GROUP14
 10
0.0
 20
0.0
 30
0.0
  0
LINE
  5
117
330
FE
100
AcDbEntity
  8
0
  6
CENTER2
 62
     7
100
AcDbLine
 10
144.8123991372
 20
271.9263865773
 30
0.0
 11
144.8123991372
 21
276.4263865773
 31
0.0
  0
LINE
  5
118
330
FE
100
AcDbEntity
  8
0
  6
CENTER2
 62
     7
100
AcDbLine
 10
144.8123991372
 20
25.5643711146
 30
0.0
 11
144.8123991372
 21
21.0643711146
 31
0.0
  0
LWPOLYLINE
  5
119
330
FE
100
AcDbEntity
  8
0
  6
CENTER2
 62
     7
100
AcDbPolyline
 90
        2
 70
     0
 43
0.0001
 10
144.8123991372
 20
271.9263865773
 10
144.8123991372
 20
25.5643711146
  0
ENDBLK
  5
11B
330
FE
100
AcDbEntity
  8
0
100
AcDbBlockEnd
  0
BLOCK
  5
104
330
100
100
AcDbEntity
  8
0
100
AcDbBlockBegin
  2
SE2
 70
     0
 10
0.0
 20
0.0
 30
0.0
  3
SE2
  1
SE2
  0
TEXT
  5
103
330
100
100
AcDbEntity
  8
0
  6
Continuous
 62
     7
100
AcDbText
 10
167.1760355008
 20
268.9263865773
 30
0.0
 40
6.0
  1
A
  7
SEACAD_Solid_Edge_ISO
 11
167.1760355008
 21
274.9263865773
 31
0.0
100
AcDbText
 73
     3
  0
ENDBLK
  5
105
330
100
100
AcDbEntity
  8
0
100
AcDbBlockEnd
  0
BLOCK
  5
109
330
106
100
AcDbEntity
  8
0
100
AcDbBlockBegin
  2
SE3
 70
     0
 10
0.0
 20
0.0
 30
0.0
  3
SE3
  1
SE3
  0
TEXT
  5
108
330
106
100
AcDbEntity
  8
0
  6
Continuous
 62
     7
100
AcDbText
 10
167.1760355008
 20
22.5643711146
 30
0.0
 40
6.0
  1
A
  7
SEACAD_Solid_Edge_ISO
 11
167.1760355008
 21
28.5643711146
 31
0.0
100
AcDbText
 73
     3
  0
ENDBLK
  5
10A
330
106
100
AcDbEntity
  8
0
100
AcDbBlockEnd
  0
BLOCK
  5
10F
330
10B
100
AcDbEntity
  8
0
100
AcDbBlockBegin
  2
SEANNOT_GROUP13
 70
     0
 10
0.0
 20
0.0
 30
0.0
  3
SEANNOT_GROUP13
  1
SEANNOT_GROUP13
  0
LWPOLYLINE
  5
10D
330
10B
100
AcDbEntity
  8
0
  6
Continuous
 62
     7
100
AcDbPolyline
 90
        2
 70
     0
 43
0.0
 10
162.8123991372
 20
271.9263865773
 10
144.8123991372
 20
271.9263865773
  0
HATCH
  5
10E
330
10B
100
AcDbEntity
  8
0
  6
Continuous
 62
     7
100
AcDbHatch
 10
0.0
 20
0.0
 30
0.0
210
0.0
220
0.0
230
1.0
  2
SOLID
 70
     1
 71
     0
 91
        1
 92
        1
 93
        3
 72
     1
 10
150.8123991893478
 20
272.9263865860324
 11
144.8123991371938
 21
271.9263865773401
 72
     1
 10
144.8123991371938
 20
271.9263865773401
 11
150.8123991893478
 21
270.9263865686478
 72
     1
 10
150.8123991893478
 20
270.9263865686478
 11
150.8123991893478
 21
272.9263865860324
 97
        0
 75
     0
 76
     1
 98
        0
  0
ENDBLK
  5
110
330
10B
100
AcDbEntity
  8
0
100
AcDbBlockEnd
  0
BLOCK
  5
115
330
111
100
AcDbEntity
  8
0
100
AcDbBlockBegin
  2
SEANNOT_GROUP14
 70
     0
 10
0.0
 20
0.0
 30
0.0
  3
SEANNOT_GROUP14
  1
SEANNOT_GROUP14
  0
LWPOLYLINE
  5
113
330
111
100
AcDbEntity
  8
0
  6
Continuous
 62
     7
100
AcDbPolyline
 90
        2
 70
     0
 43
0.0
 10
162.8123991372
 20
25.5643711146
 10
144.8123991372
 20
25.5643711146
  0
HATCH
  5
114
330
111
100
AcDbEntity
  8
0
  6
Continuous
 62
     7
100
AcDbHatch
 10
0.0
 20
0.0
 30
0.0
210
0.0
220
0.0
230
1.0
  2
SOLID
 70
     1
 71
     0
 91
        1
 92
        1
 93
        3
 72
     1
 10
150.8123991893478
 20
26.56437112331308
 11
144.8123991371938
 21
25.56437111462073
 72
     1
 10
144.8123991371938
 20
25.56437111462073
 11
150.8123991893478
 21
24.56437110592839
 72
     1
 10
150.8123991893478
 20
24.56437110592839
 11
150.8123991893478
 21
26.56437112331307
 97
        0
 75
     0
 76
     1
 98
        0
  0
ENDBLK
  5
116
330
111
100
AcDbEntity
  8
0
100
AcDbBlockEnd
  0
BLOCK
  5
27B
330
11D
100
AcDbEntity
  8
0
100
AcDbBlockBegin
  2
SE4
 70
     0
 10
0.0
 20
0.0
 30
0.0
  3
SE4
  1
SE4
  0
LINE
  5
120
330
11D
100
AcDbEntity
  8
DV2_Standard
  6
Continuous
 62
     7
100
AcDbLine
 10
48.6229692207
 20
167.7835800592
 30
0.0
 11
46.0299546252
 21
163.2896107561
 31
0.0
  0
LINE
  5
121
330
11D
100
AcDbEntity
  8
DV2_Standard
  6
Continuous
 62
     7
100
AcDbLine
 10
46.0299546252
 20
163.2896107561
 30
0.0
 11
48.7290940787
 21
158.5527265484
 31
0.0
  0
LINE
  5
122
330
11D
100
AcDbEntity
  8
DV2_Standard
  6
Continuous
 62
     7
100
AcDbLine
 10
53.0077091502
 20
167.0100343936
 30
0.0
 11
50.5113014954
 21
167.0100343936
 31
0.0
  0
LINE
  5
123
330
11D
100
AcDbEntity
  8
DV2_Standard
  6
Continuous
 62
     7
100
AcDbLine
 10
50.5113014954
 20
167.0100343936
 30
0.0
 11
50.5113014954
 21
167.7835800592
 31
0.0
  0
LINE
  5
124
330
11D
100
AcDbEntity
  8
DV2_Standard
  6
Continuous
 62
     7
100
AcDbLine
 10
50.5113014954
 20
167.7835800592
 30
0.0
 11
48.6229692207
 21
167.7835800592
 31
0.0
  0
LINE
  5
125
330
11D
100
AcDbEntity
  8
DV2_Standard
  6
Continuous
 62
     7
100
AcDbLine
 10
48.7290940787
 20
158.5527265484
 30
0.0
 11
50.5113014954
 21
158.5527265484
 31
0.0
  0
LINE
  5
126
330
11D
100
AcDbEntity
  8
DV2_Standard
  6
Continuous
 62
     7
100
AcDbLine
 10
50.5113014954
 20
158.5527265484
 30
0.0
 11
50.5113014954
 21
159.5100867067
 31
0.0
  0
LINE
  5
127
330
11D
100
AcDbEntity
  8
DV2_Standard
  6
Continuous
 62
     7
100
AcDbLine
 10
50.5113014954
 20
159.5100867067
 30
0.0
 11
53.0077091502
 21
159.5100867067
 31
0.0
  0
HATCH
  5
128
330
11D
100
AcDbEntity
  8
DV2_Standard
  6
Continuous
 62
     7
100
AcDbHatch
 10
0.0
 20
0.0
 30
0.0
210
0.0
220
0.0
230
1.0
  2
LINE
 70
     0
 71
     0
 91
        1
 92
        1
 93
        5
 72
     1
 10
53.00770915022977
 20
174.1919304370651
 11
53.36004510647272
 21
174.2103955820934
 72
     2
 10
53.30770915022978
 20
175.2090251168479
 40
0.9999999999999987
 50
272.9999999999975
 51
360.0
 73
     1
 72
     1
 10
54.30770915022978
 20
175.2090251168479
 11
54.30770915022978
 21
176.1600605501329
 72
     1
 10
54.30770915022978
 20
176.160060550133
 11
53.00770915022922
 21
176.1640508528776
 72
     1
 10
53.00770915022922
 20
176.1640508528777
 11
53.00770915022977
 21
174.1919304370651
 97
        0
 75
     0
 76
     1
 52
45.0
 41
1.0
 77
     0
 78
     1
 53
45.0
 43
0.0
 44
0.0
 45
-2.245064030267288
 46
2.245064030267288
 79
     0
 98
        0
  0
LINE
  5
129
330
11D
100
AcDbEntity
  8
DV2_Standard
  6
Continuous
 62
     7
100
AcDbLine
 10
45.8077091502
 20
135.4199954474
 30
0.0
 11
51.3077091502
 21
135.4199954474
 31
0.0
  0
LINE
  5
12A
330
11D
100
AcDbEntity
  8
DV2_Standard
  6
Continuous
 62
     7
100
AcDbLine
 10
45.8077091502
 20
133.0820425449
 30
0.0
 11
51.3077091502
 21
133.0820425449
 31
0.0
  0
LINE
  5
12B
330
11D
100
AcDbEntity
  8
DV2_Standard
  6
Continuous
 62
     7
100
AcDbLine
 10
51.3077091502
 20
73.3650605501
 30
0.0
 11
47.093482908
 21
73.3650605501
 31
0.0
  0
LINE
  5
12C
330
11D
100
AcDbEntity
  8
DV2_Standard
  6
Continuous
 62
     7
100
AcDbLine
 10
47.093482908
 20
73.3650605501
 30
0.0
 11
47.093482908
 21
69.0837435375
 31
0.0
  0
LINE
  5
12D
330
11D
100
AcDbEntity
  8
DV2_Standard
  6
Continuous
 62
     7
100
AcDbLine
 10
47.093482908
 20
69.0837435375
 30
0.0
 11
51.3077091502
 21
69.0837435375
 31
0.0
  0
LINE
  5
12E
330
11D
100
AcDbEntity
  8
DV2_Standard
  6
Continuous
 62
     7
100
AcDbLine
 10
45.8077091502
 20
72.4199954474
 30
0.0
 11
51.3077091502
 21
72.4199954474
 31
0.0
  0
LINE
  5
12F
330
11D
100
AcDbEntity
  8
DV2_Standard
  6
Continuous
 62
     7
100
AcDbLine
 10
45.8077091502
 20
70.0820425449
 30
0.0
 11
51.3077091502
 21
70.0820425449
 31
0.0
  0
HATCH
  5
130
330
11D
100
AcDbEntity
  8
DV2_Standard
  6
Continuous
 62
     7
100
AcDbHatch
 10
0.0
 20
0.0
 30
0.0
210
0.0
220
0.0
230
1.0
  2
LINE
 70
     0
 71
     0
 91
        1
 92
        1
 93
       42
 72
     1
 10
49.80770915022977
 20
156.9600605501331
 11
53.00770915022977
 21
156.9600605501331
 72
     1
 10
53.00770915022977
 20
156.9600605501331
 11
53.00770915022977
 21
159.5100867066794
 72
     1
 10
53.00770915022977
 20
159.5100867066794
 11
50.51130149538461
 21
159.5100867066794
 72
     1
 10
50.51130149538461
 20
159.5100867066794
 11
50.51130149538461
 21
158.5527265483748
 72
     1
 10
50.51130149538461
 20
158.5527265483748
 11
48.72909407868474
 21
158.5527265483748
 72
     4
 94
        3
 73
     0
 74
     0
 95
       53
 96
       49
 40
0.0
 40
0.0
 40
0.0
 40
0.0
 40
0.0008492743989598
 40
0.0008492743989598
 40
0.0008492743989598
 40
0.0031682032363195
 40
0.0031682032363195
 40
0.0031682032363195
 40
0.0043146472173536
 40
0.0043146472173536
 40
0.0043146472173536
 40
0.0048814481957572
 40
0.0048814481957572
 40
0.0048814481957572
 40
0.0051617067121066
 40
0.0051617067121066
 40
0.0051617067121066
 40
0.0053003483362164
 40
0.0053003483362164
 40
0.0053003483362164
 40
0.005369067041341
 40
0.005369067041341
 40
0.005369067041341
 40
0.0054034021464948
 40
0.0054034021464948
 40
0.0054034021464948
 40
0.0054204278113928
 40
0.0054204278113928
 40
0.0054204278113928
 40
0.0054309344945186
 40
0.0054309344945186
 40
0.0054309344945186
 40
0.0054416298060359
 40
0.0054416298060359
 40
0.0054416298060359
 40
0.0054807175997742
 40
0.0054807175997742
 40
0.0054807175997742
 40
0.0056351906748037
 40
0.0056351906748037
 40
0.0056351906748037
 40
0.0062530054626305
 40
0.0062530054626305
 40
0.0062530054626305
 40
0.0087242632803838
 40
0.0087242632803838
 40
0.0087242632803838
 40
0.0106938021244158
 40
0.0106938021244158
 40
0.0106938021244158
 40
0.0106938021244158
 10
48.72909407868474
 20
158.5527265483748
 10
48.58754881543597
 20
158.7978912211057
 10
48.44600362309021
 20
159.0430559347724
 10
48.30445854998741
 20
159.2882207172835
 10
47.9179722127031
 20
159.9576388520641
 10
47.53148583352618
 20
160.6270569626789
 10
47.14500506786205
 20
161.296478314185
 10
46.95393471657678
 20
161.6274302894284
 10
46.76286428061612
 20
161.9583822159575
 10
46.57180519916662
 20
162.2893406974222
 10
46.47734574366503
 20
162.452966303259
 10
46.38288611740268
 20
162.616591811939
 10
46.28844945723579
 20
162.7802305751818
 10
46.24175462268099
 20
162.8611428497463
 10
46.1950594469934
 20
162.9420549391957
 10
46.14841071687393
 20
163.0229938033312
 10
46.12533397208457
 20
163.0630335966206
 10
46.10225657293571
 20
163.1030731096493
 10
46.07927304779766
 20
163.1431664852737
 10
46.06788114269066
 20
163.1630389777564
 10
46.05648821962008
 20
163.1829116748924
 10
46.04528454570296
 20
163.2028908928501
 10
46.03968699398116
 20
163.2128728600786
 10
46.03409023516362
 20
163.2228613436476
 10
46.02887013312753
 20
163.2330457822557
 10
46.02628335275659
 20
163.2380926004402
 10
46.02373736757407
 20
163.2431889841424
 10
46.02178215620278
 20
163.248512418651
 10
46.02058130587208
 20
163.2517819618749
 10
46.01962159908401
 20
163.2552150801206
 10
46.01942644488961
 20
163.2586927042018
 10
46.01922885936502
 20
163.2622136542923
 10
46.01988719113773
 20
163.2657986035661
 10
46.0209454886053
 20
163.2691625500654
 10
46.0248204379028
 20
163.2814796183033
 10
46.03169502810712
 20
163.2926692843172
 10
46.03791818997871
 20
163.3039828893287
 10
46.06253887372841
 20
163.3487428838146
 10
46.08835736309501
 20
163.3928341863762
 10
46.11383992343705
 20
163.4371091713349
 10
46.21575812308986
 20
163.6141881891448
 10
46.31798957668159
 20
163.7910867398386
 10
46.42013169340109
 20
163.9680366931052
 10
46.82869995210844
 20
164.6758361455389
 10
47.23734689705285
 20
165.383590174603
 10
47.64597136656312
 20
166.0913571770875
 10
47.97163619992759
 20
166.6554321166066
 10
48.29730256954645
 20
167.2195061691791
 10
48.62296922070067
 20
167.7835800592057
 72
     1
 10
48.62296922070067
 20
167.7835800592057
 11
50.51130149538461
 21
167.7835800592057
 72
     1
 10
50.51130149538461
 20
167.7835800592057
 11
50.51130149538461
 21
167.0100343935869
 72
     1
 10
50.51130149538461
 20
167.0100343935869
 11
52.67871922189261
 21
167.0100343935869
 72
     1
 10
52.67871922189261
 20
167.0100343935869
 11
52.67871922189261
 21
169.3462433665365
 72
     2
 10
52.50770915022977
 20
168.8763970561436
 40
0.5
 50
69.99999999999935
 51
74.9999999999992
 73
     1
 72
     1
 10
52.63711867278104
 20
169.3593599692881
 11
48.24889010512725
 21
170.5351822701941
 72
     2
 10
48.50770915022978
 20
171.5011080964832
 40
1.0
 50
105.0
 51
180.0
 73
     0
 72
     1
 10
47.50770915022977
 20
171.5011080964832
 11
47.50770915022977
 21
172.9547230842935
 72
     2
 10
48.50770915022978
 20
172.9547230842935
 40
0.9999999999999977
 50
180.0
 51
266.9999999999997
 73
     0
 72
     1
 10
48.45537319398683
 20
173.953352619048
 11
52.67871922189261
 21
174.1746888055144
 72
     1
 10
52.67871922189261
 20
174.1746888055144
 11
52.67871922189261
 21
177.060060550133
 72
     1
 10
52.67871922189261
 20
177.060060550133
 11
45.30770915022978
 21
177.060060550133
 72
     1
 10
45.30770915022978
 20
177.060060550133
 11
45.30770915022978
 21
176.2600605501331
 72
     1
 10
45.30770915022978
 20
176.260060550133
 11
51.80770915022978
 21
176.260060550133
 72
     2
 10
52.05770915022978
 20
176.260060550133
 40
0.2500000000000002
 50
180.0000000000065
 51
200.1686781477495
 73
     1
 72
     1
 10
51.82303873860644
 20
176.173864274642
 11
54.30770915023976
 21
176.1600605501329
 72
     1
 10
54.30770915022978
 20
176.160060550133
 11
49.03563121156591
 21
176.1893498720145
 72
     1
 10
49.03563121156591
 20
176.1893498720145
 11
45.30770915022977
 21
176.210060550133
 72
     1
 10
45.30770915022977
 20
176.210060550133
 11
44.80770915022978
 21
175.7100605501331
 72
     1
 10
44.80770915022978
 20
175.7100605501331
 11
44.80770915022978
 21
121.010060550133
 72
     1
 10
44.80770915022978
 20
121.010060550133
 11
47.60770915022978
 21
121.010060550133
 72
     1
 10
47.60770915022978
 20
121.010060550133
 11
47.60770915022978
 21
129.260060550133
 72
     1
 10
47.60770915022978
 20
129.260060550133
 11
49.80770915022978
 21
129.260060550133
 72
     1
 10
49.80770915022978
 20
129.260060550133
 11
49.80770915022978
 21
131.760060550133
 72
     1
 10
49.80770915022978
 20
131.760060550133
 11
51.30770915022978
 21
131.760060550133
 72
     1
 10
51.30770915022978
 20
131.760060550133
 11
51.30770915022978
 21
132.0837435374589
 72
     1
 10
51.30770915022978
 20
132.0837435374589
 11
47.09348290800774
 21
132.0837435374589
 72
     1
 10
47.09348290800773
 20
132.0837435374589
 11
47.09348290800773
 21
132.5883675509826
 72
     1
 10
47.09348290800773
 20
132.5883675509826
 11
45.80770915022978
 21
132.6000551381221
 72
     1
 10
45.80770915022978
 20
132.6000551381221
 11
45.80770915022976
 21
135.9200659621439
 72
     1
 10
45.80770915022976
 20
135.9200659621439
 11
47.09348290800772
 21
135.9317535492834
 72
     1
 10
47.09348290800772
 20
135.9317535492834
 11
47.09348290800773
 21
136.365060550133
 72
     1
 10
47.09348290800773
 20
136.365060550133
 11
51.30770915022977
 21
136.365060550133
 72
     1
 10
51.30770915022978
 20
136.365060550133
 11
51.30770915022978
 21
136.760060550133
 72
     1
 10
51.30770915022978
 20
136.760060550133
 11
49.80770915022978
 21
136.760060550133
 72
     1
 10
49.80770915022978
 20
136.760060550133
 11
49.80770915022977
 21
156.9600605501331
 97
        0
 75
     0
 76
     1
 52
45.0
 41
1.0
 77
     0
 78
     1
 53
45.0
 43
0.0
 44
0.0
 45
-2.245064030267288
 46
2.245064030267288
 79
     0
 98
        0
  0
LINE
  5
131
330
11D
100
AcDbEntity
  8
DV2_Standard
  6
Continuous
 62
     7
100
AcDbLine
 10
51.3077091502
 20
136.3650605501
 30
0.0
 11
47.093482908
 21
136.3650605501
 31
0.0
  0
LINE
  5
132
330
11D
100
AcDbEntity
  8
DV2_Standard
  6
Continuous
 62
     7
100
AcDbLine
 10
47.093482908
 20
136.3650605501
 30
0.0
 11
47.093482908
 21
132.0837435375
 31
0.0
  0
LINE
  5
133
330
11D
100
AcDbEntity
  8
DV2_Standard
  6
Continuous
 62
     7
100
AcDbLine
 10
47.093482908
 20
132.0837435375
 30
0.0
 11
51.3077091502
 21
132.0837435375
 31
0.0
  0
HATCH
  5
134
330
11D
100
AcDbEntity
  8
DV2_Standard
  6
Continuous
 62
     7
100
AcDbHatch
 10
0.0
 20
0.0
 30
0.0
210
0.0
220
0.0
230
1.0
  2
NET
 70
     0
 71
     0
 91
        1
 92
        1
 93
        7
 72
     1
 10
43.80770915022978
 20
196.09584698776
 11
43.80770915022978
 21
193.4600605501331
 72
     1
 10
43.80770915022978
 20
193.4600605501331
 11
45.30770915022978
 21
193.4600605501331
 72
     1
 10
45.30770915022978
 20
193.4600605501331
 11
45.30770915022978
 21
194.2600605501329
 72
     1
 10
45.30770915022978
 20
194.2600605501329
 11
44.80770915022978
 21
194.260060550133
 72
     1
 10
44.80770915022978
 20
194.260060550133
 11
44.80770915022978
 21
194.799496456223
 72
     1
 10
44.80770915022978
 20
194.799496456223
 11
44.80770915022978
 21
197.510060550133
 72
     2
 10
45.30770915022978
 20
196.09584698776
 40
1.500000000000001
 50
109.4712206344909
 51
180.0
 73
     1
 97
        0
 75
     0
 76
     1
 52
45.0
 41
1.0
 77
     0
 78
     2
 53
45.0
 43
0.0
 44
0.0
 45
-2.245064030267288
 46
2.245064030267288
 79
     0
 53
135.0
 43
0.0
 44
0.0
 45
-2.245064030267288
 46
-2.245064030267288
 79
     0
 98
        0
  0
HATCH
  5
135
330
11D
100
AcDbEntity
  8
DV2_Standard
  6
Continuous
 62
     7
100
AcDbHatch
 10
0.0
 20
0.0
 30
0.0
210
0.0
220
0.0
230
1.0
  2
NET
 70
     0
 71
     0
 91
        1
 92
        1
 93
        8
 72
     1
 10
45.30770915022978
 20
193.4600605501331
 11
52.67871922189261
 21
193.4600605501331
 72
     1
 10
52.67871922189261
 20
193.4600605501331
 11
52.67871922189261
 21
194.260060550133
 72
     1
 10
52.67871922189261
 20
194.260060550133
 11
52.30770915022978
 21
194.260060550133
 72
     2
 10
52.05770915022978
 20
194.260060550133
 40
0.2500000000000001
 50
0.0
 51
11.53695903281175
 73
     1
 72
     1
 10
52.3026581245081
 20
194.310060550133
 11
51.81276017595147
 21
194.310060550133
 72
     2
 10
52.05770915022978
 20
194.260060550133
 40
0.2500000000000001
 50
168.4630409671886
 51
180.0
 73
     1
 72
     1
 10
51.80770915022978
 20
194.260060550133
 11
45.30770915022978
 21
194.260060550133
 72
     1
 10
45.30770915022978
 20
194.260060550133
 11
45.30770915022978
 21
193.4600605501331
 97
        0
 75
     0
 76
     1
 52
45.0
 41
1.0
 77
     0
 78
     2
 53
45.0
 43
0.0
 44
0.0
 45
-2.245064030267288
 46
2.245064030267288
 79
     0
 53
135.0
 43
0.0
 44
0.0
 45
-2.245064030267288
 46
-2.245064030267288
 79
     0
 98
        0
  0
HATCH
  5
136
330
11D
100
AcDbEntity
  8
DV2_Standard
  6
Continuous
 62
     7
100
AcDbHatch
 10
0.0
 20
0.0
 30
0.0
210
0.0
220
0.0
230
1.0
  2
NET
 70
     0
 71
     0
 91
        1
 92
        1
 93
        4
 72
     1
 10
54.30770915022977
 20
194.260060550133
 11
53.00770915022977
 21
194.260060550133
 72
     1
 10
53.00770915022977
 20
194.260060550133
 11
53.00770915022977
 21
193.4600605501331
 72
     1
 10
53.00770915022977
 20
193.4600605501331
 11
54.30770915022978
 21
193.4600605501331
 72
     1
 10
54.30770915022978
 20
193.4600605501331
 11
54.30770915022977
 21
194.260060550133
 97
        0
 75
     0
 76
     1
 52
45.0
 41
1.0
 77
     0
 78
     2
 53
45.0
 43
0.0
 44
0.0
 45
-2.245064030267288
 46
2.245064030267288
 79
     0
 53
135.0
 43
0.0
 44
0.0
 45
-2.245064030267288
 46
-2.245064030267288
 79
     0
 98
        0
  0
HATCH
  5
137
330
11D
100
AcDbEntity
  8
DV2_Standard
  6
Continuous
 62
     7
100
AcDbHatch
 10
0.0
 20
0.0
 30
0.0
210
0.0
220
0.0
230
1.0
  2
NET
 70
     0
 71
     0
 91
        1
 92
        1
 93
        4
 72
     1
 10
52.67871922189261
 20
194.260060550133
 11
52.67871922189261
 21
193.4600605501331
 72
     1
 10
52.67871922189261
 20
193.4600605501331
 11
53.00770915022977
 21
193.4600605501331
 72
     1
 10
53.00770915022977
 20
193.4600605501331
 11
53.00770915022977
 21
194.2600605501331
 72
     1
 10
53.00770915022977
 20
194.2600605501331
 11
52.67871922189261
 21
194.260060550133
 97
        0
 75
     0
 76
     1
 52
45.0
 41
1.0
 77
     0
 78
     2
 53
45.0
 43
0.0
 44
0.0
 45
-2.245064030267288
 46
2.245064030267288
 79
     0
 53
135.0
 43
0.0
 44
0.0
 45
-2.245064030267288
 46
-2.245064030267288
 79
     0
 98
        0
  0
HATCH
  5
138
330
11D
100
AcDbEntity
  8
DV2_Standard
  6
Continuous
 62
     7
100
AcDbHatch
 10
0.0
 20
0.0
 30
0.0
210
0.0
220
0.0
230
1.0
  2
NET
 70
     0
 71
     0
 91
        1
 92
        1
 93
        6
 72
     1
 10
44.80770915022978
 20
176.260060550133
 11
45.30770915022978
 21
176.260060550133
 72
     1
 10
45.30770915022978
 20
176.260060550133
 11
45.30770915022978
 21
177.060060550133
 72
     1
 10
45.30770915022978
 20
177.060060550133
 11
43.80770915022978
 21
177.060060550133
 72
     1
 10
43.80770915022978
 20
177.060060550133
 11
43.80770915022978
 21
174.4242741125061
 72
     2
 10
45.30770915022978
 20
174.4242741125061
 40
1.500000000000002
 50
180.0
 51
250.5287793655097
 73
     1
 72
     1
 10
44.80770915022978
 20
173.010060550133
 11
44.80770915022978
 21
176.260060550133
 97
        0
 75
     0
 76
     1
 52
45.0
 41
1.0
 77
     0
 78
     2
 53
45.0
 43
0.0
 44
0.0
 45
-2.245064030267288
 46
2.245064030267288
 79
     0
 53
135.0
 43
0.0
 44
0.0
 45
-2.245064030267288
 46
-2.245064030267288
 79
     0
 98
        0
  0
HATCH
  5
139
330
11D
100
AcDbEntity
  8
DV2_Standard
  6
Continuous
 62
     7
100
AcDbHatch
 10
0.0
 20
0.0
 30
0.0
210
0.0
220
0.0
230
1.0
  2
NET
 70
     0
 71
     0
 91
        1
 92
        1
 93
        8
 72
     1
 10
45.30770915022978
 20
176.260060550133
 11
51.80770915022978
 21
176.260060550133
 72
     2
 10
52.05770915022978
 20
176.260060550133
 40
0.2500000000000002
 50
180.0000000000065
 51
200.1686781477495
 73
     1
 72
     1
 10
51.82303873860644
 20
176.173864274642
 11
52.29140736963682
 21
176.1712622266919
 72
     2
 10
52.05770915022978
 20
176.260060550133
 40
0.2500000000000002
 50
339.1947086293462
 51
360.0
 73
     1
 72
     1
 10
52.30770915022978
 20
176.260060550133
 11
52.67871922189261
 21
176.260060550133
 72
     1
 10
52.67871922189261
 20
176.260060550133
 11
52.67871922189261
 21
177.060060550133
 72
     1
 10
52.67871922189261
 20
177.060060550133
 11
45.30770915022978
 21
177.060060550133
 72
     1
 10
45.30770915022978
 20
177.060060550133
 11
45.30770915022978
 21
176.2600605501331
 97
        0
 75
     0
 76
     1
 52
45.0
 41
1.0
 77
     0
 78
     2
 53
45.0
 43
0.0
 44
0.0
 45
-2.245064030267288
 46
2.245064030267288
 79
     0
 53
135.0
 43
0.0
 44
0.0
 45
-2.245064030267288
 46
-2.245064030267288
 79
     0
 98
        0
  0
HATCH
  5
13A
330
11D
100
AcDbEntity
  8
DV2_Standard
  6
Continuous
 62
     7
100
AcDbHatch
 10
0.0
 20
0.0
 30
0.0
210
0.0
220
0.0
230
1.0
  2
NET
 70
     0
 71
     0
 91
        1
 92
        1
 93
        4
 72
     1
 10
53.00770915022977
 20
176.260060550133
 11
54.30770915022978
 21
176.260060550133
 72
     1
 10
54.30770915022978
 20
176.260060550133
 11
54.30770915022978
 21
177.060060550133
 72
     1
 10
54.30770915022978
 20
177.060060550133
 11
53.00770915022977
 21
177.060060550133
 72
     1
 10
53.00770915022977
 20
177.060060550133
 11
53.00770915022977
 21
176.2600605501331
 97
        0
 75
     0
 76
     1
 52
45.0
 41
1.0
 77
     0
 78
     2
 53
45.0
 43
0.0
 44
0.0
 45
-2.245064030267288
 46
2.245064030267288
 79
     0
 53
135.0
 43
0.0
 44
0.0
 45
-2.245064030267288
 46
-2.245064030267288
 79
     0
 98
        0
  0
HATCH
  5
13B
330
11D
100
AcDbEntity
  8
DV2_Standard
  6
Continuous
 62
     7
100
AcDbHatch
 10
0.0
 20
0.0
 30
0.0
210
0.0
220
0.0
230
1.0
  2
NET
 70
     0
 71
     0
 91
        1
 92
        1
 93
        4
 72
     1
 10
52.67871922189261
 20
177.060060550133
 11
52.67871922189261
 21
176.2600605501331
 72
     1
 10
52.67871922189261
 20
176.260060550133
 11
53.00770915022977
 21
176.260060550133
 72
     1
 10
53.00770915022977
 20
176.260060550133
 11
53.00770915022977
 21
177.060060550133
 72
     1
 10
53.00770915022977
 20
177.0600605501331
 11
52.67871922189261
 21
177.060060550133
 97
        0
 75
     0
 76
     1
 52
45.0
 41
1.0
 77
     0
 78
     2
 53
45.0
 43
0.0
 44
0.0
 45
-2.245064030267288
 46
2.245064030267288
 79
     0
 53
135.0
 43
0.0
 44
0.0
 45
-2.245064030267288
 46
-2.245064030267288
 79
     0
 98
        0
  0
HATCH
  5
13C
330
11D
100
AcDbEntity
  8
DV2_Standard
  6
Continuous
 62
     7
100
AcDbHatch
 10
0.0
 20
0.0
 30
0.0
210
0.0
220
0.0
230
1.0
  2
LINE
 70
     0
 71
     0
 91
        1
 92
        1
 93
        4
 72
     1
 10
52.67871922189261
 20
176.1691104941793
 11
52.67871922189261
 21
174.1746888055144
 72
     1
 10
52.67871922189261
 20
174.1746888055144
 11
53.00770915022977
 21
174.1919304370651
 72
     1
 10
53.00770915022977
 20
174.1919304370651
 11
53.00770915022977
 21
176.1672827723552
 72
     1
 10
53.00770915022977
 20
176.1672827723552
 11
52.67871922189261
 21
176.1691104941793
 97
        0
 75
     0
 76
     1
 52
45.0
 41
1.0
 77
     0
 78
     1
 53
45.0
 43
0.0
 44
0.0
 45
-2.245064030267288
 46
2.245064030267288
 79
     0
 98
        0
  0
LINE
  5
13D
330
11D
100
AcDbEntity
  8
DV2_Standard
  6
Continuous
 62
     7
100
AcDbLine
 10
45.3077091502
 20
176.2100605501
 30
0.0
 11
54.3077091502
 21
176.1600605501
 31
0.0
  0
LINE
  5
13E
330
11D
100
AcDbEntity
  8
DV2_Standard
  6
Continuous
 62
     7
100
AcDbLine
 10
50.0113014954
 20
165.3600138417
 30
0.0
 11
50.0113014954
 21
165.7600138417
 31
0.0
  0
LINE
  5
13F
330
11D
100
AcDbEntity
  8
DV2_Standard
  6
Continuous
 62
     7
100
AcDbLine
 10
50.0113014954
 20
165.7600138417
 30
0.0
 11
60.0113014954
 21
165.7600228242
 31
0.0
  0
LINE
  5
140
330
11D
100
AcDbEntity
  8
DV2_Standard
  6
Continuous
 62
     7
100
AcDbLine
 10
50.0113014954
 20
161.1601072586
 30
0.0
 11
50.0113014954
 21
160.7601072586
 31
0.0
  0
LINE
  5
141
330
11D
100
AcDbEntity
  8
DV2_Standard
  6
Continuous
 62
     7
100
AcDbLine
 10
50.0113014954
 20
160.7601072586
 30
0.0
 11
60.0113014954
 21
160.7600982761
 31
0.0
  0
HATCH
  5
142
330
11D
100
AcDbEntity
  8
DV2_Standard
  6
Continuous
 62
     7
100
AcDbHatch
 10
0.0
 20
0.0
 30
0.0
210
0.0
220
0.0
230
1.0
  2
LINE
 70
     0
 71
     0
 91
        1
 92
        1
 93
        4
 72
     1
 10
53.00770915022977
 20
167.0100343935869
 11
53.00770915022977
 21
168.8763970561436
 72
     2
 10
52.50770915022977
 20
168.8763970561436
 40
0.5
 50
0.0
 51
69.99999999999935
 73
     1
 72
     1
 10
52.67871922189261
 20
169.3462433665365
 11
52.67871922189261
 21
167.0100343935869
 72
     1
 10
52.67871922189261
 20
167.0100343935869
 11
53.00770915022977
 21
167.0100343935869
 97
        0
 75
     0
 76
     1
 52
45.0
 41
1.0
 77
     0
 78
     1
 53
45.0
 43
0.0
 44
0.0
 45
-2.245064030267288
 46
2.245064030267288
 79
     0
 98
        0
  0
LINE
  5
143
330
11D
100
AcDbEntity
  8
MEGA_002041
  6
Continuous
 62
     7
100
AcDbLine
 10
52.8077091502
 20
162.2601586417
 30
0.0
 11
53.0077091502
 21
162.2601586417
 31
0.0
  0
LINE
  5
144
330
11D
100
AcDbEntity
  8
MEGA_002041
  6
Continuous
 62
     7
100
AcDbLine
 10
53.0077091502
 20
164.2599624586
 30
0.0
 11
52.8077091502
 21
164.2599624586
 31
0.0
  0
ARC
  5
145
330
11D
100
AcDbEntity
  8
MEGA_002041
  6
Continuous
 62
     7
100
AcDbCircle
 10
50.1761610086
 20
211.4254813928
 30
0.0
 40
2.333954848314942
100
AcDbArc
 50
329.0939518505
 51
357.3978021277
  0
LINE
  5
146
330
11D
100
AcDbEntity
  8
MEGA_002041
  6
Continuous
 62
     7
100
AcDbLine
 10
52.5077091502
 20
214.4244818054
 30
0.0
 11
52.5077091502
 21
213.5416727729
 31
0.0
  0
LINE
  5
147
330
11D
100
AcDbEntity
  8
MEGA_002041
  6
Continuous
 62
     7
100
AcDbLine
 10
52.5077091502
 20
213.5416727729
 30
0.0
 11
52.5077091502
 21
212.1744818054
 31
0.0
  0
LINE
  5
148
330
11D
100
AcDbEntity
  8
MEGA_002041
  6
Continuous
 62
     7
100
AcDbLine
 10
52.5077091502
 20
212.1744818054
 30
0.0
 11
52.5077091502
 21
211.3195167882
 31
0.0
  0
ARC
  5
149
330
11D
100
AcDbEntity
  8
MEGA_002041
  6
Continuous
 62
     7
100
AcDbCircle
 10
50.1761610086
 20
219.0946397075
 30
0.0
 40
2.333954848315105
100
AcDbArc
 50
2.6021978723
 51
30.9060481495
  0
LINE
  5
14A
330
11D
100
AcDbEntity
  8
MEGA_002041
  6
Continuous
 62
     7
100
AcDbLine
 10
52.5077091502
 20
219.2006043121
 30
0.0
 11
52.5077091502
 21
218.3456392949
 31
0.0
  0
LINE
  5
14B
330
11D
100
AcDbEntity
  8
MEGA_002041
  6
Continuous
 62
     7
100
AcDbLine
 10
52.5077091502
 20
218.3456392949
 30
0.0
 11
52.5077091502
 21
216.9571288597
 31
0.0
  0
LINE
  5
14C
330
11D
100
AcDbEntity
  8
MEGA_002041
  6
Continuous
 62
     7
100
AcDbLine
 10
52.5077091502
 20
216.9571288597
 30
0.0
 11
52.5077091502
 21
216.0956392949
 31
0.0
  0
LINE
  5
14D
330
11D
100
AcDbEntity
  8
MEGA_002041
  6
Continuous
 62
     7
100
AcDbLine
 10
52.6787192219
 20
169.3462433665
 30
0.0
 11
52.6787192219
 21
174.1746888055
 31
0.0
  0
LINE
  5
14E
330
11D
100
AcDbEntity
  8
MEGA_002041
  6
Continuous
 62
     7
100
AcDbLine
 10
52.6787192219
 20
196.3454322948
 30
0.0
 11
52.6787192219
 21
251.7564597257
 31
0.0
  0
LINE
  5
14F
330
11D
100
AcDbEntity
  8
MEGA_002041
  6
Continuous
 62
     7
100
AcDbLine
 10
53.0077091502
 20
253.6437240441
 30
0.0
 11
53.0077091502
 21
251.7564597257
 31
0.0
  0
LINE
  5
150
330
11D
100
AcDbEntity
  8
MEGA_002041
  6
Continuous
 62
     7
100
AcDbLine
 10
53.0077091502
 20
251.7564597257
 30
0.0
 11
53.0077091502
 21
196.3281906632
 31
0.0
  0
LINE
  5
151
330
11D
100
AcDbEntity
  8
MEGA_002041
  6
Continuous
 62
     7
100
AcDbLine
 10
53.0077091502
 20
174.1919304371
 30
0.0
 11
53.0077091502
 21
168.8763970561
 31
0.0
  0
LINE
  5
152
330
11D
100
AcDbEntity
  8
MEGA_002041
  6
Continuous
 62
     7
100
AcDbLine
 10
53.0077091502
 20
259.2600605501
 30
0.0
 11
53.0077091502
 21
253.6437240441
 31
0.0
  0
LINE
  5
153
330
11D
100
AcDbEntity
  8
MEGA_002041
  6
Continuous
 62
     7
100
AcDbLine
 10
53.0077091502
 20
263.1702136312
 30
0.0
 11
53.0077091502
 21
259.2600605501
 31
0.0
  0
LINE
  5
154
330
11D
100
AcDbEntity
  8
MEGA_002041
  6
Continuous
 62
     7
100
AcDbLine
 10
53.0077091502
 20
265.1101643192
 30
0.0
 11
53.0077091502
 21
263.1702136312
 31
0.0
  0
LINE
  5
155
330
11D
100
AcDbEntity
  8
MEGA_002041
  6
Continuous
 62
     7
100
AcDbLine
 10
53.0077091502
 20
37.349907469
 30
0.0
 11
53.0077091502
 21
35.409956781
 31
0.0
  0
LINE
  5
156
330
11D
100
AcDbEntity
  8
MEGA_002041
  6
Continuous
 62
     7
100
AcDbLine
 10
53.0077091502
 20
41.2600605501
 30
0.0
 11
53.0077091502
 21
37.349907469
 31
0.0
  0
LINE
  5
157
330
11D
100
AcDbEntity
  8
MEGA_002041
  6
Continuous
 62
     7
100
AcDbLine
 10
53.0077091502
 20
46.8763970561
 30
0.0
 11
53.0077091502
 21
41.2600605501
 31
0.0
  0
LINE
  5
158
330
11D
100
AcDbEntity
  8
MEGA_002041
  6
Continuous
 62
     7
100
AcDbLine
 10
53.0077091502
 20
48.7636613746
 30
0.0
 11
53.0077091502
 21
46.8763970561
 31
0.0
  0
LINE
  5
159
330
11D
100
AcDbEntity
  8
MEGA_002041
  6
Continuous
 62
     7
100
AcDbLine
 10
53.0077091502
 20
63.5704322325
 30
0.0
 11
53.0077091502
 21
48.7636613746
 31
0.0
  0
LINE
  5
15A
330
11D
100
AcDbEntity
  8
MEGA_002041
  6
Continuous
 62
     7
100
AcDbLine
 10
53.0077091502
 20
65.5182261371
 30
0.0
 11
53.0077091502
 21
63.5704322325
 31
0.0
  0
LINE
  5
15B
330
11D
100
AcDbEntity
  8
MEGA_002041
  6
Continuous
 62
     7
100
AcDbLine
 10
53.0077091502
 20
156.9600605501
 30
0.0
 11
53.0077091502
 21
151.9600605501
 31
0.0
  0
LINE
  5
15C
330
11D
100
AcDbEntity
  8
MEGA_002041
  6
Continuous
 62
     7
100
AcDbLine
 10
53.0077091502
 20
72.5600605501
 30
0.0
 11
53.0077091502
 21
67.5600605501
 31
0.0
  0
LINE
  5
15D
330
11D
100
AcDbEntity
  8
MEGA_002041
  6
Continuous
 62
     7
100
AcDbLine
 10
48.4205534075
 20
211.3587364248
 30
0.0
 11
52.0512870216
 21
211.6763844563
 31
0.0
  0
LINE
  5
15E
330
11D
100
AcDbEntity
  8
MEGA_002041
  6
Continuous
 62
     7
100
AcDbLine
 10
48.4205534075
 20
219.1613846755
 30
0.0
 11
52.0512870216
 21
218.8437366439
 31
0.0
  0
LINE
  5
15F
330
11D
100
AcDbEntity
  8
MEGA_002041
  6
Continuous
 62
     7
100
AcDbLine
 10
48.4371186728
 20
252.0353745228
 30
0.0
 11
52.6371186728
 21
253.160761131
 31
0.0
  0
LINE
  5
160
330
11D
100
AcDbEntity
  8
MEGA_002041
  6
Continuous
 62
     7
100
AcDbLine
 10
48.4371186728
 20
48.4847465775
 30
0.0
 11
52.6371186728
 21
47.3593599693
 31
0.0
  0
LINE
  5
161
330
11D
100
AcDbEntity
  8
MEGA_002041
  6
Continuous
 62
     7
100
AcDbLine
 10
53.0077091502
 20
151.9600605501
 30
0.0
 11
53.0077091502
 21
72.5600605501
 31
0.0
  0
LINE
  5
162
330
11D
100
AcDbEntity
  8
MEGA_002041
  6
Continuous
 62
     7
100
AcDbLine
 10
44.8077091502
 20
121.0100605501
 30
0.0
 11
44.8077091502
 21
120.7850605501
 31
0.0
  0
LINE
  5
163
330
11D
100
AcDbEntity
  8
MEGA_002041
  6
Continuous
 62
     7
100
AcDbLine
 10
44.8077091502
 20
77.1850605501
 30
0.0
 11
44.8077091502
 21
77.0100605501
 31
0.0
  0
LINE
  5
164
330
11D
100
AcDbEntity
  8
MEGA_002041
  6
Continuous
 62
     7
100
AcDbLine
 10
54.3077091502
 20
176.2350605501
 30
0.0
 11
54.3077091502
 21
176.2600605501
 31
0.0
  0
LINE
  5
165
330
11D
100
AcDbEntity
  8
MEGA_002041
  6
Continuous
 62
     7
100
AcDbLine
 10
51.3077091502
 20
135.9700605501
 30
0.0
 11
51.3077091502
 21
132.5500605501
 31
0.0
  0
LINE
  5
166
330
11D
100
AcDbEntity
  8
MEGA_002041
  6
Continuous
 62
     7
100
AcDbLine
 10
51.3077091502
 20
72.9700605501
 30
0.0
 11
51.3077091502
 21
69.5500605501
 31
0.0
  0
ARC
  5
167
330
11D
100
AcDbEntity
  8
MEGA_002041
  6
Continuous
 62
     7
100
AcDbCircle
 10
48.5077091502
 20
220.1575793735
 30
0.0
 40
1.0
100
AcDbArc
 50
180.0
 51
265.0
  0
ARC
  5
168
330
11D
100
AcDbEntity
  8
MEGA_002041
  6
Continuous
 62
     7
100
AcDbCircle
 10
48.5077091502
 20
210.3625417267
 30
0.0
 40
1.0
100
AcDbArc
 50
95.0
 51
180.0
  0
ARC
  5
169
330
11D
100
AcDbEntity
  8
MEGA_002041
  6
Continuous
 62
     7
100
AcDbCircle
 10
52.5077091502
 20
46.8763970561
 30
0.0
 40
0.5
100
AcDbArc
 50
0.0
 51
75.0
  0
ARC
  5
16A
330
11D
100
AcDbEntity
  8
MEGA_002041
  6
Continuous
 62
     7
100
AcDbCircle
 10
52.5077091502
 20
253.6437240441
 30
0.0
 40
0.5
100
AcDbArc
 50
285.0
 51
0.0
  0
ARC
  5
16B
330
11D
100
AcDbEntity
  8
MEGA_002041
  6
Continuous
 62
     7
100
AcDbCircle
 10
52.0077091502
 20
218.3456392949
 30
0.0
 40
0.5000000000000058
100
AcDbArc
 50
0.0
 51
85.0
  0
ARC
  5
16C
330
11D
100
AcDbEntity
  8
MEGA_002041
  6
Continuous
 62
     7
100
AcDbCircle
 10
52.0077091502
 20
212.1744818054
 30
0.0
 40
0.4999999999999952
100
AcDbArc
 50
275.0
 51
0.0
  0
LINE
  5
16D
330
11D
100
AcDbEntity
  8
MEGA_002041
  6
Continuous
 62
     7
100
AcDbLine
 10
47.7077091502
 20
202.3378194977
 30
0.0
 11
47.5077091502
 21
202.3378194977
 31
0.0
  0
LINE
  5
16E
330
11D
100
AcDbEntity
  8
MEGA_002041
  6
Continuous
 62
     7
100
AcDbLine
 10
47.7077091502
 20
202.0878194977
 30
0.0
 11
47.5077091502
 21
202.0878194977
 31
0.0
  0
LINE
  5
16F
330
11D
100
AcDbEntity
  8
MEGA_002041
  6
Continuous
 62
     7
100
AcDbLine
 10
47.7077091502
 20
202.0878194977
 30
0.0
 11
47.7077091502
 21
201.9329721576
 31
0.0
  0
LINE
  5
170
330
11D
100
AcDbEntity
  8
MEGA_002041
  6
Continuous
 62
     7
100
AcDbLine
 10
47.7077091502
 20
202.3378194977
 30
0.0
 11
47.7077091502
 21
202.0878194977
 31
0.0
  0
LINE
  5
171
330
11D
100
AcDbEntity
  8
MEGA_002041
  6
Continuous
 62
     7
100
AcDbLine
 10
47.7077091502
 20
202.7608702981
 30
0.0
 11
47.5077091502
 21
202.7608702981
 31
0.0
  0
LINE
  5
172
330
11D
100
AcDbEntity
  8
MEGA_002041
  6
Continuous
 62
     7
100
AcDbLine
 10
47.7077091502
 20
202.7608702981
 30
0.0
 11
47.7077091502
 21
202.3378194977
 31
0.0
  0
LINE
  5
173
330
11D
100
AcDbEntity
  8
MEGA_002041
  6
Continuous
 62
     7
100
AcDbLine
 10
47.7077091502
 20
203.0379186929
 30
0.0
 11
47.7077091502
 21
202.7608702981
 31
0.0
  0
LINE
  5
174
330
11D
100
AcDbEntity
  8
MEGA_002041
  6
Continuous
 62
     7
100
AcDbLine
 10
47.7077091502
 20
205.2826919828
 30
0.0
 11
47.5077091502
 21
205.2826919828
 31
0.0
  0
LINE
  5
175
330
11D
100
AcDbEntity
  8
MEGA_002041
  6
Continuous
 62
     7
100
AcDbLine
 10
47.7077091502
 20
205.2826919828
 30
0.0
 11
47.7077091502
 21
205.0122505095
 31
0.0
  0
LINE
  5
176
330
11D
100
AcDbEntity
  8
MEGA_002041
  6
Continuous
 62
     7
100
AcDbLine
 10
47.7077091502
 20
205.7057427832
 30
0.0
 11
47.7077091502
 21
205.2826919828
 31
0.0
  0
LINE
  5
177
330
11D
100
AcDbEntity
  8
MEGA_002041
  6
Continuous
 62
     7
100
AcDbLine
 10
47.7077091502
 20
205.9557427832
 30
0.0
 11
47.5077091502
 21
205.9557427832
 31
0.0
  0
LINE
  5
178
330
11D
100
AcDbEntity
  8
MEGA_002041
  6
Continuous
 62
     7
100
AcDbLine
 10
47.7077091502
 20
205.7057427832
 30
0.0
 11
47.5077091502
 21
205.7057427832
 31
0.0
  0
LINE
  5
179
330
11D
100
AcDbEntity
  8
MEGA_002041
  6
Continuous
 62
     7
100
AcDbLine
 10
47.7077091502
 20
205.9557427832
 30
0.0
 11
47.7077091502
 21
205.7057427832
 31
0.0
  0
LINE
  5
17A
330
11D
100
AcDbEntity
  8
MEGA_002041
  6
Continuous
 62
     7
100
AcDbLine
 10
47.7077091502
 20
206.1105901232
 30
0.0
 11
47.7077091502
 21
205.9557427832
 31
0.0
  0
LINE
  5
17B
330
11D
100
AcDbEntity
  8
MEGA_002041
  6
Continuous
 62
     7
100
AcDbLine
 10
47.7077091502
 20
203.5910992578
 30
0.0
 11
47.5077091502
 21
203.5910992578
 31
0.0
  0
LINE
  5
17C
330
11D
100
AcDbEntity
  8
MEGA_002041
  6
Continuous
 62
     7
100
AcDbLine
 10
47.7077091502
 20
203.6106559723
 30
0.0
 11
47.5077091502
 21
203.6106559723
 31
0.0
  0
LINE
  5
17D
330
11D
100
AcDbEntity
  8
MEGA_002041
  6
Continuous
 62
     7
100
AcDbLine
 10
47.7077091502
 20
203.9744108615
 30
0.0
 11
47.5077091502
 21
203.9744108615
 31
0.0
  0
LINE
  5
17E
330
11D
100
AcDbEntity
  8
MEGA_002041
  6
Continuous
 62
     7
100
AcDbLine
 10
47.7077091502
 20
204.0070053856
 30
0.0
 11
47.5077091502
 21
204.0070053856
 31
0.0
  0
LINE
  5
17F
330
11D
100
AcDbEntity
  8
MEGA_002041
  6
Continuous
 62
     7
100
AcDbLine
 10
47.7077091502
 20
205.0122205095
 30
0.0
 11
47.5077091502
 21
205.0122205095
 31
0.0
  0
LINE
  5
180
330
11D
100
AcDbEntity
  8
MEGA_002041
  6
Continuous
 62
     7
100
AcDbLine
 10
47.7077091502
 20
204.0070053856
 30
0.0
 11
47.7077091502
 21
205.0122205095
 31
0.0
  0
LINE
  5
181
330
11D
100
AcDbEntity
  8
MEGA_002041
  6
Continuous
 62
     7
100
AcDbLine
 10
47.7077091502
 20
203.9744108615
 30
0.0
 11
47.7077091502
 21
204.0070053856
 31
0.0
  0
LINE
  5
182
330
11D
100
AcDbEntity
  8
MEGA_002041
  6
Continuous
 62
     7
100
AcDbLine
 10
47.7077091502
 20
203.610354211
 30
0.0
 11
47.7077091502
 21
203.9661070485
 31
0.0
  0
LINE
  5
183
330
11D
100
AcDbEntity
  8
MEGA_002041
  6
Continuous
 62
     7
100
AcDbLine
 10
47.7077091502
 20
203.5910992578
 30
0.0
 11
47.7077091502
 21
203.6106559723
 31
0.0
  0
LINE
  5
184
330
11D
100
AcDbEntity
  8
MEGA_002041
  6
Continuous
 62
     7
100
AcDbLine
 10
47.7077091502
 20
203.5910992578
 30
0.0
 11
47.7077091502
 21
203.0448150336
 31
0.0
  0
LINE
  5
185
330
11D
100
AcDbEntity
  8
MEGA_002041
  6
Continuous
 62
     7
100
AcDbLine
 10
47.7077091502
 20
239.2724829149
 30
0.0
 11
47.5077091502
 21
239.2724829149
 31
0.0
  0
LINE
  5
186
330
11D
100
AcDbEntity
  8
MEGA_002041
  6
Continuous
 62
     7
100
AcDbLine
 10
47.7077091502
 20
240.8333987727
 30
0.0
 11
47.5077091502
 21
240.8333987727
 31
0.0
  0
LINE
  5
187
330
11D
100
AcDbEntity
  8
MEGA_002041
  6
Continuous
 62
     7
100
AcDbLine
 10
47.7077091502
 20
240.9649538136
 30
0.0
 11
47.7077091502
 21
240.8333987727
 31
0.0
  0
LINE
  5
188
330
11D
100
AcDbEntity
  8
MEGA_002041
  6
Continuous
 62
     7
100
AcDbLine
 10
47.7077091502
 20
239.2724829149
 30
0.0
 11
47.7077091502
 21
240.8333987727
 31
0.0
  0
LINE
  5
189
330
11D
100
AcDbEntity
  8
MEGA_002041
  6
Continuous
 62
     7
100
AcDbLine
 10
47.7077091502
 20
238.8808772116
 30
0.0
 11
47.7077091502
 21
239.2724829149
 31
0.0
  0
LINE
  5
18A
330
11D
100
AcDbEntity
  8
MEGA_002041
  6
Continuous
 62
     7
100
AcDbLine
 10
47.7077091502
 20
238.7456508672
 30
0.0
 11
47.7077091502
 21
238.8808772116
 31
0.0
  0
LINE
  5
18B
330
11D
100
AcDbEntity
  8
MEGA_002041
  6
Continuous
 62
     7
100
AcDbLine
 10
47.7077091502
 20
238.1586282473
 30
0.0
 11
47.7077091502
 21
238.7294271813
 31
0.0
  0
LINE
  5
18C
330
11D
100
AcDbEntity
  8
MEGA_002041
  6
Continuous
 62
     7
100
AcDbLine
 10
47.7077091502
 20
240.9905704168
 30
0.0
 11
47.7077091502
 21
241.4875826669
 31
0.0
  0
LINE
  5
18D
330
11D
100
AcDbEntity
  8
MEGA_002041
  6
Continuous
 62
     7
100
AcDbLine
 10
47.7077091502
 20
231.1946090845
 30
0.0
 11
47.7077091502
 21
232.0961833903
 31
0.0
  0
LINE
  5
18E
330
11D
100
AcDbEntity
  8
MEGA_002041
  6
Continuous
 62
     7
100
AcDbLine
 10
47.7077091502
 20
231.0518608847
 30
0.0
 11
47.7077091502
 21
231.1946090845
 31
0.0
  0
LINE
  5
18F
330
11D
100
AcDbEntity
  8
MEGA_002041
  6
Continuous
 62
     7
100
AcDbLine
 10
47.7077091502
 20
233.1057139952
 30
0.0
 11
47.5077091502
 21
233.1057139952
 31
0.0
  0
LINE
  5
190
330
11D
100
AcDbEntity
  8
MEGA_002041
  6
Continuous
 62
     7
100
AcDbLine
 10
47.7077091502
 20
232.3475156955
 30
0.0
 11
47.7077091502
 21
232.8111548435
 31
0.0
  0
LINE
  5
191
330
11D
100
AcDbEntity
  8
MEGA_002041
  6
Continuous
 62
     7
100
AcDbLine
 10
47.7077091502
 20
233.0755521649
 30
0.0
 11
47.7077091502
 21
233.1057139952
 31
0.0
  0
LINE
  5
192
330
11D
100
AcDbEntity
  8
MEGA_002041
  6
Continuous
 62
     7
100
AcDbLine
 10
47.7077091502
 20
233.1354923828
 30
0.0
 11
47.7077091502
 21
233.1684499056
 31
0.0
  0
LINE
  5
193
330
11D
100
AcDbEntity
  8
MEGA_002041
  6
Continuous
 62
     7
100
AcDbLine
 10
53.0077091502
 20
164.2599624586
 30
0.0
 11
53.0077091502
 21
162.2601586417
 31
0.0
  0
LINE
  5
194
330
11D
100
AcDbEntity
  8
MEGA_002041
  6
Continuous
 62
     7
100
AcDbLine
 10
48.4205534075
 20
64.6587364248
 30
0.0
 11
52.5512870216
 21
65.0201287881
 31
0.0
  0
ARC
  5
195
330
11D
100
AcDbEntity
  8
MEGA_002041
  6
Continuous
 62
     7
100
AcDbCircle
 10
48.5077091502
 20
63.6625417267
 30
0.0
 40
0.9999999999999977
100
AcDbArc
 50
95.0
 51
180.0
  0
ARC
  5
196
330
11D
100
AcDbEntity
  8
MEGA_002041
  6
Continuous
 62
     7
100
AcDbCircle
 10
52.5077091502
 20
65.5182261371
 30
0.0
 40
0.5000000000000058
100
AcDbArc
 50
275.0
 51
0.0
  0
LINE
  5
197
330
11D
100
AcDbEntity
  8
MEGA_002041
  6
Continuous
 62
     7
100
AcDbLine
 10
53.0077091502
 20
65.5182261371
 30
0.0
 11
53.0077091502
 21
67.5600605501
 31
0.0
  0
LINE
  5
198
330
11D
100
AcDbEntity
  8
MEGA_002041
  6
Continuous
 62
     7
100
AcDbLine
 10
47.5077091502
 20
63.6625417267
 30
0.0
 11
47.5077091502
 21
49.5011080965
 31
0.0
  0
ARC
  5
199
330
11D
100
AcDbEntity
  8
MEGA_002041
  6
Continuous
 62
     7
100
AcDbCircle
 10
48.5077091502
 20
49.5011080965
 30
0.0
 40
1.0
100
AcDbArc
 50
180.0
 51
255.0
  0
LINE
  5
19A
330
11D
100
AcDbEntity
  8
MEGA_002041
  6
Continuous
 62
     7
100
AcDbLine
 10
53.0077091502
 20
67.5600605501
 30
0.0
 11
49.8077091502
 21
67.5600605501
 31
0.0
  0
LINE
  5
19B
330
11D
100
AcDbEntity
  8
MEGA_002041
  6
Continuous
 62
     7
100
AcDbLine
 10
48.4371186728
 20
48.4847465775
 30
0.0
 11
48.2488901051
 21
48.5351822702
 31
0.0
  0
ARC
  5
19C
330
11D
100
AcDbEntity
  8
MEGA_002041
  6
Continuous
 62
     7
100
AcDbCircle
 10
48.3077091502
 20
48.0017836644
 30
0.0
 40
0.5000000000000004
100
AcDbArc
 50
0.0
 51
75.0
  0
LINE
  5
19D
330
11D
100
AcDbEntity
  8
MEGA_002041
  6
Continuous
 62
     7
100
AcDbLine
 10
49.8077091502
 20
68.7600605501
 30
0.0
 11
49.8077091502
 21
67.5600605501
 31
0.0
  0
LINE
  5
19E
330
11D
100
AcDbEntity
  8
MEGA_002041
  6
Continuous
 62
     7
100
AcDbLine
 10
48.8077091502
 20
37.9889430723
 30
0.0
 11
48.8077091502
 21
48.0017836644
 31
0.0
  0
LINE
  5
19F
330
11D
100
AcDbEntity
  8
MEGA_002041
  6
Continuous
 62
     7
100
AcDbLine
 10
49.8077091502
 20
68.7600605501
 30
0.0
 11
51.3077091502
 21
68.7600605501
 31
0.0
  0
LINE
  5
1A0
330
11D
100
AcDbEntity
  8
MEGA_002041
  6
Continuous
 62
     7
100
AcDbLine
 10
51.3077091502
 20
69.5500605501
 30
0.0
 11
51.3077091502
 21
68.7600605501
 31
0.0
  0
LINE
  5
1A1
330
11D
100
AcDbEntity
  8
MEGA_002041
  6
Continuous
 62
     7
100
AcDbLine
 10
45.8077091502
 20
69.6000551381
 30
0.0
 11
51.3077091502
 21
69.5500605501
 31
0.0
  0
ARC
  5
1A2
330
11D
100
AcDbEntity
  8
MEGA_002041
  6
Continuous
 62
     7
100
AcDbCircle
 10
49.8077091502
 20
37.9889430723
 30
0.0
 40
1.0
100
AcDbArc
 50
180.0
 51
250.0
  0
LINE
  5
1A3
330
11D
100
AcDbEntity
  8
MEGA_002041
  6
Continuous
 62
     7
100
AcDbLine
 10
52.6787192219
 20
35.8798030914
 30
0.0
 11
49.4656890069
 21
37.0492504515
 31
0.0
  0
LINE
  5
1A4
330
11D
100
AcDbEntity
  8
MEGA_002041
  6
Continuous
 62
     7
100
AcDbLine
 10
45.8077091502
 20
72.9200659621
 30
0.0
 11
45.8077091502
 21
69.6000551381
 31
0.0
  0
LINE
  5
1A5
330
11D
100
AcDbEntity
  8
MEGA_002041
  6
Continuous
 62
     7
100
AcDbLine
 10
51.3077091502
 20
72.9700605501
 30
0.0
 11
45.8077091502
 21
72.9200659621
 31
0.0
  0
ARC
  5
1A6
330
11D
100
AcDbEntity
  8
MEGA_002041
  6
Continuous
 62
     7
100
AcDbCircle
 10
52.5077091502
 20
35.409956781
 30
0.0
 40
0.5
100
AcDbArc
 50
0.0
 51
70.0
  0
LINE
  5
1A7
330
11D
100
AcDbEntity
  8
MEGA_002041
  6
Continuous
 62
     7
100
AcDbLine
 10
53.0077091502
 20
33.2600605501
 30
0.0
 11
53.0077091502
 21
35.409956781
 31
0.0
  0
LINE
  5
1A8
330
11D
100
AcDbEntity
  8
MEGA_002041
  6
Continuous
 62
     7
100
AcDbLine
 10
53.0077091502
 20
33.2600605501
 30
0.0
 11
45.4656890069
 21
36.0051313885
 31
0.0
  0
ARC
  5
1A9
330
11D
100
AcDbEntity
  8
MEGA_002041
  6
Continuous
 62
     7
100
AcDbCircle
 10
45.8077091502
 20
36.9448240093
 30
0.0
 40
1.0
100
AcDbArc
 50
180.0
 51
250.0
  0
LINE
  5
1AA
330
11D
100
AcDbEntity
  8
MEGA_002041
  6
Continuous
 62
     7
100
AcDbLine
 10
51.3077091502
 20
73.7600605501
 30
0.0
 11
51.3077091502
 21
72.9700605501
 31
0.0
  0
LINE
  5
1AB
330
11D
100
AcDbEntity
  8
MEGA_002041
  6
Continuous
 62
     7
100
AcDbLine
 10
44.8077091502
 20
36.9448240093
 30
0.0
 11
44.8077091502
 21
77.0100605501
 31
0.0
  0
LINE
  5
1AC
330
11D
100
AcDbEntity
  8
MEGA_002041
  6
Continuous
 62
     7
100
AcDbLine
 10
51.3077091502
 20
73.7600605501
 30
0.0
 11
49.8077091502
 21
73.7600605501
 31
0.0
  0
LINE
  5
1AD
330
11D
100
AcDbEntity
  8
MEGA_002041
  6
Continuous
 62
     7
100
AcDbLine
 10
47.6077091502
 20
77.0100605501
 30
0.0
 11
44.8077091502
 21
77.0100605501
 31
0.0
  0
LINE
  5
1AE
330
11D
100
AcDbEntity
  8
MEGA_002041
  6
Continuous
 62
     7
100
AcDbLine
 10
49.8077091502
 20
74.7600605501
 30
0.0
 11
49.8077091502
 21
73.7600605501
 31
0.0
  0
LINE
  5
1AF
330
11D
100
AcDbEntity
  8
MEGA_002041
  6
Continuous
 62
     7
100
AcDbLine
 10
47.6077091502
 20
74.7600605501
 30
0.0
 11
49.8077091502
 21
74.7600605501
 31
0.0
  0
LINE
  5
1B0
330
11D
100
AcDbEntity
  8
MEGA_002041
  6
Continuous
 62
     7
100
AcDbLine
 10
47.6077091502
 20
74.7600605501
 30
0.0
 11
47.6077091502
 21
77.0100605501
 31
0.0
  0
ARC
  5
1B1
330
11D
100
AcDbEntity
  8
MEGA_002041
  6
Continuous
 62
     7
100
AcDbCircle
 10
48.5077091502
 20
197.565398016
 30
0.0
 40
1.0
100
AcDbArc
 50
180.0
 51
267.0
  0
LINE
  5
1B2
330
11D
100
AcDbEntity
  8
MEGA_002041
  6
Continuous
 62
     7
100
AcDbLine
 10
47.5077091502
 20
197.565398016
 30
0.0
 11
47.5077091502
 21
200.0217811404
 31
0.0
  0
LINE
  5
1B3
330
11D
100
AcDbEntity
  8
MEGA_002041
  6
Continuous
 62
     7
100
AcDbLine
 10
53.3600451065
 20
196.3097255182
 30
0.0
 11
48.455373194
 21
196.5667684812
 31
0.0
  0
ARC
  5
1B4
330
11D
100
AcDbEntity
  8
MEGA_002041
  6
Continuous
 62
     7
100
AcDbCircle
 10
53.3077091502
 20
195.3110959834
 30
0.0
 40
1.0
100
AcDbArc
 50
0.0
 51
87.0
  0
LINE
  5
1B5
330
11D
100
AcDbEntity
  8
MEGA_002041
  6
Continuous
 62
     7
100
AcDbLine
 10
47.5077091502
 20
200.0217811404
 30
0.0
 11
47.7077091502
 21
200.0217811404
 31
0.0
  0
LINE
  5
1B6
330
11D
100
AcDbEntity
  8
MEGA_002041
  6
Continuous
 62
     7
100
AcDbLine
 10
47.7077091502
 20
201.9329721576
 30
0.0
 11
47.7077091502
 21
200.0217811404
 31
0.0
  0
LINE
  5
1B7
330
11D
100
AcDbEntity
  8
MEGA_002041
  6
Continuous
 62
     7
100
AcDbLine
 10
54.3077091502
 20
195.3110959834
 30
0.0
 11
54.3077091502
 21
194.2350605501
 31
0.0
  0
ARC
  5
1B8
330
11D
100
AcDbEntity
  8
MEGA_002041
  6
Continuous
 62
     7
100
AcDbCircle
 10
43.5056970392
 20
-1403.4456506969
 30
0.0
 40
1597.706727468817
100
AcDbArc
 50
89.6126258084
 51
89.9353775579
  0
LINE
  5
1B9
330
11D
100
AcDbEntity
  8
MEGA_002041
  6
Continuous
 62
     7
100
AcDbLine
 10
45.3077091502
 20
194.2600605501
 30
0.0
 11
44.8077091502
 21
194.7994964562
 31
0.0
  0
LINE
  5
1BA
330
11D
100
AcDbEntity
  8
MEGA_002041
  6
Continuous
 62
     7
100
AcDbLine
 10
47.7077091502
 20
201.9329721576
 30
0.0
 11
47.5077091502
 21
201.9329721576
 31
0.0
  0
LINE
  5
1BB
330
11D
100
AcDbEntity
  8
MEGA_002041
  6
Continuous
 62
     7
100
AcDbLine
 10
47.5077091502
 20
201.9329721576
 30
0.0
 11
47.5077091502
 21
206.1105901232
 31
0.0
  0
LINE
  5
1BC
330
11D
100
AcDbEntity
  8
MEGA_002041
  6
Continuous
 62
     7
100
AcDbLine
 10
44.8077091502
 20
194.7994964562
 30
0.0
 11
44.8077091502
 21
263.5752970909
 31
0.0
  0
ARC
  5
1BD
330
11D
100
AcDbEntity
  8
MEGA_002041
  6
Continuous
 62
     7
100
AcDbCircle
 10
45.8077091502
 20
263.5752970909
 30
0.0
 40
0.9999999999999943
100
AcDbArc
 50
110.0
 51
180.0
  0
LINE
  5
1BE
330
11D
100
AcDbEntity
  8
MEGA_002041
  6
Continuous
 62
     7
100
AcDbLine
 10
47.5077091502
 20
206.1105901232
 30
0.0
 11
47.7077091502
 21
206.1105901232
 31
0.0
  0
LINE
  5
1BF
330
11D
100
AcDbEntity
  8
MEGA_002041
  6
Continuous
 62
     7
100
AcDbLine
 10
47.7077091502
 20
208.0217811404
 30
0.0
 11
47.7077091502
 21
206.1105901232
 31
0.0
  0
LINE
  5
1C0
330
11D
100
AcDbEntity
  8
MEGA_002041
  6
Continuous
 62
     7
100
AcDbLine
 10
45.4656890069
 20
264.5149897117
 30
0.0
 11
53.0077091502
 21
267.2600605501
 31
0.0
  0
LINE
  5
1C1
330
11D
100
AcDbEntity
  8
MEGA_002041
  6
Continuous
 62
     7
100
AcDbLine
 10
47.7077091502
 20
208.0217811404
 30
0.0
 11
47.5077091502
 21
208.0217811404
 31
0.0
  0
LINE
  5
1C2
330
11D
100
AcDbEntity
  8
MEGA_002041
  6
Continuous
 62
     7
100
AcDbLine
 10
47.5077091502
 20
208.0217811404
 30
0.0
 11
47.5077091502
 21
212.6125417267
 31
0.0
  0
LINE
  5
1C3
330
11D
100
AcDbEntity
  8
MEGA_002041
  6
Continuous
 62
     7
100
AcDbLine
 10
53.0077091502
 20
265.1101643192
 30
0.0
 11
53.0077091502
 21
267.2600605501
 31
0.0
  0
ARC
  5
1C4
330
11D
100
AcDbEntity
  8
MEGA_002041
  6
Continuous
 62
     7
100
AcDbCircle
 10
48.5077091502
 20
212.6125417267
 30
0.0
 40
1.000000000000001
100
AcDbArc
 50
95.0
 51
180.0
  0
ARC
  5
1C5
330
11D
100
AcDbEntity
  8
MEGA_002041
  6
Continuous
 62
     7
100
AcDbCircle
 10
52.5077091502
 20
265.1101643192
 30
0.0
 40
0.5000000000000031
100
AcDbArc
 50
290.0
 51
0.0
  0
LINE
  5
1C6
330
11D
100
AcDbEntity
  8
MEGA_002041
  6
Continuous
 62
     7
100
AcDbLine
 10
48.4205534075
 20
213.6087364248
 30
0.0
 11
52.0512870216
 21
213.9263844563
 31
0.0
  0
LINE
  5
1C7
330
11D
100
AcDbEntity
  8
MEGA_002041
  6
Continuous
 62
     7
100
AcDbLine
 10
52.6787192219
 20
264.6403180088
 30
0.0
 11
49.4656890069
 21
263.4708706488
 31
0.0
  0
ARC
  5
1C8
330
11D
100
AcDbEntity
  8
MEGA_002041
  6
Continuous
 62
     7
100
AcDbCircle
 10
49.8077091502
 20
262.531178028
 30
0.0
 40
1.000000000000006
100
AcDbArc
 50
110.0
 51
180.0
  0
ARC
  5
1C9
330
11D
100
AcDbEntity
  8
MEGA_002041
  6
Continuous
 62
     7
100
AcDbCircle
 10
52.0077091502
 20
214.4244818054
 30
0.0
 40
0.5000000000000011
100
AcDbArc
 50
275.0
 51
0.0
  0
LINE
  5
1CA
330
11D
100
AcDbEntity
  8
MEGA_002041
  6
Continuous
 62
     7
100
AcDbLine
 10
48.8077091502
 20
262.531178028
 30
0.0
 11
48.8077091502
 21
252.5183374359
 31
0.0
  0
LINE
  5
1CB
330
11D
100
AcDbEntity
  8
MEGA_002041
  6
Continuous
 62
     7
100
AcDbLine
 10
52.5077091502
 20
214.4244818054
 30
0.0
 11
52.5077091502
 21
216.0956392949
 31
0.0
  0
ARC
  5
1CC
330
11D
100
AcDbEntity
  8
MEGA_002041
  6
Continuous
 62
     7
100
AcDbCircle
 10
48.3077091502
 20
252.5183374359
 30
0.0
 40
0.5000000000000024
100
AcDbArc
 50
285.0
 51
0.0
  0
ARC
  5
1CD
330
11D
100
AcDbEntity
  8
MEGA_002041
  6
Continuous
 62
     7
100
AcDbCircle
 10
52.0077091502
 20
216.0956392949
 30
0.0
 40
0.5
100
AcDbArc
 50
0.0
 51
85.0
  0
LINE
  5
1CE
330
11D
100
AcDbEntity
  8
MEGA_002041
  6
Continuous
 62
     7
100
AcDbLine
 10
48.4205534075
 20
216.9113846755
 30
0.0
 11
52.0512870216
 21
216.5937366439
 31
0.0
  0
LINE
  5
1CF
330
11D
100
AcDbEntity
  8
MEGA_002041
  6
Continuous
 62
     7
100
AcDbLine
 10
48.4371186728
 20
252.0353745228
 30
0.0
 11
48.2488901051
 21
251.9849388301
 31
0.0
  0
ARC
  5
1D0
330
11D
100
AcDbEntity
  8
MEGA_002041
  6
Continuous
 62
     7
100
AcDbCircle
 10
48.5077091502
 20
217.9075793735
 30
0.0
 40
1.0
100
AcDbArc
 50
180.0
 51
265.0
  0
ARC
  5
1D1
330
11D
100
AcDbEntity
  8
MEGA_002041
  6
Continuous
 62
     7
100
AcDbCircle
 10
48.5077091502
 20
251.0190130038
 30
0.0
 40
1.000000000000003
100
AcDbArc
 50
105.0
 51
180.0
  0
LINE
  5
1D2
330
11D
100
AcDbEntity
  8
MEGA_002041
  6
Continuous
 62
     7
100
AcDbLine
 10
47.5077091502
 20
251.0190130038
 30
0.0
 11
47.5077091502
 21
241.7649955352
 31
0.0
  0
LINE
  5
1D3
330
11D
100
AcDbEntity
  8
MEGA_002041
  6
Continuous
 62
     7
100
AcDbLine
 10
47.5077091502
 20
230.8207036994
 30
0.0
 11
47.5077091502
 21
217.9075793735
 31
0.0
  0
LINE
  5
1D4
330
11D
100
AcDbEntity
  8
MEGA_002041
  6
Continuous
 62
     7
100
AcDbLine
 10
47.5077091502
 20
241.7649955352
 30
0.0
 11
47.7077091502
 21
241.7649955352
 31
0.0
  0
LINE
  5
1D5
330
11D
100
AcDbEntity
  8
MEGA_002041
  6
Continuous
 62
     7
100
AcDbLine
 10
47.7077091502
 20
241.4875826669
 30
0.0
 11
47.7077091502
 21
241.7649955352
 31
0.0
  0
LINE
  5
1D6
330
11D
100
AcDbEntity
  8
MEGA_002041
  6
Continuous
 62
     7
100
AcDbLine
 10
47.5077091502
 20
230.8207036994
 30
0.0
 11
47.7077091502
 21
230.820703699
 31
0.0
  0
LINE
  5
1D7
330
11D
100
AcDbEntity
  8
MEGA_002041
  6
Continuous
 62
     7
100
AcDbLine
 10
47.7077091502
 20
230.820703699
 30
0.0
 11
47.7077091502
 21
231.0518608847
 31
0.0
  0
LINE
  5
1D8
330
11D
100
AcDbEntity
  8
MEGA_002041
  6
Continuous
 62
     7
100
AcDbLine
 10
47.5077091502
 20
241.4875826669
 30
0.0
 11
47.7077091502
 21
241.4875826669
 31
0.0
  0
LINE
  5
1D9
330
11D
100
AcDbEntity
  8
MEGA_002041
  6
Continuous
 62
     7
100
AcDbLine
 10
47.5077091502
 20
241.4875826669
 30
0.0
 11
47.5077091502
 21
238.1586282473
 31
0.0
  0
LINE
  5
1DA
330
11D
100
AcDbEntity
  8
MEGA_002041
  6
Continuous
 62
     7
100
AcDbLine
 10
47.7077091502
 20
231.0518608847
 30
0.0
 11
47.5077091502
 21
231.0518608849
 31
0.0
  0
LINE
  5
1DB
330
11D
100
AcDbEntity
  8
MEGA_002041
  6
Continuous
 62
     7
100
AcDbLine
 10
47.5077091502
 20
232.0961833912
 30
0.0
 11
47.5077091502
 21
231.0518608849
 31
0.0
  0
LINE
  5
1DC
330
11D
100
AcDbEntity
  8
MEGA_002041
  6
Continuous
 62
     7
100
AcDbLine
 10
47.7077091502
 20
238.1586282473
 30
0.0
 11
47.5077091502
 21
238.1586282473
 31
0.0
  0
LINE
  5
1DD
330
11D
100
AcDbEntity
  8
MEGA_002041
  6
Continuous
 62
     7
100
AcDbLine
 10
47.7077091502
 20
237.881215379
 30
0.0
 11
47.7077091502
 21
238.1586282473
 31
0.0
  0
LINE
  5
1DE
330
11D
100
AcDbEntity
  8
MEGA_002041
  6
Continuous
 62
     7
100
AcDbLine
 10
47.5077091502
 20
232.0961833912
 30
0.0
 11
47.7077091502
 21
232.0961833903
 31
0.0
  0
LINE
  5
1DF
330
11D
100
AcDbEntity
  8
MEGA_002041
  6
Continuous
 62
     7
100
AcDbLine
 10
47.7077091502
 20
232.0961833903
 30
0.0
 11
47.7077091502
 21
232.3475156955
 31
0.0
  0
LINE
  5
1E0
330
11D
100
AcDbEntity
  8
MEGA_002041
  6
Continuous
 62
     7
100
AcDbLine
 10
47.7077091502
 20
237.881215379
 30
0.0
 11
47.5077091502
 21
237.881215379
 31
0.0
  0
LINE
  5
1E1
330
11D
100
AcDbEntity
  8
MEGA_002041
  6
Continuous
 62
     7
100
AcDbLine
 10
47.7077091502
 20
232.3475156955
 30
0.0
 11
47.5077091502
 21
232.3475156955
 31
0.0
  0
LINE
  5
1E2
330
11D
100
AcDbEntity
  8
MEGA_002041
  6
Continuous
 62
     7
100
AcDbLine
 10
47.5077091502
 20
237.881215379
 30
0.0
 11
47.5077091502
 21
233.0755521649
 31
0.0
  0
LINE
  5
1E3
330
11D
100
AcDbEntity
  8
MEGA_002041
  6
Continuous
 62
     7
100
AcDbLine
 10
47.5077091502
 20
232.8111548435
 30
0.0
 11
47.5077091502
 21
232.3475156955
 31
0.0
  0
LINE
  5
1E4
330
11D
100
AcDbEntity
  8
MEGA_002041
  6
Continuous
 62
     7
100
AcDbLine
 10
47.7077091502
 20
233.0755521649
 30
0.0
 11
47.5077091502
 21
233.0755521649
 31
0.0
  0
LINE
  5
1E5
330
11D
100
AcDbEntity
  8
MEGA_002041
  6
Continuous
 62
     7
100
AcDbLine
 10
47.5077091502
 20
232.8111548435
 30
0.0
 11
47.7077091502
 21
232.8111548435
 31
0.0
  0
LINE
  5
1E6
330
11D
100
AcDbEntity
  8
MEGA_002041
  6
Continuous
 62
     7
100
AcDbLine
 10
47.7077091502
 20
232.8111548435
 30
0.0
 11
47.7077091502
 21
233.0755521649
 31
0.0
  0
LINE
  5
1E7
330
11D
100
AcDbEntity
  8
MEGA_002041
  6
Continuous
 62
     7
100
AcDbLine
 10
47.6077091502
 20
121.0100605501
 30
0.0
 11
47.6077091502
 21
129.2600605501
 31
0.0
  0
LINE
  5
1E8
330
11D
100
AcDbEntity
  8
MEGA_002041
  6
Continuous
 62
     7
100
AcDbLine
 10
44.8077091502
 20
121.0100605501
 30
0.0
 11
47.6077091502
 21
121.0100605501
 31
0.0
  0
LINE
  5
1E9
330
11D
100
AcDbEntity
  8
MEGA_002041
  6
Continuous
 62
     7
100
AcDbLine
 10
44.8077091502
 20
121.0100605501
 30
0.0
 11
44.8077091502
 21
175.720624644
 31
0.0
  0
LINE
  5
1EA
330
11D
100
AcDbEntity
  8
MEGA_002041
  6
Continuous
 62
     7
100
AcDbLine
 10
44.8077091502
 20
175.720624644
 30
0.0
 11
45.3077091502
 21
176.2600605501
 31
0.0
  0
LINE
  5
1EB
330
11D
100
AcDbEntity
  8
MEGA_002041
  6
Continuous
 62
     7
100
AcDbLine
 10
49.8077091502
 20
129.2600605501
 30
0.0
 11
47.6077091502
 21
129.2600605501
 31
0.0
  0
LINE
  5
1EC
330
11D
100
AcDbEntity
  8
MEGA_002041
  6
Continuous
 62
     7
100
AcDbLine
 10
49.8077091502
 20
131.7600605501
 30
0.0
 11
49.8077091502
 21
129.2600605501
 31
0.0
  0
LINE
  5
1ED
330
11D
100
AcDbEntity
  8
MEGA_002041
  6
Continuous
 62
     7
100
AcDbLine
 10
49.8077091502
 20
131.7600605501
 30
0.0
 11
51.3077091502
 21
131.7600605501
 31
0.0
  0
LINE
  5
1EE
330
11D
100
AcDbEntity
  8
MEGA_002041
  6
Continuous
 62
     7
100
AcDbLine
 10
51.3077091502
 20
132.5500605501
 30
0.0
 11
51.3077091502
 21
131.7600605501
 31
0.0
  0
ARC
  5
1EF
330
11D
100
AcDbEntity
  8
MEGA_002041
  6
Continuous
 62
     7
100
AcDbCircle
 10
56.1097212612
 20
1773.9407717733
 30
0.0
 40
1597.706727444937
100
AcDbArc
 50
269.6126258084
 51
269.9353775579
  0
LINE
  5
1F0
330
11D
100
AcDbEntity
  8
MEGA_002041
  6
Continuous
 62
     7
100
AcDbLine
 10
45.8077091502
 20
132.6000551381
 30
0.0
 11
51.3077091502
 21
132.5500605501
 31
0.0
  0
LINE
  5
1F1
330
11D
100
AcDbEntity
  8
MEGA_002041
  6
Continuous
 62
     7
100
AcDbLine
 10
54.3077091502
 20
176.2350605501
 30
0.0
 11
54.3077091502
 21
175.2090251168
 31
0.0
  0
ARC
  5
1F2
330
11D
100
AcDbEntity
  8
MEGA_002041
  6
Continuous
 62
     7
100
AcDbCircle
 10
53.3077091502
 20
175.2090251168
 30
0.0
 40
1.000000000000002
100
AcDbArc
 50
273.0
 51
0.0
  0
LINE
  5
1F3
330
11D
100
AcDbEntity
  8
MEGA_002041
  6
Continuous
 62
     7
100
AcDbLine
 10
45.8077091502
 20
135.9200659621
 30
0.0
 11
45.8077091502
 21
132.6000551381
 31
0.0
  0
LINE
  5
1F4
330
11D
100
AcDbEntity
  8
MEGA_002041
  6
Continuous
 62
     7
100
AcDbLine
 10
51.3077091502
 20
135.9700605501
 30
0.0
 11
45.8077091502
 21
135.9200659621
 31
0.0
  0
LINE
  5
1F5
330
11D
100
AcDbEntity
  8
MEGA_002041
  6
Continuous
 62
     7
100
AcDbLine
 10
48.455373194
 20
173.953352619
 30
0.0
 11
53.3600451065
 21
174.2103955821
 31
0.0
  0
LINE
  5
1F6
330
11D
100
AcDbEntity
  8
MEGA_002041
  6
Continuous
 62
     7
100
AcDbLine
 10
51.3077091502
 20
136.7600605501
 30
0.0
 11
51.3077091502
 21
135.9700605501
 31
0.0
  0
ARC
  5
1F7
330
11D
100
AcDbEntity
  8
MEGA_002041
  6
Continuous
 62
     7
100
AcDbCircle
 10
48.5077091502
 20
172.9547230843
 30
0.0
 40
0.9999999999999977
100
AcDbArc
 50
93.0
 51
180.0
  0
LINE
  5
1F8
330
11D
100
AcDbEntity
  8
MEGA_002041
  6
Continuous
 62
     7
100
AcDbLine
 10
47.5077091502
 20
171.5011080965
 30
0.0
 11
47.5077091502
 21
172.9547230843
 31
0.0
  0
LINE
  5
1F9
330
11D
100
AcDbEntity
  8
MEGA_002041
  6
Continuous
 62
     7
100
AcDbLine
 10
51.3077091502
 20
136.7600605501
 30
0.0
 11
49.8077091502
 21
136.7600605501
 31
0.0
  0
ARC
  5
1FA
330
11D
100
AcDbEntity
  8
MEGA_002041
  6
Continuous
 62
     7
100
AcDbCircle
 10
48.5077091502
 20
171.5011080965
 30
0.0
 40
1.0
100
AcDbArc
 50
180.0
 51
255.0
  0
LINE
  5
1FB
330
11D
100
AcDbEntity
  8
MEGA_002041
  6
Continuous
 62
     7
100
AcDbLine
 10
49.8077091502
 20
156.9600605501
 30
0.0
 11
49.8077091502
 21
136.7600605501
 31
0.0
  0
LINE
  5
1FC
330
11D
100
AcDbEntity
  8
MEGA_002041
  6
Continuous
 62
     7
100
AcDbLine
 10
49.8077091502
 20
156.9600605501
 30
0.0
 11
53.0077091502
 21
156.9600605501
 31
0.0
  0
LINE
  5
1FD
330
11D
100
AcDbEntity
  8
MEGA_002041
  6
Continuous
 62
     7
100
AcDbLine
 10
53.0077091502
 20
156.9600605501
 30
0.0
 11
53.0077091502
 21
162.2601586417
 31
0.0
  0
LINE
  5
1FE
330
11D
100
AcDbEntity
  8
MEGA_002041
  6
Continuous
 62
     7
100
AcDbLine
 10
52.6371186728
 20
169.3593599693
 30
0.0
 11
48.2488901051
 21
170.5351822702
 31
0.0
  0
ARC
  5
1FF
330
11D
100
AcDbEntity
  8
MEGA_002041
  6
Continuous
 62
     7
100
AcDbCircle
 10
52.5077091502
 20
168.8763970561
 30
0.0
 40
0.5
100
AcDbArc
 50
0.0
 51
75.0
  0
LINE
  5
200
330
11D
100
AcDbEntity
  8
MEGA_002041
  6
Continuous
 62
     7
100
AcDbLine
 10
53.0077091502
 20
164.2599624586
 30
0.0
 11
53.0077091502
 21
168.8763970561
 31
0.0
  0
LINE
  5
201
330
11D
100
AcDbEntity
  8
MEGA_002041
  6
Continuous
 62
     7
100
AcDbLine
 10
52.8077091502
 20
164.2599624586
 30
0.0
 11
52.8077091502
 21
162.2601586417
 31
0.0
  0
LINE
  5
202
330
11D
100
AcDbEntity
  8
MEGA_002041
  6
Continuous
 62
     7
100
AcDbLine
 10
47.5077091502
 20
203.0448150336
 30
0.0
 11
47.7077091502
 21
203.0448150336
 31
0.0
  0
LINE
  5
203
330
11D
100
AcDbEntity
  8
MEGA_002041
  6
Continuous
 62
     7
100
AcDbLine
 10
47.7077091502
 20
240.9649538136
 30
0.0
 11
47.5077091502
 21
240.9649538136
 31
0.0
  0
LINE
  5
204
330
11D
100
AcDbEntity
  8
MEGA_002041
  6
Continuous
 62
     7
100
AcDbLine
 10
47.5077091502
 20
238.7456508672
 30
0.0
 11
47.7077091502
 21
238.7456508672
 31
0.0
  0
LINE
  5
205
330
11D
100
AcDbEntity
  8
MEGA_002041
  6
Continuous
 62
     7
100
AcDbLine
 10
47.7077091502
 20
233.1153401113
 30
0.0
 11
47.5077091502
 21
233.1153401113
 31
0.0
  0
LINE
  5
206
330
11D
100
AcDbEntity
  8
MEGA_002041
  6
Continuous
 62
     7
100
AcDbLine
 10
47.5077091502
 20
230.8166235935
 30
0.0
 11
47.7077091502
 21
230.8166235935
 31
0.0
  0
LINE
  5
207
330
11D
100
AcDbEntity
  8
MEGA_002041
  6
Continuous
 62
     7
100
AcDbLine
 10
47.7077091502
 20
233.1684499056
 30
0.0
 11
47.5077091502
 21
233.1684499056
 31
0.0
  0
HATCH
  5
208
330
11D
100
AcDbEntity
  8
MEGA_002041
  6
Continuous
 62
     7
100
AcDbHatch
 10
0.0
 20
0.0
 30
0.0
210
0.0
220
0.0
230
1.0
  2
LINE
 70
     0
 71
     0
 91
        1
 92
        1
 93
       30
 72
     1
 10
47.60770915022978
 20
121.010060550133
 11
47.60770915022978
 21
129.260060550133
 72
     1
 10
47.60770915022978
 20
129.260060550133
 11
49.80770915022978
 21
129.260060550133
 72
     1
 10
49.80770915022978
 20
129.260060550133
 11
49.80770915022978
 21
131.7600605501331
 72
     1
 10
49.80770915022978
 20
131.7600605501331
 11
51.30770915022978
 21
131.760060550133
 72
     1
 10
51.30770915022978
 20
131.760060550133
 11
51.30770915022978
 21
132.550060550133
 72
     1
 10
51.30770915022978
 20
132.550060550133
 11
45.80770915022978
 21
132.6000551381222
 72
     1
 10
45.80770915022978
 20
132.6000551381222
 11
45.80770915022973
 21
135.9200659621439
 72
     1
 10
45.80770915022973
 20
135.9200659621439
 11
51.30770915022978
 21
135.970060550133
 72
     1
 10
51.30770915022978
 20
135.970060550133
 11
51.30770915022978
 21
136.7600605501331
 72
     1
 10
51.30770915022978
 20
136.7600605501331
 11
49.80770915022978
 21
136.760060550133
 72
     1
 10
49.80770915022977
 20
136.760060550133
 11
49.80770915022978
 21
156.9600605501331
 72
     1
 10
49.80770915022978
 20
156.9600605501331
 11
53.00770915022977
 21
156.9600605501331
 72
     1
 10
53.00770915022977
 20
156.9600605501331
 11
53.00770915022977
 21
162.2601586416505
 72
     1
 10
53.00770915022977
 20
162.2601586416505
 11
52.80770915022978
 21
162.2601586416505
 72
     1
 10
52.80770915022978
 20
162.2601586416505
 11
52.80770915022978
 21
164.2599624586156
 72
     1
 10
52.80770915022978
 20
164.2599624586156
 11
53.00770915022977
 21
164.2599624586156
 72
     1
 10
53.00770915022977
 20
164.2599624586156
 11
53.00770915022977
 21
168.8763970561436
 72
     2
 10
52.50770915022977
 20
168.8763970561436
 40
0.5
 50
0.0
 51
74.9999999999992
 73
     1
 72
     1
 10
52.63711867278104
 20
169.3593599692881
 11
48.24889010512726
 21
170.5351822701941
 72
     2
 10
48.50770915022978
 20
171.5011080964832
 40
1.0
 50
105.0000000000004
 51
180.0
 73
     0
 72
     1
 10
47.50770915022977
 20
171.5011080964832
 11
47.50770915022977
 21
172.9547230842935
 72
     2
 10
48.50770915022978
 20
172.9547230842935
 40
1.0
 50
180.0
 51
266.9999999999997
 73
     0
 72
     1
 10
48.45537319398683
 20
173.953352619048
 11
53.3600451064727
 21
174.2103955820934
 72
     2
 10
53.30770915022978
 20
175.2090251168479
 40
1.0
 50
272.9999999999991
 51
360.0
 73
     1
 72
     1
 10
54.30770915022978
 20
175.2090251168479
 11
54.30770915022978
 21
176.235060550133
 72
     1
 10
54.30770915022924
 20
176.2350605501326
 11
45.30778013888268
 21
176.270560186827
 72
     1
 10
45.30778013888268
 20
176.2705601868271
 11
45.3077091502298
 21
176.2600605501331
 72
     1
 10
45.3077091502298
 20
176.260060550133
 11
44.80770915022978
 21
175.720624644043
 72
     1
 10
44.80770915022978
 20
175.720624644043
 11
44.80770915022978
 21
121.010060550133
 72
     1
 10
44.80770915022978
 20
121.010060550133
 11
47.60770915022978
 21
121.010060550133
 97
        0
 75
     0
 76
     1
 52
45.0
 41
1.0
 77
     0
 78
     1
 53
45.0
 43
0.0
 44
0.0
 45
-2.245064030267288
 46
2.245064030267288
 79
     0
 98
        0
  0
HATCH
  5
209
330
11D
100
AcDbEntity
  8
MEGA_002041
  6
Continuous
 62
     7
100
AcDbHatch
 10
0.0
 20
0.0
 30
0.0
210
0.0
220
0.0
230
1.0
  2
LINE
 70
     0
 71
     0
 91
        1
 92
        1
 93
       29
 72
     1
 10
48.42055340748212
 20
64.65873642481479
 11
52.55128702160361
 21
65.02012878809587
 72
     2
 10
52.50770915022978
 20
65.51822613714175
 40
0.5
 50
275.0000000000006
 51
360.0
 73
     1
 72
     1
 10
53.00770915022978
 20
65.51822613714175
 11
53.00770915022978
 21
67.56006055013307
 72
     1
 10
53.00770915022978
 20
67.56006055013309
 11
49.80770915022978
 21
67.56006055013309
 72
     1
 10
49.80770915022978
 20
67.56006055013309
 11
49.80770915022978
 21
68.76006055013303
 72
     1
 10
49.80770915022978
 20
68.76006055013303
 11
51.30770915022978
 21
68.76006055013303
 72
     1
 10
51.30770915022978
 20
68.76006055013303
 11
51.30770915022978
 21
69.55006055013303
 72
     1
 10
51.30770915022978
 20
69.55006055013303
 11
45.80770915022978
 21
69.60005513812216
 72
     1
 10
45.80770915022978
 20
69.60005513812214
 11
45.80770915022974
 21
72.92006596214392
 72
     1
 10
45.80770915022974
 20
72.92006596214392
 11
51.30770915022978
 21
72.97006055013303
 72
     1
 10
51.30770915022978
 20
72.97006055013303
 11
51.30770915022978
 21
73.76006055013303
 72
     1
 10
51.30770915022978
 20
73.76006055013303
 11
49.80770915022978
 21
73.76006055013303
 72
     1
 10
49.80770915022978
 20
73.76006055013303
 11
49.80770915022978
 21
74.76006055013303
 72
     1
 10
49.80770915022978
 20
74.76006055013303
 11
47.60770915022977
 21
74.76006055013303
 72
     1
 10
47.60770915022978
 20
74.76006055013303
 11
47.60770915022978
 21
77.01006055013299
 72
     1
 10
47.60770915022978
 20
77.010060550133
 11
44.80770915022978
 21
77.01006055013299
 72
     1
 10
44.80770915022978
 20
77.01006055013299
 11
44.80770915022978
 21
36.94482400932561
 72
     2
 10
45.80770915022978
 20
36.94482400932566
 40
1.0
 50
180.0000000000032
 51
250.0000000000004
 73
     1
 72
     1
 10
45.46568900690412
 20
36.00513138853975
 11
53.00770915022979
 21
33.26006055013306
 72
     1
 10
53.00770915022979
 20
33.26006055013305
 11
53.00770915022979
 21
35.40995678102812
 72
     2
 10
52.50770915022979
 20
35.40995678102812
 40
0.5
 50
0.0
 51
70.00000000000095
 73
     1
 72
     1
 10
52.67871922189261
 20
35.87980309142108
 11
49.4656890069041
 21
37.04925045147486
 72
     2
 10
49.80770915022978
 20
37.98894307226078
 40
1.0
 50
110.0000000000003
 51
180.0
 73
     0
 72
     1
 10
48.80770915022978
 20
37.98894307226078
 11
48.80770915022978
 21
48.00178366435426
 72
     2
 10
48.30770915022978
 20
48.00178366435426
 40
0.5
 50
0.0
 51
75.00000000000063
 73
     1
 72
     1
 10
48.43711867278104
 20
48.4847465774988
 11
48.24889010512727
 21
48.53518227019408
 72
     2
 10
48.50770915022979
 20
49.50110809648314
 40
1.0
 50
105.0000000000004
 51
180.0
 73
     0
 72
     1
 10
47.50770915022978
 20
49.50110809648314
 11
47.50770915022978
 21
63.66254172672306
 72
     2
 10
48.50770915022979
 20
63.66254172672303
 40
1.0
 50
180.0
 51
264.9999999999998
 73
     0
 97
        0
 75
     0
 76
     1
 52
45.0
 41
1.0
 77
     0
 78
     1
 53
45.0
 43
0.0
 44
0.0
 45
-2.245064030267288
 46
2.245064030267288
 79
     0
 98
        0
  0
HATCH
  5
20A
330
11D
100
AcDbEntity
  8
MEGA_002041
  6
Continuous
 62
     7
100
AcDbHatch
 10
0.0
 20
0.0
 30
0.0
210
0.0
220
0.0
230
1.0
  2
LINE
 70
     0
 71
     0
 91
        1
 92
        1
 93
       55
 72
     1
 10
47.50770915022976
 20
197.5653980159726
 11
47.50770915022976
 21
200.0217811404472
 72
     1
 10
47.50770915022976
 20
200.0217811404472
 11
47.70770915022976
 21
200.0217811404472
 72
     1
 10
47.70770915022977
 20
200.0217811404472
 11
47.70770915022977
 21
201.9329721576482
 72
     1
 10
47.70770915022977
 20
201.9329721576482
 11
47.50770915022978
 21
201.9329721576482
 72
     1
 10
47.50770915022977
 20
201.9329721576482
 11
47.50770915022976
 21
206.1105901232461
 72
     1
 10
47.50770915022976
 20
206.1105901232461
 11
47.70770915022976
 21
206.1105901232461
 72
     1
 10
47.70770915022977
 20
206.1105901232461
 11
47.70770915022977
 21
208.0217811404472
 72
     1
 10
47.70770915022977
 20
208.0217811404472
 11
47.50770915022978
 21
208.0217811404472
 72
     1
 10
47.50770915022977
 20
208.0217811404472
 11
47.50770915022976
 21
212.612541726723
 72
     2
 10
48.50770915022977
 20
212.612541726723
 40
1.0
 50
180.0
 51
265.0000000000003
 73
     0
 72
     1
 10
48.42055340748212
 20
213.6087364248148
 11
52.05128702160363
 21
213.926384456333
 72
     2
 10
52.00770915022977
 20
214.4244818053788
 40
0.5
 50
275.000000000003
 51
360.0
 73
     1
 72
     1
 10
52.50770915022977
 20
214.4244818053788
 11
52.50770915022977
 21
216.0956392948873
 72
     2
 10
52.00770915022977
 20
216.0956392948873
 40
0.5
 50
0.0
 51
85.00000000000026
 73
     1
 72
     1
 10
52.0512870216036
 20
216.5937366439332
 11
48.42055340748211
 21
216.9113846754513
 72
     2
 10
48.50770915022977
 20
217.9075793735431
 40
1.0
 50
94.99999999999974
 51
180.0
 73
     0
 72
     1
 10
47.50770915022976
 20
217.9075793735431
 11
47.50770915022976
 21
230.8207036994012
 72
     1
 10
47.50770915022976
 20
230.8207036994012
 11
47.70770915022976
 21
230.8207036989907
 72
     1
 10
47.70770915022977
 20
230.8207036989907
 11
47.70770915022977
 21
231.0518608847314
 72
     1
 10
47.70770915022977
 20
231.0518608847314
 11
47.50770915022977
 21
231.0518608848731
 72
     1
 10
47.50770915022976
 20
231.0518608848731
 11
47.50770915022976
 21
232.096183391233
 72
     1
 10
47.50770915022976
 20
232.096183391233
 11
47.70770915022976
 21
232.0961833902769
 72
     1
 10
47.70770915022977
 20
232.0961833902769
 11
47.70770915022977
 21
232.347515695475
 72
     1
 10
47.70770915022977
 20
232.347515695475
 11
47.50770915022977
 21
232.3475156955093
 72
     1
 10
47.50770915022976
 20
232.3475156955093
 11
47.50770915022976
 21
232.8111548434531
 72
     1
 10
47.50770915022976
 20
232.8111548434531
 11
47.70770915022976
 21
232.8111548434531
 72
     1
 10
47.70770915022977
 20
232.8111548434531
 11
47.70770915022977
 21
233.0755521648817
 72
     1
 10
47.70770915022977
 20
233.0755521648817
 11
47.50770915022977
 21
233.0755521648817
 72
     1
 10
47.50770915022976
 20
233.0755521648817
 11
47.50770915022976
 21
237.8812153789527
 72
     1
 10
47.50770915022976
 20
237.8812153789527
 11
47.70770915022976
 21
237.8812153789527
 72
     1
 10
47.70770915022977
 20
237.8812153789527
 11
47.70770915022977
 21
238.1586282472592
 72
     1
 10
47.70770915022977
 20
238.1586282472592
 11
47.50770915022977
 21
238.1586282472592
 72
     1
 10
47.50770915022976
 20
238.1586282472592
 11
47.50770915022976
 21
241.4875826669371
 72
     1
 10
47.50770915022976
 20
241.4875826669371
 11
47.70770915022976
 21
241.4875826669371
 72
     1
 10
47.70770915022977
 20
241.4875826669371
 11
47.70770915022977
 21
241.7649955352436
 72
     1
 10
47.70770915022977
 20
241.7649955352436
 11
47.50770915022977
 21
241.7649955352436
 72
     1
 10
47.50770915022976
 20
241.7649955352436
 11
47.50770915022976
 21
251.0190130037828
 72
     2
 10
48.50770915022977
 20
251.0190130037828
 40
1.0
 50
180.0
 51
255.0
 73
     0
 72
     1
 10
48.24889010512725
 20
251.9849388300718
 11
48.43711867278103
 21
252.0353745227671
 72
     2
 10
48.30770915022977
 20
252.5183374359117
 40
0.5
 50
285.0
 51
360.0
 73
     1
 72
     1
 10
48.80770915022977
 20
252.5183374359117
 11
48.80770915022977
 21
262.5311780280052
 72
     2
 10
49.80770915022977
 20
262.5311780280052
 40
1.0
 50
180.0
 51
249.9999999999997
 73
     0
 72
     1
 10
49.46568900690409
 20
263.4708706487911
 11
52.67871922189261
 21
264.6403180088448
 72
     2
 10
52.50770915022977
 20
265.1101643192378
 40
0.5
 50
289.9999999999969
 51
360.0
 73
     1
 72
     1
 10
53.00770915022977
 20
265.1101643192378
 11
53.00770915022976
 21
267.2600605501331
 72
     1
 10
53.00770915022976
 20
267.2600605501331
 11
45.46568900690409
 21
264.5149897117263
 72
     2
 10
45.80770915022977
 20
263.5752970909405
 40
1.0
 50
110.0000000000007
 51
180.0
 73
     1
 72
     1
 10
44.80770915022977
 20
263.5752970909405
 11
44.80770915022978
 21
194.7994964562231
 72
     1
 10
44.80770915022978
 20
194.7994964562231
 11
45.30770915022978
 21
194.2600605501329
 72
     1
 10
45.30770915022975
 20
194.2600605501329
 11
54.30763816157604
 21
194.2245609134388
 72
     1
 10
54.30763816157603
 20
194.224560913439
 11
54.30770915022977
 21
194.235060550133
 72
     1
 10
54.30770915022977
 20
194.235060550133
 11
54.30770915022977
 21
195.3110959834182
 72
     2
 10
53.30770915022977
 20
195.3110959834182
 40
1.0
 50
0.0
 51
87.0000000000001
 73
     1
 72
     1
 10
53.36004510647271
 20
196.3097255181727
 11
48.45537319398677
 21
196.566768481218
 72
     2
 10
48.50770915022977
 20
197.5653980159726
 40
1.0
 50
93.00000000000277
 51
180.0
 73
     0
 97
        0
 75
     0
 76
     1
 52
45.0
 41
1.0
 77
     0
 78
     1
 53
45.0
 43
0.0
 44
0.0
 45
-2.245064030267288
 46
2.245064030267288
 79
     0
 98
        0
  0
LINE
  5
20B
330
11D
100
AcDbEntity
  8
MEGA_002032
  6
Continuous
 62
     7
100
AcDbLine
 10
49.8077091502
 20
131.2600605501
 30
0.0
 11
52.0577091502
 21
131.2600605501
 31
0.0
  0
LINE
  5
20C
330
11D
100
AcDbEntity
  8
MEGA_002032
  6
Continuous
 62
     7
100
AcDbLine
 10
52.0577091502
 20
137.2600605501
 30
0.0
 11
49.8077091502
 21
137.2600605501
 31
0.0
  0
LINE
  5
20D
330
11D
100
AcDbEntity
  8
MEGA_002032
  6
Continuous
 62
     7
100
AcDbLine
 10
49.8077091502
 20
107.5600605501
 30
0.0
 11
49.8077091502
 21
100.5351050343
 31
0.0
  0
LINE
  5
20E
330
11D
100
AcDbEntity
  8
MEGA_002032
  6
Continuous
 62
     7
100
AcDbLine
 10
49.8077091502
 20
113.5600605501
 30
0.0
 11
49.8077091502
 21
107.5600605501
 31
0.0
  0
LINE
  5
20F
330
11D
100
AcDbEntity
  8
MEGA_002032
  6
Continuous
 62
     7
100
AcDbLine
 10
49.8077091502
 20
122.3600605501
 30
0.0
 11
49.8077091502
 21
113.5600605501
 31
0.0
  0
LINE
  5
210
330
11D
100
AcDbEntity
  8
MEGA_002032
  6
Continuous
 62
     7
100
AcDbLine
 10
49.8077091502
 20
87.5600605501
 30
0.0
 11
49.8077091502
 21
82.2600605501
 31
0.0
  0
LINE
  5
211
330
11D
100
AcDbEntity
  8
MEGA_002032
  6
Continuous
 62
     7
100
AcDbLine
 10
49.8077091502
 20
100.5351050343
 30
0.0
 11
49.8077091502
 21
87.5600605501
 31
0.0
  0
LINE
  5
212
330
11D
100
AcDbEntity
  8
MEGA_002032
  6
Continuous
 62
     7
100
AcDbLine
 10
49.8077091502
 20
107.5600605501
 30
0.0
 11
52.8077091502
 21
107.5600605501
 31
0.0
  0
LINE
  5
213
330
11D
100
AcDbEntity
  8
MEGA_002032
  6
Continuous
 62
     7
100
AcDbLine
 10
52.8077091502
 20
87.5600605501
 30
0.0
 11
52.8077091502
 21
100.5351050343
 31
0.0
  0
LINE
  5
214
330
11D
100
AcDbEntity
  8
MEGA_002032
  6
Continuous
 62
     7
100
AcDbLine
 10
52.8077091502
 20
82.2600605501
 30
0.0
 11
52.8077091502
 21
87.5600605501
 31
0.0
  0
LINE
  5
215
330
11D
100
AcDbEntity
  8
MEGA_002032
  6
Continuous
 62
     7
100
AcDbLine
 10
52.8077091502
 20
113.5600605501
 30
0.0
 11
52.8077091502
 21
122.3600605501
 31
0.0
  0
LINE
  5
216
330
11D
100
AcDbEntity
  8
MEGA_002032
  6
Continuous
 62
     7
100
AcDbLine
 10
52.8077091502
 20
107.5600605501
 30
0.0
 11
52.8077091502
 21
113.5600605501
 31
0.0
  0
LINE
  5
217
330
11D
100
AcDbEntity
  8
MEGA_002032
  6
Continuous
 62
     7
100
AcDbLine
 10
52.8077091502
 20
100.5351050343
 30
0.0
 11
52.8077091502
 21
107.5600605501
 31
0.0
  0
LINE
  5
218
330
11D
100
AcDbEntity
  8
MEGA_002032
  6
Continuous
 62
     7
100
AcDbLine
 10
52.8077091502
 20
75.0100605501
 30
0.0
 11
52.8077091502
 21
67.5600605501
 31
0.0
  0
LINE
  5
219
330
11D
100
AcDbEntity
  8
MEGA_002032
  6
Continuous
 62
     7
100
AcDbLine
 10
52.0577091502
 20
74.2600605501
 30
0.0
 11
52.0577091502
 21
68.2600605501
 31
0.0
  0
LINE
  5
21A
330
11D
100
AcDbEntity
  8
MEGA_002032
  6
Continuous
 62
     7
100
AcDbLine
 10
52.8077091502
 20
138.0100605501
 30
0.0
 11
52.8077091502
 21
130.5100605501
 31
0.0
  0
LINE
  5
21B
330
11D
100
AcDbEntity
  8
MEGA_002032
  6
Continuous
 62
     7
100
AcDbLine
 10
52.0577091502
 20
137.2600605501
 30
0.0
 11
52.0577091502
 21
131.2600605501
 31
0.0
  0
LINE
  5
21C
330
11D
100
AcDbEntity
  8
MEGA_002032
  6
Continuous
 62
     7
100
AcDbLine
 10
52.7577091502
 20
67.5600605501
 30
0.0
 11
49.8077091502
 21
67.5600605501
 31
0.0
  0
LINE
  5
21D
330
11D
100
AcDbEntity
  8
MEGA_002032
  6
Continuous
 62
     7
100
AcDbLine
 10
49.8077091502
 20
68.2600605501
 30
0.0
 11
49.8077091502
 21
67.5600605501
 31
0.0
  0
LINE
  5
21E
330
11D
100
AcDbEntity
  8
MEGA_002032
  6
Continuous
 62
     7
100
AcDbLine
 10
52.0577091502
 20
68.2600605501
 30
0.0
 11
52.7577091502
 21
67.5600605501
 31
0.0
  0
LINE
  5
21F
330
11D
100
AcDbEntity
  8
MEGA_002032
  6
Continuous
 62
     7
100
AcDbLine
 10
49.8077091502
 20
68.2600605501
 30
0.0
 11
52.0577091502
 21
68.2600605501
 31
0.0
  0
LINE
  5
220
330
11D
100
AcDbEntity
  8
MEGA_002032
  6
Continuous
 62
     7
100
AcDbLine
 10
49.8077091502
 20
82.2600605501
 30
0.0
 11
52.8077091502
 21
82.2600605501
 31
0.0
  0
LINE
  5
221
330
11D
100
AcDbEntity
  8
MEGA_002032
  6
Continuous
 62
     7
100
AcDbLine
 10
49.8077091502
 20
82.2600605501
 30
0.0
 11
49.8077091502
 21
74.2600605501
 31
0.0
  0
LINE
  5
222
330
11D
100
AcDbEntity
  8
MEGA_002032
  6
Continuous
 62
     7
100
AcDbLine
 10
52.8077091502
 20
82.2600605501
 30
0.0
 11
52.8077091502
 21
75.0100605501
 31
0.0
  0
LINE
  5
223
330
11D
100
AcDbEntity
  8
MEGA_002032
  6
Continuous
 62
     7
100
AcDbLine
 10
52.8077091502
 20
75.0100605501
 30
0.0
 11
52.0577091502
 21
74.2600605501
 31
0.0
  0
LINE
  5
224
330
11D
100
AcDbEntity
  8
MEGA_002032
  6
Continuous
 62
     7
100
AcDbLine
 10
52.0577091502
 20
74.2600605501
 30
0.0
 11
49.8077091502
 21
74.2600605501
 31
0.0
  0
LINE
  5
225
330
11D
100
AcDbEntity
  8
MEGA_002032
  6
Continuous
 62
     7
100
AcDbLine
 10
52.8077091502
 20
122.3600605501
 30
0.0
 11
49.8077091502
 21
122.3600605501
 31
0.0
  0
LINE
  5
226
330
11D
100
AcDbEntity
  8
MEGA_002032
  6
Continuous
 62
     7
100
AcDbLine
 10
49.8077091502
 20
131.2600605501
 30
0.0
 11
49.8077091502
 21
122.3600605501
 31
0.0
  0
LINE
  5
227
330
11D
100
AcDbEntity
  8
MEGA_002032
  6
Continuous
 62
     7
100
AcDbLine
 10
52.8077091502
 20
130.5100605501
 30
0.0
 11
52.8077091502
 21
122.3600605501
 31
0.0
  0
LINE
  5
228
330
11D
100
AcDbEntity
  8
MEGA_002032
  6
Continuous
 62
     7
100
AcDbLine
 10
52.0577091502
 20
131.2600605501
 30
0.0
 11
52.8077091502
 21
130.5100605501
 31
0.0
  0
LINE
  5
229
330
11D
100
AcDbEntity
  8
MEGA_002032
  6
Continuous
 62
     7
100
AcDbLine
 10
49.8077091502
 20
156.5600605501
 30
0.0
 11
52.8077091502
 21
156.5600605501
 31
0.0
  0
LINE
  5
22A
330
11D
100
AcDbEntity
  8
MEGA_002032
  6
Continuous
 62
     7
100
AcDbLine
 10
49.8077091502
 20
156.5600605501
 30
0.0
 11
49.8077091502
 21
137.2600605501
 31
0.0
  0
LINE
  5
22B
330
11D
100
AcDbEntity
  8
MEGA_002032
  6
Continuous
 62
     7
100
AcDbLine
 10
52.8077091502
 20
156.5600605501
 30
0.0
 11
52.8077091502
 21
138.0100605501
 31
0.0
  0
LINE
  5
22C
330
11D
100
AcDbEntity
  8
MEGA_002032
  6
Continuous
 62
     7
100
AcDbLine
 10
52.8077091502
 20
138.0100605501
 30
0.0
 11
52.0577091502
 21
137.2600605501
 31
0.0
  0
HATCH
  5
22D
330
11D
100
AcDbEntity
  8
MEGA_002032
  6
Continuous
 62
     7
100
AcDbHatch
 10
0.0
 20
0.0
 30
0.0
210
0.0
220
0.0
230
1.0
  2
LINE
 70
     0
 71
     0
 91
        1
 92
        1
 93
        4
 72
     1
 10
52.75770915022978
 20
67.56006055013304
 11
52.05770915022978
 21
68.26006055013303
 72
     1
 10
52.05770915022978
 20
68.26006055013303
 11
49.80770915022978
 21
68.26006055013303
 72
     1
 10
49.80770915022978
 20
68.26006055013303
 11
49.80770915022978
 21
67.56006055013304
 72
     1
 10
49.80770915022978
 20
67.56006055013304
 11
52.75770915022977
 21
67.56006055013303
 97
        0
 75
     0
 76
     1
 52
135.0
 41
1.0
 77
     0
 78
     1
 53
135.0
 43
0.0
 44
0.0
 45
-2.245064030267288
 46
-2.245064030267288
 79
     0
 98
        0
  0
HATCH
  5
22E
330
11D
100
AcDbEntity
  8
MEGA_002032
  6
Continuous
 62
     7
100
AcDbHatch
 10
0.0
 20
0.0
 30
0.0
210
0.0
220
0.0
230
1.0
  2
LINE
 70
     0
 71
     0
 91
        1
 92
        1
 93
        5
 72
     1
 10
49.80770915022978
 20
82.26006055013302
 11
49.80770915022978
 21
74.26006055013303
 72
     1
 10
49.80770915022978
 20
74.26006055013302
 11
52.05770915022978
 21
74.26006055013303
 72
     1
 10
52.05770915022978
 20
74.26006055013303
 11
52.80770915022979
 21
75.01006055013303
 72
     1
 10
52.80770915022979
 20
75.01006055013303
 11
52.80770915022978
 21
82.260060550133
 72
     1
 10
52.80770915022978
 20
82.26006055013302
 11
49.80770915022978
 21
82.26006055013302
 97
        0
 75
     0
 76
     1
 52
135.0
 41
1.0
 77
     0
 78
     1
 53
135.0
 43
0.0
 44
0.0
 45
-2.245064030267288
 46
-2.245064030267288
 79
     0
 98
        0
  0
HATCH
  5
22F
330
11D
100
AcDbEntity
  8
MEGA_002032
  6
Continuous
 62
     7
100
AcDbHatch
 10
0.0
 20
0.0
 30
0.0
210
0.0
220
0.0
230
1.0
  2
LINE
 70
     0
 71
     0
 91
        1
 92
        1
 93
        5
 72
     1
 10
52.80770915022978
 20
122.360060550133
 11
52.80770915022978
 21
130.510060550133
 72
     1
 10
52.80770915022978
 20
130.510060550133
 11
52.05770915022978
 21
131.260060550133
 72
     1
 10
52.05770915022978
 20
131.260060550133
 11
49.80770915022978
 21
131.260060550133
 72
     1
 10
49.80770915022977
 20
131.260060550133
 11
49.80770915022978
 21
122.360060550133
 72
     1
 10
49.80770915022978
 20
122.360060550133
 11
52.80770915022978
 21
122.360060550133
 97
        0
 75
     0
 76
     1
 52
135.0
 41
1.0
 77
     0
 78
     1
 53
135.0
 43
0.0
 44
0.0
 45
-2.245064030267288
 46
-2.245064030267288
 79
     0
 98
        0
  0
HATCH
  5
230
330
11D
100
AcDbEntity
  8
MEGA_002032
  6
Continuous
 62
     7
100
AcDbHatch
 10
0.0
 20
0.0
 30
0.0
210
0.0
220
0.0
230
1.0
  2
LINE
 70
     0
 71
     0
 91
        1
 92
        1
 93
        5
 72
     1
 10
49.80770915022977
 20
156.560060550133
 11
49.80770915022977
 21
137.260060550133
 72
     1
 10
49.80770915022977
 20
137.260060550133
 11
52.05770915022978
 21
137.260060550133
 72
     1
 10
52.05770915022978
 20
137.260060550133
 11
52.80770915022978
 21
138.010060550133
 72
     1
 10
52.80770915022978
 20
138.010060550133
 11
52.80770915022978
 21
156.560060550133
 72
     1
 10
52.80770915022978
 20
156.560060550133
 11
49.80770915022978
 21
156.560060550133
 97
        0
 75
     0
 76
     1
 52
135.0
 41
1.0
 77
     0
 78
     1
 53
135.0
 43
0.0
 44
0.0
 45
-2.245064030267288
 46
-2.245064030267288
 79
     0
 98
        0
  0
ARC
  5
231
330
11D
100
AcDbEntity
  8
MEGA_000863
  6
Continuous
 62
     7
100
AcDbCircle
 10
52.0577091502
 20
176.2600605501
 30
0.0
 40
0.2500000000000002
100
AcDbArc
 50
180.0
 51
0.0
  0
ARC
  5
232
330
11D
100
AcDbEntity
  8
MEGA_000863
  6
Continuous
 62
     7
100
AcDbCircle
 10
52.0577091502
 20
194.2600605501
 30
0.0
 40
0.2500000000000001
100
AcDbArc
 50
0.0
 51
180.0
  0
LINE
  5
233
330
11D
100
AcDbEntity
  8
MEGA_000863
  6
Continuous
 62
     7
100
AcDbLine
 10
43.8077091502
 20
177.0600605501
 30
0.0
 11
43.8077091502
 21
193.4600605501
 31
0.0
  0
LINE
  5
234
330
11D
100
AcDbEntity
  8
MEGA_000863
  6
Continuous
 62
     7
100
AcDbLine
 10
54.3077091502
 20
177.0600605501
 30
0.0
 11
54.3077091502
 21
193.4600605501
 31
0.0
  0
LINE
  5
235
330
11D
100
AcDbEntity
  8
MEGA_000863
  6
Continuous
 62
     7
100
AcDbLine
 10
54.3077091502
 20
177.0600605501
 30
0.0
 11
54.3077091502
 21
176.2600605501
 31
0.0
  0
LINE
  5
236
330
11D
100
AcDbEntity
  8
MEGA_000863
  6
Continuous
 62
     7
100
AcDbLine
 10
43.8077091502
 20
177.0600605501
 30
0.0
 11
54.3077091502
 21
177.0600605501
 31
0.0
  0
LINE
  5
237
330
11D
100
AcDbEntity
  8
MEGA_000863
  6
Continuous
 62
     7
100
AcDbLine
 10
43.8077091502
 20
174.4242741125
 30
0.0
 11
43.8077091502
 21
177.0600605501
 31
0.0
  0
ARC
  5
238
330
11D
100
AcDbEntity
  8
MEGA_000863
  6
Continuous
 62
     7
100
AcDbCircle
 10
45.3077091502
 20
174.4242741125
 30
0.0
 40
1.500000000000002
100
AcDbArc
 50
180.0
 51
250.5287793655
  0
LINE
  5
239
330
11D
100
AcDbEntity
  8
MEGA_000863
  6
Continuous
 62
     7
100
AcDbLine
 10
44.8077091502
 20
176.2600605501
 30
0.0
 11
44.8077091502
 21
173.0100605501
 31
0.0
  0
LINE
  5
23A
330
11D
100
AcDbEntity
  8
MEGA_000863
  6
Continuous
 62
     7
100
AcDbLine
 10
51.8077091502
 20
176.2600605501
 30
0.0
 11
44.8077091502
 21
176.2600605501
 31
0.0
  0
LINE
  5
23B
330
11D
100
AcDbEntity
  8
MEGA_000863
  6
Continuous
 62
     7
100
AcDbLine
 10
54.3077091502
 20
176.2600605501
 30
0.0
 11
52.3077091502
 21
176.2600605501
 31
0.0
  0
LINE
  5
23C
330
11D
100
AcDbEntity
  8
MEGA_000863
  6
Continuous
 62
     7
100
AcDbLine
 10
54.3077091502
 20
194.2600605501
 30
0.0
 11
54.3077091502
 21
193.4600605501
 31
0.0
  0
LINE
  5
23D
330
11D
100
AcDbEntity
  8
MEGA_000863
  6
Continuous
 62
     7
100
AcDbLine
 10
54.3077091502
 20
193.4600605501
 30
0.0
 11
43.8077091502
 21
193.4600605501
 31
0.0
  0
LINE
  5
23E
330
11D
100
AcDbEntity
  8
MEGA_000863
  6
Continuous
 62
     7
100
AcDbLine
 10
43.8077091502
 20
193.4600605501
 30
0.0
 11
43.8077091502
 21
196.0958469878
 31
0.0
  0
ARC
  5
23F
330
11D
100
AcDbEntity
  8
MEGA_000863
  6
Continuous
 62
     7
100
AcDbCircle
 10
45.3077091502
 20
196.0958469878
 30
0.0
 40
1.500000000000001
100
AcDbArc
 50
109.4712206345
 51
180.0
  0
LINE
  5
240
330
11D
100
AcDbEntity
  8
MEGA_000863
  6
Continuous
 62
     7
100
AcDbLine
 10
44.8077091502
 20
197.5100605501
 30
0.0
 11
44.8077091502
 21
194.2600605501
 31
0.0
  0
LINE
  5
241
330
11D
100
AcDbEntity
  8
MEGA_000863
  6
Continuous
 62
     7
100
AcDbLine
 10
44.8077091502
 20
194.2600605501
 30
0.0
 11
51.8077091502
 21
194.2600605501
 31
0.0
  0
LINE
  5
242
330
11D
100
AcDbEntity
  8
MEGA_000863
  6
Continuous
 62
     7
100
AcDbLine
 10
52.3077091502
 20
194.2600605501
 30
0.0
 11
54.3077091502
 21
194.2600605501
 31
0.0
  0
HATCH
  5
243
330
11D
100
AcDbEntity
  8
MEGA_000863
  6
Continuous
 62
     7
100
AcDbHatch
 10
0.0
 20
0.0
 30
0.0
210
0.0
220
0.0
230
1.0
  2
LINE
 70
     0
 71
     0
 91
        1
 92
        1
 93
        8
 72
     1
 10
54.30770915022978
 20
177.060060550133
 11
43.80770915022978
 21
177.060060550133
 72
     1
 10
43.80770915022978
 20
177.060060550133
 11
43.80770915022978
 21
174.4242741125061
 72
     2
 10
45.30770915022978
 20
174.4242741125061
 40
1.5
 50
180.0
 51
250.5287793655095
 73
     1
 72
     1
 10
44.80770915022978
 20
173.010060550133
 11
44.80770915022978
 21
176.260060550133
 72
     1
 10
44.80770915022978
 20
176.260060550133
 11
51.80770915022978
 21
176.260060550133
 72
     2
 10
52.05770915022978
 20
176.260060550133
 40
0.25
 50
180.0
 51
360.0
 73
     1
 72
     1
 10
52.30770915022978
 20
176.260060550133
 11
54.30770915022978
 21
176.260060550133
 72
     1
 10
54.30770915022978
 20
176.260060550133
 11
54.30770915022978
 21
177.060060550133
 97
        0
 75
     0
 76
     1
 52
45.0
 41
2.0
 77
     0
 78
     1
 53
45.0
 43
0.0
 44
0.0
 45
-4.490128060534576
 46
4.490128060534577
 79
     0
 98
        0
  0
HATCH
  5
244
330
11D
100
AcDbEntity
  8
MEGA_000863
  6
Continuous
 62
     7
100
AcDbHatch
 10
0.0
 20
0.0
 30
0.0
210
0.0
220
0.0
230
1.0
  2
LINE
 70
     0
 71
     0
 91
        1
 92
        1
 93
        8
 72
     1
 10
54.30770915022978
 20
194.260060550133
 11
52.30770915022978
 21
194.260060550133
 72
     2
 10
52.05770915022978
 20
194.260060550133
 40
0.25
 50
0.0
 51
180.0
 73
     1
 72
     1
 10
51.80770915022978
 20
194.260060550133
 11
44.80770915022978
 21
194.260060550133
 72
     1
 10
44.80770915022978
 20
194.260060550133
 11
44.80770915022978
 21
197.510060550133
 72
     2
 10
45.30770915022978
 20
196.09584698776
 40
1.5
 50
109.4712206344909
 51
180.0
 73
     1
 72
     1
 10
43.80770915022978
 20
196.09584698776
 11
43.80770915022978
 21
193.4600605501331
 72
     1
 10
43.80770915022978
 20
193.4600605501331
 11
54.30770915022978
 21
193.4600605501331
 72
     1
 10
54.30770915022978
 20
193.4600605501331
 11
54.30770915022978
 21
194.260060550133
 97
        0
 75
     0
 76
     1
 52
45.0
 41
2.0
 77
     0
 78
     1
 53
45.0
 43
0.0
 44
0.0
 45
-4.490128060534576
 46
4.490128060534577
 79
     0
 98
        0
  0
LINE
  5
245
330
11D
100
AcDbEntity
  8
MEGA_002006
  6
Continuous
 62
     7
100
AcDbLine
 10
34.6077091502
 20
115.9350246305
 30
0.0
 11
49.6077091502
 21
115.9350246305
 31
0.0
  0
LINE
  5
246
330
11D
100
AcDbEntity
  8
MEGA_002006
  6
Continuous
 62
     7
100
AcDbLine
 10
49.6077091502
 20
87.4850605501
 30
0.0
 11
49.6077091502
 21
82.3351212301
 31
0.0
  0
LINE
  5
247
330
11D
100
AcDbEntity
  8
MEGA_002006
  6
Continuous
 62
     7
100
AcDbLine
 10
49.6077091502
 20
100.2231064716
 30
0.0
 11
49.6077091502
 21
87.4850605501
 31
0.0
  0
LINE
  5
248
330
11D
100
AcDbEntity
  8
MEGA_002006
  6
Continuous
 62
     7
100
AcDbLine
 10
49.6077091502
 20
115.9350246305
 30
0.0
 11
49.6077091502
 21
100.2231064716
 31
0.0
  0
LINE
  5
249
330
11D
100
AcDbEntity
  8
MEGA_002006
  6
Continuous
 62
     7
100
AcDbLine
 10
49.6077091502
 20
100.2231064716
 30
0.0
 11
34.6077091502
 21
100.2231064716
 31
0.0
  0
LINE
  5
24A
330
11D
100
AcDbEntity
  8
MEGA_002006
  6
Continuous
 62
     7
100
AcDbLine
 10
34.6077091502
 20
100.2231064716
 30
0.0
 11
34.6077091502
 21
115.9350246305
 31
0.0
  0
LINE
  5
24B
330
11D
100
AcDbEntity
  8
MEGA_002006
  6
Continuous
 62
     7
100
AcDbLine
 10
34.6077091502
 20
87.4850605501
 30
0.0
 11
34.6077091502
 21
100.2231064716
 31
0.0
  0
LINE
  5
24C
330
11D
100
AcDbEntity
  8
MEGA_002006
  6
Continuous
 62
     7
100
AcDbLine
 10
34.6077091502
 20
82.3351212301
 30
0.0
 11
34.6077091502
 21
87.4850605501
 31
0.0
  0
LINE
  5
24D
330
11D
100
AcDbEntity
  8
MEGA_002006
  6
Continuous
 62
     7
100
AcDbLine
 10
47.6077091502
 20
77.1850605501
 30
0.0
 11
44.6077091502
 21
77.1850605501
 31
0.0
  0
LINE
  5
24E
330
11D
100
AcDbEntity
  8
MEGA_002006
  6
Continuous
 62
     7
100
AcDbLine
 10
47.6077091502
 20
74.9850605501
 30
0.0
 11
47.6077091502
 21
77.1850605501
 31
0.0
  0
LINE
  5
24F
330
11D
100
AcDbEntity
  8
MEGA_002006
  6
Continuous
 62
     7
100
AcDbLine
 10
49.6077091502
 20
74.9850605501
 30
0.0
 11
47.6077091502
 21
74.9850605501
 31
0.0
  0
LINE
  5
250
330
11D
100
AcDbEntity
  8
MEGA_002006
  6
Continuous
 62
     7
100
AcDbLine
 10
44.6077091502
 20
77.1850605501
 30
0.0
 11
34.6077091502
 21
80.9850605501
 31
0.0
  0
LINE
  5
251
330
11D
100
AcDbEntity
  8
MEGA_002006
  6
Continuous
 62
     7
100
AcDbLine
 10
34.6077091502
 20
82.3351212301
 30
0.0
 11
34.6077091502
 21
80.9850605501
 31
0.0
  0
LINE
  5
252
330
11D
100
AcDbEntity
  8
MEGA_002006
  6
Continuous
 62
     7
100
AcDbLine
 10
49.6077091502
 20
74.9850605501
 30
0.0
 11
49.6077091502
 21
82.3351212301
 31
0.0
  0
LINE
  5
253
330
11D
100
AcDbEntity
  8
MEGA_002006
  6
Continuous
 62
     7
100
AcDbLine
 10
49.6077091502
 20
82.3351212301
 30
0.0
 11
34.6077091502
 21
82.3351212301
 31
0.0
  0
LINE
  5
254
330
11D
100
AcDbEntity
  8
MEGA_002006
  6
Continuous
 62
     7
100
AcDbLine
 10
44.6077091502
 20
120.7850605501
 30
0.0
 11
47.6077091502
 21
120.7850605501
 31
0.0
  0
LINE
  5
255
330
11D
100
AcDbEntity
  8
MEGA_002006
  6
Continuous
 62
     7
100
AcDbLine
 10
47.6077091502
 20
120.7850605501
 30
0.0
 11
47.6077091502
 21
122.9850605501
 31
0.0
  0
LINE
  5
256
330
11D
100
AcDbEntity
  8
MEGA_002006
  6
Continuous
 62
     7
100
AcDbLine
 10
47.6077091502
 20
122.9850605501
 30
0.0
 11
49.6077091502
 21
122.9850605501
 31
0.0
  0
LINE
  5
257
330
11D
100
AcDbEntity
  8
MEGA_002006
  6
Continuous
 62
     7
100
AcDbLine
 10
44.6077091502
 20
120.7850605501
 30
0.0
 11
34.6077091502
 21
116.9850605501
 31
0.0
  0
LINE
  5
258
330
11D
100
AcDbEntity
  8
MEGA_002006
  6
Continuous
 62
     7
100
AcDbLine
 10
34.6077091502
 20
116.9850605501
 30
0.0
 11
34.6077091502
 21
115.9350246305
 31
0.0
  0
LINE
  5
259
330
11D
100
AcDbEntity
  8
MEGA_002006
  6
Continuous
 62
     7
100
AcDbLine
 10
49.6077091502
 20
115.9350246305
 30
0.0
 11
49.6077091502
 21
122.9850605501
 31
0.0
  0
HATCH
  5
25A
330
11D
100
AcDbEntity
  8
MEGA_002006
  6
Continuous
 62
     7
100
AcDbHatch
 10
0.0
 20
0.0
 30
0.0
210
0.0
220
0.0
230
1.0
  2
LINE
 70
     0
 71
     0
 91
        1
 92
        1
 93
        7
 72
     1
 10
47.60770915022978
 20
77.18506055013304
 11
47.60770915022977
 21
74.98506055013304
 72
     1
 10
47.60770915022977
 20
74.98506055013304
 11
49.60770915022977
 21
74.98506055013304
 72
     1
 10
49.60770915022977
 20
74.98506055013304
 11
49.60770915022977
 21
82.33512123010217
 72
     1
 10
49.60770915022977
 20
82.33512123010217
 11
34.60770915022977
 21
82.33512123010219
 72
     1
 10
34.60770915022977
 20
82.33512123010219
 11
34.60770915022977
 21
80.98506055013304
 72
     1
 10
34.60770915022977
 20
80.98506055013303
 11
44.60770915022978
 21
77.18506055013302
 72
     1
 10
44.60770915022977
 20
77.18506055013302
 11
47.60770915022977
 21
77.18506055013304
 97
        0
 75
     0
 76
     1
 52
135.0
 41
2.0
 77
     0
 78
     1
 53
135.0
 43
0.0
 44
0.0
 45
-4.490128060534577
 46
-4.490128060534576
 79
     0
 98
        0
  0
HATCH
  5
25B
330
11D
100
AcDbEntity
  8
MEGA_002006
  6
Continuous
 62
     7
100
AcDbHatch
 10
0.0
 20
0.0
 30
0.0
210
0.0
220
0.0
230
1.0
  2
LINE
 70
     0
 71
     0
 91
        1
 92
        1
 93
        7
 72
     1
 10
44.60770915022979
 20
120.7850605501331
 11
34.60770915022978
 21
116.9850605501331
 72
     1
 10
34.60770915022978
 20
116.9850605501331
 11
34.60770915022979
 21
115.9350246305187
 72
     1
 10
34.60770915022979
 20
115.9350246305187
 11
49.60770915022977
 21
115.9350246305187
 72
     1
 10
49.60770915022977
 20
115.9350246305187
 11
49.60770915022978
 21
122.9850605501331
 72
     1
 10
49.60770915022978
 20
122.9850605501331
 11
47.60770915022979
 21
122.985060550133
 72
     1
 10
47.60770915022979
 20
122.985060550133
 11
47.60770915022979
 21
120.7850605501331
 72
     1
 10
47.60770915022979
 20
120.7850605501331
 11
44.60770915022979
 21
120.7850605501331
 97
        0
 75
     0
 76
     1
 52
135.0
 41
2.0
 77
     0
 78
     1
 53
135.0
 43
0.0
 44
0.0
 45
-4.490128060534577
 46
-4.490128060534576
 79
     0
 98
        0
  0
LINE
  5
25C
330
11D
100
AcDbEntity
  8
MEGA_000572
  6
Continuous
 62
     7
100
AcDbLine
 10
60.0113014954
 20
44.5100605501
 30
0.0
 11
60.0113014954
 21
38.0100605501
 31
0.0
  0
LINE
  5
25D
330
11D
100
AcDbEntity
  8
MEGA_000572
  6
Continuous
 62
     7
100
AcDbLine
 10
59.5113014954
 20
37.5100605501
 30
0.0
 11
59.5113014954
 21
45.0100605501
 31
0.0
  0
LINE
  5
25E
330
11D
100
AcDbEntity
  8
MEGA_000572
  6
Continuous
 62
     7
100
AcDbLine
 10
59.5113014954
 20
45.0100605501
 30
0.0
 11
53.0077091502
 21
45.0100605501
 31
0.0
  0
LINE
  5
25F
330
11D
100
AcDbEntity
  8
MEGA_000572
  6
Continuous
 62
     7
100
AcDbLine
 10
53.0077091502
 20
37.5100605501
 30
0.0
 11
59.5113014954
 21
37.5100605501
 31
0.0
  0
LINE
  5
260
330
11D
100
AcDbEntity
  8
MEGA_000572
  6
Continuous
 62
     7
100
AcDbLine
 10
59.5113014954
 20
37.5100605501
 30
0.0
 11
60.0113014954
 21
38.0100605501
 31
0.0
  0
LINE
  5
261
330
11D
100
AcDbEntity
  8
MEGA_000572
  6
Continuous
 62
     7
100
AcDbLine
 10
60.0113014954
 20
44.5100605501
 30
0.0
 11
59.5113014954
 21
45.0100605501
 31
0.0
  0
LINE
  5
262
330
11D
100
AcDbEntity
  8
MEGA_000572
  6
Continuous
 62
     7
100
AcDbLine
 10
60.0113014954
 20
160.6600982761
 30
0.0
 11
59.5113014954
 21
161.1601072586
 31
0.0
  0
LINE
  5
263
330
11D
100
AcDbEntity
  8
MEGA_000572
  6
Continuous
 62
     7
100
AcDbLine
 10
59.5113014954
 20
165.3600138417
 30
0.0
 11
60.0113014954
 21
165.8600228242
 31
0.0
  0
LINE
  5
264
330
11D
100
AcDbEntity
  8
MEGA_000572
  6
Continuous
 62
     7
100
AcDbLine
 10
59.5113014954
 20
161.1601072586
 30
0.0
 11
59.5113014954
 21
165.3600138417
 31
0.0
  0
LINE
  5
265
330
11D
100
AcDbEntity
  8
MEGA_000572
  6
Continuous
 62
     7
100
AcDbLine
 10
60.0113014954
 20
165.8600228242
 30
0.0
 11
60.0113014954
 21
160.6600982761
 31
0.0
  0
LINE
  5
266
330
11D
100
AcDbEntity
  8
MEGA_000572
  6
Continuous
 62
     7
100
AcDbLine
 10
50.5113014954
 20
159.5100867067
 30
0.0
 11
50.5113014954
 21
158.5527265484
 31
0.0
  0
LINE
  5
267
330
11D
100
AcDbEntity
  8
MEGA_000572
  6
Continuous
 62
     7
100
AcDbLine
 10
50.5113014954
 20
158.5527265484
 30
0.0
 11
48.7290940787
 21
158.5527265484
 31
0.0
  0
LINE
  5
268
330
11D
100
AcDbEntity
  8
MEGA_000572
  6
Continuous
 62
     7
100
AcDbLine
 10
59.5113014954
 20
159.5100867067
 30
0.0
 11
50.5113014954
 21
159.5100867067
 31
0.0
  0
LINE
  5
269
330
11D
100
AcDbEntity
  8
MEGA_000572
  6
Continuous
 62
     7
100
AcDbLine
 10
59.5113014954
 20
159.5100867067
 30
0.0
 11
60.0113014954
 21
160.0100907308
 31
0.0
  0
SPLINE
  5
26A
330
11D
100
AcDbEntity
  8
MEGA_000572
  6
Continuous
 62
     7
100
AcDbSpline
210
0.0
220
0.0
230
1.0
 70
     8
 71
     3
 72
    53
 73
    49
 74
     0
 42
0.000000001
 43
0.0000000001
 40
0.0
 40
0.0
 40
0.0
 40
0.0
 40
0.079417440969917
 40
0.079417440969917
 40
0.079417440969917
 40
0.2962653693662354
 40
0.2962653693662354
 40
0.2962653693662354
 40
0.4034717649677259
 40
0.4034717649677259
 40
0.4034717649677259
 40
0.4564745203777424
 40
0.4564745203777424
 40
0.4564745203777424
 40
0.4826820855719375
 40
0.4826820855719375
 40
0.4826820855719375
 40
0.4956467563687935
 40
0.4956467563687935
 40
0.4956467563687935
 40
0.5020727874777586
 40
0.5020727874777586
 40
0.5020727874777586
 40
0.5052835356059139
 40
0.5052835356059139
 40
0.5052835356059139
 40
0.5068756414537576
 40
0.5068756414537576
 40
0.5068756414537576
 40
0.5078581435613903
 40
0.5078581435613903
 40
0.5078581435613903
 40
0.5088582847079045
 40
0.5088582847079045
 40
0.5088582847079045
 40
0.5125134667735008
 40
0.5125134667735008
 40
0.5125134667735008
 40
0.5269585699493698
 40
0.5269585699493698
 40
0.5269585699493698
 40
0.5847317343149466
 40
0.5847317343149466
 40
0.5847317343149466
 40
0.8158242670738022
 40
0.8158242670738022
 40
0.8158242670738022
 40
1.0
 40
1.0
 40
1.0
 40
1.0
 10
48.72909407868475
 20
158.5527265483748
 30
0.0
 10
48.58754881543598
 20
158.7978912211057
 30
0.0
 10
48.44600362309021
 20
159.0430559347724
 30
0.0
 10
48.30445854998742
 20
159.2882207172835
 30
0.0
 10
47.91797221270311
 20
159.9576388520641
 30
0.0
 10
47.53148583352619
 20
160.6270569626789
 30
0.0
 10
47.14500506786206
 20
161.296478314185
 30
0.0
 10
46.95393471657678
 20
161.6274302894284
 30
0.0
 10
46.76286428061613
 20
161.9583822159575
 30
0.0
 10
46.57180519916663
 20
162.2893406974222
 30
0.0
 10
46.47734574366505
 20
162.452966303259
 30
0.0
 10
46.38288611740269
 20
162.616591811939
 30
0.0
 10
46.2884494572358
 20
162.7802305751818
 30
0.0
 10
46.241754622681
 20
162.8611428497463
 30
0.0
 10
46.1950594469934
 20
162.9420549391957
 30
0.0
 10
46.14841071687393
 20
163.0229938033312
 30
0.0
 10
46.12533397208458
 20
163.0630335966206
 30
0.0
 10
46.10225657293572
 20
163.1030731096493
 30
0.0
 10
46.07927304779767
 20
163.1431664852737
 30
0.0
 10
46.06788114269067
 20
163.1630389777564
 30
0.0
 10
46.05648821962009
 20
163.1829116748924
 30
0.0
 10
46.04528454570297
 20
163.2028908928501
 30
0.0
 10
46.03968699398117
 20
163.2128728600786
 30
0.0
 10
46.03409023516363
 20
163.2228613436476
 30
0.0
 10
46.02887013312754
 20
163.2330457822557
 30
0.0
 10
46.0262833527566
 20
163.2380926004402
 30
0.0
 10
46.02373736757408
 20
163.2431889841424
 30
0.0
 10
46.02178215620279
 20
163.248512418651
 30
0.0
 10
46.0205813058721
 20
163.2517819618749
 30
0.0
 10
46.01962159908402
 20
163.2552150801206
 30
0.0
 10
46.01942644488962
 20
163.2586927042018
 30
0.0
 10
46.01922885936503
 20
163.2622136542923
 30
0.0
 10
46.01988719113773
 20
163.2657986035661
 30
0.0
 10
46.02094548860531
 20
163.2691625500654
 30
0.0
 10
46.02482043790281
 20
163.2814796183033
 30
0.0
 10
46.03169502810713
 20
163.2926692843172
 30
0.0
 10
46.03791818997871
 20
163.3039828893287
 30
0.0
 10
46.06253887372842
 20
163.3487428838146
 30
0.0
 10
46.08835736309502
 20
163.3928341863762
 30
0.0
 10
46.11383992343706
 20
163.4371091713349
 30
0.0
 10
46.21575812308987
 20
163.6141881891448
 30
0.0
 10
46.3179895766816
 20
163.7910867398386
 30
0.0
 10
46.4201316934011
 20
163.9680366931052
 30
0.0
 10
46.82869995210845
 20
164.6758361455389
 30
0.0
 10
47.23734689705286
 20
165.383590174603
 30
0.0
 10
47.64597136656312
 20
166.0913571770875
 30
0.0
 10
47.97163619992759
 20
166.6554321166066
 30
0.0
 10
48.29730256954646
 20
167.2195061691791
 30
0.0
 10
48.62296922070067
 20
167.7835800592057
 30
0.0
  0
LINE
  5
26B
330
11D
100
AcDbEntity
  8
MEGA_000572
  6
Continuous
 62
     7
100
AcDbLine
 10
60.0113014954
 20
160.6600982761
 30
0.0
 11
60.0113014954
 21
160.0100907308
 31
0.0
  0
LINE
  5
26C
330
11D
100
AcDbEntity
  8
MEGA_000572
  6
Continuous
 62
     7
100
AcDbLine
 10
50.5113014954
 20
167.7835800592
 30
0.0
 11
48.6229692207
 21
167.7835800592
 31
0.0
  0
LINE
  5
26D
330
11D
100
AcDbEntity
  8
MEGA_000572
  6
Continuous
 62
     7
100
AcDbLine
 10
50.5113014954
 20
167.7835800592
 30
0.0
 11
50.5113014954
 21
167.0100343936
 31
0.0
  0
LINE
  5
26E
330
11D
100
AcDbEntity
  8
MEGA_000572
  6
Continuous
 62
     7
100
AcDbLine
 10
50.5113014954
 20
167.0100343936
 30
0.0
 11
59.5113014954
 21
167.0100343936
 31
0.0
  0
LINE
  5
26F
330
11D
100
AcDbEntity
  8
MEGA_000572
  6
Continuous
 62
     7
100
AcDbLine
 10
60.0113014954
 20
166.5100303695
 30
0.0
 11
59.5113014954
 21
167.0100343936
 31
0.0
  0
LINE
  5
270
330
11D
100
AcDbEntity
  8
MEGA_000572
  6
Continuous
 62
     7
100
AcDbLine
 10
48.0113014954
 20
161.1601072586
 30
0.0
 11
59.5113014954
 21
161.1601072586
 31
0.0
  0
SPLINE
  5
271
330
11D
100
AcDbEntity
  8
MEGA_000572
  6
Continuous
 62
     7
100
AcDbSpline
210
0.0
220
0.0
230
1.0
 70
     8
 71
     3
 72
    47
 73
    43
 74
     0
 42
0.000000001
 43
0.0000000001
 40
0.0
 40
0.0
 40
0.0
 40
0.0
 40
0.3190446006313841
 40
0.3190446006313841
 40
0.3190446006313841
 40
0.4563730210235574
 40
0.4563730210235574
 40
0.4563730210235574
 40
0.4907083809568362
 40
0.4907083809568362
 40
0.4907083809568362
 40
0.4993841828826368
 40
0.4993841828826368
 40
0.4993841828826368
 40
0.5014545832393815
 40
0.5014545832393815
 40
0.5014545832393815
 40
0.5035115718814736
 40
0.5035115718814736
 40
0.5035115718814736
 40
0.5067267040669792
 40
0.5067267040669792
 40
0.5067267040669792
 40
0.5131257591573357
 40
0.5131257591573357
 40
0.5131257591573357
 40
0.5259017978045626
 40
0.5259017978045626
 40
0.5259017978045626
 40
0.5516625742733307
 40
0.5516625742733307
 40
0.5516625742733307
 40
0.6037294763310302
 40
0.6037294763310302
 40
0.6037294763310302
 40
0.709027027590365
 40
0.709027027590365
 40
0.709027027590365
 40
0.9220060331168738
 40
0.9220060331168738
 40
0.9220060331168738
 40
1.0
 40
1.0
 40
1.0
 40
1.0
 10
48.01130149538462
 20
165.3600138416582
 30
0.0
 10
47.75453439042369
 20
164.9152702781089
 30
0.0
 10
47.49776174618857
 20
164.4705299116713
 30
0.0
 10
47.24102256911959
 20
164.0257702254739
 30
0.0
 10
47.13051267554918
 20
163.8343294561016
 30
0.0
 10
47.01991983680019
 20
163.6429364351899
 30
0.0
 10
46.90961755100773
 20
163.4513759734454
 30
0.0
 10
46.88203951575798
 20
163.4034815791589
 30
0.0
 10
46.85414370452079
 20
163.3557622680888
 30
0.0
 10
46.82737466531983
 20
163.307411057426
 30
0.0
 10
46.82061684689477
 20
163.2952048403915
 30
0.0
 10
46.81315742377984
 20
163.2831635063058
 30
0.0
 10
46.808756281222
 20
163.2699238013112
 30
0.0
 10
46.80770588805076
 20
163.2667639637161
 30
0.0
 10
46.80695764245613
 20
163.2634283100688
 30
0.0
 10
46.8069524383737
 20
163.2600984643728
 30
0.0
 10
46.80694726781556
 20
163.256790069287
 30
0.0
 10
46.80767712496552
 20
163.2534728300265
 30
0.0
 10
46.80871219760339
 20
163.2503305172775
 30
0.0
 10
46.81033916569144
 20
163.2453913058847
 30
0.0
 10
46.81260733782759
 20
163.2406751557969
 30
0.0
 10
46.8149286934629
 20
163.2360217546368
 30
0.0
 10
46.81955323527789
 20
163.2267513748988
 30
0.0
 10
46.82459284608819
 20
163.2176918481458
 30
0.0
 10
46.82963438918843
 20
163.2086414796088
 30
0.0
 10
46.8397009738807
 20
163.1905703653563
 30
0.0
 10
46.84997706267387
 20
163.1726164906414
 30
0.0
 10
46.86025212918766
 20
163.1546630980418
 30
0.0
 10
46.88097022307336
 20
163.1184628386135
 30
0.0
 10
46.90179232334436
 20
163.0823221709922
 30
0.0
 10
46.92261371049565
 20
163.0461812242139
 30
0.0
 10
46.96469728251104
 20
162.9731342112843
 30
0.0
 10
47.00683232254377
 20
162.9001168580824
 30
0.0
 10
47.04896698596548
 20
162.8270993035503
 30
0.0
 10
47.13417806624723
 20
162.6794321763934
 30
0.0
 10
47.21941459718603
 20
162.5317797364864
 30
0.0
 10
47.30465093906025
 20
162.3841271893716
 30
0.0
 10
47.47705334663712
 20
162.0854792881629
 30
0.0
 10
47.64946833723169
 20
161.7868386509538
 30
0.0
 10
47.82188323400989
 20
161.4881979598154
 30
0.0
 10
47.88502242332683
 20
161.3788342593006
 30
0.0
 10
47.94816187989684
 20
161.2694707130795
 30
0.0
 10
48.01130149538462
 20
161.1601072586081
 30
0.0
  0
LINE
  5
272
330
11D
100
AcDbEntity
  8
MEGA_000572
  6
Continuous
 62
     7
100
AcDbLine
 10
60.0113014954
 20
166.5100303695
 30
0.0
 11
60.0113014954
 21
165.8600228242
 31
0.0
  0
LINE
  5
273
330
11D
100
AcDbEntity
  8
MEGA_000572
  6
Continuous
 62
     7
100
AcDbLine
 10
59.5113014954
 20
165.3600138417
 30
0.0
 11
48.0113014954
 21
165.3600138417
 31
0.0
  0
HATCH
  5
274
330
11D
100
AcDbEntity
  8
MEGA_000572
  6
Continuous
 62
     7
100
AcDbHatch
 10
0.0
 20
0.0
 30
0.0
210
0.0
220
0.0
230
1.0
  2
LINE
 70
     0
 71
     0
 91
        1
 92
        1
 93
       16
 72
     1
 10
50.51130149538462
 20
159.5100867066794
 11
59.51130149538462
 21
159.5100867066794
 72
     1
 10
59.51130149538462
 20
159.5100867066794
 11
60.01130149538462
 21
160.0100907307984
 72
     1
 10
60.01130149538462
 20
160.0100907307984
 11
60.01130149538462
 21
160.6600982760632
 72
     1
 10
60.01130149538462
 20
160.6600982760632
 11
59.51130149538462
 21
161.1601072586081
 72
     1
 10
59.51130149538462
 20
161.1601072586081
 11
48.01130149538463
 21
161.1601072586081
 72
     4
 94
        3
 73
     0
 74
     0
 95
       47
 96
       43
 40
0.0099098033714422
 40
0.0099098033714422
 40
0.0099098033714422
 40
0.0099098033714422
 40
0.0102886473841293
 40
0.0102886473841293
 40
0.0102886473841293
 40
0.0113231610048132
 40
0.0113231610048132
 40
0.0113231610048132
 40
0.011834628089248
 40
0.011834628089248
 40
0.011834628089248
 40
0.0120875352677389
 40
0.0120875352677389
 40
0.0120875352677389
 40
0.0122126643811482
 40
0.0122126643811482
 40
0.0122126643811482
 40
0.0122747220753621
 40
0.0122747220753621
 40
0.0122747220753621
 40
0.0123058045270531
 40
0.0123058045270531
 40
0.0123058045270531
 40
0.0123214215501019
 40
0.0123214215501019
 40
0.0123214215501019
 40
0.012331413064348
 40
0.012331413064348
 40
0.012331413064348
 40
0.0123414697239893
 40
0.0123414697239893
 40
0.0123414697239893
 40
0.0123836111324366
 40
0.0123836111324366
 40
0.0123836111324366
 40
0.0125503900007774
 40
0.0125503900007774
 40
0.0125503900007774
 40
0.013217442234642
 40
0.013217442234642
 40
0.013217442234642
 40
0.0147671535977076
 40
0.0147671535977076
 40
0.0147671535977076
 40
0.0147671535977076
 10
48.01130149538462
 20
161.1601072586081
 10
47.94816187989684
 20
161.2694707130795
 10
47.88502242332683
 20
161.3788342593006
 10
47.82188323400989
 20
161.4881979598154
 10
47.64946833723169
 20
161.7868386509538
 10
47.47705334663712
 20
162.0854792881629
 10
47.30465093906025
 20
162.3841271893716
 10
47.21941459718603
 20
162.5317797364864
 10
47.13417806624723
 20
162.6794321763934
 10
47.04896698596548
 20
162.8270993035503
 10
47.00683232254377
 20
162.9001168580824
 10
46.96469728251104
 20
162.9731342112843
 10
46.92261371049565
 20
163.0461812242139
 10
46.90179232334436
 20
163.0823221709922
 10
46.88097022307336
 20
163.1184628386135
 10
46.86025212918766
 20
163.1546630980418
 10
46.84997706267387
 20
163.1726164906414
 10
46.8397009738807
 20
163.1905703653563
 10
46.82963438918843
 20
163.2086414796088
 10
46.82459284608819
 20
163.2176918481458
 10
46.81955323527789
 20
163.2267513748988
 10
46.8149286934629
 20
163.2360217546368
 10
46.81260733782759
 20
163.2406751557969
 10
46.81033916569144
 20
163.2453913058847
 10
46.80871219760339
 20
163.2503305172775
 10
46.80767712496552
 20
163.2534728300265
 10
46.80694726781556
 20
163.256790069287
 10
46.8069524383737
 20
163.2600984643728
 10
46.80695764245613
 20
163.2634283100688
 10
46.80770588805076
 20
163.2667639637161
 10
46.808756281222
 20
163.2699238013112
 10
46.81315742377984
 20
163.2831635063058
 10
46.82061684689477
 20
163.2952048403915
 10
46.82737466531983
 20
163.307411057426
 10
46.85414370452079
 20
163.3557622680888
 10
46.88203951575798
 20
163.4034815791589
 10
46.90961755100773
 20
163.4513759734454
 10
47.01991983680019
 20
163.6429364351899
 10
47.13051267554918
 20
163.8343294561016
 10
47.24102256911959
 20
164.0257702254739
 10
47.49776174618857
 20
164.4705299116713
 10
47.75453439042369
 20
164.9152702781089
 10
48.01130149538462
 20
165.3600138416582
 72
     1
 10
48.01130149538462
 20
165.3600138416582
 11
59.51130149538463
 21
165.3600138416582
 72
     1
 10
59.51130149538462
 20
165.3600138416582
 11
60.01130149538462
 21
165.8600228242031
 72
     1
 10
60.01130149538462
 20
165.8600228242031
 11
60.01130149538462
 21
166.510030369468
 72
     1
 10
60.01130149538462
 20
166.510030369468
 11
59.51130149538462
 21
167.0100343935869
 72
     1
 10
59.51130149538462
 20
167.0100343935869
 11
50.51130149538462
 21
167.0100343935869
 72
     1
 10
50.51130149538462
 20
167.0100343935869
 11
50.51130149538462
 21
167.7835800592057
 72
     1
 10
50.51130149538462
 20
167.7835800592057
 11
48.62296922070067
 21
167.7835800592057
 72
     4
 94
        3
 73
     0
 74
     0
 95
       53
 96
       49
 40
0.0222131335538451
 40
0.0222131335538451
 40
0.0222131335538451
 40
0.0222131335538451
 40
0.0241826723978771
 40
0.0241826723978771
 40
0.0241826723978771
 40
0.0266539302156304
 40
0.0266539302156304
 40
0.0266539302156304
 40
0.0272717450034572
 40
0.0272717450034572
 40
0.0272717450034572
 40
0.0274262180784868
 40
0.0274262180784868
 40
0.0274262180784868
 40
0.027465305872225
 40
0.027465305872225
 40
0.027465305872225
 40
0.0274760011837423
 40
0.0274760011837423
 40
0.0274760011837423
 40
0.0274865078668681
 40
0.0274865078668681
 40
0.0274865078668681
 40
0.0275035335317661
 40
0.0275035335317661
 40
0.0275035335317661
 40
0.0275378686369199
 40
0.0275378686369199
 40
0.0275378686369199
 40
0.0276065873420445
 40
0.0276065873420445
 40
0.0276065873420445
 40
0.0277452289661543
 40
0.0277452289661543
 40
0.0277452289661543
 40
0.0280254874825037
 40
0.0280254874825037
 40
0.0280254874825037
 40
0.0285922884609073
 40
0.0285922884609073
 40
0.0285922884609073
 40
0.0297387324419414
 40
0.0297387324419414
 40
0.0297387324419414
 40
0.0320576612793011
 40
0.0320576612793011
 40
0.0320576612793011
 40
0.0329069356782609
 40
0.0329069356782609
 40
0.0329069356782609
 40
0.0329069356782609
 10
48.62296922070067
 20
167.7835800592057
 10
48.29730256954646
 20
167.2195061691791
 10
47.97163619992759
 20
166.6554321166066
 10
47.64597136656312
 20
166.0913571770875
 10
47.23734689705286
 20
165.383590174603
 10
46.82869995210845
 20
164.6758361455389
 10
46.4201316934011
 20
163.9680366931052
 10
46.3179895766816
 20
163.7910867398386
 10
46.21575812308987
 20
163.6141881891448
 10
46.11383992343706
 20
163.4371091713349
 10
46.08835736309502
 20
163.3928341863762
 10
46.06253887372842
 20
163.3487428838146
 10
46.03791818997871
 20
163.3039828893287
 10
46.03169502810713
 20
163.2926692843172
 10
46.02482043790281
 20
163.2814796183033
 10
46.02094548860531
 20
163.2691625500654
 10
46.01988719113773
 20
163.2657986035661
 10
46.01922885936503
 20
163.2622136542923
 10
46.01942644488962
 20
163.2586927042018
 10
46.01962159908402
 20
163.2552150801206
 10
46.0205813058721
 20
163.2517819618749
 10
46.02178215620279
 20
163.248512418651
 10
46.02373736757408
 20
163.2431889841424
 10
46.0262833527566
 20
163.2380926004402
 10
46.02887013312754
 20
163.2330457822557
 10
46.03409023516363
 20
163.2228613436476
 10
46.03968699398117
 20
163.2128728600786
 10
46.04528454570297
 20
163.2028908928501
 10
46.05648821962009
 20
163.1829116748924
 10
46.06788114269067
 20
163.1630389777564
 10
46.07927304779767
 20
163.1431664852737
 10
46.10225657293572
 20
163.1030731096493
 10
46.12533397208458
 20
163.0630335966206
 10
46.14841071687393
 20
163.0229938033312
 10
46.1950594469934
 20
162.9420549391957
 10
46.241754622681
 20
162.8611428497463
 10
46.2884494572358
 20
162.7802305751818
 10
46.38288611740269
 20
162.616591811939
 10
46.47734574366505
 20
162.452966303259
 10
46.57180519916663
 20
162.2893406974222
 10
46.76286428061613
 20
161.9583822159575
 10
46.95393471657678
 20
161.6274302894284
 10
47.14500506786206
 20
161.296478314185
 10
47.53148583352619
 20
160.6270569626789
 10
47.91797221270311
 20
159.9576388520641
 10
48.30445854998742
 20
159.2882207172835
 10
48.44600362309021
 20
159.0430559347724
 10
48.58754881543598
 20
158.7978912211057
 10
48.72909407868475
 20
158.5527265483748
 72
     1
 10
48.72909407868475
 20
158.5527265483748
 11
50.51130149538462
 21
158.5527265483748
 72
     1
 10
50.51130149538462
 20
158.5527265483748
 11
50.51130149538462
 21
159.5100867066794
 97
        0
 75
     0
 76
     1
 52
45.0
 41
2.0
 77
     0
 78
     1
 53
45.0
 43
0.0
 44
0.0
 45
-4.490128060534576
 46
4.490128060534577
 79
     0
 98
        0
  0
LINE
  5
275
330
11D
100
AcDbEntity
  8
MEGA_000572
  6
Continuous
 62
     7
100
AcDbLine
 10
60.0113014954
 20
262.5100605501
 30
0.0
 11
60.0113014954
 21
256.0100605501
 31
0.0
  0
LINE
  5
276
330
11D
100
AcDbEntity
  8
MEGA_000572
  6
Continuous
 62
     7
100
AcDbLine
 10
59.5113014954
 20
255.5100605501
 30
0.0
 11
59.5113014954
 21
263.0100605501
 31
0.0
  0
LINE
  5
277
330
11D
100
AcDbEntity
  8
MEGA_000572
  6
Continuous
 62
     7
100
AcDbLine
 10
59.5113014954
 20
263.0100605501
 30
0.0
 11
53.0077091502
 21
263.0100605501
 31
0.0
  0
LINE
  5
278
330
11D
100
AcDbEntity
  8
MEGA_000572
  6
Continuous
 62
     7
100
AcDbLine
 10
53.0077091502
 20
255.5100605501
 30
0.0
 11
59.5113014954
 21
255.5100605501
 31
0.0
  0
LINE
  5
279
330
11D
100
AcDbEntity
  8
MEGA_000572
  6
Continuous
 62
     7
100
AcDbLine
 10
59.5113014954
 20
255.5100605501
 30
0.0
 11
60.0113014954
 21
256.0100605501
 31
0.0
  0
LINE
  5
27A
330
11D
100
AcDbEntity
  8
MEGA_000572
  6
Continuous
 62
     7
100
AcDbLine
 10
60.0113014954
 20
262.5100605501
 30
0.0
 11
59.5113014954
 21
263.0100605501
 31
0.0
  0
ENDBLK
  5
27C
330
11D
100
AcDbEntity
  8
0
100
AcDbBlockEnd
  0
BLOCK
  5
27F
330
27E
100
AcDbEntity
  8
0
100
AcDbBlockBegin
  2
_OBLIQUE
 70
     0
 10
0.0
 20
0.0
 30
0.0
  3
_OBLIQUE
  1
_OBLIQUE
  0
LINE
  5
281
330
27E
100
AcDbEntity
  8
0
  6
ByBlock
 62
     0
370
    -2
100
AcDbLine
 10
-0.5
 20
-0.5
 30
0.0
 11
0.5
 21
0.5
 31
0.0
  0
ENDBLK
  5
280
330
27E
100
AcDbEntity
  8
0
100
AcDbBlockEnd
  0
BLOCK
  5
283
330
282
100
AcDbEntity
  8
0
100
AcDbBlockBegin
  2
_DOT
 70
     0
 10
0.0
 20
0.0
 30
0.0
  3
_DOT
  1
_DOT
  0
POLYLINE
  5
285
330
282
100
AcDbEntity
  8
0
  6
ByBlock
 62
     0
100
AcDb2dPolyline
 66
     1
 10
0.0
 20
0.0
 30
0.0
 70
     1
 40
0.5
 41
0.5
  0
VERTEX
  5
287
330
285
100
AcDbEntity
  8
0
  6
ByBlock
 62
     0
100
AcDbVertex
100
AcDb2dVertex
 10
-0.25
 20
0.0
 30
0.0
 42
1.0
  0
VERTEX
  5
288
330
285
100
AcDbEntity
  8
0
  6
ByBlock
 62
     0
100
AcDbVertex
100
AcDb2dVertex
 10
0.25
 20
0.0
 30
0.0
 42
1.0
  0
SEQEND
  5
289
330
285
100
AcDbEntity
  8
0
  6
ByBlock
 62
     0
  0
LINE
  5
286
330
282
100
AcDbEntity
  8
0
  6
ByBlock
 62
     0
370
    -2
100
AcDbLine
 10
-0.5
 20
0.0
 30
0.0
 11
-1.0
 21
0.0
 31
0.0
  0
ENDBLK
  5
284
330
282
100
AcDbEntity
  8
0
100
AcDbBlockEnd
  0
BLOCK
  5
28D
330
28A
100
AcDbEntity
  8
0
100
AcDbBlockBegin
  2
_SE_FILLED
 70
     0
 10
0.0
 20
0.0
 30
0.0
  3
_SE_FILLED
  1
_SE_FILLED
  0
SOLID
  5
28B
330
28A
100
AcDbEntity
  8
0
 62
     0
100
AcDbTrace
 10
0.0
 20
0.0
 30
0.0
 11
-1.0
 21
-0.1665
 31
0.0
 12
-1.0
 22
0.1665
 32
0.0
 13
0.0
 23
0.0
 33
0.0
  0
LINE
  5
28C
330
28A
100
AcDbEntity
  8
0
 62
     0
100
AcDbLine
 10
0.0
 20
0.0
 30
0.0
 11
-1.0
 21
0.0
 31
0.0
  0
ENDBLK
  5
28E
330
28A
100
AcDbEntity
  8
0
100
AcDbBlockEnd
  0
BLOCK
  5
298
330
291
100
AcDbEntity
  8
0
100
AcDbBlockBegin
  2
DMBLK39
 70
     0
 10
0.0
 20
0.0
 30
0.0
  3
DMBLK39
  1
DMBLK39
  0
HATCH
  5
292
330
291
100
AcDbEntity
  8
Default
  6
Continuous
 62
     7
100
AcDbHatch
 10
0.0
 20
0.0
 30
0.0
210
0.0
220
0.0
230
1.0
  2
SOLID
 70
     1
 71
     0
 91
        1
 92
        1
 93
        3
 72
     1
 10
180.1891555116076
 20
182.260060524056
 11
179.6891555072614
 21
185.260060550133
 72
     1
 10
179.6891555072614
 20
185.260060550133
 11
179.1891555029153
 21
182.260060524056
 72
     1
 10
179.1891555029153
 20
182.260060524056
 11
180.1891555116076
 21
182.260060524056
 97
        0
 75
     0
 76
     1
 98
        0
  0
HATCH
  5
293
330
291
100
AcDbEntity
  8
Default
  6
Continuous
 62
     7
100
AcDbHatch
 10
0.0
 20
0.0
 30
0.0
210
0.0
220
0.0
230
1.0
  2
SOLID
 70
     1
 71
     0
 91
        1
 92
        1
 93
        3
 72
     1
 10
180.1891555116076
 20
166.2600606954194
 11
179.1891555029153
 21
166.2600606954194
 72
     1
 10
179.1891555029153
 20
166.2600606954194
 11
179.6891555072614
 21
163.2600606693423
 72
     1
 10
179.6891555072614
 20
163.2600606693423
 11
180.1891555116076
 21
166.2600606954194
 97
        0
 75
     0
 76
     1
 98
        0
  0
LINE
  5
294
330
291
100
AcDbEntity
  8
Default
  6
Continuous
 62
     7
100
AcDbLine
 10
168.8460275413
 20
185.2600605501
 30
0.0
 11
181.1891555203
 21
185.2600605501
 31
0.0
  0
LINE
  5
295
330
291
100
AcDbEntity
  8
Default
  6
Continuous
 62
     7
100
AcDbLine
 10
153.448786234
 20
163.2600605501
 30
0.0
 11
181.1891555203
 21
163.2600605501
 31
0.0
  0
LINE
  5
296
330
291
100
AcDbEntity
  8
Default
  6
Continuous
 62
     7
100
AcDbLine
 10
179.6891555073
 20
185.2600605501
 30
0.0
 11
179.6891555073
 21
163.2600606693
 31
0.0
  0
TEXT
  5
297
330
291
100
AcDbEntity
  8
Default
  6
Continuous
 62
     7
100
AcDbText
 10
178.9391555073
 20
172.4191515188
 30
0.0
 40
3.0
  1
22
 50
90.0
  7
SEACAD_Solid_Edge_ISO
 11
175.9391555073
 21
172.4191515188
 31
0.0
100
AcDbText
 73
     3
  0
ENDBLK
  5
299
330
291
100
AcDbEntity
  8
0
100
AcDbBlockEnd
  0
BLOCK
  5
2A2
330
29B
100
AcDbEntity
  8
0
100
AcDbBlockBegin
  2
DMBLK40
 70
     0
 10
0.0
 20
0.0
 30
0.0
  3
DMBLK40
  1
DMBLK40
  0
HATCH
  5
29C
330
29B
100
AcDbEntity
  8
Default
  6
Continuous
 62
     7
100
AcDbHatch
 10
0.0
 20
0.0
 30
0.0
210
0.0
220
0.0
230
1.0
  2
SOLID
 70
     1
 71
     0
 91
        1
 92
        1
 93
        3
 72
     1
 10
189.8390287146468
 20
110.2350605762101
 11
188.8390287059545
 21
110.2350605762101
 72
     1
 10
188.8390287059545
 20
110.2350605762101
 11
189.3390287103006
 21
107.235060550133
 72
     1
 10
189.3390287103006
 20
107.235060550133
 11
189.8390287146468
 21
110.2350605762101
 97
        0
 75
     0
 76
     1
 98
        0
  0
HATCH
  5
29D
330
29B
100
AcDbEntity
  8
Default
  6
Continuous
 62
     7
100
AcDbHatch
 10
0.0
 20
0.0
 30
0.0
210
0.0
220
0.0
230
1.0
  2
SOLID
 70
     1
 71
     0
 91
        1
 92
        1
 93
        3
 72
     1
 10
189.8390287146468
 20
182.2600588312841
 11
189.3390287103006
 21
185.2600588573611
 72
     1
 10
189.3390287103006
 20
185.2600588573611
 11
188.8390287059545
 21
182.2600588312841
 72
     1
 10
188.8390287059545
 20
182.2600588312841
 11
189.8390287146468
 21
182.2600588312841
 97
        0
 75
     0
 76
     1
 98
        0
  0
LINE
  5
29E
330
29B
100
AcDbEntity
  8
Default
  6
Continuous
 62
     7
100
AcDbLine
 10
166.110459754
 20
107.2350605501
 30
0.0
 11
190.8390287233
 21
107.2350605501
 31
0.0
  0
LINE
  5
29F
330
29B
100
AcDbEntity
  8
Default
  6
Continuous
 62
     7
100
AcDbLine
 10
166.1104593309
 20
185.2600605501
 30
0.0
 11
190.8390287233
 21
185.2600605501
 31
0.0
  0
LINE
  5
2A0
330
29B
100
AcDbEntity
  8
Default
  6
Continuous
 62
     7
100
AcDbLine
 10
189.3390287103
 20
107.2350605501
 30
0.0
 11
189.3390287103
 21
185.2600588574
 31
0.0
  0
TEXT
  5
2A1
330
29B
100
AcDbEntity
  8
Default
  6
Continuous
 62
     7
100
AcDbText
 10
188.5890287103
 20
140.5407415219
 30
0.0
 40
3.0
  1
72 / 78
 50
90.0
  7
SEACAD_Solid_Edge_ISO
 11
185.5890287103
 21
140.5407415219
 31
0.0
100
AcDbText
 73
     3
  0
ENDBLK
  5
2A3
330
29B
100
AcDbEntity
  8
0
100
AcDbBlockEnd
  0
BLOCK
  5
2AC
330
2A5
100
AcDbEntity
  8
0
100
AcDbBlockBegin
  2
DMBLK41
 70
     0
 10
0.0
 20
0.0
 30
0.0
  3
DMBLK41
  1
DMBLK41
  0
HATCH
  5
2A6
330
2A5
100
AcDbEntity
  8
Default
  6
Continuous
 62
     7
100
AcDbHatch
 10
0.0
 20
0.0
 30
0.0
210
0.0
220
0.0
230
1.0
  2
SOLID
 70
     1
 71
     0
 91
        1
 92
        1
 93
        3
 72
     1
 10
189.8390282914538
 20
188.2600605762101
 11
188.8390282827615
 21
188.2600605762101
 72
     1
 10
188.8390282827615
 20
188.2600605762101
 11
189.3390282871076
 21
185.260060550133
 72
     1
 10
189.3390282871076
 20
185.260060550133
 11
189.8390282914538
 21
188.2600605762101
 97
        0
 75
     0
 76
     1
 98
        0
  0
HATCH
  5
2A7
330
2A5
100
AcDbEntity
  8
Default
  6
Continuous
 62
     7
100
AcDbHatch
 10
0.0
 20
0.0
 30
0.0
210
0.0
220
0.0
230
1.0
  2
SOLID
 70
     1
 71
     0
 91
        1
 92
        1
 93
        3
 72
     1
 10
189.8390282914538
 20
264.2600627890325
 11
189.3390282871076
 21
267.2600628151095
 72
     1
 10
189.3390282871076
 20
267.2600628151095
 11
188.8390282827615
 21
264.2600627890325
 72
     1
 10
188.8390282827615
 20
264.2600627890325
 11
189.8390282914538
 21
264.2600627890325
 97
        0
 75
     0
 76
     1
 98
        0
  0
LINE
  5
2A8
330
2A5
100
AcDbEntity
  8
Default
  6
Continuous
 62
     7
100
AcDbLine
 10
165.6622566165
 20
185.2600605501
 30
0.0
 11
190.8390283001
 21
185.2600605501
 31
0.0
  0
LINE
  5
2A9
330
2A5
100
AcDbEntity
  8
Default
  6
Continuous
 62
     7
100
AcDbLine
 10
163.9933212748
 20
267.2600605501
 30
0.0
 11
190.8390283001
 21
267.2600605501
 31
0.0
  0
LINE
  5
2AA
330
2A5
100
AcDbEntity
  8
Default
  6
Continuous
 62
     7
100
AcDbLine
 10
189.3390282871
 20
185.2600605501
 30
0.0
 11
189.3390282871
 21
267.2600628151
 31
0.0
  0
TEXT
  5
2AB
330
2A5
100
AcDbEntity
  8
Default
  6
Continuous
 62
     7
100
AcDbText
 10
188.5890282871
 20
224.3850616826
 30
0.0
 40
3.0
  1
82
 50
90.0
  7
SEACAD_Solid_Edge_ISO
 11
185.5890282871
 21
224.3850616826
 31
0.0
100
AcDbText
 73
     3
  0
ENDBLK
  5
2AD
330
2A5
100
AcDbEntity
  8
0
100
AcDbBlockEnd
  0
BLOCK
  5
2B6
330
2AF
100
AcDbEntity
  8
0
100
AcDbBlockBegin
  2
DMBLK42
 70
     0
 10
0.0
 20
0.0
 30
0.0
  3
DMBLK42
  1
DMBLK42
  0
HATCH
  5
2B0
330
2AF
100
AcDbEntity
  8
Default
  6
Continuous
 62
     7
100
AcDbHatch
 10
0.0
 20
0.0
 30
0.0
210
0.0
220
0.0
230
1.0
  2
SOLID
 70
     1
 71
     0
 91
        1
 92
        1
 93
        3
 72
     1
 10
180.2346967533727
 20
256.2600605240561
 11
179.7346967490265
 21
259.2600605501331
 72
     1
 10
179.7346967490265
 20
259.2600605501331
 11
179.2346967446804
 21
256.2600605240561
 72
     1
 10
179.2346967446804
 20
256.2600605240561
 11
180.2346967533727
 21
256.2600605240561
 97
        0
 75
     0
 76
     1
 98
        0
  0
HATCH
  5
2B1
330
2AF
100
AcDbEntity
  8
Default
  6
Continuous
 62
     7
100
AcDbHatch
 10
0.0
 20
0.0
 30
0.0
210
0.0
220
0.0
230
1.0
  2
SOLID
 70
     1
 71
     0
 91
        1
 92
        1
 93
        3
 72
     1
 10
180.2346967533727
 20
270.2600605762101
 11
179.2346967446804
 21
270.2600605762101
 72
     1
 10
179.2346967446804
 20
270.2600605762101
 11
179.7346967490265
 21
267.2600605501331
 72
     1
 10
179.7346967490265
 20
267.2600605501331
 11
180.2346967533727
 21
270.2600605762101
 97
        0
 75
     0
 76
     1
 98
        0
  0
LINE
  5
2B2
330
2AF
100
AcDbEntity
  8
Default
  6
Continuous
 62
     7
100
AcDbLine
 10
165.943998027
 20
259.2600605501
 30
0.0
 11
181.2346967621
 21
259.2600605501
 31
0.0
  0
LINE
  5
2B3
330
2AF
100
AcDbEntity
  8
Default
  6
Continuous
 62
     7
100
AcDbLine
 10
163.9933212748
 20
267.2600605501
 30
0.0
 11
181.2346967621
 21
267.2600605501
 31
0.0
  0
LINE
  5
2B4
330
2AF
100
AcDbEntity
  8
Default
  6
Continuous
 62
     7
100
AcDbLine
 10
179.734696749
 20
253.260060498
 30
0.0
 11
179.734696749
 21
273.2600609823
 31
0.0
  0
TEXT
  5
2B5
330
2AF
100
AcDbEntity
  8
Default
  6
Continuous
 62
     7
100
AcDbText
 10
178.984696749
 20
262.3055152856
 30
0.0
 40
3.0
  1
8
 50
90.0
  7
SEACAD_Solid_Edge_ISO
 11
175.984696749
 21
262.3055152856
 31
0.0
100
AcDbText
 73
     3
  0
ENDBLK
  5
2B7
330
2AF
100
AcDbEntity
  8
0
100
AcDbBlockEnd
  0
BLOCK
  5
2C0
330
2B9
100
AcDbEntity
  8
0
100
AcDbBlockBegin
  2
DMBLK43
 70
     0
 10
0.0
 20
0.0
 30
0.0
  3
DMBLK43
  1
DMBLK43
  0
HATCH
  5
2BA
330
2B9
100
AcDbEntity
  8
Default
  6
Continuous
 62
     7
100
AcDbHatch
 10
0.0
 20
0.0
 30
0.0
210
0.0
220
0.0
230
1.0
  2
SOLID
 70
     1
 71
     0
 91
        1
 92
        1
 93
        3
 72
     1
 10
125.8123991632709
 20
279.1094519274225
 11
122.8123991371939
 21
278.6094519230763
 72
     1
 10
122.8123991371939
 20
278.6094519230763
 11
125.8123991632709
 21
278.1094519187301
 72
     1
 10
125.8123991632709
 20
278.1094519187301
 11
125.8123991632709
 21
279.1094519274225
 97
        0
 75
     0
 76
     1
 98
        0
  0
HATCH
  5
2BB
330
2B9
100
AcDbEntity
  8
Default
  6
Continuous
 62
     7
100
AcDbHatch
 10
0.0
 20
0.0
 30
0.0
210
0.0
220
0.0
230
1.0
  2
SOLID
 70
     1
 71
     0
 91
        1
 92
        1
 93
        3
 72
     1
 10
163.8123988726983
 20
279.1094519274225
 11
163.8123988726983
 21
278.1094519187301
 72
     1
 10
163.8123988726983
 20
278.1094519187301
 11
166.8123988987753
 21
278.6094519230763
 72
     1
 10
166.8123988987753
 20
278.6094519230763
 11
163.8123988726983
 21
279.1094519274225
 97
        0
 75
     0
 76
     1
 98
        0
  0
LINE
  5
2BC
330
2B9
100
AcDbEntity
  8
Default
  6
Continuous
 62
     7
100
AcDbLine
 10
122.8123991372
 20
264.4409826878
 30
0.0
 11
122.8123991372
 21
280.1094519361
 31
0.0
  0
LINE
  5
2BD
330
2B9
100
AcDbEntity
  8
Default
  6
Continuous
 62
     7
100
AcDbLine
 10
166.8123991372
 20
264.4409826878
 30
0.0
 11
166.8123991372
 21
280.1094519361
 31
0.0
  0
LINE
  5
2BE
330
2B9
100
AcDbEntity
  8
Default
  6
Continuous
 62
     7
100
AcDbLine
 10
122.8123991372
 20
278.6094519231
 30
0.0
 11
166.8123988988
 21
278.6094519231
 31
0.0
  0
TEXT
  5
2BF
330
2B9
100
AcDbEntity
  8
Default
  6
Continuous
 62
     7
100
AcDbText
 10
143.0396717453
 20
279.3594519231
 30
0.0
 40
3.0
  1
44
  7
SEACAD_Solid_Edge_ISO
 11
143.0396717453
 21
282.3594519231
 31
0.0
100
AcDbText
 73
     3
  0
ENDBLK
  5
2C1
330
2B9
100
AcDbEntity
  8
0
100
AcDbBlockEnd
  0
BLOCK
  5
2CA
330
2C3
100
AcDbEntity
  8
0
100
AcDbBlockBegin
  2
DMBLK44
 70
     0
 10
0.0
 20
0.0
 30
0.0
  3
DMBLK44
  1
DMBLK44
  0
HATCH
  5
2C4
330
2C3
100
AcDbEntity
  8
Default
  6
Continuous
 62
     7
100
AcDbHatch
 10
0.0
 20
0.0
 30
0.0
210
0.0
220
0.0
230
1.0
  2
SOLID
 70
     1
 71
     0
 91
        1
 92
        1
 93
        3
 72
     1
 10
133.8123991632709
 20
14.79957975147624
 11
133.8123991632709
 21
15.79957976016859
 72
     1
 10
133.8123991632709
 20
15.79957976016859
 11
130.8123991371939
 21
15.29957975582241
 72
     1
 10
130.8123991371939
 20
15.29957975582241
 11
133.8123991632709
 21
14.79957975147624
 97
        0
 75
     0
 76
     1
 98
        0
  0
HATCH
  5
2C5
330
2C3
100
AcDbEntity
  8
Default
  6
Continuous
 62
     7
100
AcDbHatch
 10
0.0
 20
0.0
 30
0.0
210
0.0
220
0.0
230
1.0
  2
SOLID
 70
     1
 71
     0
 91
        1
 92
        1
 93
        3
 72
     1
 10
141.8123995432505
 20
14.79957975147624
 11
144.8123995693276
 21
15.29957975582241
 72
     1
 10
144.8123995693276
 20
15.29957975582241
 11
141.8123995432505
 21
15.79957976016859
 72
     1
 10
141.8123995432505
 20
15.79957976016859
 11
141.8123995432505
 21
14.79957975147624
 97
        0
 75
     0
 76
     1
 98
        0
  0
LINE
  5
2C6
330
2C3
100
AcDbEntity
  8
Default
  6
Continuous
 62
     7
100
AcDbLine
 10
130.8123991372
 20
33.5085472776
 30
0.0
 11
130.8123991372
 21
13.7995797428
 31
0.0
  0
LINE
  5
2C7
330
2C3
100
AcDbEntity
  8
Default
  6
Continuous
 62
     7
100
AcDbLine
 10
144.8123991372
 20
33.2600605501
 30
0.0
 11
144.8123991372
 21
13.7995797428
 31
0.0
  0
LINE
  5
2C8
330
2C3
100
AcDbEntity
  8
Default
  6
Continuous
 62
     7
100
AcDbLine
 10
130.8123991372
 20
15.2995797558
 30
0.0
 11
144.8123995693
 21
15.2995797558
 31
0.0
  0
TEXT
  5
2C9
330
2C3
100
AcDbEntity
  8
Default
  6
Continuous
 62
     7
100
AcDbText
 10
136.3123993533
 20
16.0495797558
 30
0.0
 40
3.0
  1
14
  7
SEACAD_Solid_Edge_ISO
 11
136.3123993533
 21
19.0495797558
 31
0.0
100
AcDbText
 73
     3
  0
ENDBLK
  5
2CB
330
2C3
100
AcDbEntity
  8
0
100
AcDbBlockEnd
  0
BLOCK
  5
2D4
330
2CD
100
AcDbEntity
  8
0
100
AcDbBlockBegin
  2
DMBLK45
 70
     0
 10
0.0
 20
0.0
 30
0.0
  3
DMBLK45
  1
DMBLK45
  0
HATCH
  5
2CE
330
2CD
100
AcDbEntity
  8
Default
  6
Continuous
 62
     7
100
AcDbHatch
 10
0.0
 20
0.0
 30
0.0
210
0.0
220
0.0
230
1.0
  2
SOLID
 70
     1
 71
     0
 91
        1
 92
        1
 93
        3
 72
     1
 10
147.8123991632709
 20
14.79957920013337
 11
147.8123991632709
 21
15.79957920882571
 72
     1
 10
147.8123991632709
 20
15.79957920882571
 11
144.8123991371938
 21
15.29957920447954
 72
     1
 10
144.8123991371938
 20
15.29957920447954
 11
147.8123991632709
 21
14.79957920013337
 97
        0
 75
     0
 76
     1
 98
        0
  0
HATCH
  5
2CF
330
2CD
100
AcDbEntity
  8
Default
  6
Continuous
 62
     7
100
AcDbHatch
 10
0.0
 20
0.0
 30
0.0
210
0.0
220
0.0
230
1.0
  2
SOLID
 70
     1
 71
     0
 91
        1
 92
        1
 93
        3
 72
     1
 10
155.8123995432505
 20
14.79957920013337
 11
158.8123995693275
 21
15.29957920447954
 72
     1
 10
158.8123995693275
 20
15.29957920447954
 11
155.8123995432505
 21
15.79957920882571
 72
     1
 10
155.8123995432505
 20
15.79957920882571
 11
155.8123995432505
 21
14.79957920013337
 97
        0
 75
     0
 76
     1
 98
        0
  0
LINE
  5
2D0
330
2CD
100
AcDbEntity
  8
Default
  6
Continuous
 62
     7
100
AcDbLine
 10
144.8123991372
 20
33.2600605501
 30
0.0
 11
144.8123991372
 21
13.7995791914
 31
0.0
  0
LINE
  5
2D1
330
2CD
100
AcDbEntity
  8
Default
  6
Continuous
 62
     7
100
AcDbLine
 10
158.8123991372
 20
33.4554488523
 30
0.0
 11
158.8123991372
 21
13.7995791914
 31
0.0
  0
LINE
  5
2D2
330
2CD
100
AcDbEntity
  8
Default
  6
Continuous
 62
     7
100
AcDbLine
 10
144.8123991372
 20
15.2995792045
 30
0.0
 11
158.8123995693
 21
15.2995792045
 31
0.0
  0
TEXT
  5
2D3
330
2CD
100
AcDbEntity
  8
Default
  6
Continuous
 62
     7
100
AcDbText
 10
150.3123993533
 20
16.0495792045
 30
0.0
 40
3.0
  1
14
  7
SEACAD_Solid_Edge_ISO
 11
150.3123993533
 21
19.0495792045
 31
0.0
100
AcDbText
 73
     3
  0
ENDBLK
  5
2D5
330
2CD
100
AcDbEntity
  8
0
100
AcDbBlockEnd
  0
BLOCK
  5
2DE
330
2D7
100
AcDbEntity
  8
0
100
AcDbBlockBegin
  2
DMBLK46
 70
     0
 10
0.0
 20
0.0
 30
0.0
  3
DMBLK46
  1
DMBLK46
  0
HATCH
  5
2D8
330
2D7
100
AcDbEntity
  8
Default
  6
Continuous
 62
     7
100
AcDbHatch
 10
0.0
 20
0.0
 30
0.0
210
0.0
220
0.0
230
1.0
  2
SOLID
 70
     1
 71
     0
 91
        1
 92
        1
 93
        3
 72
     1
 10
180.0884155799888
 20
30.26006052405605
 11
179.5884155756426
 21
33.26006055013309
 72
     1
 10
179.5884155756426
 20
33.26006055013308
 11
179.0884155712965
 21
30.26006052405605
 72
     1
 10
179.0884155712965
 20
30.26006052405605
 11
180.0884155799888
 21
30.26006052405605
 97
        0
 75
     0
 76
     1
 98
        0
  0
HATCH
  5
2D9
330
2D7
100
AcDbEntity
  8
Default
  6
Continuous
 62
     7
100
AcDbHatch
 10
0.0
 20
0.0
 30
0.0
210
0.0
220
0.0
230
1.0
  2
SOLID
 70
     1
 71
     0
 91
        1
 92
        1
 93
        3
 72
     1
 10
180.0884155799888
 20
44.26006057621004
 11
179.0884155712965
 21
44.26006057621004
 72
     1
 10
179.0884155712965
 20
44.26006057621004
 11
179.5884155756426
 21
41.26006055013301
 72
     1
 10
179.5884155756426
 20
41.26006055013301
 11
180.0884155799888
 21
44.26006057621004
 97
        0
 75
     0
 76
     1
 98
        0
  0
LINE
  5
2DA
330
2D7
100
AcDbEntity
  8
Default
  6
Continuous
 62
     7
100
AcDbLine
 10
163.9933212748
 20
33.2600605501
 30
0.0
 11
181.0884155887
 21
33.2600605501
 31
0.0
  0
LINE
  5
2DB
330
2D7
100
AcDbEntity
  8
Default
  6
Continuous
 62
     7
100
AcDbLine
 10
158.8123991372
 20
41.2600605501
 30
0.0
 11
181.0884155887
 21
41.2600605501
 31
0.0
  0
LINE
  5
2DC
330
2D7
100
AcDbEntity
  8
Default
  6
Continuous
 62
     7
100
AcDbLine
 10
179.5884155756
 20
27.260060498
 30
0.0
 11
179.5884155756
 21
47.2600609823
 31
0.0
  0
TEXT
  5
2DD
330
2D7
100
AcDbEntity
  8
Default
  6
Continuous
 62
     7
100
AcDbText
 10
178.8384155756
 20
36.3055152856
 30
0.0
 40
3.0
  1
8
 50
90.0
  7
SEACAD_Solid_Edge_ISO
 11
175.8384155756
 21
36.3055152856
 31
0.0
100
AcDbText
 73
     3
  0
ENDBLK
  5
2DF
330
2D7
100
AcDbEntity
  8
0
100
AcDbBlockEnd
  0
BLOCK
  5
2E8
330
2E1
100
AcDbEntity
  8
0
100
AcDbBlockBegin
  2
DMBLK47
 70
     0
 10
0.0
 20
0.0
 30
0.0
  3
DMBLK47
  1
DMBLK47
  0
HATCH
  5
2E2
330
2E1
100
AcDbEntity
  8
Default
  6
Continuous
 62
     7
100
AcDbHatch
 10
0.0
 20
0.0
 30
0.0
210
0.0
220
0.0
230
1.0
  2
SOLID
 70
     1
 71
     0
 91
        1
 92
        1
 93
        3
 72
     1
 10
109.3942973284478
 20
36.26006057621009
 11
109.894297332794
 21
33.26006055013305
 72
     1
 10
109.894297332794
 20
33.26006055013305
 11
110.3942973371402
 21
36.26006057621009
 72
     1
 10
110.3942973371402
 20
36.26006057621009
 11
109.3942973284478
 21
36.26006057621009
 97
        0
 75
     0
 76
     1
 98
        0
  0
HATCH
  5
2E3
330
2E1
100
AcDbEntity
  8
Default
  6
Continuous
 62
     7
100
AcDbHatch
 10
0.0
 20
0.0
 30
0.0
210
0.0
220
0.0
230
1.0
  2
SOLID
 70
     1
 71
     0
 91
        1
 92
        1
 93
        3
 72
     1
 10
109.3942973284478
 20
264.2600579014517
 11
110.3942973371402
 21
264.2600579014517
 72
     1
 10
110.3942973371402
 20
264.2600579014517
 11
109.894297332794
 21
267.2600579275287
 72
     1
 10
109.894297332794
 20
267.2600579275287
 11
109.3942973284478
 21
264.2600579014517
 97
        0
 75
     0
 76
     1
 98
        0
  0
LINE
  5
2E4
330
2E1
100
AcDbEntity
  8
Default
  6
Continuous
 62
     7
100
AcDbLine
 10
125.6314769996
 20
33.2600605501
 30
0.0
 11
108.3942973198
 21
33.2600605501
 31
0.0
  0
LINE
  5
2E5
330
2E1
100
AcDbEntity
  8
Default
  6
Continuous
 62
     7
100
AcDbLine
 10
125.6314769996
 20
267.2600605501
 30
0.0
 11
108.3942973198
 21
267.2600605501
 31
0.0
  0
LINE
  5
2E6
330
2E1
100
AcDbEntity
  8
Default
  6
Continuous
 62
     7
100
AcDbLine
 10
109.8942973328
 20
33.2600605501
 30
0.0
 11
109.8942973328
 21
267.2600579275
 31
0.0
  0
TEXT
  5
2E7
330
2E1
100
AcDbEntity
  8
Default
  6
Continuous
 62
     7
100
AcDbText
 10
109.1442973328
 20
147.6691501479
 30
0.0
 40
3.0
  1
234
 50
90.0
  7
SEACAD_Solid_Edge_ISO
 11
106.1442973328
 21
147.6691501479
 31
0.0
100
AcDbText
 73
     3
  0
ENDBLK
  5
2E9
330
2E1
100
AcDbEntity
  8
0
100
AcDbBlockEnd
  0
BLOCK
  5
2F2
330
2EB
100
AcDbEntity
  8
0
100
AcDbBlockBegin
  2
DMBLK48
 70
     0
 10
0.0
 20
0.0
 30
0.0
  3
DMBLK48
  1
DMBLK48
  0
HATCH
  5
2EC
330
2EB
100
AcDbEntity
  8
Default
  6
Continuous
 62
     7
100
AcDbHatch
 10
0.0
 20
0.0
 30
0.0
210
0.0
220
0.0
230
1.0
  2
SOLID
 70
     1
 71
     0
 91
        1
 92
        1
 93
        3
 72
     1
 10
37.60770917630681
 20
14.86867067514329
 11
37.60770917630681
 21
15.86867068383564
 72
     1
 10
37.60770917630681
 20
15.86867068383564
 11
34.60770915022977
 21
15.36867067948947
 72
     1
 10
34.60770915022977
 20
15.36867067948947
 11
37.60770917630681
 21
14.86867067514329
 97
        0
 75
     0
 76
     1
 98
        0
  0
HATCH
  5
2ED
330
2EB
100
AcDbEntity
  8
Default
  6
Continuous
 62
     7
100
AcDbHatch
 10
0.0
 20
0.0
 30
0.0
210
0.0
220
0.0
230
1.0
  2
SOLID
 70
     1
 71
     0
 91
        1
 92
        1
 93
        3
 72
     1
 10
50.00770953244456
 20
14.86867067514329
 11
53.00770955852159
 21
15.36867067948947
 72
     1
 10
53.00770955852159
 20
15.36867067948947
 11
50.00770953244456
 21
15.86867068383564
 72
     1
 10
50.00770953244456
 20
15.86867068383564
 11
50.00770953244456
 21
14.86867067514329
 97
        0
 75
     0
 76
     1
 98
        0
  0
LINE
  5
2EE
330
2EB
100
AcDbEntity
  8
Default
  6
Continuous
 62
     7
100
AcDbLine
 10
34.6077091502
 20
82.335060451
 30
0.0
 11
34.6077091502
 21
13.8686706665
 31
0.0
  0
LINE
  5
2EF
330
2EB
100
AcDbEntity
  8
Default
  6
Continuous
 62
     7
100
AcDbLine
 10
53.0077091502
 20
48.7636613746
 30
0.0
 11
53.0077091502
 21
13.8686706665
 31
0.0
  0
LINE
  5
2F0
330
2EB
100
AcDbEntity
  8
Default
  6
Continuous
 62
     7
100
AcDbLine
 10
34.6077091502
 20
15.3686706795
 30
0.0
 11
53.0077095585
 21
15.3686706795
 31
0.0
  0
TEXT
  5
2F1
330
2EB
100
AcDbEntity
  8
Default
  6
Continuous
 62
     7
100
AcDbText
 10
39.7372548089
 20
16.1186706795
 30
0.0
 40
3.0
  1
10-18
  7
SEACAD_Solid_Edge_ISO
 11
39.7372548089
 21
19.1186706795
 31
0.0
100
AcDbText
 73
     3
  0
ENDBLK
  5
2F3
330
2EB
100
AcDbEntity
  8
0
100
AcDbBlockEnd
  0
BLOCK
  5
2FD
330
2F5
100
AcDbEntity
  8
0
100
AcDbBlockBegin
  2
DMBLK49
 70
     0
 10
0.0
 20
0.0
 30
0.0
  3
DMBLK49
  1
DMBLK49
  0
HATCH
  5
2F6
330
2F5
100
AcDbEntity
  8
Default
  6
Continuous
 62
     7
100
AcDbHatch
 10
0.0
 20
0.0
 30
0.0
210
0.0
220
0.0
230
1.0
  2
SOLID
 70
     1
 71
     0
 91
        1
 92
        1
 93
        3
 72
     1
 10
72.30764743400262
 20
168.7600228502801
 11
71.30764742531026
 21
168.7600228502801
 72
     1
 10
71.30764742531026
 20
168.7600228502801
 11
71.80764742965644
 21
165.760022824203
 72
     1
 10
71.80764742965644
 20
165.760022824203
 11
72.30764743400262
 21
168.7600228502801
 97
        0
 75
     0
 76
     1
 98
        0
  0
HATCH
  5
2F7
330
2F5
100
AcDbEntity
  8
Default
  6
Continuous
 62
     7
100
AcDbHatch
 10
0.0
 20
0.0
 30
0.0
210
0.0
220
0.0
230
1.0
  2
SOLID
 70
     1
 71
     0
 91
        1
 92
        1
 93
        3
 72
     1
 10
72.30764743400262
 20
157.760098249986
 11
71.80764742965644
 21
160.7600982760631
 72
     1
 10
71.80764742965644
 20
160.7600982760631
 11
71.30764742531026
 21
157.760098249986
 72
     1
 10
71.30764742531026
 20
157.760098249986
 11
72.30764743400262
 21
157.760098249986
 97
        0
 75
     0
 76
     1
 98
        0
  0
LINE
  5
2F8
330
2F5
100
AcDbEntity
  8
Default
  6
Continuous
 62
     7
100
AcDbLine
 10
60.0113014954
 20
165.7600228242
 30
0.0
 11
73.3076474427
 21
165.7600228242
 31
0.0
  0
LINE
  5
2F9
330
2F5
100
AcDbEntity
  8
Default
  6
Continuous
 62
     7
100
AcDbLine
 10
60.0113014954
 20
160.7600982761
 30
0.0
 11
73.3076474427
 21
160.7600982761
 31
0.0
  0
LINE
  5
2FA
330
2F5
100
AcDbEntity
  8
Default
  6
Continuous
 62
     7
100
AcDbLine
 10
71.8076474297
 20
171.7600228764
 30
0.0
 11
71.8076474297
 21
148.9189036689
 31
0.0
  0
TEXT
  5
2FB
330
2F5
100
AcDbEntity
  8
Default
  6
Continuous
 62
     7
100
AcDbText
 10
71.0576474297
 20
152.5870865145
 30
0.0
 40
3.0
  1
5
 50
90.0
  7
SEACAD_Solid_Edge_ISO
 11
68.0576474297
 21
152.5870865145
 31
0.0
100
AcDbText
 73
     3
  0
TEXT
  5
2FC
330
2F5
100
AcDbEntity
  8
Default
  6
Continuous
 62
     7
100
AcDbText
 10
71.0576474297
 20
149.9689046963
 30
0.0
 40
3.0
  1
M
 50
90.0
  7
SEACAD_Solid_Edge_ISO
 11
68.0576474297
 21
149.9689046963
 31
0.0
100
AcDbText
 73
     3
  0
ENDBLK
  5
2FE
330
2F5
100
AcDbEntity
  8
0
100
AcDbBlockEnd
  0
BLOCK
  5
309
330
301
100
AcDbEntity
  8
0
100
AcDbBlockBegin
  2
DMBLK50
 70
     0
 10
0.0
 20
0.0
 30
0.0
  3
DMBLK50
  1
DMBLK50
  0
HATCH
  5
302
330
301
100
AcDbEntity
  8
Default
  6
Continuous
 62
     7
100
AcDbHatch
 10
0.0
 20
0.0
 30
0.0
210
0.0
220
0.0
230
1.0
  2
SOLID
 70
     1
 71
     0
 91
        1
 92
        1
 93
        3
 72
     1
 10
83.2400399566953
 20
170.0100344196639
 11
82.24003994800294
 21
170.0100344196639
 72
     1
 10
82.24003994800294
 20
170.0100344196639
 11
82.74003995234912
 21
167.0100343935869
 72
     1
 10
82.74003995234912
 20
167.0100343935869
 11
83.2400399566953
 21
170.0100344196639
 97
        0
 75
     0
 76
     1
 98
        0
  0
HATCH
  5
303
330
301
100
AcDbEntity
  8
Default
  6
Continuous
 62
     7
100
AcDbHatch
 10
0.0
 20
0.0
 30
0.0
210
0.0
220
0.0
230
1.0
  2
SOLID
 70
     1
 71
     0
 91
        1
 92
        1
 93
        3
 72
     1
 10
83.2400399566953
 20
156.5100866806024
 11
82.74003995234912
 21
159.5100867066794
 72
     1
 10
82.74003995234912
 20
159.5100867066794
 11
82.24003994800294
 21
156.5100866806024
 72
     1
 10
82.24003994800294
 20
156.5100866806024
 11
83.2400399566953
 21
156.5100866806024
 97
        0
 75
     0
 76
     1
 98
        0
  0
LINE
  5
304
330
301
100
AcDbEntity
  8
Default
  6
Continuous
 62
     7
100
AcDbLine
 10
59.5113014954
 20
167.0100343936
 30
0.0
 11
84.2400399654
 21
167.0100343936
 31
0.0
  0
LINE
  5
305
330
301
100
AcDbEntity
  8
Default
  6
Continuous
 62
     7
100
AcDbLine
 10
59.5113014954
 20
159.5100867067
 30
0.0
 11
84.2400399654
 21
159.5100867067
 31
0.0
  0
LINE
  5
306
330
301
100
AcDbEntity
  8
Default
  6
Continuous
 62
     7
100
AcDbLine
 10
82.7400399523
 20
173.0100344457
 30
0.0
 11
82.7400399523
 21
146.2484178656
 31
0.0
  0
TEXT
  5
307
330
301
100
AcDbEntity
  8
Default
  6
Continuous
 62
     7
100
AcDbText
 10
81.9900399523
 20
150.9390288796
 30
0.0
 40
3.0
  1
7,5
 50
90.0
  7
SEACAD_Solid_Edge_ISO
 11
78.9900399523
 21
150.9390288796
 31
0.0
100
AcDbText
 73
     3
  0
TEXT
  5
308
330
301
100
AcDbEntity
  8
Default
  6
Continuous
 62
     7
100
AcDbText
 10
81.9900399523
 20
147.2984175259
 30
0.0
 40
3.0
  1
O
 50
90.0
  7
SEACAD_Solid_Edge_ISO1_Symbols
 11
78.9900399523
 21
147.2984175259
 31
0.0
100
AcDbText
 73
     3
  0
ENDBLK
  5
30A
330
301
100
AcDbEntity
  8
0
100
AcDbBlockEnd
  0
BLOCK
  5
314
330
30C
100
AcDbEntity
  8
0
100
AcDbBlockBegin
  2
DMBLK51
 70
     0
 10
0.0
 20
0.0
 30
0.0
  3
DMBLK51
  1
DMBLK51
  0
HATCH
  5
30D
330
30C
100
AcDbEntity
  8
Default
  6
Continuous
 62
     7
100
AcDbHatch
 10
0.0
 20
0.0
 30
0.0
210
0.0
220
0.0
230
1.0
  2
SOLID
 70
     1
 71
     0
 91
        1
 92
        1
 93
        3
 72
     1
 10
72.03881777533879
 20
190.460060524056
 11
71.53881777099261
 21
193.4600605501331
 72
     1
 10
71.53881777099261
 20
193.4600605501331
 11
71.03881776664643
 21
190.460060524056
 72
     1
 10
71.03881776664643
 20
190.460060524056
 11
72.03881777533879
 21
190.460060524056
 97
        0
 75
     0
 76
     1
 98
        0
  0
HATCH
  5
30E
330
30C
100
AcDbEntity
  8
Default
  6
Continuous
 62
     7
100
AcDbHatch
 10
0.0
 20
0.0
 30
0.0
210
0.0
220
0.0
230
1.0
  2
SOLID
 70
     1
 71
     0
 91
        1
 92
        1
 93
        3
 72
     1
 10
72.03881777533879
 20
180.0600604957438
 11
71.03881776664643
 21
180.0600604957438
 72
     1
 10
71.03881776664643
 20
180.0600604957438
 11
71.53881777099261
 21
177.0600604696668
 72
     1
 10
71.53881777099261
 20
177.0600604696668
 11
72.03881777533879
 21
180.0600604957438
 97
        0
 75
     0
 76
     1
 98
        0
  0
LINE
  5
30F
330
30C
100
AcDbEntity
  8
Default
  6
Continuous
 62
     7
100
AcDbLine
 10
54.3077091502
 20
193.4600605501
 30
0.0
 11
73.038817784
 21
193.4600605501
 31
0.0
  0
LINE
  5
310
330
30C
100
AcDbEntity
  8
Default
  6
Continuous
 62
     7
100
AcDbLine
 10
54.3077091502
 20
177.0600605501
 30
0.0
 11
73.038817784
 21
177.0600605501
 31
0.0
  0
LINE
  5
311
330
30C
100
AcDbEntity
  8
Default
  6
Continuous
 62
     7
100
AcDbLine
 10
71.538817771
 20
193.4600605501
 30
0.0
 11
71.538817771
 21
177.0600604697
 31
0.0
  0
TEXT
  5
312
330
30C
100
AcDbEntity
  8
Default
  6
Continuous
 62
     7
100
AcDbText
 10
70.788817771
 20
184.3871843686
 30
0.0
 40
3.0
  1
16,4
 50
90.0
  7
SEACAD_Solid_Edge_ISO
 11
67.788817771
 21
184.3871843686
 31
0.0
100
AcDbText
 73
     3
  0
TEXT
  5
313
330
30C
100
AcDbEntity
  8
Default
  6
Continuous
 62
     7
100
AcDbText
 10
70.788817771
 20
180.7465730149
 30
0.0
 40
3.0
  1
O
 50
90.0
  7
SEACAD_Solid_Edge_ISO1_Symbols
 11
67.788817771
 21
180.7465730149
 31
0.0
100
AcDbText
 73
     3
  0
ENDBLK
  5
315
330
30C
100
AcDbEntity
  8
0
100
AcDbBlockEnd
  0
BLOCK
  5
31F
330
317
100
AcDbEntity
  8
0
100
AcDbBlockBegin
  2
DMBLK52
 70
     0
 10
0.0
 20
0.0
 30
0.0
  3
DMBLK52
  1
DMBLK52
  0
HATCH
  5
318
330
317
100
AcDbEntity
  8
Default
  6
Continuous
 62
     7
100
AcDbHatch
 10
0.0
 20
0.0
 30
0.0
210
0.0
220
0.0
230
1.0
  2
SOLID
 70
     1
 71
     0
 91
        1
 92
        1
 93
        3
 72
     1
 10
83.09985845991959
 20
179.2600605762101
 11
82.09985845122723
 21
179.2600605762101
 72
     1
 10
82.09985845122723
 20
179.2600605762101
 11
82.59985845557341
 21
176.260060550133
 72
     1
 10
82.59985845557341
 20
176.260060550133
 11
83.09985845991959
 21
179.2600605762101
 97
        0
 75
     0
 76
     1
 98
        0
  0
HATCH
  5
319
330
317
100
AcDbEntity
  8
Default
  6
Continuous
 62
     7
100
AcDbHatch
 10
0.0
 20
0.0
 30
0.0
210
0.0
220
0.0
230
1.0
  2
SOLID
 70
     1
 71
     0
 91
        1
 92
        1
 93
        3
 72
     1
 10
83.09985845991959
 20
191.2600597491956
 11
82.59985845557341
 21
194.2600597752727
 72
     1
 10
82.59985845557341
 20
194.2600597752727
 11
82.09985845122723
 21
191.2600597491956
 72
     1
 10
82.09985845122723
 20
191.2600597491956
 11
83.09985845991959
 21
191.2600597491956
 97
        0
 75
     0
 76
     1
 98
        0
  0
LINE
  5
31A
330
317
100
AcDbEntity
  8
Default
  6
Continuous
 62
     7
100
AcDbLine
 10
54.3077091502
 20
176.2600605501
 30
0.0
 11
84.0998584686
 21
176.2600605501
 31
0.0
  0
LINE
  5
31B
330
317
100
AcDbEntity
  8
Default
  6
Continuous
 62
     7
100
AcDbLine
 10
54.3077091502
 20
194.2600605501
 30
0.0
 11
84.0998584686
 21
194.2600605501
 31
0.0
  0
LINE
  5
31C
330
317
100
AcDbEntity
  8
Default
  6
Continuous
 62
     7
100
AcDbLine
 10
82.5998584556
 20
176.2600605501
 30
0.0
 11
82.5998584556
 21
194.2600597753
 31
0.0
  0
TEXT
  5
31D
330
317
100
AcDbEntity
  8
Default
  6
Continuous
 62
     7
100
AcDbText
 10
81.8498584556
 20
185.5121840214
 30
0.0
 40
3.0
  1
18
 50
90.0
  7
SEACAD_Solid_Edge_ISO
 11
78.8498584556
 21
185.5121840214
 31
0.0
100
AcDbText
 73
     3
  0
TEXT
  5
31E
330
317
100
AcDbEntity
  8
Default
  6
Continuous
 62
     7
100
AcDbText
 10
81.8498584556
 20
181.8715726677
 30
0.0
 40
3.0
  1
O
 50
90.0
  7
SEACAD_Solid_Edge_ISO1_Symbols
 11
78.8498584556
 21
181.8715726677
 31
0.0
100
AcDbText
 73
     3
  0
ENDBLK
  5
320
330
317
100
AcDbEntity
  8
0
100
AcDbBlockEnd
  0
BLOCK
  5
322
330
321
100
AcDbEntity
  8
0
100
AcDbBlockBegin
  2
_SE_BLANK
 70
     0
 10
0.0
 20
0.0
 30
0.0
  3
_SE_BLANK
  1
_SE_BLANK
  0
ENDBLK
  5
323
330
321
100
AcDbEntity
  8
0
100
AcDbBlockEnd
  0
BLOCK
  5
32B
330
325
100
AcDbEntity
  8
0
100
AcDbBlockBegin
  2
DMBLK53
 70
     0
 10
0.0
 20
0.0
 30
0.0
  3
DMBLK53
  1
DMBLK53
  0
HATCH
  5
326
330
325
100
AcDbEntity
  8
Default
  6
Continuous
 62
     7
100
AcDbHatch
 10
0.0
 20
0.0
 30
0.0
210
0.0
220
0.0
230
1.0
  2
SOLID
 70
     1
 71
     0
 91
        1
 92
        1
 93
        3
 72
     1
 10
41.80770912415274
 20
278.009021819043
 11
41.80770912415274
 21
277.0090218103506
 72
     1
 10
41.80770912415274
 20
277.0090218103506
 11
44.80770915022978
 21
277.5090218146968
 72
     1
 10
44.80770915022978
 20
277.5090218146968
 11
41.80770912415274
 21
278.009021819043
 97
        0
 75
     0
 76
     1
 98
        0
  0
LINE
  5
327
330
325
100
AcDbEntity
  8
Default
  6
Continuous
 62
     7
100
AcDbLine
 10
44.8077091502
 20
263.5752970909
 30
0.0
 11
44.8077091502
 21
279.0090218277
 31
0.0
  0
LINE
  5
328
330
325
100
AcDbEntity
  8
Default
  6
Continuous
 62
     7
100
AcDbLine
 10
53.0077091502
 20
263.1702136312
 30
0.0
 11
53.0077091502
 21
279.0090218277
 31
0.0
  0
LINE
  5
329
330
325
100
AcDbEntity
  8
Default
  6
Continuous
 62
     7
100
AcDbLine
 10
38.8077090981
 20
277.5090218147
 30
0.0
 11
59.0077092426
 21
277.5090218147
 31
0.0
  0
TEXT
  5
32A
330
325
100
AcDbEntity
  8
Default
  6
Continuous
 62
     7
100
AcDbText
 10
46.7599818976
 20
278.2590218147
 30
0.0
 40
3.0
  1
8,2
  7
SEACAD_Solid_Edge_ISO
 11
46.7599818976
 21
281.2590218147
 31
0.0
100
AcDbText
 73
     3
  0
ENDBLK
  5
32C
330
325
100
AcDbEntity
  8
0
100
AcDbBlockEnd
  0
BLOCK
  5
334
330
32E
100
AcDbEntity
  8
0
100
AcDbBlockBegin
  2
DMBLK54
 70
     0
 10
0.0
 20
0.0
 30
0.0
  3
DMBLK54
  1
DMBLK54
  0
HATCH
  5
32F
330
32E
100
AcDbEntity
  8
Default
  6
Continuous
 62
     7
100
AcDbHatch
 10
0.0
 20
0.0
 30
0.0
210
0.0
220
0.0
230
1.0
  2
SOLID
 70
     1
 71
     0
 91
        1
 92
        1
 93
        3
 72
     1
 10
63.01130152146165
 20
278.0090217697874
 11
60.01130149538462
 21
277.5090217654412
 72
     1
 10
60.01130149538462
 20
277.5090217654412
 11
63.01130152146165
 21
277.009021761095
 72
     1
 10
63.01130152146165
 20
277.009021761095
 11
63.01130152146165
 21
278.0090217697874
 97
        0
 75
     0
 76
     1
 98
        0
  0
LINE
  5
330
330
32E
100
AcDbEntity
  8
Default
  6
Continuous
 62
     7
100
AcDbLine
 10
53.0077091502
 20
263.1702136312
 30
0.0
 11
53.0077091502
 21
279.0090217785
 31
0.0
  0
LINE
  5
331
330
32E
100
AcDbEntity
  8
Default
  6
Continuous
 62
     7
100
AcDbLine
 10
60.0113014954
 20
262.5100605501
 30
0.0
 11
60.0113014954
 21
279.0090217785
 31
0.0
  0
LINE
  5
332
330
32E
100
AcDbEntity
  8
Default
  6
Continuous
 62
     7
100
AcDbLine
 10
47.0077090981
 20
277.5090217654
 30
0.0
 11
66.0113015296
 21
277.5090217654
 31
0.0
  0
TEXT
  5
333
330
32E
100
AcDbEntity
  8
Default
  6
Continuous
 62
     7
100
AcDbText
 10
55.5549598593
 20
278.2590217654
 30
0.0
 40
3.0
  1
7
  7
SEACAD_Solid_Edge_ISO
 11
55.5549598593
 21
281.2590217654
 31
0.0
100
AcDbText
 73
     3
  0
ENDBLK
  5
335
330
32E
100
AcDbEntity
  8
0
100
AcDbBlockEnd
  0
ENDSEC
  0
SECTION
  2
ENTITIES
  0
INSERT
  5
70
330
1F
100
AcDbEntity
  8
Default
100
AcDbBlockReference
  2
SEANNOT_GROUP
 10
0.0
 20
0.0
 30
0.0
  0
INSERT
  5
76
330
1F
100
AcDbEntity
  8
Default
100
AcDbBlockReference
  2
SEANNOT_GROUP1
 10
0.0
 20
0.0
 30
0.0
  0
INSERT
  5
7B
330
1F
100
AcDbEntity
  8
Default
100
AcDbBlockReference
  2
SEANNOT_GROUP2
 10
0.0
 20
0.0
 30
0.0
  0
INSERT
  5
80
330
1F
100
AcDbEntity
  8
Default
100
AcDbBlockReference
  2
SEANNOT_GROUP3
 10
0.0
 20
0.0
 30
0.0
  0
INSERT
  5
85
330
1F
100
AcDbEntity
  8
Default
100
AcDbBlockReference
  2
SEANNOT_GROUP4
 10
0.0
 20
0.0
 30
0.0
  0
INSERT
  5
8F
330
1F
100
AcDbEntity
  8
Default
100
AcDbBlockReference
  2
SEANNOT_GROUP5
 10
0.0
 20
0.0
 30
0.0
  0
INSERT
  5
99
330
1F
100
AcDbEntity
  8
Default
100
AcDbBlockReference
  2
SEANNOT_GROUP6
 10
0.0
 20
0.0
 30
0.0
  0
INSERT
  5
A3
330
1F
100
AcDbEntity
  8
Default
100
AcDbBlockReference
  2
SEANNOT_GROUP7
 10
0.0
 20
0.0
 30
0.0
  0
INSERT
  5
AD
330
1F
100
AcDbEntity
  8
Default
100
AcDbBlockReference
  2
SEANNOT_GROUP8
 10
0.0
 20
0.0
 30
0.0
  0
LINE
  5
B6
330
1F
100
AcDbEntity
  8
Default
  6
Continuous
 62
     7
100
AcDbLine
 10
54.3177733366
 20
278.635797739
 30
0.0
 11
51.9515431793
 21
276.6076004613
 31
0.0
  0
MTEXT
  5
B7
330
1F
100
AcDbEntity
  8
Default
100
AcDbMText
 10
85.0862509725
 20
9.0664476048
 30
0.0
 40
5.0
 41
17.8949877997
 46
8.1818281818
 71
     1
 72
     1
  1
{\fSolid Edge ISO|b0||i1||c0|p34;\C7;\H5.;\W1.;35.486}
 73
     1
 44
1.0
1001
ACAD
1000
ACAD_MTEXT_DEFINED_HEIGHT_BEGIN
1070
    46
1040
8.1818281818
1000
ACAD_MTEXT_DEFINED_HEIGHT_END
  0
INSERT
  5
B9
330
1F
100
AcDbEntity
  8
Default
100
AcDbBlockReference
  2
SEANNOT_GROUP9
 10
0.0
 20
0.0
 30
0.0
  0
INSERT
  5
BE
330
1F
100
AcDbEntity
  8
Default
100
AcDbBlockReference
  2
SEANNOT_GROUP10
 10
0.0
 20
0.0
 30
0.0
  0
INSERT
  5
C3
330
1F
100
AcDbEntity
  8
Default
100
AcDbBlockReference
  2
SEANNOT_GROUP11
 10
0.0
 20
0.0
 30
0.0
  0
INSERT
  5
C8
330
1F
100
AcDbEntity
  8
Default
100
AcDbBlockReference
  2
SEANNOT_GROUP12
 10
0.0
 20
0.0
 30
0.0
  0
INSERT
  5
CD
330
1F
100
AcDbEntity
  8
0
100
AcDbBlockReference
  2
SE
 10
0.0
 20
0.0
 30
0.0
  0
INSERT
  5
FF
330
1F
100
AcDbEntity
  8
0
100
AcDbBlockReference
  2
SE1
 10
0.0
 20
0.0
 30
0.0
  0
TEXT
  5
11C
330
1F
100
AcDbEntity
  8
0
  6
Continuous
 62
     7
100
AcDbText
 10
29.7867780331
 20
21.2600605501
 30
0.0
 40
6.0
  1
SCHNITT A-A
  7
SEACAD_Solid_Edge_ISO
 11
29.7867780331
 21
27.2600605501
 31
0.0
100
AcDbText
 73
     3
  0
INSERT
  5
11E
330
1F
100
AcDbEntity
  8
0
100
AcDbBlockReference
  2
SE4
 10
0.0
 20
0.0
 30
0.0
  0
DIMENSION
  5
290
330
1F
100
AcDbEntity
  8
Default
  6
Continuous
 62
     7
100
AcDbDimension
  2
DMBLK39
 10
179.6891555073
 20
185.2600605501
 30
0.0
 11
179.6891555073
 21
174.2600606097
 31
0.0
 70
   161
  1
\A1;<>
 71
     5
 42
-1.0
 73
     0
 74
     0
 75
     0
  3
DIN
100
AcDbAlignedDimension
 13
144.8123991372
 23
185.2600605501
 33
0.0
 14
144.8264053291
 24
163.2600605501
 34
0.0
  0
DIMENSION
  5
29A
330
1F
100
AcDbEntity
  8
Default
  6
Continuous
 62
     7
100
AcDbDimension
  2
DMBLK40
 10
189.3390287103
 20
107.2350605501
 30
0.0
 11
189.3390287103
 21
146.2475597037
 31
0.0
 70
   161
  1
\A1;72 / 78 {}
 71
     5
 42
-1.0
 73
     0
 74
     0
 75
     0
  3
DIN
100
AcDbAlignedDimension
 13
144.7873991372
 23
107.2350605501
 33
0.0
 14
144.8123991372
 24
185.2600605501
 34
0.0
  0
DIMENSION
  5
2A4
330
1F
100
AcDbEntity
  8
Default
  6
Continuous
 62
     7
100
AcDbDimension
  2
DMBLK41
 10
189.3390282871
 20
267.2600605501
 30
0.0
 11
189.3390282871
 21
226.2600616826
 31
0.0
 70
   160
  1
\A1;<>
 71
     5
 42
-1.0
 73
     0
 74
     0
 75
     0
  3
DIN
100
AcDbAlignedDimension
 13
144.8123991372
 23
185.2600605501
 33
0.0
 14
163.9933212748
 24
267.2600605501
 34
0.0
 50
90.0
100
AcDbRotatedDimension
  0
DIMENSION
  5
2AE
330
1F
100
AcDbEntity
  8
Default
  6
Continuous
 62
     7
100
AcDbDimension
  2
DMBLK42
 10
179.734696749
 20
267.2600605501
 30
0.0
 11
179.734696749
 21
263.2600607401
 31
0.0
 70
   160
  1
\A1;<>
 71
     5
 42
-1.0
 73
     0
 74
     0
 75
     0
  3
DIN
100
AcDbAlignedDimension
 13
158.8123991372
 23
259.2600605501
 33
0.0
 14
163.9933212748
 24
267.2600605501
 34
0.0
 50
90.0
100
AcDbRotatedDimension
  0
DIMENSION
  5
2B8
330
1F
100
AcDbEntity
  8
Default
  6
Continuous
 62
     7
100
AcDbDimension
  2
DMBLK43
 10
122.8123991372
 20
278.6094519231
 30
0.0
 11
144.812399018
 21
278.6094519231
 31
0.0
 70
   161
  1
\A1;<>
 71
     5
 42
-1.0
 73
     0
 74
     0
 75
     0
  3
DIN
100
AcDbAlignedDimension
 13
122.8123991372
 23
264.4409826878
 33
0.0
 14
166.8123991372
 24
264.4409826878
 34
0.0
  0
DIMENSION
  5
2C2
330
1F
100
AcDbEntity
  8
Default
  6
Continuous
 62
     7
100
AcDbDimension
  2
DMBLK44
 10
144.8123991372
 20
15.2995797558
 30
0.0
 11
137.8123993533
 21
15.2995797558
 31
0.0
 70
   160
  1
\A1;<>
 71
     5
 42
-1.0
 73
     0
 74
     0
 75
     0
  3
DIN
100
AcDbAlignedDimension
 13
130.8123991372
 23
41.2600605501
 33
0.0
 14
144.8123991372
 24
33.2600605501
 34
0.0
100
AcDbRotatedDimension
  0
DIMENSION
  5
2CC
330
1F
100
AcDbEntity
  8
Default
  6
Continuous
 62
     7
100
AcDbDimension
  2
DMBLK45
 10
158.8123991372
 20
15.2995792045
 30
0.0
 11
151.8123993533
 21
15.2995792045
 31
0.0
 70
   160
  1
\A1;<>
 71
     5
 42
-1.0
 73
     0
 74
     0
 75
     0
  3
DIN
100
AcDbAlignedDimension
 13
144.8123991372
 23
33.2600605501
 33
0.0
 14
158.8123991372
 24
41.2600605501
 34
0.0
100
AcDbRotatedDimension
  0
DIMENSION
  5
2D6
330
1F
100
AcDbEntity
  8
Default
  6
Continuous
 62
     7
100
AcDbDimension
  2
DMBLK46
 10
179.5884155756
 20
41.2600605501
 30
0.0
 11
179.5884155756
 21
37.2600607401
 31
0.0
 70
   160
  1
\A1;<>
 71
     5
 42
-1.0
 73
     0
 74
     0
 75
     0
  3
DIN
100
AcDbAlignedDimension
 13
163.9933212748
 23
33.2600605501
 33
0.0
 14
158.8123991372
 24
41.2600605501
 34
0.0
 50
90.0
100
AcDbRotatedDimension
  0
DIMENSION
  5
2E0
330
1F
100
AcDbEntity
  8
Default
  6
Continuous
 62
     7
100
AcDbDimension
  2
DMBLK47
 10
109.8942973328
 20
33.2600605501
 30
0.0
 11
109.8942973328
 21
150.2600592388
 31
0.0
 70
   161
  1
\A1;<>
 71
     5
 42
-1.0
 73
     0
 74
     0
 75
     0
  3
DIN
100
AcDbAlignedDimension
 13
125.6314769996
 23
33.2600605501
 33
0.0
 14
125.6314769996
 24
267.2600605501
 34
0.0
  0
DIMENSION
  5
2EA
330
1F
100
AcDbEntity
  8
Default
  6
Continuous
 62
     7
100
AcDbDimension
  2
DMBLK48
 10
53.0077091502
 20
15.3686706795
 30
0.0
 11
43.8077093544
 21
15.3686706795
 31
0.0
 70
   160
  1
\A1;10-18 {}
 71
     5
 42
-1.0
 73
     0
 74
     0
 75
     0
  3
DIN
100
AcDbAlignedDimension
 13
34.6077091502
 23
87.4850605501
 33
0.0
 14
53.0077091502
 24
48.7636613746
 34
0.0
100
AcDbRotatedDimension
  0
DIMENSION
  5
2F4
330
1F
100
AcDbEntity
  8
Default
  6
Continuous
 62
     7
100
AcDbDimension
  2
DMBLK49
 10
71.8076474297
 20
165.7600228242
 30
0.0
 11
71.8076474297
 21
155.341631969
 31
0.0
 70
   161
  1
\A1;M <>
 71
     5
 42
-1.0
 73
     0
 74
     0
 75
     0
  3
DIN
100
AcDbAlignedDimension
 13
60.0113014954
 23
165.7600228242
 33
0.0
 14
60.0113014954
 24
160.7600982761
 34
0.0
  0
DIMENSION
  5
2FF
330
1F
100
AcDbEntity
  8
Default
  6
Continuous
 62
     7
100
AcDbDimension
  2
DMBLK50
 10
82.7400399523
 20
167.0100343936
 30
0.0
 11
82.7400399523
 21
156.1481197887
 31
0.0
 70
   161
  1
\A1;%%C <>
 71
     5
 42
-1.0
 73
     0
 74
     0
 75
     0
  3
DIN
100
AcDbAlignedDimension
 13
59.5113014954
 23
167.0100343936
 33
0.0
 14
59.5113014954
 24
159.5100867067
 34
0.0
  0
DIMENSION
  5
30B
330
1F
100
AcDbEntity
  8
Default
  6
Continuous
 62
     7
100
AcDbDimension
  2
DMBLK51
 10
71.538817771
 20
193.4600605501
 30
0.0
 11
71.538817771
 21
185.2600605099
 31
0.0
 70
   161
  1
\A1;%%C <>
 71
     5
 42
-1.0
 73
     0
 74
     0
 75
     0
  3
DIN
100
AcDbAlignedDimension
 13
54.3077091502
 23
193.4600605501
 33
0.0
 14
54.3077091502
 24
177.0600605501
 34
0.0
  0
DIMENSION
  5
316
330
1F
100
AcDbEntity
  8
Default
  6
Continuous
 62
     7
100
AcDbDimension
  2
DMBLK52
 10
82.5998584556
 20
176.2600605501
 30
0.0
 11
82.5998584556
 21
185.2600601627
 31
0.0
 70
   161
  1
\A1;%%C <>
 71
     5
 42
-1.0
 73
     0
 74
     0
 75
     0
  3
DIN
100
AcDbAlignedDimension
 13
54.3077091502
 23
176.2600605501
 33
0.0
 14
54.3077091502
 24
194.2600605501
 34
0.0
  0
DIMENSION
  5
324
330
1F
100
AcDbEntity
  8
Default
  6
Continuous
 62
     7
100
AcDbDimension
  2
DMBLK53
 10
53.0077091502
 20
277.5090218147
 30
0.0
 11
48.9077091703
 21
277.5090218147
 31
0.0
 70
   160
  1
\A1;<>
 71
     5
 42
-1.0
 73
     0
 74
     0
 75
     0
  3
DIN
100
AcDbAlignedDimension
 13
44.8077091502
 23
263.5752970909
 33
0.0
 14
53.0077091502
 24
263.1702136312
 34
0.0
100
AcDbRotatedDimension
1001
ACAD
1000
DSTYLE
1002
{
1070
   344
1005
321
1070
     0
1002
}
  0
DIMENSION
  5
32D
330
1F
100
AcDbEntity
  8
Default
  6
Continuous
 62
     7
100
AcDbDimension
  2
DMBLK54
 10
60.0113014954
 20
277.5090217654
 30
0.0
 11
56.5095053138
 21
277.5090217654
 31
0.0
 70
   160
  1
\A1;<>
 71
     5
 42
-1.0
 73
     0
 74
     0
 75
     0
  3
DIN
100
AcDbAlignedDimension
 13
53.0077091502
 23
263.1702136312
 33
0.0
 14
60.0113014954
 24
262.5100605501
 34
0.0
100
AcDbRotatedDimension
1001
ACAD
1000
DSTYLE
1002
{
1070
   343
1005
321
1070
     0
1002
}
  0
ENDSEC
  0
SECTION
  2
OBJECTS
  0
DICTIONARY
  5
C
330
0
100
AcDbDictionary
281
     1
  3
ACAD_DETAILVIEWSTYLE
350
371
  3
ACAD_GROUP
350
D
  3
ACAD_LAYOUT
350
1A
  3
ACAD_MATERIAL
350
43
  3
ACAD_MLEADERSTYLE
350
6B
  3
ACAD_MLINESTYLE
350
17
  3
ACAD_PLOTSETTINGS
350
19
  3
ACAD_PLOTSTYLENAME
350
E
  3
ACAD_SCALELIST
350
47
  3
ACAD_SECTIONVIEWSTYLE
350
372
  3
ACAD_TABLESTYLE
350
69
  3
ACAD_VISUALSTYLE
350
2A
  3
ACDB_RECOMPOSE_DATA
350
36E
  3
AcDbVariableDictionary
350
336
  0
SUN
  5
6D
330
29
100
AcDbSun
 90
        1
290
     0
 63
     7
421
 16777215
 40
1.0
291
     1
 91
  2455826
 92
 54000000
292
     0
 70
     2
 71
   256
280
     1
  0
DICTIONARY
  5
371
102
{ACAD_REACTORS
330
C
102
}
330
C
100
AcDbDictionary
281
     1
  0
DICTIONARY
  5
D
102
{ACAD_REACTORS
330
C
102
}
330
C
100
AcDbDictionary
281
     1
  0
DICTIONARY
  5
1A
102
{ACAD_REACTORS
330
C
102
}
330
C
100
AcDbDictionary
281
     1
  3
Layout1
350
1E
  3
Model
350
22
  0
DICTIONARY
  5
43
102
{ACAD_REACTORS
330
C
102
}
330
C
100
AcDbDictionary
281
     1
  3
ByBlock
350
45
  3
ByLayer
350
44
  3
Global
350
46
  0
DICTIONARY
  5
6B
102
{ACAD_REACTORS
330
C
102
}
330
C
100
AcDbDictionary
281
     1
  3
Standard
350
6C
  0
DICTIONARY
  5
17
102
{ACAD_REACTORS
330
C
102
}
330
C
100
AcDbDictionary
281
     1
  3
Standard
350
18
  0
DICTIONARY
  5
19
102
{ACAD_REACTORS
330
C
102
}
330
C
100
AcDbDictionary
281
     1
  0
ACDBDICTIONARYWDFLT
  5
E
102
{ACAD_REACTORS
330
C
102
}
330
C
100
AcDbDictionary
281
     1
  3
Normal
350
F
100
AcDbDictionaryWithDefault
340
F
  0
DICTIONARY
  5
47
102
{ACAD_REACTORS
330
C
102
}
330
C
100
AcDbDictionary
281
     1
  3
A0
350
48
  3
A1
350
49
  3
A2
350
4A
  3
A3
350
4B
  3
A4
350
4C
  3
A5
350
4D
  3
A6
350
4E
  3
A7
350
4F
  3
A8
350
50
  3
A9
350
51
  3
B0
350
52
  3
B1
350
53
  3
B2
350
54
  3
B3
350
55
  3
B4
350
56
  3
B5
350
57
  3
B6
350
58
  3
B7
350
59
  3
B8
350
5A
  3
B9
350
5B
  3
C0
350
5C
  3
C1
350
5D
  3
C2
350
5E
  3
C3
350
5F
  3
C4
350
60
  3
C5
350
61
  3
C6
350
62
  3
C7
350
63
  3
C8
350
64
  3
C9
350
65
  3
D0
350
66
  3
D1
350
67
  3
D2
350
68
  0
DICTIONARY
  5
372
102
{ACAD_REACTORS
330
C
102
}
330
C
100
AcDbDictionary
281
     1
  0
DICTIONARY
  5
69
102
{ACAD_REACTORS
330
C
102
}
330
C
100
AcDbDictionary
281
     1
  3
Standard
350
6A
  0
DICTIONARY
  5
2A
102
{ACAD_REACTORS
330
C
102
}
330
C
100
AcDbDictionary
281
     1
  3
2dWireframe
350
2F
  3
Basic
350
32
  3
Brighten
350
36
  3
ColorChange
350
3A
  3
Conceptual
350
34
  3
Dim
350
35
  3
EdgeColorOff
350
3D
  3
Facepattern
350
39
  3
Flat
350
2B
  3
FlatWithEdges
350
2C
  3
Gouraud
350
2D
  3
GouraudWithEdges
350
2E
  3
Hidden
350
31
  3
JitterOff
350
3B
  3
Linepattern
350
38
  3
OverhangOff
350
3C
  3
Realistic
350
33
  3
Shaded
350
42
  3
Shaded with edges
350
41
  3
Shades of Gray
350
3E
  3
Sketchy
350
3F
  3
Thicken
350
37
  3
Wireframe
350
30
  3
X-Ray
350
40
  0
XRECORD
  5
36E
102
{ACAD_REACTORS
330
C
102
}
330
C
100
AcDbXrecord
280
     1
 90
        1
330
6A
  0
DICTIONARY
  5
336
102
{ACAD_REACTORS
330
C
102
}
330
C
100
AcDbDictionary
281
     1
  3
CANNOSCALE
350
337
  3
CMLEADERSTYLE
350
370
  3
CTABLESTYLE
350
36F
  3
XCLIPFRAME
350
338
  0
LAYOUT
  5
1E
102
{ACAD_REACTORS
330
1A
102
}
330
1A
100
AcDbPlotSettings
  1

  2
none_device
  4

  6

 40
0.0
 41
0.0
 42
0.0
 43
0.0
 44
0.0
 45
0.0
 46
0.0
 47
0.0
 48
0.0
 49
0.0
140
0.0
141
0.0
142
1.0
143
1.0
 70
   688
 72
     1
 73
     0
 74
     5
  7

 75
    16
 76
     0
 77
     2
 78
   300
147
1.0
148
0.0
149
0.0
100
AcDbLayout
  1
Layout1
 70
     1
 71
     1
 10
0.0
 20
0.0
 11
210.0
 21
297.0
 12
0.0
 22
0.0
 32
0.0
 14
0.0
 24
0.0
 34
0.0
 15
210.0
 25
297.0
 35
0.0
146
0.0
 13
0.0
 23
0.0
 33
0.0
 16
1.0
 26
0.0
 36
0.0
 17
0.0
 27
1.0
 37
0.0
 76
     0
330
1B
  0
LAYOUT
  5
22
102
{ACAD_REACTORS
330
1A
102
}
330
1A
100
AcDbPlotSettings
  1

  2
none_device
  4
Letter_(8.50_x_11.00_Inches)
  6

 40
6.35
 41
6.35
 42
6.35000508
 43
6.35000508
 44
215.9
 45
279.4
 46
0.0
 47
0.0
 48
0.0
 49
0.0
140
0.0
141
0.0
142
1.0
143
1.0
 70
  1712
 72
     1
 73
     0
 74
     0
  7

 75
     0
 76
     0
 77
     2
 78
   300
147
1.0
148
0.0
149
0.0
100
AcDbLayout
  1
Model
 70
     1
 71
     0
 10
0.0
 20
0.0
 11
210.0
 21
297.0
 12
0.0
 22
0.0
 32
0.0
 14
0.0
 24
0.0
 34
0.0
 15
210.0
 25
297.0
 35
0.0
146
0.0
 13
0.0
 23
0.0
 33
0.0
 16
1.0
 26
0.0
 36
0.0
 17
0.0
 27
1.0
 37
0.0
 76
     0
330
1F
331
29
  0
MATERIAL
  5
45
102
{ACAD_REACTORS
330
43
102
}
330
43
100
AcDbMaterial
  1
ByBlock
 72
     1
 94
      127
  0
MATERIAL
  5
44
102
{ACAD_REACTORS
330
43
102
}
330
43
100
AcDbMaterial
  1
ByLayer
 72
     1
 94
      127
  0
MATERIAL
  5
46
102
{ACAD_REACTORS
330
43
102
}
330
43
100
AcDbMaterial
  1
Global
 72
     1
 94
      127
  0
MLEADERSTYLE
  5
6C
102
{ACAD_REACTORS
330
6B
102
}
102
{ACAD_XDICTIONARY
360
36C
102
}
330
6B
100
AcDbMLeaderStyle
170
     2
171
     1
172
     0
 90
        2
 40
0.0
 41
0.0
173
     1
 91
-1056964608
340
14
 92
       -2
290
     1
 42
2.0
291
     1
 43
8.0
  3
Standard
341
0
 44
4.0
300

342
11
174
     1
178
     6
175
     1
176
     0
 93
-1056964608
 45
4.0
292
     0
297
     0
 46
4.0
343
0
 94
-1056964608
 47
1.0
 49
1.0
140
1.0
293
     1
141
0.0
294
     1
177
     0
142
1.0
295
     0
296
     0
143
3.75
1001
ACAD_MLEADERVER
1070
     2
  0
MLINESTYLE
  5
18
102
{ACAD_REACTORS
330
17
102
}
330
17
100
AcDbMlineStyle
  2
Standard
 70
     0
  3

 62
   256
 51
90.0
 52
90.0
 71
     2
 49
0.5
 62
   256
  6
BYLAYER
 49
-0.5
 62
   256
  6
BYLAYER
  0
ACDBPLACEHOLDER
  5
F
102
{ACAD_REACTORS
330
E
102
}
330
E
  0
SCALE
  5
48
102
{ACAD_REACTORS
330
47
102
}
330
47
100
AcDbScale
 70
     0
300
1:1
140
1.0
141
1.0
290
     1
  0
SCALE
  5
49
102
{ACAD_REACTORS
330
47
102
}
330
47
100
AcDbScale
 70
     0
300
1:2
140
1.0
141
2.0
290
     0
  0
SCALE
  5
4A
102
{ACAD_REACTORS
330
47
102
}
330
47
100
AcDbScale
 70
     0
300
1:4
140
1.0
141
4.0
290
     0
  0
SCALE
  5
4B
102
{ACAD_REACTORS
330
47
102
}
330
47
100
AcDbScale
 70
     0
300
1:5
140
1.0
141
5.0
290
     0
  0
SCALE
  5
4C
102
{ACAD_REACTORS
330
47
102
}
330
47
100
AcDbScale
 70
     0
300
1:8
140
1.0
141
8.0
290
     0
  0
SCALE
  5
4D
102
{ACAD_REACTORS
330
47
102
}
330
47
100
AcDbScale
 70
     0
300
1:10
140
1.0
141
10.0
290
     0
  0
SCALE
  5
4E
102
{ACAD_REACTORS
330
47
102
}
330
47
100
AcDbScale
 70
     0
300
1:16
140
1.0
141
16.0
290
     0
  0
SCALE
  5
4F
102
{ACAD_REACTORS
330
47
102
}
330
47
100
AcDbScale
 70
     0
300
1:20
140
1.0
141
20.0
290
     0
  0
SCALE
  5
50
102
{ACAD_REACTORS
330
47
102
}
330
47
100
AcDbScale
 70
     0
300
1:30
140
1.0
141
30.0
290
     0
  0
SCALE
  5
51
102
{ACAD_REACTORS
330
47
102
}
330
47
100
AcDbScale
 70
     0
300
1:40
140
1.0
141
40.0
290
     0
  0
SCALE
  5
52
102
{ACAD_REACTORS
330
47
102
}
330
47
100
AcDbScale
 70
     0
300
1:50
140
1.0
141
50.0
290
     0
  0
SCALE
  5
53
102
{ACAD_REACTORS
330
47
102
}
330
47
100
AcDbScale
 70
     0
300
1:100
140
1.0
141
100.0
290
     0
  0
SCALE
  5
54
102
{ACAD_REACTORS
330
47
102
}
330
47
100
AcDbScale
 70
     0
300
2:1
140
2.0
141
1.0
290
     0
  0
SCALE
  5
55
102
{ACAD_REACTORS
330
47
102
}
330
47
100
AcDbScale
 70
     0
300
4:1
140
4.0
141
1.0
290
     0
  0
SCALE
  5
56
102
{ACAD_REACTORS
330
47
102
}
330
47
100
AcDbScale
 70
     0
300
8:1
140
8.0
141
1.0
290
     0
  0
SCALE
  5
57
102
{ACAD_REACTORS
330
47
102
}
330
47
100
AcDbScale
 70
     0
300
10:1
140
10.0
141
1.0
290
     0
  0
SCALE
  5
58
102
{ACAD_REACTORS
330
47
102
}
330
47
100
AcDbScale
 70
     0
300
100:1
140
100.0
141
1.0
290
     0
  0
SCALE
  5
59
102
{ACAD_REACTORS
330
47
102
}
330
47
100
AcDbScale
 70
     0
300
1/128" = 1'-0"
140
0.0078125
141
12.0
290
     0
  0
SCALE
  5
5A
102
{ACAD_REACTORS
330
47
102
}
330
47
100
AcDbScale
 70
     0
300
1/64" = 1'-0"
140
0.015625
141
12.0
290
     0
  0
SCALE
  5
5B
102
{ACAD_REACTORS
330
47
102
}
330
47
100
AcDbScale
 70
     0
300
1/32" = 1'-0"
140
0.03125
141
12.0
290
     0
  0
SCALE
  5
5C
102
{ACAD_REACTORS
330
47
102
}
330
47
100
AcDbScale
 70
     0
300
1/16" = 1'-0"
140
0.0625
141
12.0
290
     0
  0
SCALE
  5
5D
102
{ACAD_REACTORS
330
47
102
}
330
47
100
AcDbScale
 70
     0
300
3/32" = 1'-0"
140
0.09375
141
12.0
290
     0
  0
SCALE
  5
5E
102
{ACAD_REACTORS
330
47
102
}
330
47
100
AcDbScale
 70
     0
300
1/8" = 1'-0"
140
0.125
141
12.0
290
     0
  0
SCALE
  5
5F
102
{ACAD_REACTORS
330
47
102
}
330
47
100
AcDbScale
 70
     0
300
3/16" = 1'-0"
140
0.1875
141
12.0
290
     0
  0
SCALE
  5
60
102
{ACAD_REACTORS
330
47
102
}
330
47
100
AcDbScale
 70
     0
300
1/4" = 1'-0"
140
0.25
141
12.0
290
     0
  0
SCALE
  5
61
102
{ACAD_REACTORS
330
47
102
}
330
47
100
AcDbScale
 70
     0
300
3/8" = 1'-0"
140
0.375
141
12.0
290
     0
  0
SCALE
  5
62
102
{ACAD_REACTORS
330
47
102
}
330
47
100
AcDbScale
 70
     0
300
1/2" = 1'-0"
140
0.5
141
12.0
290
     0
  0
SCALE
  5
63
102
{ACAD_REACTORS
330
47
102
}
330
47
100
AcDbScale
 70
     0
300
3/4" = 1'-0"
140
0.75
141
12.0
290
     0
  0
SCALE
  5
64
102
{ACAD_REACTORS
330
47
102
}
330
47
100
AcDbScale
 70
     0
300
1" = 1'-0"
140
1.0
141
12.0
290
     0
  0
SCALE
  5
65
102
{ACAD_REACTORS
330
47
102
}
330
47
100
AcDbScale
 70
     0
300
1-1/2" = 1'-0"
140
1.5
141
12.0
290
     0
  0
SCALE
  5
66
102
{ACAD_REACTORS
330
47
102
}
330
47
100
AcDbScale
 70
     0
300
3" = 1'-0"
140
3.0
141
12.0
290
     0
  0
SCALE
  5
67
102
{ACAD_REACTORS
330
47
102
}
330
47
100
AcDbScale
 70
     0
300
6" = 1'-0"
140
6.0
141
12.0
290
     0
  0
SCALE
  5
68
102
{ACAD_REACTORS
330
47
102
}
330
47
100
AcDbScale
 70
     0
300
1'-0" = 1'-0"
140
12.0
141
12.0
290
     0
  0
TABLESTYLE
  5
6A
102
{ACAD_REACTORS
330
69
102
}
102
{ACAD_XDICTIONARY
360
369
102
}
330
69
100
AcDbTableStyle
  3
Standard
 70
     0
 71
     0
 40
0.06
 41
0.06
280
     0
281
     0
  7
Standard
140
4.5
170
     2
 62
     0
 63
   257
283
     0
 90
        4
 91
        0
  1

274
    -2
284
     1
 64
     0
275
    -2
285
     1
 65
     0
276
    -2
286
     1
 66
     0
277
    -2
287
     1
 67
     0
278
    -2
288
     1
 68
     0
279
    -2
289
     1
 69
     0
  7
Standard
140
6.0
170
     5
 62
     0
 63
   257
283
     0
 90
        4
 91
        0
  1

274
    -2
284
     1
 64
     0
275
    -2
285
     1
 65
     0
276
    -2
286
     1
 66
     0
277
    -2
287
     1
 67
     0
278
    -2
288
     1
 68
     0
279
    -2
289
     1
 69
     0
  7
Standard
140
4.5
170
     5
 62
     0
 63
   257
283
     0
 90
        4
 91
        0
  1

274
    -2
284
     1
 64
     0
275
    -2
285
     1
 65
     0
276
    -2
286
     1
 66
     0
277
    -2
287
     1
 67
     0
278
    -2
288
     1
 68
     0
279
    -2
289
     1
 69
     0
  0
VISUALSTYLE
  5
2F
102
{ACAD_REACTORS
330
2A
102
}
102
{ACAD_XDICTIONARY
360
341
102
}
330
2A
100
AcDbVisualStyle
  2
2dWireframe
 70
     4
 71
     0
 72
     2
 73
     0
 90
        0
 40
0.6
 41
30.0
 62
     5
 63
     7
421
 16777215
 74
     1
 91
        4
 64
     7
 65
   257
 75
     1
175
     1
 42
1.0
 92
        0
 66
   257
 43
1.0
 76
     1
 77
     6
 78
     2
 67
     7
 79
     5
170
     0
171
     0
290
     0
174
     0
 93
        1
 44
0.0
173
     0
291
     0
 45
0.0
  0
VISUALSTYLE
  5
32
102
{ACAD_REACTORS
330
2A
102
}
102
{ACAD_XDICTIONARY
360
347
102
}
330
2A
100
AcDbVisualStyle
  2
Basic
 70
     7
 71
     1
 72
     0
 73
     1
 90
        0
 40
0.6
 41
30.0
 62
     5
 63
     7
421
 16777215
 74
     0
 91
        4
 64
     7
 65
   257
 75
     1
175
     1
 42
1.0
 92
        8
 66
     7
 43
1.0
 76
     1
 77
     6
 78
     2
 67
     7
 79
     5
170
     0
171
     0
290
     0
174
     0
 93
        1
 44
0.0
173
     0
291
     1
 45
0.0
  0
VISUALSTYLE
  5
36
102
{ACAD_REACTORS
330
2A
102
}
102
{ACAD_XDICTIONARY
360
34F
102
}
330
2A
100
AcDbVisualStyle
  2
Brighten
 70
    12
 71
     2
 72
     2
 73
     0
 90
        0
 40
0.6
 41
30.0
 62
     5
 63
     7
421
 16777215
 74
     1
 91
        4
 64
     7
 65
   257
 75
     1
175
     1
 42
1.0
 92
        8
 66
     7
 43
1.0
 76
     1
 77
     6
 78
     2
 67
     7
 79
     5
170
     0
171
     0
290
     0
174
     0
 93
        1
 44
50.0
173
     0
291
     1
 45
0.0
  0
VISUALSTYLE
  5
3A
102
{ACAD_REACTORS
330
2A
102
}
102
{ACAD_XDICTIONARY
360
357
102
}
330
2A
100
AcDbVisualStyle
  2
ColorChange
 70
    16
 71
     2
 72
     2
 73
     3
 90
        0
 40
0.6
 41
30.0
 62
     5
 63
     8
421
  8421504
 74
     1
 91
        4
 64
     7
 65
   257
 75
     1
175
     1
 42
1.0
 92
        8
 66
     8
424
  8421504
 43
1.0
 76
     1
 77
     6
 78
     2
 67
     7
 79
     5
170
     0
171
     0
290
     0
174
     0
 93
        1
 44
0.0
173
     0
291
     1
 45
0.0
  0
VISUALSTYLE
  5
34
102
{ACAD_REACTORS
330
2A
102
}
102
{ACAD_XDICTIONARY
360
34B
102
}
330
2A
100
AcDbVisualStyle
  2
Conceptual
 70
     9
 71
     3
 72
     2
 73
     0
 90
        0
 40
0.6
 41
30.0
 62
     5
 63
     7
421
 16777215
 74
     2
 91
        2
 64
     7
 65
   257
 75
     1
175
     1
 42
179.0
 92
        8
 66
     7
 43
1.0
 76
     1
 77
     6
 78
     2
 67
     7
 79
     3
170
     0
171
     0
290
     0
174
     0
 93
        1
 44
0.0
173
     0
291
     0
 45
0.0
  0
VISUALSTYLE
  5
35
102
{ACAD_REACTORS
330
2A
102
}
102
{ACAD_XDICTIONARY
360
34D
102
}
330
2A
100
AcDbVisualStyle
  2
Dim
 70
    11
 71
     2
 72
     2
 73
     0
 90
        0
 40
0.6
 41
30.0
 62
     5
 63
     7
421
 16777215
 74
     1
 91
        4
 64
     7
 65
   257
 75
     1
175
     1
 42
1.0
 92
        8
 66
     7
 43
1.0
 76
     1
 77
     6
 78
     2
 67
     7
 79
     5
170
     0
171
     0
290
     0
174
     0
 93
        1
 44
-50.0
173
     0
291
     1
 45
0.0
  0
VISUALSTYLE
  5
3D
102
{ACAD_REACTORS
330
2A
102
}
102
{ACAD_XDICTIONARY
360
35D
102
}
330
2A
100
AcDbVisualStyle
  2
EdgeColorOff
 70
    22
 71
     2
 72
     2
 73
     0
 90
        0
 40
0.6
 41
30.0
 62
     5
 63
     7
421
 16777215
 74
     1
 91
        4
 64
     7
 65
   257
 75
     1
175
     1
 42
1.0
 92
        8
 66
     7
 43
1.0
 76
     1
 77
     6
 78
     2
 67
     7
 79
     5
170
     0
171
     0
290
     0
174
     0
 93
        1
 44
0.0
173
     0
291
     1
 45
0.0
  0
VISUALSTYLE
  5
39
102
{ACAD_REACTORS
330
2A
102
}
102
{ACAD_XDICTIONARY
360
355
102
}
330
2A
100
AcDbVisualStyle
  2
Facepattern
 70
    15
 71
     2
 72
     2
 73
     0
 90
        0
 40
0.6
 41
30.0
 62
     5
 63
     7
421
 16777215
 74
     1
 91
        4
 64
     7
 65
   257
 75
     1
175
     1
 42
1.0
 92
        8
 66
     7
 43
1.0
 76
     1
 77
     6
 78
     2
 67
     7
 79
     5
170
     0
171
     0
290
     0
174
     0
 93
        1
 44
0.0
173
     0
291
     1
 45
0.0
  0
VISUALSTYLE
  5
2B
102
{ACAD_REACTORS
330
2A
102
}
102
{ACAD_XDICTIONARY
360
339
102
}
330
2A
100
AcDbVisualStyle
  2
Flat
 70
     0
 71
     2
 72
     1
 73
     1
 90
        2
 40
0.6
 41
30.0
 62
     5
 63
     7
421
 16777215
 74
     0
 91
        0
 64
     7
 65
   257
 75
     1
175
     1
 42
1.0
 92
        8
 66
     7
 43
1.0
 76
     1
 77
     6
 78
     2
 67
     7
 79
     5
170
     0
171
     0
290
     0
174
     0
 93
       13
 44
0.0
173
     0
291
     1
 45
0.0
  0
VISUALSTYLE
  5
2C
102
{ACAD_REACTORS
330
2A
102
}
102
{ACAD_XDICTIONARY
360
33B
102
}
330
2A
100
AcDbVisualStyle
  2
FlatWithEdges
 70
     1
 71
     2
 72
     1
 73
     1
 90
        2
 40
0.6
 41
30.0
 62
     5
 63
     7
421
 16777215
 74
     1
 91
        0
 64
     7
 65
   257
 75
     1
175
     1
 42
1.0
 92
        0
 66
   257
 43
1.0
 76
     1
 77
     6
 78
     2
 67
     7
 79
     5
170
     0
171
     0
290
     0
174
     0
 93
       13
 44
0.0
173
     0
291
     1
 45
0.0
  0
VISUALSTYLE
  5
2D
102
{ACAD_REACTORS
330
2A
102
}
102
{ACAD_XDICTIONARY
360
33D
102
}
330
2A
100
AcDbVisualStyle
  2
Gouraud
 70
     2
 71
     2
 72
     2
 73
     1
 90
        2
 40
0.6
 41
30.0
 62
     5
 63
     7
421
 16777215
 74
     0
 91
        0
 64
     7
 65
   257
 75
     1
175
     1
 42
1.0
 92
        0
 66
     7
 43
1.0
 76
     1
 77
     6
 78
     2
 67
     7
 79
     5
170
     0
171
     0
290
     0
174
     0
 93
       13
 44
0.0
173
     0
291
     1
 45
0.0
  0
VISUALSTYLE
  5
2E
102
{ACAD_REACTORS
330
2A
102
}
102
{ACAD_XDICTIONARY
360
33F
102
}
330
2A
100
AcDbVisualStyle
  2
GouraudWithEdges
 70
     3
 71
     2
 72
     2
 73
     1
 90
        2
 40
0.6
 41
30.0
 62
     5
 63
     7
421
 16777215
 74
     1
 91
        0
 64
     7
 65
   257
 75
     1
175
     1
 42
1.0
 92
        0
 66
   257
 43
1.0
 76
     1
 77
     6
 78
     2
 67
     7
 79
     5
170
     0
171
     0
290
     0
174
     0
 93
       13
 44
0.0
173
     0
291
     1
 45
0.0
  0
VISUALSTYLE
  5
31
102
{ACAD_REACTORS
330
2A
102
}
102
{ACAD_XDICTIONARY
360
345
102
}
330
2A
100
AcDbVisualStyle
  2
Hidden
 70
     6
 71
     1
 72
     2
 73
     2
 90
        0
 40
0.6
 41
30.0
 62
     5
 63
     7
421
 16777215
 74
     2
 91
        2
 64
     7
 65
   257
 75
     2
175
     1
 42
40.0
 92
        0
 66
   257
 43
1.0
 76
     1
 77
     6
 78
     2
 67
     7
 79
     3
170
     0
171
     0
290
     0
174
     0
 93
        1
 44
0.0
173
     0
291
     0
 45
0.0
  0
VISUALSTYLE
  5
3B
102
{ACAD_REACTORS
330
2A
102
}
102
{ACAD_XDICTIONARY
360
359
102
}
330
2A
100
AcDbVisualStyle
  2
JitterOff
 70
    20
 71
     2
 72
     2
 73
     0
 90
        0
 40
0.6
 41
30.0
 62
     5
 63
     7
421
 16777215
 74
     1
 91
        4
 64
     7
 65
   257
 75
     1
175
     1
 42
1.0
 92
       10
 66
     7
 43
1.0
 76
     1
 77
     6
 78
     2
 67
     7
 79
     5
170
     0
171
     0
290
     0
174
     0
 93
        1
 44
0.0
173
     0
291
     1
 45
0.0
  0
VISUALSTYLE
  5
38
102
{ACAD_REACTORS
330
2A
102
}
102
{ACAD_XDICTIONARY
360
353
102
}
330
2A
100
AcDbVisualStyle
  2
Linepattern
 70
    14
 71
     2
 72
     2
 73
     0
 90
        0
 40
0.6
 41
30.0
 62
     5
 63
     7
421
 16777215
 74
     1
 91
        4
 64
     7
 65
   257
 75
     7
175
     7
 42
1.0
 92
        8
 66
     7
 43
1.0
 76
     1
 77
     6
 78
     2
 67
     7
 79
     5
170
     0
171
     0
290
     0
174
     0
 93
        1
 44
0.0
173
     0
291
     1
 45
0.0
  0
VISUALSTYLE
  5
3C
102
{ACAD_REACTORS
330
2A
102
}
102
{ACAD_XDICTIONARY
360
35B
102
}
330
2A
100
AcDbVisualStyle
  2
OverhangOff
 70
    21
 71
     2
 72
     2
 73
     0
 90
        0
 40
0.6
 41
30.0
 62
     5
 63
     7
421
 16777215
 74
     1
 91
        4
 64
     7
 65
   257
 75
     1
175
     1
 42
1.0
 92
        9
 66
     7
 43
1.0
 76
     1
 77
     6
 78
     2
 67
     7
 79
     5
170
     0
171
     0
290
     0
174
     0
 93
        1
 44
0.0
173
     0
291
     1
 45
0.0
  0
VISUALSTYLE
  5
33
102
{ACAD_REACTORS
330
2A
102
}
102
{ACAD_XDICTIONARY
360
349
102
}
330
2A
100
AcDbVisualStyle
  2
Realistic
 70
     8
 71
     2
 72
     3
 73
     0
 90
        2
 40
0.6
 41
30.0
 62
     5
 63
     7
421
 16777215
 74
     0
 91
        0
 64
     7
 65
   257
 75
     1
175
     1
 42
1.0
 92
        8
 66
   257
 43
1.0
 76
     1
 77
     6
 78
     2
 67
     7
 79
     3
170
     0
171
     0
290
     0
174
     0
 93
       13
 44
0.0
173
     0
291
     0
 45
0.0
  0
VISUALSTYLE
  5
42
102
{ACAD_REACTORS
330
2A
102
}
102
{ACAD_XDICTIONARY
360
367
102
}
330
2A
100
AcDbVisualStyle
  2
Shaded
 70
    27
 71
     2
 72
     2
 73
     1
 90
        2
 40
0.6
 41
30.0
 62
     5
 63
     7
421
 16777215
 74
     0
 91
        4
 64
     7
 65
   257
 75
     1
175
     1
 42
1.0
 92
        8
 66
   257
 43
1.0
 76
     1
 77
     6
 78
     2
 67
     8
425
  7895160
 79
     3
170
     0
171
     0
290
     0
174
     0
 93
        5
 44
0.0
173
     0
291
     0
 45
0.0
  0
VISUALSTYLE
  5
41
102
{ACAD_REACTORS
330
2A
102
}
102
{ACAD_XDICTIONARY
360
365
102
}
330
2A
100
AcDbVisualStyle
  2
Shaded with edges
 70
    26
 71
     2
 72
     2
 73
     1
 90
        2
 40
0.6
 41
30.0
 62
     5
 63
     7
421
 16777215
 74
     1
 91
       10
 64
     7
 65
   257
 75
     2
175
     1
 42
1.0
 92
        8
 66
   257
 43
1.0
 76
     1
 77
     6
 78
     2
 67
     7
 79
     3
170
     0
171
     0
290
     0
174
     0
 93
        5
 44
0.0
173
     0
291
     0
 45
0.0
  0
VISUALSTYLE
  5
3E
102
{ACAD_REACTORS
330
2A
102
}
102
{ACAD_XDICTIONARY
360
35F
102
}
330
2A
100
AcDbVisualStyle
  2
Shades of Gray
 70
    23
 71
     2
 72
     2
 73
     3
 90
        0
 40
0.6
 41
30.0
 62
     5
 63
     7
421
 16777215
 74
     2
 91
        2
 64
     7
 65
     7
 75
     1
175
     1
 42
40.0
 92
        8
 66
     7
 43
1.0
 76
     1
 77
     6
 78
     2
 67
     7
 79
     3
170
     0
171
     0
290
     0
174
     0
 93
        1
 44
0.0
173
     0
291
     0
 45
0.0
  0
VISUALSTYLE
  5
3F
102
{ACAD_REACTORS
330
2A
102
}
102
{ACAD_XDICTIONARY
360
361
102
}
330
2A
100
AcDbVisualStyle
  2
Sketchy
 70
    24
 71
     1
 72
     2
 73
     2
 90
        0
 40
0.6
 41
30.0
 62
     5
 63
     7
421
 16777215
 74
     2
 91
        2
 64
     7
 65
     7
 75
     1
175
     1
 42
40.0
 92
       11
 66
     7
 43
1.0
 76
     1
 77
     6
 78
     2
 67
     7
 79
     6
170
     0
171
     0
290
     0
174
     0
 93
        1
 44
0.0
173
     0
291
     0
 45
0.0
  0
VISUALSTYLE
  5
37
102
{ACAD_REACTORS
330
2A
102
}
102
{ACAD_XDICTIONARY
360
351
102
}
330
2A
100
AcDbVisualStyle
  2
Thicken
 70
    13
 71
     2
 72
     2
 73
     0
 90
        0
 40
0.6
 41
30.0
 62
     5
 63
     7
421
 16777215
 74
     1
 91
        4
 64
     7
 65
   257
 75
     1
175
     1
 42
1.0
 92
       12
 66
     7
 43
1.0
 76
     1
 77
     6
 78
     2
 67
     7
 79
     5
170
     0
171
     0
290
     0
174
     0
 93
        1
 44
0.0
173
     0
291
     1
 45
0.0
  0
VISUALSTYLE
  5
30
102
{ACAD_REACTORS
330
2A
102
}
102
{ACAD_XDICTIONARY
360
343
102
}
330
2A
100
AcDbVisualStyle
  2
Wireframe
 70
     5
 71
     0
 72
     2
 73
     0
 90
        0
 40
0.6
 41
30.0
 62
     5
 63
     7
421
 16777215
 74
     1
 91
        4
 64
     7
 65
   257
 75
     1
175
     1
 42
1.0
 92
        0
 66
   257
 43
1.0
 76
     1
 77
     6
 78
     2
 67
     7
 79
     3
170
     0
171
     0
290
     0
174
     0
 93
        1
 44
0.0
173
     0
291
     0
 45
0.0
  0
VISUALSTYLE
  5
40
102
{ACAD_REACTORS
330
2A
102
}
102
{ACAD_XDICTIONARY
360
363
102
}
330
2A
100
AcDbVisualStyle
  2
X-Ray
 70
    25
 71
     2
 72
     2
 73
     1
 90
        1
 40
0.5
 41
30.0
 62
     5
 63
     7
421
 16777215
 74
     1
 91
        0
 64
     7
 65
   257
 75
     1
175
     1
 42
1.0
 92
        8
 66
     7
 43
1.0
 76
     1
 77
     6
 78
     2
 67
     7
 79
     3
170
     0
171
     0
290
     0
174
     0
 93
       13
 44
0.0
173
     0
291
     0
 45
0.0
  0
DICTIONARYVAR
  5
337
102
{ACAD_REACTORS
330
336
102
}
330
336
100
DictionaryVariables
280
     0
  1
1:1
  0
DICTIONARYVAR
  5
370
102
{ACAD_REACTORS
330
336
102
}
330
336
100
DictionaryVariables
280
     0
  1
Standard
  0
DICTIONARYVAR
  5
36F
102
{ACAD_REACTORS
330
336
102
}
330
336
100
DictionaryVariables
280
     0
  1
Standard
  0
DICTIONARYVAR
  5
338
102
{ACAD_REACTORS
330
336
102
}
330
336
100
DictionaryVariables
280
     0
  1
2
  0
DICTIONARY
  5
36C
330
6C
100
AcDbDictionary
280
     1
281
     1
  3
ACAD_XREC_ROUNDTRIP
360
36D
  0
DICTIONARY
  5
369
330
6A
100
AcDbDictionary
280
     1
281
     1
  3
ACAD_ROUNDTRIP_2008_TABLESTYLE_CELLSTYLEMAP
360
36A
  0
DICTIONARY
  5
341
330
2F
100
AcDbDictionary
280
     1
281
     1
  3
ACAD_XREC_ROUNDTRIP
360
342
  0
DICTIONARY
  5
347
330
32
100
AcDbDictionary
280
     1
281
     1
  3
ACAD_XREC_ROUNDTRIP
360
348
  0
DICTIONARY
  5
34F
330
36
100
AcDbDictionary
280
     1
281
     1
  3
ACAD_XREC_ROUNDTRIP
360
350
  0
DICTIONARY
  5
357
330
3A
100
AcDbDictionary
280
     1
281
     1
  3
ACAD_XREC_ROUNDTRIP
360
358
  0
DICTIONARY
  5
34B
330
34
100
AcDbDictionary
280
     1
281
     1
  3
ACAD_XREC_ROUNDTRIP
360
34C
  0
DICTIONARY
  5
34D
330
35
100
AcDbDictionary
280
     1
281
     1
  3
ACAD_XREC_ROUNDTRIP
360
34E
  0
DICTIONARY
  5
35D
330
3D
100
AcDbDictionary
280
     1
281
     1
  3
ACAD_XREC_ROUNDTRIP
360
35E
  0
DICTIONARY
  5
355
330
39
100
AcDbDictionary
280
     1
281
     1
  3
ACAD_XREC_ROUNDTRIP
360
356
  0
DICTIONARY
  5
339
330
2B
100
AcDbDictionary
280
     1
281
     1
  3
ACAD_XREC_ROUNDTRIP
360
33A
  0
DICTIONARY
  5
33B
330
2C
100
AcDbDictionary
280
     1
281
     1
  3
ACAD_XREC_ROUNDTRIP
360
33C
  0
DICTIONARY
  5
33D
330
2D
100
AcDbDictionary
280
     1
281
     1
  3
ACAD_XREC_ROUNDTRIP
360
33E
  0
DICTIONARY
  5
33F
330
2E
100
AcDbDictionary
280
     1
281
     1
  3
ACAD_XREC_ROUNDTRIP
360
340
  0
DICTIONARY
  5
345
330
31
100
AcDbDictionary
280
     1
281
     1
  3
ACAD_XREC_ROUNDTRIP
360
346
  0
DICTIONARY
  5
359
330
3B
100
AcDbDictionary
280
     1
281
     1
  3
ACAD_XREC_ROUNDTRIP
360
35A
  0
DICTIONARY
  5
353
330
38
100
AcDbDictionary
280
     1
281
     1
  3
ACAD_XREC_ROUNDTRIP
360
354
  0
DICTIONARY
  5
35B
330
3C
100
AcDbDictionary
280
     1
281
     1
  3
ACAD_XREC_ROUNDTRIP
360
35C
  0
DICTIONARY
  5
349
330
33
100
AcDbDictionary
280
     1
281
     1
  3
ACAD_XREC_ROUNDTRIP
360
34A
  0
DICTIONARY
  5
367
330
42
100
AcDbDictionary
280
     1
281
     1
  3
ACAD_XREC_ROUNDTRIP
360
368
  0
DICTIONARY
  5
365
330
41
100
AcDbDictionary
280
     1
281
     1
  3
ACAD_XREC_ROUNDTRIP
360
366
  0
DICTIONARY
  5
35F
330
3E
100
AcDbDictionary
280
     1
281
     1
  3
ACAD_XREC_ROUNDTRIP
360
360
  0
DICTIONARY
  5
361
330
3F
100
AcDbDictionary
280
     1
281
     1
  3
ACAD_XREC_ROUNDTRIP
360
362
  0
DICTIONARY
  5
351
330
37
100
AcDbDictionary
280
     1
281
     1
  3
ACAD_XREC_ROUNDTRIP
360
352
  0
DICTIONARY
  5
343
330
30
100
AcDbDictionary
280
     1
281
     1
  3
ACAD_XREC_ROUNDTRIP
360
344
  0
DICTIONARY
  5
363
330
40
100
AcDbDictionary
280
     1
281
     1
  3
ACAD_XREC_ROUNDTRIP
360
364
  0
XRECORD
  5
36D
102
{ACAD_REACTORS
330
36C
102
}
330
36C
100
AcDbXrecord
280
     1
102
ACAD_ROUNDTRIP_2010_MLEADER_STYLE
  0
CELLSTYLEMAP
  5
36A
102
{ACAD_REACTORS
330
369
102
}
330
369
100
AcDbCellStyleMap
 90
        3
300
CELLSTYLE
  1
TABLEFORMAT_BEGIN
 90
        5
170
     1
 91
        0
 92
    32768
 62
   257
 93
        1
300
CONTENTFORMAT
  1
CONTENTFORMAT_BEGIN
 90
        0
 91
        0
 92
        4
 93
        0
300

 40
0.0
140
1.0
 94
        5
 62
     0
340
11
144
6.0
309
CONTENTFORMAT_END
171
     1
301
MARGIN
  1
CELLMARGIN_BEGIN
 40
1.5
 40
1.5
 40
1.5
 40
1.5
 40
1.5
 40
1.5
309
CELLMARGIN_END
 94
        6
 95
        1
302
GRIDFORMAT
  1
GRIDFORMAT_BEGIN
 90
        0
 91
        1
 62
     0
 92
       -2
340
14
 93
        0
 40
0.045
309
GRIDFORMAT_END
 95
        2
302
GRIDFORMAT
  1
GRIDFORMAT_BEGIN
 90
        0
 91
        1
 62
     0
 92
       -2
340
14
 93
        0
 40
0.045
309
GRIDFORMAT_END
 95
        4
302
GRIDFORMAT
  1
GRIDFORMAT_BEGIN
 90
        0
 91
        1
 62
     0
 92
       -2
340
14
 93
        0
 40
0.045
309
GRIDFORMAT_END
 95
        8
302
GRIDFORMAT
  1
GRIDFORMAT_BEGIN
 90
        0
 91
        1
 62
     0
 92
       -2
340
14
 93
        0
 40
0.045
309
GRIDFORMAT_END
 95
       16
302
GRIDFORMAT
  1
GRIDFORMAT_BEGIN
 90
        0
 91
        1
 62
     0
 92
       -2
340
14
 93
        0
 40
0.045
309
GRIDFORMAT_END
 95
       32
302
GRIDFORMAT
  1
GRIDFORMAT_BEGIN
 90
        0
 91
        1
 62
     0
 92
       -2
340
14
 93
        0
 40
0.045
309
GRIDFORMAT_END
309
TABLEFORMAT_END
  1
CELLSTYLE_BEGIN
 90
        1
 91
        1
300
_TITLE
309
CELLSTYLE_END
300
CELLSTYLE
  1
TABLEFORMAT_BEGIN
 90
        5
170
     1
 91
        0
 92
        0
 62
   257
 93
        1
300
CONTENTFORMAT
  1
CONTENTFORMAT_BEGIN
 90
        0
 91
        0
 92
        4
 93
        0
300

 40
0.0
140
1.0
 94
        5
 62
     0
340
11
144
4.5
309
CONTENTFORMAT_END
171
     1
301
MARGIN
  1
CELLMARGIN_BEGIN
 40
1.5
 40
1.5
 40
1.5
 40
1.5
 40
1.5
 40
1.5
309
CELLMARGIN_END
 94
        6
 95
        1
302
GRIDFORMAT
  1
GRIDFORMAT_BEGIN
 90
        0
 91
        1
 62
     0
 92
       -2
340
14
 93
        0
 40
0.045
309
GRIDFORMAT_END
 95
        2
302
GRIDFORMAT
  1
GRIDFORMAT_BEGIN
 90
        0
 91
        1
 62
     0
 92
       -2
340
14
 93
        0
 40
0.045
309
GRIDFORMAT_END
 95
        4
302
GRIDFORMAT
  1
GRIDFORMAT_BEGIN
 90
        0
 91
        1
 62
     0
 92
       -2
340
14
 93
        0
 40
0.045
309
GRIDFORMAT_END
 95
        8
302
GRIDFORMAT
  1
GRIDFORMAT_BEGIN
 90
        0
 91
        1
 62
     0
 92
       -2
340
14
 93
        0
 40
0.045
309
GRIDFORMAT_END
 95
       16
302
GRIDFORMAT
  1
GRIDFORMAT_BEGIN
 90
        0
 91
        1
 62
     0
 92
       -2
340
14
 93
        0
 40
0.045
309
GRIDFORMAT_END
 95
       32
302
GRIDFORMAT
  1
GRIDFORMAT_BEGIN
 90
        0
 91
        1
 62
     0
 92
       -2
340
14
 93
        0
 40
0.045
309
GRIDFORMAT_END
309
TABLEFORMAT_END
  1
CELLSTYLE_BEGIN
 90
        2
 91
        1
300
_HEADER
309
CELLSTYLE_END
300
CELLSTYLE
  1
TABLEFORMAT_BEGIN
 90
        5
170
     1
 91
        0
 92
        0
 62
   257
 93
        1
300
CONTENTFORMAT
  1
CONTENTFORMAT_BEGIN
 90
        0
 91
        0
 92
        4
 93
        0
300

 40
0.0
140
1.0
 94
        2
 62
     0
340
11
144
4.5
309
CONTENTFORMAT_END
171
     1
301
MARGIN
  1
CELLMARGIN_BEGIN
 40
1.5
 40
1.5
 40
1.5
 40
1.5
 40
1.5
 40
1.5
309
CELLMARGIN_END
 94
        6
 95
        1
302
GRIDFORMAT
  1
GRIDFORMAT_BEGIN
 90
        0
 91
        1
 62
     0
 92
       -2
340
14
 93
        0
 40
0.045
309
GRIDFORMAT_END
 95
        2
302
GRIDFORMAT
  1
GRIDFORMAT_BEGIN
 90
        0
 91
        1
 62
     0
 92
       -2
340
14
 93
        0
 40
0.045
309
GRIDFORMAT_END
 95
        4
302
GRIDFORMAT
  1
GRIDFORMAT_BEGIN
 90
        0
 91
        1
 62
     0
 92
       -2
340
14
 93
        0
 40
0.045
309
GRIDFORMAT_END
 95
        8
302
GRIDFORMAT
  1
GRIDFORMAT_BEGIN
 90
        0
 91
        1
 62
     0
 92
       -2
340
14
 93
        0
 40
0.045
309
GRIDFORMAT_END
 95
       16
302
GRIDFORMAT
  1
GRIDFORMAT_BEGIN
 90
        0
 91
        1
 62
     0
 92
       -2
340
14
 93
        0
 40
0.045
309
GRIDFORMAT_END
 95
       32
302
GRIDFORMAT
  1
GRIDFORMAT_BEGIN
 90
        0
 91
        1
 62
     0
 92
       -2
340
14
 93
        0
 40
0.045
309
GRIDFORMAT_END
309
TABLEFORMAT_END
  1
CELLSTYLE_BEGIN
 90
        3
 91
        2
300
_DATA
309
CELLSTYLE_END
  0
XRECORD
  5
342
102
{ACAD_REACTORS
330
341
102
}
330
341
100
AcDbXrecord
280
     1
102
RTVSPropertyOp0
 70
     1
102
RTVSPropertyOp1
 70
     1
102
RTVSPropertyOp2
 70
     1
102
RTVSPropertyOp3
 70
     1
102
RTVSPropertyOp4
 70
     1
102
RTVSPropertyOp5
 70
     1
102
RTVSPropertyOp6
 70
     1
102
RTVSPropertyOp7
 70
     1
102
RTVSPropertyOp8
 70
     1
102
RTVSPropertyOp9
 70
     1
102
RTVSPropertyOp10
 70
     1
102
RTVSPropertyOp11
 70
     1
102
RTVSPropertyOp12
 70
     1
102
RTVSPropertyOp13
 70
     1
102
RTVSPropertyOp14
 70
     1
102
RTVSPropertyOp15
 70
     1
102
RTVSPropertyOp16
 70
     1
102
RTVSPropertyOp17
 70
     1
102
RTVSPropertyOp18
 70
     1
102
RTVSPropertyOp19
 70
     1
102
RTVSPropertyOp20
 70
     1
102
RTVSPropertyOp21
 70
     1
102
RTVSPropertyOp22
 70
     1
102
RTVSPropertyOp23
 70
     1
102
RTVSPropertyOp24
 70
     1
102
RTVSPropertyOp25
 70
     1
102
RTVSPropertyOp26
 70
     1
102
RTVSPropertyOp27
 70
     1
102
RTVSPropertyOp28
 70
     1
102
RTVSPropertyOp29
 70
     1
102
RTVSPropertyOp30
 70
     1
102
RTVSPropertyOp31
 70
     1
102
RTVSPropertyOp32
 70
     1
102
RTVSPropertyOp33
 70
     1
102
RTVSPropertyOp34
 70
     1
102
RTVSPropertyOp35
 70
     1
102
RTVSPropertyOp36
 70
     1
102
RTVSPropertyOp37
 70
     1
102
RTVSPropertyOp38
 70
     1
102
RTVSPropertyOp39
 70
     1
102
RTVSPropertyOp40
 70
     1
102
RTVSPropertyOp41
 70
     1
102
RTVSPropertyOp42
 70
     1
102
RTVSPropertyOp43
 70
     1
102
RTVSPropertyOp44
 70
     1
102
RTVSPropertyOp45
 70
     1
102
RTVSPropertyOp46
 70
     1
102
RTVSPropertyOp47
 70
     1
102
RTVSPropertyOp48
 70
     1
102
RTVSPropertyOp49
 70
     1
102
RTVSPropertyOp50
 70
     1
102
RTVSPropertyOp51
 70
     0
102
RTVSPropertyOp52
 70
     0
102
RTVSPropertyOp53
 70
     1
102
RTVSPropertyOp54
 70
     1
102
RTVSPropertyOp55
 70
     1
102
RTVSPropertyOp56
 70
     1
102
RTVSPropertyOp57
 70
     1
102
RTVSPost2010Prop28
280
     1
102
RTVSPost2010PropOp28
 70
     1
102
RTVSPost2010Prop29
280
     1
102
RTVSPost2010PropOp29
 70
     1
102
RTVSPost2010Prop30
280
     0
102
RTVSPost2010PropOp30
 70
     1
102
RTVSPost2010Prop31
280
     0
102
RTVSPost2010PropOp31
 70
     1
102
RTVSPost2010Prop32
280
     0
102
RTVSPost2010PropOp32
 70
     1
102
RTVSPost2010Prop33
280
     0
102
RTVSPost2010PropOp33
 70
     1
102
RTVSPost2010Prop34
280
     0
102
RTVSPost2010PropOp34
 70
     1
102
RTVSPost2010Prop35
280
     0
102
RTVSPost2010PropOp35
 70
     1
102
RTVSPost2010Prop36
280
     0
102
RTVSPost2010PropOp36
 70
     1
102
RTVSPost2010Prop37
 90
       50
102
RTVSPost2010PropOp37
 70
     1
102
RTVSPost2010Prop38
140
0.0
102
RTVSPost2010PropOp38
 70
     1
102
RTVSPost2010Prop39
140
1.0
102
RTVSPost2010PropOp39
 70
     1
102
RTVSPost2010Prop40
 90
        0
102
RTVSPost2010PropOp40
 70
     1
102
RTVSPost2010Prop41ColorIndex
 90
       18
102
RTVSPost2010Prop41ColorRGB
 90
        0
102
RTVSPost2010PropOp41
 70
     1
102
RTVSPost2010Prop42
 90
       50
102
RTVSPost2010PropOp42
 70
     1
102
RTVSPost2010Prop43
 90
        3
102
RTVSPost2010PropOp43
 70
     1
102
RTVSPost2010Prop44ColorIndex
 90
        5
102
RTVSPost2010Prop44ColorRGB
 90
      255
102
RTVSPost2010PropOp44
 70
     1
102
RTVSPost2010Prop45
280
     0
102
RTVSPost2010PropOp45
 70
     1
102
RTVSPost2010Prop46
 90
       50
102
RTVSPost2010PropOp46
 70
     1
102
RTVSPost2010Prop47
 90
       50
102
RTVSPost2010PropOp47
 70
     1
102
RTVSPost2010Prop48
 90
       50
102
RTVSPost2010PropOp48
 70
     1
102
RTVSPost2010Prop49
280
     0
102
RTVSPost2010PropOp49
 70
     1
102
RTVSPost2010Prop50
 90
       50
102
RTVSPost2010PropOp50
 70
     1
102
RTVSPost2010Prop51ColorIndex
 90
      256
102
RTVSPost2010Prop51ColorRGB
 90
-16777216
102
RTVSPost2010PropOp51
 70
     0
102
RTVSPost2010Prop52
140
1.0
102
RTVSPost2010PropOp52
 70
     0
102
RTVSPost2010Prop53
 90
        2
102
RTVSPost2010PropOp53
 70
     1
102
RTVSPost2010Prop54
  1
strokes_ogs.tif
102
RTVSPost2010PropOp54
 70
     1
102
RTVSPost2010Prop55
280
     0
102
RTVSPost2010PropOp55
 70
     1
102
RTVSPost2010Prop56
140
1.0
102
RTVSPost2010PropOp56
 70
     1
102
RTVSPost2010Prop57
140
1.0
102
RTVSPost2010PropOp57
 70
     1
  0
XRECORD
  5
348
102
{ACAD_REACTORS
330
347
102
}
330
347
100
AcDbXrecord
280
     1
102
RTVSPropertyOp0
 70
     1
102
RTVSPropertyOp1
 70
     1
102
RTVSPropertyOp2
 70
     1
102
RTVSPropertyOp3
 70
     1
102
RTVSPropertyOp4
 70
     1
102
RTVSPropertyOp5
 70
     1
102
RTVSPropertyOp6
 70
     1
102
RTVSPropertyOp7
 70
     1
102
RTVSPropertyOp8
 70
     1
102
RTVSPropertyOp9
 70
     1
102
RTVSPropertyOp10
 70
     1
102
RTVSPropertyOp11
 70
     1
102
RTVSPropertyOp12
 70
     1
102
RTVSPropertyOp13
 70
     1
102
RTVSPropertyOp14
 70
     1
102
RTVSPropertyOp15
 70
     1
102
RTVSPropertyOp16
 70
     1
102
RTVSPropertyOp17
 70
     1
102
RTVSPropertyOp18
 70
     1
102
RTVSPropertyOp19
 70
     1
102
RTVSPropertyOp20
 70
     1
102
RTVSPropertyOp21
 70
     1
102
RTVSPropertyOp22
 70
     1
102
RTVSPropertyOp23
 70
     1
102
RTVSPropertyOp24
 70
     1
102
RTVSPropertyOp25
 70
     1
102
RTVSPropertyOp26
 70
     1
102
RTVSPropertyOp27
 70
     1
102
RTVSPropertyOp28
 70
     1
102
RTVSPropertyOp29
 70
     1
102
RTVSPropertyOp30
 70
     1
102
RTVSPropertyOp31
 70
     1
102
RTVSPropertyOp32
 70
     1
102
RTVSPropertyOp33
 70
     1
102
RTVSPropertyOp34
 70
     1
102
RTVSPropertyOp35
 70
     1
102
RTVSPropertyOp36
 70
     1
102
RTVSPropertyOp37
 70
     1
102
RTVSPropertyOp38
 70
     1
102
RTVSPropertyOp39
 70
     1
102
RTVSPropertyOp40
 70
     1
102
RTVSPropertyOp41
 70
     1
102
RTVSPropertyOp42
 70
     1
102
RTVSPropertyOp43
 70
     1
102
RTVSPropertyOp44
 70
     1
102
RTVSPropertyOp45
 70
     1
102
RTVSPropertyOp46
 70
     1
102
RTVSPropertyOp47
 70
     1
102
RTVSPropertyOp48
 70
     1
102
RTVSPropertyOp49
 70
     1
102
RTVSPropertyOp50
 70
     1
102
RTVSPropertyOp51
 70
     0
102
RTVSPropertyOp52
 70
     0
102
RTVSPropertyOp53
 70
     1
102
RTVSPropertyOp54
 70
     1
102
RTVSPropertyOp55
 70
     1
102
RTVSPropertyOp56
 70
     1
102
RTVSPropertyOp57
 70
     1
102
RTVSPost2010Prop28
280
     0
102
RTVSPost2010PropOp28
 70
     1
102
RTVSPost2010Prop29
280
     1
102
RTVSPost2010PropOp29
 70
     1
102
RTVSPost2010Prop30
280
     1
102
RTVSPost2010PropOp30
 70
     1
102
RTVSPost2010Prop31
280
     0
102
RTVSPost2010PropOp31
 70
     1
102
RTVSPost2010Prop32
280
     0
102
RTVSPost2010PropOp32
 70
     1
102
RTVSPost2010Prop33
280
     0
102
RTVSPost2010PropOp33
 70
     1
102
RTVSPost2010Prop34
280
     0
102
RTVSPost2010PropOp34
 70
     1
102
RTVSPost2010Prop35
280
     0
102
RTVSPost2010PropOp35
 70
     1
102
RTVSPost2010Prop36
280
     0
102
RTVSPost2010PropOp36
 70
     1
102
RTVSPost2010Prop37
 90
       50
102
RTVSPost2010PropOp37
 70
     1
102
RTVSPost2010Prop38
140
0.0
102
RTVSPost2010PropOp38
 70
     1
102
RTVSPost2010Prop39
140
1.0
102
RTVSPost2010PropOp39
 70
     1
102
RTVSPost2010Prop40
 90
        0
102
RTVSPost2010PropOp40
 70
     1
102
RTVSPost2010Prop41ColorIndex
 90
       18
102
RTVSPost2010Prop41ColorRGB
 90
        0
102
RTVSPost2010PropOp41
 70
     1
102
RTVSPost2010Prop42
 90
       50
102
RTVSPost2010PropOp42
 70
     1
102
RTVSPost2010Prop43
 90
        3
102
RTVSPost2010PropOp43
 70
     1
102
RTVSPost2010Prop44ColorIndex
 90
        5
102
RTVSPost2010Prop44ColorRGB
 90
      255
102
RTVSPost2010PropOp44
 70
     1
102
RTVSPost2010Prop45
280
     0
102
RTVSPost2010PropOp45
 70
     1
102
RTVSPost2010Prop46
 90
       50
102
RTVSPost2010PropOp46
 70
     1
102
RTVSPost2010Prop47
 90
       50
102
RTVSPost2010PropOp47
 70
     1
102
RTVSPost2010Prop48
 90
       50
102
RTVSPost2010PropOp48
 70
     1
102
RTVSPost2010Prop49
280
     0
102
RTVSPost2010PropOp49
 70
     1
102
RTVSPost2010Prop50
 90
       50
102
RTVSPost2010PropOp50
 70
     1
102
RTVSPost2010Prop51ColorIndex
 90
      256
102
RTVSPost2010Prop51ColorRGB
 90
-16777216
102
RTVSPost2010PropOp51
 70
     0
102
RTVSPost2010Prop52
140
1.0
102
RTVSPost2010PropOp52
 70
     0
102
RTVSPost2010Prop53
 90
        2
102
RTVSPost2010PropOp53
 70
     1
102
RTVSPost2010Prop54
  1
strokes_ogs.tif
102
RTVSPost2010PropOp54
 70
     1
102
RTVSPost2010Prop55
280
     0
102
RTVSPost2010PropOp55
 70
     1
102
RTVSPost2010Prop56
140
1.0
102
RTVSPost2010PropOp56
 70
     1
102
RTVSPost2010Prop57
140
1.0
102
RTVSPost2010PropOp57
 70
     1
  0
XRECORD
  5
350
102
{ACAD_REACTORS
330
34F
102
}
330
34F
100
AcDbXrecord
280
     1
102
RTVSPropertyOp0
 70
     1
102
RTVSPropertyOp1
 70
     1
102
RTVSPropertyOp2
 70
     1
102
RTVSPropertyOp3
 70
     1
102
RTVSPropertyOp4
 70
     1
102
RTVSPropertyOp5
 70
     1
102
RTVSPropertyOp6
 70
     1
102
RTVSPropertyOp7
 70
     1
102
RTVSPropertyOp8
 70
     1
102
RTVSPropertyOp9
 70
     1
102
RTVSPropertyOp10
 70
     1
102
RTVSPropertyOp11
 70
     1
102
RTVSPropertyOp12
 70
     1
102
RTVSPropertyOp13
 70
     1
102
RTVSPropertyOp14
 70
     1
102
RTVSPropertyOp15
 70
     1
102
RTVSPropertyOp16
 70
     1
102
RTVSPropertyOp17
 70
     1
102
RTVSPropertyOp18
 70
     1
102
RTVSPropertyOp19
 70
     1
102
RTVSPropertyOp20
 70
     1
102
RTVSPropertyOp21
 70
     1
102
RTVSPropertyOp22
 70
     1
102
RTVSPropertyOp23
 70
     1
102
RTVSPropertyOp24
 70
     1
102
RTVSPropertyOp25
 70
     1
102
RTVSPropertyOp26
 70
     1
102
RTVSPropertyOp27
 70
     1
102
RTVSPropertyOp28
 70
     1
102
RTVSPropertyOp29
 70
     1
102
RTVSPropertyOp30
 70
     1
102
RTVSPropertyOp31
 70
     1
102
RTVSPropertyOp32
 70
     1
102
RTVSPropertyOp33
 70
     1
102
RTVSPropertyOp34
 70
     1
102
RTVSPropertyOp35
 70
     1
102
RTVSPropertyOp36
 70
     1
102
RTVSPropertyOp37
 70
     1
102
RTVSPropertyOp38
 70
     1
102
RTVSPropertyOp39
 70
     1
102
RTVSPropertyOp40
 70
     1
102
RTVSPropertyOp41
 70
     1
102
RTVSPropertyOp42
 70
     1
102
RTVSPropertyOp43
 70
     1
102
RTVSPropertyOp44
 70
     1
102
RTVSPropertyOp45
 70
     1
102
RTVSPropertyOp46
 70
     1
102
RTVSPropertyOp47
 70
     1
102
RTVSPropertyOp48
 70
     1
102
RTVSPropertyOp49
 70
     1
102
RTVSPropertyOp50
 70
     1
102
RTVSPropertyOp51
 70
     0
102
RTVSPropertyOp52
 70
     0
102
RTVSPropertyOp53
 70
     1
102
RTVSPropertyOp54
 70
     1
102
RTVSPropertyOp55
 70
     1
102
RTVSPropertyOp56
 70
     1
102
RTVSPropertyOp57
 70
     1
102
RTVSPost2010Prop28
280
     0
102
RTVSPost2010PropOp28
 70
     1
102
RTVSPost2010Prop29
280
     1
102
RTVSPost2010PropOp29
 70
     1
102
RTVSPost2010Prop30
280
     1
102
RTVSPost2010PropOp30
 70
     1
102
RTVSPost2010Prop31
280
     0
102
RTVSPost2010PropOp31
 70
     1
102
RTVSPost2010Prop32
280
     0
102
RTVSPost2010PropOp32
 70
     1
102
RTVSPost2010Prop33
280
     0
102
RTVSPost2010PropOp33
 70
     1
102
RTVSPost2010Prop34
280
     0
102
RTVSPost2010PropOp34
 70
     1
102
RTVSPost2010Prop35
280
     0
102
RTVSPost2010PropOp35
 70
     1
102
RTVSPost2010Prop36
280
     0
102
RTVSPost2010PropOp36
 70
     1
102
RTVSPost2010Prop37
 90
       50
102
RTVSPost2010PropOp37
 70
     1
102
RTVSPost2010Prop38
140
0.0
102
RTVSPost2010PropOp38
 70
     1
102
RTVSPost2010Prop39
140
1.0
102
RTVSPost2010PropOp39
 70
     1
102
RTVSPost2010Prop40
 90
        0
102
RTVSPost2010PropOp40
 70
     1
102
RTVSPost2010Prop41ColorIndex
 90
       18
102
RTVSPost2010Prop41ColorRGB
 90
        0
102
RTVSPost2010PropOp41
 70
     1
102
RTVSPost2010Prop42
 90
       50
102
RTVSPost2010PropOp42
 70
     1
102
RTVSPost2010Prop43
 90
        3
102
RTVSPost2010PropOp43
 70
     1
102
RTVSPost2010Prop44ColorIndex
 90
        5
102
RTVSPost2010Prop44ColorRGB
 90
      255
102
RTVSPost2010PropOp44
 70
     1
102
RTVSPost2010Prop45
280
     0
102
RTVSPost2010PropOp45
 70
     1
102
RTVSPost2010Prop46
 90
       50
102
RTVSPost2010PropOp46
 70
     1
102
RTVSPost2010Prop47
 90
       50
102
RTVSPost2010PropOp47
 70
     1
102
RTVSPost2010Prop48
 90
       50
102
RTVSPost2010PropOp48
 70
     1
102
RTVSPost2010Prop49
280
     0
102
RTVSPost2010PropOp49
 70
     1
102
RTVSPost2010Prop50
 90
       50
102
RTVSPost2010PropOp50
 70
     1
102
RTVSPost2010Prop51ColorIndex
 90
      256
102
RTVSPost2010Prop51ColorRGB
 90
-16777216
102
RTVSPost2010PropOp51
 70
     0
102
RTVSPost2010Prop52
140
1.0
102
RTVSPost2010PropOp52
 70
     0
102
RTVSPost2010Prop53
 90
        2
102
RTVSPost2010PropOp53
 70
     1
102
RTVSPost2010Prop54
  1
strokes_ogs.tif
102
RTVSPost2010PropOp54
 70
     1
102
RTVSPost2010Prop55
280
     0
102
RTVSPost2010PropOp55
 70
     1
102
RTVSPost2010Prop56
140
1.0
102
RTVSPost2010PropOp56
 70
     1
102
RTVSPost2010Prop57
140
1.0
102
RTVSPost2010PropOp57
 70
     1
  0
XRECORD
  5
358
102
{ACAD_REACTORS
330
357
102
}
330
357
100
AcDbXrecord
280
     1
102
RTVSPropertyOp0
 70
     1
102
RTVSPropertyOp1
 70
     1
102
RTVSPropertyOp2
 70
     1
102
RTVSPropertyOp3
 70
     1
102
RTVSPropertyOp4
 70
     1
102
RTVSPropertyOp5
 70
     1
102
RTVSPropertyOp6
 70
     1
102
RTVSPropertyOp7
 70
     1
102
RTVSPropertyOp8
 70
     1
102
RTVSPropertyOp9
 70
     1
102
RTVSPropertyOp10
 70
     1
102
RTVSPropertyOp11
 70
     1
102
RTVSPropertyOp12
 70
     1
102
RTVSPropertyOp13
 70
     1
102
RTVSPropertyOp14
 70
     1
102
RTVSPropertyOp15
 70
     1
102
RTVSPropertyOp16
 70
     1
102
RTVSPropertyOp17
 70
     1
102
RTVSPropertyOp18
 70
     1
102
RTVSPropertyOp19
 70
     1
102
RTVSPropertyOp20
 70
     1
102
RTVSPropertyOp21
 70
     1
102
RTVSPropertyOp22
 70
     1
102
RTVSPropertyOp23
 70
     1
102
RTVSPropertyOp24
 70
     1
102
RTVSPropertyOp25
 70
     1
102
RTVSPropertyOp26
 70
     1
102
RTVSPropertyOp27
 70
     1
102
RTVSPropertyOp28
 70
     1
102
RTVSPropertyOp29
 70
     1
102
RTVSPropertyOp30
 70
     1
102
RTVSPropertyOp31
 70
     1
102
RTVSPropertyOp32
 70
     1
102
RTVSPropertyOp33
 70
     1
102
RTVSPropertyOp34
 70
     1
102
RTVSPropertyOp35
 70
     1
102
RTVSPropertyOp36
 70
     1
102
RTVSPropertyOp37
 70
     1
102
RTVSPropertyOp38
 70
     1
102
RTVSPropertyOp39
 70
     1
102
RTVSPropertyOp40
 70
     1
102
RTVSPropertyOp41
 70
     1
102
RTVSPropertyOp42
 70
     1
102
RTVSPropertyOp43
 70
     1
102
RTVSPropertyOp44
 70
     1
102
RTVSPropertyOp45
 70
     1
102
RTVSPropertyOp46
 70
     1
102
RTVSPropertyOp47
 70
     1
102
RTVSPropertyOp48
 70
     1
102
RTVSPropertyOp49
 70
     1
102
RTVSPropertyOp50
 70
     1
102
RTVSPropertyOp51
 70
     0
102
RTVSPropertyOp52
 70
     0
102
RTVSPropertyOp53
 70
     1
102
RTVSPropertyOp54
 70
     1
102
RTVSPropertyOp55
 70
     1
102
RTVSPropertyOp56
 70
     1
102
RTVSPropertyOp57
 70
     1
102
RTVSPost2010Prop28
280
     0
102
RTVSPost2010PropOp28
 70
     1
102
RTVSPost2010Prop29
280
     1
102
RTVSPost2010PropOp29
 70
     1
102
RTVSPost2010Prop30
280
     1
102
RTVSPost2010PropOp30
 70
     1
102
RTVSPost2010Prop31
280
     0
102
RTVSPost2010PropOp31
 70
     1
102
RTVSPost2010Prop32
280
     0
102
RTVSPost2010PropOp32
 70
     1
102
RTVSPost2010Prop33
280
     0
102
RTVSPost2010PropOp33
 70
     1
102
RTVSPost2010Prop34
280
     0
102
RTVSPost2010PropOp34
 70
     1
102
RTVSPost2010Prop35
280
     0
102
RTVSPost2010PropOp35
 70
     1
102
RTVSPost2010Prop36
280
     0
102
RTVSPost2010PropOp36
 70
     1
102
RTVSPost2010Prop37
 90
       50
102
RTVSPost2010PropOp37
 70
     1
102
RTVSPost2010Prop38
140
0.0
102
RTVSPost2010PropOp38
 70
     1
102
RTVSPost2010Prop39
140
1.0
102
RTVSPost2010PropOp39
 70
     1
102
RTVSPost2010Prop40
 90
        0
102
RTVSPost2010PropOp40
 70
     1
102
RTVSPost2010Prop41ColorIndex
 90
       18
102
RTVSPost2010Prop41ColorRGB
 90
        0
102
RTVSPost2010PropOp41
 70
     1
102
RTVSPost2010Prop42
 90
       50
102
RTVSPost2010PropOp42
 70
     1
102
RTVSPost2010Prop43
 90
        3
102
RTVSPost2010PropOp43
 70
     1
102
RTVSPost2010Prop44ColorIndex
 90
        5
102
RTVSPost2010Prop44ColorRGB
 90
      255
102
RTVSPost2010PropOp44
 70
     1
102
RTVSPost2010Prop45
280
     0
102
RTVSPost2010PropOp45
 70
     1
102
RTVSPost2010Prop46
 90
       50
102
RTVSPost2010PropOp46
 70
     1
102
RTVSPost2010Prop47
 90
       50
102
RTVSPost2010PropOp47
 70
     1
102
RTVSPost2010Prop48
 90
       50
102
RTVSPost2010PropOp48
 70
     1
102
RTVSPost2010Prop49
280
     0
102
RTVSPost2010PropOp49
 70
     1
102
RTVSPost2010Prop50
 90
       50
102
RTVSPost2010PropOp50
 70
     1
102
RTVSPost2010Prop51ColorIndex
 90
      256
102
RTVSPost2010Prop51ColorRGB
 90
-16777216
102
RTVSPost2010PropOp51
 70
     0
102
RTVSPost2010Prop52
140
1.0
102
RTVSPost2010PropOp52
 70
     0
102
RTVSPost2010Prop53
 90
        2
102
RTVSPost2010PropOp53
 70
     1
102
RTVSPost2010Prop54
  1
strokes_ogs.tif
102
RTVSPost2010PropOp54
 70
     1
102
RTVSPost2010Prop55
280
     0
102
RTVSPost2010PropOp55
 70
     1
102
RTVSPost2010Prop56
140
1.0
102
RTVSPost2010PropOp56
 70
     1
102
RTVSPost2010Prop57
140
1.0
102
RTVSPost2010PropOp57
 70
     1
  0
XRECORD
  5
34C
102
{ACAD_REACTORS
330
34B
102
}
330
34B
100
AcDbXrecord
280
     1
102
RTVSPropertyOp0
 70
     1
102
RTVSPropertyOp1
 70
     1
102
RTVSPropertyOp2
 70
     1
102
RTVSPropertyOp3
 70
     1
102
RTVSPropertyOp4
 70
     1
102
RTVSPropertyOp5
 70
     1
102
RTVSPropertyOp6
 70
     1
102
RTVSPropertyOp7
 70
     1
102
RTVSPropertyOp8
 70
     1
102
RTVSPropertyOp9
 70
     1
102
RTVSPropertyOp10
 70
     1
102
RTVSPropertyOp11
 70
     1
102
RTVSPropertyOp12
 70
     1
102
RTVSPropertyOp13
 70
     1
102
RTVSPropertyOp14
 70
     1
102
RTVSPropertyOp15
 70
     1
102
RTVSPropertyOp16
 70
     1
102
RTVSPropertyOp17
 70
     1
102
RTVSPropertyOp18
 70
     1
102
RTVSPropertyOp19
 70
     1
102
RTVSPropertyOp20
 70
     1
102
RTVSPropertyOp21
 70
     1
102
RTVSPropertyOp22
 70
     1
102
RTVSPropertyOp23
 70
     1
102
RTVSPropertyOp24
 70
     1
102
RTVSPropertyOp25
 70
     1
102
RTVSPropertyOp26
 70
     1
102
RTVSPropertyOp27
 70
     1
102
RTVSPropertyOp28
 70
     1
102
RTVSPropertyOp29
 70
     1
102
RTVSPropertyOp30
 70
     1
102
RTVSPropertyOp31
 70
     1
102
RTVSPropertyOp32
 70
     1
102
RTVSPropertyOp33
 70
     1
102
RTVSPropertyOp34
 70
     1
102
RTVSPropertyOp35
 70
     1
102
RTVSPropertyOp36
 70
     1
102
RTVSPropertyOp37
 70
     1
102
RTVSPropertyOp38
 70
     1
102
RTVSPropertyOp39
 70
     1
102
RTVSPropertyOp40
 70
     1
102
RTVSPropertyOp41
 70
     1
102
RTVSPropertyOp42
 70
     1
102
RTVSPropertyOp43
 70
     1
102
RTVSPropertyOp44
 70
     1
102
RTVSPropertyOp45
 70
     1
102
RTVSPropertyOp46
 70
     1
102
RTVSPropertyOp47
 70
     1
102
RTVSPropertyOp48
 70
     1
102
RTVSPropertyOp49
 70
     1
102
RTVSPropertyOp50
 70
     1
102
RTVSPropertyOp51
 70
     0
102
RTVSPropertyOp52
 70
     0
102
RTVSPropertyOp53
 70
     1
102
RTVSPropertyOp54
 70
     1
102
RTVSPropertyOp55
 70
     1
102
RTVSPropertyOp56
 70
     1
102
RTVSPropertyOp57
 70
     1
102
RTVSPost2010Prop28
280
     0
102
RTVSPost2010PropOp28
 70
     1
102
RTVSPost2010Prop29
280
     1
102
RTVSPost2010PropOp29
 70
     1
102
RTVSPost2010Prop30
280
     1
102
RTVSPost2010PropOp30
 70
     1
102
RTVSPost2010Prop31
280
     0
102
RTVSPost2010PropOp31
 70
     1
102
RTVSPost2010Prop32
280
     0
102
RTVSPost2010PropOp32
 70
     1
102
RTVSPost2010Prop33
280
     0
102
RTVSPost2010PropOp33
 70
     1
102
RTVSPost2010Prop34
280
     0
102
RTVSPost2010PropOp34
 70
     1
102
RTVSPost2010Prop35
280
     0
102
RTVSPost2010PropOp35
 70
     1
102
RTVSPost2010Prop36
280
     0
102
RTVSPost2010PropOp36
 70
     1
102
RTVSPost2010Prop37
 90
       50
102
RTVSPost2010PropOp37
 70
     1
102
RTVSPost2010Prop38
140
0.0
102
RTVSPost2010PropOp38
 70
     1
102
RTVSPost2010Prop39
140
1.0
102
RTVSPost2010PropOp39
 70
     1
102
RTVSPost2010Prop40
 90
        0
102
RTVSPost2010PropOp40
 70
     1
102
RTVSPost2010Prop41ColorIndex
 90
       18
102
RTVSPost2010Prop41ColorRGB
 90
        0
102
RTVSPost2010PropOp41
 70
     1
102
RTVSPost2010Prop42
 90
       50
102
RTVSPost2010PropOp42
 70
     1
102
RTVSPost2010Prop43
 90
        3
102
RTVSPost2010PropOp43
 70
     1
102
RTVSPost2010Prop44ColorIndex
 90
        5
102
RTVSPost2010Prop44ColorRGB
 90
      255
102
RTVSPost2010PropOp44
 70
     1
102
RTVSPost2010Prop45
280
     0
102
RTVSPost2010PropOp45
 70
     1
102
RTVSPost2010Prop46
 90
       50
102
RTVSPost2010PropOp46
 70
     1
102
RTVSPost2010Prop47
 90
       50
102
RTVSPost2010PropOp47
 70
     1
102
RTVSPost2010Prop48
 90
       50
102
RTVSPost2010PropOp48
 70
     1
102
RTVSPost2010Prop49
280
     0
102
RTVSPost2010PropOp49
 70
     1
102
RTVSPost2010Prop50
 90
       50
102
RTVSPost2010PropOp50
 70
     1
102
RTVSPost2010Prop51ColorIndex
 90
      256
102
RTVSPost2010Prop51ColorRGB
 90
-16777216
102
RTVSPost2010PropOp51
 70
     0
102
RTVSPost2010Prop52
140
1.0
102
RTVSPost2010PropOp52
 70
     0
102
RTVSPost2010Prop53
 90
        2
102
RTVSPost2010PropOp53
 70
     1
102
RTVSPost2010Prop54
  1
strokes_ogs.tif
102
RTVSPost2010PropOp54
 70
     1
102
RTVSPost2010Prop55
280
     0
102
RTVSPost2010PropOp55
 70
     1
102
RTVSPost2010Prop56
140
1.0
102
RTVSPost2010PropOp56
 70
     1
102
RTVSPost2010Prop57
140
1.0
102
RTVSPost2010PropOp57
 70
     1
  0
XRECORD
  5
34E
102
{ACAD_REACTORS
330
34D
102
}
330
34D
100
AcDbXrecord
280
     1
102
RTVSPropertyOp0
 70
     1
102
RTVSPropertyOp1
 70
     1
102
RTVSPropertyOp2
 70
     1
102
RTVSPropertyOp3
 70
     1
102
RTVSPropertyOp4
 70
     1
102
RTVSPropertyOp5
 70
     1
102
RTVSPropertyOp6
 70
     1
102
RTVSPropertyOp7
 70
     1
102
RTVSPropertyOp8
 70
     1
102
RTVSPropertyOp9
 70
     1
102
RTVSPropertyOp10
 70
     1
102
RTVSPropertyOp11
 70
     1
102
RTVSPropertyOp12
 70
     1
102
RTVSPropertyOp13
 70
     1
102
RTVSPropertyOp14
 70
     1
102
RTVSPropertyOp15
 70
     1
102
RTVSPropertyOp16
 70
     1
102
RTVSPropertyOp17
 70
     1
102
RTVSPropertyOp18
 70
     1
102
RTVSPropertyOp19
 70
     1
102
RTVSPropertyOp20
 70
     1
102
RTVSPropertyOp21
 70
     1
102
RTVSPropertyOp22
 70
     1
102
RTVSPropertyOp23
 70
     1
102
RTVSPropertyOp24
 70
     1
102
RTVSPropertyOp25
 70
     1
102
RTVSPropertyOp26
 70
     1
102
RTVSPropertyOp27
 70
     1
102
RTVSPropertyOp28
 70
     1
102
RTVSPropertyOp29
 70
     1
102
RTVSPropertyOp30
 70
     1
102
RTVSPropertyOp31
 70
     1
102
RTVSPropertyOp32
 70
     1
102
RTVSPropertyOp33
 70
     1
102
RTVSPropertyOp34
 70
     1
102
RTVSPropertyOp35
 70
     1
102
RTVSPropertyOp36
 70
     1
102
RTVSPropertyOp37
 70
     1
102
RTVSPropertyOp38
 70
     1
102
RTVSPropertyOp39
 70
     1
102
RTVSPropertyOp40
 70
     1
102
RTVSPropertyOp41
 70
     1
102
RTVSPropertyOp42
 70
     1
102
RTVSPropertyOp43
 70
     1
102
RTVSPropertyOp44
 70
     1
102
RTVSPropertyOp45
 70
     1
102
RTVSPropertyOp46
 70
     1
102
RTVSPropertyOp47
 70
     1
102
RTVSPropertyOp48
 70
     1
102
RTVSPropertyOp49
 70
     1
102
RTVSPropertyOp50
 70
     1
102
RTVSPropertyOp51
 70
     0
102
RTVSPropertyOp52
 70
     0
102
RTVSPropertyOp53
 70
     1
102
RTVSPropertyOp54
 70
     1
102
RTVSPropertyOp55
 70
     1
102
RTVSPropertyOp56
 70
     1
102
RTVSPropertyOp57
 70
     1
102
RTVSPost2010Prop28
280
     0
102
RTVSPost2010PropOp28
 70
     1
102
RTVSPost2010Prop29
280
     1
102
RTVSPost2010PropOp29
 70
     1
102
RTVSPost2010Prop30
280
     1
102
RTVSPost2010PropOp30
 70
     1
102
RTVSPost2010Prop31
280
     0
102
RTVSPost2010PropOp31
 70
     1
102
RTVSPost2010Prop32
280
     0
102
RTVSPost2010PropOp32
 70
     1
102
RTVSPost2010Prop33
280
     0
102
RTVSPost2010PropOp33
 70
     1
102
RTVSPost2010Prop34
280
     0
102
RTVSPost2010PropOp34
 70
     1
102
RTVSPost2010Prop35
280
     0
102
RTVSPost2010PropOp35
 70
     1
102
RTVSPost2010Prop36
280
     0
102
RTVSPost2010PropOp36
 70
     1
102
RTVSPost2010Prop37
 90
       50
102
RTVSPost2010PropOp37
 70
     1
102
RTVSPost2010Prop38
140
0.0
102
RTVSPost2010PropOp38
 70
     1
102
RTVSPost2010Prop39
140
1.0
102
RTVSPost2010PropOp39
 70
     1
102
RTVSPost2010Prop40
 90
        0
102
RTVSPost2010PropOp40
 70
     1
102
RTVSPost2010Prop41ColorIndex
 90
       18
102
RTVSPost2010Prop41ColorRGB
 90
        0
102
RTVSPost2010PropOp41
 70
     1
102
RTVSPost2010Prop42
 90
       50
102
RTVSPost2010PropOp42
 70
     1
102
RTVSPost2010Prop43
 90
        3
102
RTVSPost2010PropOp43
 70
     1
102
RTVSPost2010Prop44ColorIndex
 90
        5
102
RTVSPost2010Prop44ColorRGB
 90
      255
102
RTVSPost2010PropOp44
 70
     1
102
RTVSPost2010Prop45
280
     0
102
RTVSPost2010PropOp45
 70
     1
102
RTVSPost2010Prop46
 90
       50
102
RTVSPost2010PropOp46
 70
     1
102
RTVSPost2010Prop47
 90
       50
102
RTVSPost2010PropOp47
 70
     1
102
RTVSPost2010Prop48
 90
       50
102
RTVSPost2010PropOp48
 70
     1
102
RTVSPost2010Prop49
280
     0
102
RTVSPost2010PropOp49
 70
     1
102
RTVSPost2010Prop50
 90
       50
102
RTVSPost2010PropOp50
 70
     1
102
RTVSPost2010Prop51ColorIndex
 90
      256
102
RTVSPost2010Prop51ColorRGB
 90
-16777216
102
RTVSPost2010PropOp51
 70
     0
102
RTVSPost2010Prop52
140
1.0
102
RTVSPost2010PropOp52
 70
     0
102
RTVSPost2010Prop53
 90
        2
102
RTVSPost2010PropOp53
 70
     1
102
RTVSPost2010Prop54
  1
strokes_ogs.tif
102
RTVSPost2010PropOp54
 70
     1
102
RTVSPost2010Prop55
280
     0
102
RTVSPost2010PropOp55
 70
     1
102
RTVSPost2010Prop56
140
1.0
102
RTVSPost2010PropOp56
 70
     1
102
RTVSPost2010Prop57
140
1.0
102
RTVSPost2010PropOp57
 70
     1
  0
XRECORD
  5
35E
102
{ACAD_REACTORS
330
35D
102
}
330
35D
100
AcDbXrecord
280
     1
102
RTVSPropertyOp0
 70
     0
102
RTVSPropertyOp1
 70
     0
102
RTVSPropertyOp2
 70
     0
102
RTVSPropertyOp3
 70
     0
102
RTVSPropertyOp4
 70
     0
102
RTVSPropertyOp5
 70
     0
102
RTVSPropertyOp6
 70
     0
102
RTVSPropertyOp7
 70
     0
102
RTVSPropertyOp8
 70
     0
102
RTVSPropertyOp9
 70
     0
102
RTVSPropertyOp10
 70
     0
102
RTVSPropertyOp11
 70
     0
102
RTVSPropertyOp12
 70
     0
102
RTVSPropertyOp13
 70
     0
102
RTVSPropertyOp14
 70
     2
102
RTVSPropertyOp15
 70
     0
102
RTVSPropertyOp16
 70
     0
102
RTVSPropertyOp17
 70
     0
102
RTVSPropertyOp18
 70
     0
102
RTVSPropertyOp19
 70
     0
102
RTVSPropertyOp20
 70
     0
102
RTVSPropertyOp21
 70
     0
102
RTVSPropertyOp22
 70
     0
102
RTVSPropertyOp23
 70
     0
102
RTVSPropertyOp24
 70
     0
102
RTVSPropertyOp25
 70
     0
102
RTVSPropertyOp26
 70
     0
102
RTVSPropertyOp27
 70
     0
102
RTVSPropertyOp28
 70
     0
102
RTVSPropertyOp29
 70
     0
102
RTVSPropertyOp30
 70
     0
102
RTVSPropertyOp31
 70
     0
102
RTVSPropertyOp32
 70
     0
102
RTVSPropertyOp33
 70
     0
102
RTVSPropertyOp34
 70
     0
102
RTVSPropertyOp35
 70
     0
102
RTVSPropertyOp36
 70
     0
102
RTVSPropertyOp37
 70
     0
102
RTVSPropertyOp38
 70
     0
102
RTVSPropertyOp39
 70
     0
102
RTVSPropertyOp40
 70
     0
102
RTVSPropertyOp41
 70
     0
102
RTVSPropertyOp42
 70
     0
102
RTVSPropertyOp43
 70
     0
102
RTVSPropertyOp44
 70
     0
102
RTVSPropertyOp45
 70
     0
102
RTVSPropertyOp46
 70
     0
102
RTVSPropertyOp47
 70
     0
102
RTVSPropertyOp48
 70
     0
102
RTVSPropertyOp49
 70
     0
102
RTVSPropertyOp50
 70
     0
102
RTVSPropertyOp51
 70
     0
102
RTVSPropertyOp52
 70
     0
102
RTVSPropertyOp53
 70
     0
102
RTVSPropertyOp54
 70
     0
102
RTVSPropertyOp55
 70
     0
102
RTVSPropertyOp56
 70
     0
102
RTVSPropertyOp57
 70
     0
102
RTVSPost2010Prop28
280
     0
102
RTVSPost2010PropOp28
 70
     0
102
RTVSPost2010Prop29
280
     1
102
RTVSPost2010PropOp29
 70
     0
102
RTVSPost2010Prop30
280
     1
102
RTVSPost2010PropOp30
 70
     0
102
RTVSPost2010Prop31
280
     0
102
RTVSPost2010PropOp31
 70
     0
102
RTVSPost2010Prop32
280
     0
102
RTVSPost2010PropOp32
 70
     0
102
RTVSPost2010Prop33
280
     0
102
RTVSPost2010PropOp33
 70
     0
102
RTVSPost2010Prop34
280
     0
102
RTVSPost2010PropOp34
 70
     0
102
RTVSPost2010Prop35
280
     0
102
RTVSPost2010PropOp35
 70
     0
102
RTVSPost2010Prop36
280
     0
102
RTVSPost2010PropOp36
 70
     0
102
RTVSPost2010Prop37
 90
       50
102
RTVSPost2010PropOp37
 70
     0
102
RTVSPost2010Prop38
140
0.0
102
RTVSPost2010PropOp38
 70
     0
102
RTVSPost2010Prop39
140
1.0
102
RTVSPost2010PropOp39
 70
     0
102
RTVSPost2010Prop40
 90
        0
102
RTVSPost2010PropOp40
 70
     0
102
RTVSPost2010Prop41ColorIndex
 90
       18
102
RTVSPost2010Prop41ColorRGB
 90
        0
102
RTVSPost2010PropOp41
 70
     0
102
RTVSPost2010Prop42
 90
       50
102
RTVSPost2010PropOp42
 70
     0
102
RTVSPost2010Prop43
 90
        3
102
RTVSPost2010PropOp43
 70
     0
102
RTVSPost2010Prop44ColorIndex
 90
        5
102
RTVSPost2010Prop44ColorRGB
 90
      255
102
RTVSPost2010PropOp44
 70
     0
102
RTVSPost2010Prop45
280
     0
102
RTVSPost2010PropOp45
 70
     0
102
RTVSPost2010Prop46
 90
       50
102
RTVSPost2010PropOp46
 70
     0
102
RTVSPost2010Prop47
 90
       50
102
RTVSPost2010PropOp47
 70
     0
102
RTVSPost2010Prop48
 90
       50
102
RTVSPost2010PropOp48
 70
     0
102
RTVSPost2010Prop49
280
     0
102
RTVSPost2010PropOp49
 70
     0
102
RTVSPost2010Prop50
 90
       50
102
RTVSPost2010PropOp50
 70
     0
102
RTVSPost2010Prop51ColorIndex
 90
      256
102
RTVSPost2010Prop51ColorRGB
 90
-16777216
102
RTVSPost2010PropOp51
 70
     0
102
RTVSPost2010Prop52
140
1.0
102
RTVSPost2010PropOp52
 70
     0
102
RTVSPost2010Prop53
 90
        2
102
RTVSPost2010PropOp53
 70
     0
102
RTVSPost2010Prop54
  1
strokes_ogs.tif
102
RTVSPost2010PropOp54
 70
     0
102
RTVSPost2010Prop55
280
     0
102
RTVSPost2010PropOp55
 70
     0
102
RTVSPost2010Prop56
140
1.0
102
RTVSPost2010PropOp56
 70
     0
102
RTVSPost2010Prop57
140
1.0
102
RTVSPost2010PropOp57
 70
     0
  0
XRECORD
  5
356
102
{ACAD_REACTORS
330
355
102
}
330
355
100
AcDbXrecord
280
     1
102
RTVSPropertyOp0
 70
     1
102
RTVSPropertyOp1
 70
     1
102
RTVSPropertyOp2
 70
     1
102
RTVSPropertyOp3
 70
     1
102
RTVSPropertyOp4
 70
     1
102
RTVSPropertyOp5
 70
     1
102
RTVSPropertyOp6
 70
     1
102
RTVSPropertyOp7
 70
     1
102
RTVSPropertyOp8
 70
     1
102
RTVSPropertyOp9
 70
     1
102
RTVSPropertyOp10
 70
     1
102
RTVSPropertyOp11
 70
     1
102
RTVSPropertyOp12
 70
     1
102
RTVSPropertyOp13
 70
     1
102
RTVSPropertyOp14
 70
     1
102
RTVSPropertyOp15
 70
     1
102
RTVSPropertyOp16
 70
     1
102
RTVSPropertyOp17
 70
     1
102
RTVSPropertyOp18
 70
     1
102
RTVSPropertyOp19
 70
     1
102
RTVSPropertyOp20
 70
     1
102
RTVSPropertyOp21
 70
     1
102
RTVSPropertyOp22
 70
     1
102
RTVSPropertyOp23
 70
     1
102
RTVSPropertyOp24
 70
     1
102
RTVSPropertyOp25
 70
     1
102
RTVSPropertyOp26
 70
     1
102
RTVSPropertyOp27
 70
     1
102
RTVSPropertyOp28
 70
     1
102
RTVSPropertyOp29
 70
     1
102
RTVSPropertyOp30
 70
     1
102
RTVSPropertyOp31
 70
     1
102
RTVSPropertyOp32
 70
     1
102
RTVSPropertyOp33
 70
     1
102
RTVSPropertyOp34
 70
     1
102
RTVSPropertyOp35
 70
     1
102
RTVSPropertyOp36
 70
     1
102
RTVSPropertyOp37
 70
     1
102
RTVSPropertyOp38
 70
     1
102
RTVSPropertyOp39
 70
     1
102
RTVSPropertyOp40
 70
     1
102
RTVSPropertyOp41
 70
     1
102
RTVSPropertyOp42
 70
     1
102
RTVSPropertyOp43
 70
     1
102
RTVSPropertyOp44
 70
     1
102
RTVSPropertyOp45
 70
     1
102
RTVSPropertyOp46
 70
     1
102
RTVSPropertyOp47
 70
     1
102
RTVSPropertyOp48
 70
     1
102
RTVSPropertyOp49
 70
     1
102
RTVSPropertyOp50
 70
     1
102
RTVSPropertyOp51
 70
     0
102
RTVSPropertyOp52
 70
     0
102
RTVSPropertyOp53
 70
     1
102
RTVSPropertyOp54
 70
     1
102
RTVSPropertyOp55
 70
     1
102
RTVSPropertyOp56
 70
     1
102
RTVSPropertyOp57
 70
     1
102
RTVSPost2010Prop28
280
     0
102
RTVSPost2010PropOp28
 70
     1
102
RTVSPost2010Prop29
280
     1
102
RTVSPost2010PropOp29
 70
     1
102
RTVSPost2010Prop30
280
     1
102
RTVSPost2010PropOp30
 70
     1
102
RTVSPost2010Prop31
280
     0
102
RTVSPost2010PropOp31
 70
     1
102
RTVSPost2010Prop32
280
     0
102
RTVSPost2010PropOp32
 70
     1
102
RTVSPost2010Prop33
280
     0
102
RTVSPost2010PropOp33
 70
     1
102
RTVSPost2010Prop34
280
     0
102
RTVSPost2010PropOp34
 70
     1
102
RTVSPost2010Prop35
280
     0
102
RTVSPost2010PropOp35
 70
     1
102
RTVSPost2010Prop36
280
     0
102
RTVSPost2010PropOp36
 70
     1
102
RTVSPost2010Prop37
 90
       50
102
RTVSPost2010PropOp37
 70
     1
102
RTVSPost2010Prop38
140
0.0
102
RTVSPost2010PropOp38
 70
     1
102
RTVSPost2010Prop39
140
1.0
102
RTVSPost2010PropOp39
 70
     1
102
RTVSPost2010Prop40
 90
        0
102
RTVSPost2010PropOp40
 70
     1
102
RTVSPost2010Prop41ColorIndex
 90
       18
102
RTVSPost2010Prop41ColorRGB
 90
        0
102
RTVSPost2010PropOp41
 70
     1
102
RTVSPost2010Prop42
 90
       50
102
RTVSPost2010PropOp42
 70
     1
102
RTVSPost2010Prop43
 90
        3
102
RTVSPost2010PropOp43
 70
     1
102
RTVSPost2010Prop44ColorIndex
 90
        5
102
RTVSPost2010Prop44ColorRGB
 90
      255
102
RTVSPost2010PropOp44
 70
     1
102
RTVSPost2010Prop45
280
     0
102
RTVSPost2010PropOp45
 70
     1
102
RTVSPost2010Prop46
 90
       50
102
RTVSPost2010PropOp46
 70
     1
102
RTVSPost2010Prop47
 90
       50
102
RTVSPost2010PropOp47
 70
     1
102
RTVSPost2010Prop48
 90
       50
102
RTVSPost2010PropOp48
 70
     1
102
RTVSPost2010Prop49
280
     0
102
RTVSPost2010PropOp49
 70
     1
102
RTVSPost2010Prop50
 90
       50
102
RTVSPost2010PropOp50
 70
     1
102
RTVSPost2010Prop51ColorIndex
 90
      256
102
RTVSPost2010Prop51ColorRGB
 90
-16777216
102
RTVSPost2010PropOp51
 70
     0
102
RTVSPost2010Prop52
140
1.0
102
RTVSPost2010PropOp52
 70
     0
102
RTVSPost2010Prop53
 90
        2
102
RTVSPost2010PropOp53
 70
     1
102
RTVSPost2010Prop54
  1
strokes_ogs.tif
102
RTVSPost2010PropOp54
 70
     1
102
RTVSPost2010Prop55
280
     0
102
RTVSPost2010PropOp55
 70
     1
102
RTVSPost2010Prop56
140
1.0
102
RTVSPost2010PropOp56
 70
     1
102
RTVSPost2010Prop57
140
1.0
102
RTVSPost2010PropOp57
 70
     1
  0
XRECORD
  5
33A
102
{ACAD_REACTORS
330
339
102
}
330
339
100
AcDbXrecord
280
     1
102
RTVSPropertyOp0
 70
     1
102
RTVSPropertyOp1
 70
     1
102
RTVSPropertyOp2
 70
     1
102
RTVSPropertyOp3
 70
     1
102
RTVSPropertyOp4
 70
     1
102
RTVSPropertyOp5
 70
     1
102
RTVSPropertyOp6
 70
     1
102
RTVSPropertyOp7
 70
     1
102
RTVSPropertyOp8
 70
     1
102
RTVSPropertyOp9
 70
     1
102
RTVSPropertyOp10
 70
     1
102
RTVSPropertyOp11
 70
     1
102
RTVSPropertyOp12
 70
     1
102
RTVSPropertyOp13
 70
     1
102
RTVSPropertyOp14
 70
     1
102
RTVSPropertyOp15
 70
     1
102
RTVSPropertyOp16
 70
     1
102
RTVSPropertyOp17
 70
     1
102
RTVSPropertyOp18
 70
     1
102
RTVSPropertyOp19
 70
     1
102
RTVSPropertyOp20
 70
     1
102
RTVSPropertyOp21
 70
     1
102
RTVSPropertyOp22
 70
     1
102
RTVSPropertyOp23
 70
     1
102
RTVSPropertyOp24
 70
     1
102
RTVSPropertyOp25
 70
     1
102
RTVSPropertyOp26
 70
     1
102
RTVSPropertyOp27
 70
     1
102
RTVSPropertyOp28
 70
     1
102
RTVSPropertyOp29
 70
     1
102
RTVSPropertyOp30
 70
     1
102
RTVSPropertyOp31
 70
     1
102
RTVSPropertyOp32
 70
     1
102
RTVSPropertyOp33
 70
     1
102
RTVSPropertyOp34
 70
     1
102
RTVSPropertyOp35
 70
     1
102
RTVSPropertyOp36
 70
     1
102
RTVSPropertyOp37
 70
     1
102
RTVSPropertyOp38
 70
     1
102
RTVSPropertyOp39
 70
     1
102
RTVSPropertyOp40
 70
     1
102
RTVSPropertyOp41
 70
     1
102
RTVSPropertyOp42
 70
     1
102
RTVSPropertyOp43
 70
     1
102
RTVSPropertyOp44
 70
     1
102
RTVSPropertyOp45
 70
     1
102
RTVSPropertyOp46
 70
     1
102
RTVSPropertyOp47
 70
     1
102
RTVSPropertyOp48
 70
     1
102
RTVSPropertyOp49
 70
     1
102
RTVSPropertyOp50
 70
     1
102
RTVSPropertyOp51
 70
     0
102
RTVSPropertyOp52
 70
     0
102
RTVSPropertyOp53
 70
     1
102
RTVSPropertyOp54
 70
     1
102
RTVSPropertyOp55
 70
     1
102
RTVSPropertyOp56
 70
     1
102
RTVSPropertyOp57
 70
     1
102
RTVSPost2010Prop28
280
     0
102
RTVSPost2010PropOp28
 70
     1
102
RTVSPost2010Prop29
280
     1
102
RTVSPost2010PropOp29
 70
     1
102
RTVSPost2010Prop30
280
     1
102
RTVSPost2010PropOp30
 70
     1
102
RTVSPost2010Prop31
280
     0
102
RTVSPost2010PropOp31
 70
     1
102
RTVSPost2010Prop32
280
     0
102
RTVSPost2010PropOp32
 70
     1
102
RTVSPost2010Prop33
280
     0
102
RTVSPost2010PropOp33
 70
     1
102
RTVSPost2010Prop34
280
     0
102
RTVSPost2010PropOp34
 70
     1
102
RTVSPost2010Prop35
280
     0
102
RTVSPost2010PropOp35
 70
     1
102
RTVSPost2010Prop36
280
     0
102
RTVSPost2010PropOp36
 70
     1
102
RTVSPost2010Prop37
 90
       50
102
RTVSPost2010PropOp37
 70
     1
102
RTVSPost2010Prop38
140
0.0
102
RTVSPost2010PropOp38
 70
     1
102
RTVSPost2010Prop39
140
1.0
102
RTVSPost2010PropOp39
 70
     1
102
RTVSPost2010Prop40
 90
        0
102
RTVSPost2010PropOp40
 70
     1
102
RTVSPost2010Prop41ColorIndex
 90
       18
102
RTVSPost2010Prop41ColorRGB
 90
        0
102
RTVSPost2010PropOp41
 70
     1
102
RTVSPost2010Prop42
 90
       50
102
RTVSPost2010PropOp42
 70
     1
102
RTVSPost2010Prop43
 90
        3
102
RTVSPost2010PropOp43
 70
     1
102
RTVSPost2010Prop44ColorIndex
 90
        5
102
RTVSPost2010Prop44ColorRGB
 90
      255
102
RTVSPost2010PropOp44
 70
     1
102
RTVSPost2010Prop45
280
     0
102
RTVSPost2010PropOp45
 70
     1
102
RTVSPost2010Prop46
 90
       50
102
RTVSPost2010PropOp46
 70
     1
102
RTVSPost2010Prop47
 90
       50
102
RTVSPost2010PropOp47
 70
     1
102
RTVSPost2010Prop48
 90
       50
102
RTVSPost2010PropOp48
 70
     1
102
RTVSPost2010Prop49
280
     0
102
RTVSPost2010PropOp49
 70
     1
102
RTVSPost2010Prop50
 90
       50
102
RTVSPost2010PropOp50
 70
     1
102
RTVSPost2010Prop51ColorIndex
 90
      256
102
RTVSPost2010Prop51ColorRGB
 90
-16777216
102
RTVSPost2010PropOp51
 70
     0
102
RTVSPost2010Prop52
140
1.0
102
RTVSPost2010PropOp52
 70
     0
102
RTVSPost2010Prop53
 90
        2
102
RTVSPost2010PropOp53
 70
     1
102
RTVSPost2010Prop54
  1
strokes_ogs.tif
102
RTVSPost2010PropOp54
 70
     1
102
RTVSPost2010Prop55
280
     0
102
RTVSPost2010PropOp55
 70
     1
102
RTVSPost2010Prop56
140
1.0
102
RTVSPost2010PropOp56
 70
     1
102
RTVSPost2010Prop57
140
1.0
102
RTVSPost2010PropOp57
 70
     1
  0
XRECORD
  5
33C
102
{ACAD_REACTORS
330
33B
102
}
330
33B
100
AcDbXrecord
280
     1
102
RTVSPropertyOp0
 70
     1
102
RTVSPropertyOp1
 70
     1
102
RTVSPropertyOp2
 70
     1
102
RTVSPropertyOp3
 70
     1
102
RTVSPropertyOp4
 70
     1
102
RTVSPropertyOp5
 70
     1
102
RTVSPropertyOp6
 70
     1
102
RTVSPropertyOp7
 70
     1
102
RTVSPropertyOp8
 70
     1
102
RTVSPropertyOp9
 70
     1
102
RTVSPropertyOp10
 70
     1
102
RTVSPropertyOp11
 70
     1
102
RTVSPropertyOp12
 70
     1
102
RTVSPropertyOp13
 70
     1
102
RTVSPropertyOp14
 70
     1
102
RTVSPropertyOp15
 70
     1
102
RTVSPropertyOp16
 70
     1
102
RTVSPropertyOp17
 70
     1
102
RTVSPropertyOp18
 70
     1
102
RTVSPropertyOp19
 70
     1
102
RTVSPropertyOp20
 70
     1
102
RTVSPropertyOp21
 70
     1
102
RTVSPropertyOp22
 70
     1
102
RTVSPropertyOp23
 70
     1
102
RTVSPropertyOp24
 70
     1
102
RTVSPropertyOp25
 70
     1
102
RTVSPropertyOp26
 70
     1
102
RTVSPropertyOp27
 70
     1
102
RTVSPropertyOp28
 70
     1
102
RTVSPropertyOp29
 70
     1
102
RTVSPropertyOp30
 70
     1
102
RTVSPropertyOp31
 70
     1
102
RTVSPropertyOp32
 70
     1
102
RTVSPropertyOp33
 70
     1
102
RTVSPropertyOp34
 70
     1
102
RTVSPropertyOp35
 70
     1
102
RTVSPropertyOp36
 70
     1
102
RTVSPropertyOp37
 70
     1
102
RTVSPropertyOp38
 70
     1
102
RTVSPropertyOp39
 70
     1
102
RTVSPropertyOp40
 70
     1
102
RTVSPropertyOp41
 70
     1
102
RTVSPropertyOp42
 70
     1
102
RTVSPropertyOp43
 70
     1
102
RTVSPropertyOp44
 70
     1
102
RTVSPropertyOp45
 70
     1
102
RTVSPropertyOp46
 70
     1
102
RTVSPropertyOp47
 70
     1
102
RTVSPropertyOp48
 70
     1
102
RTVSPropertyOp49
 70
     1
102
RTVSPropertyOp50
 70
     1
102
RTVSPropertyOp51
 70
     0
102
RTVSPropertyOp52
 70
     0
102
RTVSPropertyOp53
 70
     1
102
RTVSPropertyOp54
 70
     1
102
RTVSPropertyOp55
 70
     1
102
RTVSPropertyOp56
 70
     1
102
RTVSPropertyOp57
 70
     1
102
RTVSPost2010Prop28
280
     0
102
RTVSPost2010PropOp28
 70
     1
102
RTVSPost2010Prop29
280
     1
102
RTVSPost2010PropOp29
 70
     1
102
RTVSPost2010Prop30
280
     1
102
RTVSPost2010PropOp30
 70
     1
102
RTVSPost2010Prop31
280
     0
102
RTVSPost2010PropOp31
 70
     1
102
RTVSPost2010Prop32
280
     0
102
RTVSPost2010PropOp32
 70
     1
102
RTVSPost2010Prop33
280
     0
102
RTVSPost2010PropOp33
 70
     1
102
RTVSPost2010Prop34
280
     0
102
RTVSPost2010PropOp34
 70
     1
102
RTVSPost2010Prop35
280
     0
102
RTVSPost2010PropOp35
 70
     1
102
RTVSPost2010Prop36
280
     0
102
RTVSPost2010PropOp36
 70
     1
102
RTVSPost2010Prop37
 90
       50
102
RTVSPost2010PropOp37
 70
     1
102
RTVSPost2010Prop38
140
0.0
102
RTVSPost2010PropOp38
 70
     1
102
RTVSPost2010Prop39
140
1.0
102
RTVSPost2010PropOp39
 70
     1
102
RTVSPost2010Prop40
 90
        0
102
RTVSPost2010PropOp40
 70
     1
102
RTVSPost2010Prop41ColorIndex
 90
       18
102
RTVSPost2010Prop41ColorRGB
 90
        0
102
RTVSPost2010PropOp41
 70
     1
102
RTVSPost2010Prop42
 90
       50
102
RTVSPost2010PropOp42
 70
     1
102
RTVSPost2010Prop43
 90
        3
102
RTVSPost2010PropOp43
 70
     1
102
RTVSPost2010Prop44ColorIndex
 90
        5
102
RTVSPost2010Prop44ColorRGB
 90
      255
102
RTVSPost2010PropOp44
 70
     1
102
RTVSPost2010Prop45
280
     0
102
RTVSPost2010PropOp45
 70
     1
102
RTVSPost2010Prop46
 90
       50
102
RTVSPost2010PropOp46
 70
     1
102
RTVSPost2010Prop47
 90
       50
102
RTVSPost2010PropOp47
 70
     1
102
RTVSPost2010Prop48
 90
       50
102
RTVSPost2010PropOp48
 70
     1
102
RTVSPost2010Prop49
280
     0
102
RTVSPost2010PropOp49
 70
     1
102
RTVSPost2010Prop50
 90
       50
102
RTVSPost2010PropOp50
 70
     1
102
RTVSPost2010Prop51ColorIndex
 90
      256
102
RTVSPost2010Prop51ColorRGB
 90
-16777216
102
RTVSPost2010PropOp51
 70
     0
102
RTVSPost2010Prop52
140
1.0
102
RTVSPost2010PropOp52
 70
     0
102
RTVSPost2010Prop53
 90
        2
102
RTVSPost2010PropOp53
 70
     1
102
RTVSPost2010Prop54
  1
strokes_ogs.tif
102
RTVSPost2010PropOp54
 70
     1
102
RTVSPost2010Prop55
280
     0
102
RTVSPost2010PropOp55
 70
     1
102
RTVSPost2010Prop56
140
1.0
102
RTVSPost2010PropOp56
 70
     1
102
RTVSPost2010Prop57
140
1.0
102
RTVSPost2010PropOp57
 70
     1
  0
XRECORD
  5
33E
102
{ACAD_REACTORS
330
33D
102
}
330
33D
100
AcDbXrecord
280
     1
102
RTVSPropertyOp0
 70
     1
102
RTVSPropertyOp1
 70
     1
102
RTVSPropertyOp2
 70
     1
102
RTVSPropertyOp3
 70
     1
102
RTVSPropertyOp4
 70
     1
102
RTVSPropertyOp5
 70
     1
102
RTVSPropertyOp6
 70
     1
102
RTVSPropertyOp7
 70
     1
102
RTVSPropertyOp8
 70
     1
102
RTVSPropertyOp9
 70
     1
102
RTVSPropertyOp10
 70
     1
102
RTVSPropertyOp11
 70
     1
102
RTVSPropertyOp12
 70
     1
102
RTVSPropertyOp13
 70
     1
102
RTVSPropertyOp14
 70
     1
102
RTVSPropertyOp15
 70
     1
102
RTVSPropertyOp16
 70
     1
102
RTVSPropertyOp17
 70
     1
102
RTVSPropertyOp18
 70
     1
102
RTVSPropertyOp19
 70
     1
102
RTVSPropertyOp20
 70
     1
102
RTVSPropertyOp21
 70
     1
102
RTVSPropertyOp22
 70
     1
102
RTVSPropertyOp23
 70
     1
102
RTVSPropertyOp24
 70
     1
102
RTVSPropertyOp25
 70
     1
102
RTVSPropertyOp26
 70
     1
102
RTVSPropertyOp27
 70
     1
102
RTVSPropertyOp28
 70
     1
102
RTVSPropertyOp29
 70
     1
102
RTVSPropertyOp30
 70
     1
102
RTVSPropertyOp31
 70
     1
102
RTVSPropertyOp32
 70
     1
102
RTVSPropertyOp33
 70
     1
102
RTVSPropertyOp34
 70
     1
102
RTVSPropertyOp35
 70
     1
102
RTVSPropertyOp36
 70
     1
102
RTVSPropertyOp37
 70
     1
102
RTVSPropertyOp38
 70
     1
102
RTVSPropertyOp39
 70
     1
102
RTVSPropertyOp40
 70
     1
102
RTVSPropertyOp41
 70
     1
102
RTVSPropertyOp42
 70
     1
102
RTVSPropertyOp43
 70
     1
102
RTVSPropertyOp44
 70
     1
102
RTVSPropertyOp45
 70
     1
102
RTVSPropertyOp46
 70
     1
102
RTVSPropertyOp47
 70
     1
102
RTVSPropertyOp48
 70
     1
102
RTVSPropertyOp49
 70
     1
102
RTVSPropertyOp50
 70
     1
102
RTVSPropertyOp51
 70
     0
102
RTVSPropertyOp52
 70
     0
102
RTVSPropertyOp53
 70
     1
102
RTVSPropertyOp54
 70
     1
102
RTVSPropertyOp55
 70
     1
102
RTVSPropertyOp56
 70
     1
102
RTVSPropertyOp57
 70
     1
102
RTVSPost2010Prop28
280
     0
102
RTVSPost2010PropOp28
 70
     1
102
RTVSPost2010Prop29
280
     1
102
RTVSPost2010PropOp29
 70
     1
102
RTVSPost2010Prop30
280
     1
102
RTVSPost2010PropOp30
 70
     1
102
RTVSPost2010Prop31
280
     0
102
RTVSPost2010PropOp31
 70
     1
102
RTVSPost2010Prop32
280
     0
102
RTVSPost2010PropOp32
 70
     1
102
RTVSPost2010Prop33
280
     0
102
RTVSPost2010PropOp33
 70
     1
102
RTVSPost2010Prop34
280
     0
102
RTVSPost2010PropOp34
 70
     1
102
RTVSPost2010Prop35
280
     0
102
RTVSPost2010PropOp35
 70
     1
102
RTVSPost2010Prop36
280
     0
102
RTVSPost2010PropOp36
 70
     1
102
RTVSPost2010Prop37
 90
       50
102
RTVSPost2010PropOp37
 70
     1
102
RTVSPost2010Prop38
140
0.0
102
RTVSPost2010PropOp38
 70
     1
102
RTVSPost2010Prop39
140
1.0
102
RTVSPost2010PropOp39
 70
     1
102
RTVSPost2010Prop40
 90
        0
102
RTVSPost2010PropOp40
 70
     1
102
RTVSPost2010Prop41ColorIndex
 90
       18
102
RTVSPost2010Prop41ColorRGB
 90
        0
102
RTVSPost2010PropOp41
 70
     1
102
RTVSPost2010Prop42
 90
       50
102
RTVSPost2010PropOp42
 70
     1
102
RTVSPost2010Prop43
 90
        3
102
RTVSPost2010PropOp43
 70
     1
102
RTVSPost2010Prop44ColorIndex
 90
        5
102
RTVSPost2010Prop44ColorRGB
 90
      255
102
RTVSPost2010PropOp44
 70
     1
102
RTVSPost2010Prop45
280
     0
102
RTVSPost2010PropOp45
 70
     1
102
RTVSPost2010Prop46
 90
       50
102
RTVSPost2010PropOp46
 70
     1
102
RTVSPost2010Prop47
 90
       50
102
RTVSPost2010PropOp47
 70
     1
102
RTVSPost2010Prop48
 90
       50
102
RTVSPost2010PropOp48
 70
     1
102
RTVSPost2010Prop49
280
     0
102
RTVSPost2010PropOp49
 70
     1
102
RTVSPost2010Prop50
 90
       50
102
RTVSPost2010PropOp50
 70
     1
102
RTVSPost2010Prop51ColorIndex
 90
      256
102
RTVSPost2010Prop51ColorRGB
 90
-16777216
102
RTVSPost2010PropOp51
 70
     0
102
RTVSPost2010Prop52
140
1.0
102
RTVSPost2010PropOp52
 70
     0
102
RTVSPost2010Prop53
 90
        2
102
RTVSPost2010PropOp53
 70
     1
102
RTVSPost2010Prop54
  1
strokes_ogs.tif
102
RTVSPost2010PropOp54
 70
     1
102
RTVSPost2010Prop55
280
     0
102
RTVSPost2010PropOp55
 70
     1
102
RTVSPost2010Prop56
140
1.0
102
RTVSPost2010PropOp56
 70
     1
102
RTVSPost2010Prop57
140
1.0
102
RTVSPost2010PropOp57
 70
     1
  0
XRECORD
  5
340
102
{ACAD_REACTORS
330
33F
102
}
330
33F
100
AcDbXrecord
280
     1
102
RTVSPropertyOp0
 70
     1
102
RTVSPropertyOp1
 70
     1
102
RTVSPropertyOp2
 70
     1
102
RTVSPropertyOp3
 70
     1
102
RTVSPropertyOp4
 70
     1
102
RTVSPropertyOp5
 70
     1
102
RTVSPropertyOp6
 70
     1
102
RTVSPropertyOp7
 70
     1
102
RTVSPropertyOp8
 70
     1
102
RTVSPropertyOp9
 70
     1
102
RTVSPropertyOp10
 70
     1
102
RTVSPropertyOp11
 70
     1
102
RTVSPropertyOp12
 70
     1
102
RTVSPropertyOp13
 70
     1
102
RTVSPropertyOp14
 70
     1
102
RTVSPropertyOp15
 70
     1
102
RTVSPropertyOp16
 70
     1
102
RTVSPropertyOp17
 70
     1
102
RTVSPropertyOp18
 70
     1
102
RTVSPropertyOp19
 70
     1
102
RTVSPropertyOp20
 70
     1
102
RTVSPropertyOp21
 70
     1
102
RTVSPropertyOp22
 70
     1
102
RTVSPropertyOp23
 70
     1
102
RTVSPropertyOp24
 70
     1
102
RTVSPropertyOp25
 70
     1
102
RTVSPropertyOp26
 70
     1
102
RTVSPropertyOp27
 70
     1
102
RTVSPropertyOp28
 70
     1
102
RTVSPropertyOp29
 70
     1
102
RTVSPropertyOp30
 70
     1
102
RTVSPropertyOp31
 70
     1
102
RTVSPropertyOp32
 70
     1
102
RTVSPropertyOp33
 70
     1
102
RTVSPropertyOp34
 70
     1
102
RTVSPropertyOp35
 70
     1
102
RTVSPropertyOp36
 70
     1
102
RTVSPropertyOp37
 70
     1
102
RTVSPropertyOp38
 70
     1
102
RTVSPropertyOp39
 70
     1
102
RTVSPropertyOp40
 70
     1
102
RTVSPropertyOp41
 70
     1
102
RTVSPropertyOp42
 70
     1
102
RTVSPropertyOp43
 70
     1
102
RTVSPropertyOp44
 70
     1
102
RTVSPropertyOp45
 70
     1
102
RTVSPropertyOp46
 70
     1
102
RTVSPropertyOp47
 70
     1
102
RTVSPropertyOp48
 70
     1
102
RTVSPropertyOp49
 70
     1
102
RTVSPropertyOp50
 70
     1
102
RTVSPropertyOp51
 70
     0
102
RTVSPropertyOp52
 70
     0
102
RTVSPropertyOp53
 70
     1
102
RTVSPropertyOp54
 70
     1
102
RTVSPropertyOp55
 70
     1
102
RTVSPropertyOp56
 70
     1
102
RTVSPropertyOp57
 70
     1
102
RTVSPost2010Prop28
280
     0
102
RTVSPost2010PropOp28
 70
     1
102
RTVSPost2010Prop29
280
     1
102
RTVSPost2010PropOp29
 70
     1
102
RTVSPost2010Prop30
280
     1
102
RTVSPost2010PropOp30
 70
     1
102
RTVSPost2010Prop31
280
     0
102
RTVSPost2010PropOp31
 70
     1
102
RTVSPost2010Prop32
280
     0
102
RTVSPost2010PropOp32
 70
     1
102
RTVSPost2010Prop33
280
     0
102
RTVSPost2010PropOp33
 70
     1
102
RTVSPost2010Prop34
280
     0
102
RTVSPost2010PropOp34
 70
     1
102
RTVSPost2010Prop35
280
     0
102
RTVSPost2010PropOp35
 70
     1
102
RTVSPost2010Prop36
280
     0
102
RTVSPost2010PropOp36
 70
     1
102
RTVSPost2010Prop37
 90
       50
102
RTVSPost2010PropOp37
 70
     1
102
RTVSPost2010Prop38
140
0.0
102
RTVSPost2010PropOp38
 70
     1
102
RTVSPost2010Prop39
140
1.0
102
RTVSPost2010PropOp39
 70
     1
102
RTVSPost2010Prop40
 90
        0
102
RTVSPost2010PropOp40
 70
     1
102
RTVSPost2010Prop41ColorIndex
 90
       18
102
RTVSPost2010Prop41ColorRGB
 90
        0
102
RTVSPost2010PropOp41
 70
     1
102
RTVSPost2010Prop42
 90
       50
102
RTVSPost2010PropOp42
 70
     1
102
RTVSPost2010Prop43
 90
        3
102
RTVSPost2010PropOp43
 70
     1
102
RTVSPost2010Prop44ColorIndex
 90
        5
102
RTVSPost2010Prop44ColorRGB
 90
      255
102
RTVSPost2010PropOp44
 70
     1
102
RTVSPost2010Prop45
280
     0
102
RTVSPost2010PropOp45
 70
     1
102
RTVSPost2010Prop46
 90
       50
102
RTVSPost2010PropOp46
 70
     1
102
RTVSPost2010Prop47
 90
       50
102
RTVSPost2010PropOp47
 70
     1
102
RTVSPost2010Prop48
 90
       50
102
RTVSPost2010PropOp48
 70
     1
102
RTVSPost2010Prop49
280
     0
102
RTVSPost2010PropOp49
 70
     1
102
RTVSPost2010Prop50
 90
       50
102
RTVSPost2010PropOp50
 70
     1
102
RTVSPost2010Prop51ColorIndex
 90
      256
102
RTVSPost2010Prop51ColorRGB
 90
-16777216
102
RTVSPost2010PropOp51
 70
     0
102
RTVSPost2010Prop52
140
1.0
102
RTVSPost2010PropOp52
 70
     0
102
RTVSPost2010Prop53
 90
        2
102
RTVSPost2010PropOp53
 70
     1
102
RTVSPost2010Prop54
  1
strokes_ogs.tif
102
RTVSPost2010PropOp54
 70
     1
102
RTVSPost2010Prop55
280
     0
102
RTVSPost2010PropOp55
 70
     1
102
RTVSPost2010Prop56
140
1.0
102
RTVSPost2010PropOp56
 70
     1
102
RTVSPost2010Prop57
140
1.0
102
RTVSPost2010PropOp57
 70
     1
  0
XRECORD
  5
346
102
{ACAD_REACTORS
330
345
102
}
330
345
100
AcDbXrecord
280
     1
102
RTVSPropertyOp0
 70
     1
102
RTVSPropertyOp1
 70
     1
102
RTVSPropertyOp2
 70
     1
102
RTVSPropertyOp3
 70
     1
102
RTVSPropertyOp4
 70
     1
102
RTVSPropertyOp5
 70
     1
102
RTVSPropertyOp6
 70
     1
102
RTVSPropertyOp7
 70
     1
102
RTVSPropertyOp8
 70
     1
102
RTVSPropertyOp9
 70
     1
102
RTVSPropertyOp10
 70
     1
102
RTVSPropertyOp11
 70
     1
102
RTVSPropertyOp12
 70
     1
102
RTVSPropertyOp13
 70
     1
102
RTVSPropertyOp14
 70
     1
102
RTVSPropertyOp15
 70
     1
102
RTVSPropertyOp16
 70
     1
102
RTVSPropertyOp17
 70
     1
102
RTVSPropertyOp18
 70
     1
102
RTVSPropertyOp19
 70
     1
102
RTVSPropertyOp20
 70
     1
102
RTVSPropertyOp21
 70
     1
102
RTVSPropertyOp22
 70
     1
102
RTVSPropertyOp23
 70
     1
102
RTVSPropertyOp24
 70
     1
102
RTVSPropertyOp25
 70
     1
102
RTVSPropertyOp26
 70
     1
102
RTVSPropertyOp27
 70
     1
102
RTVSPropertyOp28
 70
     1
102
RTVSPropertyOp29
 70
     1
102
RTVSPropertyOp30
 70
     1
102
RTVSPropertyOp31
 70
     1
102
RTVSPropertyOp32
 70
     1
102
RTVSPropertyOp33
 70
     1
102
RTVSPropertyOp34
 70
     1
102
RTVSPropertyOp35
 70
     1
102
RTVSPropertyOp36
 70
     1
102
RTVSPropertyOp37
 70
     1
102
RTVSPropertyOp38
 70
     1
102
RTVSPropertyOp39
 70
     1
102
RTVSPropertyOp40
 70
     1
102
RTVSPropertyOp41
 70
     1
102
RTVSPropertyOp42
 70
     1
102
RTVSPropertyOp43
 70
     1
102
RTVSPropertyOp44
 70
     1
102
RTVSPropertyOp45
 70
     1
102
RTVSPropertyOp46
 70
     1
102
RTVSPropertyOp47
 70
     1
102
RTVSPropertyOp48
 70
     1
102
RTVSPropertyOp49
 70
     1
102
RTVSPropertyOp50
 70
     1
102
RTVSPropertyOp51
 70
     0
102
RTVSPropertyOp52
 70
     0
102
RTVSPropertyOp53
 70
     1
102
RTVSPropertyOp54
 70
     1
102
RTVSPropertyOp55
 70
     1
102
RTVSPropertyOp56
 70
     1
102
RTVSPropertyOp57
 70
     1
102
RTVSPost2010Prop28
280
     0
102
RTVSPost2010PropOp28
 70
     1
102
RTVSPost2010Prop29
280
     1
102
RTVSPost2010PropOp29
 70
     1
102
RTVSPost2010Prop30
280
     1
102
RTVSPost2010PropOp30
 70
     1
102
RTVSPost2010Prop31
280
     0
102
RTVSPost2010PropOp31
 70
     1
102
RTVSPost2010Prop32
280
     0
102
RTVSPost2010PropOp32
 70
     1
102
RTVSPost2010Prop33
280
     0
102
RTVSPost2010PropOp33
 70
     1
102
RTVSPost2010Prop34
280
     0
102
RTVSPost2010PropOp34
 70
     1
102
RTVSPost2010Prop35
280
     0
102
RTVSPost2010PropOp35
 70
     1
102
RTVSPost2010Prop36
280
     0
102
RTVSPost2010PropOp36
 70
     1
102
RTVSPost2010Prop37
 90
       50
102
RTVSPost2010PropOp37
 70
     1
102
RTVSPost2010Prop38
140
0.0
102
RTVSPost2010PropOp38
 70
     1
102
RTVSPost2010Prop39
140
1.0
102
RTVSPost2010PropOp39
 70
     1
102
RTVSPost2010Prop40
 90
        0
102
RTVSPost2010PropOp40
 70
     1
102
RTVSPost2010Prop41ColorIndex
 90
       18
102
RTVSPost2010Prop41ColorRGB
 90
        0
102
RTVSPost2010PropOp41
 70
     1
102
RTVSPost2010Prop42
 90
       50
102
RTVSPost2010PropOp42
 70
     1
102
RTVSPost2010Prop43
 90
        3
102
RTVSPost2010PropOp43
 70
     1
102
RTVSPost2010Prop44ColorIndex
 90
        5
102
RTVSPost2010Prop44ColorRGB
 90
      255
102
RTVSPost2010PropOp44
 70
     1
102
RTVSPost2010Prop45
280
     0
102
RTVSPost2010PropOp45
 70
     1
102
RTVSPost2010Prop46
 90
       50
102
RTVSPost2010PropOp46
 70
     1
102
RTVSPost2010Prop47
 90
       50
102
RTVSPost2010PropOp47
 70
     1
102
RTVSPost2010Prop48
 90
       50
102
RTVSPost2010PropOp48
 70
     1
102
RTVSPost2010Prop49
280
     0
102
RTVSPost2010PropOp49
 70
     1
102
RTVSPost2010Prop50
 90
       50
102
RTVSPost2010PropOp50
 70
     1
102
RTVSPost2010Prop51ColorIndex
 90
      256
102
RTVSPost2010Prop51ColorRGB
 90
-16777216
102
RTVSPost2010PropOp51
 70
     0
102
RTVSPost2010Prop52
140
1.0
102
RTVSPost2010PropOp52
 70
     0
102
RTVSPost2010Prop53
 90
        2
102
RTVSPost2010PropOp53
 70
     1
102
RTVSPost2010Prop54
  1
strokes_ogs.tif
102
RTVSPost2010PropOp54
 70
     1
102
RTVSPost2010Prop55
280
     0
102
RTVSPost2010PropOp55
 70
     1
102
RTVSPost2010Prop56
140
1.0
102
RTVSPost2010PropOp56
 70
     1
102
RTVSPost2010Prop57
140
1.0
102
RTVSPost2010PropOp57
 70
     1
  0
XRECORD
  5
35A
102
{ACAD_REACTORS
330
359
102
}
330
359
100
AcDbXrecord
280
     1
102
RTVSPropertyOp0
 70
     0
102
RTVSPropertyOp1
 70
     0
102
RTVSPropertyOp2
 70
     0
102
RTVSPropertyOp3
 70
     0
102
RTVSPropertyOp4
 70
     0
102
RTVSPropertyOp5
 70
     0
102
RTVSPropertyOp6
 70
     0
102
RTVSPropertyOp7
 70
     0
102
RTVSPropertyOp8
 70
     0
102
RTVSPropertyOp9
 70
     0
102
RTVSPropertyOp10
 70
     0
102
RTVSPropertyOp11
 70
     0
102
RTVSPropertyOp12
 70
     0
102
RTVSPropertyOp13
 70
     0
102
RTVSPropertyOp14
 70
     2
102
RTVSPropertyOp15
 70
     0
102
RTVSPropertyOp16
 70
     0
102
RTVSPropertyOp17
 70
     0
102
RTVSPropertyOp18
 70
     0
102
RTVSPropertyOp19
 70
     0
102
RTVSPropertyOp20
 70
     0
102
RTVSPropertyOp21
 70
     0
102
RTVSPropertyOp22
 70
     0
102
RTVSPropertyOp23
 70
     0
102
RTVSPropertyOp24
 70
     0
102
RTVSPropertyOp25
 70
     0
102
RTVSPropertyOp26
 70
     0
102
RTVSPropertyOp27
 70
     0
102
RTVSPropertyOp28
 70
     0
102
RTVSPropertyOp29
 70
     0
102
RTVSPropertyOp30
 70
     0
102
RTVSPropertyOp31
 70
     0
102
RTVSPropertyOp32
 70
     0
102
RTVSPropertyOp33
 70
     0
102
RTVSPropertyOp34
 70
     0
102
RTVSPropertyOp35
 70
     0
102
RTVSPropertyOp36
 70
     0
102
RTVSPropertyOp37
 70
     0
102
RTVSPropertyOp38
 70
     0
102
RTVSPropertyOp39
 70
     0
102
RTVSPropertyOp40
 70
     0
102
RTVSPropertyOp41
 70
     0
102
RTVSPropertyOp42
 70
     0
102
RTVSPropertyOp43
 70
     0
102
RTVSPropertyOp44
 70
     0
102
RTVSPropertyOp45
 70
     0
102
RTVSPropertyOp46
 70
     0
102
RTVSPropertyOp47
 70
     0
102
RTVSPropertyOp48
 70
     0
102
RTVSPropertyOp49
 70
     0
102
RTVSPropertyOp50
 70
     0
102
RTVSPropertyOp51
 70
     0
102
RTVSPropertyOp52
 70
     0
102
RTVSPropertyOp53
 70
     0
102
RTVSPropertyOp54
 70
     0
102
RTVSPropertyOp55
 70
     0
102
RTVSPropertyOp56
 70
     0
102
RTVSPropertyOp57
 70
     0
102
RTVSPost2010Prop28
280
     0
102
RTVSPost2010PropOp28
 70
     0
102
RTVSPost2010Prop29
280
     1
102
RTVSPost2010PropOp29
 70
     0
102
RTVSPost2010Prop30
280
     1
102
RTVSPost2010PropOp30
 70
     0
102
RTVSPost2010Prop31
280
     0
102
RTVSPost2010PropOp31
 70
     0
102
RTVSPost2010Prop32
280
     0
102
RTVSPost2010PropOp32
 70
     0
102
RTVSPost2010Prop33
280
     0
102
RTVSPost2010PropOp33
 70
     0
102
RTVSPost2010Prop34
280
     0
102
RTVSPost2010PropOp34
 70
     0
102
RTVSPost2010Prop35
280
     0
102
RTVSPost2010PropOp35
 70
     0
102
RTVSPost2010Prop36
280
     0
102
RTVSPost2010PropOp36
 70
     0
102
RTVSPost2010Prop37
 90
       50
102
RTVSPost2010PropOp37
 70
     0
102
RTVSPost2010Prop38
140
0.0
102
RTVSPost2010PropOp38
 70
     0
102
RTVSPost2010Prop39
140
1.0
102
RTVSPost2010PropOp39
 70
     0
102
RTVSPost2010Prop40
 90
        0
102
RTVSPost2010PropOp40
 70
     0
102
RTVSPost2010Prop41ColorIndex
 90
       18
102
RTVSPost2010Prop41ColorRGB
 90
        0
102
RTVSPost2010PropOp41
 70
     0
102
RTVSPost2010Prop42
 90
       50
102
RTVSPost2010PropOp42
 70
     0
102
RTVSPost2010Prop43
 90
        3
102
RTVSPost2010PropOp43
 70
     0
102
RTVSPost2010Prop44ColorIndex
 90
        5
102
RTVSPost2010Prop44ColorRGB
 90
      255
102
RTVSPost2010PropOp44
 70
     0
102
RTVSPost2010Prop45
280
     0
102
RTVSPost2010PropOp45
 70
     0
102
RTVSPost2010Prop46
 90
       50
102
RTVSPost2010PropOp46
 70
     0
102
RTVSPost2010Prop47
 90
       50
102
RTVSPost2010PropOp47
 70
     0
102
RTVSPost2010Prop48
 90
       50
102
RTVSPost2010PropOp48
 70
     0
102
RTVSPost2010Prop49
280
     0
102
RTVSPost2010PropOp49
 70
     0
102
RTVSPost2010Prop50
 90
       50
102
RTVSPost2010PropOp50
 70
     0
102
RTVSPost2010Prop51ColorIndex
 90
      256
102
RTVSPost2010Prop51ColorRGB
 90
-16777216
102
RTVSPost2010PropOp51
 70
     0
102
RTVSPost2010Prop52
140
1.0
102
RTVSPost2010PropOp52
 70
     0
102
RTVSPost2010Prop53
 90
        2
102
RTVSPost2010PropOp53
 70
     0
102
RTVSPost2010Prop54
  1
strokes_ogs.tif
102
RTVSPost2010PropOp54
 70
     0
102
RTVSPost2010Prop55
280
     0
102
RTVSPost2010PropOp55
 70
     0
102
RTVSPost2010Prop56
140
1.0
102
RTVSPost2010PropOp56
 70
     0
102
RTVSPost2010Prop57
140
1.0
102
RTVSPost2010PropOp57
 70
     0
  0
XRECORD
  5
354
102
{ACAD_REACTORS
330
353
102
}
330
353
100
AcDbXrecord
280
     1
102
RTVSPropertyOp0
 70
     1
102
RTVSPropertyOp1
 70
     1
102
RTVSPropertyOp2
 70
     1
102
RTVSPropertyOp3
 70
     1
102
RTVSPropertyOp4
 70
     1
102
RTVSPropertyOp5
 70
     1
102
RTVSPropertyOp6
 70
     1
102
RTVSPropertyOp7
 70
     1
102
RTVSPropertyOp8
 70
     1
102
RTVSPropertyOp9
 70
     1
102
RTVSPropertyOp10
 70
     1
102
RTVSPropertyOp11
 70
     1
102
RTVSPropertyOp12
 70
     1
102
RTVSPropertyOp13
 70
     1
102
RTVSPropertyOp14
 70
     1
102
RTVSPropertyOp15
 70
     1
102
RTVSPropertyOp16
 70
     1
102
RTVSPropertyOp17
 70
     1
102
RTVSPropertyOp18
 70
     1
102
RTVSPropertyOp19
 70
     1
102
RTVSPropertyOp20
 70
     1
102
RTVSPropertyOp21
 70
     1
102
RTVSPropertyOp22
 70
     1
102
RTVSPropertyOp23
 70
     1
102
RTVSPropertyOp24
 70
     1
102
RTVSPropertyOp25
 70
     1
102
RTVSPropertyOp26
 70
     1
102
RTVSPropertyOp27
 70
     1
102
RTVSPropertyOp28
 70
     1
102
RTVSPropertyOp29
 70
     1
102
RTVSPropertyOp30
 70
     1
102
RTVSPropertyOp31
 70
     1
102
RTVSPropertyOp32
 70
     1
102
RTVSPropertyOp33
 70
     1
102
RTVSPropertyOp34
 70
     1
102
RTVSPropertyOp35
 70
     1
102
RTVSPropertyOp36
 70
     1
102
RTVSPropertyOp37
 70
     1
102
RTVSPropertyOp38
 70
     1
102
RTVSPropertyOp39
 70
     1
102
RTVSPropertyOp40
 70
     1
102
RTVSPropertyOp41
 70
     1
102
RTVSPropertyOp42
 70
     1
102
RTVSPropertyOp43
 70
     1
102
RTVSPropertyOp44
 70
     1
102
RTVSPropertyOp45
 70
     1
102
RTVSPropertyOp46
 70
     1
102
RTVSPropertyOp47
 70
     1
102
RTVSPropertyOp48
 70
     1
102
RTVSPropertyOp49
 70
     1
102
RTVSPropertyOp50
 70
     1
102
RTVSPropertyOp51
 70
     0
102
RTVSPropertyOp52
 70
     0
102
RTVSPropertyOp53
 70
     1
102
RTVSPropertyOp54
 70
     1
102
RTVSPropertyOp55
 70
     1
102
RTVSPropertyOp56
 70
     1
102
RTVSPropertyOp57
 70
     1
102
RTVSPost2010Prop28
280
     0
102
RTVSPost2010PropOp28
 70
     1
102
RTVSPost2010Prop29
280
     1
102
RTVSPost2010PropOp29
 70
     1
102
RTVSPost2010Prop30
280
     1
102
RTVSPost2010PropOp30
 70
     1
102
RTVSPost2010Prop31
280
     0
102
RTVSPost2010PropOp31
 70
     1
102
RTVSPost2010Prop32
280
     0
102
RTVSPost2010PropOp32
 70
     1
102
RTVSPost2010Prop33
280
     0
102
RTVSPost2010PropOp33
 70
     1
102
RTVSPost2010Prop34
280
     0
102
RTVSPost2010PropOp34
 70
     1
102
RTVSPost2010Prop35
280
     0
102
RTVSPost2010PropOp35
 70
     1
102
RTVSPost2010Prop36
280
     0
102
RTVSPost2010PropOp36
 70
     1
102
RTVSPost2010Prop37
 90
       50
102
RTVSPost2010PropOp37
 70
     1
102
RTVSPost2010Prop38
140
0.0
102
RTVSPost2010PropOp38
 70
     1
102
RTVSPost2010Prop39
140
1.0
102
RTVSPost2010PropOp39
 70
     1
102
RTVSPost2010Prop40
 90
        0
102
RTVSPost2010PropOp40
 70
     1
102
RTVSPost2010Prop41ColorIndex
 90
       18
102
RTVSPost2010Prop41ColorRGB
 90
        0
102
RTVSPost2010PropOp41
 70
     1
102
RTVSPost2010Prop42
 90
       50
102
RTVSPost2010PropOp42
 70
     1
102
RTVSPost2010Prop43
 90
        3
102
RTVSPost2010PropOp43
 70
     1
102
RTVSPost2010Prop44ColorIndex
 90
        5
102
RTVSPost2010Prop44ColorRGB
 90
      255
102
RTVSPost2010PropOp44
 70
     1
102
RTVSPost2010Prop45
280
     0
102
RTVSPost2010PropOp45
 70
     1
102
RTVSPost2010Prop46
 90
       50
102
RTVSPost2010PropOp46
 70
     1
102
RTVSPost2010Prop47
 90
       50
102
RTVSPost2010PropOp47
 70
     1
102
RTVSPost2010Prop48
 90
       50
102
RTVSPost2010PropOp48
 70
     1
102
RTVSPost2010Prop49
280
     0
102
RTVSPost2010PropOp49
 70
     1
102
RTVSPost2010Prop50
 90
       50
102
RTVSPost2010PropOp50
 70
     1
102
RTVSPost2010Prop51ColorIndex
 90
      256
102
RTVSPost2010Prop51ColorRGB
 90
-16777216
102
RTVSPost2010PropOp51
 70
     0
102
RTVSPost2010Prop52
140
1.0
102
RTVSPost2010PropOp52
 70
     0
102
RTVSPost2010Prop53
 90
        2
102
RTVSPost2010PropOp53
 70
     1
102
RTVSPost2010Prop54
  1
strokes_ogs.tif
102
RTVSPost2010PropOp54
 70
     1
102
RTVSPost2010Prop55
280
     0
102
RTVSPost2010PropOp55
 70
     1
102
RTVSPost2010Prop56
140
1.0
102
RTVSPost2010PropOp56
 70
     1
102
RTVSPost2010Prop57
140
1.0
102
RTVSPost2010PropOp57
 70
     1
  0
XRECORD
  5
35C
102
{ACAD_REACTORS
330
35B
102
}
330
35B
100
AcDbXrecord
280
     1
102
RTVSPropertyOp0
 70
     0
102
RTVSPropertyOp1
 70
     0
102
RTVSPropertyOp2
 70
     0
102
RTVSPropertyOp3
 70
     0
102
RTVSPropertyOp4
 70
     0
102
RTVSPropertyOp5
 70
     0
102
RTVSPropertyOp6
 70
     0
102
RTVSPropertyOp7
 70
     0
102
RTVSPropertyOp8
 70
     0
102
RTVSPropertyOp9
 70
     0
102
RTVSPropertyOp10
 70
     0
102
RTVSPropertyOp11
 70
     0
102
RTVSPropertyOp12
 70
     0
102
RTVSPropertyOp13
 70
     0
102
RTVSPropertyOp14
 70
     2
102
RTVSPropertyOp15
 70
     0
102
RTVSPropertyOp16
 70
     0
102
RTVSPropertyOp17
 70
     0
102
RTVSPropertyOp18
 70
     0
102
RTVSPropertyOp19
 70
     0
102
RTVSPropertyOp20
 70
     0
102
RTVSPropertyOp21
 70
     0
102
RTVSPropertyOp22
 70
     0
102
RTVSPropertyOp23
 70
     0
102
RTVSPropertyOp24
 70
     0
102
RTVSPropertyOp25
 70
     0
102
RTVSPropertyOp26
 70
     0
102
RTVSPropertyOp27
 70
     0
102
RTVSPropertyOp28
 70
     0
102
RTVSPropertyOp29
 70
     0
102
RTVSPropertyOp30
 70
     0
102
RTVSPropertyOp31
 70
     0
102
RTVSPropertyOp32
 70
     0
102
RTVSPropertyOp33
 70
     0
102
RTVSPropertyOp34
 70
     0
102
RTVSPropertyOp35
 70
     0
102
RTVSPropertyOp36
 70
     0
102
RTVSPropertyOp37
 70
     0
102
RTVSPropertyOp38
 70
     0
102
RTVSPropertyOp39
 70
     0
102
RTVSPropertyOp40
 70
     0
102
RTVSPropertyOp41
 70
     0
102
RTVSPropertyOp42
 70
     0
102
RTVSPropertyOp43
 70
     0
102
RTVSPropertyOp44
 70
     0
102
RTVSPropertyOp45
 70
     0
102
RTVSPropertyOp46
 70
     0
102
RTVSPropertyOp47
 70
     0
102
RTVSPropertyOp48
 70
     0
102
RTVSPropertyOp49
 70
     0
102
RTVSPropertyOp50
 70
     0
102
RTVSPropertyOp51
 70
     0
102
RTVSPropertyOp52
 70
     0
102
RTVSPropertyOp53
 70
     0
102
RTVSPropertyOp54
 70
     0
102
RTVSPropertyOp55
 70
     0
102
RTVSPropertyOp56
 70
     0
102
RTVSPropertyOp57
 70
     0
102
RTVSPost2010Prop28
280
     0
102
RTVSPost2010PropOp28
 70
     0
102
RTVSPost2010Prop29
280
     1
102
RTVSPost2010PropOp29
 70
     0
102
RTVSPost2010Prop30
280
     1
102
RTVSPost2010PropOp30
 70
     0
102
RTVSPost2010Prop31
280
     0
102
RTVSPost2010PropOp31
 70
     0
102
RTVSPost2010Prop32
280
     0
102
RTVSPost2010PropOp32
 70
     0
102
RTVSPost2010Prop33
280
     0
102
RTVSPost2010PropOp33
 70
     0
102
RTVSPost2010Prop34
280
     0
102
RTVSPost2010PropOp34
 70
     0
102
RTVSPost2010Prop35
280
     0
102
RTVSPost2010PropOp35
 70
     0
102
RTVSPost2010Prop36
280
     0
102
RTVSPost2010PropOp36
 70
     0
102
RTVSPost2010Prop37
 90
       50
102
RTVSPost2010PropOp37
 70
     0
102
RTVSPost2010Prop38
140
0.0
102
RTVSPost2010PropOp38
 70
     0
102
RTVSPost2010Prop39
140
1.0
102
RTVSPost2010PropOp39
 70
     0
102
RTVSPost2010Prop40
 90
        0
102
RTVSPost2010PropOp40
 70
     0
102
RTVSPost2010Prop41ColorIndex
 90
       18
102
RTVSPost2010Prop41ColorRGB
 90
        0
102
RTVSPost2010PropOp41
 70
     0
102
RTVSPost2010Prop42
 90
       50
102
RTVSPost2010PropOp42
 70
     0
102
RTVSPost2010Prop43
 90
        3
102
RTVSPost2010PropOp43
 70
     0
102
RTVSPost2010Prop44ColorIndex
 90
        5
102
RTVSPost2010Prop44ColorRGB
 90
      255
102
RTVSPost2010PropOp44
 70
     0
102
RTVSPost2010Prop45
280
     0
102
RTVSPost2010PropOp45
 70
     0
102
RTVSPost2010Prop46
 90
       50
102
RTVSPost2010PropOp46
 70
     0
102
RTVSPost2010Prop47
 90
       50
102
RTVSPost2010PropOp47
 70
     0
102
RTVSPost2010Prop48
 90
       50
102
RTVSPost2010PropOp48
 70
     0
102
RTVSPost2010Prop49
280
     0
102
RTVSPost2010PropOp49
 70
     0
102
RTVSPost2010Prop50
 90
       50
102
RTVSPost2010PropOp50
 70
     0
102
RTVSPost2010Prop51ColorIndex
 90
      256
102
RTVSPost2010Prop51ColorRGB
 90
-16777216
102
RTVSPost2010PropOp51
 70
     0
102
RTVSPost2010Prop52
140
1.0
102
RTVSPost2010PropOp52
 70
     0
102
RTVSPost2010Prop53
 90
        2
102
RTVSPost2010PropOp53
 70
     0
102
RTVSPost2010Prop54
  1
strokes_ogs.tif
102
RTVSPost2010PropOp54
 70
     0
102
RTVSPost2010Prop55
280
     0
102
RTVSPost2010PropOp55
 70
     0
102
RTVSPost2010Prop56
140
1.0
102
RTVSPost2010PropOp56
 70
     0
102
RTVSPost2010Prop57
140
1.0
102
RTVSPost2010PropOp57
 70
     0
  0
XRECORD
  5
34A
102
{ACAD_REACTORS
330
349
102
}
330
349
100
AcDbXrecord
280
     1
102
RTVSPropertyOp0
 70
     1
102
RTVSPropertyOp1
 70
     1
102
RTVSPropertyOp2
 70
     1
102
RTVSPropertyOp3
 70
     1
102
RTVSPropertyOp4
 70
     1
102
RTVSPropertyOp5
 70
     1
102
RTVSPropertyOp6
 70
     1
102
RTVSPropertyOp7
 70
     1
102
RTVSPropertyOp8
 70
     1
102
RTVSPropertyOp9
 70
     1
102
RTVSPropertyOp10
 70
     1
102
RTVSPropertyOp11
 70
     1
102
RTVSPropertyOp12
 70
     1
102
RTVSPropertyOp13
 70
     1
102
RTVSPropertyOp14
 70
     1
102
RTVSPropertyOp15
 70
     1
102
RTVSPropertyOp16
 70
     1
102
RTVSPropertyOp17
 70
     1
102
RTVSPropertyOp18
 70
     1
102
RTVSPropertyOp19
 70
     1
102
RTVSPropertyOp20
 70
     1
102
RTVSPropertyOp21
 70
     1
102
RTVSPropertyOp22
 70
     1
102
RTVSPropertyOp23
 70
     1
102
RTVSPropertyOp24
 70
     1
102
RTVSPropertyOp25
 70
     1
102
RTVSPropertyOp26
 70
     1
102
RTVSPropertyOp27
 70
     1
102
RTVSPropertyOp28
 70
     1
102
RTVSPropertyOp29
 70
     1
102
RTVSPropertyOp30
 70
     1
102
RTVSPropertyOp31
 70
     1
102
RTVSPropertyOp32
 70
     1
102
RTVSPropertyOp33
 70
     1
102
RTVSPropertyOp34
 70
     1
102
RTVSPropertyOp35
 70
     1
102
RTVSPropertyOp36
 70
     1
102
RTVSPropertyOp37
 70
     1
102
RTVSPropertyOp38
 70
     1
102
RTVSPropertyOp39
 70
     1
102
RTVSPropertyOp40
 70
     1
102
RTVSPropertyOp41
 70
     1
102
RTVSPropertyOp42
 70
     1
102
RTVSPropertyOp43
 70
     1
102
RTVSPropertyOp44
 70
     1
102
RTVSPropertyOp45
 70
     1
102
RTVSPropertyOp46
 70
     1
102
RTVSPropertyOp47
 70
     1
102
RTVSPropertyOp48
 70
     1
102
RTVSPropertyOp49
 70
     1
102
RTVSPropertyOp50
 70
     1
102
RTVSPropertyOp51
 70
     0
102
RTVSPropertyOp52
 70
     0
102
RTVSPropertyOp53
 70
     1
102
RTVSPropertyOp54
 70
     1
102
RTVSPropertyOp55
 70
     1
102
RTVSPropertyOp56
 70
     1
102
RTVSPropertyOp57
 70
     1
102
RTVSPost2010Prop28
280
     0
102
RTVSPost2010PropOp28
 70
     1
102
RTVSPost2010Prop29
280
     1
102
RTVSPost2010PropOp29
 70
     1
102
RTVSPost2010Prop30
280
     1
102
RTVSPost2010PropOp30
 70
     1
102
RTVSPost2010Prop31
280
     0
102
RTVSPost2010PropOp31
 70
     1
102
RTVSPost2010Prop32
280
     0
102
RTVSPost2010PropOp32
 70
     1
102
RTVSPost2010Prop33
280
     0
102
RTVSPost2010PropOp33
 70
     1
102
RTVSPost2010Prop34
280
     0
102
RTVSPost2010PropOp34
 70
     1
102
RTVSPost2010Prop35
280
     0
102
RTVSPost2010PropOp35
 70
     1
102
RTVSPost2010Prop36
280
     0
102
RTVSPost2010PropOp36
 70
     1
102
RTVSPost2010Prop37
 90
       50
102
RTVSPost2010PropOp37
 70
     1
102
RTVSPost2010Prop38
140
0.0
102
RTVSPost2010PropOp38
 70
     1
102
RTVSPost2010Prop39
140
1.0
102
RTVSPost2010PropOp39
 70
     1
102
RTVSPost2010Prop40
 90
        0
102
RTVSPost2010PropOp40
 70
     1
102
RTVSPost2010Prop41ColorIndex
 90
       18
102
RTVSPost2010Prop41ColorRGB
 90
        0
102
RTVSPost2010PropOp41
 70
     1
102
RTVSPost2010Prop42
 90
       50
102
RTVSPost2010PropOp42
 70
     1
102
RTVSPost2010Prop43
 90
        3
102
RTVSPost2010PropOp43
 70
     1
102
RTVSPost2010Prop44ColorIndex
 90
        5
102
RTVSPost2010Prop44ColorRGB
 90
      255
102
RTVSPost2010PropOp44
 70
     1
102
RTVSPost2010Prop45
280
     0
102
RTVSPost2010PropOp45
 70
     1
102
RTVSPost2010Prop46
 90
       50
102
RTVSPost2010PropOp46
 70
     1
102
RTVSPost2010Prop47
 90
       50
102
RTVSPost2010PropOp47
 70
     1
102
RTVSPost2010Prop48
 90
       50
102
RTVSPost2010PropOp48
 70
     1
102
RTVSPost2010Prop49
280
     0
102
RTVSPost2010PropOp49
 70
     1
102
RTVSPost2010Prop50
 90
       50
102
RTVSPost2010PropOp50
 70
     1
102
RTVSPost2010Prop51ColorIndex
 90
      256
102
RTVSPost2010Prop51ColorRGB
 90
-16777216
102
RTVSPost2010PropOp51
 70
     0
102
RTVSPost2010Prop52
140
1.0
102
RTVSPost2010PropOp52
 70
     0
102
RTVSPost2010Prop53
 90
        2
102
RTVSPost2010PropOp53
 70
     1
102
RTVSPost2010Prop54
  1
strokes_ogs.tif
102
RTVSPost2010PropOp54
 70
     1
102
RTVSPost2010Prop55
280
     0
102
RTVSPost2010PropOp55
 70
     1
102
RTVSPost2010Prop56
140
1.0
102
RTVSPost2010PropOp56
 70
     1
102
RTVSPost2010Prop57
140
1.0
102
RTVSPost2010PropOp57
 70
     1
  0
XRECORD
  5
368
102
{ACAD_REACTORS
330
367
102
}
330
367
100
AcDbXrecord
280
     1
102
RTVSPropertyOp0
 70
     1
102
RTVSPropertyOp1
 70
     1
102
RTVSPropertyOp2
 70
     1
102
RTVSPropertyOp3
 70
     1
102
RTVSPropertyOp4
 70
     1
102
RTVSPropertyOp5
 70
     1
102
RTVSPropertyOp6
 70
     1
102
RTVSPropertyOp7
 70
     1
102
RTVSPropertyOp8
 70
     1
102
RTVSPropertyOp9
 70
     1
102
RTVSPropertyOp10
 70
     1
102
RTVSPropertyOp11
 70
     1
102
RTVSPropertyOp12
 70
     1
102
RTVSPropertyOp13
 70
     1
102
RTVSPropertyOp14
 70
     1
102
RTVSPropertyOp15
 70
     1
102
RTVSPropertyOp16
 70
     1
102
RTVSPropertyOp17
 70
     1
102
RTVSPropertyOp18
 70
     1
102
RTVSPropertyOp19
 70
     1
102
RTVSPropertyOp20
 70
     1
102
RTVSPropertyOp21
 70
     1
102
RTVSPropertyOp22
 70
     1
102
RTVSPropertyOp23
 70
     1
102
RTVSPropertyOp24
 70
     1
102
RTVSPropertyOp25
 70
     1
102
RTVSPropertyOp26
 70
     1
102
RTVSPropertyOp27
 70
     1
102
RTVSPropertyOp28
 70
     1
102
RTVSPropertyOp29
 70
     1
102
RTVSPropertyOp30
 70
     1
102
RTVSPropertyOp31
 70
     1
102
RTVSPropertyOp32
 70
     1
102
RTVSPropertyOp33
 70
     1
102
RTVSPropertyOp34
 70
     1
102
RTVSPropertyOp35
 70
     1
102
RTVSPropertyOp36
 70
     1
102
RTVSPropertyOp37
 70
     1
102
RTVSPropertyOp38
 70
     1
102
RTVSPropertyOp39
 70
     1
102
RTVSPropertyOp40
 70
     1
102
RTVSPropertyOp41
 70
     1
102
RTVSPropertyOp42
 70
     1
102
RTVSPropertyOp43
 70
     1
102
RTVSPropertyOp44
 70
     1
102
RTVSPropertyOp45
 70
     1
102
RTVSPropertyOp46
 70
     1
102
RTVSPropertyOp47
 70
     1
102
RTVSPropertyOp48
 70
     1
102
RTVSPropertyOp49
 70
     1
102
RTVSPropertyOp50
 70
     1
102
RTVSPropertyOp51
 70
     0
102
RTVSPropertyOp52
 70
     0
102
RTVSPropertyOp53
 70
     1
102
RTVSPropertyOp54
 70
     1
102
RTVSPropertyOp55
 70
     1
102
RTVSPropertyOp56
 70
     1
102
RTVSPropertyOp57
 70
     1
102
RTVSPost2010Prop28
280
     0
102
RTVSPost2010PropOp28
 70
     1
102
RTVSPost2010Prop29
280
     1
102
RTVSPost2010PropOp29
 70
     1
102
RTVSPost2010Prop30
280
     1
102
RTVSPost2010PropOp30
 70
     1
102
RTVSPost2010Prop31
280
     0
102
RTVSPost2010PropOp31
 70
     1
102
RTVSPost2010Prop32
280
     0
102
RTVSPost2010PropOp32
 70
     1
102
RTVSPost2010Prop33
280
     0
102
RTVSPost2010PropOp33
 70
     1
102
RTVSPost2010Prop34
280
     0
102
RTVSPost2010PropOp34
 70
     1
102
RTVSPost2010Prop35
280
     0
102
RTVSPost2010PropOp35
 70
     1
102
RTVSPost2010Prop36
280
     0
102
RTVSPost2010PropOp36
 70
     1
102
RTVSPost2010Prop37
 90
       50
102
RTVSPost2010PropOp37
 70
     1
102
RTVSPost2010Prop38
140
0.0
102
RTVSPost2010PropOp38
 70
     1
102
RTVSPost2010Prop39
140
1.0
102
RTVSPost2010PropOp39
 70
     1
102
RTVSPost2010Prop40
 90
        0
102
RTVSPost2010PropOp40
 70
     1
102
RTVSPost2010Prop41ColorIndex
 90
       18
102
RTVSPost2010Prop41ColorRGB
 90
        0
102
RTVSPost2010PropOp41
 70
     1
102
RTVSPost2010Prop42
 90
       50
102
RTVSPost2010PropOp42
 70
     1
102
RTVSPost2010Prop43
 90
        3
102
RTVSPost2010PropOp43
 70
     1
102
RTVSPost2010Prop44ColorIndex
 90
        5
102
RTVSPost2010Prop44ColorRGB
 90
      255
102
RTVSPost2010PropOp44
 70
     1
102
RTVSPost2010Prop45
280
     0
102
RTVSPost2010PropOp45
 70
     1
102
RTVSPost2010Prop46
 90
       50
102
RTVSPost2010PropOp46
 70
     1
102
RTVSPost2010Prop47
 90
       50
102
RTVSPost2010PropOp47
 70
     1
102
RTVSPost2010Prop48
 90
       50
102
RTVSPost2010PropOp48
 70
     1
102
RTVSPost2010Prop49
280
     0
102
RTVSPost2010PropOp49
 70
     1
102
RTVSPost2010Prop50
 90
       50
102
RTVSPost2010PropOp50
 70
     1
102
RTVSPost2010Prop51ColorIndex
 90
      256
102
RTVSPost2010Prop51ColorRGB
 90
-16777216
102
RTVSPost2010PropOp51
 70
     0
102
RTVSPost2010Prop52
140
1.0
102
RTVSPost2010PropOp52
 70
     0
102
RTVSPost2010Prop53
 90
        2
102
RTVSPost2010PropOp53
 70
     1
102
RTVSPost2010Prop54
  1
strokes_ogs.tif
102
RTVSPost2010PropOp54
 70
     1
102
RTVSPost2010Prop55
280
     0
102
RTVSPost2010PropOp55
 70
     1
102
RTVSPost2010Prop56
140
1.0
102
RTVSPost2010PropOp56
 70
     1
102
RTVSPost2010Prop57
140
1.0
102
RTVSPost2010PropOp57
 70
     1
  0
XRECORD
  5
366
102
{ACAD_REACTORS
330
365
102
}
330
365
100
AcDbXrecord
280
     1
102
RTVSPropertyOp0
 70
     1
102
RTVSPropertyOp1
 70
     1
102
RTVSPropertyOp2
 70
     1
102
RTVSPropertyOp3
 70
     1
102
RTVSPropertyOp4
 70
     1
102
RTVSPropertyOp5
 70
     1
102
RTVSPropertyOp6
 70
     1
102
RTVSPropertyOp7
 70
     1
102
RTVSPropertyOp8
 70
     1
102
RTVSPropertyOp9
 70
     1
102
RTVSPropertyOp10
 70
     1
102
RTVSPropertyOp11
 70
     1
102
RTVSPropertyOp12
 70
     1
102
RTVSPropertyOp13
 70
     1
102
RTVSPropertyOp14
 70
     1
102
RTVSPropertyOp15
 70
     1
102
RTVSPropertyOp16
 70
     1
102
RTVSPropertyOp17
 70
     1
102
RTVSPropertyOp18
 70
     1
102
RTVSPropertyOp19
 70
     1
102
RTVSPropertyOp20
 70
     1
102
RTVSPropertyOp21
 70
     1
102
RTVSPropertyOp22
 70
     1
102
RTVSPropertyOp23
 70
     1
102
RTVSPropertyOp24
 70
     1
102
RTVSPropertyOp25
 70
     1
102
RTVSPropertyOp26
 70
     1
102
RTVSPropertyOp27
 70
     1
102
RTVSPropertyOp28
 70
     1
102
RTVSPropertyOp29
 70
     1
102
RTVSPropertyOp30
 70
     1
102
RTVSPropertyOp31
 70
     1
102
RTVSPropertyOp32
 70
     1
102
RTVSPropertyOp33
 70
     1
102
RTVSPropertyOp34
 70
     1
102
RTVSPropertyOp35
 70
     1
102
RTVSPropertyOp36
 70
     1
102
RTVSPropertyOp37
 70
     1
102
RTVSPropertyOp38
 70
     1
102
RTVSPropertyOp39
 70
     1
102
RTVSPropertyOp40
 70
     1
102
RTVSPropertyOp41
 70
     1
102
RTVSPropertyOp42
 70
     1
102
RTVSPropertyOp43
 70
     1
102
RTVSPropertyOp44
 70
     1
102
RTVSPropertyOp45
 70
     1
102
RTVSPropertyOp46
 70
     1
102
RTVSPropertyOp47
 70
     1
102
RTVSPropertyOp48
 70
     1
102
RTVSPropertyOp49
 70
     1
102
RTVSPropertyOp50
 70
     1
102
RTVSPropertyOp51
 70
     0
102
RTVSPropertyOp52
 70
     0
102
RTVSPropertyOp53
 70
     1
102
RTVSPropertyOp54
 70
     1
102
RTVSPropertyOp55
 70
     1
102
RTVSPropertyOp56
 70
     1
102
RTVSPropertyOp57
 70
     1
102
RTVSPost2010Prop28
280
     0
102
RTVSPost2010PropOp28
 70
     1
102
RTVSPost2010Prop29
280
     1
102
RTVSPost2010PropOp29
 70
     1
102
RTVSPost2010Prop30
280
     1
102
RTVSPost2010PropOp30
 70
     1
102
RTVSPost2010Prop31
280
     0
102
RTVSPost2010PropOp31
 70
     1
102
RTVSPost2010Prop32
280
     0
102
RTVSPost2010PropOp32
 70
     1
102
RTVSPost2010Prop33
280
     0
102
RTVSPost2010PropOp33
 70
     1
102
RTVSPost2010Prop34
280
     0
102
RTVSPost2010PropOp34
 70
     1
102
RTVSPost2010Prop35
280
     0
102
RTVSPost2010PropOp35
 70
     1
102
RTVSPost2010Prop36
280
     0
102
RTVSPost2010PropOp36
 70
     1
102
RTVSPost2010Prop37
 90
       50
102
RTVSPost2010PropOp37
 70
     1
102
RTVSPost2010Prop38
140
0.0
102
RTVSPost2010PropOp38
 70
     1
102
RTVSPost2010Prop39
140
1.0
102
RTVSPost2010PropOp39
 70
     1
102
RTVSPost2010Prop40
 90
        0
102
RTVSPost2010PropOp40
 70
     1
102
RTVSPost2010Prop41ColorIndex
 90
       18
102
RTVSPost2010Prop41ColorRGB
 90
        0
102
RTVSPost2010PropOp41
 70
     1
102
RTVSPost2010Prop42
 90
       50
102
RTVSPost2010PropOp42
 70
     1
102
RTVSPost2010Prop43
 90
        3
102
RTVSPost2010PropOp43
 70
     1
102
RTVSPost2010Prop44ColorIndex
 90
        5
102
RTVSPost2010Prop44ColorRGB
 90
      255
102
RTVSPost2010PropOp44
 70
     1
102
RTVSPost2010Prop45
280
     0
102
RTVSPost2010PropOp45
 70
     1
102
RTVSPost2010Prop46
 90
       50
102
RTVSPost2010PropOp46
 70
     1
102
RTVSPost2010Prop47
 90
       50
102
RTVSPost2010PropOp47
 70
     1
102
RTVSPost2010Prop48
 90
       50
102
RTVSPost2010PropOp48
 70
     1
102
RTVSPost2010Prop49
280
     0
102
RTVSPost2010PropOp49
 70
     1
102
RTVSPost2010Prop50
 90
       50
102
RTVSPost2010PropOp50
 70
     1
102
RTVSPost2010Prop51ColorIndex
 90
      256
102
RTVSPost2010Prop51ColorRGB
 90
-16777216
102
RTVSPost2010PropOp51
 70
     0
102
RTVSPost2010Prop52
140
1.0
102
RTVSPost2010PropOp52
 70
     0
102
RTVSPost2010Prop53
 90
        2
102
RTVSPost2010PropOp53
 70
     1
102
RTVSPost2010Prop54
  1
strokes_ogs.tif
102
RTVSPost2010PropOp54
 70
     1
102
RTVSPost2010Prop55
280
     0
102
RTVSPost2010PropOp55
 70
     1
102
RTVSPost2010Prop56
140
1.0
102
RTVSPost2010PropOp56
 70
     1
102
RTVSPost2010Prop57
140
1.0
102
RTVSPost2010PropOp57
 70
     1
  0
XRECORD
  5
360
102
{ACAD_REACTORS
330
35F
102
}
330
35F
100
AcDbXrecord
280
     1
102
RTVSPropertyOp0
 70
     1
102
RTVSPropertyOp1
 70
     1
102
RTVSPropertyOp2
 70
     1
102
RTVSPropertyOp3
 70
     1
102
RTVSPropertyOp4
 70
     1
102
RTVSPropertyOp5
 70
     1
102
RTVSPropertyOp6
 70
     1
102
RTVSPropertyOp7
 70
     1
102
RTVSPropertyOp8
 70
     1
102
RTVSPropertyOp9
 70
     1
102
RTVSPropertyOp10
 70
     1
102
RTVSPropertyOp11
 70
     1
102
RTVSPropertyOp12
 70
     1
102
RTVSPropertyOp13
 70
     1
102
RTVSPropertyOp14
 70
     1
102
RTVSPropertyOp15
 70
     1
102
RTVSPropertyOp16
 70
     1
102
RTVSPropertyOp17
 70
     1
102
RTVSPropertyOp18
 70
     1
102
RTVSPropertyOp19
 70
     1
102
RTVSPropertyOp20
 70
     1
102
RTVSPropertyOp21
 70
     1
102
RTVSPropertyOp22
 70
     1
102
RTVSPropertyOp23
 70
     1
102
RTVSPropertyOp24
 70
     1
102
RTVSPropertyOp25
 70
     1
102
RTVSPropertyOp26
 70
     1
102
RTVSPropertyOp27
 70
     1
102
RTVSPropertyOp28
 70
     1
102
RTVSPropertyOp29
 70
     1
102
RTVSPropertyOp30
 70
     1
102
RTVSPropertyOp31
 70
     1
102
RTVSPropertyOp32
 70
     1
102
RTVSPropertyOp33
 70
     1
102
RTVSPropertyOp34
 70
     1
102
RTVSPropertyOp35
 70
     1
102
RTVSPropertyOp36
 70
     1
102
RTVSPropertyOp37
 70
     1
102
RTVSPropertyOp38
 70
     1
102
RTVSPropertyOp39
 70
     1
102
RTVSPropertyOp40
 70
     1
102
RTVSPropertyOp41
 70
     1
102
RTVSPropertyOp42
 70
     1
102
RTVSPropertyOp43
 70
     1
102
RTVSPropertyOp44
 70
     1
102
RTVSPropertyOp45
 70
     1
102
RTVSPropertyOp46
 70
     1
102
RTVSPropertyOp47
 70
     1
102
RTVSPropertyOp48
 70
     1
102
RTVSPropertyOp49
 70
     1
102
RTVSPropertyOp50
 70
     1
102
RTVSPropertyOp51
 70
     0
102
RTVSPropertyOp52
 70
     0
102
RTVSPropertyOp53
 70
     1
102
RTVSPropertyOp54
 70
     1
102
RTVSPropertyOp55
 70
     1
102
RTVSPropertyOp56
 70
     1
102
RTVSPropertyOp57
 70
     1
102
RTVSPost2010Prop28
280
     0
102
RTVSPost2010PropOp28
 70
     1
102
RTVSPost2010Prop29
280
     1
102
RTVSPost2010PropOp29
 70
     1
102
RTVSPost2010Prop30
280
     1
102
RTVSPost2010PropOp30
 70
     1
102
RTVSPost2010Prop31
280
     0
102
RTVSPost2010PropOp31
 70
     1
102
RTVSPost2010Prop32
280
     0
102
RTVSPost2010PropOp32
 70
     1
102
RTVSPost2010Prop33
280
     0
102
RTVSPost2010PropOp33
 70
     1
102
RTVSPost2010Prop34
280
     0
102
RTVSPost2010PropOp34
 70
     1
102
RTVSPost2010Prop35
280
     0
102
RTVSPost2010PropOp35
 70
     1
102
RTVSPost2010Prop36
280
     0
102
RTVSPost2010PropOp36
 70
     1
102
RTVSPost2010Prop37
 90
       50
102
RTVSPost2010PropOp37
 70
     1
102
RTVSPost2010Prop38
140
0.0
102
RTVSPost2010PropOp38
 70
     1
102
RTVSPost2010Prop39
140
1.0
102
RTVSPost2010PropOp39
 70
     1
102
RTVSPost2010Prop40
 90
        0
102
RTVSPost2010PropOp40
 70
     1
102
RTVSPost2010Prop41ColorIndex
 90
       18
102
RTVSPost2010Prop41ColorRGB
 90
        0
102
RTVSPost2010PropOp41
 70
     1
102
RTVSPost2010Prop42
 90
       50
102
RTVSPost2010PropOp42
 70
     1
102
RTVSPost2010Prop43
 90
        3
102
RTVSPost2010PropOp43
 70
     1
102
RTVSPost2010Prop44ColorIndex
 90
        5
102
RTVSPost2010Prop44ColorRGB
 90
      255
102
RTVSPost2010PropOp44
 70
     1
102
RTVSPost2010Prop45
280
     0
102
RTVSPost2010PropOp45
 70
     1
102
RTVSPost2010Prop46
 90
       50
102
RTVSPost2010PropOp46
 70
     1
102
RTVSPost2010Prop47
 90
       50
102
RTVSPost2010PropOp47
 70
     1
102
RTVSPost2010Prop48
 90
       50
102
RTVSPost2010PropOp48
 70
     1
102
RTVSPost2010Prop49
280
     0
102
RTVSPost2010PropOp49
 70
     1
102
RTVSPost2010Prop50
 90
       50
102
RTVSPost2010PropOp50
 70
     1
102
RTVSPost2010Prop51ColorIndex
 90
      256
102
RTVSPost2010Prop51ColorRGB
 90
-16777216
102
RTVSPost2010PropOp51
 70
     0
102
RTVSPost2010Prop52
140
1.0
102
RTVSPost2010PropOp52
 70
     0
102
RTVSPost2010Prop53
 90
        2
102
RTVSPost2010PropOp53
 70
     1
102
RTVSPost2010Prop54
  1
strokes_ogs.tif
102
RTVSPost2010PropOp54
 70
     1
102
RTVSPost2010Prop55
280
     0
102
RTVSPost2010PropOp55
 70
     1
102
RTVSPost2010Prop56
140
1.0
102
RTVSPost2010PropOp56
 70
     1
102
RTVSPost2010Prop57
140
1.0
102
RTVSPost2010PropOp57
 70
     1
  0
XRECORD
  5
362
102
{ACAD_REACTORS
330
361
102
}
330
361
100
AcDbXrecord
280
     1
102
RTVSPropertyOp0
 70
     1
102
RTVSPropertyOp1
 70
     1
102
RTVSPropertyOp2
 70
     1
102
RTVSPropertyOp3
 70
     1
102
RTVSPropertyOp4
 70
     1
102
RTVSPropertyOp5
 70
     1
102
RTVSPropertyOp6
 70
     1
102
RTVSPropertyOp7
 70
     1
102
RTVSPropertyOp8
 70
     1
102
RTVSPropertyOp9
 70
     1
102
RTVSPropertyOp10
 70
     1
102
RTVSPropertyOp11
 70
     1
102
RTVSPropertyOp12
 70
     1
102
RTVSPropertyOp13
 70
     1
102
RTVSPropertyOp14
 70
     1
102
RTVSPropertyOp15
 70
     1
102
RTVSPropertyOp16
 70
     1
102
RTVSPropertyOp17
 70
     1
102
RTVSPropertyOp18
 70
     1
102
RTVSPropertyOp19
 70
     1
102
RTVSPropertyOp20
 70
     1
102
RTVSPropertyOp21
 70
     1
102
RTVSPropertyOp22
 70
     1
102
RTVSPropertyOp23
 70
     1
102
RTVSPropertyOp24
 70
     1
102
RTVSPropertyOp25
 70
     1
102
RTVSPropertyOp26
 70
     1
102
RTVSPropertyOp27
 70
     1
102
RTVSPropertyOp28
 70
     1
102
RTVSPropertyOp29
 70
     1
102
RTVSPropertyOp30
 70
     1
102
RTVSPropertyOp31
 70
     1
102
RTVSPropertyOp32
 70
     1
102
RTVSPropertyOp33
 70
     1
102
RTVSPropertyOp34
 70
     1
102
RTVSPropertyOp35
 70
     1
102
RTVSPropertyOp36
 70
     1
102
RTVSPropertyOp37
 70
     1
102
RTVSPropertyOp38
 70
     1
102
RTVSPropertyOp39
 70
     1
102
RTVSPropertyOp40
 70
     1
102
RTVSPropertyOp41
 70
     1
102
RTVSPropertyOp42
 70
     1
102
RTVSPropertyOp43
 70
     1
102
RTVSPropertyOp44
 70
     1
102
RTVSPropertyOp45
 70
     1
102
RTVSPropertyOp46
 70
     1
102
RTVSPropertyOp47
 70
     1
102
RTVSPropertyOp48
 70
     1
102
RTVSPropertyOp49
 70
     1
102
RTVSPropertyOp50
 70
     1
102
RTVSPropertyOp51
 70
     0
102
RTVSPropertyOp52
 70
     0
102
RTVSPropertyOp53
 70
     1
102
RTVSPropertyOp54
 70
     1
102
RTVSPropertyOp55
 70
     1
102
RTVSPropertyOp56
 70
     1
102
RTVSPropertyOp57
 70
     1
102
RTVSPost2010Prop28
280
     0
102
RTVSPost2010PropOp28
 70
     1
102
RTVSPost2010Prop29
280
     1
102
RTVSPost2010PropOp29
 70
     1
102
RTVSPost2010Prop30
280
     1
102
RTVSPost2010PropOp30
 70
     1
102
RTVSPost2010Prop31
280
     0
102
RTVSPost2010PropOp31
 70
     1
102
RTVSPost2010Prop32
280
     0
102
RTVSPost2010PropOp32
 70
     1
102
RTVSPost2010Prop33
280
     0
102
RTVSPost2010PropOp33
 70
     1
102
RTVSPost2010Prop34
280
     0
102
RTVSPost2010PropOp34
 70
     1
102
RTVSPost2010Prop35
280
     0
102
RTVSPost2010PropOp35
 70
     1
102
RTVSPost2010Prop36
280
     0
102
RTVSPost2010PropOp36
 70
     1
102
RTVSPost2010Prop37
 90
       50
102
RTVSPost2010PropOp37
 70
     1
102
RTVSPost2010Prop38
140
0.0
102
RTVSPost2010PropOp38
 70
     1
102
RTVSPost2010Prop39
140
1.0
102
RTVSPost2010PropOp39
 70
     1
102
RTVSPost2010Prop40
 90
        0
102
RTVSPost2010PropOp40
 70
     1
102
RTVSPost2010Prop41ColorIndex
 90
       18
102
RTVSPost2010Prop41ColorRGB
 90
        0
102
RTVSPost2010PropOp41
 70
     1
102
RTVSPost2010Prop42
 90
       50
102
RTVSPost2010PropOp42
 70
     1
102
RTVSPost2010Prop43
 90
        3
102
RTVSPost2010PropOp43
 70
     1
102
RTVSPost2010Prop44ColorIndex
 90
        5
102
RTVSPost2010Prop44ColorRGB
 90
      255
102
RTVSPost2010PropOp44
 70
     1
102
RTVSPost2010Prop45
280
     0
102
RTVSPost2010PropOp45
 70
     1
102
RTVSPost2010Prop46
 90
       50
102
RTVSPost2010PropOp46
 70
     1
102
RTVSPost2010Prop47
 90
       50
102
RTVSPost2010PropOp47
 70
     1
102
RTVSPost2010Prop48
 90
       50
102
RTVSPost2010PropOp48
 70
     1
102
RTVSPost2010Prop49
280
     0
102
RTVSPost2010PropOp49
 70
     1
102
RTVSPost2010Prop50
 90
       50
102
RTVSPost2010PropOp50
 70
     1
102
RTVSPost2010Prop51ColorIndex
 90
      256
102
RTVSPost2010Prop51ColorRGB
 90
-16777216
102
RTVSPost2010PropOp51
 70
     0
102
RTVSPost2010Prop52
140
1.0
102
RTVSPost2010PropOp52
 70
     0
102
RTVSPost2010Prop53
 90
        2
102
RTVSPost2010PropOp53
 70
     1
102
RTVSPost2010Prop54
  1
strokes_ogs.tif
102
RTVSPost2010PropOp54
 70
     1
102
RTVSPost2010Prop55
280
     0
102
RTVSPost2010PropOp55
 70
     1
102
RTVSPost2010Prop56
140
1.0
102
RTVSPost2010PropOp56
 70
     1
102
RTVSPost2010Prop57
140
1.0
102
RTVSPost2010PropOp57
 70
     1
  0
XRECORD
  5
352
102
{ACAD_REACTORS
330
351
102
}
330
351
100
AcDbXrecord
280
     1
102
RTVSPropertyOp0
 70
     1
102
RTVSPropertyOp1
 70
     1
102
RTVSPropertyOp2
 70
     1
102
RTVSPropertyOp3
 70
     1
102
RTVSPropertyOp4
 70
     1
102
RTVSPropertyOp5
 70
     1
102
RTVSPropertyOp6
 70
     1
102
RTVSPropertyOp7
 70
     1
102
RTVSPropertyOp8
 70
     1
102
RTVSPropertyOp9
 70
     1
102
RTVSPropertyOp10
 70
     1
102
RTVSPropertyOp11
 70
     1
102
RTVSPropertyOp12
 70
     1
102
RTVSPropertyOp13
 70
     1
102
RTVSPropertyOp14
 70
     1
102
RTVSPropertyOp15
 70
     1
102
RTVSPropertyOp16
 70
     1
102
RTVSPropertyOp17
 70
     1
102
RTVSPropertyOp18
 70
     1
102
RTVSPropertyOp19
 70
     1
102
RTVSPropertyOp20
 70
     1
102
RTVSPropertyOp21
 70
     1
102
RTVSPropertyOp22
 70
     1
102
RTVSPropertyOp23
 70
     1
102
RTVSPropertyOp24
 70
     1
102
RTVSPropertyOp25
 70
     1
102
RTVSPropertyOp26
 70
     1
102
RTVSPropertyOp27
 70
     1
102
RTVSPropertyOp28
 70
     1
102
RTVSPropertyOp29
 70
     1
102
RTVSPropertyOp30
 70
     1
102
RTVSPropertyOp31
 70
     1
102
RTVSPropertyOp32
 70
     1
102
RTVSPropertyOp33
 70
     1
102
RTVSPropertyOp34
 70
     1
102
RTVSPropertyOp35
 70
     1
102
RTVSPropertyOp36
 70
     1
102
RTVSPropertyOp37
 70
     1
102
RTVSPropertyOp38
 70
     1
102
RTVSPropertyOp39
 70
     1
102
RTVSPropertyOp40
 70
     1
102
RTVSPropertyOp41
 70
     1
102
RTVSPropertyOp42
 70
     1
102
RTVSPropertyOp43
 70
     1
102
RTVSPropertyOp44
 70
     1
102
RTVSPropertyOp45
 70
     1
102
RTVSPropertyOp46
 70
     1
102
RTVSPropertyOp47
 70
     1
102
RTVSPropertyOp48
 70
     1
102
RTVSPropertyOp49
 70
     1
102
RTVSPropertyOp50
 70
     1
102
RTVSPropertyOp51
 70
     0
102
RTVSPropertyOp52
 70
     0
102
RTVSPropertyOp53
 70
     1
102
RTVSPropertyOp54
 70
     1
102
RTVSPropertyOp55
 70
     1
102
RTVSPropertyOp56
 70
     1
102
RTVSPropertyOp57
 70
     1
102
RTVSPost2010Prop28
280
     0
102
RTVSPost2010PropOp28
 70
     1
102
RTVSPost2010Prop29
280
     1
102
RTVSPost2010PropOp29
 70
     1
102
RTVSPost2010Prop30
280
     1
102
RTVSPost2010PropOp30
 70
     1
102
RTVSPost2010Prop31
280
     0
102
RTVSPost2010PropOp31
 70
     1
102
RTVSPost2010Prop32
280
     0
102
RTVSPost2010PropOp32
 70
     1
102
RTVSPost2010Prop33
280
     0
102
RTVSPost2010PropOp33
 70
     1
102
RTVSPost2010Prop34
280
     0
102
RTVSPost2010PropOp34
 70
     1
102
RTVSPost2010Prop35
280
     0
102
RTVSPost2010PropOp35
 70
     1
102
RTVSPost2010Prop36
280
     0
102
RTVSPost2010PropOp36
 70
     1
102
RTVSPost2010Prop37
 90
       50
102
RTVSPost2010PropOp37
 70
     1
102
RTVSPost2010Prop38
140
0.0
102
RTVSPost2010PropOp38
 70
     1
102
RTVSPost2010Prop39
140
1.0
102
RTVSPost2010PropOp39
 70
     1
102
RTVSPost2010Prop40
 90
        0
102
RTVSPost2010PropOp40
 70
     1
102
RTVSPost2010Prop41ColorIndex
 90
       18
102
RTVSPost2010Prop41ColorRGB
 90
        0
102
RTVSPost2010PropOp41
 70
     1
102
RTVSPost2010Prop42
 90
       50
102
RTVSPost2010PropOp42
 70
     1
102
RTVSPost2010Prop43
 90
        3
102
RTVSPost2010PropOp43
 70
     1
102
RTVSPost2010Prop44ColorIndex
 90
        5
102
RTVSPost2010Prop44ColorRGB
 90
      255
102
RTVSPost2010PropOp44
 70
     1
102
RTVSPost2010Prop45
280
     0
102
RTVSPost2010PropOp45
 70
     1
102
RTVSPost2010Prop46
 90
       50
102
RTVSPost2010PropOp46
 70
     1
102
RTVSPost2010Prop47
 90
       50
102
RTVSPost2010PropOp47
 70
     1
102
RTVSPost2010Prop48
 90
       50
102
RTVSPost2010PropOp48
 70
     1
102
RTVSPost2010Prop49
280
     0
102
RTVSPost2010PropOp49
 70
     1
102
RTVSPost2010Prop50
 90
       50
102
RTVSPost2010PropOp50
 70
     1
102
RTVSPost2010Prop51ColorIndex
 90
      256
102
RTVSPost2010Prop51ColorRGB
 90
-16777216
102
RTVSPost2010PropOp51
 70
     0
102
RTVSPost2010Prop52
140
1.0
102
RTVSPost2010PropOp52
 70
     0
102
RTVSPost2010Prop53
 90
        2
102
RTVSPost2010PropOp53
 70
     1
102
RTVSPost2010Prop54
  1
strokes_ogs.tif
102
RTVSPost2010PropOp54
 70
     1
102
RTVSPost2010Prop55
280
     0
102
RTVSPost2010PropOp55
 70
     1
102
RTVSPost2010Prop56
140
1.0
102
RTVSPost2010PropOp56
 70
     1
102
RTVSPost2010Prop57
140
1.0
102
RTVSPost2010PropOp57
 70
     1
  0
XRECORD
  5
344
102
{ACAD_REACTORS
330
343
102
}
330
343
100
AcDbXrecord
280
     1
102
RTVSPropertyOp0
 70
     1
102
RTVSPropertyOp1
 70
     1
102
RTVSPropertyOp2
 70
     1
102
RTVSPropertyOp3
 70
     1
102
RTVSPropertyOp4
 70
     1
102
RTVSPropertyOp5
 70
     1
102
RTVSPropertyOp6
 70
     1
102
RTVSPropertyOp7
 70
     1
102
RTVSPropertyOp8
 70
     1
102
RTVSPropertyOp9
 70
     1
102
RTVSPropertyOp10
 70
     1
102
RTVSPropertyOp11
 70
     1
102
RTVSPropertyOp12
 70
     1
102
RTVSPropertyOp13
 70
     1
102
RTVSPropertyOp14
 70
     1
102
RTVSPropertyOp15
 70
     1
102
RTVSPropertyOp16
 70
     1
102
RTVSPropertyOp17
 70
     1
102
RTVSPropertyOp18
 70
     1
102
RTVSPropertyOp19
 70
     1
102
RTVSPropertyOp20
 70
     1
102
RTVSPropertyOp21
 70
     1
102
RTVSPropertyOp22
 70
     1
102
RTVSPropertyOp23
 70
     1
102
RTVSPropertyOp24
 70
     1
102
RTVSPropertyOp25
 70
     1
102
RTVSPropertyOp26
 70
     1
102
RTVSPropertyOp27
 70
     1
102
RTVSPropertyOp28
 70
     1
102
RTVSPropertyOp29
 70
     1
102
RTVSPropertyOp30
 70
     1
102
RTVSPropertyOp31
 70
     1
102
RTVSPropertyOp32
 70
     1
102
RTVSPropertyOp33
 70
     1
102
RTVSPropertyOp34
 70
     1
102
RTVSPropertyOp35
 70
     1
102
RTVSPropertyOp36
 70
     1
102
RTVSPropertyOp37
 70
     1
102
RTVSPropertyOp38
 70
     1
102
RTVSPropertyOp39
 70
     1
102
RTVSPropertyOp40
 70
     1
102
RTVSPropertyOp41
 70
     1
102
RTVSPropertyOp42
 70
     1
102
RTVSPropertyOp43
 70
     1
102
RTVSPropertyOp44
 70
     1
102
RTVSPropertyOp45
 70
     1
102
RTVSPropertyOp46
 70
     1
102
RTVSPropertyOp47
 70
     1
102
RTVSPropertyOp48
 70
     1
102
RTVSPropertyOp49
 70
     1
102
RTVSPropertyOp50
 70
     1
102
RTVSPropertyOp51
 70
     0
102
RTVSPropertyOp52
 70
     0
102
RTVSPropertyOp53
 70
     1
102
RTVSPropertyOp54
 70
     1
102
RTVSPropertyOp55
 70
     1
102
RTVSPropertyOp56
 70
     1
102
RTVSPropertyOp57
 70
     1
102
RTVSPost2010Prop28
280
     0
102
RTVSPost2010PropOp28
 70
     1
102
RTVSPost2010Prop29
280
     1
102
RTVSPost2010PropOp29
 70
     1
102
RTVSPost2010Prop30
280
     1
102
RTVSPost2010PropOp30
 70
     1
102
RTVSPost2010Prop31
280
     0
102
RTVSPost2010PropOp31
 70
     1
102
RTVSPost2010Prop32
280
     0
102
RTVSPost2010PropOp32
 70
     1
102
RTVSPost2010Prop33
280
     0
102
RTVSPost2010PropOp33
 70
     1
102
RTVSPost2010Prop34
280
     0
102
RTVSPost2010PropOp34
 70
     1
102
RTVSPost2010Prop35
280
     0
102
RTVSPost2010PropOp35
 70
     1
102
RTVSPost2010Prop36
280
     0
102
RTVSPost2010PropOp36
 70
     1
102
RTVSPost2010Prop37
 90
       50
102
RTVSPost2010PropOp37
 70
     1
102
RTVSPost2010Prop38
140
0.0
102
RTVSPost2010PropOp38
 70
     1
102
RTVSPost2010Prop39
140
1.0
102
RTVSPost2010PropOp39
 70
     1
102
RTVSPost2010Prop40
 90
        0
102
RTVSPost2010PropOp40
 70
     1
102
RTVSPost2010Prop41ColorIndex
 90
       18
102
RTVSPost2010Prop41ColorRGB
 90
        0
102
RTVSPost2010PropOp41
 70
     1
102
RTVSPost2010Prop42
 90
       50
102
RTVSPost2010PropOp42
 70
     1
102
RTVSPost2010Prop43
 90
        3
102
RTVSPost2010PropOp43
 70
     1
102
RTVSPost2010Prop44ColorIndex
 90
        5
102
RTVSPost2010Prop44ColorRGB
 90
      255
102
RTVSPost2010PropOp44
 70
     1
102
RTVSPost2010Prop45
280
     0
102
RTVSPost2010PropOp45
 70
     1
102
RTVSPost2010Prop46
 90
       50
102
RTVSPost2010PropOp46
 70
     1
102
RTVSPost2010Prop47
 90
       50
102
RTVSPost2010PropOp47
 70
     1
102
RTVSPost2010Prop48
 90
       50
102
RTVSPost2010PropOp48
 70
     1
102
RTVSPost2010Prop49
280
     0
102
RTVSPost2010PropOp49
 70
     1
102
RTVSPost2010Prop50
 90
       50
102
RTVSPost2010PropOp50
 70
     1
102
RTVSPost2010Prop51ColorIndex
 90
      256
102
RTVSPost2010Prop51ColorRGB
 90
-16777216
102
RTVSPost2010PropOp51
 70
     0
102
RTVSPost2010Prop52
140
1.0
102
RTVSPost2010PropOp52
 70
     0
102
RTVSPost2010Prop53
 90
        2
102
RTVSPost2010PropOp53
 70
     1
102
RTVSPost2010Prop54
  1
strokes_ogs.tif
102
RTVSPost2010PropOp54
 70
     1
102
RTVSPost2010Prop55
280
     0
102
RTVSPost2010PropOp55
 70
     1
102
RTVSPost2010Prop56
140
1.0
102
RTVSPost2010PropOp56
 70
     1
102
RTVSPost2010Prop57
140
1.0
102
RTVSPost2010PropOp57
 70
     1
  0
XRECORD
  5
364
102
{ACAD_REACTORS
330
363
102
}
330
363
100
AcDbXrecord
280
     1
102
RTVSPropertyOp0
 70
     1
102
RTVSPropertyOp1
 70
     1
102
RTVSPropertyOp2
 70
     1
102
RTVSPropertyOp3
 70
     1
102
RTVSPropertyOp4
 70
     1
102
RTVSPropertyOp5
 70
     1
102
RTVSPropertyOp6
 70
     1
102
RTVSPropertyOp7
 70
     1
102
RTVSPropertyOp8
 70
     1
102
RTVSPropertyOp9
 70
     1
102
RTVSPropertyOp10
 70
     1
102
RTVSPropertyOp11
 70
     1
102
RTVSPropertyOp12
 70
     1
102
RTVSPropertyOp13
 70
     1
102
RTVSPropertyOp14
 70
     1
102
RTVSPropertyOp15
 70
     1
102
RTVSPropertyOp16
 70
     1
102
RTVSPropertyOp17
 70
     1
102
RTVSPropertyOp18
 70
     1
102
RTVSPropertyOp19
 70
     1
102
RTVSPropertyOp20
 70
     1
102
RTVSPropertyOp21
 70
     1
102
RTVSPropertyOp22
 70
     1
102
RTVSPropertyOp23
 70
     1
102
RTVSPropertyOp24
 70
     1
102
RTVSPropertyOp25
 70
     1
102
RTVSPropertyOp26
 70
     1
102
RTVSPropertyOp27
 70
     1
102
RTVSPropertyOp28
 70
     1
102
RTVSPropertyOp29
 70
     1
102
RTVSPropertyOp30
 70
     1
102
RTVSPropertyOp31
 70
     1
102
RTVSPropertyOp32
 70
     1
102
RTVSPropertyOp33
 70
     1
102
RTVSPropertyOp34
 70
     1
102
RTVSPropertyOp35
 70
     1
102
RTVSPropertyOp36
 70
     1
102
RTVSPropertyOp37
 70
     1
102
RTVSPropertyOp38
 70
     1
102
RTVSPropertyOp39
 70
     1
102
RTVSPropertyOp40
 70
     1
102
RTVSPropertyOp41
 70
     1
102
RTVSPropertyOp42
 70
     1
102
RTVSPropertyOp43
 70
     1
102
RTVSPropertyOp44
 70
     1
102
RTVSPropertyOp45
 70
     1
102
RTVSPropertyOp46
 70
     1
102
RTVSPropertyOp47
 70
     1
102
RTVSPropertyOp48
 70
     1
102
RTVSPropertyOp49
 70
     1
102
RTVSPropertyOp50
 70
     1
102
RTVSPropertyOp51
 70
     0
102
RTVSPropertyOp52
 70
     0
102
RTVSPropertyOp53
 70
     1
102
RTVSPropertyOp54
 70
     1
102
RTVSPropertyOp55
 70
     1
102
RTVSPropertyOp56
 70
     1
102
RTVSPropertyOp57
 70
     1
102
RTVSPost2010Prop28
280
     0
102
RTVSPost2010PropOp28
 70
     1
102
RTVSPost2010Prop29
280
     1
102
RTVSPost2010PropOp29
 70
     1
102
RTVSPost2010Prop30
280
     1
102
RTVSPost2010PropOp30
 70
     1
102
RTVSPost2010Prop31
280
     0
102
RTVSPost2010PropOp31
 70
     1
102
RTVSPost2010Prop32
280
     0
102
RTVSPost2010PropOp32
 70
     1
102
RTVSPost2010Prop33
280
     0
102
RTVSPost2010PropOp33
 70
     1
102
RTVSPost2010Prop34
280
     0
102
RTVSPost2010PropOp34
 70
     1
102
RTVSPost2010Prop35
280
     0
102
RTVSPost2010PropOp35
 70
     1
102
RTVSPost2010Prop36
280
     0
102
RTVSPost2010PropOp36
 70
     1
102
RTVSPost2010Prop37
 90
       50
102
RTVSPost2010PropOp37
 70
     1
102
RTVSPost2010Prop38
140
0.0
102
RTVSPost2010PropOp38
 70
     1
102
RTVSPost2010Prop39
140
1.0
102
RTVSPost2010PropOp39
 70
     1
102
RTVSPost2010Prop40
 90
        0
102
RTVSPost2010PropOp40
 70
     1
102
RTVSPost2010Prop41ColorIndex
 90
       18
102
RTVSPost2010Prop41ColorRGB
 90
        0
102
RTVSPost2010PropOp41
 70
     1
102
RTVSPost2010Prop42
 90
       50
102
RTVSPost2010PropOp42
 70
     1
102
RTVSPost2010Prop43
 90
        3
102
RTVSPost2010PropOp43
 70
     1
102
RTVSPost2010Prop44ColorIndex
 90
        5
102
RTVSPost2010Prop44ColorRGB
 90
      255
102
RTVSPost2010PropOp44
 70
     1
102
RTVSPost2010Prop45
280
     0
102
RTVSPost2010PropOp45
 70
     1
102
RTVSPost2010Prop46
 90
       50
102
RTVSPost2010PropOp46
 70
     1
102
RTVSPost2010Prop47
 90
       50
102
RTVSPost2010PropOp47
 70
     1
102
RTVSPost2010Prop48
 90
       50
102
RTVSPost2010PropOp48
 70
     1
102
RTVSPost2010Prop49
280
     0
102
RTVSPost2010PropOp49
 70
     1
102
RTVSPost2010Prop50
 90
       50
102
RTVSPost2010PropOp50
 70
     1
102
RTVSPost2010Prop51ColorIndex
 90
      256
102
RTVSPost2010Prop51ColorRGB
 90
-16777216
102
RTVSPost2010PropOp51
 70
     0
102
RTVSPost2010Prop52
140
1.0
102
RTVSPost2010PropOp52
 70
     0
102
RTVSPost2010Prop53
 90
        2
102
RTVSPost2010PropOp53
 70
     1
102
RTVSPost2010Prop54
  1
strokes_ogs.tif
102
RTVSPost2010PropOp54
 70
     1
102
RTVSPost2010Prop55
280
     0
102
RTVSPost2010PropOp55
 70
     1
102
RTVSPost2010Prop56
140
1.0
102
RTVSPost2010PropOp56
 70
     1
102
RTVSPost2010Prop57
140
1.0
102
RTVSPost2010PropOp57
 70
     1
  0
ENDSEC
  0
EOF
