  0
SECTION
  2
HEADER
  9
$ACADVER
  1
AC1021
  9
$ACADMAINTVER
 70
    25
  9
$DWGCODEPAGE
  3
ANSI_1252
  9
$INSBASE
 10
0.0
 20
0.0
 30
0.0
  9
$EXTMIN
 10
0.0
 20
0.0
 30
0.0
  9
$EXTMAX
 10
210.0
 20
297.0
 30
0.0
  9
$LIMMIN
 10
0.0
 20
0.0
  9
$LIMMAX
 10
210.0
 20
297.0
  9
$ORTHOMODE
 70
     0
  9
$REGENMODE
 70
     1
  9
$FILLMODE
 70
     1
  9
$QTEXTMODE
 70
     0
  9
$MIRRTEXT
 70
     1
  9
$LTSCALE
 40
1.0
  9
$ATTMODE
 70
     1
  9
$TEXTSIZE
 40
5.0
  9
$TRACEWID
 40
1.0
  9
$TEXTSTYLE
  7
Standard
  9
$CLAYER
  8
0
  9
$CELTYPE
  6
ByLayer
  9
$CECOLOR
 62
   256
  9
$CELTSCALE
 40
1.0
  9
$DISPSILH
 70
     0
  9
$DIMSCALE
 40
1.0
  9
$DIMASZ
 40
2.5
  9
$DIMEXO
 40
0.625
  9
$DIMDLI
 40
3.75
  9
$DIMRND
 40
0.0
  9
$DIMDLE
 40
0.0
  9
$DIMEXE
 40
1.25
  9
$DIMTP
 40
0.0
  9
$DIMTM
 40
0.0
  9
$DIMTXT
 40
2.5
  9
$DIMCEN
 40
2.5
  9
$DIMTSZ
 40
0.0
  9
$DIMTOL
 70
     0
  9
$DIMLIM
 70
     0
  9
$DIMTIH
 70
     0
  9
$DIMTOH
 70
     0
  9
$DIMSE1
 70
     0
  9
$DIMSE2
 70
     0
  9
$DIMTAD
 70
     1
  9
$DIMZIN
 70
     8
  9
$DIMBLK
  1

  9
$DIMASO
 70
     1
  9
$DIMSHO
 70
     1
  9
$DIMPOST
  1

  9
$DIMAPOST
  1

  9
$DIMALT
 70
     0
  9
$DIMALTD
 70
     3
  9
$DIMALTF
 40
0.0393700787
  9
$DIMLFAC
 40
1.0
  9
$DIMTOFL
 70
     1
  9
$DIMTVP
 40
0.0
  9
$DIMTIX
 70
     0
  9
$DIMSOXD
 70
     0
  9
$DIMSAH
 70
     0
  9
$DIMBLK1
  1

  9
$DIMBLK2
  1

  9
$DIMSTYLE
  2
ISO-25
  9
$DIMCLRD
 70
     0
  9
$DIMCLRE
 70
     0
  9
$DIMCLRT
 70
     0
  9
$DIMTFAC
 40
1.0
  9
$DIMGAP
 40
0.625
  9
$DIMJUST
 70
     0
  9
$DIMSD1
 70
     0
  9
$DIMSD2
 70
     0
  9
$DIMTOLJ
 70
     0
  9
$DIMTZIN
 70
     8
  9
$DIMALTZ
 70
     0
  9
$DIMALTTZ
 70
     0
  9
$DIMUPT
 70
     0
  9
$DIMDEC
 70
     2
  9
$DIMTDEC
 70
     2
  9
$DIMALTU
 70
     2
  9
$DIMALTTD
 70
     3
  9
$DIMTXSTY
  7
Standard
  9
$DIMAUNIT
 70
     0
  9
$DIMADEC
 70
     0
  9
$DIMALTRND
 40
0.0
  9
$DIMAZIN
 70
     0
  9
$DIMDSEP
 70
    44
  9
$DIMATFIT
 70
     3
  9
$DIMFRAC
 70
     0
  9
$DIMLDRBLK
  1

  9
$DIMLUNIT
 70
     2
  9
$DIMLWD
 70
    -2
  9
$DIMLWE
 70
    -2
  9
$DIMTMOVE
 70
     0
  9
$DIMFXL
 40
1.0
  9
$DIMFXLON
 70
     0
  9
$DIMJOGANG
 40
0.7853981634
  9
$DIMTFILL
 70
     0
  9
$DIMTFILLCLR
 70
     0
  9
$DIMARCSYM
 70
     0
  9
$DIMLTYPE
  6

  9
$DIMLTEX1
  6

  9
$DIMLTEX2
  6

  9
$LUNITS
 70
     2
  9
$LUPREC
 70
     4
  9
$SKETCHINC
 40
1.0
  9
$FILLETRAD
 40
10.0
  9
$AUNITS
 70
     0
  9
$AUPREC
 70
     0
  9
$MENU
  1
.
  9
$ELEVATION
 40
0.0
  9
$PELEVATION
 40
0.0
  9
$THICKNESS
 40
0.0
  9
$LIMCHECK
 70
     0
  9
$CHAMFERA
 40
0.0
  9
$CHAMFERB
 40
0.0
  9
$CHAMFERC
 40
0.0
  9
$CHAMFERD
 40
0.0
  9
$SKPOLY
 70
     0
  9
$TDCREATE
 40
2457109.555615996
  9
$TDUCREATE
 40
2457109.513949329
  9
$TDUPDATE
 40
2457109.555617083
  9
$TDUUPDATE
 40
2457109.513950417
  9
$TDINDWG
 40
0.0000000116
  9
$TDUSRTIMER
 40
0.0000000116
  9
$USRTIMER
 70
     1
  9
$ANGBASE
 50
0.0
  9
$ANGDIR
 70
     0
  9
$PDMODE
 70
     0
  9
$PDSIZE
 40
0.0
  9
$PLINEWID
 40
0.0
  9
$SPLFRAME
 70
     0
  9
$SPLINETYPE
 70
     6
  9
$SPLINESEGS
 70
     8
  9
$HANDSEED
  5
36D
  9
$SURFTAB1
 70
     6
  9
$SURFTAB2
 70
     6
  9
$SURFTYPE
 70
     6
  9
$SURFU
 70
     6
  9
$SURFV
 70
     6
  9
$UCSBASE
  2

  9
$UCSNAME
  2

  9
$UCSORG
 10
0.0
 20
0.0
 30
0.0
  9
$UCSXDIR
 10
1.0
 20
0.0
 30
0.0
  9
$UCSYDIR
 10
0.0
 20
1.0
 30
0.0
  9
$UCSORTHOREF
  2

  9
$UCSORTHOVIEW
 70
     0
  9
$UCSORGTOP
 10
0.0
 20
0.0
 30
0.0
  9
$UCSORGBOTTOM
 10
0.0
 20
0.0
 30
0.0
  9
$UCSORGLEFT
 10
0.0
 20
0.0
 30
0.0
  9
$UCSORGRIGHT
 10
0.0
 20
0.0
 30
0.0
  9
$UCSORGFRONT
 10
0.0
 20
0.0
 30
0.0
  9
$UCSORGBACK
 10
0.0
 20
0.0
 30
0.0
  9
$PUCSBASE
  2

  9
$PUCSNAME
  2

  9
$PUCSORG
 10
0.0
 20
0.0
 30
0.0
  9
$PUCSXDIR
 10
1.0
 20
0.0
 30
0.0
  9
$PUCSYDIR
 10
0.0
 20
1.0
 30
0.0
  9
$PUCSORTHOREF
  2

  9
$PUCSORTHOVIEW
 70
     0
  9
$PUCSORGTOP
 10
0.0
 20
0.0
 30
0.0
  9
$PUCSORGBOTTOM
 10
0.0
 20
0.0
 30
0.0
  9
$PUCSORGLEFT
 10
0.0
 20
0.0
 30
0.0
  9
$PUCSORGRIGHT
 10
0.0
 20
0.0
 30
0.0
  9
$PUCSORGFRONT
 10
0.0
 20
0.0
 30
0.0
  9
$PUCSORGBACK
 10
0.0
 20
0.0
 30
0.0
  9
$USERI1
 70
     0
  9
$USERI2
 70
     0
  9
$USERI3
 70
     0
  9
$USERI4
 70
     0
  9
$USERI5
 70
     0
  9
$USERR1
 40
0.0
  9
$USERR2
 40
0.0
  9
$USERR3
 40
0.0
  9
$USERR4
 40
0.0
  9
$USERR5
 40
0.0
  9
$WORLDVIEW
 70
     1
  9
$SHADEDGE
 70
     3
  9
$SHADEDIF
 70
    70
  9
$TILEMODE
 70
     1
  9
$MAXACTVP
 70
    64
  9
$PINSBASE
 10
0.0
 20
0.0
 30
0.0
  9
$PLIMCHECK
 70
     0
  9
$PEXTMIN
 10
0.0
 20
0.0
 30
0.0
  9
$PEXTMAX
 10
210.0
 20
297.0
 30
0.0
  9
$PLIMMIN
 10
0.0
 20
0.0
  9
$PLIMMAX
 10
210.0
 20
297.0
  9
$UNITMODE
 70
     0
  9
$VISRETAIN
 70
     1
  9
$PLINEGEN
 70
     0
  9
$PSLTSCALE
 70
     1
  9
$TREEDEPTH
 70
  3020
  9
$CMLSTYLE
  2
Standard
  9
$CMLJUST
 70
     0
  9
$CMLSCALE
 40
20.0
  9
$PROXYGRAPHICS
 70
     1
  9
$MEASUREMENT
 70
     1
  9
$CELWEIGHT
370
    -1
  9
$ENDCAPS
280
     0
  9
$JOINSTYLE
280
     0
  9
$LWDISPLAY
290
     0
  9
$INSUNITS
 70
     4
  9
$HYPERLINKBASE
  1

  9
$STYLESHEET
  1

  9
$XEDIT
290
     1
  9
$CEPSNTYPE
380
     0
  9
$PSTYLEMODE
290
     1
  9
$FINGERPRINTGUID
  2
{34D61236-CEEE-47DB-95B2-790CE8ECC436}
  9
$VERSIONGUID
  2
{FAEB1C32-E019-11D5-929B-00C0DF256EC4}
  9
$EXTNAMES
290
     1
  9
$PSVPSCALE
 40
0.0
  9
$OLESTARTUP
290
     0
  9
$SORTENTS
280
   127
  9
$INDEXCTL
280
     0
  9
$HIDETEXT
280
     1
  9
$XCLIPFRAME
290
     0
  9
$HALOGAP
280
     0
  9
$OBSCOLOR
 70
   257
  9
$OBSLTYPE
280
     0
  9
$INTERSECTIONDISPLAY
280
     0
  9
$INTERSECTIONCOLOR
 70
   257
  9
$DIMASSOC
280
     2
  9
$PROJECTNAME
  1

  9
$CAMERADISPLAY
290
     0
  9
$LENSLENGTH
 40
50.0
  9
$CAMERAHEIGHT
 40
0.0
  9
$STEPSPERSEC
 40
2.0
  9
$STEPSIZE
 40
6.0
  9
$3DDWFPREC
 40
2.0
  9
$PSOLWIDTH
 40
5.0
  9
$PSOLHEIGHT
 40
80.0
  9
$LOFTANG1
 40
1.5707963268
  9
$LOFTANG2
 40
1.5707963268
  9
$LOFTMAG1
 40
0.0
  9
$LOFTMAG2
 40
0.0
  9
$LOFTPARAM
 70
     7
  9
$LOFTNORMALS
280
     1
  9
$LATITUDE
 40
37.795
  9
$LONGITUDE
 40
-122.394
  9
$NORTHDIRECTION
 40
0.0
  9
$TIMEZONE
 70
 -8000
  9
$LIGHTGLYPHDISPLAY
280
     1
  9
$TILEMODELIGHTSYNCH
280
     1
  9
$CMATERIAL
347
44
  9
$SOLIDHIST
280
     0
  9
$SHOWHIST
280
     1
  9
$DWFFRAME
280
     2
  9
$DGNFRAME
280
     2
  9
$REALWORLDSCALE
290
     1
  9
$INTERFERECOLOR
 62
   256
  9
$CSHADOW
280
     0
  9
$SHADOWPLANELOCATION
 40
0.0
  0
ENDSEC
  0
SECTION
  2
CLASSES
  0
CLASS
  1
ACDBDICTIONARYWDFLT
  2
AcDbDictionaryWithDefault
  3
ObjectDBX Classes
 90
        0
 91
        4
280
     0
281
     0
  0
CLASS
  1
VISUALSTYLE
  2
AcDbVisualStyle
  3
ObjectDBX Classes
 90
     4095
 91
        4
280
     0
281
     0
  0
CLASS
  1
MATERIAL
  2
AcDbMaterial
  3
ObjectDBX Classes
 90
     1153
 91
        4
280
     0
281
     0
  0
CLASS
  1
SCALE
  2
AcDbScale
  3
ObjectDBX Classes
 90
     1153
 91
        4
280
     0
281
     0
  0
CLASS
  1
TABLESTYLE
  2
AcDbTableStyle
  3
ObjectDBX Classes
 90
     4095
 91
        4
280
     0
281
     0
  0
CLASS
  1
MLEADERSTYLE
  2
AcDbMLeaderStyle
  3
ACDB_MLEADERSTYLE_CLASS
 90
     4095
 91
        4
280
     0
281
     0
  0
CLASS
  1
SUN
  2
AcDbSun
  3
SCENEOE
 90
     1153
 91
        4
280
     0
281
     0
  0
CLASS
  1
DICTIONARYVAR
  2
AcDbDictionaryVar
  3
ObjectDBX Classes
 90
        0
 91
        4
280
     0
281
     0
  0
CLASS
  1
CELLSTYLEMAP
  2
AcDbCellStyleMap
  3
ObjectDBX Classes
 90
     1152
 91
        4
280
     0
281
     0
  0
ENDSEC
  0
SECTION
  2
TABLES
  0
TABLE
  2
VPORT
  5
8
330
0
100
AcDbSymbolTable
 70
     1
  0
VPORT
  5
29
330
8
100
AcDbSymbolTableRecord
100
AcDbViewportTableRecord
  2
*Active
 70
     0
 10
0.0
 20
0.0
 11
1.0
 21
1.0
 12
344.1869158879
 22
148.5
 13
0.0
 23
0.0
 14
10.0
 24
10.0
 15
10.0
 25
10.0
 16
0.0
 26
0.0
 36
1.0
 17
0.0
 27
0.0
 37
0.0
 40
297.0
 41
1.9729729729
 42
50.0
 43
0.0
 44
0.0
 50
0.0
 51
0.0
 71
     0
 72
   100
 73
     1
 74
     3
 75
     0
 76
     0
 77
     0
 78
     0
281
     0
 65
     1
110
0.0
120
0.0
130
0.0
111
1.0
121
0.0
131
0.0
112
0.0
122
1.0
132
0.0
 79
     0
146
0.0
 60
     3
 61
     5
292
     1
282
     1
141
0.0
142
0.0
 63
   250
361
6D
  0
ENDTAB
  0
TABLE
  2
LTYPE
  5
5
330
0
100
AcDbSymbolTable
 70
     3
  0
LTYPE
  5
14
330
5
100
AcDbSymbolTableRecord
100
AcDbLinetypeTableRecord
  2
ByBlock
 70
     0
  3

 72
    65
 73
     0
 40
0.0
  0
LTYPE
  5
15
330
5
100
AcDbSymbolTableRecord
100
AcDbLinetypeTableRecord
  2
ByLayer
 70
     0
  3

 72
    65
 73
     0
 40
0.0
  0
LTYPE
  5
16
330
5
100
AcDbSymbolTableRecord
100
AcDbLinetypeTableRecord
  2
Continuous
 70
     0
  3
Solid line
 72
    65
 73
     0
 40
0.0
  0
LTYPE
  5
71
330
5
100
AcDbSymbolTableRecord
100
AcDbLinetypeTableRecord
  2
CENTER2
 70
     0
  3
Center (.5x) ___ _ ___ _ ___ _ ___ _ ___ _ ___
 72
    65
 73
     4
 40
28.575
 49
19.05
 74
     4
 75
     0
340
0
 46
0.0
 50
0.0
 44
0.0
 45
0.0
 49
-3.175
 74
     4
 75
     0
340
0
 46
0.0
 50
0.0
 44
0.0
 45
0.0
 49
3.175
 74
     4
 75
     0
340
0
 46
0.0
 50
0.0
 44
0.0
 45
0.0
 49
-3.175
 74
     4
 75
     0
340
0
 46
0.0
 50
0.0
 44
0.0
 45
0.0
  0
LTYPE
  5
F4
330
5
100
AcDbSymbolTableRecord
100
AcDbLinetypeTableRecord
  2
HIDDEN2
 70
     0
  3
Hidden (.5x) _ _ _ _ _ _ _ _ _ _ _ _ _ _ _ _ _ 
 72
    65
 73
     2
 40
4.7625
 49
3.175
 74
     4
 75
     0
340
0
 46
0.0
 50
0.0
 44
0.0
 45
0.0
 49
-1.5875
 74
     4
 75
     0
340
0
 46
0.0
 50
0.0
 44
0.0
 45
0.0
  0
ENDTAB
  0
TABLE
  2
LAYER
  5
2
330
0
100
AcDbSymbolTable
 70
     8
  0
LAYER
  5
10
330
2
100
AcDbSymbolTableRecord
100
AcDbLayerTableRecord
  2
0
 70
     0
 62
     7
  6
Continuous
370
    -3
390
F
347
46
  0
LAYER
  5
6E
330
2
100
AcDbSymbolTableRecord
100
AcDbLayerTableRecord
  2
Default
 70
     0
 62
     7
  6
Continuous
370
    -3
390
F
347
46
  0
LAYER
  5
E1
330
2
100
AcDbSymbolTableRecord
100
AcDbLayerTableRecord
  2
MEGA_000568
 70
     0
 62
     7
  6
Continuous
370
    -3
390
F
347
46
  0
LAYER
  5
F3
330
2
100
AcDbSymbolTableRecord
100
AcDbLayerTableRecord
  2
MEGA_000572
 70
     0
 62
     7
  6
Continuous
370
    -3
390
F
347
46
  0
LAYER
  5
FA
330
2
100
AcDbSymbolTableRecord
100
AcDbLayerTableRecord
  2
MEGA_001997
 70
     0
 62
     7
  6
Continuous
370
    -3
390
F
347
46
  0
LAYER
  5
FC
330
2
100
AcDbSymbolTableRecord
100
AcDbLayerTableRecord
  2
MEGA_000863
 70
     0
 62
     7
  6
Continuous
370
    -3
390
F
347
46
  0
LAYER
  5
122
330
2
100
AcDbSymbolTableRecord
100
AcDbLayerTableRecord
  2
DV2_Standard
 70
     0
 62
     7
  6
Continuous
370
    -3
390
F
347
46
  0
LAYER
  5
24A
330
2
100
AcDbSymbolTableRecord
100
AcDbLayerTableRecord
  2
SCHRAUBE_DIN_EN_
 70
     0
 62
     7
  6
Continuous
370
    -3
390
F
347
46
  0
ENDTAB
  0
TABLE
  2
STYLE
  5
3
330
0
100
AcDbSymbolTable
 70
     3
  0
STYLE
  5
11
330
3
100
AcDbSymbolTableRecord
100
AcDbTextStyleTableRecord
  2
Standard
 70
     0
 40
0.0
 41
1.0
 50
0.0
 71
     0
 42
5.0
  3
txt
  4

  0
STYLE
  5
105
330
3
100
AcDbSymbolTableRecord
100
AcDbTextStyleTableRecord
  2
SEACAD_Solid_Edge_ISO
 70
     0
 40
0.0
 41
1.0
 50
0.0
 71
     0
 42
5.0
  3
seiso.ttf
  4

1001
ACAD
1000
Solid Edge ISO
1071
        0
  0
STYLE
  5
2EC
330
3
100
AcDbSymbolTableRecord
100
AcDbTextStyleTableRecord
  2
SEACAD_Solid_Edge_ISO1_Symbols
 70
     0
 40
0.0
 41
1.0
 50
0.0
 71
     0
 42
5.0
  3
semeci1.ttf
  4

1001
ACAD
1000
Solid Edge ISO1 Symbols
1071
        0
  0
ENDTAB
  0
TABLE
  2
VIEW
  5
6
330
0
100
AcDbSymbolTable
 70
     0
  0
ENDTAB
  0
TABLE
  2
UCS
  5
7
330
0
100
AcDbSymbolTable
 70
     0
  0
ENDTAB
  0
TABLE
  2
APPID
  5
9
330
0
100
AcDbSymbolTable
 70
     2
  0
APPID
  5
12
330
9
100
AcDbSymbolTableRecord
100
AcDbRegAppTableRecord
  2
ACAD
 70
     0
  0
APPID
  5
365
330
9
100
AcDbSymbolTableRecord
100
AcDbRegAppTableRecord
  2
ACAD_MLEADERVER
 70
     0
  0
ENDTAB
  0
TABLE
  2
DIMSTYLE
  5
A
330
0
100
AcDbSymbolTable
 70
     3
100
AcDbDimStyleTable
  0
DIMSTYLE
105
27
330
A
100
AcDbSymbolTableRecord
100
AcDbDimStyleTableRecord
  2
ISO-25
 70
     0
 41
2.5
 42
0.625
 43
3.75
 44
1.25
 73
     0
 74
     0
 77
     1
 78
     8
140
2.5
141
2.5
143
0.0393700787
147
0.625
171
     3
172
     1
178
     0
271
     2
272
     2
274
     3
278
    44
283
     0
284
     8
340
11
  0
DIMSTYLE
105
271
330
A
100
AcDbSymbolTableRecord
100
AcDbDimStyleTableRecord
  2
Standard
 70
     0
178
     0
340
11
  0
DIMSTYLE
105
283
102
{ACAD_REACTORS
330
284
330
28E
330
298
330
2A2
330
2AC
330
2B8
330
2C2
330
2CC
330
2D6
330
2E0
330
2EB
330
2F7
330
302
330
30D
330
31C
330
326
102
}
330
A
100
AcDbSymbolTableRecord
100
AcDbDimStyleTableRecord
  2
DIN
 70
     0
 41
3.0
 42
0.0
 44
1.5
 73
     0
 74
     0
 77
     1
 78
     8
140
3.0
141
1.5
147
1.5
172
     1
173
     1
178
     0
271
     2
272
     2
278
    44
284
     8
340
105
343
27E
344
27E
  0
ENDTAB
  0
TABLE
  2
BLOCK_RECORD
  5
1
330
0
100
AcDbSymbolTable
 70
    43
  0
BLOCK_RECORD
  5
1F
330
1
100
AcDbSymbolTableRecord
100
AcDbBlockTableRecord
  2
*Model_Space
340
22
 70
     0
280
     1
281
     0
  0
BLOCK_RECORD
  5
1B
330
1
100
AcDbSymbolTableRecord
100
AcDbBlockTableRecord
  2
*Paper_Space
340
1E
 70
     0
280
     1
281
     0
  0
BLOCK_RECORD
  5
6F
330
1
100
AcDbSymbolTableRecord
100
AcDbBlockTableRecord
  2
SEANNOT_GROUP
340
0
102
{BLKREFS
331
70
102
}
 70
     0
280
     1
281
     0
  0
BLOCK_RECORD
  5
7A
330
1
100
AcDbSymbolTableRecord
100
AcDbBlockTableRecord
  2
SEANNOT_GROUP1
340
0
102
{BLKREFS
331
7B
102
}
 70
     0
280
     1
281
     0
  0
BLOCK_RECORD
  5
84
330
1
100
AcDbSymbolTableRecord
100
AcDbBlockTableRecord
  2
SEANNOT_GROUP2
340
0
102
{BLKREFS
331
85
102
}
 70
     0
280
     1
281
     0
  0
BLOCK_RECORD
  5
8E
330
1
100
AcDbSymbolTableRecord
100
AcDbBlockTableRecord
  2
SEANNOT_GROUP3
340
0
102
{BLKREFS
331
8F
102
}
 70
     0
280
     1
281
     0
  0
BLOCK_RECORD
  5
98
330
1
100
AcDbSymbolTableRecord
100
AcDbBlockTableRecord
  2
SEANNOT_GROUP4
340
0
102
{BLKREFS
331
99
102
}
 70
     0
280
     1
281
     0
  0
BLOCK_RECORD
  5
A2
330
1
100
AcDbSymbolTableRecord
100
AcDbBlockTableRecord
  2
SEANNOT_GROUP5
340
0
102
{BLKREFS
331
A3
102
}
 70
     0
280
     1
281
     0
  0
BLOCK_RECORD
  5
AC
330
1
100
AcDbSymbolTableRecord
100
AcDbBlockTableRecord
  2
SEANNOT_GROUP6
340
0
102
{BLKREFS
331
AD
102
}
 70
     0
280
     1
281
     0
  0
BLOCK_RECORD
  5
B6
330
1
100
AcDbSymbolTableRecord
100
AcDbBlockTableRecord
  2
SEANNOT_GROUP7
340
0
102
{BLKREFS
331
B7
102
}
 70
     0
280
     1
281
     0
  0
BLOCK_RECORD
  5
BB
330
1
100
AcDbSymbolTableRecord
100
AcDbBlockTableRecord
  2
SEANNOT_GROUP8
340
0
102
{BLKREFS
331
BC
102
}
 70
     0
280
     1
281
     0
  0
BLOCK_RECORD
  5
C0
330
1
100
AcDbSymbolTableRecord
100
AcDbBlockTableRecord
  2
SEANNOT_GROUP9
340
0
102
{BLKREFS
331
C1
102
}
 70
     0
280
     1
281
     0
  0
BLOCK_RECORD
  5
C5
330
1
100
AcDbSymbolTableRecord
100
AcDbBlockTableRecord
  2
SEANNOT_GROUP10
340
0
102
{BLKREFS
331
C6
102
}
 70
     0
280
     1
281
     0
  0
BLOCK_RECORD
  5
CA
330
1
100
AcDbSymbolTableRecord
100
AcDbBlockTableRecord
  2
SEANNOT_GROUP11
340
0
102
{BLKREFS
331
CB
102
}
 70
     0
280
     1
281
     0
  0
BLOCK_RECORD
  5
CF
330
1
100
AcDbSymbolTableRecord
100
AcDbBlockTableRecord
  2
SEANNOT_GROUP12
340
0
102
{BLKREFS
331
D0
102
}
 70
     0
280
     1
281
     0
  0
BLOCK_RECORD
  5
D4
330
1
100
AcDbSymbolTableRecord
100
AcDbBlockTableRecord
  2
SEANNOT_GROUP13
340
0
102
{BLKREFS
331
D5
102
}
 70
     0
280
     1
281
     0
  0
BLOCK_RECORD
  5
D9
330
1
100
AcDbSymbolTableRecord
100
AcDbBlockTableRecord
  2
SEANNOT_GROUP14
340
0
102
{BLKREFS
331
DA
102
}
 70
     0
280
     1
281
     0
  0
BLOCK_RECORD
  5
DF
330
1
100
AcDbSymbolTableRecord
100
AcDbBlockTableRecord
  2
SE
340
0
102
{BLKREFS
331
E0
102
}
 70
     0
280
     1
281
     0
  0
BLOCK_RECORD
  5
101
330
1
100
AcDbSymbolTableRecord
100
AcDbBlockTableRecord
  2
SE1
340
0
102
{BLKREFS
331
102
102
}
 70
     0
280
     1
281
     0
  0
BLOCK_RECORD
  5
103
330
1
100
AcDbSymbolTableRecord
100
AcDbBlockTableRecord
  2
SE2
340
0
102
{BLKREFS
331
104
102
}
 70
     0
280
     1
281
     0
  0
BLOCK_RECORD
  5
109
330
1
100
AcDbSymbolTableRecord
100
AcDbBlockTableRecord
  2
SE3
340
0
102
{BLKREFS
331
10A
102
}
 70
     0
280
     1
281
     0
  0
BLOCK_RECORD
  5
10E
330
1
100
AcDbSymbolTableRecord
100
AcDbBlockTableRecord
  2
SEANNOT_GROUP15
340
0
102
{BLKREFS
331
10F
102
}
 70
     0
280
     1
281
     0
  0
BLOCK_RECORD
  5
114
330
1
100
AcDbSymbolTableRecord
100
AcDbBlockTableRecord
  2
SEANNOT_GROUP16
340
0
102
{BLKREFS
331
115
102
}
 70
     0
280
     1
281
     0
  0
BLOCK_RECORD
  5
120
330
1
100
AcDbSymbolTableRecord
100
AcDbBlockTableRecord
  2
SE4
340
0
102
{BLKREFS
331
121
102
}
 70
     0
280
     1
281
     0
  0
BLOCK_RECORD
  5
272
330
1
100
AcDbSymbolTableRecord
100
AcDbBlockTableRecord
  2
_OBLIQUE
340
0
 70
     0
280
     1
281
     0
  0
BLOCK_RECORD
  5
276
330
1
100
AcDbSymbolTableRecord
100
AcDbBlockTableRecord
  2
_DOT
340
0
 70
     0
280
     1
281
     0
  0
BLOCK_RECORD
  5
27E
330
1
100
AcDbSymbolTableRecord
100
AcDbBlockTableRecord
  2
_SE_FILLED
340
0
 70
     0
280
     1
281
     0
  0
BLOCK_RECORD
  5
285
330
1
100
AcDbSymbolTableRecord
100
AcDbBlockTableRecord
  2
DMBLK55
340
0
 70
     0
280
     1
281
     0
  0
BLOCK_RECORD
  5
28F
330
1
100
AcDbSymbolTableRecord
100
AcDbBlockTableRecord
  2
DMBLK56
340
0
 70
     0
280
     1
281
     0
  0
BLOCK_RECORD
  5
299
330
1
100
AcDbSymbolTableRecord
100
AcDbBlockTableRecord
  2
DMBLK57
340
0
 70
     0
280
     1
281
     0
  0
BLOCK_RECORD
  5
2A3
330
1
100
AcDbSymbolTableRecord
100
AcDbBlockTableRecord
  2
DMBLK58
340
0
 70
     0
280
     1
281
     0
  0
BLOCK_RECORD
  5
2AD
330
1
100
AcDbSymbolTableRecord
100
AcDbBlockTableRecord
  2
DMBLK59
340
0
 70
     0
280
     1
281
     0
  0
BLOCK_RECORD
  5
2B9
330
1
100
AcDbSymbolTableRecord
100
AcDbBlockTableRecord
  2
DMBLK60
340
0
 70
     0
280
     1
281
     0
  0
BLOCK_RECORD
  5
2C3
330
1
100
AcDbSymbolTableRecord
100
AcDbBlockTableRecord
  2
DMBLK61
340
0
 70
     0
280
     1
281
     0
  0
BLOCK_RECORD
  5
2CD
330
1
100
AcDbSymbolTableRecord
100
AcDbBlockTableRecord
  2
DMBLK62
340
0
 70
     0
280
     1
281
     0
  0
BLOCK_RECORD
  5
2D7
330
1
100
AcDbSymbolTableRecord
100
AcDbBlockTableRecord
  2
DMBLK63
340
0
 70
     0
280
     1
281
     0
  0
BLOCK_RECORD
  5
2E1
330
1
100
AcDbSymbolTableRecord
100
AcDbBlockTableRecord
  2
DMBLK64
340
0
 70
     0
280
     1
281
     0
  0
BLOCK_RECORD
  5
2ED
330
1
100
AcDbSymbolTableRecord
100
AcDbBlockTableRecord
  2
DMBLK65
340
0
 70
     0
280
     1
281
     0
  0
BLOCK_RECORD
  5
2F8
330
1
100
AcDbSymbolTableRecord
100
AcDbBlockTableRecord
  2
DMBLK66
340
0
 70
     0
280
     1
281
     0
  0
BLOCK_RECORD
  5
303
330
1
100
AcDbSymbolTableRecord
100
AcDbBlockTableRecord
  2
DMBLK67
340
0
 70
     0
280
     1
281
     0
  0
BLOCK_RECORD
  5
30E
330
1
100
AcDbSymbolTableRecord
100
AcDbBlockTableRecord
  2
DMBLK68
340
0
 70
     0
280
     1
281
     0
  0
BLOCK_RECORD
  5
317
330
1
100
AcDbSymbolTableRecord
100
AcDbBlockTableRecord
  2
_SE_SLASH
340
0
 70
     0
280
     1
281
     0
  0
BLOCK_RECORD
  5
31D
330
1
100
AcDbSymbolTableRecord
100
AcDbBlockTableRecord
  2
DMBLK69
340
0
 70
     0
280
     1
281
     0
  0
BLOCK_RECORD
  5
327
330
1
100
AcDbSymbolTableRecord
100
AcDbBlockTableRecord
  2
DMBLK70
340
0
 70
     0
280
     1
281
     0
  0
ENDTAB
  0
ENDSEC
  0
SECTION
  2
BLOCKS
  0
BLOCK
  5
20
330
1F
100
AcDbEntity
  8
0
100
AcDbBlockBegin
  2
*Model_Space
 70
     0
 10
0.0
 20
0.0
 30
0.0
  3
*Model_Space
  1
*Model_Space
  0
ENDBLK
  5
21
330
1F
100
AcDbEntity
  8
0
100
AcDbBlockEnd
  0
BLOCK
  5
1C
330
1B
100
AcDbEntity
 67
     1
  8
0
100
AcDbBlockBegin
  2
*Paper_Space
 70
     0
 10
0.0
 20
0.0
 30
0.0
  3
*Paper_Space
  1
*Paper_Space
  0
ENDBLK
  5
1D
330
1B
100
AcDbEntity
 67
     1
  8
0
100
AcDbBlockEnd
  0
BLOCK
  5
78
330
6F
100
AcDbEntity
  8
0
100
AcDbBlockBegin
  2
SEANNOT_GROUP
 70
     0
 10
0.0
 20
0.0
 30
0.0
  3
SEANNOT_GROUP
  1
SEANNOT_GROUP
  0
LINE
  5
72
330
6F
100
AcDbEntity
  8
Default
  6
CENTER2
 62
     7
100
AcDbLine
 10
159.0132759625
 20
106.4103855514
 30
0.0
 11
147.0132758582
 21
106.4103855514
 31
0.0
  0
LINE
  5
73
330
6F
100
AcDbEntity
  8
Default
  6
CENTER2
 62
     7
100
AcDbLine
 10
153.0132759103
 20
112.4103856036
 30
0.0
 11
153.0132759103
 21
100.4103854993
 31
0.0
  0
LINE
  5
74
330
6F
100
AcDbEntity
  8
Default
  6
CENTER2
 62
     7
100
AcDbLine
 10
160.5132762083
 20
106.4103855514
 30
0.0
 11
169.7882759103
 21
106.4103855514
 31
0.0
  0
LINE
  5
75
330
6F
100
AcDbEntity
  8
Default
  6
CENTER2
 62
     7
100
AcDbLine
 10
153.0132759103
 20
113.9103858494
 30
0.0
 11
153.0132759103
 21
123.1853855514
 31
0.0
  0
LINE
  5
76
330
6F
100
AcDbEntity
  8
Default
  6
CENTER2
 62
     7
100
AcDbLine
 10
145.5132756123
 20
106.4103855514
 30
0.0
 11
136.2382759103
 21
106.4103855514
 31
0.0
  0
LINE
  5
77
330
6F
100
AcDbEntity
  8
Default
  6
CENTER2
 62
     7
100
AcDbLine
 10
153.0132759103
 20
98.9103852534
 30
0.0
 11
153.0132759103
 21
89.6353855514
 31
0.0
  0
ENDBLK
  5
79
330
6F
100
AcDbEntity
  8
0
100
AcDbBlockEnd
  0
BLOCK
  5
82
330
7A
100
AcDbEntity
  8
0
100
AcDbBlockBegin
  2
SEANNOT_GROUP1
 70
     0
 10
0.0
 20
0.0
 30
0.0
  3
SEANNOT_GROUP1
  1
SEANNOT_GROUP1
  0
LINE
  5
7C
330
7A
100
AcDbEntity
  8
Default
  6
CENTER2
 62
     7
100
AcDbLine
 10
159.0132759625
 20
184.4103855514
 30
0.0
 11
147.0132758582
 21
184.4103855514
 31
0.0
  0
LINE
  5
7D
330
7A
100
AcDbEntity
  8
Default
  6
CENTER2
 62
     7
100
AcDbLine
 10
153.0132759103
 20
190.4103856036
 30
0.0
 11
153.0132759103
 21
178.4103854993
 31
0.0
  0
LINE
  5
7E
330
7A
100
AcDbEntity
  8
Default
  6
CENTER2
 62
     7
100
AcDbLine
 10
160.5132762083
 20
184.4103855514
 30
0.0
 11
167.0132759103
 21
184.4103855514
 31
0.0
  0
LINE
  5
7F
330
7A
100
AcDbEntity
  8
Default
  6
CENTER2
 62
     7
100
AcDbLine
 10
153.0132759103
 20
191.9103858494
 30
0.0
 11
153.0132759103
 21
198.4103855514
 31
0.0
  0
LINE
  5
80
330
7A
100
AcDbEntity
  8
Default
  6
CENTER2
 62
     7
100
AcDbLine
 10
145.5132756123
 20
184.4103855514
 30
0.0
 11
139.0132759103
 21
184.4103855514
 31
0.0
  0
LINE
  5
81
330
7A
100
AcDbEntity
  8
Default
  6
CENTER2
 62
     7
100
AcDbLine
 10
153.0132759103
 20
176.9103852534
 30
0.0
 11
153.0132759103
 21
170.4103855514
 31
0.0
  0
ENDBLK
  5
83
330
7A
100
AcDbEntity
  8
0
100
AcDbBlockEnd
  0
BLOCK
  5
8C
330
84
100
AcDbEntity
  8
0
100
AcDbBlockBegin
  2
SEANNOT_GROUP2
 70
     0
 10
0.0
 20
0.0
 30
0.0
  3
SEANNOT_GROUP2
  1
SEANNOT_GROUP2
  0
LINE
  5
86
330
84
100
AcDbEntity
  8
Default
  6
CENTER2
 62
     7
100
AcDbLine
 10
141.0132759625
 20
268.4103855514
 30
0.0
 11
129.0132758582
 21
268.4103855514
 31
0.0
  0
LINE
  5
87
330
84
100
AcDbEntity
  8
Default
  6
CENTER2
 62
     7
100
AcDbLine
 10
135.0132759103
 20
274.4103856036
 30
0.0
 11
135.0132759103
 21
262.4103854993
 31
0.0
  0
LINE
  5
88
330
84
100
AcDbEntity
  8
Default
  6
CENTER2
 62
     7
100
AcDbLine
 10
142.5132762083
 20
268.4103855514
 30
0.0
 11
140.5132759103
 21
268.4103855514
 31
0.0
  0
LINE
  5
89
330
84
100
AcDbEntity
  8
Default
  6
CENTER2
 62
     7
100
AcDbLine
 10
135.0132759103
 20
275.9103858494
 30
0.0
 11
135.0132759103
 21
273.9103855514
 31
0.0
  0
LINE
  5
8A
330
84
100
AcDbEntity
  8
Default
  6
CENTER2
 62
     7
100
AcDbLine
 10
127.5132756123
 20
268.4103855514
 30
0.0
 11
129.5132759103
 21
268.4103855514
 31
0.0
  0
LINE
  5
8B
330
84
100
AcDbEntity
  8
Default
  6
CENTER2
 62
     7
100
AcDbLine
 10
135.0132759103
 20
260.9103852534
 30
0.0
 11
135.0132759103
 21
262.9103855514
 31
0.0
  0
ENDBLK
  5
8D
330
84
100
AcDbEntity
  8
0
100
AcDbBlockEnd
  0
BLOCK
  5
96
330
8E
100
AcDbEntity
  8
0
100
AcDbBlockBegin
  2
SEANNOT_GROUP3
 70
     0
 10
0.0
 20
0.0
 30
0.0
  3
SEANNOT_GROUP3
  1
SEANNOT_GROUP3
  0
LINE
  5
90
330
8E
100
AcDbEntity
  8
Default
  6
CENTER2
 62
     7
100
AcDbLine
 10
177.0132759625
 20
268.4103855514
 30
0.0
 11
165.0132758582
 21
268.4103855514
 31
0.0
  0
LINE
  5
91
330
8E
100
AcDbEntity
  8
Default
  6
CENTER2
 62
     7
100
AcDbLine
 10
171.0132759103
 20
274.4103856036
 30
0.0
 11
171.0132759103
 21
262.4103854993
 31
0.0
  0
LINE
  5
92
330
8E
100
AcDbEntity
  8
Default
  6
CENTER2
 62
     7
100
AcDbLine
 10
178.5132762083
 20
268.4103855514
 30
0.0
 11
176.5132759103
 21
268.4103855514
 31
0.0
  0
LINE
  5
93
330
8E
100
AcDbEntity
  8
Default
  6
CENTER2
 62
     7
100
AcDbLine
 10
171.0132759103
 20
275.9103858494
 30
0.0
 11
171.0132759103
 21
273.9103855514
 31
0.0
  0
LINE
  5
94
330
8E
100
AcDbEntity
  8
Default
  6
CENTER2
 62
     7
100
AcDbLine
 10
163.5132756123
 20
268.4103855514
 30
0.0
 11
165.5132759103
 21
268.4103855514
 31
0.0
  0
LINE
  5
95
330
8E
100
AcDbEntity
  8
Default
  6
CENTER2
 62
     7
100
AcDbLine
 10
171.0132759103
 20
260.9103852534
 30
0.0
 11
171.0132759103
 21
262.9103855514
 31
0.0
  0
ENDBLK
  5
97
330
8E
100
AcDbEntity
  8
0
100
AcDbBlockEnd
  0
BLOCK
  5
A0
330
98
100
AcDbEntity
  8
0
100
AcDbBlockBegin
  2
SEANNOT_GROUP4
 70
     0
 10
0.0
 20
0.0
 30
0.0
  3
SEANNOT_GROUP4
  1
SEANNOT_GROUP4
  0
LINE
  5
9A
330
98
100
AcDbEntity
  8
Default
  6
CENTER2
 62
     7
100
AcDbLine
 10
159.0132759625
 20
162.4103855514
 30
0.0
 11
147.0132758582
 21
162.4103855514
 31
0.0
  0
LINE
  5
9B
330
98
100
AcDbEntity
  8
Default
  6
CENTER2
 62
     7
100
AcDbLine
 10
153.0132759103
 20
168.4103856036
 30
0.0
 11
153.0132759103
 21
156.4103854993
 31
0.0
  0
LINE
  5
9C
330
98
100
AcDbEntity
  8
Default
  6
CENTER2
 62
     7
100
AcDbLine
 10
160.5132762083
 20
162.4103855514
 30
0.0
 11
158.5132759103
 21
162.4103855514
 31
0.0
  0
LINE
  5
9D
330
98
100
AcDbEntity
  8
Default
  6
CENTER2
 62
     7
100
AcDbLine
 10
153.0132759103
 20
169.9103858494
 30
0.0
 11
153.0132759103
 21
167.9103855514
 31
0.0
  0
LINE
  5
9E
330
98
100
AcDbEntity
  8
Default
  6
CENTER2
 62
     7
100
AcDbLine
 10
145.5132756123
 20
162.4103855514
 30
0.0
 11
147.5132759103
 21
162.4103855514
 31
0.0
  0
LINE
  5
9F
330
98
100
AcDbEntity
  8
Default
  6
CENTER2
 62
     7
100
AcDbLine
 10
153.0132759103
 20
154.9103852534
 30
0.0
 11
153.0132759103
 21
156.9103855514
 31
0.0
  0
ENDBLK
  5
A1
330
98
100
AcDbEntity
  8
0
100
AcDbBlockEnd
  0
BLOCK
  5
AA
330
A2
100
AcDbEntity
  8
0
100
AcDbBlockBegin
  2
SEANNOT_GROUP5
 70
     0
 10
0.0
 20
0.0
 30
0.0
  3
SEANNOT_GROUP5
  1
SEANNOT_GROUP5
  0
LINE
  5
A4
330
A2
100
AcDbEntity
  8
Default
  6
CENTER2
 62
     7
100
AcDbLine
 10
177.0132759625
 20
30.4103855514
 30
0.0
 11
165.0132758582
 21
30.4103855514
 31
0.0
  0
LINE
  5
A5
330
A2
100
AcDbEntity
  8
Default
  6
CENTER2
 62
     7
100
AcDbLine
 10
171.0132759103
 20
36.4103856036
 30
0.0
 11
171.0132759103
 21
24.4103854993
 31
0.0
  0
LINE
  5
A6
330
A2
100
AcDbEntity
  8
Default
  6
CENTER2
 62
     7
100
AcDbLine
 10
178.5132762083
 20
30.4103855514
 30
0.0
 11
176.5132759103
 21
30.4103855514
 31
0.0
  0
LINE
  5
A7
330
A2
100
AcDbEntity
  8
Default
  6
CENTER2
 62
     7
100
AcDbLine
 10
171.0132759103
 20
37.9103858494
 30
0.0
 11
171.0132759103
 21
35.9103855514
 31
0.0
  0
LINE
  5
A8
330
A2
100
AcDbEntity
  8
Default
  6
CENTER2
 62
     7
100
AcDbLine
 10
163.5132756123
 20
30.4103855514
 30
0.0
 11
165.5132759103
 21
30.4103855514
 31
0.0
  0
LINE
  5
A9
330
A2
100
AcDbEntity
  8
Default
  6
CENTER2
 62
     7
100
AcDbLine
 10
171.0132759103
 20
22.9103852534
 30
0.0
 11
171.0132759103
 21
24.9103855514
 31
0.0
  0
ENDBLK
  5
AB
330
A2
100
AcDbEntity
  8
0
100
AcDbBlockEnd
  0
BLOCK
  5
B4
330
AC
100
AcDbEntity
  8
0
100
AcDbBlockBegin
  2
SEANNOT_GROUP6
 70
     0
 10
0.0
 20
0.0
 30
0.0
  3
SEANNOT_GROUP6
  1
SEANNOT_GROUP6
  0
LINE
  5
AE
330
AC
100
AcDbEntity
  8
Default
  6
CENTER2
 62
     7
100
AcDbLine
 10
141.0132759625
 20
30.4103855514
 30
0.0
 11
129.0132758582
 21
30.4103855514
 31
0.0
  0
LINE
  5
AF
330
AC
100
AcDbEntity
  8
Default
  6
CENTER2
 62
     7
100
AcDbLine
 10
135.0132759103
 20
36.4103856036
 30
0.0
 11
135.0132759103
 21
24.4103854993
 31
0.0
  0
LINE
  5
B0
330
AC
100
AcDbEntity
  8
Default
  6
CENTER2
 62
     7
100
AcDbLine
 10
142.5132762083
 20
30.4103855514
 30
0.0
 11
140.5132759103
 21
30.4103855514
 31
0.0
  0
LINE
  5
B1
330
AC
100
AcDbEntity
  8
Default
  6
CENTER2
 62
     7
100
AcDbLine
 10
135.0132759103
 20
37.9103858494
 30
0.0
 11
135.0132759103
 21
35.9103855514
 31
0.0
  0
LINE
  5
B2
330
AC
100
AcDbEntity
  8
Default
  6
CENTER2
 62
     7
100
AcDbLine
 10
127.5132756123
 20
30.4103855514
 30
0.0
 11
129.5132759103
 21
30.4103855514
 31
0.0
  0
LINE
  5
B3
330
AC
100
AcDbEntity
  8
Default
  6
CENTER2
 62
     7
100
AcDbLine
 10
135.0132759103
 20
22.9103852534
 30
0.0
 11
135.0132759103
 21
24.9103855514
 31
0.0
  0
ENDBLK
  5
B5
330
AC
100
AcDbEntity
  8
0
100
AcDbBlockEnd
  0
BLOCK
  5
B9
330
B6
100
AcDbEntity
  8
0
100
AcDbBlockBegin
  2
SEANNOT_GROUP7
 70
     0
 10
0.0
 20
0.0
 30
0.0
  3
SEANNOT_GROUP7
  1
SEANNOT_GROUP7
  0
LINE
  5
B8
330
B6
100
AcDbEntity
  8
Default
  6
CENTER2
 62
     7
100
AcDbLine
 10
153.0132759103
 20
11.3010277589
 30
0.0
 11
153.0132759103
 21
281.2133627107
 31
0.0
  0
ENDBLK
  5
BA
330
B6
100
AcDbEntity
  8
0
100
AcDbBlockEnd
  0
BLOCK
  5
BE
330
BB
100
AcDbEntity
  8
0
100
AcDbBlockBegin
  2
SEANNOT_GROUP8
 70
     0
 10
0.0
 20
0.0
 30
0.0
  3
SEANNOT_GROUP8
  1
SEANNOT_GROUP8
  0
LINE
  5
BD
330
BB
100
AcDbEntity
  8
Default
  6
CENTER2
 62
     7
100
AcDbLine
 10
61.4920263055
 20
79.4103855514
 30
0.0
 11
48.51840264
 21
79.4103855514
 31
0.0
  0
ENDBLK
  5
BF
330
BB
100
AcDbEntity
  8
0
100
AcDbBlockEnd
  0
BLOCK
  5
C3
330
C0
100
AcDbEntity
  8
0
100
AcDbBlockBegin
  2
SEANNOT_GROUP9
 70
     0
 10
0.0
 20
0.0
 30
0.0
  3
SEANNOT_GROUP9
  1
SEANNOT_GROUP9
  0
LINE
  5
C2
330
C0
100
AcDbEntity
  8
Default
  6
CENTER2
 62
     7
100
AcDbLine
 10
46.4326863627
 20
268.4103855514
 30
0.0
 11
70.4892222956
 21
268.4103855514
 31
0.0
  0
ENDBLK
  5
C4
330
C0
100
AcDbEntity
  8
0
100
AcDbBlockEnd
  0
BLOCK
  5
C8
330
C5
100
AcDbEntity
  8
0
100
AcDbBlockBegin
  2
SEANNOT_GROUP10
 70
     0
 10
0.0
 20
0.0
 30
0.0
  3
SEANNOT_GROUP10
  1
SEANNOT_GROUP10
  0
LINE
  5
C7
330
C5
100
AcDbEntity
  8
Default
  6
CENTER2
 62
     7
100
AcDbLine
 10
42.9752521213
 20
184.4103855514
 30
0.0
 11
69.127635581
 21
184.4103855514
 31
0.0
  0
ENDBLK
  5
C9
330
C5
100
AcDbEntity
  8
0
100
AcDbBlockEnd
  0
BLOCK
  5
CD
330
CA
100
AcDbEntity
  8
0
100
AcDbBlockBegin
  2
SEANNOT_GROUP11
 70
     0
 10
0.0
 20
0.0
 30
0.0
  3
SEANNOT_GROUP11
  1
SEANNOT_GROUP11
  0
LINE
  5
CC
330
CA
100
AcDbEntity
  8
Default
  6
CENTER2
 62
     7
100
AcDbLine
 10
46.6685347542
 20
162.4103855514
 30
0.0
 11
70.4892222956
 21
162.4103855514
 31
0.0
  0
ENDBLK
  5
CE
330
CA
100
AcDbEntity
  8
0
100
AcDbBlockEnd
  0
BLOCK
  5
D2
330
CF
100
AcDbEntity
  8
0
100
AcDbBlockBegin
  2
SEANNOT_GROUP12
 70
     0
 10
0.0
 20
0.0
 30
0.0
  3
SEANNOT_GROUP12
  1
SEANNOT_GROUP12
  0
LINE
  5
D1
330
CF
100
AcDbEntity
  8
Default
  6
CENTER2
 62
     7
100
AcDbLine
 10
61.3451840061
 20
133.4103855514
 30
0.0
 11
47.9981944535
 21
133.4103855514
 31
0.0
  0
ENDBLK
  5
D3
330
CF
100
AcDbEntity
  8
0
100
AcDbBlockEnd
  0
BLOCK
  5
D7
330
D4
100
AcDbEntity
  8
0
100
AcDbBlockBegin
  2
SEANNOT_GROUP13
 70
     0
 10
0.0
 20
0.0
 30
0.0
  3
SEANNOT_GROUP13
  1
SEANNOT_GROUP13
  0
LINE
  5
D6
330
D4
100
AcDbEntity
  8
Default
  6
CENTER2
 62
     7
100
AcDbLine
 10
66.1669883968
 20
106.4103855514
 30
0.0
 11
23.2376042272
 21
106.4103855514
 31
0.0
  0
ENDBLK
  5
D8
330
D4
100
AcDbEntity
  8
0
100
AcDbBlockEnd
  0
BLOCK
  5
DC
330
D9
100
AcDbEntity
  8
0
100
AcDbBlockBegin
  2
SEANNOT_GROUP14
 70
     0
 10
0.0
 20
0.0
 30
0.0
  3
SEANNOT_GROUP14
  1
SEANNOT_GROUP14
  0
LINE
  5
DB
330
D9
100
AcDbEntity
  8
Default
  6
CENTER2
 62
     7
100
AcDbLine
 10
68.857303075
 20
30.4103855514
 30
0.0
 11
46.8357447282
 21
30.4103855514
 31
0.0
  0
ENDBLK
  5
DD
330
D9
100
AcDbEntity
  8
0
100
AcDbBlockEnd
  0
BLOCK
  5
FF
330
DF
100
AcDbEntity
  8
0
100
AcDbBlockBegin
  2
SE
 70
     0
 10
0.0
 20
0.0
 30
0.0
  3
SE
  1
SE
  0
LINE
  5
E2
330
DF
100
AcDbEntity
  8
MEGA_000568
  6
Continuous
 62
     7
100
AcDbLine
 10
129.8323537727
 20
22.4103855514
 30
0.0
 11
176.194198048
 21
22.4103855514
 31
0.0
  0
ELLIPSE
  5
E3
330
DF
100
AcDbEntity
  8
MEGA_000568
  6
Continuous
 62
     7
100
AcDbEllipse
 10
130.2058092277
 20
25.6029188689
 30
0.0
 11
2.385847644525137
 21
2.385847644525138
 31
0.0
210
0.0
220
0.0
230
1.0
 40
0.8891264907
 41
2.414817599270094
 42
3.868367707909495
  0
LINE
  5
E4
330
DF
100
AcDbEntity
  8
MEGA_000568
  6
Continuous
 62
     7
100
AcDbLine
 10
127.0132759103
 20
273.5913076891
 30
0.0
 11
127.0132759103
 21
25.2294634138
 31
0.0
  0
ELLIPSE
  5
E5
330
DF
100
AcDbEntity
  8
MEGA_000568
  6
Continuous
 62
     7
100
AcDbEllipse
 10
130.2058092277
 20
273.217852234
 30
0.0
 11
2.385847644525138
 21
-2.385847644525137
 31
0.0
210
0.0
220
0.0
230
1.0
 40
0.8891264907
 41
2.414817599270123
 42
3.868367707909464
  0
LINE
  5
E6
330
DF
100
AcDbEntity
  8
MEGA_000568
  6
Continuous
 62
     7
100
AcDbLine
 10
176.194198048
 20
276.4103855514
 30
0.0
 11
129.8323537727
 21
276.4103855514
 31
0.0
  0
ELLIPSE
  5
E7
330
DF
100
AcDbEntity
  8
MEGA_000568
  6
Continuous
 62
     7
100
AcDbEllipse
 10
175.8207425929
 20
273.217852234
 30
0.0
 11
-2.385847644525138
 21
-2.385847644525138
 31
0.0
210
0.0
220
0.0
230
1.0
 40
0.8891264907
 41
2.414817599270123
 42
3.868367707909464
  0
LINE
  5
E8
330
DF
100
AcDbEntity
  8
MEGA_000568
  6
Continuous
 62
     7
100
AcDbLine
 10
179.0132759103
 20
25.2294634138
 30
0.0
 11
179.0132759103
 21
273.5913076891
 31
0.0
  0
ELLIPSE
  5
E9
330
DF
100
AcDbEntity
  8
MEGA_000568
  6
Continuous
 62
     7
100
AcDbEllipse
 10
175.8207425929
 20
25.6029188689
 30
0.0
 11
-2.385847644525138
 21
2.385847644525138
 31
0.0
210
0.0
220
0.0
230
1.0
 40
0.8891264907
 41
2.414817599270092
 42
3.868367707909492
  0
LINE
  5
EA
330
DF
100
AcDbEntity
  8
MEGA_000568
  6
Continuous
 62
     7
100
AcDbLine
 10
132.5774246111
 20
273.665314713
 30
0.0
 11
173.4491272096
 21
273.665314713
 31
0.0
  0
ELLIPSE
  5
EB
330
DF
100
AcDbEntity
  8
MEGA_000568
  6
Continuous
 62
     7
100
AcDbEllipse
 10
173.2001569062
 20
270.5972665473
 30
0.0
 11
-2.219272467267941
 21
-2.21927246726801
 31
0.0
210
0.0
220
0.0
230
1.0
 40
0.9558629573
 41
2.4148175992701
 42
3.868367707909476
  0
ELLIPSE
  5
EC
330
DF
100
AcDbEntity
  8
MEGA_000568
  6
Continuous
 62
     7
100
AcDbEllipse
 10
132.8263949145
 20
270.5972665473
 30
0.0
 11
2.219272467267851
 21
-2.219272467268107
 31
0.0
210
0.0
220
0.0
230
1.0
 40
0.9558629573
 41
2.41481759927012
 42
3.868367707909576
  0
LINE
  5
ED
330
DF
100
AcDbEntity
  8
MEGA_000568
  6
Continuous
 62
     7
100
AcDbLine
 10
176.2682050719
 20
270.8462368507
 30
0.0
 11
176.2682050719
 21
27.9745342522
 31
0.0
  0
LINE
  5
EE
330
DF
100
AcDbEntity
  8
MEGA_000568
  6
Continuous
 62
     7
100
AcDbLine
 10
129.7583467487
 20
27.9745342522
 30
0.0
 11
129.7583467487
 21
270.8462368507
 31
0.0
  0
ELLIPSE
  5
EF
330
DF
100
AcDbEntity
  8
MEGA_000568
  6
Continuous
 62
     7
100
AcDbEllipse
 10
173.2001569062
 20
28.2235045556
 30
0.0
 11
-2.219272467267934
 21
2.219272467268024
 31
0.0
210
0.0
220
0.0
230
1.0
 40
0.9558629573
 41
2.414817599270129
 42
3.868367707909518
  0
ELLIPSE
  5
F0
330
DF
100
AcDbEntity
  8
MEGA_000568
  6
Continuous
 62
     7
100
AcDbEllipse
 10
132.8263949145
 20
28.2235045556
 30
0.0
 11
2.219272467267941
 21
2.219272467267996
 31
0.0
210
0.0
220
0.0
230
1.0
 40
0.9558629573
 41
2.414817599270093
 42
3.868367707909482
  0
LINE
  5
F1
330
DF
100
AcDbEntity
  8
MEGA_000568
  6
Continuous
 62
     7
100
AcDbLine
 10
173.4491272096
 20
25.1554563898
 30
0.0
 11
132.5774246111
 21
25.1554563898
 31
0.0
  0
CIRCLE
  5
F2
330
DF
100
AcDbEntity
  8
MEGA_000568
  6
Continuous
 62
     7
100
AcDbCircle
 10
153.0132759103
 20
106.4103855514
 30
0.0
 40
15.025
  0
CIRCLE
  5
F5
330
DF
100
AcDbEntity
  8
MEGA_000572
  6
HIDDEN2
 62
     7
100
AcDbCircle
 10
135.0132759103
 20
30.4103855514
 30
0.0
 40
3.749999999999999
  0
CIRCLE
  5
F6
330
DF
100
AcDbEntity
  8
MEGA_000572
  6
HIDDEN2
 62
     7
100
AcDbCircle
 10
171.0132759103
 20
30.4103855514
 30
0.0
 40
3.749999999999999
  0
CIRCLE
  5
F7
330
DF
100
AcDbEntity
  8
MEGA_000572
  6
HIDDEN2
 62
     7
100
AcDbCircle
 10
135.0132759103
 20
268.4103855514
 30
0.0
 40
3.749999999999999
  0
CIRCLE
  5
F8
330
DF
100
AcDbEntity
  8
MEGA_000572
  6
HIDDEN2
 62
     7
100
AcDbCircle
 10
171.0132759103
 20
268.4103855514
 30
0.0
 40
3.749999999999999
  0
CIRCLE
  5
F9
330
DF
100
AcDbEntity
  8
MEGA_000572
  6
HIDDEN2
 62
     7
100
AcDbCircle
 10
153.0132759103
 20
162.4103855514
 30
0.0
 40
3.749999999999999
  0
CIRCLE
  5
FB
330
DF
100
AcDbEntity
  8
MEGA_001997
  6
Continuous
 62
     7
100
AcDbCircle
 10
153.0132759103
 20
106.4103855514
 30
0.0
 40
11.1
  0
CIRCLE
  5
FD
330
DF
100
AcDbEntity
  8
MEGA_000863
  6
Continuous
 62
     7
100
AcDbCircle
 10
153.0132759103
 20
184.4103855514
 30
0.0
 40
12.25
  0
CIRCLE
  5
FE
330
DF
100
AcDbEntity
  8
MEGA_000863
  6
Continuous
 62
     7
100
AcDbCircle
 10
153.0132759103
 20
184.4103855514
 30
0.0
 40
8.200000000000003
  0
ENDBLK
  5
100
330
DF
100
AcDbEntity
  8
0
100
AcDbBlockEnd
  0
BLOCK
  5
11D
330
101
100
AcDbEntity
  8
0
100
AcDbBlockBegin
  2
SE1
 70
     0
 10
0.0
 20
0.0
 30
0.0
  3
SE1
  1
SE1
  0
INSERT
  5
104
330
101
100
AcDbEntity
  8
0
100
AcDbBlockReference
  2
SE2
 10
0.0
 20
0.0
 30
0.0
  0
INSERT
  5
10A
330
101
100
AcDbEntity
  8
0
100
AcDbBlockReference
  2
SE3
 10
0.0
 20
0.0
 30
0.0
  0
INSERT
  5
10F
330
101
100
AcDbEntity
  8
0
100
AcDbBlockReference
  2
SEANNOT_GROUP15
 10
0.0
 20
0.0
 30
0.0
  0
INSERT
  5
115
330
101
100
AcDbEntity
  8
0
100
AcDbBlockReference
  2
SEANNOT_GROUP16
 10
0.0
 20
0.0
 30
0.0
  0
LINE
  5
11A
330
101
100
AcDbEntity
  8
0
  6
CENTER2
 62
     7
100
AcDbLine
 10
153.0132759103
 20
302.1822993889
 30
0.0
 11
153.0132759103
 21
306.6822993889
 31
0.0
  0
LINE
  5
11B
330
101
100
AcDbEntity
  8
0
  6
CENTER2
 62
     7
100
AcDbLine
 10
153.0132759103
 20
-11.7040218745
 30
0.0
 11
153.0132759103
 21
-16.2040218745
 31
0.0
  0
LWPOLYLINE
  5
11C
330
101
100
AcDbEntity
  8
0
  6
CENTER2
 62
     7
100
AcDbPolyline
 90
        2
 70
     0
 43
0.0001
 10
153.0132759103
 20
302.1822993889
 10
153.0132759103
 20
-11.7040218745
  0
ENDBLK
  5
11E
330
101
100
AcDbEntity
  8
0
100
AcDbBlockEnd
  0
BLOCK
  5
107
330
103
100
AcDbEntity
  8
0
100
AcDbBlockBegin
  2
SE2
 70
     0
 10
0.0
 20
0.0
 30
0.0
  3
SE2
  1
SE2
  0
TEXT
  5
106
330
103
100
AcDbEntity
  8
0
  6
Continuous
 62
     7
100
AcDbText
 10
175.376912274
 20
299.1822993889
 30
0.0
 40
6.0
  1
A
  7
SEACAD_Solid_Edge_ISO
 11
175.376912274
 21
305.1822993889
 31
0.0
100
AcDbText
 73
     3
  0
ENDBLK
  5
108
330
103
100
AcDbEntity
  8
0
100
AcDbBlockEnd
  0
BLOCK
  5
10C
330
109
100
AcDbEntity
  8
0
100
AcDbBlockBegin
  2
SE3
 70
     0
 10
0.0
 20
0.0
 30
0.0
  3
SE3
  1
SE3
  0
TEXT
  5
10B
330
109
100
AcDbEntity
  8
0
  6
Continuous
 62
     7
100
AcDbText
 10
175.376912274
 20
-14.7040218745
 30
0.0
 40
6.0
  1
A
  7
SEACAD_Solid_Edge_ISO
 11
175.376912274
 21
-8.7040218745
 31
0.0
100
AcDbText
 73
     3
  0
ENDBLK
  5
10D
330
109
100
AcDbEntity
  8
0
100
AcDbBlockEnd
  0
BLOCK
  5
112
330
10E
100
AcDbEntity
  8
0
100
AcDbBlockBegin
  2
SEANNOT_GROUP15
 70
     0
 10
0.0
 20
0.0
 30
0.0
  3
SEANNOT_GROUP15
  1
SEANNOT_GROUP15
  0
LWPOLYLINE
  5
110
330
10E
100
AcDbEntity
  8
0
  6
Continuous
 62
     7
100
AcDbPolyline
 90
        2
 70
     0
 43
0.0
 10
171.0132759103
 20
302.1822993889
 10
153.0132759103
 20
302.1822993889
  0
HATCH
  5
111
330
10E
100
AcDbEntity
  8
0
  6
Continuous
 62
     7
100
AcDbHatch
 10
0.0
 20
0.0
 30
0.0
210
0.0
220
0.0
230
1.0
  2
SOLID
 70
     1
 71
     0
 91
        1
 92
        1
 93
        3
 72
     1
 10
159.0132759624716
 20
303.1822993976301
 11
153.0132759103175
 21
302.1822993889377
 72
     1
 10
153.0132759103175
 20
302.1822993889377
 11
159.0132759624716
 21
301.1822993802454
 72
     1
 10
159.0132759624716
 20
301.1822993802454
 11
159.0132759624716
 21
303.1822993976301
 97
        0
 75
     0
 76
     1
 98
        0
  0
ENDBLK
  5
113
330
10E
100
AcDbEntity
  8
0
100
AcDbBlockEnd
  0
BLOCK
  5
118
330
114
100
AcDbEntity
  8
0
100
AcDbBlockBegin
  2
SEANNOT_GROUP16
 70
     0
 10
0.0
 20
0.0
 30
0.0
  3
SEANNOT_GROUP16
  1
SEANNOT_GROUP16
  0
LWPOLYLINE
  5
116
330
114
100
AcDbEntity
  8
0
  6
Continuous
 62
     7
100
AcDbPolyline
 90
        2
 70
     0
 43
0.0
 10
171.0132759103
 20
-11.7040218745
 10
153.0132759103
 20
-11.7040218745
  0
HATCH
  5
117
330
114
100
AcDbEntity
  8
0
  6
Continuous
 62
     7
100
AcDbHatch
 10
0.0
 20
0.0
 30
0.0
210
0.0
220
0.0
230
1.0
  2
SOLID
 70
     1
 71
     0
 91
        1
 92
        1
 93
        3
 72
     1
 10
159.0132759624716
 20
-10.7040218657967
 11
153.0132759103175
 21
-11.70402187448905
 72
     1
 10
153.0132759103175
 20
-11.70402187448905
 11
159.0132759624716
 21
-12.70402188318139
 72
     1
 10
159.0132759624716
 20
-12.70402188318139
 11
159.0132759624716
 21
-10.7040218657967
 97
        0
 75
     0
 76
     1
 98
        0
  0
ENDBLK
  5
119
330
114
100
AcDbEntity
  8
0
100
AcDbBlockEnd
  0
BLOCK
  5
26F
330
120
100
AcDbEntity
  8
0
100
AcDbBlockBegin
  2
SE4
 70
     0
 10
0.0
 20
0.0
 30
0.0
  3
SE4
  1
SE4
  0
LINE
  5
123
330
120
100
AcDbEntity
  8
DV2_Standard
  6
Continuous
 62
     7
100
AcDbLine
 10
56.4768095324
 20
166.9330721763
 30
0.0
 11
54.5879838727
 21
166.9330721763
 31
0.0
  0
LINE
  5
124
330
120
100
AcDbEntity
  8
DV2_Standard
  6
Continuous
 62
     7
100
AcDbLine
 10
51.9768095324
 20
162.4103855514
 30
0.0
 11
54.6946021157
 21
157.7030307127
 31
0.0
  0
HATCH
  5
125
330
120
100
AcDbEntity
  8
DV2_Standard
  6
Continuous
 62
     7
100
AcDbHatch
 10
0.0
 20
0.0
 30
0.0
210
0.0
220
0.0
230
1.0
  2
LINE
 70
     0
 71
     0
 91
        1
 92
        1
 93
       44
 72
     1
 10
50.77680953235091
 20
174.8603855514229
 11
50.77680953235091
 21
121.4353855514229
 72
     1
 10
50.77680953235091
 20
121.4353855514228
 11
54.77680953235091
 21
121.4353855514228
 72
     1
 10
54.77680953235092
 20
121.4353855514228
 11
54.77680953235091
 21
123.9103855514228
 72
     1
 10
54.77680953235091
 20
123.9103855514228
 11
55.77680953235092
 21
123.9103855514228
 72
     1
 10
55.77680953235092
 20
123.9103855514228
 11
55.77680953235091
 21
130.9103855514228
 72
     1
 10
55.77680953235091
 20
130.9103855514228
 11
56.31949752519061
 21
130.9103855514228
 72
     1
 10
56.31949752519061
 20
130.9103855514228
 11
56.07680953235091
 21
131.1530735442625
 72
     2
 10
55.36970275116436
 20
130.445966763076
 40
0.9999999999999991
 50
44.99999999999885
 51
74.66992755271326
 73
     1
 72
     1
 10
55.63408202547227
 20
131.4103855514228
 11
53.77680953235091
 21
131.4103855514228
 72
     1
 10
53.77680953235091
 20
131.4103855514228
 11
53.77680953235092
 21
131.7322002892341
 72
     1
 10
53.77680953235092
 20
131.7322002892341
 11
51.7768095323509
 21
131.750380139412
 72
     1
 10
51.7768095323509
 20
131.750380139412
 11
51.77680953235091
 21
135.0703909634337
 72
     1
 10
51.7768095323509
 20
135.0703909634337
 11
53.77680953235091
 21
135.0885708136116
 72
     1
 10
53.77680953235092
 20
135.0885708136116
 11
53.77680953235092
 21
135.4103855514228
 72
     1
 10
53.77680953235092
 20
135.4103855514228
 11
55.63408202547227
 21
135.4103855514228
 72
     2
 10
55.36970275116437
 20
136.3748043397697
 40
1.000000000000002
 50
285.3300724472863
 51
314.9999999999983
 73
     1
 72
     1
 10
56.07680953235091
 20
135.6676975585831
 11
56.31949752519059
 21
135.9103855514228
 72
     1
 10
56.31949752519059
 20
135.9103855514228
 11
55.77680953235091
 21
135.9103855514228
 72
     1
 10
55.77680953235091
 20
135.9103855514228
 11
55.77680953235091
 21
156.1103855514229
 72
     1
 10
55.77680953235091
 20
156.1103855514229
 11
58.97680953235091
 21
156.1103855514229
 72
     1
 10
58.97680953235091
 20
156.1103855514229
 11
58.97680953235091
 21
158.6603855514228
 72
     1
 10
58.97680953235091
 20
158.6603855514228
 11
56.47680953235093
 21
158.6603855514228
 72
     1
 10
56.47680953235092
 20
158.6603855514228
 11
56.47680953235091
 21
157.7030307127132
 72
     1
 10
56.47680953235091
 20
157.7030307127132
 11
54.69460211565104
 21
157.7030307127132
 72
     1
 10
54.69460211565104
 20
157.7030307127132
 11
51.97680953235092
 21
162.4103855514228
 72
     1
 10
51.97680953235092
 20
162.4103855514228
 11
54.58798387266189
 21
166.9330721762616
 72
     1
 10
54.58798387266189
 20
166.9330721762616
 11
56.47680953235091
 21
166.9330721762616
 72
     1
 10
56.47680953235091
 20
166.9330721762616
 11
56.47680953235091
 21
166.1603855514228
 72
     1
 10
56.47680953235091
 20
166.1603855514228
 11
58.97680953235091
 21
166.1603855514228
 72
     1
 10
58.97680953235091
 20
166.1603855514228
 11
58.97680953235091
 21
168.0267220574333
 72
     2
 10
58.47680953235091
 20
168.0267220574333
 40
0.5
 50
0.0
 51
75.00000000000004
 73
     1
 72
     1
 10
58.60621905490218
 20
168.5096849705779
 11
55.14612597200617
 21
169.4368141178764
 72
     2
 10
55.27553549455744
 20
169.9197770310209
 40
0.4999999999999998
 50
105.0
 51
147.6105769154435
 73
     0
 72
     2
 10
54.43110866874485
 20
169.384106109794
 40
0.5000000000000001
 50
32.38942308455241
 51
89.99999999973619
 73
     1
 72
     1
 10
54.43110866874715
 20
169.884106109794
 11
53.47680953235092
 21
169.884106109794
 72
     1
 10
53.47680953235091
 20
169.884106109794
 11
53.47680953235091
 21
171.6305658022258
 72
     2
 10
54.97680953235091
 20
171.6305658022258
 40
1.5
 50
180.0
 51
266.9999999999838
 73
     0
 72
     1
 10
54.89830559798607
 20
173.1285101043577
 11
58.97680953235091
 21
173.3422554383549
 72
     1
 10
58.97680953235091
 20
173.3422554383549
 11
58.97680953235091
 21
175.3143758541674
 72
     1
 10
58.97680953235085
 20
175.3143758541676
 11
58.02634407867485
 21
175.3186320245004
 72
     2
 10
58.02680953235092
 20
175.4103855514228
 40
0.2500000000000002
 50
90.290651524067
 51
180.0
 73
     0
 72
     1
 10
57.77680953235092
 20
175.4103855514228
 11
51.2768095323509
 21
175.4103855514228
 72
     1
 10
51.2768095323509
 20
175.4103855514228
 11
51.2768095323509
 21
175.3603855514229
 72
     1
 10
51.2768095323509
 20
175.3603855514229
 11
50.77680953235091
 21
174.8603855514229
 97
        0
 75
     0
 76
     1
 52
45.0
 41
1.0
 77
     0
 78
     1
 53
45.0
 43
0.0
 44
0.0
 45
-2.245064030267288
 46
2.245064030267288
 79
     0
 98
        0
  0
LINE
  5
126
330
120
100
AcDbEntity
  8
DV2_Standard
  6
Continuous
 62
     7
100
AcDbLine
 10
56.4768095324
 20
158.6603855514
 30
0.0
 11
58.9768095324
 21
158.6603855514
 31
0.0
  0
LINE
  5
127
330
120
100
AcDbEntity
  8
DV2_Standard
  6
Continuous
 62
     7
100
AcDbLine
 10
56.4768095324
 20
157.7030307127
 30
0.0
 11
56.4768095324
 21
158.6603855514
 31
0.0
  0
LINE
  5
128
330
120
100
AcDbEntity
  8
DV2_Standard
  6
Continuous
 62
     7
100
AcDbLine
 10
54.6946021157
 20
157.7030307127
 30
0.0
 11
56.4768095324
 21
157.7030307127
 31
0.0
  0
LINE
  5
129
330
120
100
AcDbEntity
  8
DV2_Standard
  6
Continuous
 62
     7
100
AcDbLine
 10
54.5879838727
 20
166.9330721763
 30
0.0
 11
51.9768095324
 21
162.4103855514
 31
0.0
  0
LINE
  5
12A
330
120
100
AcDbEntity
  8
DV2_Standard
  6
Continuous
 62
     7
100
AcDbLine
 10
56.4768095324
 20
166.1603855514
 30
0.0
 11
56.4768095324
 21
166.9330721763
 31
0.0
  0
LINE
  5
12B
330
120
100
AcDbEntity
  8
DV2_Standard
  6
Continuous
 62
     7
100
AcDbLine
 10
58.9768095324
 20
166.1603855514
 30
0.0
 11
56.4768095324
 21
166.1603855514
 31
0.0
  0
HATCH
  5
12C
330
120
100
AcDbEntity
  8
DV2_Standard
  6
Continuous
 62
     7
100
AcDbHatch
 10
0.0
 20
0.0
 30
0.0
210
0.0
220
0.0
230
1.0
  2
LINE
 70
     0
 71
     0
 91
        1
 92
        1
 93
        5
 72
     1
 10
58.97680953235091
 20
173.3422554383549
 11
59.32914548859385
 21
173.3607205833831
 72
     2
 10
59.27680953235091
 20
174.3593501181377
 40
0.9999999999999991
 50
273.0000000000003
 51
360.0
 73
     1
 72
     1
 10
60.27680953235092
 20
174.3593501181377
 11
60.27680953232468
 21
175.3103855514229
 72
     1
 10
60.2768095323245
 20
175.310385551423
 11
58.97680953235085
 21
175.3143758541676
 72
     1
 10
58.97680953235085
 20
175.3143758541674
 11
58.97680953235091
 21
173.3422554383549
 97
        0
 75
     0
 76
     1
 52
45.0
 41
1.0
 77
     0
 78
     1
 53
45.0
 43
0.0
 44
0.0
 45
-2.245064030267288
 46
2.245064030267288
 79
     0
 98
        0
  0
HATCH
  5
12D
330
120
100
AcDbEntity
  8
DV2_Standard
  6
Continuous
 62
     7
100
AcDbHatch
 10
0.0
 20
0.0
 30
0.0
210
0.0
220
0.0
230
1.0
  2
LINE
 70
     0
 71
     0
 91
        1
 92
        1
 93
       36
 72
     1
 10
55.77680953235092
 20
74.43486018419064
 11
55.77680953235092
 21
76.41038555142285
 72
     1
 10
55.77680953235092
 20
76.41038555142285
 11
55.77680953235092
 21
76.91038555142285
 72
     1
 10
55.77680953235092
 20
76.91038555142285
 11
56.31949752519063
 21
76.91038555142285
 72
     1
 10
56.31949752519063
 20
76.91038555142285
 11
56.07680953235091
 21
77.15307354426257
 72
     2
 10
55.36970275116437
 20
76.44596676307603
 40
0.9999999999999991
 50
44.99999999999972
 51
74.66992755271326
 73
     1
 72
     1
 10
55.63408202547227
 20
77.41038555142288
 11
53.77680953235092
 21
77.41038555142288
 72
     1
 10
53.77680953235092
 20
77.41038555142288
 11
53.77680953235092
 21
77.7322002892341
 72
     1
 10
53.77680953235092
 20
77.7322002892341
 11
51.77680953235092
 21
77.75038013941196
 72
     1
 10
51.77680953235092
 20
77.75038013941196
 11
51.7768095323509
 21
81.07039096343372
 72
     1
 10
51.7768095323509
 20
81.07039096343372
 11
53.77680953235091
 21
81.08857081361158
 72
     1
 10
53.77680953235092
 20
81.0885708136116
 11
53.77680953235092
 21
81.41038555142289
 72
     1
 10
53.77680953235092
 20
81.41038555142288
 11
55.63408202547227
 21
81.41038555142288
 72
     2
 10
55.36970275116437
 20
82.37480433976974
 40
0.999999999999995
 50
285.3300724472865
 51
314.9999999999997
 73
     1
 72
     1
 10
56.07680953235091
 20
81.66769755858319
 11
56.31949752519058
 21
81.91038555142285
 72
     1
 10
56.31949752519058
 20
81.91038555142285
 11
55.77680953235092
 21
81.91038555142285
 72
     1
 10
55.77680953235092
 20
81.91038555142285
 11
55.77680953235092
 21
88.91038555142282
 72
     1
 10
55.77680953235092
 20
88.91038555142283
 11
54.77680953235092
 21
88.91038555142283
 72
     1
 10
54.77680953235092
 20
88.91038555142283
 11
54.77680953235092
 21
91.38538555142284
 72
     1
 10
54.77680953235092
 20
91.38538555142284
 11
50.77680953235092
 21
91.38538555142284
 72
     1
 10
50.77680953235092
 20
91.38538555142284
 11
50.77680953235092
 21
26.09514901061539
 72
     2
 10
51.77680953235092
 20
26.09514901061538
 40
1.0
 50
180.0000000000014
 51
249.9999999999999
 73
     1
 72
     1
 10
51.43478938902525
 20
25.15545638982947
 11
58.97680953235091
 21
22.4103855514228
 72
     1
 10
58.97680953235092
 20
22.4103855514228
 11
58.97680953235092
 21
25.36007424410824
 72
     2
 10
57.47680953235092
 20
25.36007424410824
 40
1.5
 50
0.0
 51
70.00000000000026
 73
     1
 72
     1
 10
57.98983974733942
 20
26.76961317528711
 11
55.76377931736242
 21
27.57983291147656
 72
     2
 10
56.27680953235092
 20
28.98937184265543
 40
1.5
 50
110.0000000000001
 51
180.0
 73
     0
 72
     1
 10
54.77680953235092
 20
28.98937184265543
 11
54.77680953235092
 21
37.16159719224299
 72
     2
 10
54.27680953235092
 20
37.16159719224299
 40
0.5000000000000004
 50
0.0
 51
69.51268488527838
 73
     1
 72
     2
 10
54.97680953235091
 20
39.03509659176252
 40
1.5
 50
110.487315114722
 51
180.0
 73
     0
 72
     1
 10
53.47680953235091
 20
39.03509659176252
 11
53.47680953235092
 21
50.49869591529382
 72
     2
 10
54.97680953235091
 20
50.49869591529382
 40
1.499999999999988
 50
180.0
 51
267.0000000000001
 73
     0
 72
     1
 10
54.8983055979865
 20
51.99664021742567
 11
57.55531346671533
 21
52.13588809936331
 72
     2
 10
57.47680953235092
 20
53.63383240149516
 40
1.499999999999988
 50
272.9999999999999
 51
360.0
 73
     1
 72
     1
 10
58.97680953235091
 20
53.63383240149516
 11
58.97680953235092
 21
54.71038555142285
 72
     1
 10
58.97680953235092
 20
54.71038555142285
 11
55.77680953235092
 21
54.71038555142285
 72
     1
 10
55.77680953235092
 20
54.71038555142285
 11
55.77680953235092
 21
74.43486018419064
 97
        0
 75
     0
 76
     1
 52
45.0
 41
1.0
 77
     0
 78
     1
 53
45.0
 43
0.0
 44
0.0
 45
-2.245064030267288
 46
2.245064030267288
 79
     0
 98
        0
  0
LINE
  5
12E
330
120
100
AcDbEntity
  8
DV2_Standard
  6
Continuous
 62
     7
100
AcDbLine
 10
51.7768095324
 20
81.0703909634
 30
0.0
 11
53.7768095324
 21
81.0885708136
 31
0.0
  0
LINE
  5
12F
330
120
100
AcDbEntity
  8
DV2_Standard
  6
Continuous
 62
     7
100
AcDbLine
 10
51.7768095324
 20
77.7503801394
 30
0.0
 11
53.7768095324
 21
77.7322002892
 31
0.0
  0
LINE
  5
130
330
120
100
AcDbEntity
  8
DV2_Standard
  6
Continuous
 62
     7
100
AcDbLine
 10
55.7768095324
 20
81.9103855514
 30
0.0
 11
56.3194975252
 21
81.9103855514
 31
0.0
  0
LINE
  5
131
330
120
100
AcDbEntity
  8
DV2_Standard
  6
Continuous
 62
     7
100
AcDbLine
 10
55.7768095324
 20
76.9103855514
 30
0.0
 11
56.3194975252
 21
76.9103855514
 31
0.0
  0
HATCH
  5
132
330
120
100
AcDbEntity
  8
DV2_Standard
  6
Continuous
 62
     7
100
AcDbHatch
 10
0.0
 20
0.0
 30
0.0
210
0.0
220
0.0
230
1.0
  2
LINE
 70
     0
 71
     0
 91
        1
 92
        1
 93
        9
 72
     1
 10
55.77680953235092
 20
88.91038555142285
 11
55.77680953235092
 21
82.41038555142286
 72
     1
 10
55.77680953235092
 20
82.41038555142285
 11
56.81949752519058
 21
82.41038555142285
 72
     1
 10
56.81949752519058
 20
82.41038555142285
 11
58.0194975251906
 21
83.61038555142288
 72
     1
 10
58.0194975251906
 20
83.6103855514229
 11
58.77680953235092
 21
83.6103855514229
 72
     1
 10
58.77680953235092
 20
83.6103855514229
 11
58.77680953235092
 21
93.41038555142285
 72
     1
 10
58.77680953235092
 20
93.41038555142283
 11
57.07680953235091
 21
93.41038555142283
 72
     1
 10
57.07680953235092
 20
93.41038555142283
 11
57.07680953235092
 21
89.34038555142284
 72
     1
 10
57.07680953235092
 20
89.34038555142284
 11
55.77680953235092
 21
89.34038555142284
 72
     1
 10
55.77680953235092
 20
89.34038555142284
 11
55.77680953235092
 21
88.91038555142283
 97
        0
 75
     0
 76
     1
 52
-45.0
 41
1.0
 77
     0
 78
     1
 53
-45.0
 43
0.0
 44
0.0
 45
2.245064030267288
 46
2.245064030267288
 79
     0
 98
        0
  0
LINE
  5
133
330
120
100
AcDbEntity
  8
DV2_Standard
  6
Continuous
 62
     7
100
AcDbLine
 10
55.7768095324
 20
82.4103855514
 30
0.0
 11
56.8194975252
 21
82.4103855514
 31
0.0
  0
HATCH
  5
134
330
120
100
AcDbEntity
  8
DV2_Standard
  6
Continuous
 62
     7
100
AcDbHatch
 10
0.0
 20
0.0
 30
0.0
210
0.0
220
0.0
230
1.0
  2
LINE
 70
     0
 71
     0
 91
        1
 92
        1
 93
       10
 72
     1
 10
55.77680953235092
 20
74.43486018419063
 11
55.77680953235092
 21
66.59038555142286
 72
     1
 10
55.77680953235092
 20
66.59038555142286
 11
58.77680953235092
 21
66.59038555142283
 72
     1
 10
58.77680953235092
 20
66.59038555142283
 11
58.77680953235092
 21
75.21038555142287
 72
     1
 10
58.77680953235092
 20
75.21038555142287
 11
58.0194975251906
 21
75.21038555142287
 72
     1
 10
58.0194975251906
 20
75.21038555142287
 11
56.81949752519064
 21
76.41038555142283
 72
     1
 10
56.81949752519064
 20
76.41038555142283
 11
55.77680953235092
 21
76.41038555142285
 72
     1
 10
55.77680953235092
 20
76.41038555142285
 11
55.77680953235092
 21
74.91904373875269
 72
     1
 10
55.77680953235092
 20
74.91904373875269
 11
56.27680953235092
 21
74.91904373875269
 72
     1
 10
56.27680953235092
 20
74.91904373875269
 11
56.27680953235092
 21
74.43486019464947
 72
     1
 10
56.27680953235092
 20
74.43486019464947
 11
55.77680953235092
 21
74.43486018419063
 97
        0
 75
     0
 76
     1
 52
-45.0
 41
1.0
 77
     0
 78
     1
 53
-45.0
 43
0.0
 44
0.0
 45
2.245064030267288
 46
2.245064030267288
 79
     0
 98
        0
  0
LINE
  5
135
330
120
100
AcDbEntity
  8
DV2_Standard
  6
Continuous
 62
     7
100
AcDbLine
 10
55.7768095324
 20
76.4103855514
 30
0.0
 11
56.8194975252
 21
76.4103855514
 31
0.0
  0
LINE
  5
136
330
120
100
AcDbEntity
  8
DV2_Standard
  6
Continuous
 62
     7
100
AcDbLine
 10
51.7768095324
 20
135.0703909634
 30
0.0
 11
53.7768095324
 21
135.0885708136
 31
0.0
  0
LINE
  5
137
330
120
100
AcDbEntity
  8
DV2_Standard
  6
Continuous
 62
     7
100
AcDbLine
 10
51.7768095324
 20
131.7503801394
 30
0.0
 11
53.7768095324
 21
131.7322002892
 31
0.0
  0
LINE
  5
138
330
120
100
AcDbEntity
  8
DV2_Standard
  6
Continuous
 62
     7
100
AcDbLine
 10
55.7768095324
 20
130.9103855514
 30
0.0
 11
56.3194975252
 21
130.9103855514
 31
0.0
  0
LINE
  5
139
330
120
100
AcDbEntity
  8
DV2_Standard
  6
Continuous
 62
     7
100
AcDbLine
 10
55.7768095324
 20
135.9103855514
 30
0.0
 11
56.255318463
 21
135.9103855514
 31
0.0
  0
HATCH
  5
13A
330
120
100
AcDbEntity
  8
DV2_Standard
  6
Continuous
 62
     7
100
AcDbHatch
 10
0.0
 20
0.0
 30
0.0
210
0.0
220
0.0
230
1.0
  2
LINE
 70
     0
 71
     0
 91
        1
 92
        1
 93
        6
 72
     1
 10
58.77680953235092
 20
155.1603855514228
 11
55.77680953235091
 21
155.1603855514228
 72
     1
 10
55.77680953235091
 20
155.1603855514228
 11
55.77680953235091
 21
136.4103855514228
 72
     1
 10
55.77680953235091
 20
136.4103855514228
 11
56.81949752519058
 21
136.4103855514228
 72
     1
 10
56.81949752519058
 20
136.4103855514228
 11
58.0194975251906
 21
137.6103855514229
 72
     1
 10
58.0194975251906
 20
137.6103855514229
 11
58.77680953235092
 21
137.6103855514229
 72
     1
 10
58.77680953235092
 20
137.6103855514229
 11
58.77680953235092
 21
155.1603855514228
 97
        0
 75
     0
 76
     1
 52
-45.0
 41
1.0
 77
     0
 78
     1
 53
-45.0
 43
0.0
 44
0.0
 45
2.245064030267288
 46
2.245064030267288
 79
     0
 98
        0
  0
LINE
  5
13B
330
120
100
AcDbEntity
  8
DV2_Standard
  6
Continuous
 62
     7
100
AcDbLine
 10
55.7768095324
 20
136.4103855514
 30
0.0
 11
56.8194975252
 21
136.4103855514
 31
0.0
  0
HATCH
  5
13C
330
120
100
AcDbEntity
  8
DV2_Standard
  6
Continuous
 62
     7
100
AcDbHatch
 10
0.0
 20
0.0
 30
0.0
210
0.0
220
0.0
230
1.0
  2
LINE
 70
     0
 71
     0
 91
        1
 92
        1
 93
        9
 72
     1
 10
58.77680953235091
 20
129.2103855514228
 11
58.0194975251906
 21
129.2103855514228
 72
     1
 10
58.0194975251906
 20
129.2103855514228
 11
56.81949752519061
 21
130.4103855514228
 72
     1
 10
56.81949752519062
 20
130.4103855514228
 11
55.77680953235091
 21
130.4103855514228
 72
     1
 10
55.77680953235091
 20
130.4103855514228
 11
55.77680953235091
 21
123.9103855514228
 72
     1
 10
55.77680953235091
 20
123.9103855514228
 11
55.77680953235092
 21
123.4803855514228
 72
     1
 10
55.77680953235092
 20
123.4803855514228
 11
57.07680953235093
 21
123.4803855514229
 72
     1
 10
57.07680953235093
 20
123.4803855514229
 11
57.07680953235092
 21
119.4103855514228
 72
     1
 10
57.07680953235092
 20
119.4103855514228
 11
58.77680953235092
 21
119.4103855514228
 72
     1
 10
58.77680953235092
 20
119.4103855514228
 11
58.77680953235092
 21
129.2103855514228
 97
        0
 75
     0
 76
     1
 52
-45.0
 41
1.0
 77
     0
 78
     1
 53
-45.0
 43
0.0
 44
0.0
 45
2.245064030267288
 46
2.245064030267288
 79
     0
 98
        0
  0
LINE
  5
13D
330
120
100
AcDbEntity
  8
DV2_Standard
  6
Continuous
 62
     7
100
AcDbLine
 10
55.7768095324
 20
130.4103855514
 30
0.0
 11
56.8194975252
 21
130.4103855514
 31
0.0
  0
LINE
  5
13E
330
120
100
AcDbEntity
  8
MEGA_000568
  6
Continuous
 62
     7
100
AcDbLine
 10
54.7768095324
 20
123.9103855514
 30
0.0
 11
55.7768095324
 21
123.9103855514
 31
0.0
  0
LINE
  5
13F
330
120
100
AcDbEntity
  8
MEGA_000568
  6
Continuous
 62
     7
100
AcDbLine
 10
55.7768095324
 20
88.9103855514
 30
0.0
 11
54.7768095324
 21
88.9103855514
 31
0.0
  0
LINE
  5
140
330
120
100
AcDbEntity
  8
MEGA_000568
  6
Continuous
 62
     7
100
AcDbLine
 10
58.9768095324
 20
59.7103855514
 30
0.0
 11
58.9768095324
 21
54.7103855514
 31
0.0
  0
LINE
  5
141
330
120
100
AcDbEntity
  8
MEGA_000568
  6
Continuous
 62
     7
100
AcDbLine
 10
55.8885809647
 20
261.5828972007
 30
0.0
 11
54.5885809647
 21
261.2345632505
 31
0.0
  0
ARC
  5
142
330
120
100
AcDbEntity
  8
MEGA_000568
  6
Continuous
 62
     7
100
AcDbCircle
 10
54.935174495
 20
259.9157919363
 30
0.0
 40
1.363555959381332
100
AcDbArc
 50
104.7252136103
 51
110.7621015045
  0
LINE
  5
143
330
120
100
AcDbEntity
  8
MEGA_000568
  6
Continuous
 62
     7
100
AcDbLine
 10
54.5885809647
 20
37.5862078523
 30
0.0
 11
55.8885809647
 21
37.2378739022
 31
0.0
  0
ARC
  5
144
330
120
100
AcDbEntity
  8
MEGA_000568
  6
Continuous
 62
     7
100
AcDbCircle
 10
54.935174495
 20
38.9049791665
 30
0.0
 40
1.363555959391995
100
AcDbArc
 50
249.2530810554
 51
255.2747863897
  0
LINE
  5
145
330
120
100
AcDbEntity
  8
MEGA_000568
  6
Continuous
 62
     7
100
AcDbLine
 10
58.9768095324
 20
30.4103855514
 30
0.0
 11
58.9768095324
 21
29.2399756201
 31
0.0
  0
LINE
  5
146
330
120
100
AcDbEntity
  8
MEGA_000568
  6
Continuous
 62
     7
100
AcDbLine
 10
58.9768095324
 20
35.2593950695
 30
0.0
 11
58.9768095324
 21
30.4103855514
 31
0.0
  0
LINE
  5
147
330
120
100
AcDbEntity
  8
MEGA_000568
  6
Continuous
 62
     7
100
AcDbLine
 10
58.9768095324
 20
29.2399756201
 30
0.0
 11
58.9768095324
 21
25.3600742441
 31
0.0
  0
LINE
  5
148
330
120
100
AcDbEntity
  8
MEGA_000568
  6
Continuous
 62
     7
100
AcDbLine
 10
58.9768095324
 20
39.0339237063
 30
0.0
 11
58.9768095324
 21
35.2593950695
 31
0.0
  0
LINE
  5
149
330
120
100
AcDbEntity
  8
MEGA_000568
  6
Continuous
 62
     7
100
AcDbLine
 10
58.9768095324
 20
49.7000410822
 30
0.0
 11
58.9768095324
 21
39.0339237063
 31
0.0
  0
LINE
  5
14A
330
120
100
AcDbEntity
  8
MEGA_000568
  6
Continuous
 62
     7
100
AcDbLine
 10
58.9768095324
 20
53.6338324015
 30
0.0
 11
58.9768095324
 21
49.7000410822
 31
0.0
  0
LINE
  5
14B
330
120
100
AcDbEntity
  8
MEGA_000568
  6
Continuous
 62
     7
100
AcDbLine
 10
58.9768095324
 20
272.7604893205
 30
0.0
 11
58.9768095324
 21
269.8505632885
 31
0.0
  0
LINE
  5
14C
330
120
100
AcDbEntity
  8
MEGA_000568
  6
Continuous
 62
     7
100
AcDbLine
 10
58.9768095324
 20
269.8505632885
 30
0.0
 11
58.9768095324
 21
268.4103855514
 31
0.0
  0
LINE
  5
14D
330
120
100
AcDbEntity
  8
MEGA_000568
  6
Continuous
 62
     7
100
AcDbLine
 10
58.9768095324
 20
268.4103855514
 30
0.0
 11
58.9768095324
 21
262.7940490454
 31
0.0
  0
LINE
  5
14E
330
120
100
AcDbEntity
  8
MEGA_000568
  6
Continuous
 62
     7
100
AcDbLine
 10
58.9768095324
 20
262.7940490454
 30
0.0
 11
58.9768095324
 21
259.9631525678
 31
0.0
  0
LINE
  5
14F
330
120
100
AcDbEntity
  8
MEGA_000568
  6
Continuous
 62
     7
100
AcDbLine
 10
58.9768095324
 20
259.9631525678
 30
0.0
 11
58.9768095324
 21
195.4785156645
 31
0.0
  0
LINE
  5
150
330
120
100
AcDbEntity
  8
MEGA_000568
  6
Continuous
 62
     7
100
AcDbLine
 10
58.9768095324
 20
173.3422554384
 30
0.0
 11
58.9768095324
 21
168.0267220574
 31
0.0
  0
LINE
  5
151
330
120
100
AcDbEntity
  8
MEGA_000568
  6
Continuous
 62
     7
100
AcDbLine
 10
58.9768095324
 20
156.1103855514
 30
0.0
 11
58.9768095324
 21
151.1103855514
 31
0.0
  0
LINE
  5
152
330
120
100
AcDbEntity
  8
MEGA_000568
  6
Continuous
 62
     7
100
AcDbLine
 10
58.6062190549
 20
262.3110861323
 30
0.0
 11
55.8885809647
 21
261.5828972007
 31
0.0
  0
LINE
  5
153
330
120
100
AcDbEntity
  8
MEGA_000568
  6
Continuous
 62
     7
100
AcDbLine
 10
55.8885809647
 20
37.2378739022
 30
0.0
 11
57.8650381
 21
36.7082838089
 31
0.0
  0
LINE
  5
154
330
120
100
AcDbEntity
  8
MEGA_000568
  6
Continuous
 62
     7
100
AcDbLine
 10
58.9768095324
 20
151.1103855514
 30
0.0
 11
58.9768095324
 21
59.7103855514
 31
0.0
  0
LINE
  5
155
330
120
100
AcDbEntity
  8
MEGA_000568
  6
Continuous
 62
     7
100
AcDbLine
 10
50.7768095324
 20
121.4353855514
 30
0.0
 11
50.7768095324
 21
121.3103855514
 31
0.0
  0
LINE
  5
156
330
120
100
AcDbEntity
  8
MEGA_000568
  6
Continuous
 62
     7
100
AcDbLine
 10
50.7768095324
 20
91.5103855514
 30
0.0
 11
50.7768095324
 21
91.3853855514
 31
0.0
  0
LINE
  5
157
330
120
100
AcDbEntity
  8
MEGA_000568
  6
Continuous
 62
     7
100
AcDbLine
 10
51.2768095324
 20
193.4603855514
 30
0.0
 11
51.2768095324
 21
193.4103855514
 31
0.0
  0
LINE
  5
158
330
120
100
AcDbEntity
  8
MEGA_000568
  6
Continuous
 62
     7
100
AcDbLine
 10
51.2768095324
 20
175.4103855514
 30
0.0
 11
51.2768095324
 21
175.3603855514
 31
0.0
  0
LINE
  5
159
330
120
100
AcDbEntity
  8
MEGA_000568
  6
Continuous
 62
     7
100
AcDbLine
 10
60.2768095323
 20
175.3103855514
 30
0.0
 11
60.2768095323
 21
175.4103855514
 31
0.0
  0
LINE
  5
15A
330
120
100
AcDbEntity
  8
MEGA_000568
  6
Continuous
 62
     7
100
AcDbLine
 10
60.2768095324
 20
193.4103855514
 30
0.0
 11
60.2768095324
 21
193.4603855514
 31
0.0
  0
ARC
  5
15B
330
120
100
AcDbEntity
  8
MEGA_000568
  6
Continuous
 62
     7
100
AcDbCircle
 10
58.4768095324
 20
262.7940490454
 30
0.0
 40
0.4999999999999876
100
AcDbArc
 50
285.0
 51
0.0
  0
ARC
  5
15C
330
120
100
AcDbEntity
  8
MEGA_000568
  6
Continuous
 62
     7
100
AcDbCircle
 10
57.4768095324
 20
35.2593950695
 30
0.0
 40
1.5
100
AcDbArc
 50
0.0
 51
75.0
  0
LINE
  5
15D
330
120
100
AcDbEntity
  8
MEGA_000568
  6
Continuous
 62
     7
100
AcDbLine
 10
53.9768095324
 20
247.6467795495
 30
0.0
 11
53.4768095324
 21
247.6467795495
 31
0.0
  0
LINE
  5
15E
330
120
100
AcDbEntity
  8
MEGA_000568
  6
Continuous
 62
     7
100
AcDbLine
 10
53.9768095324
 20
250.4601239113
 30
0.0
 11
53.4768095324
 21
250.4601239113
 31
0.0
  0
LINE
  5
15F
330
120
100
AcDbEntity
  8
MEGA_000568
  6
Continuous
 62
     7
100
AcDbLine
 10
53.9768095324
 20
250.6972344709
 30
0.0
 11
53.9768095324
 21
250.4601239113
 31
0.0
  0
LINE
  5
160
330
120
100
AcDbEntity
  8
MEGA_000568
  6
Continuous
 62
     7
100
AcDbLine
 10
53.9768095324
 20
247.6467795495
 30
0.0
 11
53.9768095324
 21
247.6820361446
 31
0.0
  0
LINE
  5
161
330
120
100
AcDbEntity
  8
MEGA_000568
  6
Continuous
 62
     7
100
AcDbLine
 10
53.9768095324
 20
249.6985017692
 30
0.0
 11
53.9768095324
 21
250.4601239113
 31
0.0
  0
LINE
  5
162
330
120
100
AcDbEntity
  8
MEGA_000568
  6
Continuous
 62
     7
100
AcDbLine
 10
53.9768095324
 20
246.9409620695
 30
0.0
 11
53.9768095324
 21
247.6467795495
 31
0.0
  0
LINE
  5
163
330
120
100
AcDbEntity
  8
MEGA_000568
  6
Continuous
 62
     7
100
AcDbLine
 10
53.9768095324
 20
246.6972344709
 30
0.0
 11
53.9768095324
 21
246.9409620695
 31
0.0
  0
LINE
  5
164
330
120
100
AcDbEntity
  8
MEGA_000568
  6
Continuous
 62
     7
100
AcDbLine
 10
53.9768095324
 20
235.4411601082
 30
0.0
 11
53.4768095324
 21
235.4411601082
 31
0.0
  0
LINE
  5
165
330
120
100
AcDbEntity
  8
MEGA_000568
  6
Continuous
 62
     7
100
AcDbLine
 10
53.9768095324
 20
241.3122538582
 30
0.0
 11
53.4768095324
 21
241.3122538582
 31
0.0
  0
LINE
  5
166
330
120
100
AcDbEntity
  8
MEGA_000568
  6
Continuous
 62
     7
100
AcDbLine
 10
53.9768095324
 20
237.5086824297
 30
0.0
 11
53.9768095324
 21
237.769814855
 31
0.0
  0
LINE
  5
167
330
120
100
AcDbEntity
  8
MEGA_000568
  6
Continuous
 62
     7
100
AcDbLine
 10
53.9768095324
 20
238.7733635636
 30
0.0
 11
53.9768095324
 21
241.3122538582
 31
0.0
  0
LINE
  5
168
330
120
100
AcDbEntity
  8
MEGA_000568
  6
Continuous
 62
     7
100
AcDbLine
 10
53.9768095324
 20
235.4411601082
 30
0.0
 11
53.9768095324
 21
236.8474101082
 31
0.0
  0
LINE
  5
169
330
120
100
AcDbEntity
  8
MEGA_000568
  6
Continuous
 62
     7
100
AcDbLine
 10
53.9768095324
 20
235.3407136797
 30
0.0
 11
53.9768095324
 21
235.4229510813
 31
0.0
  0
LINE
  5
16A
330
120
100
AcDbEntity
  8
MEGA_000568
  6
Continuous
 62
     7
100
AcDbLine
 10
53.9768095324
 20
241.3271589791
 30
0.0
 11
53.9768095324
 21
241.3373654654
 31
0.0
  0
LINE
  5
16B
330
120
100
AcDbEntity
  8
MEGA_000568
  6
Continuous
 62
     7
100
AcDbLine
 10
53.9768095324
 20
245.6392038477
 30
0.0
 11
53.9768095324
 21
246.667892494
 31
0.0
  0
LINE
  5
16C
330
120
100
AcDbEntity
  8
MEGA_000568
  6
Continuous
 62
     7
100
AcDbLine
 10
53.9768095324
 20
250.7328614115
 30
0.0
 11
53.9768095324
 21
251.6392038477
 31
0.0
  0
LINE
  5
16D
330
120
100
AcDbEntity
  8
MEGA_000568
  6
Continuous
 62
     7
100
AcDbLine
 10
56.2768095324
 20
72.7414892999
 30
0.0
 11
55.7768095324
 21
72.7414892999
 31
0.0
  0
LINE
  5
16E
330
120
100
AcDbEntity
  8
MEGA_000568
  6
Continuous
 62
     7
100
AcDbLine
 10
56.2768095324
 20
70.4327232474
 30
0.0
 11
55.7768095324
 21
70.4327232474
 31
0.0
  0
LINE
  5
16F
330
120
100
AcDbEntity
  8
MEGA_000568
  6
Continuous
 62
     7
100
AcDbLine
 10
56.2768095324
 20
70.4327232474
 30
0.0
 11
56.2768095324
 21
70.0027958326
 31
0.0
  0
LINE
  5
170
330
120
100
AcDbEntity
  8
MEGA_000568
  6
Continuous
 62
     7
100
AcDbLine
 10
56.2768095324
 20
72.7414892999
 30
0.0
 11
56.2768095324
 21
74.4249906544
 31
0.0
  0
LINE
  5
171
330
120
100
AcDbEntity
  8
MEGA_000568
  6
Continuous
 62
     7
100
AcDbLine
 10
56.2768095324
 20
74.933410349
 30
0.0
 11
56.2768095324
 21
75.0027958326
 31
0.0
  0
LINE
  5
172
330
120
100
AcDbEntity
  8
MEGA_000568
  6
Continuous
 62
     7
100
AcDbLine
 10
56.2768095324
 20
70.4327232474
 30
0.0
 11
56.2768095324
 21
72.7414892999
 31
0.0
  0
LINE
  5
173
330
120
100
AcDbEntity
  8
MEGA_000568
  6
Continuous
 62
     7
100
AcDbLine
 10
53.9768095324
 20
210.9851456659
 30
0.0
 11
53.4768095324
 21
210.9851456659
 31
0.0
  0
LINE
  5
174
330
120
100
AcDbEntity
  8
MEGA_000568
  6
Continuous
 62
     7
100
AcDbLine
 10
53.9768095324
 20
211.2351456659
 30
0.0
 11
53.4768095324
 21
211.2351456659
 31
0.0
  0
LINE
  5
175
330
120
100
AcDbEntity
  8
MEGA_000568
  6
Continuous
 62
     7
100
AcDbLine
 10
53.9768095324
 20
211.2351456659
 30
0.0
 11
53.9768095324
 21
211.389993006
 31
0.0
  0
LINE
  5
176
330
120
100
AcDbEntity
  8
MEGA_000568
  6
Continuous
 62
     7
100
AcDbLine
 10
53.9768095324
 20
210.9851456659
 30
0.0
 11
53.9768095324
 21
211.2351456659
 31
0.0
  0
LINE
  5
177
330
120
100
AcDbEntity
  8
MEGA_000568
  6
Continuous
 62
     7
100
AcDbLine
 10
53.9768095324
 20
210.5620948655
 30
0.0
 11
53.4768095324
 21
210.5620948655
 31
0.0
  0
LINE
  5
178
330
120
100
AcDbEntity
  8
MEGA_000568
  6
Continuous
 62
     7
100
AcDbLine
 10
53.9768095324
 20
210.5620948655
 30
0.0
 11
53.9768095324
 21
210.9851456659
 31
0.0
  0
LINE
  5
179
330
120
100
AcDbEntity
  8
MEGA_000568
  6
Continuous
 62
     7
100
AcDbLine
 10
53.9768095324
 20
210.5499782392
 30
0.0
 11
53.9768095324
 21
210.5620948655
 31
0.0
  0
LINE
  5
17A
330
120
100
AcDbEntity
  8
MEGA_000568
  6
Continuous
 62
     7
100
AcDbLine
 10
53.9768095324
 20
208.0402731808
 30
0.0
 11
53.4768095324
 21
208.0402731808
 31
0.0
  0
LINE
  5
17B
330
120
100
AcDbEntity
  8
MEGA_000568
  6
Continuous
 62
     7
100
AcDbLine
 10
53.9768095324
 20
208.0402731808
 30
0.0
 11
53.9768095324
 21
208.2617641864
 31
0.0
  0
LINE
  5
17C
330
120
100
AcDbEntity
  8
MEGA_000568
  6
Continuous
 62
     7
100
AcDbLine
 10
53.9768095324
 20
207.6172223804
 30
0.0
 11
53.9768095324
 21
208.0402731808
 31
0.0
  0
LINE
  5
17D
330
120
100
AcDbEntity
  8
MEGA_000568
  6
Continuous
 62
     7
100
AcDbLine
 10
53.9768095324
 20
207.3672223804
 30
0.0
 11
53.4768095324
 21
207.3672223804
 31
0.0
  0
LINE
  5
17E
330
120
100
AcDbEntity
  8
MEGA_000568
  6
Continuous
 62
     7
100
AcDbLine
 10
53.9768095324
 20
207.6172223804
 30
0.0
 11
53.4768095324
 21
207.6172223804
 31
0.0
  0
LINE
  5
17F
330
120
100
AcDbEntity
  8
MEGA_000568
  6
Continuous
 62
     7
100
AcDbLine
 10
53.9768095324
 20
207.3672223804
 30
0.0
 11
53.9768095324
 21
207.6172223804
 31
0.0
  0
LINE
  5
180
330
120
100
AcDbEntity
  8
MEGA_000568
  6
Continuous
 62
     7
100
AcDbLine
 10
53.9768095324
 20
207.2123750404
 30
0.0
 11
53.9768095324
 21
207.3672223804
 31
0.0
  0
LINE
  5
181
330
120
100
AcDbEntity
  8
MEGA_000568
  6
Continuous
 62
     7
100
AcDbLine
 10
53.9768095324
 20
208.2751341944
 30
0.0
 11
53.4768095324
 21
208.2751341944
 31
0.0
  0
LINE
  5
182
330
120
100
AcDbEntity
  8
MEGA_000568
  6
Continuous
 62
     7
100
AcDbLine
 10
53.9768095324
 20
208.4671219107
 30
0.0
 11
53.4768095324
 21
208.4671219107
 31
0.0
  0
LINE
  5
183
330
120
100
AcDbEntity
  8
MEGA_000568
  6
Continuous
 62
     7
100
AcDbLine
 10
53.9768095324
 20
208.7669823239
 30
0.0
 11
53.4768095324
 21
208.7669823239
 31
0.0
  0
LINE
  5
184
330
120
100
AcDbEntity
  8
MEGA_000568
  6
Continuous
 62
     7
100
AcDbLine
 10
53.9768095324
 20
209.5850169414
 30
0.0
 11
53.4768095324
 21
209.5850169414
 31
0.0
  0
LINE
  5
185
330
120
100
AcDbEntity
  8
MEGA_000568
  6
Continuous
 62
     7
100
AcDbLine
 10
53.9768095324
 20
209.8559828822
 30
0.0
 11
53.4768095324
 21
209.8559828822
 31
0.0
  0
LINE
  5
186
330
120
100
AcDbEntity
  8
MEGA_000568
  6
Continuous
 62
     7
100
AcDbLine
 10
53.9768095324
 20
209.8848773546
 30
0.0
 11
53.4768095324
 21
209.8848773546
 31
0.0
  0
LINE
  5
187
330
120
100
AcDbEntity
  8
MEGA_000568
  6
Continuous
 62
     7
100
AcDbLine
 10
53.9768095324
 20
209.8848773546
 30
0.0
 11
53.9768095324
 21
210.5366082312
 31
0.0
  0
LINE
  5
188
330
120
100
AcDbEntity
  8
MEGA_000568
  6
Continuous
 62
     7
100
AcDbLine
 10
53.9768095324
 20
209.8559828822
 30
0.0
 11
53.9768095324
 21
209.8848773546
 31
0.0
  0
LINE
  5
189
330
120
100
AcDbEntity
  8
MEGA_000568
  6
Continuous
 62
     7
100
AcDbLine
 10
53.9768095324
 20
209.5850169414
 30
0.0
 11
53.9768095324
 21
209.8421528644
 31
0.0
  0
LINE
  5
18A
330
120
100
AcDbEntity
  8
MEGA_000568
  6
Continuous
 62
     7
100
AcDbLine
 10
53.9768095324
 20
209.1079370978
 30
0.0
 11
53.9768095324
 21
209.5850169414
 31
0.0
  0
LINE
  5
18B
330
120
100
AcDbEntity
  8
MEGA_000568
  6
Continuous
 62
     7
100
AcDbLine
 10
53.9768095324
 20
208.7669823239
 30
0.0
 11
53.9768095324
 21
209.1079370978
 31
0.0
  0
LINE
  5
18C
330
120
100
AcDbEntity
  8
MEGA_000568
  6
Continuous
 62
     7
100
AcDbLine
 10
53.9768095324
 20
208.4671219107
 30
0.0
 11
53.9768095324
 21
208.7669823239
 31
0.0
  0
LINE
  5
18D
330
120
100
AcDbEntity
  8
MEGA_000568
  6
Continuous
 62
     7
100
AcDbLine
 10
53.9768095324
 20
208.2751341944
 30
0.0
 11
53.9768095324
 21
208.4671219107
 31
0.0
  0
LINE
  5
18E
330
120
100
AcDbEntity
  8
MEGA_000568
  6
Continuous
 62
     7
100
AcDbLine
 10
55.7768095324
 20
123.9103855514
 30
0.0
 11
55.7768095324
 21
123.2103855514
 31
0.0
  0
LINE
  5
18F
330
120
100
AcDbEntity
  8
MEGA_000568
  6
Continuous
 62
     7
100
AcDbLine
 10
55.7768095324
 20
89.6103855514
 30
0.0
 11
55.7768095324
 21
88.9103855514
 31
0.0
  0
LINE
  5
190
330
120
100
AcDbEntity
  8
MEGA_000568
  6
Continuous
 62
     7
100
AcDbLine
 10
53.4768095324
 20
251.6392038477
 30
0.0
 11
53.4768095324
 21
249.6985017614
 31
0.0
  0
LINE
  5
191
330
120
100
AcDbEntity
  8
MEGA_000568
  6
Continuous
 62
     7
100
AcDbLine
 10
53.4768095324
 20
251.6392038477
 30
0.0
 11
53.9768095324
 21
251.6392038477
 31
0.0
  0
LINE
  5
192
330
120
100
AcDbEntity
  8
MEGA_000568
  6
Continuous
 62
     7
100
AcDbLine
 10
53.9768095324
 20
251.6392038477
 30
0.0
 11
53.9768095324
 21
252.1392038477
 31
0.0
  0
LINE
  5
193
330
120
100
AcDbEntity
  8
MEGA_000568
  6
Continuous
 62
     7
100
AcDbLine
 10
53.9768095324
 20
249.6985017692
 30
0.0
 11
53.4768095324
 21
249.6985017614
 31
0.0
  0
LINE
  5
194
330
120
100
AcDbEntity
  8
MEGA_000568
  6
Continuous
 62
     7
100
AcDbLine
 10
53.4768095324
 20
252.1392038477
 30
0.0
 11
53.9768095324
 21
252.1392038477
 31
0.0
  0
LINE
  5
195
330
120
100
AcDbEntity
  8
MEGA_000568
  6
Continuous
 62
     7
100
AcDbLine
 10
53.9768095324
 20
247.6820361446
 30
0.0
 11
53.9768095324
 21
249.6985017692
 31
0.0
  0
LINE
  5
196
330
120
100
AcDbEntity
  8
MEGA_000568
  6
Continuous
 62
     7
100
AcDbLine
 10
53.4768095324
 20
247.6820361551
 30
0.0
 11
53.9768095324
 21
247.6820361446
 31
0.0
  0
LINE
  5
197
330
120
100
AcDbEntity
  8
MEGA_000568
  6
Continuous
 62
     7
100
AcDbLine
 10
53.4768095324
 20
247.6820361551
 30
0.0
 11
53.4768095324
 21
245.6392038477
 31
0.0
  0
LINE
  5
198
330
120
100
AcDbEntity
  8
MEGA_000568
  6
Continuous
 62
     7
100
AcDbLine
 10
53.4768095324
 20
259.7856745111
 30
0.0
 11
53.4768095324
 21
252.1392038477
 31
0.0
  0
ARC
  5
199
330
120
100
AcDbEntity
  8
MEGA_000568
  6
Continuous
 62
     7
100
AcDbCircle
 10
54.9768095324
 20
259.7856745111
 30
0.0
 40
1.499999999999995
100
AcDbArc
 50
110.4873151147
 51
180.0
  0
ARC
  5
19A
330
120
100
AcDbEntity
  8
MEGA_000568
  6
Continuous
 62
     7
100
AcDbCircle
 10
54.2768095324
 20
261.6591739106
 30
0.0
 40
0.500000000000001
100
AcDbArc
 50
290.4873151147
 51
0.0
  0
LINE
  5
19B
330
120
100
AcDbEntity
  8
MEGA_000568
  6
Continuous
 62
     7
100
AcDbLine
 10
53.9768095324
 20
245.6392038477
 30
0.0
 11
53.4768095324
 21
245.6392038477
 31
0.0
  0
LINE
  5
19C
330
120
100
AcDbEntity
  8
MEGA_000568
  6
Continuous
 62
     7
100
AcDbLine
 10
53.9768095324
 20
245.1392038477
 30
0.0
 11
53.9768095324
 21
245.6392038477
 31
0.0
  0
LINE
  5
19D
330
120
100
AcDbEntity
  8
MEGA_000568
  6
Continuous
 62
     7
100
AcDbLine
 10
54.7768095324
 20
269.8313992602
 30
0.0
 11
54.7768095324
 21
261.6591739106
 31
0.0
  0
ARC
  5
19E
330
120
100
AcDbEntity
  8
MEGA_000568
  6
Continuous
 62
     7
100
AcDbCircle
 10
56.2768095324
 20
269.8313992602
 30
0.0
 40
1.499999999999997
100
AcDbArc
 50
110.0
 51
180.0
  0
LINE
  5
19F
330
120
100
AcDbEntity
  8
MEGA_000568
  6
Continuous
 62
     7
100
AcDbLine
 10
53.9768095324
 20
245.1392038477
 30
0.0
 11
53.4768095324
 21
245.1392038477
 31
0.0
  0
LINE
  5
1A0
330
120
100
AcDbEntity
  8
MEGA_000568
  6
Continuous
 62
     7
100
AcDbLine
 10
53.4768095324
 20
245.1392038477
 30
0.0
 11
53.4768095324
 21
238.7733635636
 31
0.0
  0
LINE
  5
1A1
330
120
100
AcDbEntity
  8
MEGA_000568
  6
Continuous
 62
     7
100
AcDbLine
 10
58.647819604
 20
272.2906430101
 30
0.0
 11
55.7637793174
 21
271.2409381914
 31
0.0
  0
ARC
  5
1A2
330
120
100
AcDbEntity
  8
MEGA_000568
  6
Continuous
 62
     7
100
AcDbCircle
 10
58.4768095324
 20
272.7604893205
 30
0.0
 40
0.500000000000002
100
AcDbArc
 50
290.0
 51
0.0
  0
LINE
  5
1A3
330
120
100
AcDbEntity
  8
MEGA_000568
  6
Continuous
 62
     7
100
AcDbLine
 10
53.9768095324
 20
238.7733635636
 30
0.0
 11
53.4768095324
 21
238.7733635636
 31
0.0
  0
LINE
  5
1A4
330
120
100
AcDbEntity
  8
MEGA_000568
  6
Continuous
 62
     7
100
AcDbLine
 10
53.9768095324
 20
238.7733635636
 30
0.0
 11
53.9768095324
 21
237.769814855
 31
0.0
  0
LINE
  5
1A5
330
120
100
AcDbEntity
  8
MEGA_000568
  6
Continuous
 62
     7
100
AcDbLine
 10
58.9768095324
 20
276.4103855514
 30
0.0
 11
58.9768095324
 21
272.7604893205
 31
0.0
  0
LINE
  5
1A6
330
120
100
AcDbEntity
  8
MEGA_000568
  6
Continuous
 62
     7
100
AcDbLine
 10
51.434789389
 20
273.665314713
 30
0.0
 11
58.9768095324
 21
276.4103855514
 31
0.0
  0
ARC
  5
1A7
330
120
100
AcDbEntity
  8
MEGA_000568
  6
Continuous
 62
     7
100
AcDbCircle
 10
51.7768095324
 20
272.7256220922
 30
0.0
 40
1.000000000000006
100
AcDbArc
 50
110.0
 51
180.0
  0
LINE
  5
1A8
330
120
100
AcDbEntity
  8
MEGA_000568
  6
Continuous
 62
     7
100
AcDbLine
 10
53.4768095324
 20
237.769814855
 30
0.0
 11
53.9768095324
 21
237.769814855
 31
0.0
  0
LINE
  5
1A9
330
120
100
AcDbEntity
  8
MEGA_000568
  6
Continuous
 62
     7
100
AcDbLine
 10
53.4768095324
 20
237.769814855
 30
0.0
 11
53.4768095324
 21
237.5086824297
 31
0.0
  0
LINE
  5
1AA
330
120
100
AcDbEntity
  8
MEGA_000568
  6
Continuous
 62
     7
100
AcDbLine
 10
50.7768095324
 20
272.7256220922
 30
0.0
 11
50.7768095324
 21
193.9603855514
 31
0.0
  0
LINE
  5
1AB
330
120
100
AcDbEntity
  8
MEGA_000568
  6
Continuous
 62
     7
100
AcDbLine
 10
51.2768095324
 20
193.4603855514
 30
0.0
 11
50.7768095324
 21
193.9603855514
 31
0.0
  0
LINE
  5
1AC
330
120
100
AcDbEntity
  8
MEGA_000568
  6
Continuous
 62
     7
100
AcDbLine
 10
53.9768095324
 20
237.5086824297
 30
0.0
 11
53.4768095324
 21
237.5086824297
 31
0.0
  0
LINE
  5
1AD
330
120
100
AcDbEntity
  8
MEGA_000568
  6
Continuous
 62
     7
100
AcDbLine
 10
53.9768095324
 20
237.5086824297
 30
0.0
 11
53.9768095324
 21
236.8474101082
 31
0.0
  0
LINE
  5
1AE
330
120
100
AcDbEntity
  8
MEGA_000568
  6
Continuous
 62
     7
100
AcDbLine
 10
51.2768095324
 20
193.4603855514
 30
0.0
 11
60.2768095324
 21
193.4603855514
 31
0.0
  0
LINE
  5
1AF
330
120
100
AcDbEntity
  8
MEGA_000568
  6
Continuous
 62
     7
100
AcDbLine
 10
53.4768095324
 20
236.8474101082
 30
0.0
 11
53.9768095324
 21
236.8474101082
 31
0.0
  0
LINE
  5
1B0
330
120
100
AcDbEntity
  8
MEGA_000568
  6
Continuous
 62
     7
100
AcDbLine
 10
53.4768095324
 20
236.8474101082
 30
0.0
 11
53.4768095324
 21
227.4723256301
 31
0.0
  0
LINE
  5
1B1
330
120
100
AcDbEntity
  8
MEGA_000568
  6
Continuous
 62
     7
100
AcDbLine
 10
60.2768095324
 20
194.4614209847
 30
0.0
 11
60.2768095324
 21
193.4603855514
 31
0.0
  0
ARC
  5
1B2
330
120
100
AcDbEntity
  8
MEGA_000568
  6
Continuous
 62
     7
100
AcDbCircle
 10
59.2768095324
 20
194.4614209847
 30
0.0
 40
1.0
100
AcDbArc
 50
0.0
 51
87.0
  0
ARC
  5
1B3
330
120
100
AcDbEntity
  8
MEGA_000568
  6
Continuous
 62
     7
100
AcDbCircle
 10
54.9768095324
 20
227.4723256301
 30
0.0
 40
1.5
100
AcDbArc
 50
180.0
 51
265.0
  0
LINE
  5
1B4
330
120
100
AcDbEntity
  8
MEGA_000568
  6
Continuous
 62
     7
100
AcDbLine
 10
59.3291454886
 20
195.4600505195
 30
0.0
 11
54.898305598
 21
195.6922609985
 31
0.0
  0
LINE
  5
1B5
330
120
100
AcDbEntity
  8
MEGA_000568
  6
Continuous
 62
     7
100
AcDbLine
 10
54.8460759182
 20
225.9780335829
 30
0.0
 11
57.5639652751
 21
225.7402490755
 31
0.0
  0
ARC
  5
1B6
330
120
100
AcDbEntity
  8
MEGA_000568
  6
Continuous
 62
     7
100
AcDbCircle
 10
54.9768095324
 20
197.1902053006
 30
0.0
 40
1.5
100
AcDbArc
 50
180.0
 51
267.0
  0
LINE
  5
1B7
330
120
100
AcDbEntity
  8
MEGA_000568
  6
Continuous
 62
     7
100
AcDbLine
 10
53.4768095324
 20
197.1902053006
 30
0.0
 11
53.4768095324
 21
205.3011840232
 31
0.0
  0
ARC
  5
1B8
330
120
100
AcDbEntity
  8
MEGA_000568
  6
Continuous
 62
     7
100
AcDbCircle
 10
57.4768095324
 20
224.7440543774
 30
0.0
 40
1.0
100
AcDbArc
 50
0.0
 51
85.0000000003
  0
LINE
  5
1B9
330
120
100
AcDbEntity
  8
MEGA_000568
  6
Continuous
 62
     7
100
AcDbLine
 10
58.4768095324
 20
224.0767167254
 30
0.0
 11
58.4768095324
 21
224.7440543774
 31
0.0
  0
LINE
  5
1BA
330
120
100
AcDbEntity
  8
MEGA_000568
  6
Continuous
 62
     7
100
AcDbLine
 10
53.9768095324
 20
205.3011840232
 30
0.0
 11
53.4768095324
 21
205.3011840232
 31
0.0
  0
LINE
  5
1BB
330
120
100
AcDbEntity
  8
MEGA_000568
  6
Continuous
 62
     7
100
AcDbLine
 10
53.9768095324
 20
205.3011840232
 30
0.0
 11
53.9768095324
 21
207.2123750404
 31
0.0
  0
ARC
  5
1BC
330
120
100
AcDbEntity
  8
MEGA_000568
  6
Continuous
 62
     7
100
AcDbCircle
 10
57.4768095324
 20
224.0767167254
 30
0.0
 40
0.9999999999999952
100
AcDbArc
 50
275.0
 51
0.0
  0
LINE
  5
1BD
330
120
100
AcDbEntity
  8
MEGA_000568
  6
Continuous
 62
     7
100
AcDbLine
 10
54.8460759182
 20
222.8427375199
 30
0.0
 11
57.5639652751
 21
223.0805220273
 31
0.0
  0
ARC
  5
1BE
330
120
100
AcDbEntity
  8
MEGA_000568
  6
Continuous
 62
     7
100
AcDbCircle
 10
54.9768095324
 20
221.3484454728
 30
0.0
 40
1.500000000000003
100
AcDbArc
 50
95.0
 51
180.0
  0
LINE
  5
1BF
330
120
100
AcDbEntity
  8
MEGA_000568
  6
Continuous
 62
     7
100
AcDbLine
 10
53.4768095324
 20
207.2123750404
 30
0.0
 11
53.9768095324
 21
207.2123750404
 31
0.0
  0
LINE
  5
1C0
330
120
100
AcDbEntity
  8
MEGA_000568
  6
Continuous
 62
     7
100
AcDbLine
 10
53.4768095324
 20
207.2123750404
 30
0.0
 11
53.4768095324
 21
211.389993006
 31
0.0
  0
LINE
  5
1C1
330
120
100
AcDbEntity
  8
MEGA_000568
  6
Continuous
 62
     7
100
AcDbLine
 10
53.4768095324
 20
213.3011840232
 30
0.0
 11
53.4768095324
 21
221.3484454728
 31
0.0
  0
LINE
  5
1C2
330
120
100
AcDbEntity
  8
MEGA_000568
  6
Continuous
 62
     7
100
AcDbLine
 10
53.9768095324
 20
211.389993006
 30
0.0
 11
53.4768095324
 21
211.389993006
 31
0.0
  0
LINE
  5
1C3
330
120
100
AcDbEntity
  8
MEGA_000568
  6
Continuous
 62
     7
100
AcDbLine
 10
53.4768095324
 20
213.3011840232
 30
0.0
 11
53.9768095324
 21
213.3011840232
 31
0.0
  0
LINE
  5
1C4
330
120
100
AcDbEntity
  8
MEGA_000568
  6
Continuous
 62
     7
100
AcDbLine
 10
53.9768095324
 20
211.389993006
 30
0.0
 11
53.9768095324
 21
213.3011840232
 31
0.0
  0
ARC
  5
1C5
330
120
100
AcDbEntity
  8
MEGA_000568
  6
Continuous
 62
     7
100
AcDbCircle
 10
58.4768095324
 20
168.0267220574
 30
0.0
 40
0.5
100
AcDbArc
 50
0.0
 51
75.0
  0
LINE
  5
1C6
330
120
100
AcDbEntity
  8
MEGA_000568
  6
Continuous
 62
     7
100
AcDbLine
 10
58.9768095324
 20
168.0267220574
 30
0.0
 11
58.9768095324
 21
156.1103855514
 31
0.0
  0
LINE
  5
1C7
330
120
100
AcDbEntity
  8
MEGA_000568
  6
Continuous
 62
     7
100
AcDbLine
 10
55.7768095324
 20
156.1103855514
 30
0.0
 11
58.9768095324
 21
156.1103855514
 31
0.0
  0
LINE
  5
1C8
330
120
100
AcDbEntity
  8
MEGA_000568
  6
Continuous
 62
     7
100
AcDbLine
 10
58.6062190549
 20
168.5096849706
 30
0.0
 11
55.146125972
 21
169.4368141179
 31
0.0
  0
ARC
  5
1C9
330
120
100
AcDbEntity
  8
MEGA_000568
  6
Continuous
 62
     7
100
AcDbCircle
 10
55.2755354946
 20
169.919777031
 30
0.0
 40
0.4999999999999998
100
AcDbArc
 50
212.3894230846
 51
255.0
  0
ARC
  5
1CA
330
120
100
AcDbEntity
  8
MEGA_000568
  6
Continuous
 62
     7
100
AcDbCircle
 10
54.4311086687
 20
169.3841061098
 30
0.0
 40
0.5000000000000001
100
AcDbArc
 50
32.3894230846
 51
89.9999999997
  0
LINE
  5
1CB
330
120
100
AcDbEntity
  8
MEGA_000568
  6
Continuous
 62
     7
100
AcDbLine
 10
55.7768095324
 20
135.9103855514
 30
0.0
 11
55.7768095324
 21
156.1103855514
 31
0.0
  0
LINE
  5
1CC
330
120
100
AcDbEntity
  8
MEGA_000568
  6
Continuous
 62
     7
100
AcDbLine
 10
54.4311086687
 20
169.8841061098
 30
0.0
 11
53.4768095324
 21
169.8841061098
 31
0.0
  0
LINE
  5
1CD
330
120
100
AcDbEntity
  8
MEGA_000568
  6
Continuous
 62
     7
100
AcDbLine
 10
53.4768095324
 20
169.8841061098
 30
0.0
 11
53.4768095324
 21
171.6305658022
 31
0.0
  0
ARC
  5
1CE
330
120
100
AcDbEntity
  8
MEGA_000568
  6
Continuous
 62
     7
100
AcDbCircle
 10
54.9768095324
 20
171.6305658022
 30
0.0
 40
1.5
100
AcDbArc
 50
93.0
 51
180.0
  0
LINE
  5
1CF
330
120
100
AcDbEntity
  8
MEGA_000568
  6
Continuous
 62
     7
100
AcDbLine
 10
51.7768095324
 20
135.0703909634
 30
0.0
 11
51.7768095324
 21
131.7503801394
 31
0.0
  0
LINE
  5
1D0
330
120
100
AcDbEntity
  8
MEGA_000568
  6
Continuous
 62
     7
100
AcDbLine
 10
54.898305598
 20
173.1285101044
 30
0.0
 11
59.3291454886
 21
173.3607205834
 31
0.0
  0
ARC
  5
1D1
330
120
100
AcDbEntity
  8
MEGA_000568
  6
Continuous
 62
     7
100
AcDbCircle
 10
59.2768095324
 20
174.3593501181
 30
0.0
 40
0.9999999999999991
100
AcDbArc
 50
273.0
 51
0.0
  0
LINE
  5
1D2
330
120
100
AcDbEntity
  8
MEGA_000568
  6
Continuous
 62
     7
100
AcDbLine
 10
60.2768095323
 20
175.3103855514
 30
0.0
 11
60.2768095324
 21
174.3593501181
 31
0.0
  0
ARC
  5
1D3
330
120
100
AcDbEntity
  8
MEGA_000568
  6
Continuous
 62
     7
100
AcDbCircle
 10
62.078967522
 20
974.2004828296
 30
0.0
 40
798.89212995411
100
AcDbArc
 50
269.2252763162
 51
269.8707508429
  0
LINE
  5
1D4
330
120
100
AcDbEntity
  8
MEGA_000568
  6
Continuous
 62
     7
100
AcDbLine
 10
50.7768095324
 20
174.8603855514
 30
0.0
 11
51.2768095324
 21
175.3603855514
 31
0.0
  0
LINE
  5
1D5
330
120
100
AcDbEntity
  8
MEGA_000568
  6
Continuous
 62
     7
100
AcDbLine
 10
55.7768095324
 20
123.9103855514
 30
0.0
 11
55.7768095324
 21
130.9103855514
 31
0.0
  0
LINE
  5
1D6
330
120
100
AcDbEntity
  8
MEGA_000568
  6
Continuous
 62
     7
100
AcDbLine
 10
50.7768095324
 20
174.8603855514
 30
0.0
 11
50.7768095324
 21
121.4353855514
 31
0.0
  0
LINE
  5
1D7
330
120
100
AcDbEntity
  8
MEGA_000568
  6
Continuous
 62
     7
100
AcDbLine
 10
54.7768095324
 20
121.4353855514
 30
0.0
 11
50.7768095324
 21
121.4353855514
 31
0.0
  0
LINE
  5
1D8
330
120
100
AcDbEntity
  8
MEGA_000568
  6
Continuous
 62
     7
100
AcDbLine
 10
54.7768095324
 20
123.9103855514
 30
0.0
 11
54.7768095324
 21
121.4353855514
 31
0.0
  0
LINE
  5
1D9
330
120
100
AcDbEntity
  8
MEGA_000568
  6
Continuous
 62
     7
100
AcDbLine
 10
58.9768095324
 20
54.7103855514
 30
0.0
 11
55.7768095324
 21
54.7103855514
 31
0.0
  0
LINE
  5
1DA
330
120
100
AcDbEntity
  8
MEGA_000568
  6
Continuous
 62
     7
100
AcDbLine
 10
55.7768095324
 20
54.7103855514
 30
0.0
 11
55.7768095324
 21
74.4348601842
 31
0.0
  0
LINE
  5
1DB
330
120
100
AcDbEntity
  8
MEGA_000568
  6
Continuous
 62
     7
100
AcDbLine
 10
58.9768095324
 20
54.7103855514
 30
0.0
 11
58.9768095324
 21
53.6338324015
 31
0.0
  0
ARC
  5
1DC
330
120
100
AcDbEntity
  8
MEGA_000568
  6
Continuous
 62
     7
100
AcDbCircle
 10
57.4768095324
 20
53.6338324015
 30
0.0
 40
1.499999999999988
100
AcDbArc
 50
273.0
 51
0.0
  0
LINE
  5
1DD
330
120
100
AcDbEntity
  8
MEGA_000568
  6
Continuous
 62
     7
100
AcDbLine
 10
55.7768095324
 20
74.4348601842
 30
0.0
 11
56.2768095324
 21
74.4348601946
 31
0.0
  0
LINE
  5
1DE
330
120
100
AcDbEntity
  8
MEGA_000568
  6
Continuous
 62
     7
100
AcDbLine
 10
56.2768095324
 20
74.9190437388
 30
0.0
 11
56.2768095324
 21
74.4348601946
 31
0.0
  0
LINE
  5
1DF
330
120
100
AcDbEntity
  8
MEGA_000568
  6
Continuous
 62
     7
100
AcDbLine
 10
54.898305598
 20
51.9966402174
 30
0.0
 11
57.5553134667
 21
52.1358880994
 31
0.0
  0
ARC
  5
1E0
330
120
100
AcDbEntity
  8
MEGA_000568
  6
Continuous
 62
     7
100
AcDbCircle
 10
54.9768095324
 20
50.4986959153
 30
0.0
 40
1.499999999999988
100
AcDbArc
 50
93.0
 51
180.0
  0
LINE
  5
1E1
330
120
100
AcDbEntity
  8
MEGA_000568
  6
Continuous
 62
     7
100
AcDbLine
 10
56.2768095324
 20
74.9190437388
 30
0.0
 11
55.7768095324
 21
74.9190437388
 31
0.0
  0
LINE
  5
1E2
330
120
100
AcDbEntity
  8
MEGA_000568
  6
Continuous
 62
     7
100
AcDbLine
 10
55.7768095324
 20
74.9190437388
 30
0.0
 11
55.7768095324
 21
76.9103855514
 31
0.0
  0
LINE
  5
1E3
330
120
100
AcDbEntity
  8
MEGA_000568
  6
Continuous
 62
     7
100
AcDbLine
 10
53.4768095324
 20
50.4986959153
 30
0.0
 11
53.4768095324
 21
39.0350965918
 31
0.0
  0
ARC
  5
1E4
330
120
100
AcDbEntity
  8
MEGA_000568
  6
Continuous
 62
     7
100
AcDbCircle
 10
54.9768095324
 20
39.0350965918
 30
0.0
 40
1.5
100
AcDbArc
 50
180.0
 51
249.5126848853
  0
ARC
  5
1E5
330
120
100
AcDbEntity
  8
MEGA_000568
  6
Continuous
 62
     7
100
AcDbCircle
 10
54.2768095324
 20
37.1615971922
 30
0.0
 40
0.5000000000000004
100
AcDbArc
 50
0.0
 51
69.5126848853
  0
LINE
  5
1E6
330
120
100
AcDbEntity
  8
MEGA_000568
  6
Continuous
 62
     7
100
AcDbLine
 10
54.7768095324
 20
28.9893718427
 30
0.0
 11
54.7768095324
 21
37.1615971922
 31
0.0
  0
LINE
  5
1E7
330
120
100
AcDbEntity
  8
MEGA_000568
  6
Continuous
 62
     7
100
AcDbLine
 10
51.7768095324
 20
81.0703909634
 30
0.0
 11
51.7768095324
 21
77.7503801394
 31
0.0
  0
ARC
  5
1E8
330
120
100
AcDbEntity
  8
MEGA_000568
  6
Continuous
 62
     7
100
AcDbCircle
 10
56.2768095324
 20
28.9893718427
 30
0.0
 40
1.5
100
AcDbArc
 50
180.0
 51
250.0
  0
LINE
  5
1E9
330
120
100
AcDbEntity
  8
MEGA_000568
  6
Continuous
 62
     7
100
AcDbLine
 10
57.9898397473
 20
26.7696131753
 30
0.0
 11
55.7637793174
 21
27.5798329115
 31
0.0
  0
ARC
  5
1EA
330
120
100
AcDbEntity
  8
MEGA_000568
  6
Continuous
 62
     7
100
AcDbCircle
 10
57.4768095324
 20
25.3600742441
 30
0.0
 40
1.5
100
AcDbArc
 50
0.0
 51
70.0
  0
LINE
  5
1EB
330
120
100
AcDbEntity
  8
MEGA_000568
  6
Continuous
 62
     7
100
AcDbLine
 10
58.9768095324
 20
25.3600742441
 30
0.0
 11
58.9768095324
 21
22.4103855514
 31
0.0
  0
LINE
  5
1EC
330
120
100
AcDbEntity
  8
MEGA_000568
  6
Continuous
 62
     7
100
AcDbLine
 10
58.9768095324
 20
22.4103855514
 30
0.0
 11
51.434789389
 21
25.1554563898
 31
0.0
  0
ARC
  5
1ED
330
120
100
AcDbEntity
  8
MEGA_000568
  6
Continuous
 62
     7
100
AcDbCircle
 10
51.7768095324
 20
26.0951490106
 30
0.0
 40
1.0
100
AcDbArc
 50
180.0
 51
250.0
  0
LINE
  5
1EE
330
120
100
AcDbEntity
  8
MEGA_000568
  6
Continuous
 62
     7
100
AcDbLine
 10
55.7768095324
 20
81.9103855514
 30
0.0
 11
55.7768095324
 21
88.9103855514
 31
0.0
  0
LINE
  5
1EF
330
120
100
AcDbEntity
  8
MEGA_000568
  6
Continuous
 62
     7
100
AcDbLine
 10
50.7768095324
 20
91.3853855514
 30
0.0
 11
50.7768095324
 21
26.0951490106
 31
0.0
  0
LINE
  5
1F0
330
120
100
AcDbEntity
  8
MEGA_000568
  6
Continuous
 62
     7
100
AcDbLine
 10
50.7768095324
 20
91.3853855514
 30
0.0
 11
54.7768095324
 21
91.3853855514
 31
0.0
  0
LINE
  5
1F1
330
120
100
AcDbEntity
  8
MEGA_000568
  6
Continuous
 62
     7
100
AcDbLine
 10
54.7768095324
 20
91.3853855514
 30
0.0
 11
54.7768095324
 21
88.9103855514
 31
0.0
  0
LINE
  5
1F2
330
120
100
AcDbEntity
  8
MEGA_000568
  6
Continuous
 62
     7
100
AcDbLine
 10
53.9768095324
 20
241.3373654654
 30
0.0
 11
53.4768095324
 21
241.3373654654
 31
0.0
  0
LINE
  5
1F3
330
120
100
AcDbEntity
  8
MEGA_000568
  6
Continuous
 62
     7
100
AcDbLine
 10
53.4768095324
 20
235.3407136797
 30
0.0
 11
53.9768095324
 21
235.3407136797
 31
0.0
  0
LINE
  5
1F4
330
120
100
AcDbEntity
  8
MEGA_000568
  6
Continuous
 62
     7
100
AcDbLine
 10
53.9768095324
 20
250.6972344709
 30
0.0
 11
53.4768095324
 21
250.6972344709
 31
0.0
  0
LINE
  5
1F5
330
120
100
AcDbEntity
  8
MEGA_000568
  6
Continuous
 62
     7
100
AcDbLine
 10
53.4768095324
 20
246.6972344709
 30
0.0
 11
53.9768095324
 21
246.6972344709
 31
0.0
  0
LINE
  5
1F6
330
120
100
AcDbEntity
  8
MEGA_000568
  6
Continuous
 62
     7
100
AcDbLine
 10
56.2768095324
 20
75.0027958326
 30
0.0
 11
55.7768095324
 21
75.0027958326
 31
0.0
  0
LINE
  5
1F7
330
120
100
AcDbEntity
  8
MEGA_000568
  6
Continuous
 62
     7
100
AcDbLine
 10
55.7768095324
 20
70.0027958326
 30
0.0
 11
56.2768095324
 21
70.0027958326
 31
0.0
  0
LINE
  5
1F8
330
120
100
AcDbEntity
  8
MEGA_000568
  6
Continuous
 62
     7
100
AcDbLine
 10
53.9768095324
 20
210.5366082312
 30
0.0
 11
53.4768095324
 21
210.5366082312
 31
0.0
  0
HATCH
  5
1F9
330
120
100
AcDbEntity
  8
MEGA_000568
  6
Continuous
 62
     7
100
AcDbHatch
 10
0.0
 20
0.0
 30
0.0
210
0.0
220
0.0
230
1.0
  2
LINE
 70
     0
 71
     0
 91
        1
 92
        1
 93
       53
 72
     1
 10
53.47680953235091
 20
251.6392038476556
 11
53.97680953235091
 21
251.6392038476556
 72
     1
 10
53.97680953235091
 20
251.6392038476556
 11
53.97680953235091
 21
252.1392038476556
 72
     1
 10
53.97680953235091
 20
252.1392038476556
 11
53.47680953235091
 21
252.1392038476556
 72
     1
 10
53.47680953235091
 20
252.1392038476556
 11
53.47680953235091
 21
259.785674511083
 72
     2
 10
54.97680953235091
 20
259.785674511083
 40
1.5
 50
180.0
 51
249.5126848852773
 73
     0
 72
     2
 10
54.27680953235091
 20
261.6591739106025
 40
0.5
 50
290.4873151147222
 51
360.0
 73
     1
 72
     1
 10
54.77680953235091
 20
261.6591739106025
 11
54.77680953235091
 21
269.83139926019
 72
     2
 10
56.2768095323509
 20
269.83139926019
 40
1.5
 50
180.0
 51
250.0000000000006
 73
     0
 72
     1
 10
55.76377931736241
 20
271.2409381913689
 11
58.64781960401374
 21
272.2906430101346
 72
     2
 10
58.47680953235091
 20
272.7604893205275
 40
0.5
 50
290.0000000000014
 51
360.0
 73
     1
 72
     1
 10
58.97680953235091
 20
272.7604893205275
 11
58.97680953235091
 21
276.4103855514228
 72
     1
 10
58.97680953235091
 20
276.4103855514228
 11
51.43478938902524
 21
273.6653147130161
 72
     2
 10
51.7768095323509
 20
272.7256220922303
 40
1.0
 50
109.9999999999995
 51
180.0
 73
     1
 72
     1
 10
50.7768095323509
 20
272.7256220922303
 11
50.77680953235091
 21
193.9603855514227
 72
     1
 10
50.77680953235091
 20
193.9603855514227
 11
51.27680953235091
 21
193.4603855514228
 72
     1
 10
51.27680953235091
 20
193.4603855514228
 11
60.2768095323509
 21
193.4603855514228
 72
     1
 10
60.27680953235091
 20
193.4603855514228
 11
60.27680953235091
 21
194.461420984708
 72
     2
 10
59.27680953235091
 20
194.461420984708
 40
1.0
 50
0.0
 51
87.00000000000091
 73
     1
 72
     1
 10
59.32914548859384
 20
195.4600505194625
 11
54.89830559798649
 21
195.692260998488
 72
     2
 10
54.97680953235091
 20
197.1902053006198
 40
1.5
 50
92.99999999999991
 51
180.0
 73
     0
 72
     1
 10
53.47680953235091
 20
197.1902053006198
 11
53.47680953235091
 21
205.3011840231715
 72
     1
 10
53.47680953235091
 20
205.3011840231715
 11
53.97680953235091
 21
205.3011840231715
 72
     1
 10
53.97680953235091
 20
205.3011840231715
 11
53.97680953235091
 21
207.2123750403726
 72
     1
 10
53.97680953235091
 20
207.2123750403726
 11
53.47680953235091
 21
207.2123750403726
 72
     1
 10
53.47680953235091
 20
207.2123750403726
 11
53.47680953235091
 21
211.3899930059704
 72
     1
 10
53.47680953235091
 20
211.3899930059704
 11
53.97680953235091
 21
211.3899930059704
 72
     1
 10
53.97680953235091
 20
211.3899930059704
 11
53.97680953235091
 21
213.3011840231715
 72
     1
 10
53.97680953235091
 20
213.3011840231715
 11
53.47680953235091
 21
213.3011840231715
 72
     1
 10
53.47680953235091
 20
213.3011840231715
 11
53.47680953235091
 21
221.3484454727671
 72
     2
 10
54.97680953235091
 20
221.3484454727671
 40
1.5
 50
180.0
 51
264.9999999999999
 73
     0
 72
     1
 10
54.84607591822942
 20
222.8427375199047
 11
57.56396527509894
 21
223.0805220273485
 72
     2
 10
57.47680953235091
 20
224.0767167254402
 40
1.0
 50
275.0000000000211
 51
360.0
 73
     1
 72
     1
 10
58.47680953235091
 20
224.0767167254402
 11
58.47680953235091
 21
224.7440543774059
 72
     2
 10
57.47680953235091
 20
224.7440543774054
 40
1.0
 50
0.0000000000309404
 51
85.00000000034971
 73
     1
 72
     1
 10
57.56396527509249
 20
225.7402490754977
 11
54.84607591822942
 21
225.978033582941
 72
     2
 10
54.97680953235091
 20
227.4723256300786
 40
1.5
 50
95.0000000000001
 51
180.0
 73
     0
 72
     1
 10
53.47680953235091
 20
227.4723256300786
 11
53.47680953235091
 21
236.8474101082243
 72
     1
 10
53.47680953235091
 20
236.8474101082243
 11
53.97680953235091
 21
236.8474101082243
 72
     1
 10
53.97680953235091
 20
236.8474101082243
 11
53.97680953235091
 21
237.5086824296529
 72
     1
 10
53.97680953235091
 20
237.5086824296529
 11
53.47680953235091
 21
237.5086824296529
 72
     1
 10
53.47680953235091
 20
237.5086824296529
 11
53.47680953235091
 21
237.7698148549737
 72
     1
 10
53.47680953235091
 20
237.7698148549737
 11
53.97680953235091
 21
237.7698148549737
 72
     1
 10
53.97680953235091
 20
237.7698148549737
 11
53.97680953235091
 21
238.7733635636118
 72
     1
 10
53.97680953235091
 20
238.7733635636118
 11
53.47680953235091
 21
238.7733635636118
 72
     1
 10
53.47680953235091
 20
238.7733635636118
 11
53.47680953235091
 21
245.1392038476556
 72
     1
 10
53.47680953235091
 20
245.1392038476556
 11
53.97680953235091
 21
245.1392038476556
 72
     1
 10
53.97680953235091
 20
245.1392038476556
 11
53.97680953235091
 21
245.6392038476556
 72
     1
 10
53.97680953235091
 20
245.6392038476556
 11
53.47680953235091
 21
245.6392038476556
 72
     1
 10
53.47680953235091
 20
245.6392038476556
 11
53.47680953235091
 21
247.6820361550645
 72
     1
 10
53.47680953235091
 20
247.6820361550645
 11
53.97680953235091
 21
247.6820361446406
 72
     1
 10
53.97680953235091
 20
247.6820361446406
 11
53.97680953235091
 21
249.6985017691711
 72
     1
 10
53.97680953235091
 20
249.6985017691711
 11
53.47680953235091
 21
249.6985017613679
 72
     1
 10
53.47680953235091
 20
249.6985017613679
 11
53.47680953235091
 21
251.6392038476556
 97
        0
 75
     0
 76
     1
 52
45.0
 41
1.0
 77
     0
 78
     1
 53
45.0
 43
0.0
 44
0.0
 45
-2.245064030267288
 46
2.245064030267288
 79
     0
 98
        0
  0
HATCH
  5
1FA
330
120
100
AcDbEntity
  8
MEGA_000568
  6
Continuous
 62
     7
100
AcDbHatch
 10
0.0
 20
0.0
 30
0.0
210
0.0
220
0.0
230
1.0
  2
LINE
 70
     0
 71
     0
 91
        1
 92
        1
 93
       32
 72
     1
 10
58.97680953235092
 20
54.71038555142285
 11
55.77680953235092
 21
54.71038555142285
 72
     1
 10
55.77680953235092
 20
54.71038555142285
 11
55.77680953235092
 21
74.43486018419064
 72
     1
 10
55.77680953235092
 20
74.43486018419064
 11
56.27680953235092
 21
74.43486019464946
 72
     1
 10
56.27680953235092
 20
74.43486019464946
 11
56.27680953235092
 21
74.91904373875269
 72
     1
 10
56.27680953235092
 20
74.91904373875269
 11
55.77680953235092
 21
74.91904373875269
 72
     1
 10
55.77680953235092
 20
74.91904373875269
 11
55.77680953235092
 21
76.91038555142285
 72
     1
 10
55.77680953235092
 20
76.91038555142285
 11
57.27680953235092
 21
76.91038555142285
 72
     1
 10
57.27680953235092
 20
76.91038555142285
 11
57.27680953235094
 21
77.70038555142284
 72
     1
 10
57.27680953235094
 20
77.70038555142284
 11
51.77680953235092
 21
77.75038013941197
 72
     1
 10
51.77680953235092
 20
77.75038013941196
 11
51.7768095323509
 21
81.07039096343374
 72
     1
 10
51.7768095323509
 20
81.07039096343374
 11
57.27680953235092
 21
81.12038555142284
 72
     1
 10
57.27680953235092
 20
81.12038555142284
 11
57.27680953235092
 21
81.91038555142285
 72
     1
 10
57.27680953235092
 20
81.91038555142285
 11
55.77680953235092
 21
81.91038555142285
 72
     1
 10
55.77680953235092
 20
81.91038555142285
 11
55.77680953235092
 21
88.91038555142283
 72
     1
 10
55.77680953235092
 20
88.91038555142285
 11
54.77680953235092
 21
88.91038555142283
 72
     1
 10
54.77680953235092
 20
88.91038555142283
 11
54.77680953235092
 21
91.38538555142284
 72
     1
 10
54.77680953235092
 20
91.38538555142284
 11
50.77680953235092
 21
91.38538555142284
 72
     1
 10
50.77680953235092
 20
91.38538555142284
 11
50.77680953235092
 21
26.09514901061534
 72
     2
 10
51.77680953235092
 20
26.09514901061538
 40
1.0
 50
180.0000000000014
 51
250.0000000000003
 73
     1
 72
     1
 10
51.43478938902525
 20
25.15545638982947
 11
58.97680953235091
 21
22.4103855514228
 72
     1
 10
58.97680953235092
 20
22.4103855514228
 11
58.97680953235092
 21
25.36007424410824
 72
     2
 10
57.47680953235092
 20
25.36007424410824
 40
1.5
 50
0.0
 51
70.00000000000026
 73
     1
 72
     1
 10
57.98983974733942
 20
26.76961317528711
 11
55.76377931736241
 21
27.57983291147656
 72
     2
 10
56.27680953235092
 20
28.98937184265543
 40
1.5
 50
110.0000000000001
 51
180.0
 73
     0
 72
     1
 10
54.77680953235092
 20
28.98937184265543
 11
54.77680953235092
 21
37.16159719224299
 72
     2
 10
54.27680953235092
 20
37.16159719224299
 40
0.5
 50
0.0
 51
69.51268488527838
 73
     1
 72
     2
 10
54.97680953235091
 20
39.03509659176252
 40
1.5
 50
110.487315114722
 51
180.0
 73
     0
 72
     1
 10
53.47680953235091
 20
39.03509659176252
 11
53.47680953235092
 21
50.49869591529382
 72
     2
 10
54.97680953235091
 20
50.49869591529382
 40
1.5
 50
180.0
 51
267.0000000000001
 73
     0
 72
     1
 10
54.8983055979865
 20
51.99664021742569
 11
57.55531346671533
 21
52.13588809936331
 72
     2
 10
57.47680953235092
 20
53.63383240149516
 40
1.5
 50
273.0000000000002
 51
360.0
 73
     1
 72
     1
 10
58.97680953235092
 20
53.63383240149516
 11
58.97680953235092
 21
54.71038555142285
 97
        0
 75
     0
 76
     1
 52
45.0
 41
1.0
 77
     0
 78
     1
 53
45.0
 43
0.0
 44
0.0
 45
-2.245064030267288
 46
2.245064030267288
 79
     0
 98
        0
  0
HATCH
  5
1FB
330
120
100
AcDbEntity
  8
MEGA_000568
  6
Continuous
 62
     7
100
AcDbHatch
 10
0.0
 20
0.0
 30
0.0
210
0.0
220
0.0
230
1.0
  2
LINE
 70
     0
 71
     0
 91
        1
 92
        1
 93
       28
 72
     2
 10
58.47680953235091
 20
168.0267220574333
 40
0.5
 50
0.0
 51
75.00000000000004
 73
     1
 72
     1
 10
58.60621905490218
 20
168.5096849705779
 11
55.14612597200617
 21
169.4368141178764
 72
     2
 10
55.27553549455744
 20
169.9197770310209
 40
0.5
 50
105.0
 51
147.6105769154435
 73
     0
 72
     2
 10
54.43110866874485
 20
169.384106109794
 40
0.5
 50
32.38942308455241
 51
89.99999999973619
 73
     1
 72
     1
 10
54.43110866874715
 20
169.884106109794
 11
53.47680953235092
 21
169.884106109794
 72
     1
 10
53.47680953235091
 20
169.884106109794
 11
53.47680953235091
 21
171.6305658022258
 72
     2
 10
54.97680953235091
 20
171.6305658022258
 40
1.5
 50
180.0
 51
266.9999999999838
 73
     0
 72
     1
 10
54.89830559798607
 20
173.1285101043577
 11
59.32914548859385
 21
173.3607205833831
 72
     2
 10
59.27680953235091
 20
174.3593501181377
 40
1.0
 50
272.9999999999999
 51
360.0
 73
     1
 72
     1
 10
60.27680953235092
 20
174.3593501181377
 11
60.27680953232468
 21
175.3103855514228
 72
     1
 10
60.2768095323245
 20
175.310385551423
 11
51.2770934614194
 21
175.3813826452505
 72
     1
 10
51.27709346141939
 20
175.3813826452504
 11
51.27680953235091
 21
175.3603855514229
 72
     1
 10
51.27680953235091
 20
175.3603855514229
 11
50.77680953235091
 21
174.8603855514229
 72
     1
 10
50.77680953235091
 20
174.8603855514229
 11
50.77680953235091
 21
121.4353855514228
 72
     1
 10
50.77680953235091
 20
121.4353855514228
 11
54.77680953235091
 21
121.4353855514228
 72
     1
 10
54.77680953235092
 20
121.4353855514228
 11
54.77680953235091
 21
123.9103855514228
 72
     1
 10
54.77680953235091
 20
123.9103855514228
 11
55.77680953235092
 21
123.9103855514228
 72
     1
 10
55.77680953235092
 20
123.9103855514228
 11
55.77680953235091
 21
130.9103855514228
 72
     1
 10
55.77680953235091
 20
130.9103855514228
 11
57.27680953235091
 21
130.9103855514228
 72
     1
 10
57.27680953235091
 20
130.9103855514228
 11
57.27680953235091
 21
131.7003855514228
 72
     1
 10
57.27680953235091
 20
131.7003855514228
 11
51.7768095323509
 21
131.7503801394119
 72
     1
 10
51.7768095323509
 20
131.7503801394119
 11
51.77680953235091
 21
135.0703909634337
 72
     1
 10
51.7768095323509
 20
135.0703909634337
 11
57.27680953235094
 21
135.1203855514229
 72
     1
 10
57.27680953235094
 20
135.1203855514229
 11
57.27680953235092
 21
135.9103855514228
 72
     1
 10
57.27680953235092
 20
135.9103855514228
 11
55.77680953235091
 21
135.9103855514228
 72
     1
 10
55.77680953235091
 20
135.9103855514228
 11
55.77680953235091
 21
156.1103855514229
 72
     1
 10
55.77680953235091
 20
156.1103855514229
 11
58.97680953235091
 21
156.1103855514229
 72
     1
 10
58.97680953235091
 20
156.1103855514229
 11
58.97680953235091
 21
168.0267220574333
 97
        0
 75
     0
 76
     1
 52
45.0
 41
1.0
 77
     0
 78
     1
 53
45.0
 43
0.0
 44
0.0
 45
-2.245064030267288
 46
2.245064030267288
 79
     0
 98
        0
  0
LINE
  5
1FC
330
120
100
AcDbEntity
  8
MEGA_000572
  6
Continuous
 62
     7
100
AcDbLine
 10
65.9768095324
 20
33.6603855514
 30
0.0
 11
65.9768095324
 21
27.1603855514
 31
0.0
  0
LINE
  5
1FD
330
120
100
AcDbEntity
  8
MEGA_000572
  6
Continuous
 62
     7
100
AcDbLine
 10
65.4768095324
 20
26.6603855514
 30
0.0
 11
65.4768095324
 21
34.1603855514
 31
0.0
  0
LINE
  5
1FE
330
120
100
AcDbEntity
  8
MEGA_000572
  6
Continuous
 62
     7
100
AcDbLine
 10
65.4768095324
 20
34.1603855514
 30
0.0
 11
58.9768095324
 21
34.1603855514
 31
0.0
  0
LINE
  5
1FF
330
120
100
AcDbEntity
  8
MEGA_000572
  6
Continuous
 62
     7
100
AcDbLine
 10
58.9768095324
 20
26.6603855514
 30
0.0
 11
65.4768095324
 21
26.6603855514
 31
0.0
  0
LINE
  5
200
330
120
100
AcDbEntity
  8
MEGA_000572
  6
Continuous
 62
     7
100
AcDbLine
 10
65.4768095324
 20
26.6603855514
 30
0.0
 11
65.9768095324
 21
27.1603855514
 31
0.0
  0
LINE
  5
201
330
120
100
AcDbEntity
  8
MEGA_000572
  6
Continuous
 62
     7
100
AcDbLine
 10
65.9768095324
 20
33.6603855514
 30
0.0
 11
65.4768095324
 21
34.1603855514
 31
0.0
  0
LINE
  5
202
330
120
100
AcDbEntity
  8
MEGA_000572
  6
Continuous
 62
     7
100
AcDbLine
 10
65.9768095324
 20
271.6603855514
 30
0.0
 11
65.9768095324
 21
265.1603855514
 31
0.0
  0
LINE
  5
203
330
120
100
AcDbEntity
  8
MEGA_000572
  6
Continuous
 62
     7
100
AcDbLine
 10
65.4768095324
 20
264.6603855514
 30
0.0
 11
65.4768095324
 21
272.1603855514
 31
0.0
  0
LINE
  5
204
330
120
100
AcDbEntity
  8
MEGA_000572
  6
Continuous
 62
     7
100
AcDbLine
 10
65.4768095324
 20
272.1603855514
 30
0.0
 11
58.9768095324
 21
272.1603855514
 31
0.0
  0
LINE
  5
205
330
120
100
AcDbEntity
  8
MEGA_000572
  6
Continuous
 62
     7
100
AcDbLine
 10
58.9768095324
 20
264.6603855514
 30
0.0
 11
65.4768095324
 21
264.6603855514
 31
0.0
  0
LINE
  5
206
330
120
100
AcDbEntity
  8
MEGA_000572
  6
Continuous
 62
     7
100
AcDbLine
 10
65.4768095324
 20
264.6603855514
 30
0.0
 11
65.9768095324
 21
265.1603855514
 31
0.0
  0
LINE
  5
207
330
120
100
AcDbEntity
  8
MEGA_000572
  6
Continuous
 62
     7
100
AcDbLine
 10
65.9768095324
 20
271.6603855514
 30
0.0
 11
65.4768095324
 21
272.1603855514
 31
0.0
  0
LINE
  5
208
330
120
100
AcDbEntity
  8
MEGA_000572
  6
Continuous
 62
     7
100
AcDbLine
 10
65.4768095324
 20
164.5103855514
 30
0.0
 11
65.9768095324
 21
165.0103855514
 31
0.0
  0
LINE
  5
209
330
120
100
AcDbEntity
  8
MEGA_000572
  6
Continuous
 62
     7
100
AcDbLine
 10
65.9768095324
 20
159.8103855514
 30
0.0
 11
65.4768095324
 21
160.3103855514
 31
0.0
  0
LINE
  5
20A
330
120
100
AcDbEntity
  8
MEGA_000572
  6
Continuous
 62
     7
100
AcDbLine
 10
65.4768095324
 20
160.3103855514
 30
0.0
 11
65.4768095324
 21
164.5103855514
 31
0.0
  0
LINE
  5
20B
330
120
100
AcDbEntity
  8
MEGA_000572
  6
Continuous
 62
     7
100
AcDbLine
 10
65.9768095324
 20
165.0103855514
 30
0.0
 11
65.9768095324
 21
159.8103855514
 31
0.0
  0
LINE
  5
20C
330
120
100
AcDbEntity
  8
MEGA_000572
  6
Continuous
 62
     7
100
AcDbLine
 10
56.4768095324
 20
166.9330721763
 30
0.0
 11
56.4768095324
 21
166.1603855514
 31
0.0
  0
LINE
  5
20D
330
120
100
AcDbEntity
  8
MEGA_000572
  6
Continuous
 62
     7
100
AcDbLine
 10
56.4768095324
 20
166.1603855514
 30
0.0
 11
65.4768095324
 21
166.1603855514
 31
0.0
  0
LINE
  5
20E
330
120
100
AcDbEntity
  8
MEGA_000572
  6
Continuous
 62
     7
100
AcDbLine
 10
56.4768095324
 20
166.9330721763
 30
0.0
 11
54.5879838727
 21
166.9330721763
 31
0.0
  0
LINE
  5
20F
330
120
100
AcDbEntity
  8
MEGA_000572
  6
Continuous
 62
     7
100
AcDbLine
 10
65.9768095324
 20
165.6603855514
 30
0.0
 11
65.4768095324
 21
166.1603855514
 31
0.0
  0
LINE
  5
210
330
120
100
AcDbEntity
  8
MEGA_000572
  6
Continuous
 62
     7
100
AcDbLine
 10
51.9768095324
 20
162.4103855514
 30
0.0
 11
54.5879838727
 21
166.9330721763
 31
0.0
  0
LINE
  5
211
330
120
100
AcDbEntity
  8
MEGA_000572
  6
Continuous
 62
     7
100
AcDbLine
 10
54.6946021157
 20
157.7030307127
 30
0.0
 11
51.9768095324
 21
162.4103855514
 31
0.0
  0
LINE
  5
212
330
120
100
AcDbEntity
  8
MEGA_000572
  6
Continuous
 62
     7
100
AcDbLine
 10
56.4768095324
 20
157.7030307127
 30
0.0
 11
54.6946021157
 21
157.7030307127
 31
0.0
  0
LINE
  5
213
330
120
100
AcDbEntity
  8
MEGA_000572
  6
Continuous
 62
     7
100
AcDbLine
 10
65.9768095324
 20
165.6603855514
 30
0.0
 11
65.9768095324
 21
165.0103855514
 31
0.0
  0
LINE
  5
214
330
120
100
AcDbEntity
  8
MEGA_000572
  6
Continuous
 62
     7
100
AcDbLine
 10
56.4768095324
 20
158.6603855514
 30
0.0
 11
56.4768095324
 21
157.7030307127
 31
0.0
  0
LINE
  5
215
330
120
100
AcDbEntity
  8
MEGA_000572
  6
Continuous
 62
     7
100
AcDbLine
 10
65.4768095324
 20
158.6603855514
 30
0.0
 11
56.4768095324
 21
158.6603855514
 31
0.0
  0
LINE
  5
216
330
120
100
AcDbEntity
  8
MEGA_000572
  6
Continuous
 62
     7
100
AcDbLine
 10
65.4768095324
 20
158.6603855514
 30
0.0
 11
65.9768095324
 21
159.1603855514
 31
0.0
  0
LINE
  5
217
330
120
100
AcDbEntity
  8
MEGA_000572
  6
Continuous
 62
     7
100
AcDbLine
 10
65.4768095324
 20
164.5103855514
 30
0.0
 11
53.9768095324
 21
164.5103855514
 31
0.0
  0
LINE
  5
218
330
120
100
AcDbEntity
  8
MEGA_000572
  6
Continuous
 62
     7
100
AcDbLine
 10
53.9768095324
 20
164.5103855514
 30
0.0
 11
52.7643739671
 21
162.4103855514
 31
0.0
  0
LINE
  5
219
330
120
100
AcDbEntity
  8
MEGA_000572
  6
Continuous
 62
     7
100
AcDbLine
 10
52.7643739671
 20
162.4103855514
 30
0.0
 11
53.9768095324
 21
160.3103855514
 31
0.0
  0
LINE
  5
21A
330
120
100
AcDbEntity
  8
MEGA_000572
  6
Continuous
 62
     7
100
AcDbLine
 10
65.9768095324
 20
159.8103855514
 30
0.0
 11
65.9768095324
 21
159.1603855514
 31
0.0
  0
LINE
  5
21B
330
120
100
AcDbEntity
  8
MEGA_000572
  6
Continuous
 62
     7
100
AcDbLine
 10
53.9768095324
 20
160.3103855514
 30
0.0
 11
65.4768095324
 21
160.3103855514
 31
0.0
  0
LINE
  5
21C
330
120
100
AcDbEntity
  8
MEGA_000572
  6
Continuous
 62
     7
100
AcDbLine
 10
65.8768095324
 20
159.9103855514
 30
0.0
 11
55.9768095324
 21
159.9103855514
 31
0.0
  0
LINE
  5
21D
330
120
100
AcDbEntity
  8
MEGA_000572
  6
Continuous
 62
     7
100
AcDbLine
 10
65.8768095324
 20
164.9103855514
 30
0.0
 11
55.9768095324
 21
164.9103855514
 31
0.0
  0
LINE
  5
21E
330
120
100
AcDbEntity
  8
MEGA_000572
  6
Continuous
 62
     7
100
AcDbLine
 10
55.9768095324
 20
164.9103855514
 30
0.0
 11
55.9768095324
 21
159.9103855514
 31
0.0
  0
HATCH
  5
21F
330
120
100
AcDbEntity
  8
MEGA_000572
  6
Continuous
 62
     7
100
AcDbHatch
 10
0.0
 20
0.0
 30
0.0
210
0.0
220
0.0
230
1.0
  2
LINE
 70
     0
 71
     0
 91
        1
 92
        1
 93
       18
 72
     1
 10
56.47680953235091
 20
166.9330721762616
 11
54.58798387266189
 21
166.9330721762616
 72
     1
 10
54.5879838726619
 20
166.9330721762616
 11
51.97680953235091
 21
162.4103855514228
 72
     1
 10
51.97680953235091
 20
162.4103855514228
 11
54.69460211565103
 21
157.7030307127132
 72
     1
 10
54.69460211565103
 20
157.7030307127132
 11
56.47680953235091
 21
157.7030307127132
 72
     1
 10
56.47680953235091
 20
157.7030307127132
 11
56.47680953235091
 21
158.6603855514228
 72
     1
 10
56.47680953235091
 20
158.6603855514228
 11
65.47680953235091
 21
158.6603855514228
 72
     1
 10
65.47680953235091
 20
158.6603855514228
 11
65.97680953235091
 21
159.1603855514228
 72
     1
 10
65.97680953235091
 20
159.1603855514228
 11
65.97680953235091
 21
159.8103855514229
 72
     1
 10
65.97680953235091
 20
159.8103855514229
 11
65.47680953235091
 21
160.3103855514228
 72
     1
 10
65.47680953235091
 20
160.3103855514228
 11
53.97680953235091
 21
160.3103855514228
 72
     1
 10
53.97680953235091
 20
160.3103855514228
 11
52.7643739670527
 21
162.4103855514229
 72
     1
 10
52.7643739670527
 20
162.4103855514229
 11
53.97680953235091
 21
164.5103855514228
 72
     1
 10
53.97680953235091
 20
164.5103855514228
 11
65.47680953235091
 21
164.5103855514228
 72
     1
 10
65.47680953235091
 20
164.5103855514228
 11
65.97680953235091
 21
165.0103855514228
 72
     1
 10
65.97680953235091
 20
165.0103855514228
 11
65.97680953235091
 21
165.6603855514228
 72
     1
 10
65.97680953235091
 20
165.6603855514228
 11
65.47680953235091
 21
166.1603855514228
 72
     1
 10
65.47680953235091
 20
166.1603855514228
 11
56.47680953235091
 21
166.1603855514228
 72
     1
 10
56.47680953235091
 20
166.1603855514228
 11
56.47680953235091
 21
166.9330721762616
 97
        0
 75
     0
 76
     1
 52
135.0
 41
1.0
 77
     0
 78
     1
 53
135.0
 43
0.0
 44
0.0
 45
-2.245064030267288
 46
-2.245064030267288
 79
     0
 98
        0
  0
LINE
  5
220
330
120
100
AcDbEntity
  8
MEGA_001997
  6
Continuous
 62
     7
100
AcDbLine
 10
32.5768095324
 20
94.4103855514
 30
0.0
 11
32.5768095324
 21
95.3103855514
 31
0.0
  0
LINE
  5
221
330
120
100
AcDbEntity
  8
MEGA_001997
  6
Continuous
 62
     7
100
AcDbLine
 10
32.5768095324
 20
117.5103855514
 30
0.0
 11
32.5768095324
 21
118.4103855514
 31
0.0
  0
LINE
  5
222
330
120
100
AcDbEntity
  8
MEGA_001997
  6
Continuous
 62
     7
100
AcDbLine
 10
58.5768095324
 20
117.5103855514
 30
0.0
 11
58.5768095324
 21
95.3103855514
 31
0.0
  0
LINE
  5
223
330
120
100
AcDbEntity
  8
MEGA_001997
  6
Continuous
 62
     7
100
AcDbLine
 10
32.5768095324
 20
117.5103855514
 30
0.0
 11
32.5768095324
 21
95.3103855514
 31
0.0
  0
LINE
  5
224
330
120
100
AcDbEntity
  8
MEGA_001997
  6
Continuous
 62
     7
100
AcDbLine
 10
32.5768095324
 20
95.3103855514
 30
0.0
 11
58.5768095324
 21
95.3103855514
 31
0.0
  0
LINE
  5
225
330
120
100
AcDbEntity
  8
MEGA_001997
  6
Continuous
 62
     7
100
AcDbLine
 10
58.5768095324
 20
95.3103855514
 30
0.0
 11
58.5768095324
 21
93.5103855514
 31
0.0
  0
LINE
  5
226
330
120
100
AcDbEntity
  8
MEGA_001997
  6
Continuous
 62
     7
100
AcDbLine
 10
58.5768095324
 20
93.5103855514
 30
0.0
 11
56.7768095324
 21
93.5103855514
 31
0.0
  0
LINE
  5
227
330
120
100
AcDbEntity
  8
MEGA_001997
  6
Continuous
 62
     7
100
AcDbLine
 10
56.7768095324
 20
93.5103855514
 30
0.0
 11
56.7768095324
 21
89.6103855514
 31
0.0
  0
LINE
  5
228
330
120
100
AcDbEntity
  8
MEGA_001997
  6
Continuous
 62
     7
100
AcDbLine
 10
56.7768095324
 20
89.6103855514
 30
0.0
 11
54.7768095324
 21
89.6103855514
 31
0.0
  0
LINE
  5
229
330
120
100
AcDbEntity
  8
MEGA_001997
  6
Continuous
 62
     7
100
AcDbLine
 10
54.7768095324
 20
89.6103855514
 30
0.0
 11
54.7768095324
 21
91.5103855514
 31
0.0
  0
LINE
  5
22A
330
120
100
AcDbEntity
  8
MEGA_001997
  6
Continuous
 62
     7
100
AcDbLine
 10
54.7768095324
 20
91.5103855514
 30
0.0
 11
50.5814901472
 21
91.5103855514
 31
0.0
  0
LINE
  5
22B
330
120
100
AcDbEntity
  8
MEGA_001997
  6
Continuous
 62
     7
100
AcDbLine
 10
50.5814901472
 20
91.5103855514
 30
0.0
 11
32.5768095324
 21
94.4103855514
 31
0.0
  0
LINE
  5
22C
330
120
100
AcDbEntity
  8
MEGA_001997
  6
Continuous
 62
     7
100
AcDbLine
 10
58.5768095324
 20
117.5103855514
 30
0.0
 11
32.5768095324
 21
117.5103855514
 31
0.0
  0
LINE
  5
22D
330
120
100
AcDbEntity
  8
MEGA_001997
  6
Continuous
 62
     7
100
AcDbLine
 10
58.5768095324
 20
119.3103855514
 30
0.0
 11
58.5768095324
 21
117.5103855514
 31
0.0
  0
LINE
  5
22E
330
120
100
AcDbEntity
  8
MEGA_001997
  6
Continuous
 62
     7
100
AcDbLine
 10
56.7768095324
 20
119.3103855514
 30
0.0
 11
58.5768095324
 21
119.3103855514
 31
0.0
  0
LINE
  5
22F
330
120
100
AcDbEntity
  8
MEGA_001997
  6
Continuous
 62
     7
100
AcDbLine
 10
56.7768095324
 20
123.2103855514
 30
0.0
 11
56.7768095324
 21
119.3103855514
 31
0.0
  0
LINE
  5
230
330
120
100
AcDbEntity
  8
MEGA_001997
  6
Continuous
 62
     7
100
AcDbLine
 10
54.7768095324
 20
123.2103855514
 30
0.0
 11
56.7768095324
 21
123.2103855514
 31
0.0
  0
LINE
  5
231
330
120
100
AcDbEntity
  8
MEGA_001997
  6
Continuous
 62
     7
100
AcDbLine
 10
54.7768095324
 20
121.3103855514
 30
0.0
 11
54.7768095324
 21
123.2103855514
 31
0.0
  0
LINE
  5
232
330
120
100
AcDbEntity
  8
MEGA_001997
  6
Continuous
 62
     7
100
AcDbLine
 10
50.5814901472
 20
121.3103855514
 30
0.0
 11
54.7768095324
 21
121.3103855514
 31
0.0
  0
LINE
  5
233
330
120
100
AcDbEntity
  8
MEGA_001997
  6
Continuous
 62
     7
100
AcDbLine
 10
32.5768095324
 20
118.4103855514
 30
0.0
 11
50.5814901472
 21
121.3103855514
 31
0.0
  0
HATCH
  5
234
330
120
100
AcDbEntity
  8
MEGA_001997
  6
Continuous
 62
     7
100
AcDbHatch
 10
0.0
 20
0.0
 30
0.0
210
0.0
220
0.0
230
1.0
  2
LINE
 70
     0
 71
     0
 91
        1
 92
        1
 93
        9
 72
     1
 10
32.57680953235093
 20
95.31038555142285
 11
32.57680953235093
 21
94.41038555142286
 72
     1
 10
32.57680953235093
 20
94.41038555142285
 11
50.5814901471883
 21
91.51038555142283
 72
     1
 10
50.5814901471883
 20
91.51038555142284
 11
54.77680953235093
 21
91.51038555142286
 72
     1
 10
54.77680953235093
 20
91.51038555142286
 11
54.77680953235094
 21
89.61038555142285
 72
     1
 10
54.77680953235094
 20
89.61038555142285
 11
56.77680953235093
 21
89.61038555142284
 72
     1
 10
56.77680953235093
 20
89.61038555142284
 11
56.77680953235093
 21
93.51038555142284
 72
     1
 10
56.77680953235093
 20
93.51038555142284
 11
58.57680953235092
 21
93.51038555142286
 72
     1
 10
58.57680953235092
 20
93.51038555142286
 11
58.57680953235094
 21
95.31038555142285
 72
     1
 10
58.57680953235094
 20
95.31038555142285
 11
32.57680953235092
 21
95.31038555142285
 97
        0
 75
     0
 76
     1
 52
45.0
 41
2.0
 77
     0
 78
     1
 53
45.0
 43
0.0
 44
0.0
 45
-4.490128060534576
 46
4.490128060534577
 79
     0
 98
        0
  0
HATCH
  5
235
330
120
100
AcDbEntity
  8
MEGA_001997
  6
Continuous
 62
     7
100
AcDbHatch
 10
0.0
 20
0.0
 30
0.0
210
0.0
220
0.0
230
1.0
  2
LINE
 70
     0
 71
     0
 91
        1
 92
        1
 93
        9
 72
     1
 10
58.57680953235094
 20
117.5103855514228
 11
58.57680953235093
 21
119.3103855514228
 72
     1
 10
58.57680953235093
 20
119.3103855514228
 11
56.77680953235092
 21
119.3103855514228
 72
     1
 10
56.77680953235092
 20
119.3103855514228
 11
56.77680953235092
 21
123.2103855514228
 72
     1
 10
56.77680953235092
 20
123.2103855514228
 11
54.77680953235093
 21
123.2103855514228
 72
     1
 10
54.77680953235093
 20
123.2103855514228
 11
54.77680953235092
 21
121.3103855514228
 72
     1
 10
54.77680953235092
 20
121.3103855514228
 11
50.58149014718829
 21
121.3103855514228
 72
     1
 10
50.58149014718829
 20
121.3103855514228
 11
32.57680953235092
 21
118.4103855514228
 72
     1
 10
32.57680953235093
 20
118.4103855514228
 11
32.57680953235093
 21
117.5103855514228
 72
     1
 10
32.57680953235093
 20
117.5103855514228
 11
58.57680953235094
 21
117.5103855514228
 97
        0
 75
     0
 76
     1
 52
45.0
 41
2.0
 77
     0
 78
     1
 53
45.0
 43
0.0
 44
0.0
 45
-4.490128060534576
 46
4.490128060534577
 79
     0
 98
        0
  0
ARC
  5
236
330
120
100
AcDbEntity
  8
MEGA_000863
  6
Continuous
 62
     7
100
AcDbCircle
 10
58.0268095324
 20
175.4103855514
 30
0.0
 40
0.2500000000000002
100
AcDbArc
 50
180.0
 51
0.0
  0
ARC
  5
237
330
120
100
AcDbEntity
  8
MEGA_000863
  6
Continuous
 62
     7
100
AcDbCircle
 10
58.0268095324
 20
193.4103855514
 30
0.0
 40
0.2500000000000001
100
AcDbArc
 50
0.0
 51
180.0
  0
LINE
  5
238
330
120
100
AcDbEntity
  8
MEGA_000863
  6
Continuous
 62
     7
100
AcDbLine
 10
49.7768095324
 20
176.2103855514
 30
0.0
 11
49.7768095324
 21
192.6103855514
 31
0.0
  0
LINE
  5
239
330
120
100
AcDbEntity
  8
MEGA_000863
  6
Continuous
 62
     7
100
AcDbLine
 10
60.2768095324
 20
176.2103855514
 30
0.0
 11
60.2768095324
 21
192.6103855514
 31
0.0
  0
LINE
  5
23A
330
120
100
AcDbEntity
  8
MEGA_000863
  6
Continuous
 62
     7
100
AcDbLine
 10
60.2768095324
 20
176.2103855514
 30
0.0
 11
60.2768095324
 21
175.4103855514
 31
0.0
  0
LINE
  5
23B
330
120
100
AcDbEntity
  8
MEGA_000863
  6
Continuous
 62
     7
100
AcDbLine
 10
49.7768095324
 20
176.2103855514
 30
0.0
 11
60.2768095324
 21
176.2103855514
 31
0.0
  0
LINE
  5
23C
330
120
100
AcDbEntity
  8
MEGA_000863
  6
Continuous
 62
     7
100
AcDbLine
 10
49.7768095324
 20
173.5745991138
 30
0.0
 11
49.7768095324
 21
176.2103855514
 31
0.0
  0
ARC
  5
23D
330
120
100
AcDbEntity
  8
MEGA_000863
  6
Continuous
 62
     7
100
AcDbCircle
 10
51.2768095324
 20
173.5745991138
 30
0.0
 40
1.500000000000002
100
AcDbArc
 50
180.0
 51
250.5287793655
  0
LINE
  5
23E
330
120
100
AcDbEntity
  8
MEGA_000863
  6
Continuous
 62
     7
100
AcDbLine
 10
50.7768095324
 20
175.4103855514
 30
0.0
 11
50.7768095324
 21
172.1603855514
 31
0.0
  0
LINE
  5
23F
330
120
100
AcDbEntity
  8
MEGA_000863
  6
Continuous
 62
     7
100
AcDbLine
 10
57.7768095324
 20
175.4103855514
 30
0.0
 11
50.7768095324
 21
175.4103855514
 31
0.0
  0
LINE
  5
240
330
120
100
AcDbEntity
  8
MEGA_000863
  6
Continuous
 62
     7
100
AcDbLine
 10
60.2768095324
 20
175.4103855514
 30
0.0
 11
58.2768095324
 21
175.4103855514
 31
0.0
  0
LINE
  5
241
330
120
100
AcDbEntity
  8
MEGA_000863
  6
Continuous
 62
     7
100
AcDbLine
 10
60.2768095324
 20
193.4103855514
 30
0.0
 11
60.2768095324
 21
192.6103855514
 31
0.0
  0
LINE
  5
242
330
120
100
AcDbEntity
  8
MEGA_000863
  6
Continuous
 62
     7
100
AcDbLine
 10
60.2768095324
 20
192.6103855514
 30
0.0
 11
49.7768095324
 21
192.6103855514
 31
0.0
  0
LINE
  5
243
330
120
100
AcDbEntity
  8
MEGA_000863
  6
Continuous
 62
     7
100
AcDbLine
 10
49.7768095324
 20
192.6103855514
 30
0.0
 11
49.7768095324
 21
195.246171989
 31
0.0
  0
ARC
  5
244
330
120
100
AcDbEntity
  8
MEGA_000863
  6
Continuous
 62
     7
100
AcDbCircle
 10
51.2768095324
 20
195.246171989
 30
0.0
 40
1.500000000000001
100
AcDbArc
 50
109.4712206345
 51
180.0
  0
LINE
  5
245
330
120
100
AcDbEntity
  8
MEGA_000863
  6
Continuous
 62
     7
100
AcDbLine
 10
50.7768095324
 20
196.6603855514
 30
0.0
 11
50.7768095324
 21
193.4103855514
 31
0.0
  0
LINE
  5
246
330
120
100
AcDbEntity
  8
MEGA_000863
  6
Continuous
 62
     7
100
AcDbLine
 10
50.7768095324
 20
193.4103855514
 30
0.0
 11
57.7768095324
 21
193.4103855514
 31
0.0
  0
LINE
  5
247
330
120
100
AcDbEntity
  8
MEGA_000863
  6
Continuous
 62
     7
100
AcDbLine
 10
58.2768095324
 20
193.4103855514
 30
0.0
 11
60.2768095324
 21
193.4103855514
 31
0.0
  0
HATCH
  5
248
330
120
100
AcDbEntity
  8
MEGA_000863
  6
Continuous
 62
     7
100
AcDbHatch
 10
0.0
 20
0.0
 30
0.0
210
0.0
220
0.0
230
1.0
  2
NET
 70
     0
 71
     0
 91
        1
 92
        1
 93
        8
 72
     1
 10
60.27680953235092
 20
176.2103855514228
 11
49.77680953235092
 21
176.2103855514228
 72
     1
 10
49.77680953235091
 20
176.2103855514228
 11
49.77680953235091
 21
173.5745991137959
 72
     2
 10
51.27680953235091
 20
173.5745991137959
 40
1.5
 50
180.0
 51
250.5287793655095
 73
     1
 72
     1
 10
50.77680953235091
 20
172.1603855514228
 11
50.77680953235091
 21
175.4103855514228
 72
     1
 10
50.77680953235091
 20
175.4103855514228
 11
57.77680953235092
 21
175.4103855514228
 72
     2
 10
58.02680953235092
 20
175.4103855514228
 40
0.25
 50
180.0
 51
360.0
 73
     1
 72
     1
 10
58.27680953235092
 20
175.4103855514228
 11
60.27680953235092
 21
175.4103855514228
 72
     1
 10
60.27680953235092
 20
175.4103855514228
 11
60.27680953235092
 21
176.2103855514228
 97
        0
 75
     0
 76
     1
 52
45.0
 41
1.0
 77
     0
 78
     2
 53
45.0
 43
0.0
 44
0.0
 45
-2.245064030267288
 46
2.245064030267288
 79
     0
 53
135.0
 43
0.0
 44
0.0
 45
-2.245064030267288
 46
-2.245064030267288
 79
     0
 98
        0
  0
HATCH
  5
249
330
120
100
AcDbEntity
  8
MEGA_000863
  6
Continuous
 62
     7
100
AcDbHatch
 10
0.0
 20
0.0
 30
0.0
210
0.0
220
0.0
230
1.0
  2
NET
 70
     0
 71
     0
 91
        1
 92
        1
 93
        8
 72
     1
 10
60.27680953235092
 20
193.4103855514228
 11
58.27680953235092
 21
193.4103855514228
 72
     2
 10
58.02680953235092
 20
193.4103855514228
 40
0.25
 50
0.0
 51
180.0
 73
     1
 72
     1
 10
57.77680953235092
 20
193.4103855514228
 11
50.77680953235091
 21
193.4103855514228
 72
     1
 10
50.77680953235091
 20
193.4103855514228
 11
50.77680953235091
 21
196.6603855514228
 72
     2
 10
51.27680953235091
 20
195.2461719890497
 40
1.5
 50
109.4712206344903
 51
180.0
 73
     1
 72
     1
 10
49.77680953235091
 20
195.2461719890497
 11
49.77680953235091
 21
192.6103855514228
 72
     1
 10
49.77680953235091
 20
192.6103855514228
 11
60.27680953235092
 21
192.6103855514228
 72
     1
 10
60.27680953235092
 20
192.6103855514228
 11
60.27680953235092
 21
193.4103855514228
 97
        0
 75
     0
 76
     1
 52
45.0
 41
1.0
 77
     0
 78
     2
 53
45.0
 43
0.0
 44
0.0
 45
-2.245064030267288
 46
2.245064030267288
 79
     0
 53
135.0
 43
0.0
 44
0.0
 45
-2.245064030267288
 46
-2.245064030267288
 79
     0
 98
        0
  0
LINE
  5
24B
330
120
100
AcDbEntity
  8
SCHRAUBE_DIN_EN_
  6
Continuous
 62
     7
100
AcDbLine
 10
58.7768095324
 20
131.5703855514
 30
0.0
 11
58.7768095324
 21
131.1103855514
 31
0.0
  0
LINE
  5
24C
330
120
100
AcDbEntity
  8
SCHRAUBE_DIN_EN_
  6
Continuous
 62
     7
100
AcDbLine
 10
58.7768095324
 20
132.6437191119
 30
0.0
 11
58.7768095324
 21
131.5703855514
 31
0.0
  0
LINE
  5
24D
330
120
100
AcDbEntity
  8
SCHRAUBE_DIN_EN_
  6
Continuous
 62
     7
100
AcDbLine
 10
58.7768095324
 20
133.10371892
 30
0.0
 11
58.7768095324
 21
132.6437191119
 31
0.0
  0
LINE
  5
24E
330
120
100
AcDbEntity
  8
SCHRAUBE_DIN_EN_
  6
Continuous
 62
     7
100
AcDbLine
 10
58.7768095324
 20
133.7170522533
 30
0.0
 11
58.7768095324
 21
133.10371892
 31
0.0
  0
LINE
  5
24F
330
120
100
AcDbEntity
  8
SCHRAUBE_DIN_EN_
  6
Continuous
 62
     7
100
AcDbLine
 10
58.7768095324
 20
134.1770524453
 30
0.0
 11
58.7768095324
 21
133.7170522533
 31
0.0
  0
LINE
  5
250
330
120
100
AcDbEntity
  8
SCHRAUBE_DIN_EN_
  6
Continuous
 62
     7
100
AcDbLine
 10
58.7768095324
 20
135.2503855514
 30
0.0
 11
58.7768095324
 21
134.1770524453
 31
0.0
  0
LINE
  5
251
330
120
100
AcDbEntity
  8
SCHRAUBE_DIN_EN_
  6
Continuous
 62
     7
100
AcDbLine
 10
58.7768095324
 20
135.7103855514
 30
0.0
 11
58.7768095324
 21
135.2503855514
 31
0.0
  0
LINE
  5
252
330
120
100
AcDbEntity
  8
SCHRAUBE_DIN_EN_
  6
Continuous
 62
     7
100
AcDbLine
 10
53.7768095324
 20
131.4103855514
 30
0.0
 11
53.7768095324
 21
135.4103855514
 31
0.0
  0
LINE
  5
253
330
120
100
AcDbEntity
  8
SCHRAUBE_DIN_EN_
  6
Continuous
 62
     7
100
AcDbLine
 10
53.7768095324
 20
135.4103855514
 30
0.0
 11
55.6340820255
 21
135.4103855514
 31
0.0
  0
LINE
  5
254
330
120
100
AcDbEntity
  8
SCHRAUBE_DIN_EN_
  6
Continuous
 62
     7
100
AcDbLine
 10
55.6340820255
 20
131.4103855514
 30
0.0
 11
53.7768095324
 21
131.4103855514
 31
0.0
  0
ARC
  5
255
330
120
100
AcDbEntity
  8
SCHRAUBE_DIN_EN_
  6
Continuous
 62
     7
100
AcDbCircle
 10
55.3697027512
 20
136.3748043398
 30
0.0
 40
1.000000000000002
100
AcDbArc
 50
285.3300724473
 51
315.0
  0
ARC
  5
256
330
120
100
AcDbEntity
  8
SCHRAUBE_DIN_EN_
  6
Continuous
 62
     7
100
AcDbCircle
 10
55.3697027512
 20
130.4459667631
 30
0.0
 40
0.9999999999999991
100
AcDbArc
 50
45.0
 51
74.6699275527
  0
LINE
  5
257
330
120
100
AcDbEntity
  8
SCHRAUBE_DIN_EN_
  6
Continuous
 62
     7
100
AcDbLine
 10
56.0768095324
 20
135.6676975586
 30
0.0
 11
58.0194975252
 21
137.6103855514
 31
0.0
  0
LINE
  5
258
330
120
100
AcDbEntity
  8
SCHRAUBE_DIN_EN_
  6
Continuous
 62
     7
100
AcDbLine
 10
58.0194975252
 20
129.2103855514
 30
0.0
 11
56.0768095324
 21
131.1530735443
 31
0.0
  0
LINE
  5
259
330
120
100
AcDbEntity
  8
SCHRAUBE_DIN_EN_
  6
Continuous
 62
     7
100
AcDbLine
 10
58.0194975252
 20
137.6103855514
 30
0.0
 11
58.7768095324
 21
137.6103855514
 31
0.0
  0
LINE
  5
25A
330
120
100
AcDbEntity
  8
SCHRAUBE_DIN_EN_
  6
Continuous
 62
     7
100
AcDbLine
 10
58.7768095324
 20
129.2103855514
 30
0.0
 11
58.0194975252
 21
129.2103855514
 31
0.0
  0
LINE
  5
25B
330
120
100
AcDbEntity
  8
SCHRAUBE_DIN_EN_
  6
Continuous
 62
     7
100
AcDbLine
 10
58.7768095324
 20
137.6103855514
 30
0.0
 11
58.7768095324
 21
135.7103855514
 31
0.0
  0
LINE
  5
25C
330
120
100
AcDbEntity
  8
SCHRAUBE_DIN_EN_
  6
Continuous
 62
     7
100
AcDbLine
 10
58.7768095324
 20
131.1103855514
 30
0.0
 11
58.7768095324
 21
129.2103855514
 31
0.0
  0
LINE
  5
25D
330
120
100
AcDbEntity
  8
SCHRAUBE_DIN_EN_
  6
Continuous
 62
     7
100
AcDbLine
 10
58.7768095324
 20
77.5703855514
 30
0.0
 11
58.7768095324
 21
77.1103855514
 31
0.0
  0
LINE
  5
25E
330
120
100
AcDbEntity
  8
SCHRAUBE_DIN_EN_
  6
Continuous
 62
     7
100
AcDbLine
 10
58.7768095324
 20
78.6437191119
 30
0.0
 11
58.7768095324
 21
77.5703855514
 31
0.0
  0
LINE
  5
25F
330
120
100
AcDbEntity
  8
SCHRAUBE_DIN_EN_
  6
Continuous
 62
     7
100
AcDbLine
 10
58.7768095324
 20
79.10371892
 30
0.0
 11
58.7768095324
 21
78.6437191119
 31
0.0
  0
LINE
  5
260
330
120
100
AcDbEntity
  8
SCHRAUBE_DIN_EN_
  6
Continuous
 62
     7
100
AcDbLine
 10
58.7768095324
 20
79.7170522533
 30
0.0
 11
58.7768095324
 21
79.10371892
 31
0.0
  0
LINE
  5
261
330
120
100
AcDbEntity
  8
SCHRAUBE_DIN_EN_
  6
Continuous
 62
     7
100
AcDbLine
 10
58.7768095324
 20
80.1770524453
 30
0.0
 11
58.7768095324
 21
79.7170522533
 31
0.0
  0
LINE
  5
262
330
120
100
AcDbEntity
  8
SCHRAUBE_DIN_EN_
  6
Continuous
 62
     7
100
AcDbLine
 10
58.7768095324
 20
81.2503855514
 30
0.0
 11
58.7768095324
 21
80.1770524453
 31
0.0
  0
LINE
  5
263
330
120
100
AcDbEntity
  8
SCHRAUBE_DIN_EN_
  6
Continuous
 62
     7
100
AcDbLine
 10
58.7768095324
 20
81.7103855514
 30
0.0
 11
58.7768095324
 21
81.2503855514
 31
0.0
  0
LINE
  5
264
330
120
100
AcDbEntity
  8
SCHRAUBE_DIN_EN_
  6
Continuous
 62
     7
100
AcDbLine
 10
53.7768095324
 20
77.4103855514
 30
0.0
 11
53.7768095324
 21
81.4103855514
 31
0.0
  0
LINE
  5
265
330
120
100
AcDbEntity
  8
SCHRAUBE_DIN_EN_
  6
Continuous
 62
     7
100
AcDbLine
 10
53.7768095324
 20
81.4103855514
 30
0.0
 11
55.6340820255
 21
81.4103855514
 31
0.0
  0
LINE
  5
266
330
120
100
AcDbEntity
  8
SCHRAUBE_DIN_EN_
  6
Continuous
 62
     7
100
AcDbLine
 10
55.6340820255
 20
77.4103855514
 30
0.0
 11
53.7768095324
 21
77.4103855514
 31
0.0
  0
ARC
  5
267
330
120
100
AcDbEntity
  8
SCHRAUBE_DIN_EN_
  6
Continuous
 62
     7
100
AcDbCircle
 10
55.3697027512
 20
82.3748043398
 30
0.0
 40
0.999999999999995
100
AcDbArc
 50
285.3300724473
 51
315.0
  0
ARC
  5
268
330
120
100
AcDbEntity
  8
SCHRAUBE_DIN_EN_
  6
Continuous
 62
     7
100
AcDbCircle
 10
55.3697027512
 20
76.4459667631
 30
0.0
 40
0.9999999999999991
100
AcDbArc
 50
45.0
 51
74.6699275527
  0
LINE
  5
269
330
120
100
AcDbEntity
  8
SCHRAUBE_DIN_EN_
  6
Continuous
 62
     7
100
AcDbLine
 10
56.0768095324
 20
81.6676975586
 30
0.0
 11
58.0194975252
 21
83.6103855514
 31
0.0
  0
LINE
  5
26A
330
120
100
AcDbEntity
  8
SCHRAUBE_DIN_EN_
  6
Continuous
 62
     7
100
AcDbLine
 10
58.0194975252
 20
75.2103855514
 30
0.0
 11
56.0768095324
 21
77.1530735443
 31
0.0
  0
LINE
  5
26B
330
120
100
AcDbEntity
  8
SCHRAUBE_DIN_EN_
  6
Continuous
 62
     7
100
AcDbLine
 10
58.0194975252
 20
83.6103855514
 30
0.0
 11
58.7768095324
 21
83.6103855514
 31
0.0
  0
LINE
  5
26C
330
120
100
AcDbEntity
  8
SCHRAUBE_DIN_EN_
  6
Continuous
 62
     7
100
AcDbLine
 10
58.7768095324
 20
75.2103855514
 30
0.0
 11
58.0194975252
 21
75.2103855514
 31
0.0
  0
LINE
  5
26D
330
120
100
AcDbEntity
  8
SCHRAUBE_DIN_EN_
  6
Continuous
 62
     7
100
AcDbLine
 10
58.7768095324
 20
83.6103855514
 30
0.0
 11
58.7768095324
 21
81.7103855514
 31
0.0
  0
LINE
  5
26E
330
120
100
AcDbEntity
  8
SCHRAUBE_DIN_EN_
  6
Continuous
 62
     7
100
AcDbLine
 10
58.7768095324
 20
77.1103855514
 30
0.0
 11
58.7768095324
 21
75.2103855514
 31
0.0
  0
ENDBLK
  5
270
330
120
100
AcDbEntity
  8
0
100
AcDbBlockEnd
  0
BLOCK
  5
273
330
272
100
AcDbEntity
  8
0
100
AcDbBlockBegin
  2
_OBLIQUE
 70
     0
 10
0.0
 20
0.0
 30
0.0
  3
_OBLIQUE
  1
_OBLIQUE
  0
LINE
  5
275
330
272
100
AcDbEntity
  8
0
  6
ByBlock
 62
     0
370
    -2
100
AcDbLine
 10
-0.5
 20
-0.5
 30
0.0
 11
0.5
 21
0.5
 31
0.0
  0
ENDBLK
  5
274
330
272
100
AcDbEntity
  8
0
100
AcDbBlockEnd
  0
BLOCK
  5
277
330
276
100
AcDbEntity
  8
0
100
AcDbBlockBegin
  2
_DOT
 70
     0
 10
0.0
 20
0.0
 30
0.0
  3
_DOT
  1
_DOT
  0
POLYLINE
  5
279
330
276
100
AcDbEntity
  8
0
  6
ByBlock
 62
     0
100
AcDb2dPolyline
 66
     1
 10
0.0
 20
0.0
 30
0.0
 70
     1
 40
0.5
 41
0.5
  0
VERTEX
  5
27B
330
279
100
AcDbEntity
  8
0
  6
ByBlock
 62
     0
100
AcDbVertex
100
AcDb2dVertex
 10
-0.25
 20
0.0
 30
0.0
 42
1.0
  0
VERTEX
  5
27C
330
279
100
AcDbEntity
  8
0
  6
ByBlock
 62
     0
100
AcDbVertex
100
AcDb2dVertex
 10
0.25
 20
0.0
 30
0.0
 42
1.0
  0
SEQEND
  5
27D
330
279
100
AcDbEntity
  8
0
  6
ByBlock
 62
     0
  0
LINE
  5
27A
330
276
100
AcDbEntity
  8
0
  6
ByBlock
 62
     0
370
    -2
100
AcDbLine
 10
-0.5
 20
0.0
 30
0.0
 11
-1.0
 21
0.0
 31
0.0
  0
ENDBLK
  5
278
330
276
100
AcDbEntity
  8
0
100
AcDbBlockEnd
  0
BLOCK
  5
281
330
27E
100
AcDbEntity
  8
0
100
AcDbBlockBegin
  2
_SE_FILLED
 70
     0
 10
0.0
 20
0.0
 30
0.0
  3
_SE_FILLED
  1
_SE_FILLED
  0
SOLID
  5
27F
330
27E
100
AcDbEntity
  8
0
 62
     0
100
AcDbTrace
 10
0.0
 20
0.0
 30
0.0
 11
-1.0
 21
-0.1665
 31
0.0
 12
-1.0
 22
0.1665
 32
0.0
 13
0.0
 23
0.0
 33
0.0
  0
LINE
  5
280
330
27E
100
AcDbEntity
  8
0
 62
     0
100
AcDbLine
 10
0.0
 20
0.0
 30
0.0
 11
-1.0
 21
0.0
 31
0.0
  0
ENDBLK
  5
282
330
27E
100
AcDbEntity
  8
0
100
AcDbBlockEnd
  0
BLOCK
  5
28C
330
285
100
AcDbEntity
  8
0
100
AcDbBlockBegin
  2
DMBLK55
 70
     0
 10
0.0
 20
0.0
 30
0.0
  3
DMBLK55
  1
DMBLK55
  0
HATCH
  5
286
330
285
100
AcDbEntity
  8
Default
  6
Continuous
 62
     7
100
AcDbHatch
 10
0.0
 20
0.0
 30
0.0
210
0.0
220
0.0
230
1.0
  2
SOLID
 70
     1
 71
     0
 91
        1
 92
        1
 93
        3
 72
     1
 10
130.0132759363945
 20
288.950936557044
 11
127.0132759103175
 21
288.4509365526978
 72
     1
 10
127.0132759103175
 20
288.4509365526978
 11
130.0132759363945
 21
287.9509365483516
 72
     1
 10
130.0132759363945
 20
287.9509365483516
 11
130.0132759363945
 21
288.950936557044
 97
        0
 75
     0
 76
     1
 98
        0
  0
HATCH
  5
287
330
285
100
AcDbEntity
  8
Default
  6
Continuous
 62
     7
100
AcDbHatch
 10
0.0
 20
0.0
 30
0.0
210
0.0
220
0.0
230
1.0
  2
SOLID
 70
     1
 71
     0
 91
        1
 92
        1
 93
        3
 72
     1
 10
176.013276957124
 20
288.950936557044
 11
176.013276957124
 21
287.9509365483516
 72
     1
 10
176.013276957124
 20
287.9509365483516
 11
179.0132769832011
 21
288.4509365526978
 72
     1
 10
179.0132769832011
 20
288.4509365526978
 11
176.013276957124
 21
288.950936557044
 97
        0
 75
     0
 76
     1
 98
        0
  0
LINE
  5
288
330
285
100
AcDbEntity
  8
Default
  6
Continuous
 62
     7
100
AcDbLine
 10
127.0132759103
 20
273.5913076891
 30
0.0
 11
127.0132759103
 21
289.9509365657
 31
0.0
  0
LINE
  5
289
330
285
100
AcDbEntity
  8
Default
  6
Continuous
 62
     7
100
AcDbLine
 10
179.0132759103
 20
273.5913076891
 30
0.0
 11
179.0132759103
 21
289.9509365657
 31
0.0
  0
LINE
  5
28A
330
285
100
AcDbEntity
  8
Default
  6
Continuous
 62
     7
100
AcDbLine
 10
127.0132759103
 20
288.4509365527
 30
0.0
 11
179.0132769832
 21
288.4509365527
 31
0.0
  0
TEXT
  5
28B
330
285
100
AcDbEntity
  8
Default
  6
Continuous
 62
     7
100
AcDbText
 10
151.240549174
 20
289.2009365527
 30
0.0
 40
3.0
  1
52
  7
SEACAD_Solid_Edge_ISO
 11
151.240549174
 21
292.2009365527
 31
0.0
100
AcDbText
 73
     3
  0
ENDBLK
  5
28D
330
285
100
AcDbEntity
  8
0
100
AcDbBlockEnd
  0
BLOCK
  5
296
330
28F
100
AcDbEntity
  8
0
100
AcDbBlockBegin
  2
DMBLK56
 70
     0
 10
0.0
 20
0.0
 30
0.0
  3
DMBLK56
  1
DMBLK56
  0
HATCH
  5
290
330
28F
100
AcDbEntity
  8
Default
  6
Continuous
 62
     7
100
AcDbHatch
 10
0.0
 20
0.0
 30
0.0
210
0.0
220
0.0
230
1.0
  2
SOLID
 70
     1
 71
     0
 91
        1
 92
        1
 93
        3
 72
     1
 10
194.7821122658441
 20
279.4103855774999
 11
193.7821122571518
 21
279.4103855774999
 72
     1
 10
193.7821122571518
 20
279.4103855774999
 11
194.282112261498
 21
276.4103855514228
 72
     1
 10
194.282112261498
 20
276.4103855514228
 11
194.7821122658441
 21
279.4103855774999
 97
        0
 75
     0
 76
     1
 98
        0
  0
HATCH
  5
291
330
28F
100
AcDbEntity
  8
Default
  6
Continuous
 62
     7
100
AcDbHatch
 10
0.0
 20
0.0
 30
0.0
210
0.0
220
0.0
230
1.0
  2
SOLID
 70
     1
 71
     0
 91
        1
 92
        1
 93
        3
 72
     1
 10
194.7821122658441
 20
265.4103855253457
 11
194.282112261498
 21
268.4103855514227
 72
     1
 10
194.282112261498
 20
268.4103855514227
 11
193.7821122571518
 21
265.4103855253457
 72
     1
 10
193.7821122571518
 20
265.4103855253457
 11
194.7821122658441
 21
265.4103855253457
 97
        0
 75
     0
 76
     1
 98
        0
  0
LINE
  5
292
330
28F
100
AcDbEntity
  8
Default
  6
Continuous
 62
     7
100
AcDbLine
 10
176.194198048
 20
276.4103855514
 30
0.0
 11
195.7821122745
 21
276.4103855514
 31
0.0
  0
LINE
  5
293
330
28F
100
AcDbEntity
  8
Default
  6
Continuous
 62
     7
100
AcDbLine
 10
171.0132759103
 20
268.4103855514
 30
0.0
 11
195.7821122745
 21
268.4103855514
 31
0.0
  0
LINE
  5
294
330
28F
100
AcDbEntity
  8
Default
  6
Continuous
 62
     7
100
AcDbLine
 10
194.2821122615
 20
282.4103856036
 30
0.0
 11
194.2821122615
 21
262.4103851193
 31
0.0
  0
TEXT
  5
295
330
28F
100
AcDbEntity
  8
Default
  6
Continuous
 62
     7
100
AcDbText
 10
193.5321122615
 20
271.4558399069
 30
0.0
 40
3.0
  1
8
 50
90.0
  7
SEACAD_Solid_Edge_ISO
 11
190.5321122615
 21
271.4558399069
 31
0.0
100
AcDbText
 73
     3
  0
ENDBLK
  5
297
330
28F
100
AcDbEntity
  8
0
100
AcDbBlockEnd
  0
BLOCK
  5
2A0
330
299
100
AcDbEntity
  8
0
100
AcDbBlockBegin
  2
DMBLK57
 70
     0
 10
0.0
 20
0.0
 30
0.0
  3
DMBLK57
  1
DMBLK57
  0
HATCH
  5
29A
330
299
100
AcDbEntity
  8
Default
  6
Continuous
 62
     7
100
AcDbHatch
 10
0.0
 20
0.0
 30
0.0
210
0.0
220
0.0
230
1.0
  2
SOLID
 70
     1
 71
     0
 91
        1
 92
        1
 93
        3
 72
     1
 10
194.9944690697139
 20
181.4103855253458
 11
194.4944690653678
 21
184.4103855514228
 72
     1
 10
194.4944690653678
 20
184.4103855514228
 11
193.9944690610216
 21
181.4103855253458
 72
     1
 10
193.9944690610216
 20
181.4103855253458
 11
194.9944690697139
 21
181.4103855253458
 97
        0
 75
     0
 76
     1
 98
        0
  0
HATCH
  5
29B
330
299
100
AcDbEntity
  8
Default
  6
Continuous
 62
     7
100
AcDbHatch
 10
0.0
 20
0.0
 30
0.0
210
0.0
220
0.0
230
1.0
  2
SOLID
 70
     1
 71
     0
 91
        1
 92
        1
 93
        3
 72
     1
 10
194.9944690697139
 20
165.4103856967091
 11
193.9944690610216
 21
165.4103856967091
 72
     1
 10
193.9944690610216
 20
165.4103856967091
 11
194.4944690653678
 21
162.4103856706321
 72
     1
 10
194.4944690653678
 20
162.4103856706321
 11
194.9944690697139
 21
165.4103856967091
 97
        0
 75
     0
 76
     1
 98
        0
  0
LINE
  5
29C
330
299
100
AcDbEntity
  8
Default
  6
Continuous
 62
     7
100
AcDbLine
 10
166.3487246001
 20
184.4103855514
 30
0.0
 11
195.9944690784
 21
184.4103855514
 31
0.0
  0
LINE
  5
29D
330
299
100
AcDbEntity
  8
Default
  6
Continuous
 62
     7
100
AcDbLine
 10
158.4679167458
 20
162.4103855514
 30
0.0
 11
195.9944690784
 21
162.4103855514
 31
0.0
  0
LINE
  5
29E
330
299
100
AcDbEntity
  8
Default
  6
Continuous
 62
     7
100
AcDbLine
 10
194.4944690654
 20
184.4103855514
 30
0.0
 11
194.4944690654
 21
162.4103856706
 31
0.0
  0
TEXT
  5
29F
330
299
100
AcDbEntity
  8
Default
  6
Continuous
 62
     7
100
AcDbText
 10
193.7444690654
 20
171.5694765201
 30
0.0
 40
3.0
  1
22
 50
90.0
  7
SEACAD_Solid_Edge_ISO
 11
190.7444690654
 21
171.5694765201
 31
0.0
100
AcDbText
 73
     3
  0
ENDBLK
  5
2A1
330
299
100
AcDbEntity
  8
0
100
AcDbBlockEnd
  0
BLOCK
  5
2AA
330
2A3
100
AcDbEntity
  8
0
100
AcDbBlockBegin
  2
DMBLK58
 70
     0
 10
0.0
 20
0.0
 30
0.0
  3
DMBLK58
  1
DMBLK58
  0
HATCH
  5
2A4
330
2A3
100
AcDbEntity
  8
Default
  6
Continuous
 62
     7
100
AcDbHatch
 10
0.0
 20
0.0
 30
0.0
210
0.0
220
0.0
230
1.0
  2
SOLID
 70
     1
 71
     0
 91
        1
 92
        1
 93
        3
 72
     1
 10
205.6898516667078
 20
273.4103855253458
 11
205.1898516623616
 21
276.4103855514228
 72
     1
 10
205.1898516623616
 20
276.4103855514228
 11
204.6898516580154
 21
273.4103855253458
 72
     1
 10
204.6898516580154
 20
273.4103855253458
 11
205.6898516667078
 21
273.4103855253458
 97
        0
 75
     0
 76
     1
 98
        0
  0
HATCH
  5
2A5
330
2A3
100
AcDbEntity
  8
Default
  6
Continuous
 62
     7
100
AcDbHatch
 10
0.0
 20
0.0
 30
0.0
210
0.0
220
0.0
230
1.0
  2
SOLID
 70
     1
 71
     0
 91
        1
 92
        1
 93
        3
 72
     1
 10
205.6898516667078
 20
187.4103853986859
 11
204.6898516580154
 21
187.4103853986859
 72
     1
 10
204.6898516580154
 20
187.4103853986859
 11
205.1898516623616
 21
184.4103853726089
 72
     1
 10
205.1898516623616
 20
184.4103853726089
 11
205.6898516667078
 21
187.4103853986859
 97
        0
 75
     0
 76
     1
 98
        0
  0
LINE
  5
2A6
330
2A3
100
AcDbEntity
  8
Default
  6
Continuous
 62
     7
100
AcDbLine
 10
176.194198048
 20
276.4103855514
 30
0.0
 11
206.6898516754
 21
276.4103855514
 31
0.0
  0
LINE
  5
2A7
330
2A3
100
AcDbEntity
  8
Default
  6
Continuous
 62
     7
100
AcDbLine
 10
165.7858099529
 20
184.4103855514
 30
0.0
 11
206.6898516754
 21
184.4103855514
 31
0.0
  0
LINE
  5
2A8
330
2A3
100
AcDbEntity
  8
Default
  6
Continuous
 62
     7
100
AcDbLine
 10
205.1898516624
 20
276.4103855514
 30
0.0
 11
205.1898516624
 21
184.4103853726
 31
0.0
  0
TEXT
  5
2A9
330
2A3
100
AcDbEntity
  8
Default
  6
Continuous
 62
     7
100
AcDbText
 10
204.4398516624
 20
228.5694763711
 30
0.0
 40
3.0
  1
92
 50
90.0
  7
SEACAD_Solid_Edge_ISO
 11
201.4398516624
 21
228.5694763711
 31
0.0
100
AcDbText
 73
     3
  0
ENDBLK
  5
2AB
330
2A3
100
AcDbEntity
  8
0
100
AcDbBlockEnd
  0
BLOCK
  5
2B6
330
2AD
100
AcDbEntity
  8
0
100
AcDbBlockBegin
  2
DMBLK59
 70
     0
 10
0.0
 20
0.0
 30
0.0
  3
DMBLK59
  1
DMBLK59
  0
HATCH
  5
2AE
330
2AD
100
AcDbEntity
  8
Default
  6
Continuous
 62
     7
100
AcDbHatch
 10
0.0
 20
0.0
 30
0.0
210
0.0
220
0.0
230
1.0
  2
SOLID
 70
     1
 71
     0
 91
        1
 92
        1
 93
        3
 72
     1
 10
205.689852022404
 20
181.4103855253458
 11
205.1898520180579
 21
184.4103855514228
 72
     1
 10
205.1898520180579
 20
184.4103855514228
 11
204.6898520137117
 21
181.4103855253458
 72
     1
 10
204.6898520137117
 20
181.4103855253458
 11
205.689852022404
 21
181.4103855253458
 97
        0
 75
     0
 76
     1
 98
        0
  0
HATCH
  5
2AF
330
2AD
100
AcDbEntity
  8
Default
  6
Continuous
 62
     7
100
AcDbHatch
 10
0.0
 20
0.0
 30
0.0
210
0.0
220
0.0
230
1.0
  2
SOLID
 70
     1
 71
     0
 91
        1
 92
        1
 93
        3
 72
     1
 10
205.689852022404
 20
109.4103839681745
 11
204.6898520137117
 21
109.4103839681745
 72
     1
 10
204.6898520137117
 20
109.4103839681745
 11
205.1898520180579
 21
106.4103839420974
 72
     1
 10
205.1898520180579
 20
106.4103839420974
 11
205.689852022404
 21
109.4103839681745
 97
        0
 75
     0
 76
     1
 98
        0
  0
LINE
  5
2B0
330
2AD
100
AcDbEntity
  8
Default
  6
Continuous
 62
     7
100
AcDbLine
 10
165.7858099529
 20
184.4103855514
 30
0.0
 11
206.6898520311
 21
184.4103855514
 31
0.0
  0
LINE
  5
2B1
330
2AD
100
AcDbEntity
  8
Default
  6
Continuous
 62
     7
100
AcDbLine
 10
167.4745548257
 20
106.4103855514
 30
0.0
 11
206.6898520311
 21
106.4103855514
 31
0.0
  0
LINE
  5
2B2
330
2AD
100
AcDbEntity
  8
Default
  6
Continuous
 62
     7
100
AcDbLine
 10
205.1898520181
 20
184.4103855514
 30
0.0
 11
205.1898520181
 21
106.4103839421
 31
0.0
  0
TEXT
  5
2B3
330
2AD
100
AcDbEntity
  8
Default
  6
Continuous
 62
     7
100
AcDbText
 10
204.4398520181
 20
143.5353847468
 30
0.0
 40
3.0
  1
78
 50
90.0
  7
SEACAD_Solid_Edge_ISO
 11
201.4398520181
 21
143.5353847468
 31
0.0
100
AcDbText
 73
     3
  0
TEXT
  5
2B4
330
2AD
100
AcDbEntity
  8
Default
  6
Continuous
 62
     7
100
AcDbText
 10
204.4398520181
 20
136.0081120195
 30
0.0
 40
3.0
  1
74 / 
 50
90.0
  7
SEACAD_Solid_Edge_ISO
 11
201.4398520181
 21
136.0081120195
 31
0.0
100
AcDbText
 73
     3
  0
TEXT
  5
2B5
330
2AD
100
AcDbEntity
  8
Default
  6
Continuous
 62
     7
100
AcDbText
 10
204.4398520181
 20
147.6535665649
 30
0.0
 40
3.0
  1
 / 94
 50
90.0
  7
SEACAD_Solid_Edge_ISO
 11
201.4398520181
 21
147.6535665649
 31
0.0
100
AcDbText
 73
     3
  0
ENDBLK
  5
2B7
330
2AD
100
AcDbEntity
  8
0
100
AcDbBlockEnd
  0
BLOCK
  5
2C0
330
2B9
100
AcDbEntity
  8
0
100
AcDbBlockBegin
  2
DMBLK60
 70
     0
 10
0.0
 20
0.0
 30
0.0
  3
DMBLK60
  1
DMBLK60
  0
HATCH
  5
2BA
330
2B9
100
AcDbEntity
  8
Default
  6
Continuous
 62
     7
100
AcDbHatch
 10
0.0
 20
0.0
 30
0.0
210
0.0
220
0.0
230
1.0
  2
SOLID
 70
     1
 71
     0
 91
        1
 92
        1
 93
        3
 72
     1
 10
194.9944687140176
 20
19.41038552534577
 11
194.4944687096715
 21
22.4103855514228
 72
     1
 10
194.4944687096715
 20
22.4103855514228
 11
193.9944687053253
 21
19.41038552534577
 72
     1
 10
193.9944687053253
 20
19.41038552534577
 11
194.9944687140176
 21
19.41038552534577
 97
        0
 75
     0
 76
     1
 98
        0
  0
HATCH
  5
2BB
330
2B9
100
AcDbEntity
  8
Default
  6
Continuous
 62
     7
100
AcDbHatch
 10
0.0
 20
0.0
 30
0.0
210
0.0
220
0.0
230
1.0
  2
SOLID
 70
     1
 71
     0
 91
        1
 92
        1
 93
        3
 72
     1
 10
194.9944687140176
 20
33.41038557749984
 11
193.9944687053253
 21
33.41038557749984
 72
     1
 10
193.9944687053253
 20
33.41038557749984
 11
194.4944687096715
 21
30.41038555142281
 72
     1
 10
194.4944687096715
 20
30.41038555142281
 11
194.9944687140176
 21
33.41038557749984
 97
        0
 75
     0
 76
     1
 98
        0
  0
LINE
  5
2BC
330
2B9
100
AcDbEntity
  8
Default
  6
Continuous
 62
     7
100
AcDbLine
 10
176.194198048
 20
22.4103855514
 30
0.0
 11
195.9944687227
 21
22.4103855514
 31
0.0
  0
LINE
  5
2BD
330
2B9
100
AcDbEntity
  8
Default
  6
Continuous
 62
     7
100
AcDbLine
 10
171.0132759103
 20
30.4103855514
 30
0.0
 11
195.9944687227
 21
30.4103855514
 31
0.0
  0
LINE
  5
2BE
330
2B9
100
AcDbEntity
  8
Default
  6
Continuous
 62
     7
100
AcDbLine
 10
194.4944687097
 20
16.4103854993
 30
0.0
 11
194.4944687097
 21
36.4103859836
 31
0.0
  0
TEXT
  5
2BF
330
2B9
100
AcDbEntity
  8
Default
  6
Continuous
 62
     7
100
AcDbText
 10
193.7444687097
 20
25.4558402869
 30
0.0
 40
3.0
  1
8
 50
90.0
  7
SEACAD_Solid_Edge_ISO
 11
190.7444687097
 21
25.4558402869
 31
0.0
100
AcDbText
 73
     3
  0
ENDBLK
  5
2C1
330
2B9
100
AcDbEntity
  8
0
100
AcDbBlockEnd
  0
BLOCK
  5
2CA
330
2C3
100
AcDbEntity
  8
0
100
AcDbBlockBegin
  2
DMBLK61
 70
     0
 10
0.0
 20
0.0
 30
0.0
  3
DMBLK61
  1
DMBLK61
  0
HATCH
  5
2C4
330
2C3
100
AcDbEntity
  8
Default
  6
Continuous
 62
     7
100
AcDbHatch
 10
0.0
 20
0.0
 30
0.0
210
0.0
220
0.0
230
1.0
  2
SOLID
 70
     1
 71
     0
 91
        1
 92
        1
 93
        3
 72
     1
 10
138.0132759363945
 20
10.54511958161491
 11
138.0132759363945
 21
11.54511959030725
 72
     1
 10
138.0132759363945
 20
11.54511959030725
 11
135.0132759103175
 21
11.04511958596108
 72
     1
 10
135.0132759103175
 20
11.04511958596108
 11
138.0132759363945
 21
10.54511958161491
 97
        0
 75
     0
 76
     1
 98
        0
  0
HATCH
  5
2C5
330
2C3
100
AcDbEntity
  8
Default
  6
Continuous
 62
     7
100
AcDbHatch
 10
0.0
 20
0.0
 30
0.0
210
0.0
220
0.0
230
1.0
  2
SOLID
 70
     1
 71
     0
 91
        1
 92
        1
 93
        3
 72
     1
 10
150.0132751093801
 20
10.54511958161491
 11
153.0132751354571
 21
11.04511958596108
 72
     1
 10
153.0132751354571
 20
11.04511958596108
 11
150.0132751093801
 21
11.54511959030725
 72
     1
 10
150.0132751093801
 20
11.54511959030725
 11
150.0132751093801
 21
10.54511958161491
 97
        0
 75
     0
 76
     1
 98
        0
  0
LINE
  5
2C6
330
2C3
100
AcDbEntity
  8
Default
  6
Continuous
 62
     7
100
AcDbLine
 10
135.0132759103
 20
30.4103855514
 30
0.0
 11
135.0132759103
 21
9.5451195729
 31
0.0
  0
LINE
  5
2C7
330
2C3
100
AcDbEntity
  8
Default
  6
Continuous
 62
     7
100
AcDbLine
 10
153.0132759103
 20
11.3010278517
 30
0.0
 11
153.0132759103
 21
9.5451195729
 31
0.0
  0
LINE
  5
2C8
330
2C3
100
AcDbEntity
  8
Default
  6
Continuous
 62
     7
100
AcDbLine
 10
135.0132759103
 20
11.045119586
 30
0.0
 11
153.0132751355
 21
11.045119586
 31
0.0
  0
TEXT
  5
2C9
330
2C3
100
AcDbEntity
  8
Default
  6
Continuous
 62
     7
100
AcDbText
 10
142.4450937047
 20
11.795119586
 30
0.0
 40
3.0
  1
18
  7
SEACAD_Solid_Edge_ISO
 11
142.4450937047
 21
14.795119586
 31
0.0
100
AcDbText
 73
     3
  0
ENDBLK
  5
2CB
330
2C3
100
AcDbEntity
  8
0
100
AcDbBlockEnd
  0
BLOCK
  5
2D4
330
2CD
100
AcDbEntity
  8
0
100
AcDbBlockBegin
  2
DMBLK62
 70
     0
 10
0.0
 20
0.0
 30
0.0
  3
DMBLK62
  1
DMBLK62
  0
HATCH
  5
2CE
330
2CD
100
AcDbEntity
  8
Default
  6
Continuous
 62
     7
100
AcDbHatch
 10
0.0
 20
0.0
 30
0.0
210
0.0
220
0.0
230
1.0
  2
SOLID
 70
     1
 71
     0
 91
        1
 92
        1
 93
        3
 72
     1
 10
156.0132759363946
 20
10.54511903027193
 11
156.0132759363946
 21
11.54511903896428
 72
     1
 10
156.0132759363946
 20
11.54511903896428
 11
153.0132759103175
 21
11.04511903461811
 72
     1
 10
153.0132759103175
 20
11.04511903461811
 11
156.0132759363946
 21
10.54511903027193
 97
        0
 75
     0
 76
     1
 98
        0
  0
HATCH
  5
2CF
330
2CD
100
AcDbEntity
  8
Default
  6
Continuous
 62
     7
100
AcDbHatch
 10
0.0
 20
0.0
 30
0.0
210
0.0
220
0.0
230
1.0
  2
SOLID
 70
     1
 71
     0
 91
        1
 92
        1
 93
        3
 72
     1
 10
168.0132751093801
 20
10.54511903027193
 11
171.0132751354571
 21
11.04511903461811
 72
     1
 10
171.0132751354571
 20
11.04511903461811
 11
168.0132751093801
 21
11.54511903896428
 72
     1
 10
168.0132751093801
 20
11.54511903896428
 11
168.0132751093801
 21
10.54511903027193
 97
        0
 75
     0
 76
     1
 98
        0
  0
LINE
  5
2D0
330
2CD
100
AcDbEntity
  8
Default
  6
Continuous
 62
     7
100
AcDbLine
 10
153.0132759103
 20
7.3534979099
 30
0.0
 11
153.0132759103
 21
9.5451190216
 31
0.0
  0
LINE
  5
2D1
330
2CD
100
AcDbEntity
  8
Default
  6
Continuous
 62
     7
100
AcDbLine
 10
171.0132759103
 20
30.4103855514
 30
0.0
 11
171.0132759103
 21
9.5451190216
 31
0.0
  0
LINE
  5
2D2
330
2CD
100
AcDbEntity
  8
Default
  6
Continuous
 62
     7
100
AcDbLine
 10
153.0132759103
 20
11.0451190346
 30
0.0
 11
171.0132751355
 21
11.0451190346
 31
0.0
  0
TEXT
  5
2D3
330
2CD
100
AcDbEntity
  8
Default
  6
Continuous
 62
     7
100
AcDbText
 10
160.4450937047
 20
11.7951190346
 30
0.0
 40
3.0
  1
18
  7
SEACAD_Solid_Edge_ISO
 11
160.4450937047
 21
14.7951190346
 31
0.0
100
AcDbText
 73
     3
  0
ENDBLK
  5
2D5
330
2CD
100
AcDbEntity
  8
0
100
AcDbBlockEnd
  0
BLOCK
  5
2DE
330
2D7
100
AcDbEntity
  8
0
100
AcDbBlockBegin
  2
DMBLK63
 70
     0
 10
0.0
 20
0.0
 30
0.0
  3
DMBLK63
  1
DMBLK63
  0
HATCH
  5
2D8
330
2D7
100
AcDbEntity
  8
Default
  6
Continuous
 62
     7
100
AcDbHatch
 10
0.0
 20
0.0
 30
0.0
210
0.0
220
0.0
230
1.0
  2
SOLID
 70
     1
 71
     0
 91
        1
 92
        1
 93
        3
 72
     1
 10
107.8684939420027
 20
25.41038557749983
 11
108.3684939463489
 21
22.4103855514228
 72
     1
 10
108.3684939463489
 20
22.4103855514228
 11
108.8684939506951
 21
25.41038557749983
 72
     1
 10
108.8684939506951
 20
25.41038557749983
 11
107.8684939420027
 21
25.41038557749983
 97
        0
 75
     0
 76
     1
 98
        0
  0
HATCH
  5
2D9
330
2D7
100
AcDbEntity
  8
Default
  6
Continuous
 62
     7
100
AcDbHatch
 10
0.0
 20
0.0
 30
0.0
210
0.0
220
0.0
230
1.0
  2
SOLID
 70
     1
 71
     0
 91
        1
 92
        1
 93
        3
 72
     1
 10
107.8684939420027
 20
273.4103936315775
 11
108.8684939506951
 21
273.4103936315775
 72
     1
 10
108.8684939506951
 20
273.4103936315775
 11
108.3684939463489
 21
276.4103936576545
 72
     1
 10
108.3684939463489
 20
276.4103936576545
 11
107.8684939420027
 21
273.4103936315775
 97
        0
 75
     0
 76
     1
 98
        0
  0
LINE
  5
2DA
330
2D7
100
AcDbEntity
  8
Default
  6
Continuous
 62
     7
100
AcDbLine
 10
129.8323537727
 20
22.4103855514
 30
0.0
 11
106.8684939333
 21
22.4103855514
 31
0.0
  0
LINE
  5
2DB
330
2D7
100
AcDbEntity
  8
Default
  6
Continuous
 62
     7
100
AcDbLine
 10
129.8323537727
 20
276.4103855514
 30
0.0
 11
106.8684939333
 21
276.4103855514
 31
0.0
  0
LINE
  5
2DC
330
2D7
100
AcDbEntity
  8
Default
  6
Continuous
 62
     7
100
AcDbLine
 10
108.3684939463
 20
22.4103855514
 30
0.0
 11
108.3684939463
 21
276.4103936577
 31
0.0
  0
TEXT
  5
2DD
330
2D7
100
AcDbEntity
  8
Default
  6
Continuous
 62
     7
100
AcDbText
 10
107.6184939463
 20
146.7512986954
 30
0.0
 40
3.0
  1
254
 50
90.0
  7
SEACAD_Solid_Edge_ISO
 11
104.6184939463
 21
146.7512986954
 31
0.0
100
AcDbText
 73
     3
  0
ENDBLK
  5
2DF
330
2D7
100
AcDbEntity
  8
0
100
AcDbBlockEnd
  0
BLOCK
  5
2E9
330
2E1
100
AcDbEntity
  8
0
100
AcDbBlockBegin
  2
DMBLK64
 70
     0
 10
0.0
 20
0.0
 30
0.0
  3
DMBLK64
  1
DMBLK64
  0
HATCH
  5
2E2
330
2E1
100
AcDbEntity
  8
Default
  6
Continuous
 62
     7
100
AcDbHatch
 10
0.0
 20
0.0
 30
0.0
210
0.0
220
0.0
230
1.0
  2
SOLID
 70
     1
 71
     0
 91
        1
 92
        1
 93
        3
 72
     1
 10
79.18935785371227
 20
167.9103855774999
 11
78.18935784501991
 21
167.9103855774999
 72
     1
 10
78.18935784501991
 20
167.9103855774999
 11
78.68935784936609
 21
164.9103855514228
 72
     1
 10
78.68935784936609
 20
164.9103855514228
 11
79.18935785371227
 21
167.9103855774999
 97
        0
 75
     0
 76
     1
 98
        0
  0
HATCH
  5
2E3
330
2E1
100
AcDbEntity
  8
Default
  6
Continuous
 62
     7
100
AcDbHatch
 10
0.0
 20
0.0
 30
0.0
210
0.0
220
0.0
230
1.0
  2
SOLID
 70
     1
 71
     0
 91
        1
 92
        1
 93
        3
 72
     1
 10
79.18935785371227
 20
156.9103855253458
 11
78.68935784936609
 21
159.9103855514228
 72
     1
 10
78.68935784936609
 20
159.9103855514228
 11
78.18935784501991
 21
156.9103855253458
 72
     1
 10
78.18935784501991
 20
156.9103855253458
 11
79.18935785371227
 21
156.9103855253458
 97
        0
 75
     0
 76
     1
 98
        0
  0
LINE
  5
2E4
330
2E1
100
AcDbEntity
  8
Default
  6
Continuous
 62
     7
100
AcDbLine
 10
65.8768095324
 20
164.9103855514
 30
0.0
 11
80.1893578624
 21
164.9103855514
 31
0.0
  0
LINE
  5
2E5
330
2E1
100
AcDbEntity
  8
Default
  6
Continuous
 62
     7
100
AcDbLine
 10
65.8768095324
 20
159.9103855514
 30
0.0
 11
80.1893578624
 21
159.9103855514
 31
0.0
  0
LINE
  5
2E6
330
2E1
100
AcDbEntity
  8
Default
  6
Continuous
 62
     7
100
AcDbLine
 10
78.6893578494
 20
170.9103856036
 30
0.0
 11
78.6893578494
 21
150.0288137966
 31
0.0
  0
TEXT
  5
2E7
330
2E1
100
AcDbEntity
  8
Default
  6
Continuous
 62
     7
100
AcDbText
 10
77.9393578494
 20
153.6969957108
 30
0.0
 40
3.0
  1
5
 50
90.0
  7
SEACAD_Solid_Edge_ISO
 11
74.9393578494
 21
153.6969957108
 31
0.0
100
AcDbText
 73
     3
  0
TEXT
  5
2E8
330
2E1
100
AcDbEntity
  8
Default
  6
Continuous
 62
     7
100
AcDbText
 10
77.9393578494
 20
151.0788138927
 30
0.0
 40
3.0
  1
M
 50
90.0
  7
SEACAD_Solid_Edge_ISO
 11
74.9393578494
 21
151.0788138927
 31
0.0
100
AcDbText
 73
     3
  0
ENDBLK
  5
2EA
330
2E1
100
AcDbEntity
  8
0
100
AcDbBlockEnd
  0
BLOCK
  5
2F5
330
2ED
100
AcDbEntity
  8
0
100
AcDbBlockBegin
  2
DMBLK65
 70
     0
 10
0.0
 20
0.0
 30
0.0
  3
DMBLK65
  1
DMBLK65
  0
HATCH
  5
2EE
330
2ED
100
AcDbEntity
  8
Default
  6
Continuous
 62
     7
100
AcDbHatch
 10
0.0
 20
0.0
 30
0.0
210
0.0
220
0.0
230
1.0
  2
SOLID
 70
     1
 71
     0
 91
        1
 92
        1
 93
        3
 72
     1
 10
88.68679014372987
 20
169.1603855774999
 11
87.68679013503751
 21
169.1603855774999
 72
     1
 10
87.68679013503751
 20
169.1603855774999
 11
88.18679013938369
 21
166.1603855514228
 72
     1
 10
88.18679013938369
 20
166.1603855514228
 11
88.68679014372987
 21
169.1603855774999
 97
        0
 75
     0
 76
     1
 98
        0
  0
HATCH
  5
2EF
330
2ED
100
AcDbEntity
  8
Default
  6
Continuous
 62
     7
100
AcDbHatch
 10
0.0
 20
0.0
 30
0.0
210
0.0
220
0.0
230
1.0
  2
SOLID
 70
     1
 71
     0
 91
        1
 92
        1
 93
        3
 72
     1
 10
88.68679014372987
 20
155.6603855253458
 11
88.18679013938369
 21
158.6603855514228
 72
     1
 10
88.18679013938369
 20
158.6603855514228
 11
87.68679013503751
 21
155.6603855253458
 72
     1
 10
87.68679013503751
 20
155.6603855253458
 11
88.68679014372987
 21
155.6603855253458
 97
        0
 75
     0
 76
     1
 98
        0
  0
LINE
  5
2F0
330
2ED
100
AcDbEntity
  8
Default
  6
Continuous
 62
     7
100
AcDbLine
 10
65.4768095324
 20
166.1603855514
 30
0.0
 11
89.6867901524
 21
166.1603855514
 31
0.0
  0
LINE
  5
2F1
330
2ED
100
AcDbEntity
  8
Default
  6
Continuous
 62
     7
100
AcDbLine
 10
65.4768095324
 20
158.6603855514
 30
0.0
 11
89.6867901524
 21
158.6603855514
 31
0.0
  0
LINE
  5
2F2
330
2ED
100
AcDbEntity
  8
Default
  6
Continuous
 62
     7
100
AcDbLine
 10
88.1867901394
 20
172.1603856036
 30
0.0
 11
88.1867901394
 21
145.918677988
 31
0.0
  0
TEXT
  5
2F3
330
2ED
100
AcDbEntity
  8
Default
  6
Continuous
 62
     7
100
AcDbText
 10
87.4367901394
 20
150.6092880707
 30
0.0
 40
3.0
  1
7,5
 50
90.0
  7
SEACAD_Solid_Edge_ISO
 11
84.4367901394
 21
150.6092880707
 31
0.0
100
AcDbText
 73
     3
  0
TEXT
  5
2F4
330
2ED
100
AcDbEntity
  8
Default
  6
Continuous
 62
     7
100
AcDbText
 10
87.4367901394
 20
146.968676717
 30
0.0
 40
3.0
  1
O
 50
90.0
  7
SEACAD_Solid_Edge_ISO1_Symbols
 11
84.4367901394
 21
146.968676717
 31
0.0
100
AcDbText
 73
     3
  0
ENDBLK
  5
2F6
330
2ED
100
AcDbEntity
  8
0
100
AcDbBlockEnd
  0
BLOCK
  5
300
330
2F8
100
AcDbEntity
  8
0
100
AcDbBlockBegin
  2
DMBLK66
 70
     0
 10
0.0
 20
0.0
 30
0.0
  3
DMBLK66
  1
DMBLK66
  0
HATCH
  5
2F9
330
2F8
100
AcDbEntity
  8
Default
  6
Continuous
 62
     7
100
AcDbHatch
 10
0.0
 20
0.0
 30
0.0
210
0.0
220
0.0
230
1.0
  2
SOLID
 70
     1
 71
     0
 91
        1
 92
        1
 93
        3
 72
     1
 10
78.8727759652154
 20
179.2103855774999
 11
77.87277595652304
 21
179.2103855774999
 72
     1
 10
77.87277595652304
 20
179.2103855774999
 11
78.37277596086922
 21
176.2103855514228
 72
     1
 10
78.37277596086922
 20
176.2103855514228
 11
78.8727759652154
 21
179.2103855774999
 97
        0
 75
     0
 76
     1
 98
        0
  0
HATCH
  5
2FA
330
2F8
100
AcDbEntity
  8
Default
  6
Continuous
 62
     7
100
AcDbHatch
 10
0.0
 20
0.0
 30
0.0
210
0.0
220
0.0
230
1.0
  2
SOLID
 70
     1
 71
     0
 91
        1
 92
        1
 93
        3
 72
     1
 10
78.8727759652154
 20
189.6103856058121
 11
78.37277596086922
 21
192.6103856318891
 72
     1
 10
78.37277596086922
 20
192.6103856318891
 11
77.87277595652304
 21
189.6103856058121
 72
     1
 10
77.87277595652304
 20
189.6103856058121
 11
78.8727759652154
 21
189.6103856058121
 97
        0
 75
     0
 76
     1
 98
        0
  0
LINE
  5
2FB
330
2F8
100
AcDbEntity
  8
Default
  6
Continuous
 62
     7
100
AcDbLine
 10
60.2768095324
 20
176.2103855514
 30
0.0
 11
79.8727759739
 21
176.2103855514
 31
0.0
  0
LINE
  5
2FC
330
2F8
100
AcDbEntity
  8
Default
  6
Continuous
 62
     7
100
AcDbLine
 10
60.2768095324
 20
192.6103855514
 30
0.0
 11
79.8727759739
 21
192.6103855514
 31
0.0
  0
LINE
  5
2FD
330
2F8
100
AcDbEntity
  8
Default
  6
Continuous
 62
     7
100
AcDbLine
 10
78.3727759609
 20
176.2103855514
 30
0.0
 11
78.3727759609
 21
192.6103856319
 31
0.0
  0
TEXT
  5
2FE
330
2F8
100
AcDbEntity
  8
Default
  6
Continuous
 62
     7
100
AcDbText
 10
77.6227759609
 20
184.6966003594
 30
0.0
 40
3.0
  1
16
 50
90.0
  7
SEACAD_Solid_Edge_ISO
 11
74.6227759609
 21
184.6966003594
 31
0.0
100
AcDbText
 73
     3
  0
TEXT
  5
2FF
330
2F8
100
AcDbEntity
  8
Default
  6
Continuous
 62
     7
100
AcDbText
 10
77.6227759609
 20
181.0559890057
 30
0.0
 40
3.0
  1
O
 50
90.0
  7
SEACAD_Solid_Edge_ISO1_Symbols
 11
74.6227759609
 21
181.0559890057
 31
0.0
100
AcDbText
 73
     3
  0
ENDBLK
  5
301
330
2F8
100
AcDbEntity
  8
0
100
AcDbBlockEnd
  0
BLOCK
  5
30B
330
303
100
AcDbEntity
  8
0
100
AcDbBlockBegin
  2
DMBLK67
 70
     0
 10
0.0
 20
0.0
 30
0.0
  3
DMBLK67
  1
DMBLK67
  0
HATCH
  5
304
330
303
100
AcDbEntity
  8
Default
  6
Continuous
 62
     7
100
AcDbHatch
 10
0.0
 20
0.0
 30
0.0
210
0.0
220
0.0
230
1.0
  2
SOLID
 70
     1
 71
     0
 91
        1
 92
        1
 93
        3
 72
     1
 10
88.57907757985754
 20
178.4103855774999
 11
87.57907757116519
 21
178.4103855774999
 72
     1
 10
87.57907757116519
 20
178.4103855774999
 11
88.07907757551136
 21
175.4103855514228
 72
     1
 10
88.07907757551136
 20
175.4103855514228
 11
88.57907757985754
 21
178.4103855774999
 97
        0
 75
     0
 76
     1
 98
        0
  0
HATCH
  5
305
330
303
100
AcDbEntity
  8
Default
  6
Continuous
 62
     7
100
AcDbHatch
 10
0.0
 20
0.0
 30
0.0
210
0.0
220
0.0
230
1.0
  2
SOLID
 70
     1
 71
     0
 91
        1
 92
        1
 93
        3
 72
     1
 10
88.57907757985754
 20
190.4103847504854
 11
88.07907757551136
 21
193.4103847765624
 72
     1
 10
88.07907757551136
 20
193.4103847765624
 11
87.57907757116519
 21
190.4103847504854
 72
     1
 10
87.57907757116519
 20
190.4103847504854
 11
88.57907757985754
 21
190.4103847504854
 97
        0
 75
     0
 76
     1
 98
        0
  0
LINE
  5
306
330
303
100
AcDbEntity
  8
Default
  6
Continuous
 62
     7
100
AcDbLine
 10
60.2768095324
 20
175.4103855514
 30
0.0
 11
89.5790775885
 21
175.4103855514
 31
0.0
  0
LINE
  5
307
330
303
100
AcDbEntity
  8
Default
  6
Continuous
 62
     7
100
AcDbLine
 10
60.2768095324
 20
193.4103855514
 30
0.0
 11
89.5790775885
 21
193.4103855514
 31
0.0
  0
LINE
  5
308
330
303
100
AcDbEntity
  8
Default
  6
Continuous
 62
     7
100
AcDbLine
 10
88.0790775755
 20
175.4103855514
 30
0.0
 11
88.0790775755
 21
193.4103847766
 31
0.0
  0
TEXT
  5
309
330
303
100
AcDbEntity
  8
Default
  6
Continuous
 62
     7
100
AcDbText
 10
87.3290775755
 20
184.6625090227
 30
0.0
 40
3.0
  1
18
 50
90.0
  7
SEACAD_Solid_Edge_ISO
 11
84.3290775755
 21
184.6625090227
 31
0.0
100
AcDbText
 73
     3
  0
TEXT
  5
30A
330
303
100
AcDbEntity
  8
Default
  6
Continuous
 62
     7
100
AcDbText
 10
87.3290775755
 20
181.021897669
 30
0.0
 40
3.0
  1
O
 50
90.0
  7
SEACAD_Solid_Edge_ISO1_Symbols
 11
84.3290775755
 21
181.021897669
 31
0.0
100
AcDbText
 73
     3
  0
ENDBLK
  5
30C
330
303
100
AcDbEntity
  8
0
100
AcDbBlockEnd
  0
BLOCK
  5
315
330
30E
100
AcDbEntity
  8
0
100
AcDbBlockBegin
  2
DMBLK68
 70
     0
 10
0.0
 20
0.0
 30
0.0
  3
DMBLK68
  1
DMBLK68
  0
HATCH
  5
30F
330
30E
100
AcDbEntity
  8
Default
  6
Continuous
 62
     7
100
AcDbHatch
 10
0.0
 20
0.0
 30
0.0
210
0.0
220
0.0
230
1.0
  2
SOLID
 70
     1
 71
     0
 91
        1
 92
        1
 93
        3
 72
     1
 10
35.57680955842796
 20
12.14037492076061
 11
35.57680955842796
 21
13.14037492945295
 72
     1
 10
35.57680955842796
 20
13.14037492945295
 11
32.57680953235093
 21
12.64037492510678
 72
     1
 10
32.57680953235093
 20
12.64037492510678
 11
35.57680955842796
 21
12.14037492076061
 97
        0
 75
     0
 76
     1
 98
        0
  0
HATCH
  5
310
330
30E
100
AcDbEntity
  8
Default
  6
Continuous
 62
     7
100
AcDbHatch
 10
0.0
 20
0.0
 30
0.0
210
0.0
220
0.0
230
1.0
  2
SOLID
 70
     1
 71
     0
 91
        1
 92
        1
 93
        3
 72
     1
 10
55.97680936322275
 20
12.14037492076061
 11
58.97680938929978
 21
12.64037492510678
 72
     1
 10
58.97680938929978
 20
12.64037492510678
 11
55.97680936322275
 21
13.14037492945295
 72
     1
 10
55.97680936322275
 20
13.14037492945295
 11
55.97680936322275
 21
12.14037492076061
 97
        0
 75
     0
 76
     1
 98
        0
  0
LINE
  5
311
330
30E
100
AcDbEntity
  8
Default
  6
Continuous
 62
     7
100
AcDbLine
 10
32.5768095324
 20
95.3103855514
 30
0.0
 11
32.5768095324
 21
11.1403749121
 31
0.0
  0
LINE
  5
312
330
30E
100
AcDbEntity
  8
Default
  6
Continuous
 62
     7
100
AcDbLine
 10
58.9768095324
 20
39.0339237063
 30
0.0
 11
58.9768095324
 21
11.1403749121
 31
0.0
  0
LINE
  5
313
330
30E
100
AcDbEntity
  8
Default
  6
Continuous
 62
     7
100
AcDbLine
 10
32.5768095324
 20
12.6403749251
 30
0.0
 11
58.9768093893
 21
12.6403749251
 31
0.0
  0
TEXT
  5
314
330
30E
100
AcDbEntity
  8
Default
  6
Continuous
 62
     7
100
AcDbText
 10
42.0472640063
 20
13.3903749251
 30
0.0
 40
3.0
  1
4-26
  7
SEACAD_Solid_Edge_ISO
 11
42.0472640063
 21
16.3903749251
 31
0.0
100
AcDbText
 73
     3
  0
ENDBLK
  5
316
330
30E
100
AcDbEntity
  8
0
100
AcDbBlockEnd
  0
BLOCK
  5
31A
330
317
100
AcDbEntity
  8
0
100
AcDbBlockBegin
  2
_SE_SLASH
 70
     0
 10
0.0
 20
0.0
 30
0.0
  3
_SE_SLASH
  1
_SE_SLASH
  0
LINE
  5
318
330
317
100
AcDbEntity
  8
0
 62
     0
100
AcDbLine
 10
-0.5
 20
-0.5
 30
0.0
 11
0.5
 21
0.5
 31
0.0
  0
LINE
  5
319
330
317
100
AcDbEntity
  8
0
 62
     0
100
AcDbLine
 10
0.0
 20
0.0
 30
0.0
 11
-1.0
 21
0.0
 31
0.0
  0
ENDBLK
  5
31B
330
317
100
AcDbEntity
  8
0
100
AcDbBlockEnd
  0
BLOCK
  5
324
330
31D
100
AcDbEntity
  8
0
100
AcDbBlockBegin
  2
DMBLK69
 70
     0
 10
0.0
 20
0.0
 30
0.0
  3
DMBLK69
  1
DMBLK69
  0
HATCH
  5
31E
330
31D
100
AcDbEntity
  8
Default
  6
Continuous
 62
     7
100
AcDbHatch
 10
0.0
 20
0.0
 30
0.0
210
0.0
220
0.0
230
1.0
  2
SOLID
 70
     1
 71
     0
 91
        1
 92
        1
 93
        3
 72
     1
 10
47.77680950627387
 20
287.4998597740314
 11
47.77680950627387
 21
286.499859765339
 72
     1
 10
47.77680950627387
 20
286.499859765339
 11
50.7768095323509
 21
286.9998597696852
 72
     1
 10
50.7768095323509
 20
286.9998597696852
 11
47.77680950627387
 21
287.4998597740314
 97
        0
 75
     0
 76
     1
 98
        0
  0
LINE
  5
31F
330
31D
100
AcDbEntity
  8
Default
  6
Continuous
 62
     7
100
AcDbLine
 10
60.8139268554
 20
288.8369770927
 30
0.0
 11
57.1396922093
 21
285.1627424466
 31
0.0
  0
LINE
  5
320
330
31D
100
AcDbEntity
  8
Default
  6
Continuous
 62
     7
100
AcDbLine
 10
50.7768095324
 20
272.7256220922
 30
0.0
 11
50.7768095324
 21
288.4998597827
 31
0.0
  0
LINE
  5
321
330
31D
100
AcDbEntity
  8
Default
  6
Continuous
 62
     7
100
AcDbLine
 10
58.9768095324
 20
268.4103855514
 30
0.0
 11
58.9768095324
 21
288.4998597827
 31
0.0
  0
LINE
  5
322
330
31D
100
AcDbEntity
  8
Default
  6
Continuous
 62
     7
100
AcDbLine
 10
44.7768094802
 20
286.9998597697
 30
0.0
 11
64.9768096247
 21
286.9998597697
 31
0.0
  0
TEXT
  5
323
330
31D
100
AcDbEntity
  8
Default
  6
Continuous
 62
     7
100
AcDbText
 10
52.7290822797
 20
287.7498597697
 30
0.0
 40
3.0
  1
8,2
  7
SEACAD_Solid_Edge_ISO
 11
52.7290822797
 21
290.7498597697
 31
0.0
100
AcDbText
 73
     3
  0
ENDBLK
  5
325
330
31D
100
AcDbEntity
  8
0
100
AcDbBlockEnd
  0
BLOCK
  5
32E
330
327
100
AcDbEntity
  8
0
100
AcDbBlockBegin
  2
DMBLK70
 70
     0
 10
0.0
 20
0.0
 30
0.0
  3
DMBLK70
  1
DMBLK70
  0
LINE
  5
328
330
327
100
AcDbEntity
  8
Default
  6
Continuous
 62
     7
100
AcDbLine
 10
60.8139268554
 20
288.8369771353
 30
0.0
 11
57.1396922093
 21
285.1627424892
 31
0.0
  0
HATCH
  5
329
330
327
100
AcDbEntity
  8
Default
  6
Continuous
 62
     7
100
AcDbHatch
 10
0.0
 20
0.0
 30
0.0
210
0.0
220
0.0
230
1.0
  2
SOLID
 70
     1
 71
     0
 91
        1
 92
        1
 93
        3
 72
     1
 10
68.97680955842795
 20
287.499859816576
 11
65.97680953235091
 21
286.9998598122298
 72
     1
 10
65.97680953235091
 20
286.9998598122298
 11
68.97680955842795
 21
286.4998598078836
 72
     1
 10
68.97680955842795
 20
286.4998598078836
 11
68.97680955842795
 21
287.499859816576
 97
        0
 75
     0
 76
     1
 98
        0
  0
LINE
  5
32A
330
327
100
AcDbEntity
  8
Default
  6
Continuous
 62
     7
100
AcDbLine
 10
58.9768095324
 20
268.4103855514
 30
0.0
 11
58.9768095324
 21
288.4998598253
 31
0.0
  0
LINE
  5
32B
330
327
100
AcDbEntity
  8
Default
  6
Continuous
 62
     7
100
AcDbLine
 10
65.9768095324
 20
271.6603855514
 30
0.0
 11
65.9768095324
 21
288.4998598253
 31
0.0
  0
LINE
  5
32C
330
327
100
AcDbEntity
  8
Default
  6
Continuous
 62
     7
100
AcDbLine
 10
52.9768094802
 20
286.9998598122
 30
0.0
 11
71.9768098006
 21
286.9998598122
 31
0.0
  0
TEXT
  5
32D
330
327
100
AcDbEntity
  8
Default
  6
Continuous
 62
     7
100
AcDbText
 10
61.5222641858
 20
287.7498598122
 30
0.0
 40
3.0
  1
7
  7
SEACAD_Solid_Edge_ISO
 11
61.5222641858
 21
290.7498598122
 31
0.0
100
AcDbText
 73
     3
  0
ENDBLK
  5
32F
330
327
100
AcDbEntity
  8
0
100
AcDbBlockEnd
  0
ENDSEC
  0
SECTION
  2
ENTITIES
  0
INSERT
  5
70
330
1F
100
AcDbEntity
  8
Default
100
AcDbBlockReference
  2
SEANNOT_GROUP
 10
0.0
 20
0.0
 30
0.0
  0
INSERT
  5
7B
330
1F
100
AcDbEntity
  8
Default
100
AcDbBlockReference
  2
SEANNOT_GROUP1
 10
0.0
 20
0.0
 30
0.0
  0
INSERT
  5
85
330
1F
100
AcDbEntity
  8
Default
100
AcDbBlockReference
  2
SEANNOT_GROUP2
 10
0.0
 20
0.0
 30
0.0
  0
INSERT
  5
8F
330
1F
100
AcDbEntity
  8
Default
100
AcDbBlockReference
  2
SEANNOT_GROUP3
 10
0.0
 20
0.0
 30
0.0
  0
INSERT
  5
99
330
1F
100
AcDbEntity
  8
Default
100
AcDbBlockReference
  2
SEANNOT_GROUP4
 10
0.0
 20
0.0
 30
0.0
  0
INSERT
  5
A3
330
1F
100
AcDbEntity
  8
Default
100
AcDbBlockReference
  2
SEANNOT_GROUP5
 10
0.0
 20
0.0
 30
0.0
  0
INSERT
  5
AD
330
1F
100
AcDbEntity
  8
Default
100
AcDbBlockReference
  2
SEANNOT_GROUP6
 10
0.0
 20
0.0
 30
0.0
  0
INSERT
  5
B7
330
1F
100
AcDbEntity
  8
Default
100
AcDbBlockReference
  2
SEANNOT_GROUP7
 10
0.0
 20
0.0
 30
0.0
  0
INSERT
  5
BC
330
1F
100
AcDbEntity
  8
Default
100
AcDbBlockReference
  2
SEANNOT_GROUP8
 10
0.0
 20
0.0
 30
0.0
  0
INSERT
  5
C1
330
1F
100
AcDbEntity
  8
Default
100
AcDbBlockReference
  2
SEANNOT_GROUP9
 10
0.0
 20
0.0
 30
0.0
  0
INSERT
  5
C6
330
1F
100
AcDbEntity
  8
Default
100
AcDbBlockReference
  2
SEANNOT_GROUP10
 10
0.0
 20
0.0
 30
0.0
  0
INSERT
  5
CB
330
1F
100
AcDbEntity
  8
Default
100
AcDbBlockReference
  2
SEANNOT_GROUP11
 10
0.0
 20
0.0
 30
0.0
  0
INSERT
  5
D0
330
1F
100
AcDbEntity
  8
Default
100
AcDbBlockReference
  2
SEANNOT_GROUP12
 10
0.0
 20
0.0
 30
0.0
  0
INSERT
  5
D5
330
1F
100
AcDbEntity
  8
Default
100
AcDbBlockReference
  2
SEANNOT_GROUP13
 10
0.0
 20
0.0
 30
0.0
  0
INSERT
  5
DA
330
1F
100
AcDbEntity
  8
Default
100
AcDbBlockReference
  2
SEANNOT_GROUP14
 10
0.0
 20
0.0
 30
0.0
  0
MTEXT
  5
DE
330
1F
100
AcDbEntity
  8
Default
100
AcDbMText
 10
87.0486714153
 20
13.0542829236
 30
0.0
 40
5.0
 41
15.3409190909
 46
8.1818181818
 71
     1
 72
     1
  1
{\fSolid Edge ISO|b0||i1||c0|p34;\C7;\H5.;\W1.;35.490}
 73
     1
 44
1.0
1001
ACAD
1000
ACAD_MTEXT_DEFINED_HEIGHT_BEGIN
1070
    46
1040
8.1818181818
1000
ACAD_MTEXT_DEFINED_HEIGHT_END
  0
INSERT
  5
E0
330
1F
100
AcDbEntity
  8
0
100
AcDbBlockReference
  2
SE
 10
0.0
 20
0.0
 30
0.0
  0
INSERT
  5
102
330
1F
100
AcDbEntity
  8
0
100
AcDbBlockReference
  2
SE1
 10
0.0
 20
0.0
 30
0.0
  0
TEXT
  5
11F
330
1F
100
AcDbEntity
  8
0
  6
Continuous
 62
     7
100
AcDbText
 10
31.7540822426
 20
10.4103855514
 30
0.0
 40
6.0
  1
SCHNITT A-A
  7
SEACAD_Solid_Edge_ISO
 11
31.7540822426
 21
16.4103855514
 31
0.0
100
AcDbText
 73
     3
  0
INSERT
  5
121
330
1F
100
AcDbEntity
  8
0
100
AcDbBlockReference
  2
SE4
 10
0.0
 20
0.0
 30
0.0
  0
DIMENSION
  5
284
330
1F
100
AcDbEntity
  8
Default
  6
Continuous
 62
     7
100
AcDbDimension
  2
DMBLK55
 10
127.0132759103
 20
288.4509365527
 30
0.0
 11
153.0132764468
 21
288.4509365527
 31
0.0
 70
   161
  1
\A1;<>
 71
     5
 42
-1.0
 73
     0
 74
     0
 75
     0
  3
DIN
100
AcDbAlignedDimension
 13
127.0132759103
 23
273.5913076891
 33
0.0
 14
179.0132759103
 24
273.5913076891
 34
0.0
  0
DIMENSION
  5
28E
330
1F
100
AcDbEntity
  8
Default
  6
Continuous
 62
     7
100
AcDbDimension
  2
DMBLK56
 10
194.2821122615
 20
268.4103855514
 30
0.0
 11
194.2821122615
 21
272.4103853614
 31
0.0
 70
   160
  1
\A1;<>
 71
     5
 42
-1.0
 73
     0
 74
     0
 75
     0
  3
DIN
100
AcDbAlignedDimension
 13
176.194198048
 23
276.4103855514
 33
0.0
 14
171.0132759103
 24
268.4103855514
 34
0.0
 50
90.0
100
AcDbRotatedDimension
  0
DIMENSION
  5
298
330
1F
100
AcDbEntity
  8
Default
  6
Continuous
 62
     7
100
AcDbDimension
  2
DMBLK57
 10
194.4944690654
 20
184.4103855514
 30
0.0
 11
194.4944690654
 21
173.410385611
 31
0.0
 70
   161
  1
\A1;<>
 71
     5
 42
-1.0
 73
     0
 74
     0
 75
     0
  3
DIN
100
AcDbAlignedDimension
 13
153.0132759103
 23
184.4103855514
 33
0.0
 14
153.0132759103
 24
162.4103855514
 34
0.0
  0
DIMENSION
  5
2A2
330
1F
100
AcDbEntity
  8
Default
  6
Continuous
 62
     7
100
AcDbDimension
  2
DMBLK58
 10
205.1898516624
 20
184.4103855514
 30
0.0
 11
205.1898516624
 21
230.410385462
 31
0.0
 70
   160
  1
\A1;<>
 71
     5
 42
-1.0
 73
     0
 74
     0
 75
     0
  3
DIN
100
AcDbAlignedDimension
 13
176.194198048
 23
276.4103855514
 33
0.0
 14
153.0132759103
 24
184.4103855514
 34
0.0
 50
90.0
100
AcDbRotatedDimension
  0
DIMENSION
  5
2AC
330
1F
100
AcDbEntity
  8
Default
  6
Continuous
 62
     7
100
AcDbDimension
  2
DMBLK59
 10
205.1898520181
 20
184.4103855514
 30
0.0
 11
205.1898520181
 21
145.4103847468
 31
0.0
 70
   161
  1
\A1;74 / <> / 94
 71
     5
 42
-1.0
 73
     0
 74
     0
 75
     0
  3
DIN
100
AcDbAlignedDimension
 13
153.0132759103
 23
184.4103855514
 33
0.0
 14
153.0132759103
 24
106.4103855514
 34
0.0
  0
DIMENSION
  5
2B8
330
1F
100
AcDbEntity
  8
Default
  6
Continuous
 62
     7
100
AcDbDimension
  2
DMBLK60
 10
194.4944687097
 20
30.4103855514
 30
0.0
 11
194.4944687097
 21
26.4103857414
 31
0.0
 70
   160
  1
\A1;<>
 71
     5
 42
-1.0
 73
     0
 74
     0
 75
     0
  3
DIN
100
AcDbAlignedDimension
 13
176.194198048
 23
22.4103855514
 33
0.0
 14
171.0132759103
 24
30.4103855514
 34
0.0
 50
90.0
100
AcDbRotatedDimension
  0
DIMENSION
  5
2C2
330
1F
100
AcDbEntity
  8
Default
  6
Continuous
 62
     7
100
AcDbDimension
  2
DMBLK61
 10
153.0132759103
 20
11.045119586
 30
0.0
 11
144.0132755229
 21
11.045119586
 31
0.0
 70
   160
  1
\A1;<>
 71
     5
 42
-1.0
 73
     0
 74
     0
 75
     0
  3
DIN
100
AcDbAlignedDimension
 13
135.0132759103
 23
30.4103855514
 33
0.0
 14
153.0132759103
 24
22.4103855514
 34
0.0
100
AcDbRotatedDimension
  0
DIMENSION
  5
2CC
330
1F
100
AcDbEntity
  8
Default
  6
Continuous
 62
     7
100
AcDbDimension
  2
DMBLK62
 10
171.0132759103
 20
11.0451190346
 30
0.0
 11
162.0132755229
 21
11.0451190346
 31
0.0
 70
   160
  1
\A1;<>
 71
     5
 42
-1.0
 73
     0
 74
     0
 75
     0
  3
DIN
100
AcDbAlignedDimension
 13
153.0132759103
 23
22.4103855514
 33
0.0
 14
171.0132759103
 24
30.4103855514
 34
0.0
100
AcDbRotatedDimension
  0
DIMENSION
  5
2D6
330
1F
100
AcDbEntity
  8
Default
  6
Continuous
 62
     7
100
AcDbDimension
  2
DMBLK63
 10
108.3684939463
 20
22.4103855514
 30
0.0
 11
108.3684939463
 21
149.4103896045
 31
0.0
 70
   161
  1
\A1;<>
 71
     5
 42
-1.0
 73
     0
 74
     0
 75
     0
  3
DIN
100
AcDbAlignedDimension
 13
129.8323537727
 23
22.4103855514
 33
0.0
 14
129.8323537727
 24
276.4103855514
 34
0.0
  0
DIMENSION
  5
2E0
330
1F
100
AcDbEntity
  8
Default
  6
Continuous
 62
     7
100
AcDbDimension
  2
DMBLK64
 10
78.6893578494
 20
164.9103855514
 30
0.0
 11
78.6893578494
 21
156.4515411654
 31
0.0
 70
   161
  1
\A1;M <>
 71
     5
 42
-1.0
 73
     0
 74
     0
 75
     0
  3
DIN
100
AcDbAlignedDimension
 13
65.8768095324
 23
164.9103855514
 33
0.0
 14
65.8768095324
 24
159.9103855514
 34
0.0
  0
DIMENSION
  5
2EB
330
1F
100
AcDbEntity
  8
Default
  6
Continuous
 62
     7
100
AcDbDimension
  2
DMBLK65
 10
88.1867901394
 20
166.1603855514
 30
0.0
 11
88.1867901394
 21
155.8183789798
 31
0.0
 70
   161
  1
\A1;%%C <>
 71
     5
 42
-1.0
 73
     0
 74
     0
 75
     0
  3
DIN
100
AcDbAlignedDimension
 13
65.4768095324
 23
166.1603855514
 33
0.0
 14
65.4768095324
 24
158.6603855514
 34
0.0
  0
DIMENSION
  5
2F7
330
1F
100
AcDbEntity
  8
Default
  6
Continuous
 62
     7
100
AcDbDimension
  2
DMBLK66
 10
78.3727759609
 20
176.2103855514
 30
0.0
 11
78.3727759609
 21
184.4103855917
 31
0.0
 70
   161
  1
\A1;%%C <>
 71
     5
 42
-1.0
 73
     0
 74
     0
 75
     0
  3
DIN
100
AcDbAlignedDimension
 13
60.2768095324
 23
176.2103855514
 33
0.0
 14
60.2768095324
 24
192.6103855514
 34
0.0
1001
ACAD
1000
DSTYLE
1002
{
1070
   271
1070
     0
1070
   272
1070
     0
1070
     0
1002
}
  0
DIMENSION
  5
302
330
1F
100
AcDbEntity
  8
Default
  6
Continuous
 62
     7
100
AcDbDimension
  2
DMBLK67
 10
88.0790775755
 20
175.4103855514
 30
0.0
 11
88.0790775755
 21
184.410385164
 31
0.0
 70
   161
  1
\A1;%%C <>
 71
     5
 42
-1.0
 73
     0
 74
     0
 75
     0
  3
DIN
100
AcDbAlignedDimension
 13
60.2768095324
 23
175.4103855514
 33
0.0
 14
60.2768095324
 24
193.4103855514
 34
0.0
  0
DIMENSION
  5
30D
330
1F
100
AcDbEntity
  8
Default
  6
Continuous
 62
     7
100
AcDbDimension
  2
DMBLK68
 10
58.9768095324
 20
12.6403749251
 30
0.0
 11
45.7768094608
 21
12.6403749251
 31
0.0
 70
   160
  1
\A1;4-26 {}
 71
     5
 42
-1.0
 73
     0
 74
     0
 75
     0
  3
DIN
100
AcDbAlignedDimension
 13
32.5768095324
 23
95.3103855514
 33
0.0
 14
58.9768095324
 24
39.0339237063
 34
0.0
100
AcDbRotatedDimension
  0
DIMENSION
  5
31C
330
1F
100
AcDbEntity
  8
Default
  6
Continuous
 62
     7
100
AcDbDimension
  2
DMBLK69
 10
58.9768095324
 20
286.9998597697
 30
0.0
 11
54.8768095525
 21
286.9998597697
 31
0.0
 70
   160
  1
\A1;<>
 71
     5
 42
-1.0
 73
     0
 74
     0
 75
     0
  3
DIN
100
AcDbAlignedDimension
 13
50.7768095324
 23
272.7256220922
 33
0.0
 14
58.9768095324
 24
268.4103855514
 34
0.0
100
AcDbRotatedDimension
1001
ACAD
1000
DSTYLE
1002
{
1070
   344
1005
317
1070
     0
1002
}
  0
DIMENSION
  5
326
330
1F
100
AcDbEntity
  8
Default
  6
Continuous
 62
     7
100
AcDbDimension
  2
DMBLK70
 10
65.9768095324
 20
286.9998598122
 30
0.0
 11
62.4768096404
 21
286.9998598122
 31
0.0
 70
   160
  1
\A1;<>
 71
     5
 42
-1.0
 73
     0
 74
     0
 75
     0
  3
DIN
100
AcDbAlignedDimension
 13
58.9768095324
 23
268.4103855514
 33
0.0
 14
65.9768095324
 24
271.6603855514
 34
0.0
100
AcDbRotatedDimension
1001
ACAD
1000
DSTYLE
1002
{
1070
   343
1005
317
1070
     0
1002
}
  0
ENDSEC
  0
SECTION
  2
OBJECTS
  0
DICTIONARY
  5
C
330
0
100
AcDbDictionary
281
     1
  3
ACAD_DETAILVIEWSTYLE
350
36B
  3
ACAD_GROUP
350
D
  3
ACAD_LAYOUT
350
1A
  3
ACAD_MATERIAL
350
43
  3
ACAD_MLEADERSTYLE
350
6B
  3
ACAD_MLINESTYLE
350
17
  3
ACAD_PLOTSETTINGS
350
19
  3
ACAD_PLOTSTYLENAME
350
E
  3
ACAD_SCALELIST
350
47
  3
ACAD_SECTIONVIEWSTYLE
350
36C
  3
ACAD_TABLESTYLE
350
69
  3
ACAD_VISUALSTYLE
350
2A
  3
ACDB_RECOMPOSE_DATA
350
368
  3
AcDbVariableDictionary
350
330
  0
SUN
  5
6D
330
29
100
AcDbSun
 90
        1
290
     0
 63
     7
421
 16777215
 40
1.0
291
     1
 91
  2455826
 92
 54000000
292
     0
 70
     2
 71
   256
280
     1
  0
DICTIONARY
  5
36B
102
{ACAD_REACTORS
330
C
102
}
330
C
100
AcDbDictionary
281
     1
  0
DICTIONARY
  5
D
102
{ACAD_REACTORS
330
C
102
}
330
C
100
AcDbDictionary
281
     1
  0
DICTIONARY
  5
1A
102
{ACAD_REACTORS
330
C
102
}
330
C
100
AcDbDictionary
281
     1
  3
Layout1
350
1E
  3
Model
350
22
  0
DICTIONARY
  5
43
102
{ACAD_REACTORS
330
C
102
}
330
C
100
AcDbDictionary
281
     1
  3
ByBlock
350
45
  3
ByLayer
350
44
  3
Global
350
46
  0
DICTIONARY
  5
6B
102
{ACAD_REACTORS
330
C
102
}
330
C
100
AcDbDictionary
281
     1
  3
Standard
350
6C
  0
DICTIONARY
  5
17
102
{ACAD_REACTORS
330
C
102
}
330
C
100
AcDbDictionary
281
     1
  3
Standard
350
18
  0
DICTIONARY
  5
19
102
{ACAD_REACTORS
330
C
102
}
330
C
100
AcDbDictionary
281
     1
  0
ACDBDICTIONARYWDFLT
  5
E
102
{ACAD_REACTORS
330
C
102
}
330
C
100
AcDbDictionary
281
     1
  3
Normal
350
F
100
AcDbDictionaryWithDefault
340
F
  0
DICTIONARY
  5
47
102
{ACAD_REACTORS
330
C
102
}
330
C
100
AcDbDictionary
281
     1
  3
A0
350
48
  3
A1
350
49
  3
A2
350
4A
  3
A3
350
4B
  3
A4
350
4C
  3
A5
350
4D
  3
A6
350
4E
  3
A7
350
4F
  3
A8
350
50
  3
A9
350
51
  3
B0
350
52
  3
B1
350
53
  3
B2
350
54
  3
B3
350
55
  3
B4
350
56
  3
B5
350
57
  3
B6
350
58
  3
B7
350
59
  3
B8
350
5A
  3
B9
350
5B
  3
C0
350
5C
  3
C1
350
5D
  3
C2
350
5E
  3
C3
350
5F
  3
C4
350
60
  3
C5
350
61
  3
C6
350
62
  3
C7
350
63
  3
C8
350
64
  3
C9
350
65
  3
D0
350
66
  3
D1
350
67
  3
D2
350
68
  0
DICTIONARY
  5
36C
102
{ACAD_REACTORS
330
C
102
}
330
C
100
AcDbDictionary
281
     1
  0
DICTIONARY
  5
69
102
{ACAD_REACTORS
330
C
102
}
330
C
100
AcDbDictionary
281
     1
  3
Standard
350
6A
  0
DICTIONARY
  5
2A
102
{ACAD_REACTORS
330
C
102
}
330
C
100
AcDbDictionary
281
     1
  3
2dWireframe
350
2F
  3
Basic
350
32
  3
Brighten
350
36
  3
ColorChange
350
3A
  3
Conceptual
350
34
  3
Dim
350
35
  3
EdgeColorOff
350
3D
  3
Facepattern
350
39
  3
Flat
350
2B
  3
FlatWithEdges
350
2C
  3
Gouraud
350
2D
  3
GouraudWithEdges
350
2E
  3
Hidden
350
31
  3
JitterOff
350
3B
  3
Linepattern
350
38
  3
OverhangOff
350
3C
  3
Realistic
350
33
  3
Shaded
350
42
  3
Shaded with edges
350
41
  3
Shades of Gray
350
3E
  3
Sketchy
350
3F
  3
Thicken
350
37
  3
Wireframe
350
30
  3
X-Ray
350
40
  0
XRECORD
  5
368
102
{ACAD_REACTORS
330
C
102
}
330
C
100
AcDbXrecord
280
     1
 90
        1
330
6A
  0
DICTIONARY
  5
330
102
{ACAD_REACTORS
330
C
102
}
330
C
100
AcDbDictionary
281
     1
  3
CANNOSCALE
350
331
  3
CMLEADERSTYLE
350
36A
  3
CTABLESTYLE
350
369
  3
XCLIPFRAME
350
332
  0
LAYOUT
  5
1E
102
{ACAD_REACTORS
330
1A
102
}
330
1A
100
AcDbPlotSettings
  1

  2
none_device
  4

  6

 40
0.0
 41
0.0
 42
0.0
 43
0.0
 44
0.0
 45
0.0
 46
0.0
 47
0.0
 48
0.0
 49
0.0
140
0.0
141
0.0
142
1.0
143
1.0
 70
   688
 72
     1
 73
     0
 74
     5
  7

 75
    16
 76
     0
 77
     2
 78
   300
147
1.0
148
0.0
149
0.0
100
AcDbLayout
  1
Layout1
 70
     1
 71
     1
 10
0.0
 20
0.0
 11
210.0
 21
297.0
 12
0.0
 22
0.0
 32
0.0
 14
0.0
 24
0.0
 34
0.0
 15
210.0
 25
297.0
 35
0.0
146
0.0
 13
0.0
 23
0.0
 33
0.0
 16
1.0
 26
0.0
 36
0.0
 17
0.0
 27
1.0
 37
0.0
 76
     0
330
1B
  0
LAYOUT
  5
22
102
{ACAD_REACTORS
330
1A
102
}
330
1A
100
AcDbPlotSettings
  1

  2
none_device
  4
Letter_(8.50_x_11.00_Inches)
  6

 40
6.35
 41
6.35
 42
6.35000508
 43
6.35000508
 44
215.9
 45
279.4
 46
0.0
 47
0.0
 48
0.0
 49
0.0
140
0.0
141
0.0
142
1.0
143
1.0
 70
  1712
 72
     1
 73
     0
 74
     0
  7

 75
     0
 76
     0
 77
     2
 78
   300
147
1.0
148
0.0
149
0.0
100
AcDbLayout
  1
Model
 70
     1
 71
     0
 10
0.0
 20
0.0
 11
210.0
 21
297.0
 12
0.0
 22
0.0
 32
0.0
 14
0.0
 24
0.0
 34
0.0
 15
210.0
 25
297.0
 35
0.0
146
0.0
 13
0.0
 23
0.0
 33
0.0
 16
1.0
 26
0.0
 36
0.0
 17
0.0
 27
1.0
 37
0.0
 76
     0
330
1F
331
29
  0
MATERIAL
  5
45
102
{ACAD_REACTORS
330
43
102
}
330
43
100
AcDbMaterial
  1
ByBlock
 72
     1
 94
      127
  0
MATERIAL
  5
44
102
{ACAD_REACTORS
330
43
102
}
330
43
100
AcDbMaterial
  1
ByLayer
 72
     1
 94
      127
  0
MATERIAL
  5
46
102
{ACAD_REACTORS
330
43
102
}
330
43
100
AcDbMaterial
  1
Global
 72
     1
 94
      127
  0
MLEADERSTYLE
  5
6C
102
{ACAD_REACTORS
330
6B
102
}
102
{ACAD_XDICTIONARY
360
366
102
}
330
6B
100
AcDbMLeaderStyle
170
     2
171
     1
172
     0
 90
        2
 40
0.0
 41
0.0
173
     1
 91
-1056964608
340
14
 92
       -2
290
     1
 42
2.0
291
     1
 43
8.0
  3
Standard
341
0
 44
4.0
300

342
11
174
     1
178
     6
175
     1
176
     0
 93
-1056964608
 45
4.0
292
     0
297
     0
 46
4.0
343
0
 94
-1056964608
 47
1.0
 49
1.0
140
1.0
293
     1
141
0.0
294
     1
177
     0
142
1.0
295
     0
296
     0
143
3.75
1001
ACAD_MLEADERVER
1070
     2
  0
MLINESTYLE
  5
18
102
{ACAD_REACTORS
330
17
102
}
330
17
100
AcDbMlineStyle
  2
Standard
 70
     0
  3

 62
   256
 51
90.0
 52
90.0
 71
     2
 49
0.5
 62
   256
  6
BYLAYER
 49
-0.5
 62
   256
  6
BYLAYER
  0
ACDBPLACEHOLDER
  5
F
102
{ACAD_REACTORS
330
E
102
}
330
E
  0
SCALE
  5
48
102
{ACAD_REACTORS
330
47
102
}
330
47
100
AcDbScale
 70
     0
300
1:1
140
1.0
141
1.0
290
     1
  0
SCALE
  5
49
102
{ACAD_REACTORS
330
47
102
}
330
47
100
AcDbScale
 70
     0
300
1:2
140
1.0
141
2.0
290
     0
  0
SCALE
  5
4A
102
{ACAD_REACTORS
330
47
102
}
330
47
100
AcDbScale
 70
     0
300
1:4
140
1.0
141
4.0
290
     0
  0
SCALE
  5
4B
102
{ACAD_REACTORS
330
47
102
}
330
47
100
AcDbScale
 70
     0
300
1:5
140
1.0
141
5.0
290
     0
  0
SCALE
  5
4C
102
{ACAD_REACTORS
330
47
102
}
330
47
100
AcDbScale
 70
     0
300
1:8
140
1.0
141
8.0
290
     0
  0
SCALE
  5
4D
102
{ACAD_REACTORS
330
47
102
}
330
47
100
AcDbScale
 70
     0
300
1:10
140
1.0
141
10.0
290
     0
  0
SCALE
  5
4E
102
{ACAD_REACTORS
330
47
102
}
330
47
100
AcDbScale
 70
     0
300
1:16
140
1.0
141
16.0
290
     0
  0
SCALE
  5
4F
102
{ACAD_REACTORS
330
47
102
}
330
47
100
AcDbScale
 70
     0
300
1:20
140
1.0
141
20.0
290
     0
  0
SCALE
  5
50
102
{ACAD_REACTORS
330
47
102
}
330
47
100
AcDbScale
 70
     0
300
1:30
140
1.0
141
30.0
290
     0
  0
SCALE
  5
51
102
{ACAD_REACTORS
330
47
102
}
330
47
100
AcDbScale
 70
     0
300
1:40
140
1.0
141
40.0
290
     0
  0
SCALE
  5
52
102
{ACAD_REACTORS
330
47
102
}
330
47
100
AcDbScale
 70
     0
300
1:50
140
1.0
141
50.0
290
     0
  0
SCALE
  5
53
102
{ACAD_REACTORS
330
47
102
}
330
47
100
AcDbScale
 70
     0
300
1:100
140
1.0
141
100.0
290
     0
  0
SCALE
  5
54
102
{ACAD_REACTORS
330
47
102
}
330
47
100
AcDbScale
 70
     0
300
2:1
140
2.0
141
1.0
290
     0
  0
SCALE
  5
55
102
{ACAD_REACTORS
330
47
102
}
330
47
100
AcDbScale
 70
     0
300
4:1
140
4.0
141
1.0
290
     0
  0
SCALE
  5
56
102
{ACAD_REACTORS
330
47
102
}
330
47
100
AcDbScale
 70
     0
300
8:1
140
8.0
141
1.0
290
     0
  0
SCALE
  5
57
102
{ACAD_REACTORS
330
47
102
}
330
47
100
AcDbScale
 70
     0
300
10:1
140
10.0
141
1.0
290
     0
  0
SCALE
  5
58
102
{ACAD_REACTORS
330
47
102
}
330
47
100
AcDbScale
 70
     0
300
100:1
140
100.0
141
1.0
290
     0
  0
SCALE
  5
59
102
{ACAD_REACTORS
330
47
102
}
330
47
100
AcDbScale
 70
     0
300
1/128" = 1'-0"
140
0.0078125
141
12.0
290
     0
  0
SCALE
  5
5A
102
{ACAD_REACTORS
330
47
102
}
330
47
100
AcDbScale
 70
     0
300
1/64" = 1'-0"
140
0.015625
141
12.0
290
     0
  0
SCALE
  5
5B
102
{ACAD_REACTORS
330
47
102
}
330
47
100
AcDbScale
 70
     0
300
1/32" = 1'-0"
140
0.03125
141
12.0
290
     0
  0
SCALE
  5
5C
102
{ACAD_REACTORS
330
47
102
}
330
47
100
AcDbScale
 70
     0
300
1/16" = 1'-0"
140
0.0625
141
12.0
290
     0
  0
SCALE
  5
5D
102
{ACAD_REACTORS
330
47
102
}
330
47
100
AcDbScale
 70
     0
300
3/32" = 1'-0"
140
0.09375
141
12.0
290
     0
  0
SCALE
  5
5E
102
{ACAD_REACTORS
330
47
102
}
330
47
100
AcDbScale
 70
     0
300
1/8" = 1'-0"
140
0.125
141
12.0
290
     0
  0
SCALE
  5
5F
102
{ACAD_REACTORS
330
47
102
}
330
47
100
AcDbScale
 70
     0
300
3/16" = 1'-0"
140
0.1875
141
12.0
290
     0
  0
SCALE
  5
60
102
{ACAD_REACTORS
330
47
102
}
330
47
100
AcDbScale
 70
     0
300
1/4" = 1'-0"
140
0.25
141
12.0
290
     0
  0
SCALE
  5
61
102
{ACAD_REACTORS
330
47
102
}
330
47
100
AcDbScale
 70
     0
300
3/8" = 1'-0"
140
0.375
141
12.0
290
     0
  0
SCALE
  5
62
102
{ACAD_REACTORS
330
47
102
}
330
47
100
AcDbScale
 70
     0
300
1/2" = 1'-0"
140
0.5
141
12.0
290
     0
  0
SCALE
  5
63
102
{ACAD_REACTORS
330
47
102
}
330
47
100
AcDbScale
 70
     0
300
3/4" = 1'-0"
140
0.75
141
12.0
290
     0
  0
SCALE
  5
64
102
{ACAD_REACTORS
330
47
102
}
330
47
100
AcDbScale
 70
     0
300
1" = 1'-0"
140
1.0
141
12.0
290
     0
  0
SCALE
  5
65
102
{ACAD_REACTORS
330
47
102
}
330
47
100
AcDbScale
 70
     0
300
1-1/2" = 1'-0"
140
1.5
141
12.0
290
     0
  0
SCALE
  5
66
102
{ACAD_REACTORS
330
47
102
}
330
47
100
AcDbScale
 70
     0
300
3" = 1'-0"
140
3.0
141
12.0
290
     0
  0
SCALE
  5
67
102
{ACAD_REACTORS
330
47
102
}
330
47
100
AcDbScale
 70
     0
300
6" = 1'-0"
140
6.0
141
12.0
290
     0
  0
SCALE
  5
68
102
{ACAD_REACTORS
330
47
102
}
330
47
100
AcDbScale
 70
     0
300
1'-0" = 1'-0"
140
12.0
141
12.0
290
     0
  0
TABLESTYLE
  5
6A
102
{ACAD_REACTORS
330
69
102
}
102
{ACAD_XDICTIONARY
360
363
102
}
330
69
100
AcDbTableStyle
  3
Standard
 70
     0
 71
     0
 40
0.06
 41
0.06
280
     0
281
     0
  7
Standard
140
4.5
170
     2
 62
     0
 63
   257
283
     0
 90
        4
 91
        0
  1

274
    -2
284
     1
 64
     0
275
    -2
285
     1
 65
     0
276
    -2
286
     1
 66
     0
277
    -2
287
     1
 67
     0
278
    -2
288
     1
 68
     0
279
    -2
289
     1
 69
     0
  7
Standard
140
6.0
170
     5
 62
     0
 63
   257
283
     0
 90
        4
 91
        0
  1

274
    -2
284
     1
 64
     0
275
    -2
285
     1
 65
     0
276
    -2
286
     1
 66
     0
277
    -2
287
     1
 67
     0
278
    -2
288
     1
 68
     0
279
    -2
289
     1
 69
     0
  7
Standard
140
4.5
170
     5
 62
     0
 63
   257
283
     0
 90
        4
 91
        0
  1

274
    -2
284
     1
 64
     0
275
    -2
285
     1
 65
     0
276
    -2
286
     1
 66
     0
277
    -2
287
     1
 67
     0
278
    -2
288
     1
 68
     0
279
    -2
289
     1
 69
     0
  0
VISUALSTYLE
  5
2F
102
{ACAD_REACTORS
330
2A
102
}
102
{ACAD_XDICTIONARY
360
33B
102
}
330
2A
100
AcDbVisualStyle
  2
2dWireframe
 70
     4
 71
     0
 72
     2
 73
     0
 90
        0
 40
0.6
 41
30.0
 62
     5
 63
     7
421
 16777215
 74
     1
 91
        4
 64
     7
 65
   257
 75
     1
175
     1
 42
1.0
 92
        0
 66
   257
 43
1.0
 76
     1
 77
     6
 78
     2
 67
     7
 79
     5
170
     0
171
     0
290
     0
174
     0
 93
        1
 44
0.0
173
     0
291
     0
 45
0.0
  0
VISUALSTYLE
  5
32
102
{ACAD_REACTORS
330
2A
102
}
102
{ACAD_XDICTIONARY
360
341
102
}
330
2A
100
AcDbVisualStyle
  2
Basic
 70
     7
 71
     1
 72
     0
 73
     1
 90
        0
 40
0.6
 41
30.0
 62
     5
 63
     7
421
 16777215
 74
     0
 91
        4
 64
     7
 65
   257
 75
     1
175
     1
 42
1.0
 92
        8
 66
     7
 43
1.0
 76
     1
 77
     6
 78
     2
 67
     7
 79
     5
170
     0
171
     0
290
     0
174
     0
 93
        1
 44
0.0
173
     0
291
     1
 45
0.0
  0
VISUALSTYLE
  5
36
102
{ACAD_REACTORS
330
2A
102
}
102
{ACAD_XDICTIONARY
360
349
102
}
330
2A
100
AcDbVisualStyle
  2
Brighten
 70
    12
 71
     2
 72
     2
 73
     0
 90
        0
 40
0.6
 41
30.0
 62
     5
 63
     7
421
 16777215
 74
     1
 91
        4
 64
     7
 65
   257
 75
     1
175
     1
 42
1.0
 92
        8
 66
     7
 43
1.0
 76
     1
 77
     6
 78
     2
 67
     7
 79
     5
170
     0
171
     0
290
     0
174
     0
 93
        1
 44
50.0
173
     0
291
     1
 45
0.0
  0
VISUALSTYLE
  5
3A
102
{ACAD_REACTORS
330
2A
102
}
102
{ACAD_XDICTIONARY
360
351
102
}
330
2A
100
AcDbVisualStyle
  2
ColorChange
 70
    16
 71
     2
 72
     2
 73
     3
 90
        0
 40
0.6
 41
30.0
 62
     5
 63
     8
421
  8421504
 74
     1
 91
        4
 64
     7
 65
   257
 75
     1
175
     1
 42
1.0
 92
        8
 66
     8
424
  8421504
 43
1.0
 76
     1
 77
     6
 78
     2
 67
     7
 79
     5
170
     0
171
     0
290
     0
174
     0
 93
        1
 44
0.0
173
     0
291
     1
 45
0.0
  0
VISUALSTYLE
  5
34
102
{ACAD_REACTORS
330
2A
102
}
102
{ACAD_XDICTIONARY
360
345
102
}
330
2A
100
AcDbVisualStyle
  2
Conceptual
 70
     9
 71
     3
 72
     2
 73
     0
 90
        0
 40
0.6
 41
30.0
 62
     5
 63
     7
421
 16777215
 74
     2
 91
        2
 64
     7
 65
   257
 75
     1
175
     1
 42
179.0
 92
        8
 66
     7
 43
1.0
 76
     1
 77
     6
 78
     2
 67
     7
 79
     3
170
     0
171
     0
290
     0
174
     0
 93
        1
 44
0.0
173
     0
291
     0
 45
0.0
  0
VISUALSTYLE
  5
35
102
{ACAD_REACTORS
330
2A
102
}
102
{ACAD_XDICTIONARY
360
347
102
}
330
2A
100
AcDbVisualStyle
  2
Dim
 70
    11
 71
     2
 72
     2
 73
     0
 90
        0
 40
0.6
 41
30.0
 62
     5
 63
     7
421
 16777215
 74
     1
 91
        4
 64
     7
 65
   257
 75
     1
175
     1
 42
1.0
 92
        8
 66
     7
 43
1.0
 76
     1
 77
     6
 78
     2
 67
     7
 79
     5
170
     0
171
     0
290
     0
174
     0
 93
        1
 44
-50.0
173
     0
291
     1
 45
0.0
  0
VISUALSTYLE
  5
3D
102
{ACAD_REACTORS
330
2A
102
}
102
{ACAD_XDICTIONARY
360
357
102
}
330
2A
100
AcDbVisualStyle
  2
EdgeColorOff
 70
    22
 71
     2
 72
     2
 73
     0
 90
        0
 40
0.6
 41
30.0
 62
     5
 63
     7
421
 16777215
 74
     1
 91
        4
 64
     7
 65
   257
 75
     1
175
     1
 42
1.0
 92
        8
 66
     7
 43
1.0
 76
     1
 77
     6
 78
     2
 67
     7
 79
     5
170
     0
171
     0
290
     0
174
     0
 93
        1
 44
0.0
173
     0
291
     1
 45
0.0
  0
VISUALSTYLE
  5
39
102
{ACAD_REACTORS
330
2A
102
}
102
{ACAD_XDICTIONARY
360
34F
102
}
330
2A
100
AcDbVisualStyle
  2
Facepattern
 70
    15
 71
     2
 72
     2
 73
     0
 90
        0
 40
0.6
 41
30.0
 62
     5
 63
     7
421
 16777215
 74
     1
 91
        4
 64
     7
 65
   257
 75
     1
175
     1
 42
1.0
 92
        8
 66
     7
 43
1.0
 76
     1
 77
     6
 78
     2
 67
     7
 79
     5
170
     0
171
     0
290
     0
174
     0
 93
        1
 44
0.0
173
     0
291
     1
 45
0.0
  0
VISUALSTYLE
  5
2B
102
{ACAD_REACTORS
330
2A
102
}
102
{ACAD_XDICTIONARY
360
333
102
}
330
2A
100
AcDbVisualStyle
  2
Flat
 70
     0
 71
     2
 72
     1
 73
     1
 90
        2
 40
0.6
 41
30.0
 62
     5
 63
     7
421
 16777215
 74
     0
 91
        0
 64
     7
 65
   257
 75
     1
175
     1
 42
1.0
 92
        8
 66
     7
 43
1.0
 76
     1
 77
     6
 78
     2
 67
     7
 79
     5
170
     0
171
     0
290
     0
174
     0
 93
       13
 44
0.0
173
     0
291
     1
 45
0.0
  0
VISUALSTYLE
  5
2C
102
{ACAD_REACTORS
330
2A
102
}
102
{ACAD_XDICTIONARY
360
335
102
}
330
2A
100
AcDbVisualStyle
  2
FlatWithEdges
 70
     1
 71
     2
 72
     1
 73
     1
 90
        2
 40
0.6
 41
30.0
 62
     5
 63
     7
421
 16777215
 74
     1
 91
        0
 64
     7
 65
   257
 75
     1
175
     1
 42
1.0
 92
        0
 66
   257
 43
1.0
 76
     1
 77
     6
 78
     2
 67
     7
 79
     5
170
     0
171
     0
290
     0
174
     0
 93
       13
 44
0.0
173
     0
291
     1
 45
0.0
  0
VISUALSTYLE
  5
2D
102
{ACAD_REACTORS
330
2A
102
}
102
{ACAD_XDICTIONARY
360
337
102
}
330
2A
100
AcDbVisualStyle
  2
Gouraud
 70
     2
 71
     2
 72
     2
 73
     1
 90
        2
 40
0.6
 41
30.0
 62
     5
 63
     7
421
 16777215
 74
     0
 91
        0
 64
     7
 65
   257
 75
     1
175
     1
 42
1.0
 92
        0
 66
     7
 43
1.0
 76
     1
 77
     6
 78
     2
 67
     7
 79
     5
170
     0
171
     0
290
     0
174
     0
 93
       13
 44
0.0
173
     0
291
     1
 45
0.0
  0
VISUALSTYLE
  5
2E
102
{ACAD_REACTORS
330
2A
102
}
102
{ACAD_XDICTIONARY
360
339
102
}
330
2A
100
AcDbVisualStyle
  2
GouraudWithEdges
 70
     3
 71
     2
 72
     2
 73
     1
 90
        2
 40
0.6
 41
30.0
 62
     5
 63
     7
421
 16777215
 74
     1
 91
        0
 64
     7
 65
   257
 75
     1
175
     1
 42
1.0
 92
        0
 66
   257
 43
1.0
 76
     1
 77
     6
 78
     2
 67
     7
 79
     5
170
     0
171
     0
290
     0
174
     0
 93
       13
 44
0.0
173
     0
291
     1
 45
0.0
  0
VISUALSTYLE
  5
31
102
{ACAD_REACTORS
330
2A
102
}
102
{ACAD_XDICTIONARY
360
33F
102
}
330
2A
100
AcDbVisualStyle
  2
Hidden
 70
     6
 71
     1
 72
     2
 73
     2
 90
        0
 40
0.6
 41
30.0
 62
     5
 63
     7
421
 16777215
 74
     2
 91
        2
 64
     7
 65
   257
 75
     2
175
     1
 42
40.0
 92
        0
 66
   257
 43
1.0
 76
     1
 77
     6
 78
     2
 67
     7
 79
     3
170
     0
171
     0
290
     0
174
     0
 93
        1
 44
0.0
173
     0
291
     0
 45
0.0
  0
VISUALSTYLE
  5
3B
102
{ACAD_REACTORS
330
2A
102
}
102
{ACAD_XDICTIONARY
360
353
102
}
330
2A
100
AcDbVisualStyle
  2
JitterOff
 70
    20
 71
     2
 72
     2
 73
     0
 90
        0
 40
0.6
 41
30.0
 62
     5
 63
     7
421
 16777215
 74
     1
 91
        4
 64
     7
 65
   257
 75
     1
175
     1
 42
1.0
 92
       10
 66
     7
 43
1.0
 76
     1
 77
     6
 78
     2
 67
     7
 79
     5
170
     0
171
     0
290
     0
174
     0
 93
        1
 44
0.0
173
     0
291
     1
 45
0.0
  0
VISUALSTYLE
  5
38
102
{ACAD_REACTORS
330
2A
102
}
102
{ACAD_XDICTIONARY
360
34D
102
}
330
2A
100
AcDbVisualStyle
  2
Linepattern
 70
    14
 71
     2
 72
     2
 73
     0
 90
        0
 40
0.6
 41
30.0
 62
     5
 63
     7
421
 16777215
 74
     1
 91
        4
 64
     7
 65
   257
 75
     7
175
     7
 42
1.0
 92
        8
 66
     7
 43
1.0
 76
     1
 77
     6
 78
     2
 67
     7
 79
     5
170
     0
171
     0
290
     0
174
     0
 93
        1
 44
0.0
173
     0
291
     1
 45
0.0
  0
VISUALSTYLE
  5
3C
102
{ACAD_REACTORS
330
2A
102
}
102
{ACAD_XDICTIONARY
360
355
102
}
330
2A
100
AcDbVisualStyle
  2
OverhangOff
 70
    21
 71
     2
 72
     2
 73
     0
 90
        0
 40
0.6
 41
30.0
 62
     5
 63
     7
421
 16777215
 74
     1
 91
        4
 64
     7
 65
   257
 75
     1
175
     1
 42
1.0
 92
        9
 66
     7
 43
1.0
 76
     1
 77
     6
 78
     2
 67
     7
 79
     5
170
     0
171
     0
290
     0
174
     0
 93
        1
 44
0.0
173
     0
291
     1
 45
0.0
  0
VISUALSTYLE
  5
33
102
{ACAD_REACTORS
330
2A
102
}
102
{ACAD_XDICTIONARY
360
343
102
}
330
2A
100
AcDbVisualStyle
  2
Realistic
 70
     8
 71
     2
 72
     3
 73
     0
 90
        2
 40
0.6
 41
30.0
 62
     5
 63
     7
421
 16777215
 74
     0
 91
        0
 64
     7
 65
   257
 75
     1
175
     1
 42
1.0
 92
        8
 66
   257
 43
1.0
 76
     1
 77
     6
 78
     2
 67
     7
 79
     3
170
     0
171
     0
290
     0
174
     0
 93
       13
 44
0.0
173
     0
291
     0
 45
0.0
  0
VISUALSTYLE
  5
42
102
{ACAD_REACTORS
330
2A
102
}
102
{ACAD_XDICTIONARY
360
361
102
}
330
2A
100
AcDbVisualStyle
  2
Shaded
 70
    27
 71
     2
 72
     2
 73
     1
 90
        2
 40
0.6
 41
30.0
 62
     5
 63
     7
421
 16777215
 74
     0
 91
        4
 64
     7
 65
   257
 75
     1
175
     1
 42
1.0
 92
        8
 66
   257
 43
1.0
 76
     1
 77
     6
 78
     2
 67
     8
425
  7895160
 79
     3
170
     0
171
     0
290
     0
174
     0
 93
        5
 44
0.0
173
     0
291
     0
 45
0.0
  0
VISUALSTYLE
  5
41
102
{ACAD_REACTORS
330
2A
102
}
102
{ACAD_XDICTIONARY
360
35F
102
}
330
2A
100
AcDbVisualStyle
  2
Shaded with edges
 70
    26
 71
     2
 72
     2
 73
     1
 90
        2
 40
0.6
 41
30.0
 62
     5
 63
     7
421
 16777215
 74
     1
 91
       10
 64
     7
 65
   257
 75
     2
175
     1
 42
1.0
 92
        8
 66
   257
 43
1.0
 76
     1
 77
     6
 78
     2
 67
     7
 79
     3
170
     0
171
     0
290
     0
174
     0
 93
        5
 44
0.0
173
     0
291
     0
 45
0.0
  0
VISUALSTYLE
  5
3E
102
{ACAD_REACTORS
330
2A
102
}
102
{ACAD_XDICTIONARY
360
359
102
}
330
2A
100
AcDbVisualStyle
  2
Shades of Gray
 70
    23
 71
     2
 72
     2
 73
     3
 90
        0
 40
0.6
 41
30.0
 62
     5
 63
     7
421
 16777215
 74
     2
 91
        2
 64
     7
 65
     7
 75
     1
175
     1
 42
40.0
 92
        8
 66
     7
 43
1.0
 76
     1
 77
     6
 78
     2
 67
     7
 79
     3
170
     0
171
     0
290
     0
174
     0
 93
        1
 44
0.0
173
     0
291
     0
 45
0.0
  0
VISUALSTYLE
  5
3F
102
{ACAD_REACTORS
330
2A
102
}
102
{ACAD_XDICTIONARY
360
35B
102
}
330
2A
100
AcDbVisualStyle
  2
Sketchy
 70
    24
 71
     1
 72
     2
 73
     2
 90
        0
 40
0.6
 41
30.0
 62
     5
 63
     7
421
 16777215
 74
     2
 91
        2
 64
     7
 65
     7
 75
     1
175
     1
 42
40.0
 92
       11
 66
     7
 43
1.0
 76
     1
 77
     6
 78
     2
 67
     7
 79
     6
170
     0
171
     0
290
     0
174
     0
 93
        1
 44
0.0
173
     0
291
     0
 45
0.0
  0
VISUALSTYLE
  5
37
102
{ACAD_REACTORS
330
2A
102
}
102
{ACAD_XDICTIONARY
360
34B
102
}
330
2A
100
AcDbVisualStyle
  2
Thicken
 70
    13
 71
     2
 72
     2
 73
     0
 90
        0
 40
0.6
 41
30.0
 62
     5
 63
     7
421
 16777215
 74
     1
 91
        4
 64
     7
 65
   257
 75
     1
175
     1
 42
1.0
 92
       12
 66
     7
 43
1.0
 76
     1
 77
     6
 78
     2
 67
     7
 79
     5
170
     0
171
     0
290
     0
174
     0
 93
        1
 44
0.0
173
     0
291
     1
 45
0.0
  0
VISUALSTYLE
  5
30
102
{ACAD_REACTORS
330
2A
102
}
102
{ACAD_XDICTIONARY
360
33D
102
}
330
2A
100
AcDbVisualStyle
  2
Wireframe
 70
     5
 71
     0
 72
     2
 73
     0
 90
        0
 40
0.6
 41
30.0
 62
     5
 63
     7
421
 16777215
 74
     1
 91
        4
 64
     7
 65
   257
 75
     1
175
     1
 42
1.0
 92
        0
 66
   257
 43
1.0
 76
     1
 77
     6
 78
     2
 67
     7
 79
     3
170
     0
171
     0
290
     0
174
     0
 93
        1
 44
0.0
173
     0
291
     0
 45
0.0
  0
VISUALSTYLE
  5
40
102
{ACAD_REACTORS
330
2A
102
}
102
{ACAD_XDICTIONARY
360
35D
102
}
330
2A
100
AcDbVisualStyle
  2
X-Ray
 70
    25
 71
     2
 72
     2
 73
     1
 90
        1
 40
0.5
 41
30.0
 62
     5
 63
     7
421
 16777215
 74
     1
 91
        0
 64
     7
 65
   257
 75
     1
175
     1
 42
1.0
 92
        8
 66
     7
 43
1.0
 76
     1
 77
     6
 78
     2
 67
     7
 79
     3
170
     0
171
     0
290
     0
174
     0
 93
       13
 44
0.0
173
     0
291
     0
 45
0.0
  0
DICTIONARYVAR
  5
331
102
{ACAD_REACTORS
330
330
102
}
330
330
100
DictionaryVariables
280
     0
  1
1:1
  0
DICTIONARYVAR
  5
36A
102
{ACAD_REACTORS
330
330
102
}
330
330
100
DictionaryVariables
280
     0
  1
Standard
  0
DICTIONARYVAR
  5
369
102
{ACAD_REACTORS
330
330
102
}
330
330
100
DictionaryVariables
280
     0
  1
Standard
  0
DICTIONARYVAR
  5
332
102
{ACAD_REACTORS
330
330
102
}
330
330
100
DictionaryVariables
280
     0
  1
2
  0
DICTIONARY
  5
366
330
6C
100
AcDbDictionary
280
     1
281
     1
  3
ACAD_XREC_ROUNDTRIP
360
367
  0
DICTIONARY
  5
363
330
6A
100
AcDbDictionary
280
     1
281
     1
  3
ACAD_ROUNDTRIP_2008_TABLESTYLE_CELLSTYLEMAP
360
364
  0
DICTIONARY
  5
33B
330
2F
100
AcDbDictionary
280
     1
281
     1
  3
ACAD_XREC_ROUNDTRIP
360
33C
  0
DICTIONARY
  5
341
330
32
100
AcDbDictionary
280
     1
281
     1
  3
ACAD_XREC_ROUNDTRIP
360
342
  0
DICTIONARY
  5
349
330
36
100
AcDbDictionary
280
     1
281
     1
  3
ACAD_XREC_ROUNDTRIP
360
34A
  0
DICTIONARY
  5
351
330
3A
100
AcDbDictionary
280
     1
281
     1
  3
ACAD_XREC_ROUNDTRIP
360
352
  0
DICTIONARY
  5
345
330
34
100
AcDbDictionary
280
     1
281
     1
  3
ACAD_XREC_ROUNDTRIP
360
346
  0
DICTIONARY
  5
347
330
35
100
AcDbDictionary
280
     1
281
     1
  3
ACAD_XREC_ROUNDTRIP
360
348
  0
DICTIONARY
  5
357
330
3D
100
AcDbDictionary
280
     1
281
     1
  3
ACAD_XREC_ROUNDTRIP
360
358
  0
DICTIONARY
  5
34F
330
39
100
AcDbDictionary
280
     1
281
     1
  3
ACAD_XREC_ROUNDTRIP
360
350
  0
DICTIONARY
  5
333
330
2B
100
AcDbDictionary
280
     1
281
     1
  3
ACAD_XREC_ROUNDTRIP
360
334
  0
DICTIONARY
  5
335
330
2C
100
AcDbDictionary
280
     1
281
     1
  3
ACAD_XREC_ROUNDTRIP
360
336
  0
DICTIONARY
  5
337
330
2D
100
AcDbDictionary
280
     1
281
     1
  3
ACAD_XREC_ROUNDTRIP
360
338
  0
DICTIONARY
  5
339
330
2E
100
AcDbDictionary
280
     1
281
     1
  3
ACAD_XREC_ROUNDTRIP
360
33A
  0
DICTIONARY
  5
33F
330
31
100
AcDbDictionary
280
     1
281
     1
  3
ACAD_XREC_ROUNDTRIP
360
340
  0
DICTIONARY
  5
353
330
3B
100
AcDbDictionary
280
     1
281
     1
  3
ACAD_XREC_ROUNDTRIP
360
354
  0
DICTIONARY
  5
34D
330
38
100
AcDbDictionary
280
     1
281
     1
  3
ACAD_XREC_ROUNDTRIP
360
34E
  0
DICTIONARY
  5
355
330
3C
100
AcDbDictionary
280
     1
281
     1
  3
ACAD_XREC_ROUNDTRIP
360
356
  0
DICTIONARY
  5
343
330
33
100
AcDbDictionary
280
     1
281
     1
  3
ACAD_XREC_ROUNDTRIP
360
344
  0
DICTIONARY
  5
361
330
42
100
AcDbDictionary
280
     1
281
     1
  3
ACAD_XREC_ROUNDTRIP
360
362
  0
DICTIONARY
  5
35F
330
41
100
AcDbDictionary
280
     1
281
     1
  3
ACAD_XREC_ROUNDTRIP
360
360
  0
DICTIONARY
  5
359
330
3E
100
AcDbDictionary
280
     1
281
     1
  3
ACAD_XREC_ROUNDTRIP
360
35A
  0
DICTIONARY
  5
35B
330
3F
100
AcDbDictionary
280
     1
281
     1
  3
ACAD_XREC_ROUNDTRIP
360
35C
  0
DICTIONARY
  5
34B
330
37
100
AcDbDictionary
280
     1
281
     1
  3
ACAD_XREC_ROUNDTRIP
360
34C
  0
DICTIONARY
  5
33D
330
30
100
AcDbDictionary
280
     1
281
     1
  3
ACAD_XREC_ROUNDTRIP
360
33E
  0
DICTIONARY
  5
35D
330
40
100
AcDbDictionary
280
     1
281
     1
  3
ACAD_XREC_ROUNDTRIP
360
35E
  0
XRECORD
  5
367
102
{ACAD_REACTORS
330
366
102
}
330
366
100
AcDbXrecord
280
     1
102
ACAD_ROUNDTRIP_2010_MLEADER_STYLE
  0
CELLSTYLEMAP
  5
364
102
{ACAD_REACTORS
330
363
102
}
330
363
100
AcDbCellStyleMap
 90
        3
300
CELLSTYLE
  1
TABLEFORMAT_BEGIN
 90
        5
170
     1
 91
        0
 92
    32768
 62
   257
 93
        1
300
CONTENTFORMAT
  1
CONTENTFORMAT_BEGIN
 90
        0
 91
        0
 92
        4
 93
        0
300

 40
0.0
140
1.0
 94
        5
 62
     0
340
11
144
6.0
309
CONTENTFORMAT_END
171
     1
301
MARGIN
  1
CELLMARGIN_BEGIN
 40
1.5
 40
1.5
 40
1.5
 40
1.5
 40
1.5
 40
1.5
309
CELLMARGIN_END
 94
        6
 95
        1
302
GRIDFORMAT
  1
GRIDFORMAT_BEGIN
 90
        0
 91
        1
 62
     0
 92
       -2
340
14
 93
        0
 40
0.045
309
GRIDFORMAT_END
 95
        2
302
GRIDFORMAT
  1
GRIDFORMAT_BEGIN
 90
        0
 91
        1
 62
     0
 92
       -2
340
14
 93
        0
 40
0.045
309
GRIDFORMAT_END
 95
        4
302
GRIDFORMAT
  1
GRIDFORMAT_BEGIN
 90
        0
 91
        1
 62
     0
 92
       -2
340
14
 93
        0
 40
0.045
309
GRIDFORMAT_END
 95
        8
302
GRIDFORMAT
  1
GRIDFORMAT_BEGIN
 90
        0
 91
        1
 62
     0
 92
       -2
340
14
 93
        0
 40
0.045
309
GRIDFORMAT_END
 95
       16
302
GRIDFORMAT
  1
GRIDFORMAT_BEGIN
 90
        0
 91
        1
 62
     0
 92
       -2
340
14
 93
        0
 40
0.045
309
GRIDFORMAT_END
 95
       32
302
GRIDFORMAT
  1
GRIDFORMAT_BEGIN
 90
        0
 91
        1
 62
     0
 92
       -2
340
14
 93
        0
 40
0.045
309
GRIDFORMAT_END
309
TABLEFORMAT_END
  1
CELLSTYLE_BEGIN
 90
        1
 91
        1
300
_TITLE
309
CELLSTYLE_END
300
CELLSTYLE
  1
TABLEFORMAT_BEGIN
 90
        5
170
     1
 91
        0
 92
        0
 62
   257
 93
        1
300
CONTENTFORMAT
  1
CONTENTFORMAT_BEGIN
 90
        0
 91
        0
 92
        4
 93
        0
300

 40
0.0
140
1.0
 94
        5
 62
     0
340
11
144
4.5
309
CONTENTFORMAT_END
171
     1
301
MARGIN
  1
CELLMARGIN_BEGIN
 40
1.5
 40
1.5
 40
1.5
 40
1.5
 40
1.5
 40
1.5
309
CELLMARGIN_END
 94
        6
 95
        1
302
GRIDFORMAT
  1
GRIDFORMAT_BEGIN
 90
        0
 91
        1
 62
     0
 92
       -2
340
14
 93
        0
 40
0.045
309
GRIDFORMAT_END
 95
        2
302
GRIDFORMAT
  1
GRIDFORMAT_BEGIN
 90
        0
 91
        1
 62
     0
 92
       -2
340
14
 93
        0
 40
0.045
309
GRIDFORMAT_END
 95
        4
302
GRIDFORMAT
  1
GRIDFORMAT_BEGIN
 90
        0
 91
        1
 62
     0
 92
       -2
340
14
 93
        0
 40
0.045
309
GRIDFORMAT_END
 95
        8
302
GRIDFORMAT
  1
GRIDFORMAT_BEGIN
 90
        0
 91
        1
 62
     0
 92
       -2
340
14
 93
        0
 40
0.045
309
GRIDFORMAT_END
 95
       16
302
GRIDFORMAT
  1
GRIDFORMAT_BEGIN
 90
        0
 91
        1
 62
     0
 92
       -2
340
14
 93
        0
 40
0.045
309
GRIDFORMAT_END
 95
       32
302
GRIDFORMAT
  1
GRIDFORMAT_BEGIN
 90
        0
 91
        1
 62
     0
 92
       -2
340
14
 93
        0
 40
0.045
309
GRIDFORMAT_END
309
TABLEFORMAT_END
  1
CELLSTYLE_BEGIN
 90
        2
 91
        1
300
_HEADER
309
CELLSTYLE_END
300
CELLSTYLE
  1
TABLEFORMAT_BEGIN
 90
        5
170
     1
 91
        0
 92
        0
 62
   257
 93
        1
300
CONTENTFORMAT
  1
CONTENTFORMAT_BEGIN
 90
        0
 91
        0
 92
        4
 93
        0
300

 40
0.0
140
1.0
 94
        2
 62
     0
340
11
144
4.5
309
CONTENTFORMAT_END
171
     1
301
MARGIN
  1
CELLMARGIN_BEGIN
 40
1.5
 40
1.5
 40
1.5
 40
1.5
 40
1.5
 40
1.5
309
CELLMARGIN_END
 94
        6
 95
        1
302
GRIDFORMAT
  1
GRIDFORMAT_BEGIN
 90
        0
 91
        1
 62
     0
 92
       -2
340
14
 93
        0
 40
0.045
309
GRIDFORMAT_END
 95
        2
302
GRIDFORMAT
  1
GRIDFORMAT_BEGIN
 90
        0
 91
        1
 62
     0
 92
       -2
340
14
 93
        0
 40
0.045
309
GRIDFORMAT_END
 95
        4
302
GRIDFORMAT
  1
GRIDFORMAT_BEGIN
 90
        0
 91
        1
 62
     0
 92
       -2
340
14
 93
        0
 40
0.045
309
GRIDFORMAT_END
 95
        8
302
GRIDFORMAT
  1
GRIDFORMAT_BEGIN
 90
        0
 91
        1
 62
     0
 92
       -2
340
14
 93
        0
 40
0.045
309
GRIDFORMAT_END
 95
       16
302
GRIDFORMAT
  1
GRIDFORMAT_BEGIN
 90
        0
 91
        1
 62
     0
 92
       -2
340
14
 93
        0
 40
0.045
309
GRIDFORMAT_END
 95
       32
302
GRIDFORMAT
  1
GRIDFORMAT_BEGIN
 90
        0
 91
        1
 62
     0
 92
       -2
340
14
 93
        0
 40
0.045
309
GRIDFORMAT_END
309
TABLEFORMAT_END
  1
CELLSTYLE_BEGIN
 90
        3
 91
        2
300
_DATA
309
CELLSTYLE_END
  0
XRECORD
  5
33C
102
{ACAD_REACTORS
330
33B
102
}
330
33B
100
AcDbXrecord
280
     1
102
RTVSPropertyOp0
 70
     1
102
RTVSPropertyOp1
 70
     1
102
RTVSPropertyOp2
 70
     1
102
RTVSPropertyOp3
 70
     1
102
RTVSPropertyOp4
 70
     1
102
RTVSPropertyOp5
 70
     1
102
RTVSPropertyOp6
 70
     1
102
RTVSPropertyOp7
 70
     1
102
RTVSPropertyOp8
 70
     1
102
RTVSPropertyOp9
 70
     1
102
RTVSPropertyOp10
 70
     1
102
RTVSPropertyOp11
 70
     1
102
RTVSPropertyOp12
 70
     1
102
RTVSPropertyOp13
 70
     1
102
RTVSPropertyOp14
 70
     1
102
RTVSPropertyOp15
 70
     1
102
RTVSPropertyOp16
 70
     1
102
RTVSPropertyOp17
 70
     1
102
RTVSPropertyOp18
 70
     1
102
RTVSPropertyOp19
 70
     1
102
RTVSPropertyOp20
 70
     1
102
RTVSPropertyOp21
 70
     1
102
RTVSPropertyOp22
 70
     1
102
RTVSPropertyOp23
 70
     1
102
RTVSPropertyOp24
 70
     1
102
RTVSPropertyOp25
 70
     1
102
RTVSPropertyOp26
 70
     1
102
RTVSPropertyOp27
 70
     1
102
RTVSPropertyOp28
 70
     1
102
RTVSPropertyOp29
 70
     1
102
RTVSPropertyOp30
 70
     1
102
RTVSPropertyOp31
 70
     1
102
RTVSPropertyOp32
 70
     1
102
RTVSPropertyOp33
 70
     1
102
RTVSPropertyOp34
 70
     1
102
RTVSPropertyOp35
 70
     1
102
RTVSPropertyOp36
 70
     1
102
RTVSPropertyOp37
 70
     1
102
RTVSPropertyOp38
 70
     1
102
RTVSPropertyOp39
 70
     1
102
RTVSPropertyOp40
 70
     1
102
RTVSPropertyOp41
 70
     1
102
RTVSPropertyOp42
 70
     1
102
RTVSPropertyOp43
 70
     1
102
RTVSPropertyOp44
 70
     1
102
RTVSPropertyOp45
 70
     1
102
RTVSPropertyOp46
 70
     1
102
RTVSPropertyOp47
 70
     1
102
RTVSPropertyOp48
 70
     1
102
RTVSPropertyOp49
 70
     1
102
RTVSPropertyOp50
 70
     1
102
RTVSPropertyOp51
 70
     0
102
RTVSPropertyOp52
 70
     0
102
RTVSPropertyOp53
 70
     1
102
RTVSPropertyOp54
 70
     1
102
RTVSPropertyOp55
 70
     1
102
RTVSPropertyOp56
 70
     1
102
RTVSPropertyOp57
 70
     1
102
RTVSPost2010Prop28
280
     1
102
RTVSPost2010PropOp28
 70
     1
102
RTVSPost2010Prop29
280
     1
102
RTVSPost2010PropOp29
 70
     1
102
RTVSPost2010Prop30
280
     0
102
RTVSPost2010PropOp30
 70
     1
102
RTVSPost2010Prop31
280
     0
102
RTVSPost2010PropOp31
 70
     1
102
RTVSPost2010Prop32
280
     0
102
RTVSPost2010PropOp32
 70
     1
102
RTVSPost2010Prop33
280
     0
102
RTVSPost2010PropOp33
 70
     1
102
RTVSPost2010Prop34
280
     0
102
RTVSPost2010PropOp34
 70
     1
102
RTVSPost2010Prop35
280
     0
102
RTVSPost2010PropOp35
 70
     1
102
RTVSPost2010Prop36
280
     0
102
RTVSPost2010PropOp36
 70
     1
102
RTVSPost2010Prop37
 90
       50
102
RTVSPost2010PropOp37
 70
     1
102
RTVSPost2010Prop38
140
0.0
102
RTVSPost2010PropOp38
 70
     1
102
RTVSPost2010Prop39
140
1.0
102
RTVSPost2010PropOp39
 70
     1
102
RTVSPost2010Prop40
 90
        0
102
RTVSPost2010PropOp40
 70
     1
102
RTVSPost2010Prop41ColorIndex
 90
       18
102
RTVSPost2010Prop41ColorRGB
 90
        0
102
RTVSPost2010PropOp41
 70
     1
102
RTVSPost2010Prop42
 90
       50
102
RTVSPost2010PropOp42
 70
     1
102
RTVSPost2010Prop43
 90
        3
102
RTVSPost2010PropOp43
 70
     1
102
RTVSPost2010Prop44ColorIndex
 90
        5
102
RTVSPost2010Prop44ColorRGB
 90
      255
102
RTVSPost2010PropOp44
 70
     1
102
RTVSPost2010Prop45
280
     0
102
RTVSPost2010PropOp45
 70
     1
102
RTVSPost2010Prop46
 90
       50
102
RTVSPost2010PropOp46
 70
     1
102
RTVSPost2010Prop47
 90
       50
102
RTVSPost2010PropOp47
 70
     1
102
RTVSPost2010Prop48
 90
       50
102
RTVSPost2010PropOp48
 70
     1
102
RTVSPost2010Prop49
280
     0
102
RTVSPost2010PropOp49
 70
     1
102
RTVSPost2010Prop50
 90
       50
102
RTVSPost2010PropOp50
 70
     1
102
RTVSPost2010Prop51ColorIndex
 90
      256
102
RTVSPost2010Prop51ColorRGB
 90
-16777216
102
RTVSPost2010PropOp51
 70
     0
102
RTVSPost2010Prop52
140
1.0
102
RTVSPost2010PropOp52
 70
     0
102
RTVSPost2010Prop53
 90
        2
102
RTVSPost2010PropOp53
 70
     1
102
RTVSPost2010Prop54
  1
strokes_ogs.tif
102
RTVSPost2010PropOp54
 70
     1
102
RTVSPost2010Prop55
280
     0
102
RTVSPost2010PropOp55
 70
     1
102
RTVSPost2010Prop56
140
1.0
102
RTVSPost2010PropOp56
 70
     1
102
RTVSPost2010Prop57
140
1.0
102
RTVSPost2010PropOp57
 70
     1
  0
XRECORD
  5
342
102
{ACAD_REACTORS
330
341
102
}
330
341
100
AcDbXrecord
280
     1
102
RTVSPropertyOp0
 70
     1
102
RTVSPropertyOp1
 70
     1
102
RTVSPropertyOp2
 70
     1
102
RTVSPropertyOp3
 70
     1
102
RTVSPropertyOp4
 70
     1
102
RTVSPropertyOp5
 70
     1
102
RTVSPropertyOp6
 70
     1
102
RTVSPropertyOp7
 70
     1
102
RTVSPropertyOp8
 70
     1
102
RTVSPropertyOp9
 70
     1
102
RTVSPropertyOp10
 70
     1
102
RTVSPropertyOp11
 70
     1
102
RTVSPropertyOp12
 70
     1
102
RTVSPropertyOp13
 70
     1
102
RTVSPropertyOp14
 70
     1
102
RTVSPropertyOp15
 70
     1
102
RTVSPropertyOp16
 70
     1
102
RTVSPropertyOp17
 70
     1
102
RTVSPropertyOp18
 70
     1
102
RTVSPropertyOp19
 70
     1
102
RTVSPropertyOp20
 70
     1
102
RTVSPropertyOp21
 70
     1
102
RTVSPropertyOp22
 70
     1
102
RTVSPropertyOp23
 70
     1
102
RTVSPropertyOp24
 70
     1
102
RTVSPropertyOp25
 70
     1
102
RTVSPropertyOp26
 70
     1
102
RTVSPropertyOp27
 70
     1
102
RTVSPropertyOp28
 70
     1
102
RTVSPropertyOp29
 70
     1
102
RTVSPropertyOp30
 70
     1
102
RTVSPropertyOp31
 70
     1
102
RTVSPropertyOp32
 70
     1
102
RTVSPropertyOp33
 70
     1
102
RTVSPropertyOp34
 70
     1
102
RTVSPropertyOp35
 70
     1
102
RTVSPropertyOp36
 70
     1
102
RTVSPropertyOp37
 70
     1
102
RTVSPropertyOp38
 70
     1
102
RTVSPropertyOp39
 70
     1
102
RTVSPropertyOp40
 70
     1
102
RTVSPropertyOp41
 70
     1
102
RTVSPropertyOp42
 70
     1
102
RTVSPropertyOp43
 70
     1
102
RTVSPropertyOp44
 70
     1
102
RTVSPropertyOp45
 70
     1
102
RTVSPropertyOp46
 70
     1
102
RTVSPropertyOp47
 70
     1
102
RTVSPropertyOp48
 70
     1
102
RTVSPropertyOp49
 70
     1
102
RTVSPropertyOp50
 70
     1
102
RTVSPropertyOp51
 70
     0
102
RTVSPropertyOp52
 70
     0
102
RTVSPropertyOp53
 70
     1
102
RTVSPropertyOp54
 70
     1
102
RTVSPropertyOp55
 70
     1
102
RTVSPropertyOp56
 70
     1
102
RTVSPropertyOp57
 70
     1
102
RTVSPost2010Prop28
280
     0
102
RTVSPost2010PropOp28
 70
     1
102
RTVSPost2010Prop29
280
     1
102
RTVSPost2010PropOp29
 70
     1
102
RTVSPost2010Prop30
280
     1
102
RTVSPost2010PropOp30
 70
     1
102
RTVSPost2010Prop31
280
     0
102
RTVSPost2010PropOp31
 70
     1
102
RTVSPost2010Prop32
280
     0
102
RTVSPost2010PropOp32
 70
     1
102
RTVSPost2010Prop33
280
     0
102
RTVSPost2010PropOp33
 70
     1
102
RTVSPost2010Prop34
280
     0
102
RTVSPost2010PropOp34
 70
     1
102
RTVSPost2010Prop35
280
     0
102
RTVSPost2010PropOp35
 70
     1
102
RTVSPost2010Prop36
280
     0
102
RTVSPost2010PropOp36
 70
     1
102
RTVSPost2010Prop37
 90
       50
102
RTVSPost2010PropOp37
 70
     1
102
RTVSPost2010Prop38
140
0.0
102
RTVSPost2010PropOp38
 70
     1
102
RTVSPost2010Prop39
140
1.0
102
RTVSPost2010PropOp39
 70
     1
102
RTVSPost2010Prop40
 90
        0
102
RTVSPost2010PropOp40
 70
     1
102
RTVSPost2010Prop41ColorIndex
 90
       18
102
RTVSPost2010Prop41ColorRGB
 90
        0
102
RTVSPost2010PropOp41
 70
     1
102
RTVSPost2010Prop42
 90
       50
102
RTVSPost2010PropOp42
 70
     1
102
RTVSPost2010Prop43
 90
        3
102
RTVSPost2010PropOp43
 70
     1
102
RTVSPost2010Prop44ColorIndex
 90
        5
102
RTVSPost2010Prop44ColorRGB
 90
      255
102
RTVSPost2010PropOp44
 70
     1
102
RTVSPost2010Prop45
280
     0
102
RTVSPost2010PropOp45
 70
     1
102
RTVSPost2010Prop46
 90
       50
102
RTVSPost2010PropOp46
 70
     1
102
RTVSPost2010Prop47
 90
       50
102
RTVSPost2010PropOp47
 70
     1
102
RTVSPost2010Prop48
 90
       50
102
RTVSPost2010PropOp48
 70
     1
102
RTVSPost2010Prop49
280
     0
102
RTVSPost2010PropOp49
 70
     1
102
RTVSPost2010Prop50
 90
       50
102
RTVSPost2010PropOp50
 70
     1
102
RTVSPost2010Prop51ColorIndex
 90
      256
102
RTVSPost2010Prop51ColorRGB
 90
-16777216
102
RTVSPost2010PropOp51
 70
     0
102
RTVSPost2010Prop52
140
1.0
102
RTVSPost2010PropOp52
 70
     0
102
RTVSPost2010Prop53
 90
        2
102
RTVSPost2010PropOp53
 70
     1
102
RTVSPost2010Prop54
  1
strokes_ogs.tif
102
RTVSPost2010PropOp54
 70
     1
102
RTVSPost2010Prop55
280
     0
102
RTVSPost2010PropOp55
 70
     1
102
RTVSPost2010Prop56
140
1.0
102
RTVSPost2010PropOp56
 70
     1
102
RTVSPost2010Prop57
140
1.0
102
RTVSPost2010PropOp57
 70
     1
  0
XRECORD
  5
34A
102
{ACAD_REACTORS
330
349
102
}
330
349
100
AcDbXrecord
280
     1
102
RTVSPropertyOp0
 70
     1
102
RTVSPropertyOp1
 70
     1
102
RTVSPropertyOp2
 70
     1
102
RTVSPropertyOp3
 70
     1
102
RTVSPropertyOp4
 70
     1
102
RTVSPropertyOp5
 70
     1
102
RTVSPropertyOp6
 70
     1
102
RTVSPropertyOp7
 70
     1
102
RTVSPropertyOp8
 70
     1
102
RTVSPropertyOp9
 70
     1
102
RTVSPropertyOp10
 70
     1
102
RTVSPropertyOp11
 70
     1
102
RTVSPropertyOp12
 70
     1
102
RTVSPropertyOp13
 70
     1
102
RTVSPropertyOp14
 70
     1
102
RTVSPropertyOp15
 70
     1
102
RTVSPropertyOp16
 70
     1
102
RTVSPropertyOp17
 70
     1
102
RTVSPropertyOp18
 70
     1
102
RTVSPropertyOp19
 70
     1
102
RTVSPropertyOp20
 70
     1
102
RTVSPropertyOp21
 70
     1
102
RTVSPropertyOp22
 70
     1
102
RTVSPropertyOp23
 70
     1
102
RTVSPropertyOp24
 70
     1
102
RTVSPropertyOp25
 70
     1
102
RTVSPropertyOp26
 70
     1
102
RTVSPropertyOp27
 70
     1
102
RTVSPropertyOp28
 70
     1
102
RTVSPropertyOp29
 70
     1
102
RTVSPropertyOp30
 70
     1
102
RTVSPropertyOp31
 70
     1
102
RTVSPropertyOp32
 70
     1
102
RTVSPropertyOp33
 70
     1
102
RTVSPropertyOp34
 70
     1
102
RTVSPropertyOp35
 70
     1
102
RTVSPropertyOp36
 70
     1
102
RTVSPropertyOp37
 70
     1
102
RTVSPropertyOp38
 70
     1
102
RTVSPropertyOp39
 70
     1
102
RTVSPropertyOp40
 70
     1
102
RTVSPropertyOp41
 70
     1
102
RTVSPropertyOp42
 70
     1
102
RTVSPropertyOp43
 70
     1
102
RTVSPropertyOp44
 70
     1
102
RTVSPropertyOp45
 70
     1
102
RTVSPropertyOp46
 70
     1
102
RTVSPropertyOp47
 70
     1
102
RTVSPropertyOp48
 70
     1
102
RTVSPropertyOp49
 70
     1
102
RTVSPropertyOp50
 70
     1
102
RTVSPropertyOp51
 70
     0
102
RTVSPropertyOp52
 70
     0
102
RTVSPropertyOp53
 70
     1
102
RTVSPropertyOp54
 70
     1
102
RTVSPropertyOp55
 70
     1
102
RTVSPropertyOp56
 70
     1
102
RTVSPropertyOp57
 70
     1
102
RTVSPost2010Prop28
280
     0
102
RTVSPost2010PropOp28
 70
     1
102
RTVSPost2010Prop29
280
     1
102
RTVSPost2010PropOp29
 70
     1
102
RTVSPost2010Prop30
280
     1
102
RTVSPost2010PropOp30
 70
     1
102
RTVSPost2010Prop31
280
     0
102
RTVSPost2010PropOp31
 70
     1
102
RTVSPost2010Prop32
280
     0
102
RTVSPost2010PropOp32
 70
     1
102
RTVSPost2010Prop33
280
     0
102
RTVSPost2010PropOp33
 70
     1
102
RTVSPost2010Prop34
280
     0
102
RTVSPost2010PropOp34
 70
     1
102
RTVSPost2010Prop35
280
     0
102
RTVSPost2010PropOp35
 70
     1
102
RTVSPost2010Prop36
280
     0
102
RTVSPost2010PropOp36
 70
     1
102
RTVSPost2010Prop37
 90
       50
102
RTVSPost2010PropOp37
 70
     1
102
RTVSPost2010Prop38
140
0.0
102
RTVSPost2010PropOp38
 70
     1
102
RTVSPost2010Prop39
140
1.0
102
RTVSPost2010PropOp39
 70
     1
102
RTVSPost2010Prop40
 90
        0
102
RTVSPost2010PropOp40
 70
     1
102
RTVSPost2010Prop41ColorIndex
 90
       18
102
RTVSPost2010Prop41ColorRGB
 90
        0
102
RTVSPost2010PropOp41
 70
     1
102
RTVSPost2010Prop42
 90
       50
102
RTVSPost2010PropOp42
 70
     1
102
RTVSPost2010Prop43
 90
        3
102
RTVSPost2010PropOp43
 70
     1
102
RTVSPost2010Prop44ColorIndex
 90
        5
102
RTVSPost2010Prop44ColorRGB
 90
      255
102
RTVSPost2010PropOp44
 70
     1
102
RTVSPost2010Prop45
280
     0
102
RTVSPost2010PropOp45
 70
     1
102
RTVSPost2010Prop46
 90
       50
102
RTVSPost2010PropOp46
 70
     1
102
RTVSPost2010Prop47
 90
       50
102
RTVSPost2010PropOp47
 70
     1
102
RTVSPost2010Prop48
 90
       50
102
RTVSPost2010PropOp48
 70
     1
102
RTVSPost2010Prop49
280
     0
102
RTVSPost2010PropOp49
 70
     1
102
RTVSPost2010Prop50
 90
       50
102
RTVSPost2010PropOp50
 70
     1
102
RTVSPost2010Prop51ColorIndex
 90
      256
102
RTVSPost2010Prop51ColorRGB
 90
-16777216
102
RTVSPost2010PropOp51
 70
     0
102
RTVSPost2010Prop52
140
1.0
102
RTVSPost2010PropOp52
 70
     0
102
RTVSPost2010Prop53
 90
        2
102
RTVSPost2010PropOp53
 70
     1
102
RTVSPost2010Prop54
  1
strokes_ogs.tif
102
RTVSPost2010PropOp54
 70
     1
102
RTVSPost2010Prop55
280
     0
102
RTVSPost2010PropOp55
 70
     1
102
RTVSPost2010Prop56
140
1.0
102
RTVSPost2010PropOp56
 70
     1
102
RTVSPost2010Prop57
140
1.0
102
RTVSPost2010PropOp57
 70
     1
  0
XRECORD
  5
352
102
{ACAD_REACTORS
330
351
102
}
330
351
100
AcDbXrecord
280
     1
102
RTVSPropertyOp0
 70
     1
102
RTVSPropertyOp1
 70
     1
102
RTVSPropertyOp2
 70
     1
102
RTVSPropertyOp3
 70
     1
102
RTVSPropertyOp4
 70
     1
102
RTVSPropertyOp5
 70
     1
102
RTVSPropertyOp6
 70
     1
102
RTVSPropertyOp7
 70
     1
102
RTVSPropertyOp8
 70
     1
102
RTVSPropertyOp9
 70
     1
102
RTVSPropertyOp10
 70
     1
102
RTVSPropertyOp11
 70
     1
102
RTVSPropertyOp12
 70
     1
102
RTVSPropertyOp13
 70
     1
102
RTVSPropertyOp14
 70
     1
102
RTVSPropertyOp15
 70
     1
102
RTVSPropertyOp16
 70
     1
102
RTVSPropertyOp17
 70
     1
102
RTVSPropertyOp18
 70
     1
102
RTVSPropertyOp19
 70
     1
102
RTVSPropertyOp20
 70
     1
102
RTVSPropertyOp21
 70
     1
102
RTVSPropertyOp22
 70
     1
102
RTVSPropertyOp23
 70
     1
102
RTVSPropertyOp24
 70
     1
102
RTVSPropertyOp25
 70
     1
102
RTVSPropertyOp26
 70
     1
102
RTVSPropertyOp27
 70
     1
102
RTVSPropertyOp28
 70
     1
102
RTVSPropertyOp29
 70
     1
102
RTVSPropertyOp30
 70
     1
102
RTVSPropertyOp31
 70
     1
102
RTVSPropertyOp32
 70
     1
102
RTVSPropertyOp33
 70
     1
102
RTVSPropertyOp34
 70
     1
102
RTVSPropertyOp35
 70
     1
102
RTVSPropertyOp36
 70
     1
102
RTVSPropertyOp37
 70
     1
102
RTVSPropertyOp38
 70
     1
102
RTVSPropertyOp39
 70
     1
102
RTVSPropertyOp40
 70
     1
102
RTVSPropertyOp41
 70
     1
102
RTVSPropertyOp42
 70
     1
102
RTVSPropertyOp43
 70
     1
102
RTVSPropertyOp44
 70
     1
102
RTVSPropertyOp45
 70
     1
102
RTVSPropertyOp46
 70
     1
102
RTVSPropertyOp47
 70
     1
102
RTVSPropertyOp48
 70
     1
102
RTVSPropertyOp49
 70
     1
102
RTVSPropertyOp50
 70
     1
102
RTVSPropertyOp51
 70
     0
102
RTVSPropertyOp52
 70
     0
102
RTVSPropertyOp53
 70
     1
102
RTVSPropertyOp54
 70
     1
102
RTVSPropertyOp55
 70
     1
102
RTVSPropertyOp56
 70
     1
102
RTVSPropertyOp57
 70
     1
102
RTVSPost2010Prop28
280
     0
102
RTVSPost2010PropOp28
 70
     1
102
RTVSPost2010Prop29
280
     1
102
RTVSPost2010PropOp29
 70
     1
102
RTVSPost2010Prop30
280
     1
102
RTVSPost2010PropOp30
 70
     1
102
RTVSPost2010Prop31
280
     0
102
RTVSPost2010PropOp31
 70
     1
102
RTVSPost2010Prop32
280
     0
102
RTVSPost2010PropOp32
 70
     1
102
RTVSPost2010Prop33
280
     0
102
RTVSPost2010PropOp33
 70
     1
102
RTVSPost2010Prop34
280
     0
102
RTVSPost2010PropOp34
 70
     1
102
RTVSPost2010Prop35
280
     0
102
RTVSPost2010PropOp35
 70
     1
102
RTVSPost2010Prop36
280
     0
102
RTVSPost2010PropOp36
 70
     1
102
RTVSPost2010Prop37
 90
       50
102
RTVSPost2010PropOp37
 70
     1
102
RTVSPost2010Prop38
140
0.0
102
RTVSPost2010PropOp38
 70
     1
102
RTVSPost2010Prop39
140
1.0
102
RTVSPost2010PropOp39
 70
     1
102
RTVSPost2010Prop40
 90
        0
102
RTVSPost2010PropOp40
 70
     1
102
RTVSPost2010Prop41ColorIndex
 90
       18
102
RTVSPost2010Prop41ColorRGB
 90
        0
102
RTVSPost2010PropOp41
 70
     1
102
RTVSPost2010Prop42
 90
       50
102
RTVSPost2010PropOp42
 70
     1
102
RTVSPost2010Prop43
 90
        3
102
RTVSPost2010PropOp43
 70
     1
102
RTVSPost2010Prop44ColorIndex
 90
        5
102
RTVSPost2010Prop44ColorRGB
 90
      255
102
RTVSPost2010PropOp44
 70
     1
102
RTVSPost2010Prop45
280
     0
102
RTVSPost2010PropOp45
 70
     1
102
RTVSPost2010Prop46
 90
       50
102
RTVSPost2010PropOp46
 70
     1
102
RTVSPost2010Prop47
 90
       50
102
RTVSPost2010PropOp47
 70
     1
102
RTVSPost2010Prop48
 90
       50
102
RTVSPost2010PropOp48
 70
     1
102
RTVSPost2010Prop49
280
     0
102
RTVSPost2010PropOp49
 70
     1
102
RTVSPost2010Prop50
 90
       50
102
RTVSPost2010PropOp50
 70
     1
102
RTVSPost2010Prop51ColorIndex
 90
      256
102
RTVSPost2010Prop51ColorRGB
 90
-16777216
102
RTVSPost2010PropOp51
 70
     0
102
RTVSPost2010Prop52
140
1.0
102
RTVSPost2010PropOp52
 70
     0
102
RTVSPost2010Prop53
 90
        2
102
RTVSPost2010PropOp53
 70
     1
102
RTVSPost2010Prop54
  1
strokes_ogs.tif
102
RTVSPost2010PropOp54
 70
     1
102
RTVSPost2010Prop55
280
     0
102
RTVSPost2010PropOp55
 70
     1
102
RTVSPost2010Prop56
140
1.0
102
RTVSPost2010PropOp56
 70
     1
102
RTVSPost2010Prop57
140
1.0
102
RTVSPost2010PropOp57
 70
     1
  0
XRECORD
  5
346
102
{ACAD_REACTORS
330
345
102
}
330
345
100
AcDbXrecord
280
     1
102
RTVSPropertyOp0
 70
     1
102
RTVSPropertyOp1
 70
     1
102
RTVSPropertyOp2
 70
     1
102
RTVSPropertyOp3
 70
     1
102
RTVSPropertyOp4
 70
     1
102
RTVSPropertyOp5
 70
     1
102
RTVSPropertyOp6
 70
     1
102
RTVSPropertyOp7
 70
     1
102
RTVSPropertyOp8
 70
     1
102
RTVSPropertyOp9
 70
     1
102
RTVSPropertyOp10
 70
     1
102
RTVSPropertyOp11
 70
     1
102
RTVSPropertyOp12
 70
     1
102
RTVSPropertyOp13
 70
     1
102
RTVSPropertyOp14
 70
     1
102
RTVSPropertyOp15
 70
     1
102
RTVSPropertyOp16
 70
     1
102
RTVSPropertyOp17
 70
     1
102
RTVSPropertyOp18
 70
     1
102
RTVSPropertyOp19
 70
     1
102
RTVSPropertyOp20
 70
     1
102
RTVSPropertyOp21
 70
     1
102
RTVSPropertyOp22
 70
     1
102
RTVSPropertyOp23
 70
     1
102
RTVSPropertyOp24
 70
     1
102
RTVSPropertyOp25
 70
     1
102
RTVSPropertyOp26
 70
     1
102
RTVSPropertyOp27
 70
     1
102
RTVSPropertyOp28
 70
     1
102
RTVSPropertyOp29
 70
     1
102
RTVSPropertyOp30
 70
     1
102
RTVSPropertyOp31
 70
     1
102
RTVSPropertyOp32
 70
     1
102
RTVSPropertyOp33
 70
     1
102
RTVSPropertyOp34
 70
     1
102
RTVSPropertyOp35
 70
     1
102
RTVSPropertyOp36
 70
     1
102
RTVSPropertyOp37
 70
     1
102
RTVSPropertyOp38
 70
     1
102
RTVSPropertyOp39
 70
     1
102
RTVSPropertyOp40
 70
     1
102
RTVSPropertyOp41
 70
     1
102
RTVSPropertyOp42
 70
     1
102
RTVSPropertyOp43
 70
     1
102
RTVSPropertyOp44
 70
     1
102
RTVSPropertyOp45
 70
     1
102
RTVSPropertyOp46
 70
     1
102
RTVSPropertyOp47
 70
     1
102
RTVSPropertyOp48
 70
     1
102
RTVSPropertyOp49
 70
     1
102
RTVSPropertyOp50
 70
     1
102
RTVSPropertyOp51
 70
     0
102
RTVSPropertyOp52
 70
     0
102
RTVSPropertyOp53
 70
     1
102
RTVSPropertyOp54
 70
     1
102
RTVSPropertyOp55
 70
     1
102
RTVSPropertyOp56
 70
     1
102
RTVSPropertyOp57
 70
     1
102
RTVSPost2010Prop28
280
     0
102
RTVSPost2010PropOp28
 70
     1
102
RTVSPost2010Prop29
280
     1
102
RTVSPost2010PropOp29
 70
     1
102
RTVSPost2010Prop30
280
     1
102
RTVSPost2010PropOp30
 70
     1
102
RTVSPost2010Prop31
280
     0
102
RTVSPost2010PropOp31
 70
     1
102
RTVSPost2010Prop32
280
     0
102
RTVSPost2010PropOp32
 70
     1
102
RTVSPost2010Prop33
280
     0
102
RTVSPost2010PropOp33
 70
     1
102
RTVSPost2010Prop34
280
     0
102
RTVSPost2010PropOp34
 70
     1
102
RTVSPost2010Prop35
280
     0
102
RTVSPost2010PropOp35
 70
     1
102
RTVSPost2010Prop36
280
     0
102
RTVSPost2010PropOp36
 70
     1
102
RTVSPost2010Prop37
 90
       50
102
RTVSPost2010PropOp37
 70
     1
102
RTVSPost2010Prop38
140
0.0
102
RTVSPost2010PropOp38
 70
     1
102
RTVSPost2010Prop39
140
1.0
102
RTVSPost2010PropOp39
 70
     1
102
RTVSPost2010Prop40
 90
        0
102
RTVSPost2010PropOp40
 70
     1
102
RTVSPost2010Prop41ColorIndex
 90
       18
102
RTVSPost2010Prop41ColorRGB
 90
        0
102
RTVSPost2010PropOp41
 70
     1
102
RTVSPost2010Prop42
 90
       50
102
RTVSPost2010PropOp42
 70
     1
102
RTVSPost2010Prop43
 90
        3
102
RTVSPost2010PropOp43
 70
     1
102
RTVSPost2010Prop44ColorIndex
 90
        5
102
RTVSPost2010Prop44ColorRGB
 90
      255
102
RTVSPost2010PropOp44
 70
     1
102
RTVSPost2010Prop45
280
     0
102
RTVSPost2010PropOp45
 70
     1
102
RTVSPost2010Prop46
 90
       50
102
RTVSPost2010PropOp46
 70
     1
102
RTVSPost2010Prop47
 90
       50
102
RTVSPost2010PropOp47
 70
     1
102
RTVSPost2010Prop48
 90
       50
102
RTVSPost2010PropOp48
 70
     1
102
RTVSPost2010Prop49
280
     0
102
RTVSPost2010PropOp49
 70
     1
102
RTVSPost2010Prop50
 90
       50
102
RTVSPost2010PropOp50
 70
     1
102
RTVSPost2010Prop51ColorIndex
 90
      256
102
RTVSPost2010Prop51ColorRGB
 90
-16777216
102
RTVSPost2010PropOp51
 70
     0
102
RTVSPost2010Prop52
140
1.0
102
RTVSPost2010PropOp52
 70
     0
102
RTVSPost2010Prop53
 90
        2
102
RTVSPost2010PropOp53
 70
     1
102
RTVSPost2010Prop54
  1
strokes_ogs.tif
102
RTVSPost2010PropOp54
 70
     1
102
RTVSPost2010Prop55
280
     0
102
RTVSPost2010PropOp55
 70
     1
102
RTVSPost2010Prop56
140
1.0
102
RTVSPost2010PropOp56
 70
     1
102
RTVSPost2010Prop57
140
1.0
102
RTVSPost2010PropOp57
 70
     1
  0
XRECORD
  5
348
102
{ACAD_REACTORS
330
347
102
}
330
347
100
AcDbXrecord
280
     1
102
RTVSPropertyOp0
 70
     1
102
RTVSPropertyOp1
 70
     1
102
RTVSPropertyOp2
 70
     1
102
RTVSPropertyOp3
 70
     1
102
RTVSPropertyOp4
 70
     1
102
RTVSPropertyOp5
 70
     1
102
RTVSPropertyOp6
 70
     1
102
RTVSPropertyOp7
 70
     1
102
RTVSPropertyOp8
 70
     1
102
RTVSPropertyOp9
 70
     1
102
RTVSPropertyOp10
 70
     1
102
RTVSPropertyOp11
 70
     1
102
RTVSPropertyOp12
 70
     1
102
RTVSPropertyOp13
 70
     1
102
RTVSPropertyOp14
 70
     1
102
RTVSPropertyOp15
 70
     1
102
RTVSPropertyOp16
 70
     1
102
RTVSPropertyOp17
 70
     1
102
RTVSPropertyOp18
 70
     1
102
RTVSPropertyOp19
 70
     1
102
RTVSPropertyOp20
 70
     1
102
RTVSPropertyOp21
 70
     1
102
RTVSPropertyOp22
 70
     1
102
RTVSPropertyOp23
 70
     1
102
RTVSPropertyOp24
 70
     1
102
RTVSPropertyOp25
 70
     1
102
RTVSPropertyOp26
 70
     1
102
RTVSPropertyOp27
 70
     1
102
RTVSPropertyOp28
 70
     1
102
RTVSPropertyOp29
 70
     1
102
RTVSPropertyOp30
 70
     1
102
RTVSPropertyOp31
 70
     1
102
RTVSPropertyOp32
 70
     1
102
RTVSPropertyOp33
 70
     1
102
RTVSPropertyOp34
 70
     1
102
RTVSPropertyOp35
 70
     1
102
RTVSPropertyOp36
 70
     1
102
RTVSPropertyOp37
 70
     1
102
RTVSPropertyOp38
 70
     1
102
RTVSPropertyOp39
 70
     1
102
RTVSPropertyOp40
 70
     1
102
RTVSPropertyOp41
 70
     1
102
RTVSPropertyOp42
 70
     1
102
RTVSPropertyOp43
 70
     1
102
RTVSPropertyOp44
 70
     1
102
RTVSPropertyOp45
 70
     1
102
RTVSPropertyOp46
 70
     1
102
RTVSPropertyOp47
 70
     1
102
RTVSPropertyOp48
 70
     1
102
RTVSPropertyOp49
 70
     1
102
RTVSPropertyOp50
 70
     1
102
RTVSPropertyOp51
 70
     0
102
RTVSPropertyOp52
 70
     0
102
RTVSPropertyOp53
 70
     1
102
RTVSPropertyOp54
 70
     1
102
RTVSPropertyOp55
 70
     1
102
RTVSPropertyOp56
 70
     1
102
RTVSPropertyOp57
 70
     1
102
RTVSPost2010Prop28
280
     0
102
RTVSPost2010PropOp28
 70
     1
102
RTVSPost2010Prop29
280
     1
102
RTVSPost2010PropOp29
 70
     1
102
RTVSPost2010Prop30
280
     1
102
RTVSPost2010PropOp30
 70
     1
102
RTVSPost2010Prop31
280
     0
102
RTVSPost2010PropOp31
 70
     1
102
RTVSPost2010Prop32
280
     0
102
RTVSPost2010PropOp32
 70
     1
102
RTVSPost2010Prop33
280
     0
102
RTVSPost2010PropOp33
 70
     1
102
RTVSPost2010Prop34
280
     0
102
RTVSPost2010PropOp34
 70
     1
102
RTVSPost2010Prop35
280
     0
102
RTVSPost2010PropOp35
 70
     1
102
RTVSPost2010Prop36
280
     0
102
RTVSPost2010PropOp36
 70
     1
102
RTVSPost2010Prop37
 90
       50
102
RTVSPost2010PropOp37
 70
     1
102
RTVSPost2010Prop38
140
0.0
102
RTVSPost2010PropOp38
 70
     1
102
RTVSPost2010Prop39
140
1.0
102
RTVSPost2010PropOp39
 70
     1
102
RTVSPost2010Prop40
 90
        0
102
RTVSPost2010PropOp40
 70
     1
102
RTVSPost2010Prop41ColorIndex
 90
       18
102
RTVSPost2010Prop41ColorRGB
 90
        0
102
RTVSPost2010PropOp41
 70
     1
102
RTVSPost2010Prop42
 90
       50
102
RTVSPost2010PropOp42
 70
     1
102
RTVSPost2010Prop43
 90
        3
102
RTVSPost2010PropOp43
 70
     1
102
RTVSPost2010Prop44ColorIndex
 90
        5
102
RTVSPost2010Prop44ColorRGB
 90
      255
102
RTVSPost2010PropOp44
 70
     1
102
RTVSPost2010Prop45
280
     0
102
RTVSPost2010PropOp45
 70
     1
102
RTVSPost2010Prop46
 90
       50
102
RTVSPost2010PropOp46
 70
     1
102
RTVSPost2010Prop47
 90
       50
102
RTVSPost2010PropOp47
 70
     1
102
RTVSPost2010Prop48
 90
       50
102
RTVSPost2010PropOp48
 70
     1
102
RTVSPost2010Prop49
280
     0
102
RTVSPost2010PropOp49
 70
     1
102
RTVSPost2010Prop50
 90
       50
102
RTVSPost2010PropOp50
 70
     1
102
RTVSPost2010Prop51ColorIndex
 90
      256
102
RTVSPost2010Prop51ColorRGB
 90
-16777216
102
RTVSPost2010PropOp51
 70
     0
102
RTVSPost2010Prop52
140
1.0
102
RTVSPost2010PropOp52
 70
     0
102
RTVSPost2010Prop53
 90
        2
102
RTVSPost2010PropOp53
 70
     1
102
RTVSPost2010Prop54
  1
strokes_ogs.tif
102
RTVSPost2010PropOp54
 70
     1
102
RTVSPost2010Prop55
280
     0
102
RTVSPost2010PropOp55
 70
     1
102
RTVSPost2010Prop56
140
1.0
102
RTVSPost2010PropOp56
 70
     1
102
RTVSPost2010Prop57
140
1.0
102
RTVSPost2010PropOp57
 70
     1
  0
XRECORD
  5
358
102
{ACAD_REACTORS
330
357
102
}
330
357
100
AcDbXrecord
280
     1
102
RTVSPropertyOp0
 70
     0
102
RTVSPropertyOp1
 70
     0
102
RTVSPropertyOp2
 70
     0
102
RTVSPropertyOp3
 70
     0
102
RTVSPropertyOp4
 70
     0
102
RTVSPropertyOp5
 70
     0
102
RTVSPropertyOp6
 70
     0
102
RTVSPropertyOp7
 70
     0
102
RTVSPropertyOp8
 70
     0
102
RTVSPropertyOp9
 70
     0
102
RTVSPropertyOp10
 70
     0
102
RTVSPropertyOp11
 70
     0
102
RTVSPropertyOp12
 70
     0
102
RTVSPropertyOp13
 70
     0
102
RTVSPropertyOp14
 70
     2
102
RTVSPropertyOp15
 70
     0
102
RTVSPropertyOp16
 70
     0
102
RTVSPropertyOp17
 70
     0
102
RTVSPropertyOp18
 70
     0
102
RTVSPropertyOp19
 70
     0
102
RTVSPropertyOp20
 70
     0
102
RTVSPropertyOp21
 70
     0
102
RTVSPropertyOp22
 70
     0
102
RTVSPropertyOp23
 70
     0
102
RTVSPropertyOp24
 70
     0
102
RTVSPropertyOp25
 70
     0
102
RTVSPropertyOp26
 70
     0
102
RTVSPropertyOp27
 70
     0
102
RTVSPropertyOp28
 70
     0
102
RTVSPropertyOp29
 70
     0
102
RTVSPropertyOp30
 70
     0
102
RTVSPropertyOp31
 70
     0
102
RTVSPropertyOp32
 70
     0
102
RTVSPropertyOp33
 70
     0
102
RTVSPropertyOp34
 70
     0
102
RTVSPropertyOp35
 70
     0
102
RTVSPropertyOp36
 70
     0
102
RTVSPropertyOp37
 70
     0
102
RTVSPropertyOp38
 70
     0
102
RTVSPropertyOp39
 70
     0
102
RTVSPropertyOp40
 70
     0
102
RTVSPropertyOp41
 70
     0
102
RTVSPropertyOp42
 70
     0
102
RTVSPropertyOp43
 70
     0
102
RTVSPropertyOp44
 70
     0
102
RTVSPropertyOp45
 70
     0
102
RTVSPropertyOp46
 70
     0
102
RTVSPropertyOp47
 70
     0
102
RTVSPropertyOp48
 70
     0
102
RTVSPropertyOp49
 70
     0
102
RTVSPropertyOp50
 70
     0
102
RTVSPropertyOp51
 70
     0
102
RTVSPropertyOp52
 70
     0
102
RTVSPropertyOp53
 70
     0
102
RTVSPropertyOp54
 70
     0
102
RTVSPropertyOp55
 70
     0
102
RTVSPropertyOp56
 70
     0
102
RTVSPropertyOp57
 70
     0
102
RTVSPost2010Prop28
280
     0
102
RTVSPost2010PropOp28
 70
     0
102
RTVSPost2010Prop29
280
     1
102
RTVSPost2010PropOp29
 70
     0
102
RTVSPost2010Prop30
280
     1
102
RTVSPost2010PropOp30
 70
     0
102
RTVSPost2010Prop31
280
     0
102
RTVSPost2010PropOp31
 70
     0
102
RTVSPost2010Prop32
280
     0
102
RTVSPost2010PropOp32
 70
     0
102
RTVSPost2010Prop33
280
     0
102
RTVSPost2010PropOp33
 70
     0
102
RTVSPost2010Prop34
280
     0
102
RTVSPost2010PropOp34
 70
     0
102
RTVSPost2010Prop35
280
     0
102
RTVSPost2010PropOp35
 70
     0
102
RTVSPost2010Prop36
280
     0
102
RTVSPost2010PropOp36
 70
     0
102
RTVSPost2010Prop37
 90
       50
102
RTVSPost2010PropOp37
 70
     0
102
RTVSPost2010Prop38
140
0.0
102
RTVSPost2010PropOp38
 70
     0
102
RTVSPost2010Prop39
140
1.0
102
RTVSPost2010PropOp39
 70
     0
102
RTVSPost2010Prop40
 90
        0
102
RTVSPost2010PropOp40
 70
     0
102
RTVSPost2010Prop41ColorIndex
 90
       18
102
RTVSPost2010Prop41ColorRGB
 90
        0
102
RTVSPost2010PropOp41
 70
     0
102
RTVSPost2010Prop42
 90
       50
102
RTVSPost2010PropOp42
 70
     0
102
RTVSPost2010Prop43
 90
        3
102
RTVSPost2010PropOp43
 70
     0
102
RTVSPost2010Prop44ColorIndex
 90
        5
102
RTVSPost2010Prop44ColorRGB
 90
      255
102
RTVSPost2010PropOp44
 70
     0
102
RTVSPost2010Prop45
280
     0
102
RTVSPost2010PropOp45
 70
     0
102
RTVSPost2010Prop46
 90
       50
102
RTVSPost2010PropOp46
 70
     0
102
RTVSPost2010Prop47
 90
       50
102
RTVSPost2010PropOp47
 70
     0
102
RTVSPost2010Prop48
 90
       50
102
RTVSPost2010PropOp48
 70
     0
102
RTVSPost2010Prop49
280
     0
102
RTVSPost2010PropOp49
 70
     0
102
RTVSPost2010Prop50
 90
       50
102
RTVSPost2010PropOp50
 70
     0
102
RTVSPost2010Prop51ColorIndex
 90
      256
102
RTVSPost2010Prop51ColorRGB
 90
-16777216
102
RTVSPost2010PropOp51
 70
     0
102
RTVSPost2010Prop52
140
1.0
102
RTVSPost2010PropOp52
 70
     0
102
RTVSPost2010Prop53
 90
        2
102
RTVSPost2010PropOp53
 70
     0
102
RTVSPost2010Prop54
  1
strokes_ogs.tif
102
RTVSPost2010PropOp54
 70
     0
102
RTVSPost2010Prop55
280
     0
102
RTVSPost2010PropOp55
 70
     0
102
RTVSPost2010Prop56
140
1.0
102
RTVSPost2010PropOp56
 70
     0
102
RTVSPost2010Prop57
140
1.0
102
RTVSPost2010PropOp57
 70
     0
  0
XRECORD
  5
350
102
{ACAD_REACTORS
330
34F
102
}
330
34F
100
AcDbXrecord
280
     1
102
RTVSPropertyOp0
 70
     1
102
RTVSPropertyOp1
 70
     1
102
RTVSPropertyOp2
 70
     1
102
RTVSPropertyOp3
 70
     1
102
RTVSPropertyOp4
 70
     1
102
RTVSPropertyOp5
 70
     1
102
RTVSPropertyOp6
 70
     1
102
RTVSPropertyOp7
 70
     1
102
RTVSPropertyOp8
 70
     1
102
RTVSPropertyOp9
 70
     1
102
RTVSPropertyOp10
 70
     1
102
RTVSPropertyOp11
 70
     1
102
RTVSPropertyOp12
 70
     1
102
RTVSPropertyOp13
 70
     1
102
RTVSPropertyOp14
 70
     1
102
RTVSPropertyOp15
 70
     1
102
RTVSPropertyOp16
 70
     1
102
RTVSPropertyOp17
 70
     1
102
RTVSPropertyOp18
 70
     1
102
RTVSPropertyOp19
 70
     1
102
RTVSPropertyOp20
 70
     1
102
RTVSPropertyOp21
 70
     1
102
RTVSPropertyOp22
 70
     1
102
RTVSPropertyOp23
 70
     1
102
RTVSPropertyOp24
 70
     1
102
RTVSPropertyOp25
 70
     1
102
RTVSPropertyOp26
 70
     1
102
RTVSPropertyOp27
 70
     1
102
RTVSPropertyOp28
 70
     1
102
RTVSPropertyOp29
 70
     1
102
RTVSPropertyOp30
 70
     1
102
RTVSPropertyOp31
 70
     1
102
RTVSPropertyOp32
 70
     1
102
RTVSPropertyOp33
 70
     1
102
RTVSPropertyOp34
 70
     1
102
RTVSPropertyOp35
 70
     1
102
RTVSPropertyOp36
 70
     1
102
RTVSPropertyOp37
 70
     1
102
RTVSPropertyOp38
 70
     1
102
RTVSPropertyOp39
 70
     1
102
RTVSPropertyOp40
 70
     1
102
RTVSPropertyOp41
 70
     1
102
RTVSPropertyOp42
 70
     1
102
RTVSPropertyOp43
 70
     1
102
RTVSPropertyOp44
 70
     1
102
RTVSPropertyOp45
 70
     1
102
RTVSPropertyOp46
 70
     1
102
RTVSPropertyOp47
 70
     1
102
RTVSPropertyOp48
 70
     1
102
RTVSPropertyOp49
 70
     1
102
RTVSPropertyOp50
 70
     1
102
RTVSPropertyOp51
 70
     0
102
RTVSPropertyOp52
 70
     0
102
RTVSPropertyOp53
 70
     1
102
RTVSPropertyOp54
 70
     1
102
RTVSPropertyOp55
 70
     1
102
RTVSPropertyOp56
 70
     1
102
RTVSPropertyOp57
 70
     1
102
RTVSPost2010Prop28
280
     0
102
RTVSPost2010PropOp28
 70
     1
102
RTVSPost2010Prop29
280
     1
102
RTVSPost2010PropOp29
 70
     1
102
RTVSPost2010Prop30
280
     1
102
RTVSPost2010PropOp30
 70
     1
102
RTVSPost2010Prop31
280
     0
102
RTVSPost2010PropOp31
 70
     1
102
RTVSPost2010Prop32
280
     0
102
RTVSPost2010PropOp32
 70
     1
102
RTVSPost2010Prop33
280
     0
102
RTVSPost2010PropOp33
 70
     1
102
RTVSPost2010Prop34
280
     0
102
RTVSPost2010PropOp34
 70
     1
102
RTVSPost2010Prop35
280
     0
102
RTVSPost2010PropOp35
 70
     1
102
RTVSPost2010Prop36
280
     0
102
RTVSPost2010PropOp36
 70
     1
102
RTVSPost2010Prop37
 90
       50
102
RTVSPost2010PropOp37
 70
     1
102
RTVSPost2010Prop38
140
0.0
102
RTVSPost2010PropOp38
 70
     1
102
RTVSPost2010Prop39
140
1.0
102
RTVSPost2010PropOp39
 70
     1
102
RTVSPost2010Prop40
 90
        0
102
RTVSPost2010PropOp40
 70
     1
102
RTVSPost2010Prop41ColorIndex
 90
       18
102
RTVSPost2010Prop41ColorRGB
 90
        0
102
RTVSPost2010PropOp41
 70
     1
102
RTVSPost2010Prop42
 90
       50
102
RTVSPost2010PropOp42
 70
     1
102
RTVSPost2010Prop43
 90
        3
102
RTVSPost2010PropOp43
 70
     1
102
RTVSPost2010Prop44ColorIndex
 90
        5
102
RTVSPost2010Prop44ColorRGB
 90
      255
102
RTVSPost2010PropOp44
 70
     1
102
RTVSPost2010Prop45
280
     0
102
RTVSPost2010PropOp45
 70
     1
102
RTVSPost2010Prop46
 90
       50
102
RTVSPost2010PropOp46
 70
     1
102
RTVSPost2010Prop47
 90
       50
102
RTVSPost2010PropOp47
 70
     1
102
RTVSPost2010Prop48
 90
       50
102
RTVSPost2010PropOp48
 70
     1
102
RTVSPost2010Prop49
280
     0
102
RTVSPost2010PropOp49
 70
     1
102
RTVSPost2010Prop50
 90
       50
102
RTVSPost2010PropOp50
 70
     1
102
RTVSPost2010Prop51ColorIndex
 90
      256
102
RTVSPost2010Prop51ColorRGB
 90
-16777216
102
RTVSPost2010PropOp51
 70
     0
102
RTVSPost2010Prop52
140
1.0
102
RTVSPost2010PropOp52
 70
     0
102
RTVSPost2010Prop53
 90
        2
102
RTVSPost2010PropOp53
 70
     1
102
RTVSPost2010Prop54
  1
strokes_ogs.tif
102
RTVSPost2010PropOp54
 70
     1
102
RTVSPost2010Prop55
280
     0
102
RTVSPost2010PropOp55
 70
     1
102
RTVSPost2010Prop56
140
1.0
102
RTVSPost2010PropOp56
 70
     1
102
RTVSPost2010Prop57
140
1.0
102
RTVSPost2010PropOp57
 70
     1
  0
XRECORD
  5
334
102
{ACAD_REACTORS
330
333
102
}
330
333
100
AcDbXrecord
280
     1
102
RTVSPropertyOp0
 70
     1
102
RTVSPropertyOp1
 70
     1
102
RTVSPropertyOp2
 70
     1
102
RTVSPropertyOp3
 70
     1
102
RTVSPropertyOp4
 70
     1
102
RTVSPropertyOp5
 70
     1
102
RTVSPropertyOp6
 70
     1
102
RTVSPropertyOp7
 70
     1
102
RTVSPropertyOp8
 70
     1
102
RTVSPropertyOp9
 70
     1
102
RTVSPropertyOp10
 70
     1
102
RTVSPropertyOp11
 70
     1
102
RTVSPropertyOp12
 70
     1
102
RTVSPropertyOp13
 70
     1
102
RTVSPropertyOp14
 70
     1
102
RTVSPropertyOp15
 70
     1
102
RTVSPropertyOp16
 70
     1
102
RTVSPropertyOp17
 70
     1
102
RTVSPropertyOp18
 70
     1
102
RTVSPropertyOp19
 70
     1
102
RTVSPropertyOp20
 70
     1
102
RTVSPropertyOp21
 70
     1
102
RTVSPropertyOp22
 70
     1
102
RTVSPropertyOp23
 70
     1
102
RTVSPropertyOp24
 70
     1
102
RTVSPropertyOp25
 70
     1
102
RTVSPropertyOp26
 70
     1
102
RTVSPropertyOp27
 70
     1
102
RTVSPropertyOp28
 70
     1
102
RTVSPropertyOp29
 70
     1
102
RTVSPropertyOp30
 70
     1
102
RTVSPropertyOp31
 70
     1
102
RTVSPropertyOp32
 70
     1
102
RTVSPropertyOp33
 70
     1
102
RTVSPropertyOp34
 70
     1
102
RTVSPropertyOp35
 70
     1
102
RTVSPropertyOp36
 70
     1
102
RTVSPropertyOp37
 70
     1
102
RTVSPropertyOp38
 70
     1
102
RTVSPropertyOp39
 70
     1
102
RTVSPropertyOp40
 70
     1
102
RTVSPropertyOp41
 70
     1
102
RTVSPropertyOp42
 70
     1
102
RTVSPropertyOp43
 70
     1
102
RTVSPropertyOp44
 70
     1
102
RTVSPropertyOp45
 70
     1
102
RTVSPropertyOp46
 70
     1
102
RTVSPropertyOp47
 70
     1
102
RTVSPropertyOp48
 70
     1
102
RTVSPropertyOp49
 70
     1
102
RTVSPropertyOp50
 70
     1
102
RTVSPropertyOp51
 70
     0
102
RTVSPropertyOp52
 70
     0
102
RTVSPropertyOp53
 70
     1
102
RTVSPropertyOp54
 70
     1
102
RTVSPropertyOp55
 70
     1
102
RTVSPropertyOp56
 70
     1
102
RTVSPropertyOp57
 70
     1
102
RTVSPost2010Prop28
280
     0
102
RTVSPost2010PropOp28
 70
     1
102
RTVSPost2010Prop29
280
     1
102
RTVSPost2010PropOp29
 70
     1
102
RTVSPost2010Prop30
280
     1
102
RTVSPost2010PropOp30
 70
     1
102
RTVSPost2010Prop31
280
     0
102
RTVSPost2010PropOp31
 70
     1
102
RTVSPost2010Prop32
280
     0
102
RTVSPost2010PropOp32
 70
     1
102
RTVSPost2010Prop33
280
     0
102
RTVSPost2010PropOp33
 70
     1
102
RTVSPost2010Prop34
280
     0
102
RTVSPost2010PropOp34
 70
     1
102
RTVSPost2010Prop35
280
     0
102
RTVSPost2010PropOp35
 70
     1
102
RTVSPost2010Prop36
280
     0
102
RTVSPost2010PropOp36
 70
     1
102
RTVSPost2010Prop37
 90
       50
102
RTVSPost2010PropOp37
 70
     1
102
RTVSPost2010Prop38
140
0.0
102
RTVSPost2010PropOp38
 70
     1
102
RTVSPost2010Prop39
140
1.0
102
RTVSPost2010PropOp39
 70
     1
102
RTVSPost2010Prop40
 90
        0
102
RTVSPost2010PropOp40
 70
     1
102
RTVSPost2010Prop41ColorIndex
 90
       18
102
RTVSPost2010Prop41ColorRGB
 90
        0
102
RTVSPost2010PropOp41
 70
     1
102
RTVSPost2010Prop42
 90
       50
102
RTVSPost2010PropOp42
 70
     1
102
RTVSPost2010Prop43
 90
        3
102
RTVSPost2010PropOp43
 70
     1
102
RTVSPost2010Prop44ColorIndex
 90
        5
102
RTVSPost2010Prop44ColorRGB
 90
      255
102
RTVSPost2010PropOp44
 70
     1
102
RTVSPost2010Prop45
280
     0
102
RTVSPost2010PropOp45
 70
     1
102
RTVSPost2010Prop46
 90
       50
102
RTVSPost2010PropOp46
 70
     1
102
RTVSPost2010Prop47
 90
       50
102
RTVSPost2010PropOp47
 70
     1
102
RTVSPost2010Prop48
 90
       50
102
RTVSPost2010PropOp48
 70
     1
102
RTVSPost2010Prop49
280
     0
102
RTVSPost2010PropOp49
 70
     1
102
RTVSPost2010Prop50
 90
       50
102
RTVSPost2010PropOp50
 70
     1
102
RTVSPost2010Prop51ColorIndex
 90
      256
102
RTVSPost2010Prop51ColorRGB
 90
-16777216
102
RTVSPost2010PropOp51
 70
     0
102
RTVSPost2010Prop52
140
1.0
102
RTVSPost2010PropOp52
 70
     0
102
RTVSPost2010Prop53
 90
        2
102
RTVSPost2010PropOp53
 70
     1
102
RTVSPost2010Prop54
  1
strokes_ogs.tif
102
RTVSPost2010PropOp54
 70
     1
102
RTVSPost2010Prop55
280
     0
102
RTVSPost2010PropOp55
 70
     1
102
RTVSPost2010Prop56
140
1.0
102
RTVSPost2010PropOp56
 70
     1
102
RTVSPost2010Prop57
140
1.0
102
RTVSPost2010PropOp57
 70
     1
  0
XRECORD
  5
336
102
{ACAD_REACTORS
330
335
102
}
330
335
100
AcDbXrecord
280
     1
102
RTVSPropertyOp0
 70
     1
102
RTVSPropertyOp1
 70
     1
102
RTVSPropertyOp2
 70
     1
102
RTVSPropertyOp3
 70
     1
102
RTVSPropertyOp4
 70
     1
102
RTVSPropertyOp5
 70
     1
102
RTVSPropertyOp6
 70
     1
102
RTVSPropertyOp7
 70
     1
102
RTVSPropertyOp8
 70
     1
102
RTVSPropertyOp9
 70
     1
102
RTVSPropertyOp10
 70
     1
102
RTVSPropertyOp11
 70
     1
102
RTVSPropertyOp12
 70
     1
102
RTVSPropertyOp13
 70
     1
102
RTVSPropertyOp14
 70
     1
102
RTVSPropertyOp15
 70
     1
102
RTVSPropertyOp16
 70
     1
102
RTVSPropertyOp17
 70
     1
102
RTVSPropertyOp18
 70
     1
102
RTVSPropertyOp19
 70
     1
102
RTVSPropertyOp20
 70
     1
102
RTVSPropertyOp21
 70
     1
102
RTVSPropertyOp22
 70
     1
102
RTVSPropertyOp23
 70
     1
102
RTVSPropertyOp24
 70
     1
102
RTVSPropertyOp25
 70
     1
102
RTVSPropertyOp26
 70
     1
102
RTVSPropertyOp27
 70
     1
102
RTVSPropertyOp28
 70
     1
102
RTVSPropertyOp29
 70
     1
102
RTVSPropertyOp30
 70
     1
102
RTVSPropertyOp31
 70
     1
102
RTVSPropertyOp32
 70
     1
102
RTVSPropertyOp33
 70
     1
102
RTVSPropertyOp34
 70
     1
102
RTVSPropertyOp35
 70
     1
102
RTVSPropertyOp36
 70
     1
102
RTVSPropertyOp37
 70
     1
102
RTVSPropertyOp38
 70
     1
102
RTVSPropertyOp39
 70
     1
102
RTVSPropertyOp40
 70
     1
102
RTVSPropertyOp41
 70
     1
102
RTVSPropertyOp42
 70
     1
102
RTVSPropertyOp43
 70
     1
102
RTVSPropertyOp44
 70
     1
102
RTVSPropertyOp45
 70
     1
102
RTVSPropertyOp46
 70
     1
102
RTVSPropertyOp47
 70
     1
102
RTVSPropertyOp48
 70
     1
102
RTVSPropertyOp49
 70
     1
102
RTVSPropertyOp50
 70
     1
102
RTVSPropertyOp51
 70
     0
102
RTVSPropertyOp52
 70
     0
102
RTVSPropertyOp53
 70
     1
102
RTVSPropertyOp54
 70
     1
102
RTVSPropertyOp55
 70
     1
102
RTVSPropertyOp56
 70
     1
102
RTVSPropertyOp57
 70
     1
102
RTVSPost2010Prop28
280
     0
102
RTVSPost2010PropOp28
 70
     1
102
RTVSPost2010Prop29
280
     1
102
RTVSPost2010PropOp29
 70
     1
102
RTVSPost2010Prop30
280
     1
102
RTVSPost2010PropOp30
 70
     1
102
RTVSPost2010Prop31
280
     0
102
RTVSPost2010PropOp31
 70
     1
102
RTVSPost2010Prop32
280
     0
102
RTVSPost2010PropOp32
 70
     1
102
RTVSPost2010Prop33
280
     0
102
RTVSPost2010PropOp33
 70
     1
102
RTVSPost2010Prop34
280
     0
102
RTVSPost2010PropOp34
 70
     1
102
RTVSPost2010Prop35
280
     0
102
RTVSPost2010PropOp35
 70
     1
102
RTVSPost2010Prop36
280
     0
102
RTVSPost2010PropOp36
 70
     1
102
RTVSPost2010Prop37
 90
       50
102
RTVSPost2010PropOp37
 70
     1
102
RTVSPost2010Prop38
140
0.0
102
RTVSPost2010PropOp38
 70
     1
102
RTVSPost2010Prop39
140
1.0
102
RTVSPost2010PropOp39
 70
     1
102
RTVSPost2010Prop40
 90
        0
102
RTVSPost2010PropOp40
 70
     1
102
RTVSPost2010Prop41ColorIndex
 90
       18
102
RTVSPost2010Prop41ColorRGB
 90
        0
102
RTVSPost2010PropOp41
 70
     1
102
RTVSPost2010Prop42
 90
       50
102
RTVSPost2010PropOp42
 70
     1
102
RTVSPost2010Prop43
 90
        3
102
RTVSPost2010PropOp43
 70
     1
102
RTVSPost2010Prop44ColorIndex
 90
        5
102
RTVSPost2010Prop44ColorRGB
 90
      255
102
RTVSPost2010PropOp44
 70
     1
102
RTVSPost2010Prop45
280
     0
102
RTVSPost2010PropOp45
 70
     1
102
RTVSPost2010Prop46
 90
       50
102
RTVSPost2010PropOp46
 70
     1
102
RTVSPost2010Prop47
 90
       50
102
RTVSPost2010PropOp47
 70
     1
102
RTVSPost2010Prop48
 90
       50
102
RTVSPost2010PropOp48
 70
     1
102
RTVSPost2010Prop49
280
     0
102
RTVSPost2010PropOp49
 70
     1
102
RTVSPost2010Prop50
 90
       50
102
RTVSPost2010PropOp50
 70
     1
102
RTVSPost2010Prop51ColorIndex
 90
      256
102
RTVSPost2010Prop51ColorRGB
 90
-16777216
102
RTVSPost2010PropOp51
 70
     0
102
RTVSPost2010Prop52
140
1.0
102
RTVSPost2010PropOp52
 70
     0
102
RTVSPost2010Prop53
 90
        2
102
RTVSPost2010PropOp53
 70
     1
102
RTVSPost2010Prop54
  1
strokes_ogs.tif
102
RTVSPost2010PropOp54
 70
     1
102
RTVSPost2010Prop55
280
     0
102
RTVSPost2010PropOp55
 70
     1
102
RTVSPost2010Prop56
140
1.0
102
RTVSPost2010PropOp56
 70
     1
102
RTVSPost2010Prop57
140
1.0
102
RTVSPost2010PropOp57
 70
     1
  0
XRECORD
  5
338
102
{ACAD_REACTORS
330
337
102
}
330
337
100
AcDbXrecord
280
     1
102
RTVSPropertyOp0
 70
     1
102
RTVSPropertyOp1
 70
     1
102
RTVSPropertyOp2
 70
     1
102
RTVSPropertyOp3
 70
     1
102
RTVSPropertyOp4
 70
     1
102
RTVSPropertyOp5
 70
     1
102
RTVSPropertyOp6
 70
     1
102
RTVSPropertyOp7
 70
     1
102
RTVSPropertyOp8
 70
     1
102
RTVSPropertyOp9
 70
     1
102
RTVSPropertyOp10
 70
     1
102
RTVSPropertyOp11
 70
     1
102
RTVSPropertyOp12
 70
     1
102
RTVSPropertyOp13
 70
     1
102
RTVSPropertyOp14
 70
     1
102
RTVSPropertyOp15
 70
     1
102
RTVSPropertyOp16
 70
     1
102
RTVSPropertyOp17
 70
     1
102
RTVSPropertyOp18
 70
     1
102
RTVSPropertyOp19
 70
     1
102
RTVSPropertyOp20
 70
     1
102
RTVSPropertyOp21
 70
     1
102
RTVSPropertyOp22
 70
     1
102
RTVSPropertyOp23
 70
     1
102
RTVSPropertyOp24
 70
     1
102
RTVSPropertyOp25
 70
     1
102
RTVSPropertyOp26
 70
     1
102
RTVSPropertyOp27
 70
     1
102
RTVSPropertyOp28
 70
     1
102
RTVSPropertyOp29
 70
     1
102
RTVSPropertyOp30
 70
     1
102
RTVSPropertyOp31
 70
     1
102
RTVSPropertyOp32
 70
     1
102
RTVSPropertyOp33
 70
     1
102
RTVSPropertyOp34
 70
     1
102
RTVSPropertyOp35
 70
     1
102
RTVSPropertyOp36
 70
     1
102
RTVSPropertyOp37
 70
     1
102
RTVSPropertyOp38
 70
     1
102
RTVSPropertyOp39
 70
     1
102
RTVSPropertyOp40
 70
     1
102
RTVSPropertyOp41
 70
     1
102
RTVSPropertyOp42
 70
     1
102
RTVSPropertyOp43
 70
     1
102
RTVSPropertyOp44
 70
     1
102
RTVSPropertyOp45
 70
     1
102
RTVSPropertyOp46
 70
     1
102
RTVSPropertyOp47
 70
     1
102
RTVSPropertyOp48
 70
     1
102
RTVSPropertyOp49
 70
     1
102
RTVSPropertyOp50
 70
     1
102
RTVSPropertyOp51
 70
     0
102
RTVSPropertyOp52
 70
     0
102
RTVSPropertyOp53
 70
     1
102
RTVSPropertyOp54
 70
     1
102
RTVSPropertyOp55
 70
     1
102
RTVSPropertyOp56
 70
     1
102
RTVSPropertyOp57
 70
     1
102
RTVSPost2010Prop28
280
     0
102
RTVSPost2010PropOp28
 70
     1
102
RTVSPost2010Prop29
280
     1
102
RTVSPost2010PropOp29
 70
     1
102
RTVSPost2010Prop30
280
     1
102
RTVSPost2010PropOp30
 70
     1
102
RTVSPost2010Prop31
280
     0
102
RTVSPost2010PropOp31
 70
     1
102
RTVSPost2010Prop32
280
     0
102
RTVSPost2010PropOp32
 70
     1
102
RTVSPost2010Prop33
280
     0
102
RTVSPost2010PropOp33
 70
     1
102
RTVSPost2010Prop34
280
     0
102
RTVSPost2010PropOp34
 70
     1
102
RTVSPost2010Prop35
280
     0
102
RTVSPost2010PropOp35
 70
     1
102
RTVSPost2010Prop36
280
     0
102
RTVSPost2010PropOp36
 70
     1
102
RTVSPost2010Prop37
 90
       50
102
RTVSPost2010PropOp37
 70
     1
102
RTVSPost2010Prop38
140
0.0
102
RTVSPost2010PropOp38
 70
     1
102
RTVSPost2010Prop39
140
1.0
102
RTVSPost2010PropOp39
 70
     1
102
RTVSPost2010Prop40
 90
        0
102
RTVSPost2010PropOp40
 70
     1
102
RTVSPost2010Prop41ColorIndex
 90
       18
102
RTVSPost2010Prop41ColorRGB
 90
        0
102
RTVSPost2010PropOp41
 70
     1
102
RTVSPost2010Prop42
 90
       50
102
RTVSPost2010PropOp42
 70
     1
102
RTVSPost2010Prop43
 90
        3
102
RTVSPost2010PropOp43
 70
     1
102
RTVSPost2010Prop44ColorIndex
 90
        5
102
RTVSPost2010Prop44ColorRGB
 90
      255
102
RTVSPost2010PropOp44
 70
     1
102
RTVSPost2010Prop45
280
     0
102
RTVSPost2010PropOp45
 70
     1
102
RTVSPost2010Prop46
 90
       50
102
RTVSPost2010PropOp46
 70
     1
102
RTVSPost2010Prop47
 90
       50
102
RTVSPost2010PropOp47
 70
     1
102
RTVSPost2010Prop48
 90
       50
102
RTVSPost2010PropOp48
 70
     1
102
RTVSPost2010Prop49
280
     0
102
RTVSPost2010PropOp49
 70
     1
102
RTVSPost2010Prop50
 90
       50
102
RTVSPost2010PropOp50
 70
     1
102
RTVSPost2010Prop51ColorIndex
 90
      256
102
RTVSPost2010Prop51ColorRGB
 90
-16777216
102
RTVSPost2010PropOp51
 70
     0
102
RTVSPost2010Prop52
140
1.0
102
RTVSPost2010PropOp52
 70
     0
102
RTVSPost2010Prop53
 90
        2
102
RTVSPost2010PropOp53
 70
     1
102
RTVSPost2010Prop54
  1
strokes_ogs.tif
102
RTVSPost2010PropOp54
 70
     1
102
RTVSPost2010Prop55
280
     0
102
RTVSPost2010PropOp55
 70
     1
102
RTVSPost2010Prop56
140
1.0
102
RTVSPost2010PropOp56
 70
     1
102
RTVSPost2010Prop57
140
1.0
102
RTVSPost2010PropOp57
 70
     1
  0
XRECORD
  5
33A
102
{ACAD_REACTORS
330
339
102
}
330
339
100
AcDbXrecord
280
     1
102
RTVSPropertyOp0
 70
     1
102
RTVSPropertyOp1
 70
     1
102
RTVSPropertyOp2
 70
     1
102
RTVSPropertyOp3
 70
     1
102
RTVSPropertyOp4
 70
     1
102
RTVSPropertyOp5
 70
     1
102
RTVSPropertyOp6
 70
     1
102
RTVSPropertyOp7
 70
     1
102
RTVSPropertyOp8
 70
     1
102
RTVSPropertyOp9
 70
     1
102
RTVSPropertyOp10
 70
     1
102
RTVSPropertyOp11
 70
     1
102
RTVSPropertyOp12
 70
     1
102
RTVSPropertyOp13
 70
     1
102
RTVSPropertyOp14
 70
     1
102
RTVSPropertyOp15
 70
     1
102
RTVSPropertyOp16
 70
     1
102
RTVSPropertyOp17
 70
     1
102
RTVSPropertyOp18
 70
     1
102
RTVSPropertyOp19
 70
     1
102
RTVSPropertyOp20
 70
     1
102
RTVSPropertyOp21
 70
     1
102
RTVSPropertyOp22
 70
     1
102
RTVSPropertyOp23
 70
     1
102
RTVSPropertyOp24
 70
     1
102
RTVSPropertyOp25
 70
     1
102
RTVSPropertyOp26
 70
     1
102
RTVSPropertyOp27
 70
     1
102
RTVSPropertyOp28
 70
     1
102
RTVSPropertyOp29
 70
     1
102
RTVSPropertyOp30
 70
     1
102
RTVSPropertyOp31
 70
     1
102
RTVSPropertyOp32
 70
     1
102
RTVSPropertyOp33
 70
     1
102
RTVSPropertyOp34
 70
     1
102
RTVSPropertyOp35
 70
     1
102
RTVSPropertyOp36
 70
     1
102
RTVSPropertyOp37
 70
     1
102
RTVSPropertyOp38
 70
     1
102
RTVSPropertyOp39
 70
     1
102
RTVSPropertyOp40
 70
     1
102
RTVSPropertyOp41
 70
     1
102
RTVSPropertyOp42
 70
     1
102
RTVSPropertyOp43
 70
     1
102
RTVSPropertyOp44
 70
     1
102
RTVSPropertyOp45
 70
     1
102
RTVSPropertyOp46
 70
     1
102
RTVSPropertyOp47
 70
     1
102
RTVSPropertyOp48
 70
     1
102
RTVSPropertyOp49
 70
     1
102
RTVSPropertyOp50
 70
     1
102
RTVSPropertyOp51
 70
     0
102
RTVSPropertyOp52
 70
     0
102
RTVSPropertyOp53
 70
     1
102
RTVSPropertyOp54
 70
     1
102
RTVSPropertyOp55
 70
     1
102
RTVSPropertyOp56
 70
     1
102
RTVSPropertyOp57
 70
     1
102
RTVSPost2010Prop28
280
     0
102
RTVSPost2010PropOp28
 70
     1
102
RTVSPost2010Prop29
280
     1
102
RTVSPost2010PropOp29
 70
     1
102
RTVSPost2010Prop30
280
     1
102
RTVSPost2010PropOp30
 70
     1
102
RTVSPost2010Prop31
280
     0
102
RTVSPost2010PropOp31
 70
     1
102
RTVSPost2010Prop32
280
     0
102
RTVSPost2010PropOp32
 70
     1
102
RTVSPost2010Prop33
280
     0
102
RTVSPost2010PropOp33
 70
     1
102
RTVSPost2010Prop34
280
     0
102
RTVSPost2010PropOp34
 70
     1
102
RTVSPost2010Prop35
280
     0
102
RTVSPost2010PropOp35
 70
     1
102
RTVSPost2010Prop36
280
     0
102
RTVSPost2010PropOp36
 70
     1
102
RTVSPost2010Prop37
 90
       50
102
RTVSPost2010PropOp37
 70
     1
102
RTVSPost2010Prop38
140
0.0
102
RTVSPost2010PropOp38
 70
     1
102
RTVSPost2010Prop39
140
1.0
102
RTVSPost2010PropOp39
 70
     1
102
RTVSPost2010Prop40
 90
        0
102
RTVSPost2010PropOp40
 70
     1
102
RTVSPost2010Prop41ColorIndex
 90
       18
102
RTVSPost2010Prop41ColorRGB
 90
        0
102
RTVSPost2010PropOp41
 70
     1
102
RTVSPost2010Prop42
 90
       50
102
RTVSPost2010PropOp42
 70
     1
102
RTVSPost2010Prop43
 90
        3
102
RTVSPost2010PropOp43
 70
     1
102
RTVSPost2010Prop44ColorIndex
 90
        5
102
RTVSPost2010Prop44ColorRGB
 90
      255
102
RTVSPost2010PropOp44
 70
     1
102
RTVSPost2010Prop45
280
     0
102
RTVSPost2010PropOp45
 70
     1
102
RTVSPost2010Prop46
 90
       50
102
RTVSPost2010PropOp46
 70
     1
102
RTVSPost2010Prop47
 90
       50
102
RTVSPost2010PropOp47
 70
     1
102
RTVSPost2010Prop48
 90
       50
102
RTVSPost2010PropOp48
 70
     1
102
RTVSPost2010Prop49
280
     0
102
RTVSPost2010PropOp49
 70
     1
102
RTVSPost2010Prop50
 90
       50
102
RTVSPost2010PropOp50
 70
     1
102
RTVSPost2010Prop51ColorIndex
 90
      256
102
RTVSPost2010Prop51ColorRGB
 90
-16777216
102
RTVSPost2010PropOp51
 70
     0
102
RTVSPost2010Prop52
140
1.0
102
RTVSPost2010PropOp52
 70
     0
102
RTVSPost2010Prop53
 90
        2
102
RTVSPost2010PropOp53
 70
     1
102
RTVSPost2010Prop54
  1
strokes_ogs.tif
102
RTVSPost2010PropOp54
 70
     1
102
RTVSPost2010Prop55
280
     0
102
RTVSPost2010PropOp55
 70
     1
102
RTVSPost2010Prop56
140
1.0
102
RTVSPost2010PropOp56
 70
     1
102
RTVSPost2010Prop57
140
1.0
102
RTVSPost2010PropOp57
 70
     1
  0
XRECORD
  5
340
102
{ACAD_REACTORS
330
33F
102
}
330
33F
100
AcDbXrecord
280
     1
102
RTVSPropertyOp0
 70
     1
102
RTVSPropertyOp1
 70
     1
102
RTVSPropertyOp2
 70
     1
102
RTVSPropertyOp3
 70
     1
102
RTVSPropertyOp4
 70
     1
102
RTVSPropertyOp5
 70
     1
102
RTVSPropertyOp6
 70
     1
102
RTVSPropertyOp7
 70
     1
102
RTVSPropertyOp8
 70
     1
102
RTVSPropertyOp9
 70
     1
102
RTVSPropertyOp10
 70
     1
102
RTVSPropertyOp11
 70
     1
102
RTVSPropertyOp12
 70
     1
102
RTVSPropertyOp13
 70
     1
102
RTVSPropertyOp14
 70
     1
102
RTVSPropertyOp15
 70
     1
102
RTVSPropertyOp16
 70
     1
102
RTVSPropertyOp17
 70
     1
102
RTVSPropertyOp18
 70
     1
102
RTVSPropertyOp19
 70
     1
102
RTVSPropertyOp20
 70
     1
102
RTVSPropertyOp21
 70
     1
102
RTVSPropertyOp22
 70
     1
102
RTVSPropertyOp23
 70
     1
102
RTVSPropertyOp24
 70
     1
102
RTVSPropertyOp25
 70
     1
102
RTVSPropertyOp26
 70
     1
102
RTVSPropertyOp27
 70
     1
102
RTVSPropertyOp28
 70
     1
102
RTVSPropertyOp29
 70
     1
102
RTVSPropertyOp30
 70
     1
102
RTVSPropertyOp31
 70
     1
102
RTVSPropertyOp32
 70
     1
102
RTVSPropertyOp33
 70
     1
102
RTVSPropertyOp34
 70
     1
102
RTVSPropertyOp35
 70
     1
102
RTVSPropertyOp36
 70
     1
102
RTVSPropertyOp37
 70
     1
102
RTVSPropertyOp38
 70
     1
102
RTVSPropertyOp39
 70
     1
102
RTVSPropertyOp40
 70
     1
102
RTVSPropertyOp41
 70
     1
102
RTVSPropertyOp42
 70
     1
102
RTVSPropertyOp43
 70
     1
102
RTVSPropertyOp44
 70
     1
102
RTVSPropertyOp45
 70
     1
102
RTVSPropertyOp46
 70
     1
102
RTVSPropertyOp47
 70
     1
102
RTVSPropertyOp48
 70
     1
102
RTVSPropertyOp49
 70
     1
102
RTVSPropertyOp50
 70
     1
102
RTVSPropertyOp51
 70
     0
102
RTVSPropertyOp52
 70
     0
102
RTVSPropertyOp53
 70
     1
102
RTVSPropertyOp54
 70
     1
102
RTVSPropertyOp55
 70
     1
102
RTVSPropertyOp56
 70
     1
102
RTVSPropertyOp57
 70
     1
102
RTVSPost2010Prop28
280
     0
102
RTVSPost2010PropOp28
 70
     1
102
RTVSPost2010Prop29
280
     1
102
RTVSPost2010PropOp29
 70
     1
102
RTVSPost2010Prop30
280
     1
102
RTVSPost2010PropOp30
 70
     1
102
RTVSPost2010Prop31
280
     0
102
RTVSPost2010PropOp31
 70
     1
102
RTVSPost2010Prop32
280
     0
102
RTVSPost2010PropOp32
 70
     1
102
RTVSPost2010Prop33
280
     0
102
RTVSPost2010PropOp33
 70
     1
102
RTVSPost2010Prop34
280
     0
102
RTVSPost2010PropOp34
 70
     1
102
RTVSPost2010Prop35
280
     0
102
RTVSPost2010PropOp35
 70
     1
102
RTVSPost2010Prop36
280
     0
102
RTVSPost2010PropOp36
 70
     1
102
RTVSPost2010Prop37
 90
       50
102
RTVSPost2010PropOp37
 70
     1
102
RTVSPost2010Prop38
140
0.0
102
RTVSPost2010PropOp38
 70
     1
102
RTVSPost2010Prop39
140
1.0
102
RTVSPost2010PropOp39
 70
     1
102
RTVSPost2010Prop40
 90
        0
102
RTVSPost2010PropOp40
 70
     1
102
RTVSPost2010Prop41ColorIndex
 90
       18
102
RTVSPost2010Prop41ColorRGB
 90
        0
102
RTVSPost2010PropOp41
 70
     1
102
RTVSPost2010Prop42
 90
       50
102
RTVSPost2010PropOp42
 70
     1
102
RTVSPost2010Prop43
 90
        3
102
RTVSPost2010PropOp43
 70
     1
102
RTVSPost2010Prop44ColorIndex
 90
        5
102
RTVSPost2010Prop44ColorRGB
 90
      255
102
RTVSPost2010PropOp44
 70
     1
102
RTVSPost2010Prop45
280
     0
102
RTVSPost2010PropOp45
 70
     1
102
RTVSPost2010Prop46
 90
       50
102
RTVSPost2010PropOp46
 70
     1
102
RTVSPost2010Prop47
 90
       50
102
RTVSPost2010PropOp47
 70
     1
102
RTVSPost2010Prop48
 90
       50
102
RTVSPost2010PropOp48
 70
     1
102
RTVSPost2010Prop49
280
     0
102
RTVSPost2010PropOp49
 70
     1
102
RTVSPost2010Prop50
 90
       50
102
RTVSPost2010PropOp50
 70
     1
102
RTVSPost2010Prop51ColorIndex
 90
      256
102
RTVSPost2010Prop51ColorRGB
 90
-16777216
102
RTVSPost2010PropOp51
 70
     0
102
RTVSPost2010Prop52
140
1.0
102
RTVSPost2010PropOp52
 70
     0
102
RTVSPost2010Prop53
 90
        2
102
RTVSPost2010PropOp53
 70
     1
102
RTVSPost2010Prop54
  1
strokes_ogs.tif
102
RTVSPost2010PropOp54
 70
     1
102
RTVSPost2010Prop55
280
     0
102
RTVSPost2010PropOp55
 70
     1
102
RTVSPost2010Prop56
140
1.0
102
RTVSPost2010PropOp56
 70
     1
102
RTVSPost2010Prop57
140
1.0
102
RTVSPost2010PropOp57
 70
     1
  0
XRECORD
  5
354
102
{ACAD_REACTORS
330
353
102
}
330
353
100
AcDbXrecord
280
     1
102
RTVSPropertyOp0
 70
     0
102
RTVSPropertyOp1
 70
     0
102
RTVSPropertyOp2
 70
     0
102
RTVSPropertyOp3
 70
     0
102
RTVSPropertyOp4
 70
     0
102
RTVSPropertyOp5
 70
     0
102
RTVSPropertyOp6
 70
     0
102
RTVSPropertyOp7
 70
     0
102
RTVSPropertyOp8
 70
     0
102
RTVSPropertyOp9
 70
     0
102
RTVSPropertyOp10
 70
     0
102
RTVSPropertyOp11
 70
     0
102
RTVSPropertyOp12
 70
     0
102
RTVSPropertyOp13
 70
     0
102
RTVSPropertyOp14
 70
     2
102
RTVSPropertyOp15
 70
     0
102
RTVSPropertyOp16
 70
     0
102
RTVSPropertyOp17
 70
     0
102
RTVSPropertyOp18
 70
     0
102
RTVSPropertyOp19
 70
     0
102
RTVSPropertyOp20
 70
     0
102
RTVSPropertyOp21
 70
     0
102
RTVSPropertyOp22
 70
     0
102
RTVSPropertyOp23
 70
     0
102
RTVSPropertyOp24
 70
     0
102
RTVSPropertyOp25
 70
     0
102
RTVSPropertyOp26
 70
     0
102
RTVSPropertyOp27
 70
     0
102
RTVSPropertyOp28
 70
     0
102
RTVSPropertyOp29
 70
     0
102
RTVSPropertyOp30
 70
     0
102
RTVSPropertyOp31
 70
     0
102
RTVSPropertyOp32
 70
     0
102
RTVSPropertyOp33
 70
     0
102
RTVSPropertyOp34
 70
     0
102
RTVSPropertyOp35
 70
     0
102
RTVSPropertyOp36
 70
     0
102
RTVSPropertyOp37
 70
     0
102
RTVSPropertyOp38
 70
     0
102
RTVSPropertyOp39
 70
     0
102
RTVSPropertyOp40
 70
     0
102
RTVSPropertyOp41
 70
     0
102
RTVSPropertyOp42
 70
     0
102
RTVSPropertyOp43
 70
     0
102
RTVSPropertyOp44
 70
     0
102
RTVSPropertyOp45
 70
     0
102
RTVSPropertyOp46
 70
     0
102
RTVSPropertyOp47
 70
     0
102
RTVSPropertyOp48
 70
     0
102
RTVSPropertyOp49
 70
     0
102
RTVSPropertyOp50
 70
     0
102
RTVSPropertyOp51
 70
     0
102
RTVSPropertyOp52
 70
     0
102
RTVSPropertyOp53
 70
     0
102
RTVSPropertyOp54
 70
     0
102
RTVSPropertyOp55
 70
     0
102
RTVSPropertyOp56
 70
     0
102
RTVSPropertyOp57
 70
     0
102
RTVSPost2010Prop28
280
     0
102
RTVSPost2010PropOp28
 70
     0
102
RTVSPost2010Prop29
280
     1
102
RTVSPost2010PropOp29
 70
     0
102
RTVSPost2010Prop30
280
     1
102
RTVSPost2010PropOp30
 70
     0
102
RTVSPost2010Prop31
280
     0
102
RTVSPost2010PropOp31
 70
     0
102
RTVSPost2010Prop32
280
     0
102
RTVSPost2010PropOp32
 70
     0
102
RTVSPost2010Prop33
280
     0
102
RTVSPost2010PropOp33
 70
     0
102
RTVSPost2010Prop34
280
     0
102
RTVSPost2010PropOp34
 70
     0
102
RTVSPost2010Prop35
280
     0
102
RTVSPost2010PropOp35
 70
     0
102
RTVSPost2010Prop36
280
     0
102
RTVSPost2010PropOp36
 70
     0
102
RTVSPost2010Prop37
 90
       50
102
RTVSPost2010PropOp37
 70
     0
102
RTVSPost2010Prop38
140
0.0
102
RTVSPost2010PropOp38
 70
     0
102
RTVSPost2010Prop39
140
1.0
102
RTVSPost2010PropOp39
 70
     0
102
RTVSPost2010Prop40
 90
        0
102
RTVSPost2010PropOp40
 70
     0
102
RTVSPost2010Prop41ColorIndex
 90
       18
102
RTVSPost2010Prop41ColorRGB
 90
        0
102
RTVSPost2010PropOp41
 70
     0
102
RTVSPost2010Prop42
 90
       50
102
RTVSPost2010PropOp42
 70
     0
102
RTVSPost2010Prop43
 90
        3
102
RTVSPost2010PropOp43
 70
     0
102
RTVSPost2010Prop44ColorIndex
 90
        5
102
RTVSPost2010Prop44ColorRGB
 90
      255
102
RTVSPost2010PropOp44
 70
     0
102
RTVSPost2010Prop45
280
     0
102
RTVSPost2010PropOp45
 70
     0
102
RTVSPost2010Prop46
 90
       50
102
RTVSPost2010PropOp46
 70
     0
102
RTVSPost2010Prop47
 90
       50
102
RTVSPost2010PropOp47
 70
     0
102
RTVSPost2010Prop48
 90
       50
102
RTVSPost2010PropOp48
 70
     0
102
RTVSPost2010Prop49
280
     0
102
RTVSPost2010PropOp49
 70
     0
102
RTVSPost2010Prop50
 90
       50
102
RTVSPost2010PropOp50
 70
     0
102
RTVSPost2010Prop51ColorIndex
 90
      256
102
RTVSPost2010Prop51ColorRGB
 90
-16777216
102
RTVSPost2010PropOp51
 70
     0
102
RTVSPost2010Prop52
140
1.0
102
RTVSPost2010PropOp52
 70
     0
102
RTVSPost2010Prop53
 90
        2
102
RTVSPost2010PropOp53
 70
     0
102
RTVSPost2010Prop54
  1
strokes_ogs.tif
102
RTVSPost2010PropOp54
 70
     0
102
RTVSPost2010Prop55
280
     0
102
RTVSPost2010PropOp55
 70
     0
102
RTVSPost2010Prop56
140
1.0
102
RTVSPost2010PropOp56
 70
     0
102
RTVSPost2010Prop57
140
1.0
102
RTVSPost2010PropOp57
 70
     0
  0
XRECORD
  5
34E
102
{ACAD_REACTORS
330
34D
102
}
330
34D
100
AcDbXrecord
280
     1
102
RTVSPropertyOp0
 70
     1
102
RTVSPropertyOp1
 70
     1
102
RTVSPropertyOp2
 70
     1
102
RTVSPropertyOp3
 70
     1
102
RTVSPropertyOp4
 70
     1
102
RTVSPropertyOp5
 70
     1
102
RTVSPropertyOp6
 70
     1
102
RTVSPropertyOp7
 70
     1
102
RTVSPropertyOp8
 70
     1
102
RTVSPropertyOp9
 70
     1
102
RTVSPropertyOp10
 70
     1
102
RTVSPropertyOp11
 70
     1
102
RTVSPropertyOp12
 70
     1
102
RTVSPropertyOp13
 70
     1
102
RTVSPropertyOp14
 70
     1
102
RTVSPropertyOp15
 70
     1
102
RTVSPropertyOp16
 70
     1
102
RTVSPropertyOp17
 70
     1
102
RTVSPropertyOp18
 70
     1
102
RTVSPropertyOp19
 70
     1
102
RTVSPropertyOp20
 70
     1
102
RTVSPropertyOp21
 70
     1
102
RTVSPropertyOp22
 70
     1
102
RTVSPropertyOp23
 70
     1
102
RTVSPropertyOp24
 70
     1
102
RTVSPropertyOp25
 70
     1
102
RTVSPropertyOp26
 70
     1
102
RTVSPropertyOp27
 70
     1
102
RTVSPropertyOp28
 70
     1
102
RTVSPropertyOp29
 70
     1
102
RTVSPropertyOp30
 70
     1
102
RTVSPropertyOp31
 70
     1
102
RTVSPropertyOp32
 70
     1
102
RTVSPropertyOp33
 70
     1
102
RTVSPropertyOp34
 70
     1
102
RTVSPropertyOp35
 70
     1
102
RTVSPropertyOp36
 70
     1
102
RTVSPropertyOp37
 70
     1
102
RTVSPropertyOp38
 70
     1
102
RTVSPropertyOp39
 70
     1
102
RTVSPropertyOp40
 70
     1
102
RTVSPropertyOp41
 70
     1
102
RTVSPropertyOp42
 70
     1
102
RTVSPropertyOp43
 70
     1
102
RTVSPropertyOp44
 70
     1
102
RTVSPropertyOp45
 70
     1
102
RTVSPropertyOp46
 70
     1
102
RTVSPropertyOp47
 70
     1
102
RTVSPropertyOp48
 70
     1
102
RTVSPropertyOp49
 70
     1
102
RTVSPropertyOp50
 70
     1
102
RTVSPropertyOp51
 70
     0
102
RTVSPropertyOp52
 70
     0
102
RTVSPropertyOp53
 70
     1
102
RTVSPropertyOp54
 70
     1
102
RTVSPropertyOp55
 70
     1
102
RTVSPropertyOp56
 70
     1
102
RTVSPropertyOp57
 70
     1
102
RTVSPost2010Prop28
280
     0
102
RTVSPost2010PropOp28
 70
     1
102
RTVSPost2010Prop29
280
     1
102
RTVSPost2010PropOp29
 70
     1
102
RTVSPost2010Prop30
280
     1
102
RTVSPost2010PropOp30
 70
     1
102
RTVSPost2010Prop31
280
     0
102
RTVSPost2010PropOp31
 70
     1
102
RTVSPost2010Prop32
280
     0
102
RTVSPost2010PropOp32
 70
     1
102
RTVSPost2010Prop33
280
     0
102
RTVSPost2010PropOp33
 70
     1
102
RTVSPost2010Prop34
280
     0
102
RTVSPost2010PropOp34
 70
     1
102
RTVSPost2010Prop35
280
     0
102
RTVSPost2010PropOp35
 70
     1
102
RTVSPost2010Prop36
280
     0
102
RTVSPost2010PropOp36
 70
     1
102
RTVSPost2010Prop37
 90
       50
102
RTVSPost2010PropOp37
 70
     1
102
RTVSPost2010Prop38
140
0.0
102
RTVSPost2010PropOp38
 70
     1
102
RTVSPost2010Prop39
140
1.0
102
RTVSPost2010PropOp39
 70
     1
102
RTVSPost2010Prop40
 90
        0
102
RTVSPost2010PropOp40
 70
     1
102
RTVSPost2010Prop41ColorIndex
 90
       18
102
RTVSPost2010Prop41ColorRGB
 90
        0
102
RTVSPost2010PropOp41
 70
     1
102
RTVSPost2010Prop42
 90
       50
102
RTVSPost2010PropOp42
 70
     1
102
RTVSPost2010Prop43
 90
        3
102
RTVSPost2010PropOp43
 70
     1
102
RTVSPost2010Prop44ColorIndex
 90
        5
102
RTVSPost2010Prop44ColorRGB
 90
      255
102
RTVSPost2010PropOp44
 70
     1
102
RTVSPost2010Prop45
280
     0
102
RTVSPost2010PropOp45
 70
     1
102
RTVSPost2010Prop46
 90
       50
102
RTVSPost2010PropOp46
 70
     1
102
RTVSPost2010Prop47
 90
       50
102
RTVSPost2010PropOp47
 70
     1
102
RTVSPost2010Prop48
 90
       50
102
RTVSPost2010PropOp48
 70
     1
102
RTVSPost2010Prop49
280
     0
102
RTVSPost2010PropOp49
 70
     1
102
RTVSPost2010Prop50
 90
       50
102
RTVSPost2010PropOp50
 70
     1
102
RTVSPost2010Prop51ColorIndex
 90
      256
102
RTVSPost2010Prop51ColorRGB
 90
-16777216
102
RTVSPost2010PropOp51
 70
     0
102
RTVSPost2010Prop52
140
1.0
102
RTVSPost2010PropOp52
 70
     0
102
RTVSPost2010Prop53
 90
        2
102
RTVSPost2010PropOp53
 70
     1
102
RTVSPost2010Prop54
  1
strokes_ogs.tif
102
RTVSPost2010PropOp54
 70
     1
102
RTVSPost2010Prop55
280
     0
102
RTVSPost2010PropOp55
 70
     1
102
RTVSPost2010Prop56
140
1.0
102
RTVSPost2010PropOp56
 70
     1
102
RTVSPost2010Prop57
140
1.0
102
RTVSPost2010PropOp57
 70
     1
  0
XRECORD
  5
356
102
{ACAD_REACTORS
330
355
102
}
330
355
100
AcDbXrecord
280
     1
102
RTVSPropertyOp0
 70
     0
102
RTVSPropertyOp1
 70
     0
102
RTVSPropertyOp2
 70
     0
102
RTVSPropertyOp3
 70
     0
102
RTVSPropertyOp4
 70
     0
102
RTVSPropertyOp5
 70
     0
102
RTVSPropertyOp6
 70
     0
102
RTVSPropertyOp7
 70
     0
102
RTVSPropertyOp8
 70
     0
102
RTVSPropertyOp9
 70
     0
102
RTVSPropertyOp10
 70
     0
102
RTVSPropertyOp11
 70
     0
102
RTVSPropertyOp12
 70
     0
102
RTVSPropertyOp13
 70
     0
102
RTVSPropertyOp14
 70
     2
102
RTVSPropertyOp15
 70
     0
102
RTVSPropertyOp16
 70
     0
102
RTVSPropertyOp17
 70
     0
102
RTVSPropertyOp18
 70
     0
102
RTVSPropertyOp19
 70
     0
102
RTVSPropertyOp20
 70
     0
102
RTVSPropertyOp21
 70
     0
102
RTVSPropertyOp22
 70
     0
102
RTVSPropertyOp23
 70
     0
102
RTVSPropertyOp24
 70
     0
102
RTVSPropertyOp25
 70
     0
102
RTVSPropertyOp26
 70
     0
102
RTVSPropertyOp27
 70
     0
102
RTVSPropertyOp28
 70
     0
102
RTVSPropertyOp29
 70
     0
102
RTVSPropertyOp30
 70
     0
102
RTVSPropertyOp31
 70
     0
102
RTVSPropertyOp32
 70
     0
102
RTVSPropertyOp33
 70
     0
102
RTVSPropertyOp34
 70
     0
102
RTVSPropertyOp35
 70
     0
102
RTVSPropertyOp36
 70
     0
102
RTVSPropertyOp37
 70
     0
102
RTVSPropertyOp38
 70
     0
102
RTVSPropertyOp39
 70
     0
102
RTVSPropertyOp40
 70
     0
102
RTVSPropertyOp41
 70
     0
102
RTVSPropertyOp42
 70
     0
102
RTVSPropertyOp43
 70
     0
102
RTVSPropertyOp44
 70
     0
102
RTVSPropertyOp45
 70
     0
102
RTVSPropertyOp46
 70
     0
102
RTVSPropertyOp47
 70
     0
102
RTVSPropertyOp48
 70
     0
102
RTVSPropertyOp49
 70
     0
102
RTVSPropertyOp50
 70
     0
102
RTVSPropertyOp51
 70
     0
102
RTVSPropertyOp52
 70
     0
102
RTVSPropertyOp53
 70
     0
102
RTVSPropertyOp54
 70
     0
102
RTVSPropertyOp55
 70
     0
102
RTVSPropertyOp56
 70
     0
102
RTVSPropertyOp57
 70
     0
102
RTVSPost2010Prop28
280
     0
102
RTVSPost2010PropOp28
 70
     0
102
RTVSPost2010Prop29
280
     1
102
RTVSPost2010PropOp29
 70
     0
102
RTVSPost2010Prop30
280
     1
102
RTVSPost2010PropOp30
 70
     0
102
RTVSPost2010Prop31
280
     0
102
RTVSPost2010PropOp31
 70
     0
102
RTVSPost2010Prop32
280
     0
102
RTVSPost2010PropOp32
 70
     0
102
RTVSPost2010Prop33
280
     0
102
RTVSPost2010PropOp33
 70
     0
102
RTVSPost2010Prop34
280
     0
102
RTVSPost2010PropOp34
 70
     0
102
RTVSPost2010Prop35
280
     0
102
RTVSPost2010PropOp35
 70
     0
102
RTVSPost2010Prop36
280
     0
102
RTVSPost2010PropOp36
 70
     0
102
RTVSPost2010Prop37
 90
       50
102
RTVSPost2010PropOp37
 70
     0
102
RTVSPost2010Prop38
140
0.0
102
RTVSPost2010PropOp38
 70
     0
102
RTVSPost2010Prop39
140
1.0
102
RTVSPost2010PropOp39
 70
     0
102
RTVSPost2010Prop40
 90
        0
102
RTVSPost2010PropOp40
 70
     0
102
RTVSPost2010Prop41ColorIndex
 90
       18
102
RTVSPost2010Prop41ColorRGB
 90
        0
102
RTVSPost2010PropOp41
 70
     0
102
RTVSPost2010Prop42
 90
       50
102
RTVSPost2010PropOp42
 70
     0
102
RTVSPost2010Prop43
 90
        3
102
RTVSPost2010PropOp43
 70
     0
102
RTVSPost2010Prop44ColorIndex
 90
        5
102
RTVSPost2010Prop44ColorRGB
 90
      255
102
RTVSPost2010PropOp44
 70
     0
102
RTVSPost2010Prop45
280
     0
102
RTVSPost2010PropOp45
 70
     0
102
RTVSPost2010Prop46
 90
       50
102
RTVSPost2010PropOp46
 70
     0
102
RTVSPost2010Prop47
 90
       50
102
RTVSPost2010PropOp47
 70
     0
102
RTVSPost2010Prop48
 90
       50
102
RTVSPost2010PropOp48
 70
     0
102
RTVSPost2010Prop49
280
     0
102
RTVSPost2010PropOp49
 70
     0
102
RTVSPost2010Prop50
 90
       50
102
RTVSPost2010PropOp50
 70
     0
102
RTVSPost2010Prop51ColorIndex
 90
      256
102
RTVSPost2010Prop51ColorRGB
 90
-16777216
102
RTVSPost2010PropOp51
 70
     0
102
RTVSPost2010Prop52
140
1.0
102
RTVSPost2010PropOp52
 70
     0
102
RTVSPost2010Prop53
 90
        2
102
RTVSPost2010PropOp53
 70
     0
102
RTVSPost2010Prop54
  1
strokes_ogs.tif
102
RTVSPost2010PropOp54
 70
     0
102
RTVSPost2010Prop55
280
     0
102
RTVSPost2010PropOp55
 70
     0
102
RTVSPost2010Prop56
140
1.0
102
RTVSPost2010PropOp56
 70
     0
102
RTVSPost2010Prop57
140
1.0
102
RTVSPost2010PropOp57
 70
     0
  0
XRECORD
  5
344
102
{ACAD_REACTORS
330
343
102
}
330
343
100
AcDbXrecord
280
     1
102
RTVSPropertyOp0
 70
     1
102
RTVSPropertyOp1
 70
     1
102
RTVSPropertyOp2
 70
     1
102
RTVSPropertyOp3
 70
     1
102
RTVSPropertyOp4
 70
     1
102
RTVSPropertyOp5
 70
     1
102
RTVSPropertyOp6
 70
     1
102
RTVSPropertyOp7
 70
     1
102
RTVSPropertyOp8
 70
     1
102
RTVSPropertyOp9
 70
     1
102
RTVSPropertyOp10
 70
     1
102
RTVSPropertyOp11
 70
     1
102
RTVSPropertyOp12
 70
     1
102
RTVSPropertyOp13
 70
     1
102
RTVSPropertyOp14
 70
     1
102
RTVSPropertyOp15
 70
     1
102
RTVSPropertyOp16
 70
     1
102
RTVSPropertyOp17
 70
     1
102
RTVSPropertyOp18
 70
     1
102
RTVSPropertyOp19
 70
     1
102
RTVSPropertyOp20
 70
     1
102
RTVSPropertyOp21
 70
     1
102
RTVSPropertyOp22
 70
     1
102
RTVSPropertyOp23
 70
     1
102
RTVSPropertyOp24
 70
     1
102
RTVSPropertyOp25
 70
     1
102
RTVSPropertyOp26
 70
     1
102
RTVSPropertyOp27
 70
     1
102
RTVSPropertyOp28
 70
     1
102
RTVSPropertyOp29
 70
     1
102
RTVSPropertyOp30
 70
     1
102
RTVSPropertyOp31
 70
     1
102
RTVSPropertyOp32
 70
     1
102
RTVSPropertyOp33
 70
     1
102
RTVSPropertyOp34
 70
     1
102
RTVSPropertyOp35
 70
     1
102
RTVSPropertyOp36
 70
     1
102
RTVSPropertyOp37
 70
     1
102
RTVSPropertyOp38
 70
     1
102
RTVSPropertyOp39
 70
     1
102
RTVSPropertyOp40
 70
     1
102
RTVSPropertyOp41
 70
     1
102
RTVSPropertyOp42
 70
     1
102
RTVSPropertyOp43
 70
     1
102
RTVSPropertyOp44
 70
     1
102
RTVSPropertyOp45
 70
     1
102
RTVSPropertyOp46
 70
     1
102
RTVSPropertyOp47
 70
     1
102
RTVSPropertyOp48
 70
     1
102
RTVSPropertyOp49
 70
     1
102
RTVSPropertyOp50
 70
     1
102
RTVSPropertyOp51
 70
     0
102
RTVSPropertyOp52
 70
     0
102
RTVSPropertyOp53
 70
     1
102
RTVSPropertyOp54
 70
     1
102
RTVSPropertyOp55
 70
     1
102
RTVSPropertyOp56
 70
     1
102
RTVSPropertyOp57
 70
     1
102
RTVSPost2010Prop28
280
     0
102
RTVSPost2010PropOp28
 70
     1
102
RTVSPost2010Prop29
280
     1
102
RTVSPost2010PropOp29
 70
     1
102
RTVSPost2010Prop30
280
     1
102
RTVSPost2010PropOp30
 70
     1
102
RTVSPost2010Prop31
280
     0
102
RTVSPost2010PropOp31
 70
     1
102
RTVSPost2010Prop32
280
     0
102
RTVSPost2010PropOp32
 70
     1
102
RTVSPost2010Prop33
280
     0
102
RTVSPost2010PropOp33
 70
     1
102
RTVSPost2010Prop34
280
     0
102
RTVSPost2010PropOp34
 70
     1
102
RTVSPost2010Prop35
280
     0
102
RTVSPost2010PropOp35
 70
     1
102
RTVSPost2010Prop36
280
     0
102
RTVSPost2010PropOp36
 70
     1
102
RTVSPost2010Prop37
 90
       50
102
RTVSPost2010PropOp37
 70
     1
102
RTVSPost2010Prop38
140
0.0
102
RTVSPost2010PropOp38
 70
     1
102
RTVSPost2010Prop39
140
1.0
102
RTVSPost2010PropOp39
 70
     1
102
RTVSPost2010Prop40
 90
        0
102
RTVSPost2010PropOp40
 70
     1
102
RTVSPost2010Prop41ColorIndex
 90
       18
102
RTVSPost2010Prop41ColorRGB
 90
        0
102
RTVSPost2010PropOp41
 70
     1
102
RTVSPost2010Prop42
 90
       50
102
RTVSPost2010PropOp42
 70
     1
102
RTVSPost2010Prop43
 90
        3
102
RTVSPost2010PropOp43
 70
     1
102
RTVSPost2010Prop44ColorIndex
 90
        5
102
RTVSPost2010Prop44ColorRGB
 90
      255
102
RTVSPost2010PropOp44
 70
     1
102
RTVSPost2010Prop45
280
     0
102
RTVSPost2010PropOp45
 70
     1
102
RTVSPost2010Prop46
 90
       50
102
RTVSPost2010PropOp46
 70
     1
102
RTVSPost2010Prop47
 90
       50
102
RTVSPost2010PropOp47
 70
     1
102
RTVSPost2010Prop48
 90
       50
102
RTVSPost2010PropOp48
 70
     1
102
RTVSPost2010Prop49
280
     0
102
RTVSPost2010PropOp49
 70
     1
102
RTVSPost2010Prop50
 90
       50
102
RTVSPost2010PropOp50
 70
     1
102
RTVSPost2010Prop51ColorIndex
 90
      256
102
RTVSPost2010Prop51ColorRGB
 90
-16777216
102
RTVSPost2010PropOp51
 70
     0
102
RTVSPost2010Prop52
140
1.0
102
RTVSPost2010PropOp52
 70
     0
102
RTVSPost2010Prop53
 90
        2
102
RTVSPost2010PropOp53
 70
     1
102
RTVSPost2010Prop54
  1
strokes_ogs.tif
102
RTVSPost2010PropOp54
 70
     1
102
RTVSPost2010Prop55
280
     0
102
RTVSPost2010PropOp55
 70
     1
102
RTVSPost2010Prop56
140
1.0
102
RTVSPost2010PropOp56
 70
     1
102
RTVSPost2010Prop57
140
1.0
102
RTVSPost2010PropOp57
 70
     1
  0
XRECORD
  5
362
102
{ACAD_REACTORS
330
361
102
}
330
361
100
AcDbXrecord
280
     1
102
RTVSPropertyOp0
 70
     1
102
RTVSPropertyOp1
 70
     1
102
RTVSPropertyOp2
 70
     1
102
RTVSPropertyOp3
 70
     1
102
RTVSPropertyOp4
 70
     1
102
RTVSPropertyOp5
 70
     1
102
RTVSPropertyOp6
 70
     1
102
RTVSPropertyOp7
 70
     1
102
RTVSPropertyOp8
 70
     1
102
RTVSPropertyOp9
 70
     1
102
RTVSPropertyOp10
 70
     1
102
RTVSPropertyOp11
 70
     1
102
RTVSPropertyOp12
 70
     1
102
RTVSPropertyOp13
 70
     1
102
RTVSPropertyOp14
 70
     1
102
RTVSPropertyOp15
 70
     1
102
RTVSPropertyOp16
 70
     1
102
RTVSPropertyOp17
 70
     1
102
RTVSPropertyOp18
 70
     1
102
RTVSPropertyOp19
 70
     1
102
RTVSPropertyOp20
 70
     1
102
RTVSPropertyOp21
 70
     1
102
RTVSPropertyOp22
 70
     1
102
RTVSPropertyOp23
 70
     1
102
RTVSPropertyOp24
 70
     1
102
RTVSPropertyOp25
 70
     1
102
RTVSPropertyOp26
 70
     1
102
RTVSPropertyOp27
 70
     1
102
RTVSPropertyOp28
 70
     1
102
RTVSPropertyOp29
 70
     1
102
RTVSPropertyOp30
 70
     1
102
RTVSPropertyOp31
 70
     1
102
RTVSPropertyOp32
 70
     1
102
RTVSPropertyOp33
 70
     1
102
RTVSPropertyOp34
 70
     1
102
RTVSPropertyOp35
 70
     1
102
RTVSPropertyOp36
 70
     1
102
RTVSPropertyOp37
 70
     1
102
RTVSPropertyOp38
 70
     1
102
RTVSPropertyOp39
 70
     1
102
RTVSPropertyOp40
 70
     1
102
RTVSPropertyOp41
 70
     1
102
RTVSPropertyOp42
 70
     1
102
RTVSPropertyOp43
 70
     1
102
RTVSPropertyOp44
 70
     1
102
RTVSPropertyOp45
 70
     1
102
RTVSPropertyOp46
 70
     1
102
RTVSPropertyOp47
 70
     1
102
RTVSPropertyOp48
 70
     1
102
RTVSPropertyOp49
 70
     1
102
RTVSPropertyOp50
 70
     1
102
RTVSPropertyOp51
 70
     0
102
RTVSPropertyOp52
 70
     0
102
RTVSPropertyOp53
 70
     1
102
RTVSPropertyOp54
 70
     1
102
RTVSPropertyOp55
 70
     1
102
RTVSPropertyOp56
 70
     1
102
RTVSPropertyOp57
 70
     1
102
RTVSPost2010Prop28
280
     0
102
RTVSPost2010PropOp28
 70
     1
102
RTVSPost2010Prop29
280
     1
102
RTVSPost2010PropOp29
 70
     1
102
RTVSPost2010Prop30
280
     1
102
RTVSPost2010PropOp30
 70
     1
102
RTVSPost2010Prop31
280
     0
102
RTVSPost2010PropOp31
 70
     1
102
RTVSPost2010Prop32
280
     0
102
RTVSPost2010PropOp32
 70
     1
102
RTVSPost2010Prop33
280
     0
102
RTVSPost2010PropOp33
 70
     1
102
RTVSPost2010Prop34
280
     0
102
RTVSPost2010PropOp34
 70
     1
102
RTVSPost2010Prop35
280
     0
102
RTVSPost2010PropOp35
 70
     1
102
RTVSPost2010Prop36
280
     0
102
RTVSPost2010PropOp36
 70
     1
102
RTVSPost2010Prop37
 90
       50
102
RTVSPost2010PropOp37
 70
     1
102
RTVSPost2010Prop38
140
0.0
102
RTVSPost2010PropOp38
 70
     1
102
RTVSPost2010Prop39
140
1.0
102
RTVSPost2010PropOp39
 70
     1
102
RTVSPost2010Prop40
 90
        0
102
RTVSPost2010PropOp40
 70
     1
102
RTVSPost2010Prop41ColorIndex
 90
       18
102
RTVSPost2010Prop41ColorRGB
 90
        0
102
RTVSPost2010PropOp41
 70
     1
102
RTVSPost2010Prop42
 90
       50
102
RTVSPost2010PropOp42
 70
     1
102
RTVSPost2010Prop43
 90
        3
102
RTVSPost2010PropOp43
 70
     1
102
RTVSPost2010Prop44ColorIndex
 90
        5
102
RTVSPost2010Prop44ColorRGB
 90
      255
102
RTVSPost2010PropOp44
 70
     1
102
RTVSPost2010Prop45
280
     0
102
RTVSPost2010PropOp45
 70
     1
102
RTVSPost2010Prop46
 90
       50
102
RTVSPost2010PropOp46
 70
     1
102
RTVSPost2010Prop47
 90
       50
102
RTVSPost2010PropOp47
 70
     1
102
RTVSPost2010Prop48
 90
       50
102
RTVSPost2010PropOp48
 70
     1
102
RTVSPost2010Prop49
280
     0
102
RTVSPost2010PropOp49
 70
     1
102
RTVSPost2010Prop50
 90
       50
102
RTVSPost2010PropOp50
 70
     1
102
RTVSPost2010Prop51ColorIndex
 90
      256
102
RTVSPost2010Prop51ColorRGB
 90
-16777216
102
RTVSPost2010PropOp51
 70
     0
102
RTVSPost2010Prop52
140
1.0
102
RTVSPost2010PropOp52
 70
     0
102
RTVSPost2010Prop53
 90
        2
102
RTVSPost2010PropOp53
 70
     1
102
RTVSPost2010Prop54
  1
strokes_ogs.tif
102
RTVSPost2010PropOp54
 70
     1
102
RTVSPost2010Prop55
280
     0
102
RTVSPost2010PropOp55
 70
     1
102
RTVSPost2010Prop56
140
1.0
102
RTVSPost2010PropOp56
 70
     1
102
RTVSPost2010Prop57
140
1.0
102
RTVSPost2010PropOp57
 70
     1
  0
XRECORD
  5
360
102
{ACAD_REACTORS
330
35F
102
}
330
35F
100
AcDbXrecord
280
     1
102
RTVSPropertyOp0
 70
     1
102
RTVSPropertyOp1
 70
     1
102
RTVSPropertyOp2
 70
     1
102
RTVSPropertyOp3
 70
     1
102
RTVSPropertyOp4
 70
     1
102
RTVSPropertyOp5
 70
     1
102
RTVSPropertyOp6
 70
     1
102
RTVSPropertyOp7
 70
     1
102
RTVSPropertyOp8
 70
     1
102
RTVSPropertyOp9
 70
     1
102
RTVSPropertyOp10
 70
     1
102
RTVSPropertyOp11
 70
     1
102
RTVSPropertyOp12
 70
     1
102
RTVSPropertyOp13
 70
     1
102
RTVSPropertyOp14
 70
     1
102
RTVSPropertyOp15
 70
     1
102
RTVSPropertyOp16
 70
     1
102
RTVSPropertyOp17
 70
     1
102
RTVSPropertyOp18
 70
     1
102
RTVSPropertyOp19
 70
     1
102
RTVSPropertyOp20
 70
     1
102
RTVSPropertyOp21
 70
     1
102
RTVSPropertyOp22
 70
     1
102
RTVSPropertyOp23
 70
     1
102
RTVSPropertyOp24
 70
     1
102
RTVSPropertyOp25
 70
     1
102
RTVSPropertyOp26
 70
     1
102
RTVSPropertyOp27
 70
     1
102
RTVSPropertyOp28
 70
     1
102
RTVSPropertyOp29
 70
     1
102
RTVSPropertyOp30
 70
     1
102
RTVSPropertyOp31
 70
     1
102
RTVSPropertyOp32
 70
     1
102
RTVSPropertyOp33
 70
     1
102
RTVSPropertyOp34
 70
     1
102
RTVSPropertyOp35
 70
     1
102
RTVSPropertyOp36
 70
     1
102
RTVSPropertyOp37
 70
     1
102
RTVSPropertyOp38
 70
     1
102
RTVSPropertyOp39
 70
     1
102
RTVSPropertyOp40
 70
     1
102
RTVSPropertyOp41
 70
     1
102
RTVSPropertyOp42
 70
     1
102
RTVSPropertyOp43
 70
     1
102
RTVSPropertyOp44
 70
     1
102
RTVSPropertyOp45
 70
     1
102
RTVSPropertyOp46
 70
     1
102
RTVSPropertyOp47
 70
     1
102
RTVSPropertyOp48
 70
     1
102
RTVSPropertyOp49
 70
     1
102
RTVSPropertyOp50
 70
     1
102
RTVSPropertyOp51
 70
     0
102
RTVSPropertyOp52
 70
     0
102
RTVSPropertyOp53
 70
     1
102
RTVSPropertyOp54
 70
     1
102
RTVSPropertyOp55
 70
     1
102
RTVSPropertyOp56
 70
     1
102
RTVSPropertyOp57
 70
     1
102
RTVSPost2010Prop28
280
     0
102
RTVSPost2010PropOp28
 70
     1
102
RTVSPost2010Prop29
280
     1
102
RTVSPost2010PropOp29
 70
     1
102
RTVSPost2010Prop30
280
     1
102
RTVSPost2010PropOp30
 70
     1
102
RTVSPost2010Prop31
280
     0
102
RTVSPost2010PropOp31
 70
     1
102
RTVSPost2010Prop32
280
     0
102
RTVSPost2010PropOp32
 70
     1
102
RTVSPost2010Prop33
280
     0
102
RTVSPost2010PropOp33
 70
     1
102
RTVSPost2010Prop34
280
     0
102
RTVSPost2010PropOp34
 70
     1
102
RTVSPost2010Prop35
280
     0
102
RTVSPost2010PropOp35
 70
     1
102
RTVSPost2010Prop36
280
     0
102
RTVSPost2010PropOp36
 70
     1
102
RTVSPost2010Prop37
 90
       50
102
RTVSPost2010PropOp37
 70
     1
102
RTVSPost2010Prop38
140
0.0
102
RTVSPost2010PropOp38
 70
     1
102
RTVSPost2010Prop39
140
1.0
102
RTVSPost2010PropOp39
 70
     1
102
RTVSPost2010Prop40
 90
        0
102
RTVSPost2010PropOp40
 70
     1
102
RTVSPost2010Prop41ColorIndex
 90
       18
102
RTVSPost2010Prop41ColorRGB
 90
        0
102
RTVSPost2010PropOp41
 70
     1
102
RTVSPost2010Prop42
 90
       50
102
RTVSPost2010PropOp42
 70
     1
102
RTVSPost2010Prop43
 90
        3
102
RTVSPost2010PropOp43
 70
     1
102
RTVSPost2010Prop44ColorIndex
 90
        5
102
RTVSPost2010Prop44ColorRGB
 90
      255
102
RTVSPost2010PropOp44
 70
     1
102
RTVSPost2010Prop45
280
     0
102
RTVSPost2010PropOp45
 70
     1
102
RTVSPost2010Prop46
 90
       50
102
RTVSPost2010PropOp46
 70
     1
102
RTVSPost2010Prop47
 90
       50
102
RTVSPost2010PropOp47
 70
     1
102
RTVSPost2010Prop48
 90
       50
102
RTVSPost2010PropOp48
 70
     1
102
RTVSPost2010Prop49
280
     0
102
RTVSPost2010PropOp49
 70
     1
102
RTVSPost2010Prop50
 90
       50
102
RTVSPost2010PropOp50
 70
     1
102
RTVSPost2010Prop51ColorIndex
 90
      256
102
RTVSPost2010Prop51ColorRGB
 90
-16777216
102
RTVSPost2010PropOp51
 70
     0
102
RTVSPost2010Prop52
140
1.0
102
RTVSPost2010PropOp52
 70
     0
102
RTVSPost2010Prop53
 90
        2
102
RTVSPost2010PropOp53
 70
     1
102
RTVSPost2010Prop54
  1
strokes_ogs.tif
102
RTVSPost2010PropOp54
 70
     1
102
RTVSPost2010Prop55
280
     0
102
RTVSPost2010PropOp55
 70
     1
102
RTVSPost2010Prop56
140
1.0
102
RTVSPost2010PropOp56
 70
     1
102
RTVSPost2010Prop57
140
1.0
102
RTVSPost2010PropOp57
 70
     1
  0
XRECORD
  5
35A
102
{ACAD_REACTORS
330
359
102
}
330
359
100
AcDbXrecord
280
     1
102
RTVSPropertyOp0
 70
     1
102
RTVSPropertyOp1
 70
     1
102
RTVSPropertyOp2
 70
     1
102
RTVSPropertyOp3
 70
     1
102
RTVSPropertyOp4
 70
     1
102
RTVSPropertyOp5
 70
     1
102
RTVSPropertyOp6
 70
     1
102
RTVSPropertyOp7
 70
     1
102
RTVSPropertyOp8
 70
     1
102
RTVSPropertyOp9
 70
     1
102
RTVSPropertyOp10
 70
     1
102
RTVSPropertyOp11
 70
     1
102
RTVSPropertyOp12
 70
     1
102
RTVSPropertyOp13
 70
     1
102
RTVSPropertyOp14
 70
     1
102
RTVSPropertyOp15
 70
     1
102
RTVSPropertyOp16
 70
     1
102
RTVSPropertyOp17
 70
     1
102
RTVSPropertyOp18
 70
     1
102
RTVSPropertyOp19
 70
     1
102
RTVSPropertyOp20
 70
     1
102
RTVSPropertyOp21
 70
     1
102
RTVSPropertyOp22
 70
     1
102
RTVSPropertyOp23
 70
     1
102
RTVSPropertyOp24
 70
     1
102
RTVSPropertyOp25
 70
     1
102
RTVSPropertyOp26
 70
     1
102
RTVSPropertyOp27
 70
     1
102
RTVSPropertyOp28
 70
     1
102
RTVSPropertyOp29
 70
     1
102
RTVSPropertyOp30
 70
     1
102
RTVSPropertyOp31
 70
     1
102
RTVSPropertyOp32
 70
     1
102
RTVSPropertyOp33
 70
     1
102
RTVSPropertyOp34
 70
     1
102
RTVSPropertyOp35
 70
     1
102
RTVSPropertyOp36
 70
     1
102
RTVSPropertyOp37
 70
     1
102
RTVSPropertyOp38
 70
     1
102
RTVSPropertyOp39
 70
     1
102
RTVSPropertyOp40
 70
     1
102
RTVSPropertyOp41
 70
     1
102
RTVSPropertyOp42
 70
     1
102
RTVSPropertyOp43
 70
     1
102
RTVSPropertyOp44
 70
     1
102
RTVSPropertyOp45
 70
     1
102
RTVSPropertyOp46
 70
     1
102
RTVSPropertyOp47
 70
     1
102
RTVSPropertyOp48
 70
     1
102
RTVSPropertyOp49
 70
     1
102
RTVSPropertyOp50
 70
     1
102
RTVSPropertyOp51
 70
     0
102
RTVSPropertyOp52
 70
     0
102
RTVSPropertyOp53
 70
     1
102
RTVSPropertyOp54
 70
     1
102
RTVSPropertyOp55
 70
     1
102
RTVSPropertyOp56
 70
     1
102
RTVSPropertyOp57
 70
     1
102
RTVSPost2010Prop28
280
     0
102
RTVSPost2010PropOp28
 70
     1
102
RTVSPost2010Prop29
280
     1
102
RTVSPost2010PropOp29
 70
     1
102
RTVSPost2010Prop30
280
     1
102
RTVSPost2010PropOp30
 70
     1
102
RTVSPost2010Prop31
280
     0
102
RTVSPost2010PropOp31
 70
     1
102
RTVSPost2010Prop32
280
     0
102
RTVSPost2010PropOp32
 70
     1
102
RTVSPost2010Prop33
280
     0
102
RTVSPost2010PropOp33
 70
     1
102
RTVSPost2010Prop34
280
     0
102
RTVSPost2010PropOp34
 70
     1
102
RTVSPost2010Prop35
280
     0
102
RTVSPost2010PropOp35
 70
     1
102
RTVSPost2010Prop36
280
     0
102
RTVSPost2010PropOp36
 70
     1
102
RTVSPost2010Prop37
 90
       50
102
RTVSPost2010PropOp37
 70
     1
102
RTVSPost2010Prop38
140
0.0
102
RTVSPost2010PropOp38
 70
     1
102
RTVSPost2010Prop39
140
1.0
102
RTVSPost2010PropOp39
 70
     1
102
RTVSPost2010Prop40
 90
        0
102
RTVSPost2010PropOp40
 70
     1
102
RTVSPost2010Prop41ColorIndex
 90
       18
102
RTVSPost2010Prop41ColorRGB
 90
        0
102
RTVSPost2010PropOp41
 70
     1
102
RTVSPost2010Prop42
 90
       50
102
RTVSPost2010PropOp42
 70
     1
102
RTVSPost2010Prop43
 90
        3
102
RTVSPost2010PropOp43
 70
     1
102
RTVSPost2010Prop44ColorIndex
 90
        5
102
RTVSPost2010Prop44ColorRGB
 90
      255
102
RTVSPost2010PropOp44
 70
     1
102
RTVSPost2010Prop45
280
     0
102
RTVSPost2010PropOp45
 70
     1
102
RTVSPost2010Prop46
 90
       50
102
RTVSPost2010PropOp46
 70
     1
102
RTVSPost2010Prop47
 90
       50
102
RTVSPost2010PropOp47
 70
     1
102
RTVSPost2010Prop48
 90
       50
102
RTVSPost2010PropOp48
 70
     1
102
RTVSPost2010Prop49
280
     0
102
RTVSPost2010PropOp49
 70
     1
102
RTVSPost2010Prop50
 90
       50
102
RTVSPost2010PropOp50
 70
     1
102
RTVSPost2010Prop51ColorIndex
 90
      256
102
RTVSPost2010Prop51ColorRGB
 90
-16777216
102
RTVSPost2010PropOp51
 70
     0
102
RTVSPost2010Prop52
140
1.0
102
RTVSPost2010PropOp52
 70
     0
102
RTVSPost2010Prop53
 90
        2
102
RTVSPost2010PropOp53
 70
     1
102
RTVSPost2010Prop54
  1
strokes_ogs.tif
102
RTVSPost2010PropOp54
 70
     1
102
RTVSPost2010Prop55
280
     0
102
RTVSPost2010PropOp55
 70
     1
102
RTVSPost2010Prop56
140
1.0
102
RTVSPost2010PropOp56
 70
     1
102
RTVSPost2010Prop57
140
1.0
102
RTVSPost2010PropOp57
 70
     1
  0
XRECORD
  5
35C
102
{ACAD_REACTORS
330
35B
102
}
330
35B
100
AcDbXrecord
280
     1
102
RTVSPropertyOp0
 70
     1
102
RTVSPropertyOp1
 70
     1
102
RTVSPropertyOp2
 70
     1
102
RTVSPropertyOp3
 70
     1
102
RTVSPropertyOp4
 70
     1
102
RTVSPropertyOp5
 70
     1
102
RTVSPropertyOp6
 70
     1
102
RTVSPropertyOp7
 70
     1
102
RTVSPropertyOp8
 70
     1
102
RTVSPropertyOp9
 70
     1
102
RTVSPropertyOp10
 70
     1
102
RTVSPropertyOp11
 70
     1
102
RTVSPropertyOp12
 70
     1
102
RTVSPropertyOp13
 70
     1
102
RTVSPropertyOp14
 70
     1
102
RTVSPropertyOp15
 70
     1
102
RTVSPropertyOp16
 70
     1
102
RTVSPropertyOp17
 70
     1
102
RTVSPropertyOp18
 70
     1
102
RTVSPropertyOp19
 70
     1
102
RTVSPropertyOp20
 70
     1
102
RTVSPropertyOp21
 70
     1
102
RTVSPropertyOp22
 70
     1
102
RTVSPropertyOp23
 70
     1
102
RTVSPropertyOp24
 70
     1
102
RTVSPropertyOp25
 70
     1
102
RTVSPropertyOp26
 70
     1
102
RTVSPropertyOp27
 70
     1
102
RTVSPropertyOp28
 70
     1
102
RTVSPropertyOp29
 70
     1
102
RTVSPropertyOp30
 70
     1
102
RTVSPropertyOp31
 70
     1
102
RTVSPropertyOp32
 70
     1
102
RTVSPropertyOp33
 70
     1
102
RTVSPropertyOp34
 70
     1
102
RTVSPropertyOp35
 70
     1
102
RTVSPropertyOp36
 70
     1
102
RTVSPropertyOp37
 70
     1
102
RTVSPropertyOp38
 70
     1
102
RTVSPropertyOp39
 70
     1
102
RTVSPropertyOp40
 70
     1
102
RTVSPropertyOp41
 70
     1
102
RTVSPropertyOp42
 70
     1
102
RTVSPropertyOp43
 70
     1
102
RTVSPropertyOp44
 70
     1
102
RTVSPropertyOp45
 70
     1
102
RTVSPropertyOp46
 70
     1
102
RTVSPropertyOp47
 70
     1
102
RTVSPropertyOp48
 70
     1
102
RTVSPropertyOp49
 70
     1
102
RTVSPropertyOp50
 70
     1
102
RTVSPropertyOp51
 70
     0
102
RTVSPropertyOp52
 70
     0
102
RTVSPropertyOp53
 70
     1
102
RTVSPropertyOp54
 70
     1
102
RTVSPropertyOp55
 70
     1
102
RTVSPropertyOp56
 70
     1
102
RTVSPropertyOp57
 70
     1
102
RTVSPost2010Prop28
280
     0
102
RTVSPost2010PropOp28
 70
     1
102
RTVSPost2010Prop29
280
     1
102
RTVSPost2010PropOp29
 70
     1
102
RTVSPost2010Prop30
280
     1
102
RTVSPost2010PropOp30
 70
     1
102
RTVSPost2010Prop31
280
     0
102
RTVSPost2010PropOp31
 70
     1
102
RTVSPost2010Prop32
280
     0
102
RTVSPost2010PropOp32
 70
     1
102
RTVSPost2010Prop33
280
     0
102
RTVSPost2010PropOp33
 70
     1
102
RTVSPost2010Prop34
280
     0
102
RTVSPost2010PropOp34
 70
     1
102
RTVSPost2010Prop35
280
     0
102
RTVSPost2010PropOp35
 70
     1
102
RTVSPost2010Prop36
280
     0
102
RTVSPost2010PropOp36
 70
     1
102
RTVSPost2010Prop37
 90
       50
102
RTVSPost2010PropOp37
 70
     1
102
RTVSPost2010Prop38
140
0.0
102
RTVSPost2010PropOp38
 70
     1
102
RTVSPost2010Prop39
140
1.0
102
RTVSPost2010PropOp39
 70
     1
102
RTVSPost2010Prop40
 90
        0
102
RTVSPost2010PropOp40
 70
     1
102
RTVSPost2010Prop41ColorIndex
 90
       18
102
RTVSPost2010Prop41ColorRGB
 90
        0
102
RTVSPost2010PropOp41
 70
     1
102
RTVSPost2010Prop42
 90
       50
102
RTVSPost2010PropOp42
 70
     1
102
RTVSPost2010Prop43
 90
        3
102
RTVSPost2010PropOp43
 70
     1
102
RTVSPost2010Prop44ColorIndex
 90
        5
102
RTVSPost2010Prop44ColorRGB
 90
      255
102
RTVSPost2010PropOp44
 70
     1
102
RTVSPost2010Prop45
280
     0
102
RTVSPost2010PropOp45
 70
     1
102
RTVSPost2010Prop46
 90
       50
102
RTVSPost2010PropOp46
 70
     1
102
RTVSPost2010Prop47
 90
       50
102
RTVSPost2010PropOp47
 70
     1
102
RTVSPost2010Prop48
 90
       50
102
RTVSPost2010PropOp48
 70
     1
102
RTVSPost2010Prop49
280
     0
102
RTVSPost2010PropOp49
 70
     1
102
RTVSPost2010Prop50
 90
       50
102
RTVSPost2010PropOp50
 70
     1
102
RTVSPost2010Prop51ColorIndex
 90
      256
102
RTVSPost2010Prop51ColorRGB
 90
-16777216
102
RTVSPost2010PropOp51
 70
     0
102
RTVSPost2010Prop52
140
1.0
102
RTVSPost2010PropOp52
 70
     0
102
RTVSPost2010Prop53
 90
        2
102
RTVSPost2010PropOp53
 70
     1
102
RTVSPost2010Prop54
  1
strokes_ogs.tif
102
RTVSPost2010PropOp54
 70
     1
102
RTVSPost2010Prop55
280
     0
102
RTVSPost2010PropOp55
 70
     1
102
RTVSPost2010Prop56
140
1.0
102
RTVSPost2010PropOp56
 70
     1
102
RTVSPost2010Prop57
140
1.0
102
RTVSPost2010PropOp57
 70
     1
  0
XRECORD
  5
34C
102
{ACAD_REACTORS
330
34B
102
}
330
34B
100
AcDbXrecord
280
     1
102
RTVSPropertyOp0
 70
     1
102
RTVSPropertyOp1
 70
     1
102
RTVSPropertyOp2
 70
     1
102
RTVSPropertyOp3
 70
     1
102
RTVSPropertyOp4
 70
     1
102
RTVSPropertyOp5
 70
     1
102
RTVSPropertyOp6
 70
     1
102
RTVSPropertyOp7
 70
     1
102
RTVSPropertyOp8
 70
     1
102
RTVSPropertyOp9
 70
     1
102
RTVSPropertyOp10
 70
     1
102
RTVSPropertyOp11
 70
     1
102
RTVSPropertyOp12
 70
     1
102
RTVSPropertyOp13
 70
     1
102
RTVSPropertyOp14
 70
     1
102
RTVSPropertyOp15
 70
     1
102
RTVSPropertyOp16
 70
     1
102
RTVSPropertyOp17
 70
     1
102
RTVSPropertyOp18
 70
     1
102
RTVSPropertyOp19
 70
     1
102
RTVSPropertyOp20
 70
     1
102
RTVSPropertyOp21
 70
     1
102
RTVSPropertyOp22
 70
     1
102
RTVSPropertyOp23
 70
     1
102
RTVSPropertyOp24
 70
     1
102
RTVSPropertyOp25
 70
     1
102
RTVSPropertyOp26
 70
     1
102
RTVSPropertyOp27
 70
     1
102
RTVSPropertyOp28
 70
     1
102
RTVSPropertyOp29
 70
     1
102
RTVSPropertyOp30
 70
     1
102
RTVSPropertyOp31
 70
     1
102
RTVSPropertyOp32
 70
     1
102
RTVSPropertyOp33
 70
     1
102
RTVSPropertyOp34
 70
     1
102
RTVSPropertyOp35
 70
     1
102
RTVSPropertyOp36
 70
     1
102
RTVSPropertyOp37
 70
     1
102
RTVSPropertyOp38
 70
     1
102
RTVSPropertyOp39
 70
     1
102
RTVSPropertyOp40
 70
     1
102
RTVSPropertyOp41
 70
     1
102
RTVSPropertyOp42
 70
     1
102
RTVSPropertyOp43
 70
     1
102
RTVSPropertyOp44
 70
     1
102
RTVSPropertyOp45
 70
     1
102
RTVSPropertyOp46
 70
     1
102
RTVSPropertyOp47
 70
     1
102
RTVSPropertyOp48
 70
     1
102
RTVSPropertyOp49
 70
     1
102
RTVSPropertyOp50
 70
     1
102
RTVSPropertyOp51
 70
     0
102
RTVSPropertyOp52
 70
     0
102
RTVSPropertyOp53
 70
     1
102
RTVSPropertyOp54
 70
     1
102
RTVSPropertyOp55
 70
     1
102
RTVSPropertyOp56
 70
     1
102
RTVSPropertyOp57
 70
     1
102
RTVSPost2010Prop28
280
     0
102
RTVSPost2010PropOp28
 70
     1
102
RTVSPost2010Prop29
280
     1
102
RTVSPost2010PropOp29
 70
     1
102
RTVSPost2010Prop30
280
     1
102
RTVSPost2010PropOp30
 70
     1
102
RTVSPost2010Prop31
280
     0
102
RTVSPost2010PropOp31
 70
     1
102
RTVSPost2010Prop32
280
     0
102
RTVSPost2010PropOp32
 70
     1
102
RTVSPost2010Prop33
280
     0
102
RTVSPost2010PropOp33
 70
     1
102
RTVSPost2010Prop34
280
     0
102
RTVSPost2010PropOp34
 70
     1
102
RTVSPost2010Prop35
280
     0
102
RTVSPost2010PropOp35
 70
     1
102
RTVSPost2010Prop36
280
     0
102
RTVSPost2010PropOp36
 70
     1
102
RTVSPost2010Prop37
 90
       50
102
RTVSPost2010PropOp37
 70
     1
102
RTVSPost2010Prop38
140
0.0
102
RTVSPost2010PropOp38
 70
     1
102
RTVSPost2010Prop39
140
1.0
102
RTVSPost2010PropOp39
 70
     1
102
RTVSPost2010Prop40
 90
        0
102
RTVSPost2010PropOp40
 70
     1
102
RTVSPost2010Prop41ColorIndex
 90
       18
102
RTVSPost2010Prop41ColorRGB
 90
        0
102
RTVSPost2010PropOp41
 70
     1
102
RTVSPost2010Prop42
 90
       50
102
RTVSPost2010PropOp42
 70
     1
102
RTVSPost2010Prop43
 90
        3
102
RTVSPost2010PropOp43
 70
     1
102
RTVSPost2010Prop44ColorIndex
 90
        5
102
RTVSPost2010Prop44ColorRGB
 90
      255
102
RTVSPost2010PropOp44
 70
     1
102
RTVSPost2010Prop45
280
     0
102
RTVSPost2010PropOp45
 70
     1
102
RTVSPost2010Prop46
 90
       50
102
RTVSPost2010PropOp46
 70
     1
102
RTVSPost2010Prop47
 90
       50
102
RTVSPost2010PropOp47
 70
     1
102
RTVSPost2010Prop48
 90
       50
102
RTVSPost2010PropOp48
 70
     1
102
RTVSPost2010Prop49
280
     0
102
RTVSPost2010PropOp49
 70
     1
102
RTVSPost2010Prop50
 90
       50
102
RTVSPost2010PropOp50
 70
     1
102
RTVSPost2010Prop51ColorIndex
 90
      256
102
RTVSPost2010Prop51ColorRGB
 90
-16777216
102
RTVSPost2010PropOp51
 70
     0
102
RTVSPost2010Prop52
140
1.0
102
RTVSPost2010PropOp52
 70
     0
102
RTVSPost2010Prop53
 90
        2
102
RTVSPost2010PropOp53
 70
     1
102
RTVSPost2010Prop54
  1
strokes_ogs.tif
102
RTVSPost2010PropOp54
 70
     1
102
RTVSPost2010Prop55
280
     0
102
RTVSPost2010PropOp55
 70
     1
102
RTVSPost2010Prop56
140
1.0
102
RTVSPost2010PropOp56
 70
     1
102
RTVSPost2010Prop57
140
1.0
102
RTVSPost2010PropOp57
 70
     1
  0
XRECORD
  5
33E
102
{ACAD_REACTORS
330
33D
102
}
330
33D
100
AcDbXrecord
280
     1
102
RTVSPropertyOp0
 70
     1
102
RTVSPropertyOp1
 70
     1
102
RTVSPropertyOp2
 70
     1
102
RTVSPropertyOp3
 70
     1
102
RTVSPropertyOp4
 70
     1
102
RTVSPropertyOp5
 70
     1
102
RTVSPropertyOp6
 70
     1
102
RTVSPropertyOp7
 70
     1
102
RTVSPropertyOp8
 70
     1
102
RTVSPropertyOp9
 70
     1
102
RTVSPropertyOp10
 70
     1
102
RTVSPropertyOp11
 70
     1
102
RTVSPropertyOp12
 70
     1
102
RTVSPropertyOp13
 70
     1
102
RTVSPropertyOp14
 70
     1
102
RTVSPropertyOp15
 70
     1
102
RTVSPropertyOp16
 70
     1
102
RTVSPropertyOp17
 70
     1
102
RTVSPropertyOp18
 70
     1
102
RTVSPropertyOp19
 70
     1
102
RTVSPropertyOp20
 70
     1
102
RTVSPropertyOp21
 70
     1
102
RTVSPropertyOp22
 70
     1
102
RTVSPropertyOp23
 70
     1
102
RTVSPropertyOp24
 70
     1
102
RTVSPropertyOp25
 70
     1
102
RTVSPropertyOp26
 70
     1
102
RTVSPropertyOp27
 70
     1
102
RTVSPropertyOp28
 70
     1
102
RTVSPropertyOp29
 70
     1
102
RTVSPropertyOp30
 70
     1
102
RTVSPropertyOp31
 70
     1
102
RTVSPropertyOp32
 70
     1
102
RTVSPropertyOp33
 70
     1
102
RTVSPropertyOp34
 70
     1
102
RTVSPropertyOp35
 70
     1
102
RTVSPropertyOp36
 70
     1
102
RTVSPropertyOp37
 70
     1
102
RTVSPropertyOp38
 70
     1
102
RTVSPropertyOp39
 70
     1
102
RTVSPropertyOp40
 70
     1
102
RTVSPropertyOp41
 70
     1
102
RTVSPropertyOp42
 70
     1
102
RTVSPropertyOp43
 70
     1
102
RTVSPropertyOp44
 70
     1
102
RTVSPropertyOp45
 70
     1
102
RTVSPropertyOp46
 70
     1
102
RTVSPropertyOp47
 70
     1
102
RTVSPropertyOp48
 70
     1
102
RTVSPropertyOp49
 70
     1
102
RTVSPropertyOp50
 70
     1
102
RTVSPropertyOp51
 70
     0
102
RTVSPropertyOp52
 70
     0
102
RTVSPropertyOp53
 70
     1
102
RTVSPropertyOp54
 70
     1
102
RTVSPropertyOp55
 70
     1
102
RTVSPropertyOp56
 70
     1
102
RTVSPropertyOp57
 70
     1
102
RTVSPost2010Prop28
280
     0
102
RTVSPost2010PropOp28
 70
     1
102
RTVSPost2010Prop29
280
     1
102
RTVSPost2010PropOp29
 70
     1
102
RTVSPost2010Prop30
280
     1
102
RTVSPost2010PropOp30
 70
     1
102
RTVSPost2010Prop31
280
     0
102
RTVSPost2010PropOp31
 70
     1
102
RTVSPost2010Prop32
280
     0
102
RTVSPost2010PropOp32
 70
     1
102
RTVSPost2010Prop33
280
     0
102
RTVSPost2010PropOp33
 70
     1
102
RTVSPost2010Prop34
280
     0
102
RTVSPost2010PropOp34
 70
     1
102
RTVSPost2010Prop35
280
     0
102
RTVSPost2010PropOp35
 70
     1
102
RTVSPost2010Prop36
280
     0
102
RTVSPost2010PropOp36
 70
     1
102
RTVSPost2010Prop37
 90
       50
102
RTVSPost2010PropOp37
 70
     1
102
RTVSPost2010Prop38
140
0.0
102
RTVSPost2010PropOp38
 70
     1
102
RTVSPost2010Prop39
140
1.0
102
RTVSPost2010PropOp39
 70
     1
102
RTVSPost2010Prop40
 90
        0
102
RTVSPost2010PropOp40
 70
     1
102
RTVSPost2010Prop41ColorIndex
 90
       18
102
RTVSPost2010Prop41ColorRGB
 90
        0
102
RTVSPost2010PropOp41
 70
     1
102
RTVSPost2010Prop42
 90
       50
102
RTVSPost2010PropOp42
 70
     1
102
RTVSPost2010Prop43
 90
        3
102
RTVSPost2010PropOp43
 70
     1
102
RTVSPost2010Prop44ColorIndex
 90
        5
102
RTVSPost2010Prop44ColorRGB
 90
      255
102
RTVSPost2010PropOp44
 70
     1
102
RTVSPost2010Prop45
280
     0
102
RTVSPost2010PropOp45
 70
     1
102
RTVSPost2010Prop46
 90
       50
102
RTVSPost2010PropOp46
 70
     1
102
RTVSPost2010Prop47
 90
       50
102
RTVSPost2010PropOp47
 70
     1
102
RTVSPost2010Prop48
 90
       50
102
RTVSPost2010PropOp48
 70
     1
102
RTVSPost2010Prop49
280
     0
102
RTVSPost2010PropOp49
 70
     1
102
RTVSPost2010Prop50
 90
       50
102
RTVSPost2010PropOp50
 70
     1
102
RTVSPost2010Prop51ColorIndex
 90
      256
102
RTVSPost2010Prop51ColorRGB
 90
-16777216
102
RTVSPost2010PropOp51
 70
     0
102
RTVSPost2010Prop52
140
1.0
102
RTVSPost2010PropOp52
 70
     0
102
RTVSPost2010Prop53
 90
        2
102
RTVSPost2010PropOp53
 70
     1
102
RTVSPost2010Prop54
  1
strokes_ogs.tif
102
RTVSPost2010PropOp54
 70
     1
102
RTVSPost2010Prop55
280
     0
102
RTVSPost2010PropOp55
 70
     1
102
RTVSPost2010Prop56
140
1.0
102
RTVSPost2010PropOp56
 70
     1
102
RTVSPost2010Prop57
140
1.0
102
RTVSPost2010PropOp57
 70
     1
  0
XRECORD
  5
35E
102
{ACAD_REACTORS
330
35D
102
}
330
35D
100
AcDbXrecord
280
     1
102
RTVSPropertyOp0
 70
     1
102
RTVSPropertyOp1
 70
     1
102
RTVSPropertyOp2
 70
     1
102
RTVSPropertyOp3
 70
     1
102
RTVSPropertyOp4
 70
     1
102
RTVSPropertyOp5
 70
     1
102
RTVSPropertyOp6
 70
     1
102
RTVSPropertyOp7
 70
     1
102
RTVSPropertyOp8
 70
     1
102
RTVSPropertyOp9
 70
     1
102
RTVSPropertyOp10
 70
     1
102
RTVSPropertyOp11
 70
     1
102
RTVSPropertyOp12
 70
     1
102
RTVSPropertyOp13
 70
     1
102
RTVSPropertyOp14
 70
     1
102
RTVSPropertyOp15
 70
     1
102
RTVSPropertyOp16
 70
     1
102
RTVSPropertyOp17
 70
     1
102
RTVSPropertyOp18
 70
     1
102
RTVSPropertyOp19
 70
     1
102
RTVSPropertyOp20
 70
     1
102
RTVSPropertyOp21
 70
     1
102
RTVSPropertyOp22
 70
     1
102
RTVSPropertyOp23
 70
     1
102
RTVSPropertyOp24
 70
     1
102
RTVSPropertyOp25
 70
     1
102
RTVSPropertyOp26
 70
     1
102
RTVSPropertyOp27
 70
     1
102
RTVSPropertyOp28
 70
     1
102
RTVSPropertyOp29
 70
     1
102
RTVSPropertyOp30
 70
     1
102
RTVSPropertyOp31
 70
     1
102
RTVSPropertyOp32
 70
     1
102
RTVSPropertyOp33
 70
     1
102
RTVSPropertyOp34
 70
     1
102
RTVSPropertyOp35
 70
     1
102
RTVSPropertyOp36
 70
     1
102
RTVSPropertyOp37
 70
     1
102
RTVSPropertyOp38
 70
     1
102
RTVSPropertyOp39
 70
     1
102
RTVSPropertyOp40
 70
     1
102
RTVSPropertyOp41
 70
     1
102
RTVSPropertyOp42
 70
     1
102
RTVSPropertyOp43
 70
     1
102
RTVSPropertyOp44
 70
     1
102
RTVSPropertyOp45
 70
     1
102
RTVSPropertyOp46
 70
     1
102
RTVSPropertyOp47
 70
     1
102
RTVSPropertyOp48
 70
     1
102
RTVSPropertyOp49
 70
     1
102
RTVSPropertyOp50
 70
     1
102
RTVSPropertyOp51
 70
     0
102
RTVSPropertyOp52
 70
     0
102
RTVSPropertyOp53
 70
     1
102
RTVSPropertyOp54
 70
     1
102
RTVSPropertyOp55
 70
     1
102
RTVSPropertyOp56
 70
     1
102
RTVSPropertyOp57
 70
     1
102
RTVSPost2010Prop28
280
     0
102
RTVSPost2010PropOp28
 70
     1
102
RTVSPost2010Prop29
280
     1
102
RTVSPost2010PropOp29
 70
     1
102
RTVSPost2010Prop30
280
     1
102
RTVSPost2010PropOp30
 70
     1
102
RTVSPost2010Prop31
280
     0
102
RTVSPost2010PropOp31
 70
     1
102
RTVSPost2010Prop32
280
     0
102
RTVSPost2010PropOp32
 70
     1
102
RTVSPost2010Prop33
280
     0
102
RTVSPost2010PropOp33
 70
     1
102
RTVSPost2010Prop34
280
     0
102
RTVSPost2010PropOp34
 70
     1
102
RTVSPost2010Prop35
280
     0
102
RTVSPost2010PropOp35
 70
     1
102
RTVSPost2010Prop36
280
     0
102
RTVSPost2010PropOp36
 70
     1
102
RTVSPost2010Prop37
 90
       50
102
RTVSPost2010PropOp37
 70
     1
102
RTVSPost2010Prop38
140
0.0
102
RTVSPost2010PropOp38
 70
     1
102
RTVSPost2010Prop39
140
1.0
102
RTVSPost2010PropOp39
 70
     1
102
RTVSPost2010Prop40
 90
        0
102
RTVSPost2010PropOp40
 70
     1
102
RTVSPost2010Prop41ColorIndex
 90
       18
102
RTVSPost2010Prop41ColorRGB
 90
        0
102
RTVSPost2010PropOp41
 70
     1
102
RTVSPost2010Prop42
 90
       50
102
RTVSPost2010PropOp42
 70
     1
102
RTVSPost2010Prop43
 90
        3
102
RTVSPost2010PropOp43
 70
     1
102
RTVSPost2010Prop44ColorIndex
 90
        5
102
RTVSPost2010Prop44ColorRGB
 90
      255
102
RTVSPost2010PropOp44
 70
     1
102
RTVSPost2010Prop45
280
     0
102
RTVSPost2010PropOp45
 70
     1
102
RTVSPost2010Prop46
 90
       50
102
RTVSPost2010PropOp46
 70
     1
102
RTVSPost2010Prop47
 90
       50
102
RTVSPost2010PropOp47
 70
     1
102
RTVSPost2010Prop48
 90
       50
102
RTVSPost2010PropOp48
 70
     1
102
RTVSPost2010Prop49
280
     0
102
RTVSPost2010PropOp49
 70
     1
102
RTVSPost2010Prop50
 90
       50
102
RTVSPost2010PropOp50
 70
     1
102
RTVSPost2010Prop51ColorIndex
 90
      256
102
RTVSPost2010Prop51ColorRGB
 90
-16777216
102
RTVSPost2010PropOp51
 70
     0
102
RTVSPost2010Prop52
140
1.0
102
RTVSPost2010PropOp52
 70
     0
102
RTVSPost2010Prop53
 90
        2
102
RTVSPost2010PropOp53
 70
     1
102
RTVSPost2010Prop54
  1
strokes_ogs.tif
102
RTVSPost2010PropOp54
 70
     1
102
RTVSPost2010Prop55
280
     0
102
RTVSPost2010PropOp55
 70
     1
102
RTVSPost2010Prop56
140
1.0
102
RTVSPost2010PropOp56
 70
     1
102
RTVSPost2010Prop57
140
1.0
102
RTVSPost2010PropOp57
 70
     1
  0
ENDSEC
  0
EOF
