  0
SECTION
  2
HEADER
  9
$ACADVER
  1
AC1015
  9
$ACADMAINTVER
 70
    13
  9
$DWGCODEPAGE
  3
ANSI_1252
  9
$INSBASE
 10
0.0
 20
0.0
 30
0.0
  9
$EXTMIN
 10
-0.0278910928494725
 20
-0.012312657291659
 30
-0.0000000349181948
  9
$EXTMAX
 10
297.0022314803165
 20
210.0061991211606
 30
0.0000000814935746
  9
$LIMMIN
 10
0.0
 20
0.0
  9
$LIMMAX
 10
297.0
 20
210.0
  9
$ORTHOMODE
 70
     0
  9
$REGENMODE
 70
     0
  9
$FILLMODE
 70
     1
  9
$QTEXTMODE
 70
     0
  9
$MIRRTEXT
 70
     0
  9
$LTSCALE
 40
1.0
  9
$ATTMODE
 70
     1
  9
$TEXTSIZE
 40
2.0
  9
$TRACEWID
 40
0.05
  9
$TEXTSTYLE
  7
ROMANS
  9
$CLAYER
  8
AM_0
  9
$CELTYPE
  6
BYLAYER
  9
$CECOLOR
 62
   256
  9
$CELTSCALE
 40
1.0
  9
$DISPSILH
 70
     0
  9
$DIMSCALE
 40
1.0
  9
$DIMASZ
 40
2.5
  9
$DIMEXO
 40
1.0
  9
$DIMDLI
 40
10.0
  9
$DIMRND
 40
0.0
  9
$DIMDLE
 40
0.0
  9
$DIMEXE
 40
1.0
  9
$DIMTP
 40
0.1
  9
$DIMTM
 40
0.1
  9
$DIMTXT
 40
3.5
  9
$DIMCEN
 40
0.0
  9
$DIMTSZ
 40
0.0
  9
$DIMTOL
 70
     0
  9
$DIMLIM
 70
     0
  9
$DIMTIH
 70
     0
  9
$DIMTOH
 70
     0
  9
$DIMSE1
 70
     0
  9
$DIMSE2
 70
     0
  9
$DIMTAD
 70
     1
  9
$DIMZIN
 70
     8
  9
$DIMBLK
  1

  9
$DIMASO
 70
     1
  9
$DIMSHO
 70
     1
  9
$DIMPOST
  1

  9
$DIMAPOST
  1
"
  9
$DIMALT
 70
     0
  9
$DIMALTD
 70
     2
  9
$DIMALTF
 40
0.0393701
  9
$DIMLFAC
 40
1.0
  9
$DIMTOFL
 70
     1
  9
$DIMTVP
 40
0.0
  9
$DIMTIX
 70
     0
  9
$DIMSOXD
 70
     0
  9
$DIMSAH
 70
     0
  9
$DIMBLK1
  1

  9
$DIMBLK2
  1

  9
$DIMSTYLE
  2
AM_ISO
  9
$DIMCLRD
 70
   256
  9
$DIMCLRE
 70
   256
  9
$DIMCLRT
 70
     2
  9
$DIMTFAC
 40
0.71
  9
$DIMGAP
 40
1.5
  9
$DIMJUST
 70
     0
  9
$DIMSD1
 70
     0
  9
$DIMSD2
 70
     0
  9
$DIMTOLJ
 70
     0
  9
$DIMTZIN
 70
     8
  9
$DIMALTZ
 70
     0
  9
$DIMALTTZ
 70
     0
  9
$DIMUPT
 70
     0
  9
$DIMDEC
 70
     2
  9
$DIMTDEC
 70
     2
  9
$DIMALTU
 70
     2
  9
$DIMALTTD
 70
     2
  9
$DIMTXSTY
  7
STANDARD
  9
$DIMAUNIT
 70
     0
  9
$DIMADEC
 70
     2
  9
$DIMALTRND
 40
0.0
  9
$DIMAZIN
 70
     2
  9
$DIMDSEP
 70
    46
  9
$DIMATFIT
 70
     3
  9
$DIMFRAC
 70
     0
  9
$DIMLDRBLK
  1

  9
$DIMLUNIT
 70
     2
  9
$DIMLWD
 70
    -1
  9
$DIMLWE
 70
    -1
  9
$DIMTMOVE
 70
     0
  9
$LUNITS
 70
     2
  9
$LUPREC
 70
     3
  9
$SKETCHINC
 40
0.1
  9
$FILLETRAD
 40
2.5
  9
$AUNITS
 70
     0
  9
$AUPREC
 70
     2
  9
$MENU
  1
C:\CADMEC13\ASM_ITA
  9
$ELEVATION
 40
0.0
  9
$PELEVATION
 40
0.0
  9
$THICKNESS
 40
0.0
  9
$LIMCHECK
 70
     0
  9
$CHAMFERA
 40
2.5
  9
$CHAMFERB
 40
2.5
  9
$CHAMFERC
 40
0.0
  9
$CHAMFERD
 40
0.0
  9
$SKPOLY
 70
     0
  9
$TDCREATE
 40
2450457.818759722
  9
$TDUCREATE
 40
2450457.735426388
  9
$TDUPDATE
 40
2453095.469328506
  9
$TDUUPDATE
 40
2453095.385995173
  9
$TDINDWG
 40
1.2921521065
  9
$TDUSRTIMER
 40
1.2921521065
  9
$USRTIMER
 70
     1
  9
$ANGBASE
 50
0.0
  9
$ANGDIR
 70
     0
  9
$PDMODE
 70
     0
  9
$PDSIZE
 40
0.0
  9
$PLINEWID
 40
0.0
  9
$SPLFRAME
 70
     0
  9
$SPLINETYPE
 70
     6
  9
$SPLINESEGS
 70
     8
  9
$HANDSEED
  5
74C3
  9
$SURFTAB1
 70
     6
  9
$SURFTAB2
 70
     6
  9
$SURFTYPE
 70
     6
  9
$SURFU
 70
     6
  9
$SURFV
 70
     6
  9
$UCSBASE
  2

  9
$UCSNAME
  2

  9
$UCSORG
 10
0.0
 20
0.0
 30
0.0
  9
$UCSXDIR
 10
1.0
 20
0.0
 30
0.0
  9
$UCSYDIR
 10
0.0
 20
1.0
 30
0.0
  9
$UCSORTHOREF
  2

  9
$UCSORTHOVIEW
 70
     0
  9
$UCSORGTOP
 10
0.0
 20
0.0
 30
0.0
  9
$UCSORGBOTTOM
 10
0.0
 20
0.0
 30
0.0
  9
$UCSORGLEFT
 10
0.0
 20
0.0
 30
0.0
  9
$UCSORGRIGHT
 10
0.0
 20
0.0
 30
0.0
  9
$UCSORGFRONT
 10
0.0
 20
0.0
 30
0.0
  9
$UCSORGBACK
 10
0.0
 20
0.0
 30
0.0
  9
$PUCSBASE
  2

  9
$PUCSNAME
  2

  9
$PUCSORG
 10
0.0
 20
0.0
 30
0.0
  9
$PUCSXDIR
 10
1.0
 20
0.0
 30
0.0
  9
$PUCSYDIR
 10
0.0
 20
1.0
 30
0.0
  9
$PUCSORTHOREF
  2

  9
$PUCSORTHOVIEW
 70
     0
  9
$PUCSORGTOP
 10
0.0
 20
0.0
 30
0.0
  9
$PUCSORGBOTTOM
 10
0.0
 20
0.0
 30
0.0
  9
$PUCSORGLEFT
 10
0.0
 20
0.0
 30
0.0
  9
$PUCSORGRIGHT
 10
0.0
 20
0.0
 30
0.0
  9
$PUCSORGFRONT
 10
0.0
 20
0.0
 30
0.0
  9
$PUCSORGBACK
 10
0.0
 20
0.0
 30
0.0
  9
$USERI1
 70
     0
  9
$USERI2
 70
     0
  9
$USERI3
 70
     0
  9
$USERI4
 70
     0
  9
$USERI5
 70
     0
  9
$USERR1
 40
0.0
  9
$USERR2
 40
0.0
  9
$USERR3
 40
0.0
  9
$USERR4
 40
0.0
  9
$USERR5
 40
0.0
  9
$WORLDVIEW
 70
     1
  9
$SHADEDGE
 70
     3
  9
$SHADEDIF
 70
    70
  9
$TILEMODE
 70
     1
  9
$MAXACTVP
 70
    16
  9
$PINSBASE
 10
0.0
 20
0.0
 30
0.0
  9
$PLIMCHECK
 70
     0
  9
$PEXTMIN
 10
1.000000000000000E+20
 20
1.000000000000000E+20
 30
1.000000000000000E+20
  9
$PEXTMAX
 10
-1.000000000000000E+20
 20
-1.000000000000000E+20
 30
-1.000000000000000E+20
  9
$PLIMMIN
 10
0.0
 20
0.0
  9
$PLIMMAX
 10
12.0
 20
9.0
  9
$UNITMODE
 70
     0
  9
$VISRETAIN
 70
     0
  9
$PLINEGEN
 70
     0
  9
$PSLTSCALE
 70
     1
  9
$TREEDEPTH
 70
  3020
  9
$CMLSTYLE
  2
STANDARD
  9
$CMLJUST
 70
     0
  9
$CMLSCALE
 40
1.0
  9
$PROXYGRAPHICS
 70
     1
  9
$MEASUREMENT
 70
     1
  9
$CELWEIGHT
370
    -1
  9
$ENDCAPS
280
     0
  9
$JOINSTYLE
280
     0
  9
$LWDISPLAY
290
     0
  9
$INSUNITS
 70
     0
  9
$HYPERLINKBASE
  1

  9
$STYLESHEET
  1

  9
$XEDIT
290
     1
  9
$CEPSNTYPE
380
     0
  9
$PSTYLEMODE
290
     1
  9
$FINGERPRINTGUID
  2
{8A9FBC3F-747D-440C-BFD0-71FD4DC09513}
  9
$VERSIONGUID
  2
{8F57629D-6C2B-4D43-8ECC-1D430610A156}
  9
$EXTNAMES
290
     1
  9
$PSVPSCALE
 40
0.0
  9
$OLESTARTUP
290
     0
  0
ENDSEC
  0
SECTION
  2
CLASSES
  0
CLASS
  1
LWPOLYLINE
  2
AcDbPolyline
  3
AutoCAD 2000
 90
    32768
280
     0
281
     1
  0
CLASS
  1
HATCH
  2
AcDbHatch
  3
AutoCAD 2000
 90
    32768
280
     0
281
     1
  0
CLASS
  1
ACDBDICTIONARYWDFLT
  2
AcDbDictionaryWithDefault
  3
AutoCAD 2000
 90
        0
280
     0
281
     0
  0
CLASS
  1
ACDBPLACEHOLDER
  2
AcDbPlaceHolder
  3
AutoCAD 2000
 90
        0
280
     0
281
     0
  0
CLASS
  1
LAYOUT
  2
AcDbLayout
  3
AutoCAD 2000
 90
        0
280
     0
281
     0
  0
CLASS
  1
ACME_DOCUMENT
  2
AcMeDbDoc
  3
AcMeServices
 90
        0
280
     0
281
     0
  0
CLASS
  1
AMGSETTINGSOBJ
  2
AmgSettingsObj
  3
"AcadM|Product Description: AutoCAD Mechanical 2000|Company: Autodesk"
 90
        0
280
     0
281
     0
  0
CLASS
  1
AMGOBJPROPCFG
  2
AmgObjPropCfg
  3
"AmgLay|Product Description: AutoCAD Mechanical 2000|Company: Autodesk"
 90
        1
280
     0
281
     0
  0
CLASS
  1
ACMESCOPE
  2
AcMeScope
  3
AcMeServices
 90
        0
280
     0
281
     0
  0
CLASS
  1
ACMECOMMANDHISTORY
  2
AcMeCommandHistory
  3
AcMeServices
 90
        0
280
     0
281
     0
  0
CLASS
  1
ACIMSYSVARMAN
  2
AcImSysVarManager
  3
AcMeServices
 90
        0
280
     0
281
     0
  0
CLASS
  1
ACIMREALSYSVAR
  2
AcImRealSysVar
  3
AcMeServices
 90
        0
280
     0
281
     0
  0
CLASS
  1
ACIMINTSYSVAR
  2
AcImIntSysVar
  3
AcMeServices
 90
        0
280
     0
281
     0
  0
CLASS
  1
ACMEDRAWINGMAN
  2
AcMeDrawingMan
  3
AcMeServices
 90
        0
280
     0
281
     0
  0
CLASS
  1
ACMEVIEW
  2
AcMeView
  3
AcMeServices
 90
        0
280
     0
281
     0
  0
CLASS
  1
ACDBENTITYCACHE
  2
AcMeEntityCache
  3
AcMeServices
 90
        0
280
     0
281
     0
  0
CLASS
  1
GSMANAGER
  2
AcMeGSManager
  3
AcMeServices
 90
        0
280
     0
281
     0
  0
CLASS
  1
AMDTINTERNALREACTOR
  2
AmdtInternalReactor
  3
AcMeServices
 90
        0
280
     0
281
     0
  0
CLASS
  1
ACMESTATEMGR
  2
AcMeStateMgr
  3
AcMeServices
 90
        0
280
     0
281
     0
  0
CLASS
  1
ACGREFMASTER
  2
AcGrefMaster
  3
AcAttribServices
 90
        0
280
     0
281
     0
  0
CLASS
  1
ACME_DATABASE
  2
AcMeDbDatabase
  3
AcMeServices
 90
        0
280
     0
281
     0
  0
CLASS
  1
ACRFINSADJUSTERMGR
  2
AcRfInsAdjusterMgr
  3
AcMeServices
 90
        0
280
     0
281
     0
  0
CLASS
  1
ACGREFACADMASTER
  2
AcGrefacadMaster
  3
AcGrefServices
 90
        0
280
     0
281
     0
  0
CLASS
  1
AMIMASTER
  2
AmiMaster
  3
AmiServices
 90
        0
280
     0
281
     0
  0
CLASS
  1
ACMDATADICTIONARY
  2
AcmDataDictionary
  3
"AcmSymBB|Product Description: AutoCAD Mechanical 2000|Company: Autodesk"
 90
        0
280
     0
281
     0
  0
CLASS
  1
ACMDATAENTRYBLOCK
  2
AcmDataEntryBlock
  3
"AcmSymBB|Product Description: AutoCAD Mechanical 2000|Company: Autodesk"
 90
        0
280
     0
281
     0
  0
CLASS
  1
ACMSTANDARDISO
  2
AcmStandardISO
  3
"Amdt_StdImp|Product Description: AutoCAD Mechanical 2000|Company: Autodesk"
 90
        0
280
     0
281
     0
  0
CLASS
  1
AMDTEDGESTANDARDISO
  2
AmdtEdgeStdISO
  3
"Amdt_StdImp|Product Description: AutoCAD Mechanical 2000|Company: Autodesk"
 90
        0
280
     0
281
     0
  0
CLASS
  1
ACMSURFSTANDARDISO
  2
AcmSurfTextStdISO
  3
"Amdt_StdImp|Product Description: AutoCAD Mechanical 2000|Company: Autodesk"
 90
        0
280
     0
281
     0
  0
CLASS
  1
ACMFCFSTANDARDISO
  2
AcmFCFStdISO
  3
"Amdt_StdImp|Product Description: AutoCAD Mechanical 2000|Company: Autodesk"
 90
        0
280
     0
281
     0
  0
CLASS
  1
ACMWELDSTANDARDISO
  2
AcmWeldingStdISO
  3
"Amdt_StdImp|Product Description: AutoCAD Mechanical 2000|Company: Autodesk"
 90
        0
280
     0
281
     0
  0
CLASS
  1
ACMIDSTANDARDISO
  2
AcmIdStdISO
  3
"Amdt_StdImp|Product Description: AutoCAD Mechanical 2000|Company: Autodesk"
 90
        0
280
     0
281
     0
  0
CLASS
  1
ACMDATUMSTANDARDISO
  2
AcmDatumStdISO
  3
"Amdt_StdImp|Product Description: AutoCAD Mechanical 2000|Company: Autodesk"
 90
        0
280
     0
281
     0
  0
CLASS
  1
ACMBOMSTANDARDISO
  2
AcmBOMStdISO
  3
"Amdt_StdImp|Product Description: AutoCAD Mechanical 2000|Company: Autodesk"
 90
        0
280
     0
281
     0
  0
CLASS
  1
ACMDETAILSTANDARDISO
  2
AmdtDetailSymStdISO
  3
"Amdt_StdImp|Product Description: AutoCAD Mechanical 2000|Company: Autodesk"
 90
        0
280
     0
281
     0
  0
CLASS
  1
ACMSECTIONSTANDARDISO
  2
AmdtSectionSymStdISO
  3
"Amdt_StdImp|Product Description: AutoCAD Mechanical 2000|Company: Autodesk"
 90
        0
280
     0
281
     0
  0
CLASS
  1
ACMCENTERLINESTANDARDISO
  2
AmdtCenterLineStdISO
  3
"Amdt_StdImp|Product Description: AutoCAD Mechanical 2000|Company: Autodesk"
 90
        0
280
     0
281
     0
  0
CLASS
  1
ACMTHREADLINESTANDARDISO
  2
AmdtThreadLineStdISO
  3
"Amdt_StdImp|Product Description: AutoCAD Mechanical 2000|Company: Autodesk"
 90
        0
280
     0
281
     0
  0
CLASS
  1
ACAMGLAYSTD
  2
AcAmgLayStd
  3
"AcAmgLayStd|Product Description: AutoCAD Mechanical 2000|Company: Autodesk"
 90
        0
280
     0
281
     0
  0
CLASS
  1
ACAMGDIMSTD
  2
AcAmgDimStd
  3
"AcAmgDimStd|Product Description: AutoCAD Mechanical 2000|Company: Autodesk"
 90
        0
280
     0
281
     0
  0
CLASS
  1
ACAMGTITLESTD
  2
AcAmgTitleStd
  3
"TITLEAPP"
 90
        0
280
     0
281
     0
  0
CLASS
  1
ACMNOTESTANDARDISO
  2
AmdtNoteStdISO
  3
"Amdt_StdImp|Product Description: AutoCAD Mechanical 2000|Company: Autodesk"
 90
        0
280
     0
281
     0
  0
CLASS
  1
ACAMGHOLECHARTSTDISO
  2
AcAmgHoleChartStdISO
  3
ACMSYMBB_MODULE_NAME
 90
        0
280
     0
281
     0
  0
CLASS
  1
ACIMSTRSYSVAR
  2
AcImStrSysVar
  3
AcMeServices
 90
        0
280
     0
281
     0
  0
CLASS
  1
ACAMGFILTERDAT
  2
AcAmgFilterDat
  3
"AcadM|Product Description: AutoCAD Mechanical 2000|Company: Autodesk"
 90
        0
280
     0
281
     0
  0
CLASS
  1
AMDTFORMULAUPDATEDISPATCHER
  2
AmdtFormulaUpdateDispatcher
  3
AcMeServices
 90
        0
280
     0
281
     0
  0
CLASS
  1
LAYER_INDEX
  2
AcDbLayerIndex
  3
AutoCAD 2000
 90
        0
280
     0
281
     0
  0
CLASS
  1
IDBUFFER
  2
AcDbIdBuffer
  3
AutoCAD 2000
 90
        0
280
     0
281
     0
  0
CLASS
  1
DICTIONARYVAR
  2
AcDbDictionaryVar
  3
AutoCAD 2000
 90
        0
280
     0
281
     0
  0
ENDSEC
  0
SECTION
  2
TABLES
  0
TABLE
  2
VPORT
  5
12
330
0
100
AcDbSymbolTable
 70
    13
  0
VPORT
  5
74C2
330
12
100
AcDbSymbolTableRecord
100
AcDbViewportTableRecord
  2
*Active
 70
     0
 10
0.0
 20
0.0
 11
1.0
 21
1.0
 12
148.4871701937335
 22
104.9969432319344
 13
0.0
 23
0.0
 14
2.5
 24
2.5
 15
10.0
 25
10.0
 16
0.0
 26
0.0
 36
1.0
 17
0.0
 27
0.0
 37
0.0
 40
211.6423662509661
 41
1.540645161290322
 42
50.0
 43
0.0
 44
0.0
 50
0.0
 51
0.0
 71
    16
 72
   500
 73
     1
 74
     0
 75
     0
 76
     0
 77
     0
 78
     0
281
     0
 65
     1
110
0.0
120
0.0
130
0.0
111
1.0
121
0.0
131
0.0
112
0.0
122
1.0
132
0.0
 79
     0
146
0.0
  0
ENDTAB
  0
TABLE
  2
LTYPE
  5
D
330
0
100
AcDbSymbolTable
 70
    18
  0
LTYPE
  5
E
330
D
100
AcDbSymbolTableRecord
100
AcDbLinetypeTableRecord
  2
BYBLOCK
 70
     0
  3

 72
    65
 73
     0
 40
0.0
  0
LTYPE
  5
F
330
D
100
AcDbSymbolTableRecord
100
AcDbLinetypeTableRecord
  2
BYLAYER
 70
     0
  3

 72
    65
 73
     0
 40
0.0
  0
LTYPE
  5
5
330
D
100
AcDbSymbolTableRecord
100
AcDbLinetypeTableRecord
  2
CONTINUOUS
 70
     0
  3
Solid line
 72
    65
 73
     0
 40
0.0
  0
LTYPE
  5
7153
330
D
100
AcDbSymbolTableRecord
100
AcDbLinetypeTableRecord
  2
AM_ISO02W050
 70
     0
  3
__ __ __ __ __ __ __ __ __ __ __ __ __ __ __
 72
    65
 73
     2
 40
7.5
 49
6.0
 74
     0
 49
-1.5
 74
     0
  0
LTYPE
  5
7154
330
D
100
AcDbSymbolTableRecord
100
AcDbLinetypeTableRecord
  2
AM_ISO08W050
 70
     0
  3
____ . ____ . ____ . ____ . ____ . ____ . ____
 72
    65
 73
     4
 40
18.0
 49
12.0
 74
     0
 49
-1.5
 74
     0
 49
3.0
 74
     0
 49
-1.5
 74
     0
  0
LTYPE
  5
7155
330
D
100
AcDbSymbolTableRecord
100
AcDbLinetypeTableRecord
  2
AM_ISO09W050
 70
     0
  3
_____ . . _____ . . _____ . . ____ .. ____
 72
    65
 73
     6
 40
22.5
 49
12.0
 74
     0
 49
-1.5
 74
     0
 49
3.0
 74
     0
 49
-1.5
 74
     0
 49
3.0
 74
     0
 49
-1.5
 74
     0
  0
LTYPE
  5
7156
330
D
100
AcDbSymbolTableRecord
100
AcDbLinetypeTableRecord
  2
Amconstr
 70
     0
  3
_______________________
 72
    65
 73
     2
 40
9999.0
 49
9999.0
 74
     0
 49
0.0
 74
     0
  0
LTYPE
  5
7157
330
D
100
AcDbSymbolTableRecord
100
AcDbLinetypeTableRecord
  2
AM_ISO08W050x2
 70
     0
  3
__ . __ . __ . __ . __ . __
 72
    65
 73
     4
 40
9.0
 49
6.0
 74
     0
 49
-0.75
 74
     0
 49
1.5
 74
     0
 49
-0.75
 74
     0
  0
LTYPE
  5
7158
330
D
100
AcDbSymbolTableRecord
100
AcDbLinetypeTableRecord
  2
AM_ISO02W050x2
 70
     0
  3
 _ _ _ _ _ _ _ _ _ _ _ _
 72
    65
 73
     2
 40
3.75
 49
3.0
 74
     0
 49
-0.75
 74
     0
  0
LTYPE
  5
7159
330
D
100
AcDbSymbolTableRecord
100
AcDbLinetypeTableRecord
  2
Amzigzag
 70
     0
  3
/\/-/\/-/\/-/\/-/\/-/\/
 72
    65
 73
     2
 40
11.00009999999999
 49
0.0001
 74
     4
 75
   135
340
715A
 46
0.04
 50
0.0
 44
0.0
 45
0.0
 49
-11.0
 74
     0
  0
LTYPE
  5
717C
330
D
100
AcDbSymbolTableRecord
100
AcDbLinetypeTableRecord
  2
ACISOWELD
 70
     0
  3
_ _ _ _ _
 72
    65
 73
     2
 40
2.0
 49
2.0
 74
     0
 49
-1.0
 74
     0
  0
LTYPE
  5
717F
330
D
100
AcDbSymbolTableRecord
100
AcDbLinetypeTableRecord
  2
ACISOTGB
 70
     0
  3
__ . . __ . .
 72
    65
 73
     6
 40
9.0
 49
4.0
 74
     0
 49
-1.0
 74
     0
 49
1.0
 74
     0
 49
-1.0
 74
     0
 49
1.0
 74
     0
 49
-1.0
 74
     0
  0
LTYPE
  5
7180
330
D
100
AcDbSymbolTableRecord
100
AcDbLinetypeTableRecord
  2
ACISOTGL
 70
     0
  3
_ _ _ _ _
 72
    65
 73
     2
 40
3.0
 49
2.0
 74
     0
 49
-1.0
 74
     0
  0
LTYPE
  5
72D2
330
D
100
AcDbSymbolTableRecord
100
AcDbLinetypeTableRecord
  2
gen3
 70
     0
  3
-- -- -- -- -- -- -- -- -- -- -- -- -- -- --
 72
    65
 73
     2
 40
6.25
 49
4.75
 74
     0
 49
-1.5
 74
     0
  0
LTYPE
  5
72D3
330
D
100
AcDbSymbolTableRecord
100
AcDbLinetypeTableRecord
  2
gen7
 70
     0
  3
____ . ____ . ____ . ____ . ____ . ____ . ____
 72
    65
 73
     4
 40
13.75
 49
9.75
 74
     0
 49
-1.5
 74
     0
 49
1.0
 74
     0
 49
-1.5
 74
     0
  0
LTYPE
  5
72D4
330
D
100
AcDbSymbolTableRecord
100
AcDbLinetypeTableRecord
  2
gen3a
 70
     0
  3
 - - - - -
 72
    65
 73
     2
 40
3.125
 49
2.25
 74
     0
 49
-0.875
 74
     0
  0
LTYPE
  5
72D5
330
D
100
AcDbSymbolTableRecord
100
AcDbLinetypeTableRecord
  2
gen7a
 70
     0
  3
__ . __ . __
 72
    65
 73
     4
 40
6.875
 49
4.75
 74
     0
 49
-0.875
 74
     0
 49
0.375
 74
     0
 49
-0.875
 74
     0
  0
LTYPE
  5
72D6
330
D
100
AcDbSymbolTableRecord
100
AcDbLinetypeTableRecord
  2
gen4a
 70
     0
  3
_____ . . _____ . . _____ . . ____ .. ____
 72
    65
 73
     6
 40
16.25
 49
9.75
 74
     0
 49
-1.5
 74
     0
 49
1.0
 74
     0
 49
-1.5
 74
     0
 49
1.0
 74
     0
 49
-1.5
 74
     0
  0
LTYPE
  5
72D7
330
D
100
AcDbSymbolTableRecord
100
AcDbLinetypeTableRecord
  2
genzigzag
 70
     0
  3
/\/-/\/-/\/-/\/-/\/-/\/
 72
    65
 73
     2
 40
12.0001
 49
0.0001
 74
     4
 75
   135
340
72D9
 46
2.0
 50
0.0
 44
0.0
 45
0.0
 49
-12.0
 74
     0
  0
LTYPE
  5
72D8
330
D
100
AcDbSymbolTableRecord
100
AcDbLinetypeTableRecord
  2
CENTER
 70
     0
  3
__ . __
 72
    65
 73
     4
 40
7.0
 49
4.0
 74
     0
 49
-1.0
 74
     0
 49
1.0
 74
     0
 49
-1.0
 74
     0
  0
ENDTAB
  0
TABLE
  2
LAYER
  5
A
330
0
100
AcDbSymbolTable
 70
    13
  0
LAYER
  5
4
330
A
100
AcDbSymbolTableRecord
100
AcDbLayerTableRecord
  2
0
 70
     0
 62
     7
  6
CONTINUOUS
370
    -3
390
7139
  0
LAYER
  5
43
330
A
100
AcDbSymbolTableRecord
100
AcDbLayerTableRecord
  2
DEFPOINTS
 70
     0
 62
     7
  6
CONTINUOUS
290
     0
370
    -3
390
7139
  0
LAYER
  5
71DE
330
A
100
AcDbSymbolTableRecord
100
AcDbLayerTableRecord
  2
AM_0
 70
     0
 62
     7
  6
CONTINUOUS
370
    30
390
7139
  0
LAYER
  5
71DF
330
A
100
AcDbSymbolTableRecord
100
AcDbLayerTableRecord
  2
AM_2
 70
     0
 62
     5
  6
CONTINUOUS
370
    30
390
7139
  0
LAYER
  5
71E0
330
A
100
AcDbSymbolTableRecord
100
AcDbLayerTableRecord
  2
AM_5
 70
     0
 62
     3
  6
CONTINUOUS
370
    15
390
7139
  0
LAYER
  5
71E1
330
A
100
AcDbSymbolTableRecord
100
AcDbLayerTableRecord
  2
MATRICE-AM_0
 70
     0
 62
     7
  6
CONTINUOUS
370
    30
390
7139
  0
LAYER
  5
71E2
330
A
100
AcDbSymbolTableRecord
100
AcDbLayerTableRecord
  2
AM_3
 70
     0
 62
     6
  6
AM_ISO02W050
370
    30
390
7139
  0
LAYER
  5
71E3
330
A
100
AcDbSymbolTableRecord
100
AcDbLayerTableRecord
  2
AM_7
 70
     0
 62
     4
  6
AM_ISO08W050
370
    15
390
7139
  0
LAYER
  5
71E4
330
A
100
AcDbSymbolTableRecord
100
AcDbLayerTableRecord
  2
AM_4
 70
     0
 62
     3
  6
CONTINUOUS
370
    15
390
7139
  0
LAYER
  5
71E5
330
A
100
AcDbSymbolTableRecord
100
AcDbLayerTableRecord
  2
AM_8
 70
     0
 62
     1
  6
CONTINUOUS
370
    15
390
7139
  0
LAYER
  5
71E6
330
A
100
AcDbSymbolTableRecord
100
AcDbLayerTableRecord
  2
AM_BOR
 70
     0
 62
     7
  6
CONTINUOUS
370
    30
390
7139
  0
LAYER
  5
72F9
330
A
100
AcDbSymbolTableRecord
100
AcDbLayerTableRecord
  2
AM_6
 70
     0
 62
     2
  6
CONTINUOUS
370
    30
390
7139
  0
LAYER
  5
739E
330
A
100
AcDbSymbolTableRecord
100
AcDbLayerTableRecord
  2
AM_CL
 70
     0
 62
     1
  6
Amconstr
370
    15
390
7139
  0
ENDTAB
  0
TABLE
  2
STYLE
  5
B
330
0
100
AcDbSymbolTable
 70
    13
  0
STYLE
  5
C
330
B
100
AcDbSymbolTableRecord
100
AcDbTextStyleTableRecord
  2
STANDARD
 70
     0
 40
0.0
 41
1.0
 50
0.0
 71
     0
 42
25.11489478447932
  3
ISOCP.SHX
  4

  0
STYLE
  5
1E8
330
B
100
AcDbSymbolTableRecord
100
AcDbTextStyleTableRecord
  2
COMPLEX
 70
     0
 40
0.0
 41
1.0
 50
0.0
 71
     0
 42
3.0
  3
COMPLEX8.SHX
  4

  0
STYLE
  5
1B
330
B
100
AcDbSymbolTableRecord
100
AcDbTextStyleTableRecord
  2
ROMANS
 70
     0
 40
2.0
 41
1.0
 50
8.0
 71
     0
 42
2.0
  3
\ROMANS.SHX
  4

  0
STYLE
  5
1B4
330
B
100
AcDbSymbolTableRecord
100
AcDbTextStyleTableRecord
  2
QUOTE
 70
     0
 40
0.0
 41
0.8
 50
0.0
 71
     0
 42
6.0
  3
romans
  4

  0
STYLE
  5
1AF
330
B
100
AcDbSymbolTableRecord
100
AcDbTextStyleTableRecord
  2
CART
 70
     0
 40
2.5
 41
0.8
 50
20.0
 71
     0
 42
2.5
  3
ROMANS
  4

  0
STYLE
  5
936
330
B
100
AcDbSymbolTableRecord
100
AcDbTextStyleTableRecord
  2
ISO
 70
     0
 40
0.0
 41
1.0
 50
0.0
 71
     0
 42
3.0
  3
ISO8.SHX
  4

  0
STYLE
  5
715A
330
B
100
AcDbSymbolTableRecord
100
AcDbTextStyleTableRecord
  2

 70
     1
 40
0.0
 41
1.0
 50
0.0
 71
     0
 42
2.5
  3
ltypeshp.shx
  4

  0
STYLE
  5
7176
330
B
100
AcDbSymbolTableRecord
100
AcDbTextStyleTableRecord
  2
ACISOTS
 70
     0
 40
1.0
 41
1.0
 50
0.0
 71
     0
 42
2.5
  3
isocp.shx
  4

  0
STYLE
  5
717A
330
B
100
AcDbSymbolTableRecord
100
AcDbTextStyleTableRecord
  2
ACISOGDT
 70
     0
 40
0.0
 41
1.0
 50
0.0
 71
     0
 42
2.5
  3
amgdt.shx
  4

  0
STYLE
  5
72D9
330
B
100
AcDbSymbolTableRecord
100
AcDbTextStyleTableRecord
  2

 70
     1
 40
0.0
 41
1.0
 50
0.0
 71
     0
 42
2.5
  3
genltshp.shx
  4

  0
STYLE
  5
72DA
330
B
100
AcDbSymbolTableRecord
100
AcDbTextStyleTableRecord
  2
USER1
 70
     0
 40
0.0
 41
1.0
 50
0.0
 71
     0
 42
2.5
  3
TXT.SHX
  4

  0
STYLE
  5
72DB
330
B
100
AcDbSymbolTableRecord
100
AcDbTextStyleTableRecord
  2
USER2
 70
     0
 40
0.0
 41
1.0
 50
0.0
 71
     0
 42
2.5
  3
SIMPLEX.SHX
  4

  0
STYLE
  5
72DC
330
B
100
AcDbSymbolTableRecord
100
AcDbTextStyleTableRecord
  2
USER3
 70
     0
 40
0.0
 41
1.0
 50
0.0
 71
     0
 42
2.5
  3
ITALIC.SHX
  4

  0
ENDTAB
  0
TABLE
  2
VIEW
  5
10
330
0
100
AcDbSymbolTable
 70
     6
  0
VIEW
  5
7392
330
10
100
AcDbSymbolTableRecord
100
AcDbViewTableRecord
  2
AM_VIEW1
 70
     0
 40
105.0
 10
80.84729381443299
 20
157.5
 41
161.6945876288659
 11
0.0
 21
0.0
 31
1.0
 12
0.0
 22
0.0
 32
0.0
 42
50.0
 43
0.0
 44
0.0
 50
0.0
 71
    16
281
     0
 72
     0
  0
VIEW
  5
7393
330
10
100
AcDbSymbolTableRecord
100
AcDbViewTableRecord
  2
AM_VIEW2
 70
     0
 40
105.0
 10
216.152706185567
 20
157.5
 41
161.6945876288659
 11
0.0
 21
0.0
 31
1.0
 12
0.0
 22
0.0
 32
0.0
 42
50.0
 43
0.0
 44
0.0
 50
0.0
 71
    16
281
     0
 72
     0
  0
VIEW
  5
7394
330
10
100
AcDbSymbolTableRecord
100
AcDbViewTableRecord
  2
AM_VIEW3
 70
     0
 40
105.0
 10
80.84729381443299
 20
52.5
 41
161.6945876288659
 11
0.0
 21
0.0
 31
1.0
 12
0.0
 22
0.0
 32
0.0
 42
50.0
 43
0.0
 44
0.0
 50
0.0
 71
    16
281
     0
 72
     0
  0
VIEW
  5
7395
330
10
100
AcDbSymbolTableRecord
100
AcDbViewTableRecord
  2
AM_VIEW4
 70
     0
 40
105.0
 10
216.152706185567
 20
52.5
 41
161.6945876288659
 11
0.0
 21
0.0
 31
1.0
 12
0.0
 22
0.0
 32
0.0
 42
50.0
 43
0.0
 44
0.0
 50
0.0
 71
    16
281
     0
 72
     0
  0
VIEW
  5
7396
330
10
100
AcDbSymbolTableRecord
100
AcDbViewTableRecord
  2
AM_VIEW5
 70
     0
 40
105.0
 10
148.5
 20
105.0
 41
161.6945876288659
 11
0.0
 21
0.0
 31
1.0
 12
0.0
 22
0.0
 32
0.0
 42
50.0
 43
0.0
 44
0.0
 50
0.0
 71
    16
281
     0
 72
     0
  0
VIEW
  5
7397
330
10
100
AcDbSymbolTableRecord
100
AcDbViewTableRecord
  2
AM_VIEW6
 70
     0
 40
209.9979
 10
148.5
 20
105.0
 41
323.3859413659793
 11
0.0
 21
0.0
 31
1.0
 12
0.0
 22
0.0
 32
0.0
 42
50.0
 43
0.0
 44
0.0
 50
0.0
 71
    16
281
     0
 72
     0
  0
ENDTAB
  0
TABLE
  2
UCS
  5
11
330
0
100
AcDbSymbolTable
 70
     0
  0
ENDTAB
  0
TABLE
  2
APPID
  5
14
330
0
100
AcDbSymbolTable
 70
    51
  0
APPID
  5
15
330
14
100
AcDbSymbolTableRecord
100
AcDbRegAppTableRecord
  2
ACAD
 70
     0
  0
APPID
  5
1ED
330
14
100
AcDbSymbolTableRecord
100
AcDbRegAppTableRecord
  2
GENIUS_GENOENT_13
 70
     0
  0
APPID
  5
48
330
14
100
AcDbSymbolTableRecord
100
AcDbRegAppTableRecord
  2
GENIUS_GENDTOL_13
 70
     0
  0
APPID
  5
22
330
14
100
AcDbSymbolTableRecord
100
AcDbRegAppTableRecord
  2
GENIUS_GENREC_14
 70
     0
  0
APPID
  5
23
330
14
100
AcDbSymbolTableRecord
100
AcDbRegAppTableRecord
  2
GENIUS_GENODEF_13
 70
     0
  0
APPID
  5
24
330
14
100
AcDbSymbolTableRecord
100
AcDbRegAppTableRecord
  2
GENIUS_GENOBJ-N-REC_13
 70
     0
  0
APPID
  5
1EC
330
14
100
AcDbSymbolTableRecord
100
AcDbRegAppTableRecord
  2
GENIUS_GENOBJ-N-TIT_13
 70
     0
  0
APPID
  5
1EF
330
14
100
AcDbSymbolTableRecord
100
AcDbRegAppTableRecord
  2
GENIUS_GENTITLE_13
 70
     0
  0
APPID
  5
34
330
14
100
AcDbSymbolTableRecord
100
AcDbRegAppTableRecord
  2
GENIUS_GENOREF_13
 70
     0
  0
APPID
  5
1EE
330
14
100
AcDbSymbolTableRecord
100
AcDbRegAppTableRecord
  2
GENIUS_GENOLIS_13
 70
     0
  0
APPID
  5
35
330
14
100
AcDbSymbolTableRecord
100
AcDbRegAppTableRecord
  2
GENIUS_GENOBJ-N-SDF_13
 70
     0
  0
APPID
  5
33
330
14
100
AcDbSymbolTableRecord
100
AcDbRegAppTableRecord
  2
GENIUS_GENSCREG_13
 70
     0
  0
APPID
  5
1F7
330
14
100
AcDbSymbolTableRecord
100
AcDbRegAppTableRecord
  2
GENIUS_GENCFG_13
 70
     0
1001
GENIUS_GENCFG0_13
1000
GEN@INFO_POS@XLATE
1001
GENIUS_GENCFG1_13
1000
GEN@INFO_POS
1001
GENIUS_GENCFG2_13
1000
GEN@LAYER@DEFS
1001
GENIUS_GENCFG3_13
1000
GEN@LAYER@ENTSORT
1001
GENIUS_GENCFG4_13
1000
GEN
1001
GENIUS_GEVCFG0_13
1000
GEV
1001
GENIUS_GEFCFG0_13
1000
GEF
  0
APPID
  5
1F8
330
14
100
AcDbSymbolTableRecord
100
AcDbRegAppTableRecord
  2
GENIUS_GENCFG0_13
 70
     0
1001
GENIUS_GENCFG_13
1071
947066216
1000
1F8
1000
GEN@INFO_POS@XLATE
1070
     7
1000
GenCfgObject
1000
GenCfgShort
1000
GenCfgReal
1000
GenCfgBool
1000
GenCfgString
1000
GenCfgDim
1000
GenCfgAttrInf
1000
INFOPOINTS
1070
     0
1002
{
1000
GENINF14
1070
     0
1002
{
1000
2GENINF
1070
     4
1000
2
1002
{
1002
}
1000
3GENINF
1070
     4
1000
3
1002
{
1002
}
1000
4GENINF
1070
     4
1000
4
1002
{
1002
}
1000
5GENINF
1070
     4
1000
5
1002
{
1002
}
1000
6GENINF
1070
     4
1000
6
1002
{
1002
}
1000
7GENINF
1070
     4
1000
7
1002
{
1002
}
1000
8GENINF
1070
     4
1000
8
1002
{
1002
}
1000
9GENINF
1070
     4
1000
9
1002
{
1002
}
1000
10GENINF
1070
     4
1000
10
1002
{
1002
}
1000
11GENINF
1070
     4
1000
11
1002
{
1002
}
1000
12GENINF
1070
     4
1000
12
1002
{
1002
}
1000
13GENINF
1070
     4
1000
13
1002
{
1002
}
1000
14GENINF
1070
     4
1000
14
1002
{
1002
}
1000
15GENINF
1070
     4
1000
15
1002
{
1002
}
1000
16GENINF
1070
     4
1000
16
1002
{
1002
}
1000
17GENINF
1070
     4
1000
17
1002
{
1002
}
1000
18GENINF
1070
     4
1000
18
1002
{
1002
}
1000
19GENINF
1070
     4
1000
19
1002
{
1002
}
1000
20GENINF
1070
     4
1000
20
1002
{
1002
}
1000
21GENINF
1070
     4
1000
21
1002
{
1002
}
1000
22GENINF
1070
     4
1000
22
1002
{
1002
}
1000
23GENINF
1070
     4
1000
23
1002
{
1002
}
1000
24GENINF
1070
     4
1000
24
1002
{
1002
}
1000
25GENINF
1070
     4
1000
25
1002
{
1002
}
1000
26GENINF
1070
     4
1000
26
1002
{
1002
}
1000
27GENINF
1070
     4
1000
27
1002
{
1002
}
1000
0GENINF
1070
     4
1000
0
1002
{
1002
}
1002
}
1000
GENINF13
1070
     0
1002
{
1000
2GENINF
1070
     4
1000
2
1002
{
1002
}
1000
3GENINF
1070
     4
1000
3
1002
{
1002
}
1000
4GENINF
1070
     4
1000
4
1002
{
1002
}
1000
5GENINF
1070
     4
1000
5
1002
{
1002
}
1000
6GENINF
1070
     4
1000
6
1002
{
1002
}
1000
7GENINF
1070
     4
1000
7
1002
{
1002
}
1000
8GENINF
1070
     4
1000
8
1002
{
1002
}
1000
9GENINF
1070
     4
1000
9
1002
{
1002
}
1000
10GENINF
1070
     4
1000
10
1002
{
1002
}
1000
11GENINF
1070
     4
1000
11
1002
{
1002
}
1000
12GENINF
1070
     4
1000
12
1002
{
1002
}
1000
13GENINF
1070
     4
1000
13
1002
{
1002
}
1000
14GENINF
1070
     4
1000
14
1002
{
1002
}
1000
15GENINF
1070
     4
1000
15
1002
{
1002
}
1000
16GENINF
1070
     4
1000
16
1002
{
1002
}
1000
17GENINF
1070
     4
1000
17
1002
{
1002
}
1000
18GENINF
1070
     4
1000
18
1002
{
1002
}
1000
19GENINF
1070
     4
1000
19
1002
{
1002
}
1000
20GENINF
1070
     4
1000
20
1002
{
1002
}
1000
21GENINF
1070
     4
1000
21
1002
{
1002
}
1000
22GENINF
1070
     4
1000
22
1002
{
1002
}
1000
23GENINF
1070
     4
1000
23
1002
{
1002
}
1000
24GENINF
1070
     4
1000
24
1002
{
1002
}
1000
0GENINF
1070
     4
1000
0
1002
{
1002
}
1002
}
1000
GENINFO
1070
     0
1002
{
1000
3GENINF
1070
     4
1000
3
1002
{
1002
}
1000
4GENINF
1070
     4
1000
4
1002
{
1002
}
1000
5GENINF
1070
     4
1000
5
1002
{
1002
}
1000
6GENINF
1070
     4
1000
6
1002
{
1002
}
1000
7GENINF
1070
     4
1000
7
1002
{
1002
}
1000
8GENINF
1070
     4
1000
8
1002
{
1002
}
1000
9GENINF
1070
     4
1000
9
1002
{
1002
}
1000
10GENINF
1070
     4
1000
10
1002
{
1002
}
1000
11GENINF
1070
     4
1000
11
1002
{
1002
}
1000
12GENINF
1070
     4
1000
12
1002
{
1002
}
1000
13GENINF
1070
     4
1000
13
1002
{
1002
}
1000
14GENINF
1070
     4
1000
14
1002
{
1002
}
1000
15GENINF
1070
     4
1000
15
1002
{
1002
}
1000
16GENINF
1070
     4
1000
16
1002
{
1002
}
1000
17GENINF
1070
     4
1000
17
1002
{
1002
}
1000
18GENINF
1070
     4
1000
18
1002
{
1002
}
1000
19GENINF
1070
     4
1000
19
1002
{
1002
}
1000
20GENINF
1070
     4
1000
20
1002
{
1002
}
1000
21GENINF
1070
     4
1000
21
1002
{
1002
}
1000
22GENINF
1070
     4
1000
22
1002
{
1002
}
1002
}
1000
DININFO
1070
     0
1002
{
1000
ST-NAME1
1070
     4
1000
5
1002
{
1002
}
1000
ST-NAME2
1070
     4
1000
6
1002
{
1002
}
1000
ST-NORM1
1070
     4
1000
7
1002
{
1002
}
1000
ST-NORM2
1070
     4
1000
8
1002
{
1002
}
1000
ST-MAT1
1070
     4
1000
9
1002
{
1002
}
1000
ST-MAT2
1070
     4
1000
10
1002
{
1002
}
1002
}
1002
}
1000
POS_NUMBERS
1070
     0
1002
{
1000
GENPOS14
1070
     0
1002
{
1000
1GENPOS
1070
     4
1000
1
1002
{
1002
}
1000
2GENPOS
1070
     4
1000
2
1002
{
1002
}
1000
3GENPOS
1070
     4
1000
3
1002
{
1002
}
1000
4GENPOS
1070
     4
1000
4
1002
{
1002
}
1000
5GENPOS
1070
     4
1000
5
1002
{
1002
}
1000
6GENPOS
1070
     4
1000
6
1002
{
1002
}
1000
7GENPOS
1070
     4
1000
7
1002
{
1002
}
1000
8GENPOS
1070
     4
1000
8
1002
{
1002
}
1000
9GENPOS
1070
     4
1000
9
1002
{
1002
}
1000
10GENPOS
1070
     4
1000
10
1002
{
1002
}
1000
11GENPOS
1070
     4
1000
11
1002
{
1002
}
1000
12GENPOS
1070
     4
1000
12
1002
{
1002
}
1000
13GENPOS
1070
     4
1000
13
1002
{
1002
}
1000
14GENPOS
1070
     4
1000
14
1002
{
1002
}
1000
15GENPOS
1070
     4
1000
15
1002
{
1002
}
1000
16GENPOS
1070
     4
1000
16
1002
{
1002
}
1000
17GENPOS
1070
     4
1000
17
1002
{
1002
}
1000
18GENPOS
1070
     4
1000
18
1002
{
1002
}
1000
19GENPOS
1070
     4
1000
19
1002
{
1002
}
1000
20GENPOS
1070
     4
1000
20
1002
{
1002
}
1000
21GENPOS
1070
     4
1000
21
1002
{
1002
}
1000
22GENPOS
1070
     4
1000
22
1002
{
1002
}
1000
23GENPOS
1070
     4
1000
23
1002
{
1002
}
1000
24GENPOS
1070
     4
1000
24
1002
{
1002
}
1000
25GENPOS
1070
     4
1000
25
1002
{
1002
}
1000
26GENPOS
1070
     4
1000
26
1002
{
1002
}
1000
27GENPOS
1070
     4
1000
27
1002
{
1002
}
1000
0GENPOS
1070
     4
1000
0
1002
{
1002
}
1002
}
1000
GENPOS13
1070
     0
1002
{
1000
1GENPOS
1070
     4
1000
1
1002
{
1002
}
1000
2GENPOS
1070
     4
1000
2
1002
{
1002
}
1000
3GENPOS
1070
     4
1000
3
1002
{
1002
}
1000
4GENPOS
1070
     4
1000
4
1002
{
1002
}
1000
5GENPOS
1070
     4
1000
5
1002
{
1002
}
1000
6GENPOS
1070
     4
1000
6
1002
{
1002
}
1000
7GENPOS
1070
     4
1000
7
1002
{
1002
}
1000
8GENPOS
1070
     4
1000
8
1002
{
1002
}
1000
9GENPOS
1070
     4
1000
9
1002
{
1002
}
1000
10GENPOS
1070
     4
1000
10
1002
{
1002
}
1000
11GENPOS
1070
     4
1000
11
1002
{
1002
}
1000
12GENPOS
1070
     4
1000
12
1002
{
1002
}
1000
13GENPOS
1070
     4
1000
13
1002
{
1002
}
1000
14GENPOS
1070
     4
1000
14
1002
{
1002
}
1000
15GENPOS
1070
     4
1000
15
1002
{
1002
}
1000
16GENPOS
1070
     4
1000
16
1002
{
1002
}
1000
17GENPOS
1070
     4
1000
17
1002
{
1002
}
1000
18GENPOS
1070
     4
1000
18
1002
{
1002
}
1000
19GENPOS
1070
     4
1000
19
1002
{
1002
}
1000
20GENPOS
1070
     4
1000
20
1002
{
1002
}
1000
21GENPOS
1070
     4
1000
21
1002
{
1002
}
1000
22GENPOS
1070
     4
1000
22
1002
{
1002
}
1000
23GENPOS
1070
     4
1000
23
1002
{
1002
}
1000
24GENPOS
1070
     4
1000
24
1002
{
1002
}
1000
0GENPOS
1070
     4
1000
0
1002
{
1002
}
1002
}
1000
GENPOS
1070
     0
1002
{
1000
1GENPOS
1070
     4
1000
1
1002
{
1002
}
1000
2GENPOS
1070
     4
1000
2
1002
{
1002
}
1000
3GENPOS
1070
     4
1000
3
1002
{
1002
}
1000
4GENPOS
1070
     4
1000
4
1002
{
1002
}
1000
5GENPOS
1070
     4
1000
5
1002
{
1002
}
1000
6GENPOS
1070
     4
1000
6
1002
{
1002
}
1000
7GENPOS
1070
     4
1000
7
1002
{
1002
}
1000
8GENPOS
1070
     4
1000
8
1002
{
1002
}
1000
9GENPOS
1070
     4
1000
9
1002
{
1002
}
1000
10GENPOS
1070
     4
1000
10
1002
{
1002
}
1000
11GENPOS
1070
     4
1000
11
1002
{
1002
}
1000
12GENPOS
1070
     4
1000
12
1002
{
1002
}
1000
13GENPOS
1070
     4
1000
13
1002
{
1002
}
1000
14GENPOS
1070
     4
1000
14
1002
{
1002
}
1000
15GENPOS
1070
     4
1000
15
1002
{
1002
}
1000
16GENPOS
1070
     4
1000
16
1002
{
1002
}
1000
17GENPOS
1070
     4
1000
17
1002
{
1002
}
1000
18GENPOS
1070
     4
1000
18
1002
{
1002
}
1000
19GENPOS
1070
     4
1000
19
1002
{
1002
}
1000
20GENPOS
1070
     4
1000
20
1002
{
1002
}
1000
21GENPOS
1070
     4
1000
21
1002
{
1002
}
1000
22GENPOS
1070
     4
1000
22
1002
{
1002
}
1000
23GENPOS
1070
     4
1000
23
1002
{
1002
}
1002
}
1000
DIN985
1070
     0
1002
{
1000
POSITION
1070
     4
1000
1
1002
{
1002
}
1000
MENGE
1070
     4
1000
2
1002
{
1002
}
1000
BLATT
1070
     4
1000
3
1002
{
1002
}
1000
BENENN
1070
     4
1000
5
1002
{
1002
}
1000
BENENN2
1070
     4
1000
6
1002
{
1002
}
1000
NORM
1070
     4
1000
7
1002
{
1002
}
1000
NORM2
1070
     4
1000
8
1002
{
1002
}
1000
WERKSTOFF
1070
     4
1000
9
1002
{
1002
}
1000
WERKSTOFF2
1070
     4
1000
10
1002
{
1002
}
1002
}
1000
DIN986
1070
     0
1002
{
1000
POSITION
1070
     4
1000
1
1002
{
1002
}
1000
MENGE
1070
     4
1000
2
1002
{
1002
}
1000
BLATT
1070
     4
1000
3
1002
{
1002
}
1000
BENENN
1070
     4
1000
5
1002
{
1002
}
1000
BENENN2
1070
     4
1000
6
1002
{
1002
}
1000
NORM
1070
     4
1000
7
1002
{
1002
}
1000
NORM2
1070
     4
1000
8
1002
{
1002
}
1000
WERKSTOFF
1070
     4
1000
9
1002
{
1002
}
1000
WERKSTOFF2
1070
     4
1000
10
1002
{
1002
}
1002
}
1000
DIN987
1070
     0
1002
{
1000
POSITION
1070
     4
1000
1
1002
{
1002
}
1000
MENGE
1070
     4
1000
2
1002
{
1002
}
1000
BLATT
1070
     4
1000
3
1002
{
1002
}
1000
BENENN
1070
     4
1000
5
1002
{
1002
}
1000
BENENN2
1070
     4
1000
6
1002
{
1002
}
1000
NORM
1070
     4
1000
7
1002
{
1002
}
1000
NORM2
1070
     4
1000
8
1002
{
1002
}
1000
WERKSTOFF
1070
     4
1000
9
1002
{
1002
}
1000
WERKSTOFF2
1070
     4
1000
10
1002
{
1002
}
1002
}
1002
}
  0
APPID
  5
1F9
330
14
100
AcDbSymbolTableRecord
100
AcDbRegAppTableRecord
  2
GENIUS_GENCFG1_13
 70
     0
1001
GENIUS_GENCFG_13
1071
947066216
1000
1F9
1000
GEN@INFO_POS
1070
     7
1000
GenCfgObject
1000
GenCfgShort
1000
GenCfgReal
1000
GenCfgBool
1000
GenCfgString
1000
GenCfgDim
1000
GenCfgAttrInf
1000
DescrText
1070
     4
1000
5, ,6, ,7, ,8
1002
{
1002
}
1000
DescrText2
1070
     4
1000
26
1002
{
1002
}
1000
VisibleAttr1
1070
     4
1000
1
1002
{
1002
}
1000
VisibleAttr2
1070
     4
1000
26
1002
{
1002
}
1000
UpdateBlock
1070
     3
1070
     1
1002
{
1002
}
1000
Attrib
1070
     0
1002
{
1000
0
1070
     6
1002
{
1000
Prompt
1070
     4
1000
(genmsg gendwg 103)
1002
{
1002
}
1000
Value
1070
     4
1000

1002
{
1002
}
1000
EditFlag
1070
     1
1070
     0
1002
{
1002
}
1000
PosInDDATTE
1070
     1
1070
    27
1002
{
1002
}
1000
FieldLen
1070
     1
1070
    -1
1002
{
1002
}
1002
}
1000
1
1070
     6
1002
{
1000
Prompt
1070
     4
1000
(genmsg gendwg 31)
1002
{
1002
}
1000
Value
1070
     4
1000
1
1002
{
1002
}
1000
EditFlag
1070
     1
1070
     1
1002
{
1002
}
1000
PosInDDATTE
1070
     1
1070
     1
1002
{
1002
}
1000
FieldLen
1070
     1
1070
    -1
1002
{
1002
}
1002
}
1000
2
1070
     6
1002
{
1000
Prompt
1070
     4
1000
(genmsg gendwg 32)
1002
{
1002
}
1000
Value
1070
     4
1000
1
1002
{
1002
}
1000
EditFlag
1070
     1
1070
     1
1002
{
1002
}
1000
PosInDDATTE
1070
     1
1070
     2
1002
{
1002
}
1000
FieldLen
1070
     1
1070
    -1
1002
{
1002
}
1002
}
1000
3
1070
     6
1002
{
1000
Prompt
1070
     4
1000
(genmsg gendwg 33)
1002
{
1002
}
1000
Value
1070
     4
1000

1002
{
1002
}
1000
EditFlag
1070
     1
1070
     1
1002
{
1002
}
1000
PosInDDATTE
1070
     1
1070
     3
1002
{
1002
}
1000
FieldLen
1070
     1
1070
    -1
1002
{
1002
}
1002
}
1000
4
1070
     6
1002
{
1000
Prompt
1070
     4
1000
(genmsg gendwg 34)
1002
{
1002
}
1000
Value
1070
     4
1000

1002
{
1002
}
1000
EditFlag
1070
     1
1070
     1
1002
{
1002
}
1000
PosInDDATTE
1070
     1
1070
     4
1002
{
1002
}
1000
FieldLen
1070
     1
1070
    -1
1002
{
1002
}
1002
}
1000
5
1070
     6
1002
{
1000
Prompt
1070
     4
1000
(genmsg gendwg 35)
1002
{
1002
}
1000
Value
1070
     4
1000

1002
{
1002
}
1000
EditFlag
1070
     1
1070
     1
1002
{
1002
}
1000
PosInDDATTE
1070
     1
1070
     5
1002
{
1002
}
1000
FieldLen
1070
     1
1070
    -1
1002
{
1002
}
1002
}
1000
6
1070
     6
1002
{
1000
Prompt
1070
     4
1000
(genmsg gendwg 36)
1002
{
1002
}
1000
Value
1070
     4
1000

1002
{
1002
}
1000
EditFlag
1070
     1
1070
     1
1002
{
1002
}
1000
PosInDDATTE
1070
     1
1070
     6
1002
{
1002
}
1000
FieldLen
1070
     1
1070
    -1
1002
{
1002
}
1002
}
1000
7
1070
     6
1002
{
1000
Prompt
1070
     4
1000
(genmsg gendwg 37)
1002
{
1002
}
1000
Value
1070
     4
1000

1002
{
1002
}
1000
EditFlag
1070
     1
1070
     1
1002
{
1002
}
1000
PosInDDATTE
1070
     1
1070
     7
1002
{
1002
}
1000
FieldLen
1070
     1
1070
    -1
1002
{
1002
}
1002
}
1000
8
1070
     6
1002
{
1000
Prompt
1070
     4
1000
(genmsg gendwg 38)
1002
{
1002
}
1000
Value
1070
     4
1000

1002
{
1002
}
1000
EditFlag
1070
     1
1070
     1
1002
{
1002
}
1000
PosInDDATTE
1070
     1
1070
     8
1002
{
1002
}
1000
FieldLen
1070
     1
1070
    -1
1002
{
1002
}
1002
}
1000
9
1070
     6
1002
{
1000
Prompt
1070
     4
1000
(genmsg gendwg 39)
1002
{
1002
}
1000
Value
1070
     4
1000

1002
{
1002
}
1000
EditFlag
1070
     1
1070
     1
1002
{
1002
}
1000
PosInDDATTE
1070
     1
1070
     9
1002
{
1002
}
1000
FieldLen
1070
     1
1070
    -1
1002
{
1002
}
1002
}
1000
10
1070
     6
1002
{
1000
Prompt
1070
     4
1000
(genmsg gendwg 40)
1002
{
1002
}
1000
Value
1070
     4
1000

1002
{
1002
}
1000
EditFlag
1070
     1
1070
     1
1002
{
1002
}
1000
PosInDDATTE
1070
     1
1070
    10
1002
{
1002
}
1000
FieldLen
1070
     1
1070
    -1
1002
{
1002
}
1002
}
1000
11
1070
     6
1002
{
1000
Prompt
1070
     4
1000
(genmsg gendwg 41)
1002
{
1002
}
1000
Value
1070
     4
1000

1002
{
1002
}
1000
EditFlag
1070
     1
1070
     1
1002
{
1002
}
1000
PosInDDATTE
1070
     1
1070
    11
1002
{
1002
}
1000
FieldLen
1070
     1
1070
    -1
1002
{
1002
}
1002
}
1000
12
1070
     6
1002
{
1000
Prompt
1070
     4
1000
(genmsg gendwg 42)
1002
{
1002
}
1000
Value
1070
     4
1000

1002
{
1002
}
1000
EditFlag
1070
     1
1070
     1
1002
{
1002
}
1000
PosInDDATTE
1070
     1
1070
    12
1002
{
1002
}
1000
FieldLen
1070
     1
1070
    -1
1002
{
1002
}
1002
}
1000
13
1070
     6
1002
{
1000
Prompt
1070
     4
1000
(genmsg gendwg 43)
1002
{
1002
}
1000
Value
1070
     4
1000

1002
{
1002
}
1000
EditFlag
1070
     1
1070
     1
1002
{
1002
}
1000
PosInDDATTE
1070
     1
1070
    13
1002
{
1002
}
1000
FieldLen
1070
     1
1070
    -1
1002
{
1002
}
1002
}
1000
14
1070
     6
1002
{
1000
Prompt
1070
     4
1000
(genmsg gendwg 44)
1002
{
1002
}
1000
Value
1070
     4
1000

1002
{
1002
}
1000
EditFlag
1070
     1
1070
     1
1002
{
1002
}
1000
PosInDDATTE
1070
     1
1070
    14
1002
{
1002
}
1000
FieldLen
1070
     1
1070
    -1
1002
{
1002
}
1002
}
1000
15
1070
     6
1002
{
1000
Prompt
1070
     4
1000
(genmsg gendwg 45)
1002
{
1002
}
1000
Value
1070
     4
1000

1002
{
1002
}
1000
EditFlag
1070
     1
1070
     1
1002
{
1002
}
1000
PosInDDATTE
1070
     1
1070
    15
1002
{
1002
}
1000
FieldLen
1070
     1
1070
    -1
1002
{
1002
}
1002
}
1000
16
1070
     6
1002
{
1000
Prompt
1070
     4
1000
(genmsg gendwg 46)
1002
{
1002
}
1000
Value
1070
     4
1000

1002
{
1002
}
1000
EditFlag
1070
     1
1070
     1
1002
{
1002
}
1000
PosInDDATTE
1070
     1
1070
    16
1002
{
1002
}
1000
FieldLen
1070
     1
1070
    -1
1002
{
1002
}
1002
}
1000
17
1070
     6
1002
{
1000
Prompt
1070
     4
1000
(genmsg gendwg 47)
1002
{
1002
}
1000
Value
1070
     4
1000

1002
{
1002
}
1000
EditFlag
1070
     1
1070
     1
1002
{
1002
}
1000
PosInDDATTE
1070
     1
1070
    17
1002
{
1002
}
1000
FieldLen
1070
     1
1070
    -1
1002
{
1002
}
1002
}
1000
18
1070
     6
1002
{
1000
Prompt
1070
     4
1000
(genmsg gendwg 48)
1002
{
1002
}
1000
Value
1070
     4
1000

1002
{
1002
}
1000
EditFlag
1070
     1
1070
     1
1002
{
1002
}
1000
PosInDDATTE
1070
     1
1070
    18
1002
{
1002
}
1000
FieldLen
1070
     1
1070
    -1
1002
{
1002
}
1002
}
1000
19
1070
     6
1002
{
1000
Prompt
1070
     4
1000
(genmsg gendwg 99)
1002
{
1002
}
1000
Value
1070
     4
1000

1002
{
1002
}
1000
EditFlag
1070
     1
1070
     1
1002
{
1002
}
1000
PosInDDATTE
1070
     1
1070
    19
1002
{
1002
}
1000
FieldLen
1070
     1
1070
    -1
1002
{
1002
}
1002
}
1000
20
1070
     6
1002
{
1000
Prompt
1070
     4
1000
(genmsg gendwg 100)
1002
{
1002
}
1000
Value
1070
     4
1000

1002
{
1002
}
1000
EditFlag
1070
     1
1070
     1
1002
{
1002
}
1000
PosInDDATTE
1070
     1
1070
    20
1002
{
1002
}
1000
FieldLen
1070
     1
1070
    -1
1002
{
1002
}
1002
}
1000
21
1070
     6
1002
{
1000
Prompt
1070
     4
1000
(genmsg gendwg 101)
1002
{
1002
}
1000
Value
1070
     4
1000

1002
{
1002
}
1000
EditFlag
1070
     1
1070
     1
1002
{
1002
}
1000
PosInDDATTE
1070
     1
1070
    21
1002
{
1002
}
1000
FieldLen
1070
     1
1070
    -1
1002
{
1002
}
1002
}
1000
22
1070
     6
1002
{
1000
Prompt
1070
     4
1000
(genmsg gendwg 102)
1002
{
1002
}
1000
Value
1070
     4
1000

1002
{
1002
}
1000
EditFlag
1070
     1
1070
     1
1002
{
1002
}
1000
PosInDDATTE
1070
     1
1070
    22
1002
{
1002
}
1000
FieldLen
1070
     1
1070
    -1
1002
{
1002
}
1002
}
1000
23
1070
     6
1002
{
1000
Prompt
1070
     4
1000
(genmsg gendwg 30)
1002
{
1002
}
1000
Value
1070
     4
1000

1002
{
1002
}
1000
EditFlag
1070
     1
1070
     1
1002
{
1002
}
1000
PosInDDATTE
1070
     1
1070
    23
1002
{
1002
}
1000
FieldLen
1070
     1
1070
    -1
1002
{
1002
}
1002
}
1000
24
1070
     6
1002
{
1000
Prompt
1070
     4
1000
(genmsg gendwg 104)
1002
{
1002
}
1000
Value
1070
     4
1000

1002
{
1002
}
1000
EditFlag
1070
     1
1070
     1
1002
{
1002
}
1000
PosInDDATTE
1070
     1
1070
    24
1002
{
1002
}
1000
FieldLen
1070
     1
1070
    -1
1002
{
1002
}
1002
}
1000
25
1070
     6
1002
{
1000
Prompt
1070
     4
1000
(genmsg gendwg 105)
1002
{
1002
}
1000
Value
1070
     4
1000

1002
{
1002
}
1000
EditFlag
1070
     1
1070
     1
1002
{
1002
}
1000
PosInDDATTE
1070
     1
1070
    25
1002
{
1002
}
1000
FieldLen
1070
     1
1070
    -1
1002
{
1002
}
1002
}
1000
26
1070
     6
1002
{
1000
Prompt
1070
     4
1000
(genmsg gendwg 106)
1002
{
1002
}
1000
Value
1070
     4
1000

1002
{
1002
}
1000
EditFlag
1070
     1
1070
     1
1002
{
1002
}
1000
PosInDDATTE
1070
     1
1070
    26
1002
{
1002
}
1000
FieldLen
1070
     1
1070
    -1
1002
{
1002
}
1002
}
1000
27
1070
     6
1002
{
1000
Prompt
1070
     4
1000
(genmsg gendwg 109)
1002
{
1002
}
1000
Value
1070
     4
1000

1002
{
1002
}
1000
EditFlag
1070
     1
1070
     2
1002
{
1002
}
1000
PosInDDATTE
1070
     1
1070
    27
1002
{
1002
}
1000
FieldLen
1070
     1
1070
    -1
1002
{
1002
}
1002
}
1002
}
1000
Xlate
1070
     0
1002
{
1000
>
1002
}
  0
APPID
  5
1FA
330
14
100
AcDbSymbolTableRecord
100
AcDbRegAppTableRecord
  2
GENIUS_GENCFG2_13
 70
     0
1001
GENIUS_GENCFG_13
1071
947066216
1000
1FA
1000
GEN@LAYER@DEFS
1070
     9
1000
GenCfgObject
1000
GenCfgShort
1000
GenCfgReal
1000
GenCfgBool
1000
GenCfgString
1000
GenCfgDim
1000
GenCfgAttrInf
1000
GenCfgLaySection
1000
GenCfgLayer
1000
Basic
1070
     0
1002
{
1000
0
1070
     8
1000
0
1002
{
1000
Color
1070
     1
1070
     7
1002
{
1002
}
1000
LType
1070
     4
1000
CONTINUOUS
1002
{
1002
}
1000
Base
1070
     3
1070
     0
1002
{
1002
}
1002
}
1000
1
1070
     8
1000
1
1002
{
1000
Color
1070
     1
1070
    14
1002
{
1002
}
1000
LType
1070
     4
1000
CONTINUOUS
1002
{
1002
}
1000
Base
1070
     3
1070
     0
1002
{
1002
}
1002
}
1000
2
1070
     8
1000
2
1002
{
1000
Color
1070
     1
1070
     5
1002
{
1002
}
1000
LType
1070
     4
1000
CONTINUOUS
1002
{
1002
}
1000
Base
1070
     3
1070
     0
1002
{
1002
}
1002
}
1000
3
1070
     8
1000
3
1002
{
1000
Color
1070
     1
1070
     6
1002
{
1002
}
1000
LType
1070
     4
1000
GEN3
1002
{
1002
}
1000
Base
1070
     3
1070
     0
1002
{
1002
}
1002
}
1000
4
1070
     8
1000
4
1002
{
1000
Color
1070
     1
1070
     3
1002
{
1002
}
1000
LType
1070
     4
1000
CONTINUOUS
1002
{
1002
}
1000
Base
1070
     3
1070
     0
1002
{
1002
}
1002
}
1000
5
1070
     8
1000
5
1002
{
1000
Color
1070
     1
1070
     3
1002
{
1002
}
1000
LType
1070
     4
1000
CONTINUOUS
1002
{
1002
}
1000
Base
1070
     3
1070
     0
1002
{
1002
}
1002
}
1000
6
1070
     8
1000
6
1002
{
1000
Color
1070
     1
1070
     2
1002
{
1002
}
1000
LType
1070
     4
1000
CONTINUOUS
1002
{
1002
}
1000
Base
1070
     3
1070
     0
1002
{
1002
}
1002
}
1000
7
1070
     8
1000
7
1002
{
1000
Color
1070
     1
1070
     4
1002
{
1002
}
1000
LType
1070
     4
1000
GEN7
1002
{
1002
}
1000
Base
1070
     3
1070
     0
1002
{
1002
}
1002
}
1000
8
1070
     8
1000
8
1002
{
1000
Color
1070
     1
1070
     1
1002
{
1002
}
1000
LType
1070
     4
1000
CONTINUOUS
1002
{
1002
}
1000
Base
1070
     3
1070
     0
1002
{
1002
}
1002
}
1000
3A
1070
     8
1000
3A
1002
{
1000
Color
1070
     1
1070
     6
1002
{
1002
}
1000
LType
1070
     4
1000
GEN3A
1002
{
1002
}
1000
Base
1070
     3
1070
     0
1002
{
1002
}
1002
}
1000
7A
1070
     8
1000
7A
1002
{
1000
Color
1070
     1
1070
     4
1002
{
1002
}
1000
LType
1070
     4
1000
GEN7A
1002
{
1002
}
1000
Base
1070
     3
1070
     0
1002
{
1002
}
1002
}
1000
2A
1070
     8
1000
2A
1002
{
1000
Color
1070
     1
1070
     7
1002
{
1002
}
1000
LType
1070
     4
1000
GEN7
1002
{
1002
}
1000
Base
1070
     3
1070
     0
1002
{
1002
}
1002
}
1000
4A
1070
     8
1000
4A
1002
{
1000
Color
1070
     1
1070
     3
1002
{
1002
}
1000
LType
1070
     4
1000
GEN4A
1002
{
1002
}
1000
Base
1070
     3
1070
     0
1002
{
1002
}
1002
}
1000
9
1070
     8
1000
9
1002
{
1000
Color
1070
     1
1070
   253
1002
{
1002
}
1000
LType
1070
     4
1000
CONTINUOUS
1002
{
1002
}
1000
Base
1070
     3
1070
     0
1002
{
1002
}
1002
}
1000
IP
1070
     8
1000
IP
1002
{
1000
Color
1070
     1
1070
     7
1002
{
1002
}
1000
LType
1070
     4
1000
CONTINUOUS
1002
{
1002
}
1000
Base
1070
     3
1070
     0
1002
{
1002
}
1002
}
1002
}
1000
Standard
1070
     0
1002
{
1000
0N
1070
     8
1000
0N
1002
{
1000
Color
1070
     1
1070
     7
1002
{
1002
}
1000
LType
1070
     4
1000
CONTINUOUS
1002
{
1002
}
1000
Base
1070
     3
1070
     0
1002
{
1002
}
1002
}
1000
1N
1070
     8
1000
1N
1002
{
1000
Color
1070
     1
1070
    14
1002
{
1002
}
1000
LType
1070
     4
1000
CONTINUOUS
1002
{
1002
}
1000
Base
1070
     3
1070
     0
1002
{
1002
}
1002
}
1000
2N
1070
     8
1000
2N
1002
{
1000
Color
1070
     1
1070
     5
1002
{
1002
}
1000
LType
1070
     4
1000
CONTINUOUS
1002
{
1002
}
1000
Base
1070
     3
1070
     0
1002
{
1002
}
1002
}
1000
3N
1070
     8
1000
3N
1002
{
1000
Color
1070
     1
1070
     6
1002
{
1002
}
1000
LType
1070
     4
1000
GEN3
1002
{
1002
}
1000
Base
1070
     3
1070
     0
1002
{
1002
}
1002
}
1000
4N
1070
     8
1000
4N
1002
{
1000
Color
1070
     1
1070
     3
1002
{
1002
}
1000
LType
1070
     4
1000
CONTINUOUS
1002
{
1002
}
1000
Base
1070
     3
1070
     0
1002
{
1002
}
1002
}
1000
5N
1070
     8
1000
5N
1002
{
1000
Color
1070
     1
1070
     3
1002
{
1002
}
1000
LType
1070
     4
1000
CONTINUOUS
1002
{
1002
}
1000
Base
1070
     3
1070
     0
1002
{
1002
}
1002
}
1000
6N
1070
     8
1000
6N
1002
{
1000
Color
1070
     1
1070
     2
1002
{
1002
}
1000
LType
1070
     4
1000
CONTINUOUS
1002
{
1002
}
1000
Base
1070
     3
1070
     0
1002
{
1002
}
1002
}
1000
7N
1070
     8
1000
7N
1002
{
1000
Color
1070
     1
1070
     4
1002
{
1002
}
1000
LType
1070
     4
1000
GEN7
1002
{
1002
}
1000
Base
1070
     3
1070
     0
1002
{
1002
}
1002
}
1000
8N
1070
     8
1000
8N
1002
{
1000
Color
1070
     1
1070
     1
1002
{
1002
}
1000
LType
1070
     4
1000
CONTINUOUS
1002
{
1002
}
1000
Base
1070
     3
1070
     0
1002
{
1002
}
1002
}
1000
3AN
1070
     8
1000
3AN
1002
{
1000
Color
1070
     1
1070
     6
1002
{
1002
}
1000
LType
1070
     4
1000
GEN3A
1002
{
1002
}
1000
Base
1070
     3
1070
     0
1002
{
1002
}
1002
}
1000
7AN
1070
     8
1000
7AN
1002
{
1000
Color
1070
     1
1070
     4
1002
{
1002
}
1000
LType
1070
     4
1000
GEN7A
1002
{
1002
}
1000
Base
1070
     3
1070
     0
1002
{
1002
}
1002
}
1000
2AN
1070
     8
1000
2AN
1002
{
1000
Color
1070
     1
1070
     7
1002
{
1002
}
1000
LType
1070
     4
1000
GEN7
1002
{
1002
}
1000
Base
1070
     3
1070
     0
1002
{
1002
}
1002
}
1000
4AN
1070
     8
1000
4AN
1002
{
1000
Color
1070
     1
1070
     3
1002
{
1002
}
1000
LType
1070
     4
1000
GEN4A
1002
{
1002
}
1000
Base
1070
     3
1070
     0
1002
{
1002
}
1002
}
1000
9N
1070
     8
1000
9N
1002
{
1000
Color
1070
     1
1070
   253
1002
{
1002
}
1000
LType
1070
     4
1000
CONTINUOUS
1002
{
1002
}
1000
Base
1070
     3
1070
     0
1002
{
1002
}
1002
}
1000
IPN
1070
     8
1000
IPN
1002
{
1000
Color
1070
     1
1070
     7
1002
{
1002
}
1000
LType
1070
     4
1000
CONTINUOUS
1002
{
1002
}
1000
Base
1070
     3
1070
     0
1002
{
1002
}
1002
}
1002
}
1000
Extra
1070
     0
1002
{
1000
Klin
1070
     8
1000
KLIN
1002
{
1000
Color
1070
     1
1070
     1
1002
{
1002
}
1000
LType
1070
     4
1000
CONTINUOUS
1002
{
1002
}
1000
Base
1070
     3
1070
     1
1002
{
1002
}
1002
}
1000
Info
1070
     8
1000
INFO
1002
{
1000
Color
1070
     1
1070
     4
1002
{
1002
}
1000
LType
1070
     4
1000
CONTINUOUS
1002
{
1002
}
1000
Base
1070
     3
1070
     1
1002
{
1002
}
1002
}
1000
Rahm2
1070
     8
1000
RAHM2
1002
{
1000
Color
1070
     1
1070
     1
1002
{
1002
}
1000
LType
1070
     4
1000
CONTINUOUS
1002
{
1002
}
1000
Base
1070
     3
1070
     1
1002
{
1002
}
1002
}
1000
Rahm3
1070
     8
1000
RAHM3
1002
{
1000
Color
1070
     1
1070
     2
1002
{
1002
}
1000
LType
1070
     4
1000
CONTINUOUS
1002
{
1002
}
1000
Base
1070
     3
1070
     1
1002
{
1002
}
1002
}
1000
Rahm5
1070
     8
1000
RAHM5
1002
{
1000
Color
1070
     1
1070
     7
1002
{
1002
}
1000
LType
1070
     4
1000
CONTINUOUS
1002
{
1002
}
1000
Base
1070
     3
1070
     1
1002
{
1002
}
1002
}
1000
View
1070
     8
1000
VIEW
1002
{
1000
Color
1070
     1
1070
     1
1002
{
1002
}
1000
LType
1070
     4
1000
CONTINUOUS
1002
{
1002
}
1000
Base
1070
     3
1070
     1
1002
{
1002
}
1002
}
1000
Behind
1070
     8
1000
BEHIND
1002
{
1000
Color
1070
     1
1070
   253
1002
{
1002
}
1000
LType
1070
     4
1000
CONTINUOUS
1002
{
1002
}
1000
Base
1070
     3
1070
     1
1002
{
1002
}
1002
}
1002
}
  0
APPID
  5
1FB
330
14
100
AcDbSymbolTableRecord
100
AcDbRegAppTableRecord
  2
GENIUS_GENCFG3_13
 70
     0
1001
GENIUS_GENCFG_13
1071
947066216
1000
1FB
1000
GEN@LAYER@ENTSORT
1070
    10
1000
GenCfgObject
1000
GenCfgShort
1000
GenCfgReal
1000
GenCfgBool
1000
GenCfgString
1000
GenCfgDim
1000
GenCfgAttrInf
1000
GenCfgLaySection
1000
GenCfgLayer
1000
GenCfgEntSort
1000
ADDL
1070
     9
1000
5
1002
{
1000
Class
1070
     4
1000
SYM
1002
{
1002
}
1000
Color
1070
     1
1070
     1
1002
{
1002
}
1000
LType
1070
     4
1000
BYLAYER
1002
{
1002
}
1002
}
1000
ALTR
1070
     9
1000
4
1002
{
1000
Class
1070
     4
1000

1002
{
1002
}
1000
Color
1070
     1
1070
     7
1002
{
1002
}
1000
LType
1070
     4
1000
GEN3A
1002
{
1002
}
1002
}
1000
BELI
1070
     9
1000
4
1002
{
1000
Class
1070
     4
1000

1002
{
1002
}
1000
Color
1070
     1
1070
   256
1002
{
1002
}
1000
LType
1070
     4
1000
BYLAYER
1002
{
1002
}
1002
}
1000
BHNV
1070
     9
1000
9
1002
{
1000
Class
1070
     4
1000
INV
1002
{
1002
}
1000
Color
1070
     1
1070
   256
1002
{
1002
}
1000
LType
1070
     4
1000
BYLAYER
1002
{
1002
}
1002
}
1000
BHNVS
1070
     9
1000
BEHIND
1002
{
1000
Class
1070
     4
1000
INV
1002
{
1002
}
1000
Color
1070
     1
1070
   256
1002
{
1002
}
1000
LType
1070
     4
1000
BYLAYER
1002
{
1002
}
1002
}
1000
BLID
1070
     9
1000
4A
1002
{
1000
Class
1070
     4
1000

1002
{
1002
}
1000
Color
1070
     1
1070
   256
1002
{
1002
}
1000
LType
1070
     4
1000
BYLAYER
1002
{
1002
}
1002
}
1000
BOAP
1070
     9
1000
4A
1002
{
1000
Class
1070
     4
1000

1002
{
1002
}
1000
Color
1070
     1
1070
   256
1002
{
1002
}
1000
LType
1070
     4
1000
BYLAYER
1002
{
1002
}
1002
}
1000
BOR2
1070
     9
1000
RAHM2
1002
{
1000
Class
1070
     4
1000
SPZ,SYM
1002
{
1002
}
1000
Color
1070
     1
1070
   256
1002
{
1002
}
1000
LType
1070
     4
1000
BYLAYER
1002
{
1002
}
1002
}
1000
BOR3
1070
     9
1000
RAHM3
1002
{
1000
Class
1070
     4
1000
SPZ,SYM
1002
{
1002
}
1000
Color
1070
     1
1070
   256
1002
{
1002
}
1000
LType
1070
     4
1000
BYLAYER
1002
{
1002
}
1002
}
1000
BOR5
1070
     9
1000
RAHM5
1002
{
1000
Class
1070
     4
1000
SPZ,SYM
1002
{
1002
}
1000
Color
1070
     1
1070
   256
1002
{
1002
}
1000
LType
1070
     4
1000
BYLAYER
1002
{
1002
}
1002
}
1000
BOR7
1070
     9
1000
RAHM5
1002
{
1000
Class
1070
     4
1000
SPZ,SYM
1002
{
1002
}
1000
Color
1070
     1
1070
     7
1002
{
1002
}
1000
LType
1070
     4
1000
CONTINUOUS
1002
{
1002
}
1002
}
1000
BPAP
1070
     9
1000
4A
1002
{
1000
Class
1070
     4
1000

1002
{
1002
}
1000
Color
1070
     1
1070
   256
1002
{
1002
}
1000
LType
1070
     4
1000
BYLAYER
1002
{
1002
}
1002
}
1000
BPEX
1070
     9
1000
4A
1002
{
1000
Class
1070
     4
1000

1002
{
1002
}
1000
Color
1070
     1
1070
   256
1002
{
1002
}
1000
LType
1070
     4
1000
BYLAYER
1002
{
1002
}
1002
}
1000
BTDI
1070
     9
1000
5
1002
{
1000
Class
1070
     4
1000
DIM,SYM
1002
{
1002
}
1000
Color
1070
     1
1070
   256
1002
{
1002
}
1000
LType
1070
     4
1000
BYLAYER
1002
{
1002
}
1002
}
1000
CAL2
1070
     9
1000
4
1002
{
1000
Class
1070
     4
1000
SYM
1002
{
1002
}
1000
Color
1070
     1
1070
   256
1002
{
1002
}
1000
LType
1070
     4
1000
BYLAYER
1002
{
1002
}
1002
}
1000
CAL3
1070
     9
1000
4
1002
{
1000
Class
1070
     4
1000
SYM
1002
{
1002
}
1000
Color
1070
     1
1070
     2
1002
{
1002
}
1000
LType
1070
     4
1000
BYLAYER
1002
{
1002
}
1002
}
1000
CAL5
1070
     9
1000
4
1002
{
1000
Class
1070
     4
1000
SYM
1002
{
1002
}
1000
Color
1070
     1
1070
     7
1002
{
1002
}
1000
LType
1070
     4
1000
BYLAYER
1002
{
1002
}
1002
}
1000
CAL7
1070
     9
1000
4
1002
{
1000
Class
1070
     4
1000
SYM
1002
{
1002
}
1000
Color
1070
     1
1070
     5
1002
{
1002
}
1000
LType
1070
     4
1000
BYLAYER
1002
{
1002
}
1002
}
1000
CENN
1070
     9
1000
7A
1002
{
1000
Class
1070
     4
1000
CEN
1002
{
1002
}
1000
Color
1070
     1
1070
   256
1002
{
1002
}
1000
LType
1070
     4
1000
BYLAYER
1002
{
1002
}
1002
}
1000
CENW
1070
     9
1000
7
1002
{
1000
Class
1070
     4
1000
CEN
1002
{
1002
}
1000
Color
1070
     1
1070
   256
1002
{
1002
}
1000
LType
1070
     4
1000
BYLAYER
1002
{
1002
}
1002
}
1000
CLIN
1070
     9
1000
KLIN
1002
{
1000
Class
1070
     4
1000
SPZ
1002
{
1002
}
1000
Color
1070
     1
1070
   256
1002
{
1002
}
1000
LType
1070
     4
1000
BYLAYER
1002
{
1002
}
1002
}
1000
CON1
1070
     9
1000
0
1002
{
1000
Class
1070
     4
1000
CON,BGD
1002
{
1002
}
1000
Color
1070
     1
1070
   256
1002
{
1002
}
1000
LType
1070
     4
1000
BYLAYER
1002
{
1002
}
1002
}
1000
CON2
1070
     9
1000
1
1002
{
1000
Class
1070
     4
1000
CON,BGD
1002
{
1002
}
1000
Color
1070
     1
1070
   256
1002
{
1002
}
1000
LType
1070
     4
1000
BYLAYER
1002
{
1002
}
1002
}
1000
CON3
1070
     9
1000
2
1002
{
1000
Class
1070
     4
1000
CON,BGD
1002
{
1002
}
1000
Color
1070
     1
1070
   256
1002
{
1002
}
1000
LType
1070
     4
1000
BYLAYER
1002
{
1002
}
1002
}
1000
CON4
1070
     9
1000
2
1002
{
1000
Class
1070
     4
1000
CON,BGD
1002
{
1002
}
1000
Color
1070
     1
1070
   256
1002
{
1002
}
1000
LType
1070
     4
1000
BYLAYER
1002
{
1002
}
1002
}
1000
DERP
1070
     9
1000
4
1002
{
1000
Class
1070
     4
1000

1002
{
1002
}
1000
Color
1070
     1
1070
   256
1002
{
1002
}
1000
LType
1070
     4
1000
BYLAYER
1002
{
1002
}
1002
}
1000
DETA
1070
     9
1000
4
1002
{
1000
Class
1070
     4
1000

1002
{
1002
}
1000
Color
1070
     1
1070
   256
1002
{
1002
}
1000
LType
1070
     4
1000
BYLAYER
1002
{
1002
}
1002
}
1000
DIAG
1070
     9
1000
5
1002
{
1000
Class
1070
     4
1000
SYM
1002
{
1002
}
1000
Color
1070
     1
1070
   256
1002
{
1002
}
1000
LType
1070
     4
1000
BYLAYER
1002
{
1002
}
1002
}
1000
DILI
1070
     9
1000
5
1002
{
1000
Class
1070
     4
1000
DIM,SYM
1002
{
1002
}
1000
Color
1070
     1
1070
   256
1002
{
1002
}
1000
LType
1070
     4
1000
BYLAYER
1002
{
1002
}
1002
}
1000
DITO2
1070
     9
1000
5
1002
{
1000
Class
1070
     4
1000
DIM,SYM
1002
{
1002
}
1000
Color
1070
     1
1070
     3
1002
{
1002
}
1000
LType
1070
     4
1000
BYLAYER
1002
{
1002
}
1002
}
1000
DITO3
1070
     9
1000
5
1002
{
1000
Class
1070
     4
1000
DIM,SYM
1002
{
1002
}
1000
Color
1070
     1
1070
     2
1002
{
1002
}
1000
LType
1070
     4
1000
BYLAYER
1002
{
1002
}
1002
}
1000
DITX
1070
     9
1000
5
1002
{
1000
Class
1070
     4
1000
DIM,SYM
1002
{
1002
}
1000
Color
1070
     1
1070
     7
1002
{
1002
}
1000
LType
1070
     4
1000
CONTINUOUS
1002
{
1002
}
1002
}
1000
DIXL
1070
     9
1000
5
1002
{
1000
Class
1070
     4
1000
DIM,SYM
1002
{
1002
}
1000
Color
1070
     1
1070
   256
1002
{
1002
}
1000
LType
1070
     4
1000
BYLAYER
1002
{
1002
}
1002
}
1000
EXMP
1070
     9
1000
4A
1002
{
1000
Class
1070
     4
1000

1002
{
1002
}
1000
Color
1070
     1
1070
   256
1002
{
1002
}
1000
LType
1070
     4
1000
BYLAYER
1002
{
1002
}
1002
}
1000
FEMN
1070
     9
1000
8
1002
{
1000
Class
1070
     4
1000

1002
{
1002
}
1000
Color
1070
     1
1070
   256
1002
{
1002
}
1000
LType
1070
     4
1000
BYLAYER
1002
{
1002
}
1002
}
1000
FEMPN
1070
     9
1000
8
1002
{
1000
Class
1070
     4
1000
SYM
1002
{
1002
}
1000
Color
1070
     1
1070
     3
1002
{
1002
}
1000
LType
1070
     4
1000
BYLAYER
1002
{
1002
}
1002
}
1000
FEMSP
1070
     9
1000
4A
1002
{
1000
Class
1070
     4
1000

1002
{
1002
}
1000
Color
1070
     1
1070
   256
1002
{
1002
}
1000
LType
1070
     4
1000
CONTINUOUS
1002
{
1002
}
1002
}
1000
FEMST
1070
     9
1000
4A
1002
{
1000
Class
1070
     4
1000
SYM
1002
{
1002
}
1000
Color
1070
     1
1070
     3
1002
{
1002
}
1000
LType
1070
     4
1000
BYLAYER
1002
{
1002
}
1002
}
1000
FEMVN
1070
     9
1000
2
1002
{
1000
Class
1070
     4
1000
CON
1002
{
1002
}
1000
Color
1070
     1
1070
   256
1002
{
1002
}
1000
LType
1070
     4
1000
BYLAYER
1002
{
1002
}
1002
}
1000
FEMVT
1070
     9
1000
2
1002
{
1000
Class
1070
     4
1000
SYM
1002
{
1002
}
1000
Color
1070
     1
1070
     3
1002
{
1002
}
1000
LType
1070
     4
1000
BYLAYER
1002
{
1002
}
1002
}
1000
FLAT
1070
     9
1000
0
1002
{
1000
Class
1070
     4
1000

1002
{
1002
}
1000
Color
1070
     1
1070
   256
1002
{
1002
}
1000
LType
1070
     4
1000
BYLAYER
1002
{
1002
}
1002
}
1000
FRAR
1070
     9
1000
4A
1002
{
1000
Class
1070
     4
1000

1002
{
1002
}
1000
Color
1070
     1
1070
   256
1002
{
1002
}
1000
LType
1070
     4
1000
BYLAYER
1002
{
1002
}
1002
}
1000
GRLI
1070
     9
1000
5
1002
{
1000
Class
1070
     4
1000
SYM
1002
{
1002
}
1000
Color
1070
     1
1070
   256
1002
{
1002
}
1000
LType
1070
     4
1000
BYLAYER
1002
{
1002
}
1002
}
1000
GVLI
1070
     9
1000
4A
1002
{
1000
Class
1070
     4
1000

1002
{
1002
}
1000
Color
1070
     1
1070
   256
1002
{
1002
}
1000
LType
1070
     4
1000
BYLAYER
1002
{
1002
}
1002
}
1000
HATC
1070
     9
1000
8
1002
{
1000
Class
1070
     4
1000
HTC,BGD
1002
{
1002
}
1000
Color
1070
     1
1070
   256
1002
{
1002
}
1000
LType
1070
     4
1000
BYLAYER
1002
{
1002
}
1002
}
1000
HIDN
1070
     9
1000
3A
1002
{
1000
Class
1070
     4
1000
HID,BGD
1002
{
1002
}
1000
Color
1070
     1
1070
   256
1002
{
1002
}
1000
LType
1070
     4
1000
BYLAYER
1002
{
1002
}
1002
}
1000
HIDW
1070
     9
1000
3
1002
{
1000
Class
1070
     4
1000
HID,BGD
1002
{
1002
}
1000
Color
1070
     1
1070
   256
1002
{
1002
}
1000
LType
1070
     4
1000
BYLAYER
1002
{
1002
}
1002
}
1000
HLIN
1070
     9
1000
4
1002
{
1000
Class
1070
     4
1000
BGD
1002
{
1002
}
1000
Color
1070
     1
1070
   256
1002
{
1002
}
1000
LType
1070
     4
1000
BYLAYER
1002
{
1002
}
1002
}
1000
HOCN
1070
     9
1000
7A
1002
{
1000
Class
1070
     4
1000
CEN
1002
{
1002
}
1000
Color
1070
     1
1070
   256
1002
{
1002
}
1000
LType
1070
     4
1000
BYLAYER
1002
{
1002
}
1002
}
1000
HOCW
1070
     9
1000
7
1002
{
1000
Class
1070
     4
1000
CEN
1002
{
1002
}
1000
Color
1070
     1
1070
   256
1002
{
1002
}
1000
LType
1070
     4
1000
BYLAYER
1002
{
1002
}
1002
}
1000
INFO
1070
     9
1000
INFO
1002
{
1000
Class
1070
     4
1000
SPZ,SYM
1002
{
1002
}
1000
Color
1070
     1
1070
   256
1002
{
1002
}
1000
LType
1070
     4
1000
BYLAYER
1002
{
1002
}
1002
}
1000
LADI
1070
     9
1000
4
1002
{
1000
Class
1070
     4
1000
BGD
1002
{
1002
}
1000
Color
1070
     1
1070
   256
1002
{
1002
}
1000
LType
1070
     4
1000
BYLAYER
1002
{
1002
}
1002
}
1000
LEAD
1070
     9
1000
5
1002
{
1000
Class
1070
     4
1000
SYM
1002
{
1002
}
1000
Color
1070
     1
1070
   256
1002
{
1002
}
1000
LType
1070
     4
1000
BYLAYER
1002
{
1002
}
1002
}
1000
N_ADDL
1070
     9
1000
5N
1002
{
1000
Class
1070
     4
1000
SYM
1002
{
1002
}
1000
Color
1070
     1
1070
     1
1002
{
1002
}
1000
LType
1070
     4
1000
BYLAYER
1002
{
1002
}
1002
}
1000
N_BHNV
1070
     9
1000
9N
1002
{
1000
Class
1070
     4
1000
INV
1002
{
1002
}
1000
Color
1070
     1
1070
   256
1002
{
1002
}
1000
LType
1070
     4
1000
BYLAYER
1002
{
1002
}
1002
}
1000
N_CON1
1070
     9
1000
0N
1002
{
1000
Class
1070
     4
1000
CON,BGD
1002
{
1002
}
1000
Color
1070
     1
1070
   256
1002
{
1002
}
1000
LType
1070
     4
1000
BYLAYER
1002
{
1002
}
1002
}
1000
N_CON2
1070
     9
1000
1N
1002
{
1000
Class
1070
     4
1000
CON,BGD
1002
{
1002
}
1000
Color
1070
     1
1070
   256
1002
{
1002
}
1000
LType
1070
     4
1000
BYLAYER
1002
{
1002
}
1002
}
1000
N_CON3
1070
     9
1000
2N
1002
{
1000
Class
1070
     4
1000
CON,BGD
1002
{
1002
}
1000
Color
1070
     1
1070
   256
1002
{
1002
}
1000
LType
1070
     4
1000
BYLAYER
1002
{
1002
}
1002
}
1000
N_CON4
1070
     9
1000
2N
1002
{
1000
Class
1070
     4
1000
CON,BGD
1002
{
1002
}
1000
Color
1070
     1
1070
   256
1002
{
1002
}
1000
LType
1070
     4
1000
BYLAYER
1002
{
1002
}
1002
}
1000
N_CENN
1070
     9
1000
7AN
1002
{
1000
Class
1070
     4
1000
CEN
1002
{
1002
}
1000
Color
1070
     1
1070
   256
1002
{
1002
}
1000
LType
1070
     4
1000
BYLAYER
1002
{
1002
}
1002
}
1000
N_CENW
1070
     9
1000
7N
1002
{
1000
Class
1070
     4
1000
CEN
1002
{
1002
}
1000
Color
1070
     1
1070
   256
1002
{
1002
}
1000
LType
1070
     4
1000
BYLAYER
1002
{
1002
}
1002
}
1000
N_DILI
1070
     9
1000
5N
1002
{
1000
Class
1070
     4
1000
DIM,SYM
1002
{
1002
}
1000
Color
1070
     1
1070
   256
1002
{
1002
}
1000
LType
1070
     4
1000
BYLAYER
1002
{
1002
}
1002
}
1000
N_DITX
1070
     9
1000
5N
1002
{
1000
Class
1070
     4
1000
DIM,SYM
1002
{
1002
}
1000
Color
1070
     1
1070
     2
1002
{
1002
}
1000
LType
1070
     4
1000
CONTINUOUS
1002
{
1002
}
1002
}
1000
N_DIXL
1070
     9
1000
5N
1002
{
1000
Class
1070
     4
1000
DIM,SYM
1002
{
1002
}
1000
Color
1070
     1
1070
   256
1002
{
1002
}
1000
LType
1070
     4
1000
BYLAYER
1002
{
1002
}
1002
}
1000
N_HATC
1070
     9
1000
8N
1002
{
1000
Class
1070
     4
1000
HTC,BGD
1002
{
1002
}
1000
Color
1070
     1
1070
   256
1002
{
1002
}
1000
LType
1070
     4
1000
BYLAYER
1002
{
1002
}
1002
}
1000
N_HIDN
1070
     9
1000
3AN
1002
{
1000
Class
1070
     4
1000
HID,BGD
1002
{
1002
}
1000
Color
1070
     1
1070
   256
1002
{
1002
}
1000
LType
1070
     4
1000
BYLAYER
1002
{
1002
}
1002
}
1000
N_HIDW
1070
     9
1000
3N
1002
{
1000
Class
1070
     4
1000
HID,BGD
1002
{
1002
}
1000
Color
1070
     1
1070
   256
1002
{
1002
}
1000
LType
1070
     4
1000
BYLAYER
1002
{
1002
}
1002
}
1000
N_NGIP
1070
     9
1000
IPN
1002
{
1000
Class
1070
     4
1000

1002
{
1002
}
1000
Color
1070
     1
1070
   256
1002
{
1002
}
1000
LType
1070
     4
1000
BYLAYER
1002
{
1002
}
1002
}
1000
N_PHAN
1070
     9
1000
4AN
1002
{
1000
Class
1070
     4
1000

1002
{
1002
}
1000
Color
1070
     1
1070
   256
1002
{
1002
}
1000
LType
1070
     4
1000
BYLAYER
1002
{
1002
}
1002
}
1000
N_POSL
1070
     9
1000
5N
1002
{
1000
Class
1070
     4
1000
SYM
1002
{
1002
}
1000
Color
1070
     1
1070
   256
1002
{
1002
}
1000
LType
1070
     4
1000
BYLAYER
1002
{
1002
}
1002
}
1000
N_TCON
1070
     9
1000
0N
1002
{
1000
Class
1070
     4
1000
CON,BGD
1002
{
1002
}
1000
Color
1070
     1
1070
   256
1002
{
1002
}
1000
LType
1070
     4
1000
BYLAYER
1002
{
1002
}
1002
}
1000
N_THLI
1070
     9
1000
4N
1002
{
1000
Class
1070
     4
1000
BGD
1002
{
1002
}
1000
Color
1070
     1
1070
   256
1002
{
1002
}
1000
LType
1070
     4
1000
BYLAYER
1002
{
1002
}
1002
}
1000
N_TLEN
1070
     9
1000
0N
1002
{
1000
Class
1070
     4
1000
CON,BGD
1002
{
1002
}
1000
Color
1070
     1
1070
   256
1002
{
1002
}
1000
LType
1070
     4
1000
BYLAYER
1002
{
1002
}
1002
}
1000
N_TXT3
1070
     9
1000
6N
1002
{
1000
Class
1070
     4
1000
SYM
1002
{
1002
}
1000
Color
1070
     1
1070
   256
1002
{
1002
}
1000
LType
1070
     4
1000
BYLAYER
1002
{
1002
}
1002
}
1000
N_VPLI
1070
     9
1000
2AN
1002
{
1000
Class
1070
     4
1000

1002
{
1002
}
1000
Color
1070
     1
1070
   256
1002
{
1002
}
1000
LType
1070
     4
1000
BYLAYER
1002
{
1002
}
1002
}
1000
NGIP
1070
     9
1000
IP
1002
{
1000
Class
1070
     4
1000

1002
{
1002
}
1000
Color
1070
     1
1070
   256
1002
{
1002
}
1000
LType
1070
     4
1000
BYLAYER
1002
{
1002
}
1002
}
1000
PAL2
1070
     9
1000
RAHM2
1002
{
1000
Class
1070
     4
1000
SPZ,SYM
1002
{
1002
}
1000
Color
1070
     1
1070
   256
1002
{
1002
}
1000
LType
1070
     4
1000
BYLAYER
1002
{
1002
}
1002
}
1000
PAL3
1070
     9
1000
RAHM3
1002
{
1000
Class
1070
     4
1000
SPZ,SYM
1002
{
1002
}
1000
Color
1070
     1
1070
   256
1002
{
1002
}
1000
LType
1070
     4
1000
BYLAYER
1002
{
1002
}
1002
}
1000
PAL5
1070
     9
1000
RAHM5
1002
{
1000
Class
1070
     4
1000
SPZ,SYM
1002
{
1002
}
1000
Color
1070
     1
1070
   256
1002
{
1002
}
1000
LType
1070
     4
1000
BYLAYER
1002
{
1002
}
1002
}
1000
PAL7
1070
     9
1000
RAHM5
1002
{
1000
Class
1070
     4
1000
SPZ,SYM
1002
{
1002
}
1000
Color
1070
     1
1070
     7
1002
{
1002
}
1000
LType
1070
     4
1000
CONTINUOUS
1002
{
1002
}
1002
}
1000
PHAN
1070
     9
1000
4A
1002
{
1000
Class
1070
     4
1000

1002
{
1002
}
1000
Color
1070
     1
1070
   256
1002
{
1002
}
1000
LType
1070
     4
1000
BYLAYER
1002
{
1002
}
1002
}
1000
POSL
1070
     9
1000
5
1002
{
1000
Class
1070
     4
1000
SYM
1002
{
1002
}
1000
Color
1070
     1
1070
   256
1002
{
1002
}
1000
LType
1070
     4
1000
BYLAYER
1002
{
1002
}
1002
}
1000
POSN
1070
     9
1000
6
1002
{
1000
Class
1070
     4
1000
SYM
1002
{
1002
}
1000
Color
1070
     1
1070
     7
1002
{
1002
}
1000
LType
1070
     4
1000
BYLAYER
1002
{
1002
}
1002
}
1000
POSREF
1070
     9
1000
6
1002
{
1000
Class
1070
     4
1000
SYM
1002
{
1002
}
1000
Color
1070
     1
1070
     5
1002
{
1002
}
1000
LType
1070
     4
1000
BYLAYER
1002
{
1002
}
1002
}
1000
POSX
1070
     9
1000
5
1002
{
1000
Class
1070
     4
1000
SYM
1002
{
1002
}
1000
Color
1070
     1
1070
     2
1002
{
1002
}
1000
LType
1070
     4
1000
CONTINUOUS
1002
{
1002
}
1002
}
1000
PSEC
1070
     9
1000
4A
1002
{
1000
Class
1070
     4
1000

1002
{
1002
}
1000
Color
1070
     1
1070
   256
1002
{
1002
}
1000
LType
1070
     4
1000
BYLAYER
1002
{
1002
}
1002
}
1000
RCGN
1070
     9
1000
7A
1002
{
1000
Class
1070
     4
1000
CEN
1002
{
1002
}
1000
Color
1070
     1
1070
   256
1002
{
1002
}
1000
LType
1070
     4
1000
BYLAYER
1002
{
1002
}
1002
}
1000
RCGW
1070
     9
1000
7
1002
{
1000
Class
1070
     4
1000
CEN
1002
{
1002
}
1000
Color
1070
     1
1070
   256
1002
{
1002
}
1000
LType
1070
     4
1000
BYLAYER
1002
{
1002
}
1002
}
1000
RFDI
1070
     9
1000
4
1002
{
1000
Class
1070
     4
1000
BGD
1002
{
1002
}
1000
Color
1070
     1
1070
   256
1002
{
1002
}
1000
LType
1070
     4
1000
BYLAYER
1002
{
1002
}
1002
}
1000
RQTR
1070
     9
1000
4
1002
{
1000
Class
1070
     4
1000

1002
{
1002
}
1000
Color
1070
     1
1070
     7
1002
{
1002
}
1000
LType
1070
     4
1000
GEN7A
1002
{
1002
}
1002
}
1000
RSBO
1070
     9
1000
4
1002
{
1000
Class
1070
     4
1000
BGD
1002
{
1002
}
1000
Color
1070
     1
1070
   256
1002
{
1002
}
1000
LType
1070
     4
1000
BYLAYER
1002
{
1002
}
1002
}
1000
SBRK
1070
     9
1000
4
1002
{
1000
Class
1070
     4
1000
BGD
1002
{
1002
}
1000
Color
1070
     1
1070
   256
1002
{
1002
}
1000
LType
1070
     4
1000
BYLAYER
1002
{
1002
}
1002
}
1000
SCEN
1070
     9
1000
7
1002
{
1000
Class
1070
     4
1000

1002
{
1002
}
1000
Color
1070
     1
1070
   256
1002
{
1002
}
1000
LType
1070
     4
1000
CONTINUOUS
1002
{
1002
}
1002
}
1000
SECT
1070
     9
1000
4
1002
{
1000
Class
1070
     4
1000
BGD
1002
{
1002
}
1000
Color
1070
     1
1070
   256
1002
{
1002
}
1000
LType
1070
     4
1000
BYLAYER
1002
{
1002
}
1002
}
1000
SELN
1070
     9
1000
7A
1002
{
1000
Class
1070
     4
1000

1002
{
1002
}
1000
Color
1070
     1
1070
   256
1002
{
1002
}
1000
LType
1070
     4
1000
BYLAYER
1002
{
1002
}
1002
}
1000
SELW
1070
     9
1000
7
1002
{
1000
Class
1070
     4
1000

1002
{
1002
}
1000
Color
1070
     1
1070
   256
1002
{
1002
}
1000
LType
1070
     4
1000
BYLAYER
1002
{
1002
}
1002
}
1000
SSYS
1070
     9
1000
0
1002
{
1000
Class
1070
     4
1000

1002
{
1002
}
1000
Color
1070
     1
1070
   256
1002
{
1002
}
1000
LType
1070
     4
1000
BYLAYER
1002
{
1002
}
1002
}
1000
STLI
1070
     9
1000
4
1002
{
1000
Class
1070
     4
1000

1002
{
1002
}
1000
Color
1070
     1
1070
     7
1002
{
1002
}
1000
LType
1070
     4
1000
GEN3A
1002
{
1002
}
1002
}
1000
SYB1
1070
     9
1000
5
1002
{
1000
Class
1070
     4
1000
SYM
1002
{
1002
}
1000
Color
1070
     1
1070
   256
1002
{
1002
}
1000
LType
1070
     4
1000
BYLAYER
1002
{
1002
}
1002
}
1000
SYB2
1070
     9
1000
5
1002
{
1000
Class
1070
     4
1000
SYM
1002
{
1002
}
1000
Color
1070
     1
1070
   256
1002
{
1002
}
1000
LType
1070
     4
1000
BYLAYER
1002
{
1002
}
1002
}
1000
SYB3
1070
     9
1000
6
1002
{
1000
Class
1070
     4
1000
SYM
1002
{
1002
}
1000
Color
1070
     1
1070
   256
1002
{
1002
}
1000
LType
1070
     4
1000
CONTINUOUS
1002
{
1002
}
1002
}
1000
SYB5
1070
     9
1000
5
1002
{
1000
Class
1070
     4
1000
SYM
1002
{
1002
}
1000
Color
1070
     1
1070
     7
1002
{
1002
}
1000
LType
1070
     4
1000
BYLAYER
1002
{
1002
}
1002
}
1000
SYMN
1070
     9
1000
7A
1002
{
1000
Class
1070
     4
1000
CEN
1002
{
1002
}
1000
Color
1070
     1
1070
   256
1002
{
1002
}
1000
LType
1070
     4
1000
BYLAYER
1002
{
1002
}
1002
}
1000
SYMW
1070
     9
1000
7
1002
{
1000
Class
1070
     4
1000
CEN
1002
{
1002
}
1000
Color
1070
     1
1070
   256
1002
{
1002
}
1000
LType
1070
     4
1000
BYLAYER
1002
{
1002
}
1002
}
1000
TCON
1070
     9
1000
0
1002
{
1000
Class
1070
     4
1000
CON,BGD
1002
{
1002
}
1000
Color
1070
     1
1070
   256
1002
{
1002
}
1000
LType
1070
     4
1000
BYLAYER
1002
{
1002
}
1002
}
1000
THLI
1070
     9
1000
4
1002
{
1000
Class
1070
     4
1000
BGD
1002
{
1002
}
1000
Color
1070
     1
1070
   256
1002
{
1002
}
1000
LType
1070
     4
1000
BYLAYER
1002
{
1002
}
1002
}
1000
TIT2
1070
     9
1000
RAHM2
1002
{
1000
Class
1070
     4
1000
SPZ,SYM
1002
{
1002
}
1000
Color
1070
     1
1070
   256
1002
{
1002
}
1000
LType
1070
     4
1000
BYLAYER
1002
{
1002
}
1002
}
1000
TIT3
1070
     9
1000
RAHM3
1002
{
1000
Class
1070
     4
1000
SPZ,SYM
1002
{
1002
}
1000
Color
1070
     1
1070
   256
1002
{
1002
}
1000
LType
1070
     4
1000
BYLAYER
1002
{
1002
}
1002
}
1000
TIT5
1070
     9
1000
RAHM5
1002
{
1000
Class
1070
     4
1000
SPZ,SYM
1002
{
1002
}
1000
Color
1070
     1
1070
   256
1002
{
1002
}
1000
LType
1070
     4
1000
BYLAYER
1002
{
1002
}
1002
}
1000
TIT7
1070
     9
1000
RAHM5
1002
{
1000
Class
1070
     4
1000
SPZ,SYM
1002
{
1002
}
1000
Color
1070
     1
1070
     7
1002
{
1002
}
1000
LType
1070
     4
1000
CONTINUOUS
1002
{
1002
}
1002
}
1000
TLEN
1070
     9
1000
0
1002
{
1000
Class
1070
     4
1000
CON,BGD
1002
{
1002
}
1000
Color
1070
     1
1070
   256
1002
{
1002
}
1000
LType
1070
     4
1000
BYLAYER
1002
{
1002
}
1002
}
1000
TRKN
1070
     9
1000
7A
1002
{
1000
Class
1070
     4
1000

1002
{
1002
}
1000
Color
1070
     1
1070
   256
1002
{
1002
}
1000
LType
1070
     4
1000
BYLAYER
1002
{
1002
}
1002
}
1000
TRKW
1070
     9
1000
7
1002
{
1000
Class
1070
     4
1000

1002
{
1002
}
1000
Color
1070
     1
1070
   256
1002
{
1002
}
1000
LType
1070
     4
1000
BYLAYER
1002
{
1002
}
1002
}
1000
TRLI
1070
     9
1000
4
1002
{
1000
Class
1070
     4
1000
BGD
1002
{
1002
}
1000
Color
1070
     1
1070
   256
1002
{
1002
}
1000
LType
1070
     4
1000
BYLAYER
1002
{
1002
}
1002
}
1000
TXT1
1070
     9
1000
6
1002
{
1000
Class
1070
     4
1000
SYM
1002
{
1002
}
1000
Color
1070
     1
1070
     2
1002
{
1002
}
1000
LType
1070
     4
1000
BYLAYER
1002
{
1002
}
1002
}
1000
TXT2
1070
     9
1000
6
1002
{
1000
Class
1070
     4
1000
SYM
1002
{
1002
}
1000
Color
1070
     1
1070
     2
1002
{
1002
}
1000
LType
1070
     4
1000
BYLAYER
1002
{
1002
}
1002
}
1000
TXT3
1070
     9
1000
6
1002
{
1000
Class
1070
     4
1000
SYM
1002
{
1002
}
1000
Color
1070
     1
1070
   256
1002
{
1002
}
1000
LType
1070
     4
1000
BYLAYER
1002
{
1002
}
1002
}
1000
TXT5
1070
     9
1000
6
1002
{
1000
Class
1070
     4
1000
SYM
1002
{
1002
}
1000
Color
1070
     1
1070
     7
1002
{
1002
}
1000
LType
1070
     4
1000
BYLAYER
1002
{
1002
}
1002
}
1000
TXT7
1070
     9
1000
6
1002
{
1000
Class
1070
     4
1000
SYM
1002
{
1002
}
1000
Color
1070
     1
1070
     7
1002
{
1002
}
1000
LType
1070
     4
1000
BYLAYER
1002
{
1002
}
1002
}
1000
VIEW
1070
     9
1000
VIEW
1002
{
1000
Class
1070
     4
1000
SPZ
1002
{
1002
}
1000
Color
1070
     1
1070
   256
1002
{
1002
}
1000
LType
1070
     4
1000
BYLAYER
1002
{
1002
}
1002
}
1000
VPLI
1070
     9
1000
2A
1002
{
1000
Class
1070
     4
1000

1002
{
1002
}
1000
Color
1070
     1
1070
   256
1002
{
1002
}
1000
LType
1070
     4
1000
BYLAYER
1002
{
1002
}
1002
}
1000
ZIZA
1070
     9
1000
4
1002
{
1000
Class
1070
     4
1000
BGD
1002
{
1002
}
1000
Color
1070
     1
1070
   256
1002
{
1002
}
1000
LType
1070
     4
1000
GENZIGZAG
1002
{
1002
}
1002
}
  0
APPID
  5
1FC
330
14
100
AcDbSymbolTableRecord
100
AcDbRegAppTableRecord
  2
GENIUS_GENCFG4_13
 70
     0
1001
GENIUS_GENCFG_13
1071
947067597
1000
1FC
1000
GEN
1070
     9
1000
GenCfgObject
1000
GenCfgShort
1000
GenCfgReal
1000
GenCfgBool
1000
GenCfgString
1000
GenCfgDim
1000
GenCfgLaySection
1000
GenCfgLType
1000
GenCfgFilter
1000
Balloon
1070
     0
1002
{
1000
GenIF
1070
     1
1070
     0
1002
{
1002
}
1000
GenPosInc
1070
     1
1070
     1
1002
{
1002
}
1000
GenPosBlk
1070
     1
1070
     8
1002
{
1002
}
1000
GenPosVar
1070
     1
1070
     0
1002
{
1002
}
1000
GenZiCir
1070
     2
1040
1.5
1002
{
1002
}
1000
MaxCharForCenteredText
1070
     1
1070
    30
1002
{
1002
}
1000
Snap
1070
     0
1002
{
1000
ActivationRadius
1070
     2
1040
1.0
1002
{
1002
}
1000
M
1070
     0
1002
{
1000
SnapStepX
1070
     2
1040
20.0
1002
{
1002
}
1000
SnapStepY
1070
     2
1040
10.0
1002
{
1002
}
1002
}
1000
I
1070
     0
1002
{
1000
SnapStepX
1070
     2
1040
1.0
1002
{
1002
}
1000
SnapStepY
1070
     2
1040
0.5
1002
{
1002
}
1002
}
1002
}
1002
}
1000
Centerline
1070
     0
1002
{
1000
ScaleNot
1070
     3
1070
     0
1002
{
1002
}
1000
M
1070
     0
1002
{
1000
GenCenAng
1070
     4
1000
45|90|135
1002
{
1002
}
1000
GenCenDia
1070
     2
1040
10.0
1002
{
1002
}
1000
GenCenDias
1070
     4
1000
10|20|30
1002
{
1002
}
1000
GenCenDist
1070
     2
1040
3.0
1002
{
1002
}
1000
GenCenLen
1070
     2
1040
10.0
1002
{
1002
}
1000
GenCenOff
1070
     2
1040
10.0
1002
{
1002
}
1002
}
1000
I
1070
     0
1002
{
1000
GenCenAng
1070
     4
1000
45|90|135
1002
{
1002
}
1000
GenCenDia
1070
     2
1040
0.5
1002
{
1002
}
1000
GenCenDias
1070
     4
1000
0.5|1.0|1.5
1002
{
1002
}
1000
GenCenDist
1070
     2
1040
0.125
1002
{
1002
}
1000
GenCenLen
1070
     2
1040
0.5
1002
{
1002
}
1000
GenCenOff
1070
     2
1040
0.5
1002
{
1002
}
1002
}
1002
}
1000
CLine
1070
     0
1002
{
1000
CAngArray
1070
     4
1000
30|45|60
1002
{
1002
}
1000
Typ
1070
     4
1000
XLINE
1002
{
1002
}
1000
M
1070
     0
1002
{
1000
CLinArray
1070
     4
1000
5
1002
{
1002
}
1002
}
1000
I
1070
     0
1002
{
1000
CLinArray
1070
     4
1000
0.125|0.25|0.5
1002
{
1002
}
1002
}
1002
}
1000
Detail
1070
     0
1002
{
1002
}
1000
Dimension
1070
     5
1002
{
1000
DIMALT
1070
     1
1070
     0
1002
{
1002
}
1000
DIMALTD
1070
     1
1070
     2
1002
{
1002
}
1000
DIMALTTD
1070
     1
1070
     4
1002
{
1002
}
1000
DIMALTTZ
1070
     1
1070
     0
1002
{
1002
}
1000
DIMALTU
1070
     1
1070
     2
1002
{
1002
}
1000
DIMALTZ
1070
     1
1070
     0
1002
{
1002
}
1000
DIMAUNIT
1070
     1
1070
     0
1002
{
1002
}
1000
DIMBLK
1070
     4
1000

1002
{
1002
}
1000
DIMBLK1
1070
     4
1000

1002
{
1002
}
1000
DIMBLK2
1070
     4
1000

1002
{
1002
}
1000
DIMCLRD
1070
     1
1070
   256
1002
{
1002
}
1000
DIMCLRE
1070
     1
1070
   256
1002
{
1002
}
1000
DIMCLRT
1070
     1
1070
     7
1002
{
1002
}
1000
DIMDLE
1070
     2
1040
0.0
1002
{
1002
}
1000
DIMFIT
1070
     1
1070
     3
1002
{
1002
}
1000
DIMJUST
1070
     1
1070
     0
1002
{
1002
}
1000
DIMLFAC
1070
     2
1040
1.0
1002
{
1002
}
1000
DIMLIM
1070
     1
1070
     0
1002
{
1002
}
1000
DIMPOST
1070
     4
1000
<>
1002
{
1002
}
1000
DIMRND
1070
     2
1040
0.0
1002
{
1002
}
1000
DIMSAH
1070
     1
1070
     0
1002
{
1002
}
1000
DIMSCALE
1070
     2
1040
1.0
1002
{
1002
}
1000
DIMSD1
1070
     1
1070
     0
1002
{
1002
}
1000
DIMSD2
1070
     1
1070
     0
1002
{
1002
}
1000
DIMSE1
1070
     1
1070
     0
1002
{
1002
}
1000
DIMSE2
1070
     1
1070
     0
1002
{
1002
}
1000
DIMSOXD
1070
     1
1070
     0
1002
{
1002
}
1000
DIMTAD
1070
     1
1070
     0
1002
{
1002
}
1000
DIMTFAC
1070
     2
1040
0.71
1002
{
1002
}
1000
DIMTIH
1070
     1
1070
     0
1002
{
1002
}
1000
DIMTIX
1070
     1
1070
     0
1002
{
1002
}
1000
DIMTM
1070
     2
1040
0.1
1002
{
1002
}
1000
DIMTOFL
1070
     1
1070
     0
1002
{
1002
}
1000
DIMTOH
1070
     1
1070
     0
1002
{
1002
}
1000
DIMTOL
1070
     1
1070
     0
1002
{
1002
}
1000
DIMTOLJ
1070
     1
1070
     1
1002
{
1002
}
1000
DIMTP
1070
     2
1040
0.1
1002
{
1002
}
1000
DIMTSZ
1070
     2
1040
0.0
1002
{
1002
}
1000
DIMTVP
1070
     2
1040
0.0
1002
{
1002
}
1000
DIMTXSTY
1070
     4
1000
ROMANS
1002
{
1002
}
1000
DIMTZIN
1070
     1
1070
     0
1002
{
1002
}
1000
DIMUNIT
1070
     1
1070
     2
1002
{
1002
}
1000
DIMUPT
1070
     1
1070
     0
1002
{
1002
}
1000
M
1070
     0
1002
{
1000
DIMALTF
1070
     2
1040
0.0393701
1002
{
1002
}
1000
DIMAPOST
1070
     4
1000
"
1002
{
1002
}
1000
DIMASZ
1070
     2
1040
1.5
1002
{
1002
}
1000
DIMCEN
1070
     2
1040
0.0
1002
{
1002
}
1000
DIMDEC
1070
     1
1070
     2
1002
{
1002
}
1000
DIMDLI
1070
     2
1040
10.0
1002
{
1002
}
1000
DIMEXE
1070
     2
1040
1.0
1002
{
1002
}
1000
DIMEXO
1070
     2
1040
1.0
1002
{
1002
}
1000
DIMGAP
1070
     2
1040
0.6
1002
{
1002
}
1000
DIMTDEC
1070
     1
1070
     3
1002
{
1002
}
1000
DIMTXT
1070
     2
1040
1.0
1002
{
1002
}
1000
DIMZIN
1070
     1
1070
     8
1002
{
1002
}
1002
}
1000
I
1070
     0
1002
{
1000
DIMALTF
1070
     2
1040
25.4
1002
{
1002
}
1000
DIMAPOST
1070
     4
1000
mm
1002
{
1002
}
1000
DIMASZ
1070
     2
1040
0.1
1002
{
1002
}
1000
DIMCEN
1070
     2
1040
0.0
1002
{
1002
}
1000
DIMDEC
1070
     1
1070
     4
1002
{
1002
}
1000
DIMDLI
1070
     2
1040
0.5
1002
{
1002
}
1000
DIMEXE
1070
     2
1040
0.1
1002
{
1002
}
1000
DIMEXO
1070
     2
1040
0.05
1002
{
1002
}
1000
DIMGAP
1070
     2
1040
0.06
1002
{
1002
}
1000
DIMTDEC
1070
     1
1070
     4
1002
{
1002
}
1000
DIMTXT
1070
     2
1040
0.12
1002
{
1002
}
1000
DIMZIN
1070
     1
1070
     7
1002
{
1002
}
1002
}
1000
GEN-ISO
1070
     5
1002
{
1000
NAME
1070
     4
1000
GEN-ISO
1002
{
1002
}
1000
DIMTAD
1070
     1
1070
     1
1002
{
1002
}
1000
DIMTOLJ
1070
     1
1070
     0
1002
{
1002
}
1000
DIMTOFL
1070
     1
1070
     1
1002
{
1002
}
1000
M
1070
     0
1002
{
1002
}
1000
I
1070
     0
1002
{
1002
}
1002
}
1000
GEN-ISO-POS
1070
     5
1002
{
1000
NAME
1070
     4
1000
GEN-ISO-POS
1002
{
1002
}
1000
DIMTOLJ
1070
     1
1070
     0
1002
{
1002
}
1000
DIMTXSTY
1070
     4
1000
STANDARD
1002
{
1002
}
1000
M
1070
     0
1002
{
1000
DIMASZ
1070
     2
1040
2.5
1002
{
1002
}
1000
DIMGAP
1070
     2
1040
1.5
1002
{
1002
}
1000
DIMTXT
1070
     2
1040
5.0
1002
{
1002
}
1002
}
1000
I
1070
     0
1002
{
1000
DIMASZ
1070
     2
1040
0.1
1002
{
1002
}
1000
DIMGAP
1070
     2
1040
0.06
1002
{
1002
}
1000
DIMTXT
1070
     2
1040
0.2
1002
{
1002
}
1002
}
1002
}
1000
GEN-ISO-CIR
1070
     5
1002
{
1000
NAME
1070
     4
1000
GEN-ISO$3
1002
{
1002
}
1000
DIMFIT
1070
     1
1070
     0
1002
{
1002
}
1000
DIMTAD
1070
     1
1070
     1
1002
{
1002
}
1000
DIMTIH
1070
     1
1070
     0
1002
{
1002
}
1000
DIMTIX
1070
     1
1070
     0
1002
{
1002
}
1000
DIMTOH
1070
     1
1070
     1
1002
{
1002
}
1000
DIMTOLJ
1070
     1
1070
     0
1002
{
1002
}
1000
DIMTOFL
1070
     1
1070
     0
1002
{
1002
}
1000
DIMUPT
1070
     1
1070
     1
1002
{
1002
}
1000
M
1070
     0
1002
{
1002
}
1000
I
1070
     0
1002
{
1002
}
1002
}
1000
GEN-ISO-RAD
1070
     5
1002
{
1000
NAME
1070
     4
1000
GEN-ISO$4
1002
{
1002
}
1000
DIMFIT
1070
     1
1070
     0
1002
{
1002
}
1000
DIMTAD
1070
     1
1070
     1
1002
{
1002
}
1000
DIMTIH
1070
     1
1070
     0
1002
{
1002
}
1000
DIMTIX
1070
     1
1070
     0
1002
{
1002
}
1000
DIMTOH
1070
     1
1070
     1
1002
{
1002
}
1000
DIMTOLJ
1070
     1
1070
     0
1002
{
1002
}
1000
DIMTOFL
1070
     1
1070
     0
1002
{
1002
}
1000
DIMUPT
1070
     1
1070
     1
1002
{
1002
}
1000
M
1070
     0
1002
{
1002
}
1000
I
1070
     0
1002
{
1002
}
1002
}
1000
GEN-ISO-ORD
1070
     5
1002
{
1000
NAME
1070
     4
1000
GEN-ISO$6
1002
{
1002
}
1000
DIMTOLJ
1070
     1
1070
     0
1002
{
1002
}
1000
M
1070
     0
1002
{
1002
}
1000
I
1070
     0
1002
{
1002
}
1002
}
1000
GEN-ISO-AXE-F
1070
     5
1002
{
1000
NAME
1070
     4
1000
GEN-ISO-AXE-F
1002
{
1002
}
1000
DIMSE1
1070
     1
1070
     1
1002
{
1002
}
1000
DIMSE2
1070
     1
1070
     1
1002
{
1002
}
1000
DIMTAD
1070
     1
1070
     1
1002
{
1002
}
1000
DIMTOLJ
1070
     1
1070
     0
1002
{
1002
}
1000
DIMTOFL
1070
     1
1070
     1
1002
{
1002
}
1000
M
1070
     0
1002
{
1002
}
1000
I
1070
     0
1002
{
1002
}
1002
}
1000
GEN-ISO-AXE-H
1070
     5
1002
{
1000
NAME
1070
     4
1000
GEN-ISO-AXE-H
1002
{
1002
}
1000
DIMBLK1
1070
     4
1000
GENAXEH
1002
{
1002
}
1000
DIMLFAC
1070
     2
1040
2.0
1002
{
1002
}
1000
DIMSAH
1070
     1
1070
     1
1002
{
1002
}
1000
DIMSE1
1070
     1
1070
     1
1002
{
1002
}
1000
DIMSE2
1070
     1
1070
     1
1002
{
1002
}
1000
DIMTAD
1070
     1
1070
     1
1002
{
1002
}
1000
DIMTOLJ
1070
     1
1070
     0
1002
{
1002
}
1000
DIMTOFL
1070
     1
1070
     1
1002
{
1002
}
1000
M
1070
     0
1002
{
1002
}
1000
I
1070
     0
1002
{
1002
}
1002
}
1000
GEN-ANSI
1070
     5
1002
{
1000
NAME
1070
     4
1000
GEN-ANSI
1002
{
1002
}
1000
DIMTIH
1070
     1
1070
     1
1002
{
1002
}
1000
DIMTOH
1070
     1
1070
     1
1002
{
1002
}
1000
DIMTAD
1070
     1
1070
     0
1002
{
1002
}
1000
DIMTOLJ
1070
     1
1070
     1
1002
{
1002
}
1000
M
1070
     0
1002
{
1002
}
1000
I
1070
     0
1002
{
1002
}
1002
}
1000
GEN-ANSI-POS
1070
     5
1002
{
1000
NAME
1070
     4
1000
GEN-ANSI-POS
1002
{
1002
}
1000
DIMTOLJ
1070
     1
1070
     1
1002
{
1002
}
1000
DIMTXSTY
1070
     4
1000
STANDARD
1002
{
1002
}
1000
M
1070
     0
1002
{
1000
DIMASZ
1070
     2
1040
2.5
1002
{
1002
}
1000
DIMGAP
1070
     2
1040
1.5
1002
{
1002
}
1000
DIMTXT
1070
     2
1040
5.0
1002
{
1002
}
1002
}
1000
I
1070
     0
1002
{
1000
DIMASZ
1070
     2
1040
0.1
1002
{
1002
}
1000
DIMGAP
1070
     2
1040
0.06
1002
{
1002
}
1000
DIMTXT
1070
     2
1040
0.2
1002
{
1002
}
1002
}
1002
}
1000
GEN-ANSI-CIR
1070
     5
1002
{
1000
NAME
1070
     4
1000
GEN-ANSI$3
1002
{
1002
}
1000
DIMFIT
1070
     1
1070
     0
1002
{
1002
}
1000
DIMTAD
1070
     1
1070
     0
1002
{
1002
}
1000
DIMTIH
1070
     1
1070
     1
1002
{
1002
}
1000
DIMTIX
1070
     1
1070
     0
1002
{
1002
}
1000
DIMTOFL
1070
     1
1070
     0
1002
{
1002
}
1000
DIMTOH
1070
     1
1070
     1
1002
{
1002
}
1000
DIMTOLJ
1070
     1
1070
     1
1002
{
1002
}
1000
DIMUPT
1070
     1
1070
     1
1002
{
1002
}
1000
M
1070
     0
1002
{
1002
}
1000
I
1070
     0
1002
{
1002
}
1002
}
1000
GEN-ANSI-RAD
1070
     5
1002
{
1000
NAME
1070
     4
1000
GEN-ANSI$4
1002
{
1002
}
1000
DIMFIT
1070
     1
1070
     0
1002
{
1002
}
1000
DIMTAD
1070
     1
1070
     0
1002
{
1002
}
1000
DIMTIH
1070
     1
1070
     1
1002
{
1002
}
1000
DIMTIX
1070
     1
1070
     0
1002
{
1002
}
1000
DIMTOFL
1070
     1
1070
     0
1002
{
1002
}
1000
DIMTOH
1070
     1
1070
     1
1002
{
1002
}
1000
DIMTOLJ
1070
     1
1070
     1
1002
{
1002
}
1000
DIMUPT
1070
     1
1070
     1
1002
{
1002
}
1000
M
1070
     0
1002
{
1002
}
1000
I
1070
     0
1002
{
1002
}
1002
}
1000
GEN-ANSI-ORD
1070
     5
1002
{
1000
NAME
1070
     4
1000
GEN-ANSI$6
1002
{
1002
}
1000
DIMTAD
1070
     1
1070
     0
1002
{
1002
}
1000
DIMTIH
1070
     1
1070
     1
1002
{
1002
}
1000
DIMTOH
1070
     1
1070
     1
1002
{
1002
}
1000
DIMTOLJ
1070
     1
1070
     1
1002
{
1002
}
1000
M
1070
     0
1002
{
1002
}
1000
I
1070
     0
1002
{
1002
}
1002
}
1000
GEN-ANSI-AXE-F
1070
     5
1002
{
1000
NAME
1070
     4
1000
GEN-ANSI-AXE-F
1002
{
1002
}
1000
DIMBLK1
1070
     4
1000
GENAXEH
1002
{
1002
}
1000
DIMSAH
1070
     1
1070
     1
1002
{
1002
}
1000
DIMSE1
1070
     1
1070
     1
1002
{
1002
}
1000
DIMSE2
1070
     1
1070
     1
1002
{
1002
}
1000
DIMTAD
1070
     1
1070
     0
1002
{
1002
}
1000
DIMTIH
1070
     1
1070
     1
1002
{
1002
}
1000
DIMTOH
1070
     1
1070
     1
1002
{
1002
}
1000
DIMTOLJ
1070
     1
1070
     1
1002
{
1002
}
1000
M
1070
     0
1002
{
1002
}
1000
I
1070
     0
1002
{
1002
}
1002
}
1000
GEN-ANSI-AXE-H
1070
     5
1002
{
1000
NAME
1070
     4
1000
GEN-ANSI-AXE-H
1002
{
1002
}
1000
DIMBLK1
1070
     4
1000
GENAXEH
1002
{
1002
}
1000
DIMLFAC
1070
     2
1040
2.0
1002
{
1002
}
1000
DIMSAH
1070
     1
1070
     1
1002
{
1002
}
1000
DIMSE1
1070
     1
1070
     1
1002
{
1002
}
1000
DIMSE2
1070
     1
1070
     1
1002
{
1002
}
1000
DIMTAD
1070
     1
1070
     0
1002
{
1002
}
1000
DIMTOFL
1070
     1
1070
     1
1002
{
1002
}
1000
DIMTOLJ
1070
     1
1070
     1
1002
{
1002
}
1000
M
1070
     0
1002
{
1002
}
1000
I
1070
     0
1002
{
1002
}
1002
}
1002
}
1000
DimSet
1070
     0
1002
{
1000
ChainSum
1070
     3
1070
     0
1002
{
1002
}
1000
DimDclTyp0
1070
     4
1000
dim23
1002
{
1002
}
1000
HorBra
1070
     3
1070
     0
1002
{
1002
}
1000
StrDia
1070
     4
1000
%%c<>
1002
{
1002
}
1000
StrRad
1070
     4
1000
R<>
1002
{
1002
}
1000
TextMinus
1070
     4
1000
<>
1002
{
1002
}
1000
TextPlus
1070
     4
1000
<>
1002
{
1002
}
1000
M
1070
     0
1002
{
1000
DimdliFirst
1070
     2
1040
12.0
1002
{
1002
}
1000
PointMakeDist
1070
     2
1040
10.0
1002
{
1002
}
1002
}
1000
I
1070
     0
1002
{
1000
DimdliFirst
1070
     2
1040
0.5
1002
{
1002
}
1000
PointMakeDist
1070
     2
1040
0.5
1002
{
1002
}
1002
}
1002
}
1000
Drawing
1070
     0
1002
{
1000
ChamferDimMode
1070
     1
1070
     2
1002
{
1002
}
1000
Gen_Fiso
1070
    -3
1040
1.0
1002
{
1002
}
1000
GenDimStil
1070
     4
1000
ISO
1002
{
1002
}
1000
GenDwgUScale
1070
     2
1040
1.0
1002
{
1002
}
1000
GenInch
1070
     4
1000
M
1002
{
1002
}
1000
GenPlotScale
1070
     4
1000
1:1
1002
{
1002
}
1000
Revisi
1070
     4
1000
0
1002
{
1002
}
1000
Version
1070
    -5
1000
14.01/May 26 1998
1002
{
1002
}
1000
Platform
1070
    -5
1000
WIN
1002
{
1002
}
1002
}
1000
DwgVar
1070
     0
1002
{
1000
M
1070
     0
1002
{
1002
}
1000
I
1070
     0
1002
{
1002
}
1002
}
1000
Hatch
1070
     0
1002
{
1000
GenHtcFlag
1070
     3
1070
     1
1002
{
1002
}
1002
}
1000
Info_Pos
1070
     0
1002
{
1000
>
1002
}
1000
Layer
1070
     6
1002
{
1000
Defs
1070
     0
1002
{
1000
>
1002
}
1000
EntSort
1070
     0
1002
{
1000
>
1002
}
1000
Match
1070
     0
1002
{
1002
}
1000
Settings
1070
     0
1002
{
1000
FocGrNC
1070
     3
1070
     0
1002
{
1002
}
1000
FocGrLo
1070
     3
1070
     0
1002
{
1002
}
1000
FocLoNC
1070
     3
1070
     0
1002
{
1002
}
1000
FocusCol
1070
     1
1070
   253
1002
{
1002
}
1000
GenStdLG
1070
     4
1000

1002
{
1002
}
1000
LayMatch
1070
     3
1070
     0
1002
{
1002
}
1000
LgOff
1070
     3
1070
     0
1002
{
1002
}
1000
CurLG
1070
    -5
1000

1002
{
1002
}
1002
}
1002
}
1000
LType
1070
     0
1002
{
1000
GEN3
1070
     7
1000
genius.lin
1002
{
1002
}
1000
GEN7
1070
     7
1000
genius.lin
1002
{
1002
}
1000
GEN4A
1070
     7
1000
genius.lin
1002
{
1002
}
1000
GEN3A
1070
     7
1000
genius.lin
1002
{
1002
}
1000
GEN7A
1070
     7
1000
genius.lin
1002
{
1002
}
1000
GENZIGZAG
1070
     7
1000
genius.lin
1002
{
1002
}
1002
}
1000
Objecter
1070
     0
1002
{
1000
CreateGroups
1070
     3
1070
     0
1002
{
1002
}
1000
LaySwitch
1070
     3
1070
     1
1002
{
1002
}
1000
LastObj
1070
    -5
1000
1EB
1002
{
1002
}
1000
TimeStamp
1070
    -5
1000
20000105.10564591
1002
{
1002
}
1002
}
1000
OSWiz
1070
     0
1002
{
1000
Filter
1070
     0
1002
{
1000
HATCH
1070
     8
1002
{
1000
EntityType
1070
     4
1000
LINE
1002
{
1002
}
1000
Layer
1070
     4
1000
8,8N,*-8,*-8N
1002
{
1002
}
1000
Linetype
1070
     4
1000
*
1002
{
1002
}
1000
Color
1070
     4
1000
*
1002
{
1002
}
1000
ApplyInDims
1070
     3
1070
     1
1002
{
1002
}
1002
}
1000
SYMBOLS
1070
     8
1002
{
1000
EntityType
1070
     4
1000
*
1002
{
1002
}
1000
Layer
1070
     4
1000
[5-6],[5-6]N,*-[5-6],*-[5-6]N
1002
{
1002
}
1000
Linetype
1070
     4
1000
*
1002
{
1002
}
1000
Color
1070
     4
1000
*
1002
{
1002
}
1000
ApplyInDims
1070
     3
1070
     1
1002
{
1002
}
1002
}
1000
FEM
1070
     8
1002
{
1000
EntityType
1070
     4
1000
*
1002
{
1002
}
1000
Layer
1070
     4
1000
4A,4AN,*-4A,*-4AN
1002
{
1002
}
1000
Linetype
1070
     4
1000
*
1002
{
1002
}
1000
Color
1070
     4
1000
*
1002
{
1002
}
1000
ApplyInDims
1070
     3
1070
     1
1002
{
1002
}
1002
}
1002
}
1002
}
1000
PaList
1070
     0
1002
{
1000
AutoUpdatePartList
1070
     1
1070
     0
1002
{
1002
}
1000
ReadInfoPoint
1070
     3
1070
     0
1002
{
1002
}
1000
ReadPosNr
1070
     3
1070
     1
1002
{
1002
}
1000
RevStr
1070
     4
1000
0
1002
{
1002
}
1002
}
1000
Paper
1070
     0
1002
{
1000
Layer
1070
    -5
1000
KLIN,KLIN,KLIN,KLIN,KLIN,4
1002
{
1002
}
1002
}
1000
PartDB
1070
     0
1002
{
1000
GenDbOwner
1070
     4
1000

1002
{
1002
}
1002
}
1000
System
1070
     0
1002
{
1000
Menu
1070
     4
1000
GEV
1002
{
1002
}
1000
GenGlobCheck
1070
     1
1070
     7
1002
{
1002
}
1002
}
1000
Title
1070
     0
1002
{
1000
MakeView
1070
     1
1070
     2
1002
{
1002
}
1002
}
1000
Tools
1070
     0
1002
{
1000
Trans
1070
     0
1002
{
1000
Drawingtranslation
1070
    -4
1070
     1
1002
{
1002
}
1000
upreserve
1070
     3
1070
     0
1002
{
1002
}
1000
originally_on
1070
    -4
1070
     0
1002
{
1002
}
1000
sourcelang
1070
    -5
1000
I
1002
{
1002
}
1002
}
1002
}
  0
APPID
  5
1FD
330
14
100
AcDbSymbolTableRecord
100
AcDbRegAppTableRecord
  2
GENIUS_GEVCFG0_13
 70
     0
1001
GENIUS_GENCFG_13
1071
947066216
1000
1FD
1000
GEV
1070
     1
1000
GenCfgObject
1000
VED
1070
     0
1002
{
1002
}
  0
APPID
  5
943
330
14
100
AcDbSymbolTableRecord
100
AcDbRegAppTableRecord
  2
ASM_BASE
 70
     0
  0
APPID
  5
944
330
14
100
AcDbSymbolTableRecord
100
AcDbRegAppTableRecord
  2
ASM_EXPLO_VER_2_00
 70
     0
  0
APPID
  5
945
330
14
100
AcDbSymbolTableRecord
100
AcDbRegAppTableRecord
  2
ASM_CADM_VER_12_00
 70
     0
  0
APPID
  5
946
330
14
100
AcDbSymbolTableRecord
100
AcDbRegAppTableRecord
  2
ASM_BASEFORO
 70
     0
  0
APPID
  5
947
330
14
100
AcDbSymbolTableRecord
100
AcDbRegAppTableRecord
  2
ASM_BASETRAVI
 70
     0
  0
APPID
  5
948
330
14
100
AcDbSymbolTableRecord
100
AcDbRegAppTableRecord
  2
ASM_BASETRAVI1
 70
     0
  0
APPID
  5
949
330
14
100
AcDbSymbolTableRecord
100
AcDbRegAppTableRecord
  2
ASM_GRUPPI
 70
     0
  0
APPID
  5
94A
330
14
100
AcDbSymbolTableRecord
100
AcDbRegAppTableRecord
  2
ASM_CADM_ALBERO
 70
     0
  0
APPID
  5
94B
330
14
100
AcDbSymbolTableRecord
100
AcDbRegAppTableRecord
  2
ASM_GOLE
 70
     0
  0
APPID
  5
94C
330
14
100
AcDbSymbolTableRecord
100
AcDbRegAppTableRecord
  2
GENIUS_DUMCFG0_13
 70
     0
  0
APPID
  5
94D
330
14
100
AcDbSymbolTableRecord
100
AcDbRegAppTableRecord
  2
GENIUS_GEFCFG0_13
 70
     0
1001
GENIUS_GENCFG_13
1071
947066216
1000
94D
1000
GEF
1070
     5
1000
GenCfgObject
1000
GenCfgString
1000
GenCfgReal
1000
GenCfgShort
1000
GenCfgBool
1000
System
1070
     0
1002
{
1002
}
1000
Prese
1070
     0
1002
{
1000
Funk
1070
     1
1000

1002
{
1002
}
1000
FunkDef
1070
     1
1000

1002
{
1002
}
1000
GefIso
1070
     1
1000
DIN
1002
{
1002
}
1002
}
1000
FEM
1070
     0
1002
{
1000
LayGroup
1070
     1
1000
FEM
1002
{
1002
}
1000
IncrCoef
1070
     2
1040
0.0
1002
{
1002
}
1002
}
1000
Shaft
1070
     0
1002
{
1000
Interrupt
1070
     3
1070
     0
1002
{
1002
}
1002
}
1000
PartDb
1070
     0
1002
{
1000
PartCreate
1070
     0
1002
{
1002
}
1000
SCP
1070
     0
1002
{
1002
}
1000
Symbol
1070
     0
1002
{
1002
}
1002
}
1000
Symbol
1070
     0
1002
{
1000
WeldStyle
1070
     1
1000
ISO
1002
{
1002
}
1000
WeldSize
1070
     2
1040
1.0
1002
{
1002
}
1000
WeldFlag
1070
     4
1070
     1
1002
{
1002
}
1000
WeldOffset
1070
     4
1070
     1
1002
{
1002
}
1000
TolCType
1070
     1
1000
ISO
1002
{
1002
}
1000
TolCSize
1070
     2
1040
1.0
1002
{
1002
}
1000
STextureSize
1070
     2
1040
1.0
1002
{
1002
}
1000
SurfaceType
1070
     1
1000

1002
{
1002
}
1000
M
1070
     0
1002
{
1000
WeldWidth
1070
     2
1040
3.0
1002
{
1002
}
1002
}
1000
I
1070
     0
1002
{
1000
WeldWidth
1070
     2
1040
0.125
1002
{
1002
}
1002
}
1002
}
  0
APPID
  5
CC4
330
14
100
AcDbSymbolTableRecord
100
AcDbRegAppTableRecord
  2
GENIUS_GENOBJ-N-HTC_13
 70
     0
  0
APPID
  5
CC5
330
14
100
AcDbSymbolTableRecord
100
AcDbRegAppTableRecord
  2
GENIUS_GENHATCH_13
 70
     0
  0
APPID
  5
DCA
330
14
100
AcDbSymbolTableRecord
100
AcDbRegAppTableRecord
  2
GENIUS_GENZVEED_13
 70
     0
  0
APPID
  5
1764
330
14
100
AcDbSymbolTableRecord
100
AcDbRegAppTableRecord
  2
GEV_VCCNULL_SWITCH_OFF
 70
     0
  0
APPID
  5
2D5B
330
14
100
AcDbSymbolTableRecord
100
AcDbRegAppTableRecord
  2
GENIUS_GENOBJ-N-CEN_13
 70
     0
  0
APPID
  5
2D5C
330
14
100
AcDbSymbolTableRecord
100
AcDbRegAppTableRecord
  2
GENIUS_GENOBJ-F-SUF_13
 70
     0
  0
APPID
  5
2D5D
330
14
100
AcDbSymbolTableRecord
100
AcDbRegAppTableRecord
  2
GENIUS_GENOBJ-F-SUL_13
 70
     0
  0
APPID
  5
343B
330
14
100
AcDbSymbolTableRecord
100
AcDbRegAppTableRecord
  2
GENIUS_GENOBJ-N-FIL_13
 70
     0
  0
APPID
  5
384C
330
14
100
AcDbSymbolTableRecord
100
AcDbRegAppTableRecord
  2
GENIUS_GENDREL_13
 70
     0
  0
APPID
  5
667E
330
14
100
AcDbSymbolTableRecord
100
AcDbRegAppTableRecord
  2
ASM_EXPLO_PROJECT
 70
     0
  0
APPID
  5
667F
330
14
100
AcDbSymbolTableRecord
100
AcDbRegAppTableRecord
  2
ASM_EXPLO_PROJECT_BASE
 70
     0
  0
APPID
  5
6680
330
14
100
AcDbSymbolTableRecord
100
AcDbRegAppTableRecord
  2
ASM_EXPLO_FILLET
 70
     0
  0
APPID
  5
6681
330
14
100
AcDbSymbolTableRecord
100
AcDbRegAppTableRecord
  2
ASM_EXPLO_FOR_FILLET
 70
     0
  0
APPID
  5
6682
330
14
100
AcDbSymbolTableRecord
100
AcDbRegAppTableRecord
  2
ASM
 70
     0
  0
APPID
  5
714A
330
14
100
AcDbSymbolTableRecord
100
AcDbRegAppTableRecord
  2
MCAD_NO_VIS
 70
     0
  0
APPID
  5
714B
330
14
100
AcDbSymbolTableRecord
100
AcDbRegAppTableRecord
  2
ACAD_TEMP_GRAPHIC
 70
     0
  0
APPID
  5
714C
330
14
100
AcDbSymbolTableRecord
100
AcDbRegAppTableRecord
  2
ACATTRIBSERVICES
 70
     0
  0
APPID
  5
714D
330
14
100
AcDbSymbolTableRecord
100
AcDbRegAppTableRecord
  2
DCO15
 70
     0
  0
APPID
  5
714E
330
14
100
AcDbSymbolTableRecord
100
AcDbRegAppTableRecord
  2
GENIUS_GENDIMSH_14
 70
     0
  0
APPID
  5
714F
330
14
100
AcDbSymbolTableRecord
100
AcDbRegAppTableRecord
  2
GENIUS_GENSCREG_15
 70
     0
  0
APPID
  5
71F0
330
14
100
AcDbSymbolTableRecord
100
AcDbRegAppTableRecord
  2
GENIUS_GENTRA_14
 70
     0
  0
ENDTAB
  0
TABLE
  2
DIMSTYLE
  5
16
330
0
100
AcDbSymbolTable
 70
    16
100
AcDbDimStyleTable
 71
     1
340
7190
  0
DIMSTYLE
105
1D
102
{ACAD_REACTORS
330
6994
330
6CF9
330
6707
330
6708
330
6965
330
6966
330
6967
330
6968
330
6969
330
696A
330
696B
330
696C
330
696D
330
696E
330
6973
102
}
330
16
100
AcDbSymbolTableRecord
100
AcDbDimStyleTableRecord
  2
GEN-ISO
 70
     0
  3
<>
  4
"
 41
1.5
 42
1.0
 43
10.0
 44
1.0
 47
0.1
 48
0.1
 73
     0
 74
     0
 77
     1
 78
     8
140
1.0
141
0.0
143
0.0393701
146
0.71
147
0.6
172
     1
176
   256
177
   256
178
     7
271
     2
272
     3
274
     4
283
     0
340
1B
  0
DIMSTYLE
105
DC2
330
16
100
AcDbSymbolTableRecord
100
AcDbDimStyleTableRecord
  2
STANDARD
 70
     0
340
C
  0
DIMSTYLE
105
7190
330
16
100
AcDbSymbolTableRecord
100
AcDbDimStyleTableRecord
  2
AM_ISO
 70
     0
  4
"
 41
2.5
 42
1.0
 43
10.0
 44
1.0
 47
0.1
 48
0.1
 73
     0
 74
     0
 77
     1
 78
     8
 79
     2
140
3.5
141
0.0
143
0.0393701
146
0.71
147
1.5
172
     1
176
   256
177
   256
178
     2
179
     2
271
     2
272
     2
283
     0
284
     8
340
C
371
    -1
372
    -1
  0
DIMSTYLE
105
7191
330
16
100
AcDbSymbolTableRecord
100
AcDbDimStyleTableRecord
  2
AM_ISO$3
 70
     0
  4
"
 41
2.5
 42
1.0
 43
10.0
 44
1.0
 47
0.1
 48
0.1
 73
     0
 77
     1
 78
     8
 79
     2
140
3.5
141
0.0
143
0.0393701
146
0.71
147
1.5
176
   256
177
   256
178
     2
271
     2
272
     3
274
     4
283
     0
284
     8
288
     1
289
     0
340
C
371
    -1
372
    -1
  0
DIMSTYLE
105
7192
330
16
100
AcDbSymbolTableRecord
100
AcDbDimStyleTableRecord
  2
AM_ISO$4
 70
     0
  4
"
 41
2.5
 42
1.0
 43
10.0
 44
1.0
 47
0.1
 48
0.1
 73
     0
 77
     1
 78
     8
 79
     2
140
3.5
141
0.0
143
0.0393701
146
0.71
147
1.5
176
   256
177
   256
178
     2
271
     2
272
     3
274
     4
283
     0
284
     8
288
     1
289
     0
340
C
371
    -1
372
    -1
  0
DIMSTYLE
105
7193
330
16
100
AcDbSymbolTableRecord
100
AcDbDimStyleTableRecord
  2
AM_ISO$6
 70
     0
  4
"
 41
2.5
 42
1.0
 43
10.0
 44
1.0
 47
0.1
 48
0.1
 73
     0
 74
     0
 78
     8
 79
     2
140
3.5
141
0.0
143
0.0393701
146
0.71
147
1.5
172
     1
176
   256
177
   256
178
     2
271
     2
272
     3
274
     4
283
     0
284
     8
340
C
371
    -1
372
    -1
  0
DIMSTYLE
105
7194
330
16
100
AcDbSymbolTableRecord
100
AcDbDimStyleTableRecord
  2
AM_ISO$7
 70
     0
  4
"
 41
2.5
 42
1.0
 43
10.0
 44
1.0
 47
0.1
 48
0.1
 73
     0
 74
     0
 77
     1
 78
     8
 79
     2
140
5.0
141
0.0
143
0.0393701
146
0.71
147
1.5
172
     1
176
   256
177
   256
178
     2
271
     2
272
     3
274
     4
283
     0
284
     8
340
C
371
    -1
372
    -1
  0
DIMSTYLE
105
7195
330
16
100
AcDbSymbolTableRecord
100
AcDbDimStyleTableRecord
  2
AM_ISO$SF
 70
     0
  4
"
 41
2.5
 42
1.0
 43
10.0
 44
1.0
 47
0.1
 48
0.1
 73
     0
 74
     0
 75
     1
 76
     1
 77
     1
 78
     8
 79
     2
140
3.5
141
0.0
143
0.0393701
146
0.71
147
1.5
172
     1
176
   256
177
   256
178
     2
271
     2
272
     3
274
     4
283
     0
284
     8
340
C
371
    -1
372
    -1
  0
DIMSTYLE
105
7196
330
16
100
AcDbSymbolTableRecord
100
AcDbDimStyleTableRecord
  2
AM_ISO$SH
 70
     0
  4
"
 41
2.5
 42
1.0
 43
10.0
 44
1.0
 47
0.1
 48
0.1
 73
     0
 74
     0
 75
     1
 76
     1
 77
     1
 78
     8
 79
     2
140
3.5
141
0.0
143
0.0393701
144
2.0
146
0.71
147
1.5
172
     1
173
     1
176
   256
177
   256
178
     2
271
     2
272
     3
274
     4
283
     0
284
     8
340
C
343
7197
371
    -1
372
    -1
  0
DIMSTYLE
105
72DD
330
16
100
AcDbSymbolTableRecord
100
AcDbDimStyleTableRecord
  2
GEN-ISO$3
 70
     0
  4
"
 41
2.5
 42
1.0
 43
10.0
 44
1.0
 47
0.1
 48
0.1
 73
     0
 77
     1
 78
     8
140
3.5
141
0.0
143
0.0393701
146
0.71
147
1.5
176
   256
177
   256
178
     2
271
     2
272
     3
274
     4
283
     0
288
     1
289
     0
340
C
  0
DIMSTYLE
105
72DE
330
16
100
AcDbSymbolTableRecord
100
AcDbDimStyleTableRecord
  2
GEN-ISO$4
 70
     0
  4
"
 41
2.5
 42
1.0
 43
10.0
 44
1.0
 47
0.1
 48
0.1
 73
     0
 77
     1
 78
     8
140
3.5
141
0.0
143
0.0393701
146
0.71
147
1.5
176
   256
177
   256
178
     2
271
     2
272
     3
274
     4
283
     0
288
     1
289
     0
340
C
  0
DIMSTYLE
105
72DF
330
16
100
AcDbSymbolTableRecord
100
AcDbDimStyleTableRecord
  2
GEN-ISO$6
 70
     0
  4
"
 41
2.5
 42
1.0
 43
10.0
 44
1.0
 47
0.1
 48
0.1
 73
     0
 74
     0
 78
     8
140
3.5
141
0.0
143
0.0393701
146
0.71
147
1.5
176
   256
177
   256
178
     2
271
     2
272
     3
274
     4
283
     0
340
C
  0
DIMSTYLE
105
72E0
330
16
100
AcDbSymbolTableRecord
100
AcDbDimStyleTableRecord
  2
GEN-ISO-POS
 70
     0
  4
"
 41
2.5
 42
1.0
 43
10.0
 44
1.0
 47
0.1
 48
0.1
 73
     0
 74
     0
 78
     8
140
5.0
141
0.0
143
0.0393701
146
0.71
147
1.5
176
   256
177
   256
178
     2
271
     2
272
     3
274
     4
283
     0
340
C
  0
DIMSTYLE
105
72E1
330
16
100
AcDbSymbolTableRecord
100
AcDbDimStyleTableRecord
  2
GEN-ISO-AXE-F
 70
     0
  4
"
 41
2.5
 42
1.0
 43
10.0
 44
1.0
 47
0.1
 48
0.1
 73
     0
 74
     0
 75
     1
 76
     1
 77
     1
 78
     8
140
3.5
141
0.0
143
0.0393701
146
0.71
147
1.5
172
     1
176
   256
177
   256
178
     2
271
     2
272
     3
274
     4
283
     0
340
C
  0
DIMSTYLE
105
72E2
330
16
100
AcDbSymbolTableRecord
100
AcDbDimStyleTableRecord
  2
GEN-ISO-AXE-H
 70
     0
  4
"
 41
2.5
 42
1.0
 43
10.0
 44
1.0
 47
0.1
 48
0.1
 73
     0
 74
     0
 75
     1
 76
     1
 77
     1
 78
     8
140
3.5
141
0.0
143
0.0393701
144
2.0
146
0.71
147
1.5
172
     1
173
     1
176
   256
177
   256
178
     2
271
     2
272
     3
274
     4
283
     0
340
C
343
7197
  0
DIMSTYLE
105
72E3
330
16
100
AcDbSymbolTableRecord
100
AcDbDimStyleTableRecord
  2
ISO-25
 70
     0
 41
2.5
 42
0.625
 43
3.75
 44
1.25
 73
     0
 74
     0
 77
     1
 78
     8
140
2.5
141
2.5
143
0.03937007874016
147
0.625
171
     3
172
     1
271
     2
272
     2
274
     3
278
    44
283
     0
284
     8
340
C
  0
ENDTAB
  0
TABLE
  2
BLOCK_RECORD
  5
1
330
0
100
AcDbSymbolTable
 70
    24
  0
BLOCK_RECORD
  5
2
102
{ACAD_XDICTIONARY
360
72A6
102
}
330
1
100
AcDbSymbolTableRecord
100
AcDbBlockTableRecord
  2
*MODEL_SPACE
340
713C
  0
BLOCK_RECORD
  5
7
330
1
100
AcDbSymbolTableRecord
100
AcDbBlockTableRecord
  2
*PAPER_SPACE
340
713D
  0
BLOCK_RECORD
  5
1F
330
1
100
AcDbSymbolTableRecord
100
AcDbBlockTableRecord
  2
A3-ORIZZONTALE
340
0
102
{BLKREFS
331
1E
102
}
  0
BLOCK_RECORD
  5
D5F
330
1
100
AcDbSymbolTableRecord
100
AcDbBlockTableRecord
  2
LAYER-GENIUS
340
0
102
{BLKREFS
331
1743
331
2222
331
29EF
331
29F0
331
2D77
331
5DC9
331
5DCB
331
5FA3
331
6A3F
102
}
  0
BLOCK_RECORD
  5
5CAC
330
1
100
AcDbSymbolTableRecord
100
AcDbBlockTableRecord
  2
ASM_FREV
340
0
102
{BLKREFS
331
695D
331
6963
102
}
  0
BLOCK_RECORD
  5
5CB6
330
1
100
AcDbSymbolTableRecord
100
AcDbBlockTableRecord
  2
ASM_SEAA
340
0
102
{BLKREFS
331
696F
102
}
  0
BLOCK_RECORD
  5
6510
330
1
100
AcDbSymbolTableRecord
100
AcDbBlockTableRecord
  2
*D4
340
0
  0
BLOCK_RECORD
  5
651C
330
1
100
AcDbSymbolTableRecord
100
AcDbBlockTableRecord
  2
*D5
340
0
  0
BLOCK_RECORD
  5
65BA
330
1
100
AcDbSymbolTableRecord
100
AcDbBlockTableRecord
  2
*D6
340
0
  0
BLOCK_RECORD
  5
65C8
330
1
100
AcDbSymbolTableRecord
100
AcDbBlockTableRecord
  2
*D7
340
0
  0
BLOCK_RECORD
  5
65D6
330
1
100
AcDbSymbolTableRecord
100
AcDbBlockTableRecord
  2
*D8
340
0
  0
BLOCK_RECORD
  5
65E2
330
1
100
AcDbSymbolTableRecord
100
AcDbBlockTableRecord
  2
*D9
340
0
  0
BLOCK_RECORD
  5
65F0
330
1
100
AcDbSymbolTableRecord
100
AcDbBlockTableRecord
  2
*D10
340
0
  0
BLOCK_RECORD
  5
65FB
330
1
100
AcDbSymbolTableRecord
100
AcDbBlockTableRecord
  2
*D11
340
0
  0
BLOCK_RECORD
  5
6608
330
1
100
AcDbSymbolTableRecord
100
AcDbBlockTableRecord
  2
*D12
340
0
  0
BLOCK_RECORD
  5
6616
330
1
100
AcDbSymbolTableRecord
100
AcDbBlockTableRecord
  2
*D13
340
0
  0
BLOCK_RECORD
  5
6624
330
1
100
AcDbSymbolTableRecord
100
AcDbBlockTableRecord
  2
*D14
340
0
  0
BLOCK_RECORD
  5
6632
330
1
100
AcDbSymbolTableRecord
100
AcDbBlockTableRecord
  2
*D15
340
0
  0
BLOCK_RECORD
  5
6640
330
1
100
AcDbSymbolTableRecord
100
AcDbBlockTableRecord
  2
*D16
340
0
  0
BLOCK_RECORD
  5
664C
330
1
100
AcDbSymbolTableRecord
100
AcDbBlockTableRecord
  2
*D17
340
0
  0
BLOCK_RECORD
  5
6CED
330
1
100
AcDbSymbolTableRecord
100
AcDbBlockTableRecord
  2
*D18
340
0
  0
BLOCK_RECORD
  5
7197
330
1
100
AcDbSymbolTableRecord
100
AcDbBlockTableRecord
  2
GENAXEH
340
0
  0
BLOCK_RECORD
  5
720D
330
1
100
AcDbSymbolTableRecord
100
AcDbBlockTableRecord
  2
COMUNELLO
340
0
102
{BLKREFS
331
7214
102
}
  0
BLOCK_RECORD
  5
72CF
330
1
100
AcDbSymbolTableRecord
100
AcDbBlockTableRecord
  2
Prova
340
0
102
{BLKREFS
331
72F2
102
}
  0
BLOCK_RECORD
  5
72E4
330
1
100
AcDbSymbolTableRecord
100
AcDbBlockTableRecord
  2
A4-ORIZZONTALE
340
0
102
{BLKREFS
331
72F6
102
}
  0
BLOCK_RECORD
  5
72FA
330
1
100
AcDbSymbolTableRecord
100
AcDbBlockTableRecord
  2
ASM_C4
340
0
102
{BLKREFS
331
7376
102
}
  0
ENDTAB
  0
ENDSEC
  0
SECTION
  2
BLOCKS
  0
BLOCK
  5
3
330
2
100
AcDbEntity
  8
0
100
AcDbBlockBegin
  2
*MODEL_SPACE
 70
     0
 10
0.0
 20
0.0
 30
0.0
  3
*MODEL_SPACE
  1

  0
ENDBLK
  5
6
330
2
100
AcDbEntity
  8
0
100
AcDbBlockEnd
  0
BLOCK
  5
8
330
7
100
AcDbEntity
 67
     1
  8
0
100
AcDbBlockBegin
  2
*PAPER_SPACE
 70
     0
 10
0.0
 20
0.0
 30
0.0
  3
*PAPER_SPACE
  1

  0
ENDBLK
  5
9
330
7
100
AcDbEntity
 67
     1
  8
0
100
AcDbBlockEnd
  0
BLOCK
  5
31
330
1F
100
AcDbEntity
  8
0
100
AcDbBlockBegin
  2
A3-ORIZZONTALE
 70
     0
 10
0.0
 20
0.0
 30
0.0
  3
A3-ORIZZONTALE
  1

  0
LINE
  5
20
330
1F
100
AcDbEntity
  8
AM_BOR
 62
     7
100
AcDbLine
 10
400.0
 20
277.0
 30
0.0
 11
0.0
 21
277.0
 31
0.0
1001
GENIUS_GENREC_14
1002
{
1000
PYDIR
1011
-10.0
1021
-10.0
1031
0.0
1002
}
1002
{
1000
PXDIR
1011
410.0
1021
287.0
1031
0.0
1002
}
1002
{
1000
PORI
1011
410.0
1021
-10.0
1031
0.0
1002
}
1002
{
1000
PINS
1011
410.0
1021
95.0
1031
0.0
1002
}
1002
{
1000
HVAL
1000
297
1002
}
1002
{
1000
H
1070
     2
1002
}
1002
{
1000
WVAL
1000
210
1002
}
1002
{
1000
W
1070
     2
1002
}
1002
{
1000
C
1070
     2
1002
}
1001
GENIUS_GENODEF_13
1002
{
1000
HIER
1070
     0
1002
}
1002
{
1000
MANEDIT
1070
     0
1002
}
1002
{
1000
NOSEL
1070
     0
1002
}
1002
{
1000
BEHIND
1070
     0
1002
}
1002
{
1000
REACTOR
1002
}
1001
GENIUS_GENOBJ-N-REC_13
1002
{
1000
OWNER
1000
GEN
1002
}
  0
LINE
  5
25
330
1F
100
AcDbEntity
  8
AM_BOR
 62
     7
100
AcDbLine
 10
0.0
 20
0.0
 30
0.0
 11
400.0
 21
0.0
 31
0.0
1001
GENIUS_GENREC_14
1002
{
1000
PYDIR
1011
-10.0
1021
-10.0
1031
0.0
1002
}
1002
{
1000
PXDIR
1011
410.0
1021
200.0
1031
0.0
1002
}
1002
{
1000
PORI
1011
410.0
1021
-10.0
1031
0.0
1002
}
1002
{
1000
PINS
1011
410.0
1021
95.0
1031
0.0
1002
}
1002
{
1000
HVAL
1000
297
1002
}
1002
{
1000
H
1070
     2
1002
}
1002
{
1000
WVAL
1000
210
1002
}
1002
{
1000
W
1070
     2
1002
}
1002
{
1000
C
1070
     2
1002
}
1001
GENIUS_GENODEF_13
1002
{
1000
HIER
1070
     0
1002
}
1002
{
1000
MANEDIT
1070
     0
1002
}
1002
{
1000
NOSEL
1070
     0
1002
}
1002
{
1000
BEHIND
1070
     0
1002
}
1002
{
1000
REACTOR
1002
}
1001
GENIUS_GENOBJ-N-REC_13
1002
{
1000
OWNER
1000
GEN
1002
}
  0
LINE
  5
26
330
1F
100
AcDbEntity
  8
AM_BOR
 62
     7
100
AcDbLine
 10
0.0
 20
277.0
 30
0.0
 11
0.0
 21
0.0
 31
0.0
1001
GENIUS_GENREC_14
1002
{
1000
PYDIR
1011
-10.0
1021
-10.0
1031
0.0
1002
}
1002
{
1000
PXDIR
1011
287.0
1021
287.0
1031
0.0
1002
}
1002
{
1000
PORI
1011
287.0
1021
-10.0
1031
0.0
1002
}
1002
{
1000
PINS
1011
287.0
1021
95.0
1031
0.0
1002
}
1002
{
1000
HVAL
1000
297
1002
}
1002
{
1000
H
1070
     2
1002
}
1002
{
1000
WVAL
1000
210
1002
}
1002
{
1000
W
1070
     2
1002
}
1002
{
1000
C
1070
     2
1002
}
1001
GENIUS_GENODEF_13
1002
{
1000
HIER
1070
     0
1002
}
1002
{
1000
MANEDIT
1070
     0
1002
}
1002
{
1000
NOSEL
1070
     0
1002
}
1002
{
1000
BEHIND
1070
     0
1002
}
1002
{
1000
REACTOR
1002
}
1001
GENIUS_GENOBJ-N-REC_13
1002
{
1000
OWNER
1000
GEN
1002
}
  0
LINE
  5
27
330
1F
100
AcDbEntity
  8
AM_BOR
 62
     4
100
AcDbLine
 10
-10.0
 20
-10.0
 30
0.0
 11
0.0
 21
-10.0
 31
0.0
  0
LINE
  5
28
330
1F
100
AcDbEntity
  8
AM_BOR
 62
     4
100
AcDbLine
 10
-10.0
 20
10.0
 30
0.0
 11
-10.0
 21
-10.0
 31
0.0
  0
LINE
  5
29
330
1F
100
AcDbEntity
  8
AM_BOR
 62
     4
100
AcDbLine
 10
0.0
 20
287.0
 30
0.0
 11
-10.0
 21
287.0
 31
0.0
  0
LINE
  5
2A
330
1F
100
AcDbEntity
  8
AM_BOR
 62
     4
100
AcDbLine
 10
-10.0
 20
287.0
 30
0.0
 11
-10.0
 21
267.0
 31
0.0
  0
LINE
  5
2B
330
1F
100
AcDbEntity
  8
AM_BOR
 62
     7
100
AcDbLine
 10
400.0
 20
0.0
 30
0.0
 11
400.0
 21
277.0
 31
0.0
1001
GENIUS_GENREC_14
1002
{
1000
PYDIR
1011
-10.0
1021
-10.0
1031
0.0
1002
}
1002
{
1000
PXDIR
1011
410.0
1021
287.0
1031
0.0
1002
}
1002
{
1000
PORI
1011
410.0
1021
-10.0
1031
0.0
1002
}
1002
{
1000
PINS
1011
410.0
1021
95.0
1031
0.0
1002
}
1002
{
1000
HVAL
1000
297
1002
}
1002
{
1000
H
1070
     2
1002
}
1002
{
1000
WVAL
1000
210
1002
}
1002
{
1000
W
1070
     2
1002
}
1002
{
1000
C
1070
     2
1002
}
1001
GENIUS_GENODEF_13
1002
{
1000
HIER
1070
     0
1002
}
1002
{
1000
MANEDIT
1070
     0
1002
}
1002
{
1000
NOSEL
1070
     0
1002
}
1002
{
1000
BEHIND
1070
     0
1002
}
1002
{
1000
REACTOR
1002
}
1001
GENIUS_GENOBJ-N-REC_13
1002
{
1000
OWNER
1000
GEN
1002
}
  0
LINE
  5
2C
330
1F
100
AcDbEntity
  8
AM_BOR
 62
     4
100
AcDbLine
 10
410.0
 20
-10.0
 30
0.0
 11
410.0
 21
10.0
 31
0.0
  0
LINE
  5
2D
330
1F
100
AcDbEntity
  8
AM_BOR
 62
     4
100
AcDbLine
 10
400.0
 20
-10.0
 30
0.0
 11
410.0
 21
-10.0
 31
0.0
  0
TEXT
  5
2E
330
1F
100
AcDbEntity
  8
AM_BOR
 62
     1
 60
     1
370
    25
100
AcDbText
 10
400.0
 20
0.0
 30
0.0
 40
2.5
  1
!GENTITLE-INSERT
100
AcDbText
  0
LINE
  5
2F
330
1F
100
AcDbEntity
  8
AM_BOR
 62
     4
100
AcDbLine
 10
410.0
 20
267.0
 30
0.0
 11
410.0
 21
287.0
 31
0.0
  0
LINE
  5
30
330
1F
100
AcDbEntity
  8
AM_BOR
 62
     4
100
AcDbLine
 10
410.0
 20
287.0
 30
0.0
 11
400.0
 21
287.0
 31
0.0
  0
ENDBLK
  5
32
330
1F
100
AcDbEntity
  8
0
100
AcDbBlockEnd
  0
BLOCK
  5
D60
330
D5F
100
AcDbEntity
  8
0
100
AcDbBlockBegin
  2
LAYER-GENIUS
 70
     0
 10
0.0
 20
0.0
 30
0.0
  3
LAYER-GENIUS
  1

  0
ENDBLK
  5
D61
330
D5F
100
AcDbEntity
  8
0
100
AcDbBlockEnd
  0
BLOCK
  5
5CB4
330
5CAC
100
AcDbEntity
  8
0
100
AcDbBlockBegin
  2
ASM_FREV
 70
     0
 10
0.0
 20
0.0
 30
0.0
  3
ASM_FREV
  1

  0
LINE
  5
5CAD
330
5CAC
100
AcDbEntity
  8
0
100
AcDbLine
 10
2.714285714285627
 20
-0.9285714285713158
 30
0.0
 11
0.8571428571428661
 21
-0.2526267077912591
 31
0.0
  0
LINE
  5
5CAE
330
5CAC
100
AcDbEntity
  8
0
100
AcDbLine
 10
0.8571428571428661
 20
-0.2526267077912591
 30
0.0
 11
0.8571428571427686
 21
-0.8571428571427443
 31
0.0
  0
LINE
  5
5CAF
330
5CAC
100
AcDbEntity
  8
0
100
AcDbLine
 10
-0.0000000000000893
 20
0.0000000000000974
 30
0.0
 11
0.8571428571427686
 21
-0.8571428571427443
 31
0.0
  0
LINE
  5
5CB0
330
5CAC
100
AcDbEntity
  8
0
100
AcDbLine
 10
-0.0000000000000568
 20
0.0000000000001137
 30
0.0
 11
0.8571428571428011
 21
0.8571428571429798
 31
0.0
  0
LINE
  5
5CB1
330
5CAC
100
AcDbEntity
  8
0
100
AcDbLine
 10
0.8571428571428011
 20
0.8571428571429798
 30
0.0
 11
0.8571428571427686
 21
0.2526267077914703
 31
0.0
  0
LINE
  5
5CB2
330
5CAC
100
AcDbEntity
  8
0
100
AcDbLine
 10
2.714285714285627
 20
0.9285714285715839
 30
0.0
 11
0.8571428571427686
 21
0.2526267077914703
 31
0.0
  0
LINE
  5
5CB3
330
5CAC
100
AcDbEntity
  8
0
100
AcDbLine
 10
2.714285714285627
 20
0.9285714285715839
 30
0.0
 11
2.714285714285627
 21
-0.9285714285713158
 31
0.0
  0
ENDBLK
  5
5CB5
330
5CAC
100
AcDbEntity
  8
0
100
AcDbBlockEnd
  0
BLOCK
  5
5CBD
330
5CB6
100
AcDbEntity
  8
0
100
AcDbBlockBegin
  2
ASM_SEAA
 70
     2
 10
0.0
 20
0.0
 30
0.0
  3
ASM_SEAA
  1

  0
ATTDEF
  5
5CB7
330
5CB6
100
AcDbEntity
  8
0
100
AcDbText
 10
3.763174603174603
 20
0.5355555555555558
 30
0.0
 40
1.0
  1
A
  7
ISO
 72
     4
 11
4.048888888888889
 21
1.035555555555555
 31
0.0
100
AcDbAttributeDefinition
  3
Primo piano sezione
  2
A
 70
     0
  0
LINE
  5
5CB8
330
5CB6
100
AcDbEntity
  8
0
100
AcDbLine
 10
0.0
 20
0.2800000000000001
 30
0.0
 11
6.200000000000001
 21
0.2800000000000001
 31
0.0
  0
LINE
  5
5CB9
330
5CB6
100
AcDbEntity
  8
0
100
AcDbLine
 10
0.0
 20
0.0
 30
0.0
 11
6.200000000000001
 21
0.0
 31
0.0
  0
TEXT
  5
5CBA
330
5CB6
100
AcDbEntity
  8
0
100
AcDbText
 10
0.2400000000000001
 20
0.5244444444444446
 30
0.0
 40
1.0
  1
SEZ.
  7
ISO
100
AcDbText
  0
ATTDEF
  5
5CBB
330
5CB6
100
AcDbEntity
  8
0
100
AcDbText
 10
5.412063492063493
 20
0.5355555555555558
 30
0.0
 40
1.0
  1
A
  7
ISO
 72
     4
 11
5.697777777777779
 21
1.035555555555555
 31
0.0
100
AcDbAttributeDefinition
  3
Secondo piano sezione
  2
B
 70
     0
  0
LINE
  5
5CBC
330
5CB6
100
AcDbEntity
  8
0
100
AcDbLine
 10
4.662222222222223
 20
1.035555555555555
 30
0.0
 11
5.075555555555556
 21
1.035555555555555
 31
0.0
  0
ENDBLK
  5
5CBE
330
5CB6
100
AcDbEntity
  8
0
100
AcDbBlockEnd
  0
BLOCK
  5
7017
330
6510
100
AcDbEntity
  8
0
100
AcDbBlockBegin
  2
*D4
 70
     1
 10
0.0
 20
0.0
 30
0.0
  3
*D4
  1

  0
LINE
  5
7441
330
6510
100
AcDbEntity
  8
AM_5
370
    -2
100
AcDbLine
 10
139.8445509497603
 20
54.45441007623557
 30
0.0
 11
156.3245509497603
 21
54.45441007623557
 31
0.0
  0
LINE
  5
7442
330
6510
100
AcDbEntity
  8
AM_5
370
    -2
100
AcDbLine
 10
139.8445509497603
 20
89.01441007623558
 30
0.0
 11
156.3245509497604
 21
89.01441007623558
 31
0.0
  0
LINE
  5
7443
330
6510
100
AcDbEntity
  8
AM_5
370
    -2
100
AcDbLine
 10
155.3245509497603
 20
55.95441007623557
 30
0.0
 11
155.3245509497604
 21
87.51441007623558
 31
0.0
  0
SOLID
  5
7444
330
6510
100
AcDbEntity
  8
AM_5
100
AcDbTrace
 10
155.0745509497603
 20
55.95441007623557
 30
0.0
 11
155.5745509497603
 21
55.95441007623557
 31
0.0
 12
155.3245509497603
 22
54.45441007623557
 32
0.0
 13
155.3245509497603
 23
54.45441007623557
 33
0.0
  0
SOLID
  5
7445
330
6510
100
AcDbEntity
  8
AM_5
100
AcDbTrace
 10
155.0745509497604
 20
87.51441007623558
 30
0.0
 11
155.5745509497604
 21
87.51441007623558
 31
0.0
 12
155.3245509497604
 22
89.01441007623558
 32
0.0
 13
155.3245509497604
 23
89.01441007623558
 33
0.0
  0
MTEXT
  5
7446
330
6510
100
AcDbEntity
  8
AM_5
 62
     7
100
AcDbMText
 10
153.7245509497603
 20
71.73441007623559
 30
0.0
 40
2.0
 41
0.0
 71
     5
 72
     1
  1
48
  7
ROMANS
 11
0.0000000000000001
 21
1.0
 31
0.0
 73
     1
 44
1.0
  0
POINT
  5
7447
330
6510
100
AcDbEntity
  8
DEFPOINTS
 62
     0
100
AcDbPoint
 10
138.8445509497603
 20
54.45441007623557
 30
0.0
  0
POINT
  5
7448
330
6510
100
AcDbEntity
  8
DEFPOINTS
 62
     0
100
AcDbPoint
 10
138.8445509497603
 20
89.01441007623558
 30
0.0
  0
POINT
  5
7449
330
6510
100
AcDbEntity
  8
DEFPOINTS
 62
     0
100
AcDbPoint
 10
155.3245509497604
 20
89.01441007623558
 30
0.0
  0
ENDBLK
  5
7021
330
6510
100
AcDbEntity
  8
0
100
AcDbBlockEnd
  0
BLOCK
  5
702E
330
651C
100
AcDbEntity
  8
0
100
AcDbBlockBegin
  2
*D5
 70
     1
 10
0.0
 20
0.0
 30
0.0
  3
*D5
  1

  0
LINE
  5
748D
330
651C
100
AcDbEntity
  8
AM_5
370
    -2
100
AcDbLine
 10
132.3645509497604
 20
83.53441007623558
 30
0.0
 11
132.3645509497604
 21
102.4180189989083
 31
0.0
  0
LINE
  5
748E
330
651C
100
AcDbEntity
  8
AM_5
370
    -2
100
AcDbLine
 10
145.3245509497604
 20
83.53441007623558
 30
0.0
 11
145.3245509497604
 21
102.4180189989083
 31
0.0
  0
LINE
  5
748F
330
651C
100
AcDbEntity
  8
AM_5
370
    -2
100
AcDbLine
 10
133.8645509497603
 20
101.4180189989083
 30
0.0
 11
143.8245509497604
 21
101.4180189989083
 31
0.0
  0
SOLID
  5
7490
330
651C
100
AcDbEntity
  8
AM_5
100
AcDbTrace
 10
133.8645509497603
 20
101.6680189989084
 30
0.0
 11
133.8645509497603
 21
101.1680189989083
 31
0.0
 12
132.3645509497604
 22
101.4180189989083
 32
0.0
 13
132.3645509497604
 23
101.4180189989083
 33
0.0
  0
SOLID
  5
7491
330
651C
100
AcDbEntity
  8
AM_5
100
AcDbTrace
 10
143.8245509497604
 20
101.6680189989084
 30
0.0
 11
143.8245509497604
 21
101.1680189989083
 31
0.0
 12
145.3245509497604
 22
101.4180189989083
 32
0.0
 13
145.3245509497604
 23
101.4180189989083
 33
0.0
  0
MTEXT
  5
7492
330
651C
100
AcDbEntity
  8
AM_5
 62
     7
100
AcDbMText
 10
138.8445509497603
 20
103.0180189989083
 30
0.0
 40
2.0
 41
0.0
 71
     5
 72
     1
  1
18
  7
ROMANS
 73
     1
 44
1.0
  0
POINT
  5
7493
330
651C
100
AcDbEntity
  8
DEFPOINTS
 62
     0
100
AcDbPoint
 10
132.3645509497604
 20
82.53441007623559
 30
0.0
  0
POINT
  5
7494
330
651C
100
AcDbEntity
  8
DEFPOINTS
 62
     0
100
AcDbPoint
 10
145.3245509497604
 20
82.53441007623559
 30
0.0
  0
POINT
  5
7495
330
651C
100
AcDbEntity
  8
DEFPOINTS
 62
     0
100
AcDbPoint
 10
145.3245509497604
 20
101.4180189989083
 30
0.0
  0
ENDBLK
  5
7038
330
651C
100
AcDbEntity
  8
0
100
AcDbBlockEnd
  0
BLOCK
  5
70F8
330
65BA
100
AcDbEntity
  8
0
100
AcDbBlockBegin
  2
*D6
 70
     1
 10
0.0
 20
0.0
 30
0.0
  3
*D6
  1

  0
LINE
  5
746E
330
65BA
100
AcDbEntity
  8
AM_5
370
    -2
100
AcDbLine
 10
173.1764223743267
 20
53.45441007623557
 30
0.0
 11
173.1764223743267
 21
48.45441007623557
 31
0.0
  0
LINE
  5
746F
330
65BA
100
AcDbEntity
  8
AM_5
370
    -2
100
AcDbLine
 10
174.6164223743267
 20
53.45441007623557
 30
0.0
 11
174.6164223743267
 21
48.45441007623557
 31
0.0
  0
LINE
  5
7470
330
65BA
100
AcDbEntity
  8
AM_5
370
    -2
100
AcDbLine
 10
176.1164223743266
 20
49.45441007623557
 30
0.0
 11
177.6164223743267
 21
49.45441007623557
 31
0.0
  0
LINE
  5
7471
330
65BA
100
AcDbEntity
  8
AM_5
370
    -2
100
AcDbLine
 10
171.6764223743267
 20
49.45441007623557
 30
0.0
 11
159.5509393566283
 21
49.45441007623557
 31
0.0
  0
LINE
  5
7472
330
65BA
100
AcDbEntity
  8
AM_5
370
    -2
100
AcDbLine
 10
174.6164223743267
 20
49.45441007623557
 30
0.0
 11
173.1764223743267
 21
49.45441007623557
 31
0.0
  0
SOLID
  5
7473
330
65BA
100
AcDbEntity
  8
AM_5
100
AcDbTrace
 10
176.1164223743266
 20
49.70441007623557
 30
0.0
 11
176.1164223743266
 21
49.20441007623558
 31
0.0
 12
174.6164223743267
 22
49.45441007623557
 32
0.0
 13
174.6164223743267
 23
49.45441007623557
 33
0.0
  0
SOLID
  5
7474
330
65BA
100
AcDbEntity
  8
AM_5
100
AcDbTrace
 10
171.6764223743267
 20
49.70441007623557
 30
0.0
 11
171.6764223743267
 21
49.20441007623558
 31
0.0
 12
173.1764223743267
 22
49.45441007623557
 32
0.0
 13
173.1764223743267
 23
49.45441007623557
 33
0.0
  0
MTEXT
  5
7475
330
65BA
100
AcDbEntity
  8
AM_5
 62
     7
100
AcDbMText
 10
164.8636808654775
 20
51.05441007623557
 30
0.0
 40
2.0
 41
0.0
 71
     5
 72
     1
  1
4 MAX
  7
ROMANS
 73
     1
 44
1.0
  0
POINT
  5
7476
330
65BA
100
AcDbEntity
  8
DEFPOINTS
 62
     0
100
AcDbPoint
 10
173.1764223743267
 20
54.45441007623557
 30
0.0
  0
POINT
  5
7477
330
65BA
100
AcDbEntity
  8
DEFPOINTS
 62
     0
100
AcDbPoint
 10
174.6164223743267
 20
54.45441007623557
 30
0.0
  0
POINT
  5
7478
330
65BA
100
AcDbEntity
  8
DEFPOINTS
 62
     0
100
AcDbPoint
 10
174.6164223743267
 20
49.45441007623557
 30
0.0
  0
ENDBLK
  5
7104
330
65BA
100
AcDbEntity
  8
0
100
AcDbBlockEnd
  0
BLOCK
  5
7105
330
65C8
100
AcDbEntity
  8
0
100
AcDbBlockBegin
  2
*D7
 70
     1
 10
0.0
 20
0.0
 30
0.0
  3
*D7
  1

  0
LINE
  5
7484
330
65C8
100
AcDbEntity
  8
AM_5
370
    -2
100
AcDbLine
 10
174.6164223743267
 20
53.45441007623557
 30
0.0
 11
174.6164223743267
 21
48.45441007623557
 31
0.0
  0
LINE
  5
7485
330
65C8
100
AcDbEntity
  8
AM_5
370
    -2
100
AcDbLine
 10
181.6004223743267
 20
65.47841007623455
 30
0.0
 11
181.6004223743267
 21
48.45441007623557
 31
0.0
  0
LINE
  5
7486
330
65C8
100
AcDbEntity
  8
AM_5
370
    -2
100
AcDbLine
 10
176.1164223743266
 20
49.45441007623557
 30
0.0
 11
180.1004223743267
 21
49.45441007623557
 31
0.0
  0
SOLID
  5
7487
330
65C8
100
AcDbEntity
  8
AM_5
100
AcDbTrace
 10
176.1164223743266
 20
49.70441007623557
 30
0.0
 11
176.1164223743266
 21
49.20441007623558
 31
0.0
 12
174.6164223743267
 22
49.45441007623557
 32
0.0
 13
174.6164223743267
 23
49.45441007623557
 33
0.0
  0
SOLID
  5
7488
330
65C8
100
AcDbEntity
  8
AM_5
100
AcDbTrace
 10
180.1004223743267
 20
49.70441007623557
 30
0.0
 11
180.1004223743267
 21
49.20441007623558
 31
0.0
 12
181.6004223743267
 22
49.45441007623557
 32
0.0
 13
181.6004223743267
 23
49.45441007623557
 33
0.0
  0
MTEXT
  5
7489
330
65C8
100
AcDbEntity
  8
AM_5
 62
     7
100
AcDbMText
 10
178.1084223743267
 20
51.05441007623557
 30
0.0
 40
2.0
 41
0.0
 71
     5
 72
     1
  1
9.7
  7
ROMANS
 73
     1
 44
1.0
  0
POINT
  5
748A
330
65C8
100
AcDbEntity
  8
DEFPOINTS
 62
     0
100
AcDbPoint
 10
174.6164223743267
 20
54.45441007623557
 30
0.0
  0
POINT
  5
748B
330
65C8
100
AcDbEntity
  8
DEFPOINTS
 62
     0
100
AcDbPoint
 10
181.6004223743267
 20
66.47841007623455
 30
0.0
  0
POINT
  5
748C
330
65C8
100
AcDbEntity
  8
DEFPOINTS
 62
     0
100
AcDbPoint
 10
181.6004223743267
 20
49.45441007623557
 30
0.0
  0
ENDBLK
  5
710F
330
65C8
100
AcDbEntity
  8
0
100
AcDbBlockEnd
  0
BLOCK
  5
7023
330
65D6
100
AcDbEntity
  8
0
100
AcDbBlockBegin
  2
*D8
 70
     1
 10
0.0
 20
0.0
 30
0.0
  3
*D8
  1

  0
LINE
  5
745C
330
65D6
100
AcDbEntity
  8
AM_5
370
    -2
100
AcDbLine
 10
145.3245509497604
 20
59.93441007623558
 30
0.0
 11
145.3245509497604
 21
40.71815371341483
 31
0.0
  0
LINE
  5
745D
330
65D6
100
AcDbEntity
  8
AM_5
370
    -2
100
AcDbLine
 10
111.4845509497603
 20
70.73441007623557
 30
0.0
 11
111.4845509497603
 21
40.71815371341483
 31
0.0
  0
LINE
  5
745E
330
65D6
100
AcDbEntity
  8
AM_5
370
    -2
100
AcDbLine
 10
143.8245509497604
 20
41.71815371341483
 30
0.0
 11
112.9845509497603
 21
41.71815371341483
 31
0.0
  0
SOLID
  5
745F
330
65D6
100
AcDbEntity
  8
AM_5
100
AcDbTrace
 10
143.8245509497604
 20
41.96815371341483
 30
0.0
 11
143.8245509497604
 21
41.46815371341483
 31
0.0
 12
145.3245509497604
 22
41.71815371341483
 32
0.0
 13
145.3245509497604
 23
41.71815371341483
 33
0.0
  0
SOLID
  5
7460
330
65D6
100
AcDbEntity
  8
AM_5
100
AcDbTrace
 10
112.9845509497603
 20
41.96815371341483
 30
0.0
 11
112.9845509497603
 21
41.46815371341483
 31
0.0
 12
111.4845509497603
 22
41.71815371341483
 32
0.0
 13
111.4845509497603
 23
41.71815371341483
 33
0.0
  0
MTEXT
  5
7461
330
65D6
100
AcDbEntity
  8
AM_5
 62
     7
100
AcDbMText
 10
128.4045509497603
 20
43.31815371341483
 30
0.0
 40
2.0
 41
0.0
 71
     5
 72
     1
  1
47
  7
ROMANS
 73
     1
 44
1.0
  0
POINT
  5
7462
330
65D6
100
AcDbEntity
  8
DEFPOINTS
 62
     0
100
AcDbPoint
 10
145.3245509497604
 20
60.93441007623558
 30
0.0
  0
POINT
  5
7463
330
65D6
100
AcDbEntity
  8
DEFPOINTS
 62
     0
100
AcDbPoint
 10
111.4845509497603
 20
71.73441007623558
 30
0.0
  0
POINT
  5
7464
330
65D6
100
AcDbEntity
  8
DEFPOINTS
 62
     0
100
AcDbPoint
 10
111.4845509497603
 20
41.71815371341483
 30
0.0
  0
ENDBLK
  5
702D
330
65D6
100
AcDbEntity
  8
0
100
AcDbBlockEnd
  0
BLOCK
  5
6FF6
330
65E2
100
AcDbEntity
  8
0
100
AcDbBlockBegin
  2
*D9
 70
     1
 10
0.0
 20
0.0
 30
0.0
  3
*D9
  1

  0
LINE
  5
7465
330
65E2
100
AcDbEntity
  8
AM_5
370
    -2
100
AcDbLine
 10
139.8445509497603
 20
54.45441007623557
 30
0.0
 11
151.3245509497604
 21
54.45441007623557
 31
0.0
  0
LINE
  5
7466
330
65E2
100
AcDbEntity
  8
AM_5
370
    -2
100
AcDbLine
 10
146.3145432217805
 20
60.57441007623556
 30
0.0
 11
151.3245509497604
 21
60.57441007623556
 31
0.0
  0
LINE
  5
7467
330
65E2
100
AcDbEntity
  8
AM_5
370
    -2
100
AcDbLine
 10
150.3245509497604
 20
55.95441007623557
 30
0.0
 11
150.3245509497604
 21
59.07441007623557
 31
0.0
  0
SOLID
  5
7468
330
65E2
100
AcDbEntity
  8
AM_5
100
AcDbTrace
 10
150.0745509497604
 20
55.95441007623557
 30
0.0
 11
150.5745509497604
 21
55.95441007623557
 31
0.0
 12
150.3245509497604
 22
54.45441007623557
 32
0.0
 13
150.3245509497604
 23
54.45441007623557
 33
0.0
  0
SOLID
  5
7469
330
65E2
100
AcDbEntity
  8
AM_5
100
AcDbTrace
 10
150.0745509497604
 20
59.07441007623557
 30
0.0
 11
150.5745509497604
 21
59.07441007623557
 31
0.0
 12
150.3245509497604
 22
60.57441007623556
 32
0.0
 13
150.3245509497604
 23
60.57441007623556
 33
0.0
  0
MTEXT
  5
746A
330
65E2
100
AcDbEntity
  8
AM_5
 62
     7
100
AcDbMText
 10
148.7245509497604
 20
57.5144100762356
 30
0.0
 40
2.0
 41
0.0
 71
     5
 72
     1
  1
8.5
  7
ROMANS
 11
0.0000000000000001
 21
1.0
 31
0.0
 73
     1
 44
1.0
  0
POINT
  5
746B
330
65E2
100
AcDbEntity
  8
DEFPOINTS
 62
     0
100
AcDbPoint
 10
138.8445509497603
 20
54.45441007623557
 30
0.0
  0
POINT
  5
746C
330
65E2
100
AcDbEntity
  8
DEFPOINTS
 62
     0
100
AcDbPoint
 10
145.3145432217805
 20
60.57441007623556
 30
0.0
  0
POINT
  5
746D
330
65E2
100
AcDbEntity
  8
DEFPOINTS
 62
     0
100
AcDbPoint
 10
150.3245509497604
 20
60.57441007623556
 30
0.0
  0
ENDBLK
  5
7000
330
65E2
100
AcDbEntity
  8
0
100
AcDbBlockEnd
  0
BLOCK
  5
7001
330
65F0
100
AcDbEntity
  8
0
100
AcDbBlockBegin
  2
*D10
 70
     1
 10
0.0
 20
0.0
 30
0.0
  3
*D10
  1

  0
LINE
  5
744A
330
65F0
100
AcDbEntity
  8
AM_5
370
    -2
100
AcDbLine
 10
146.3145432217805
 20
60.57441007623556
 30
0.0
 11
151.3245509497603
 21
60.57441007623556
 31
0.0
  0
LINE
  5
744B
330
65F0
100
AcDbEntity
  8
AM_5
370
    -2
100
AcDbLine
 10
146.3145432217805
 20
82.89441007623556
 30
0.0
 11
151.3245509497604
 21
82.89441007623556
 31
0.0
  0
LINE
  5
744C
330
65F0
100
AcDbEntity
  8
AM_5
370
    -2
100
AcDbLine
 10
150.3245509497603
 20
62.07441007623557
 30
0.0
 11
150.3245509497604
 21
81.39441007623558
 31
0.0
  0
SOLID
  5
744D
330
65F0
100
AcDbEntity
  8
AM_5
100
AcDbTrace
 10
150.0745509497603
 20
62.07441007623557
 30
0.0
 11
150.5745509497603
 21
62.07441007623557
 31
0.0
 12
150.3245509497603
 22
60.57441007623556
 32
0.0
 13
150.3245509497603
 23
60.57441007623556
 33
0.0
  0
SOLID
  5
744E
330
65F0
100
AcDbEntity
  8
AM_5
100
AcDbTrace
 10
150.0745509497604
 20
81.39441007623558
 30
0.0
 11
150.5745509497604
 21
81.39441007623558
 31
0.0
 12
150.3245509497604
 22
82.89441007623556
 32
0.0
 13
150.3245509497604
 23
82.89441007623556
 33
0.0
  0
MTEXT
  5
744F
330
65F0
100
AcDbEntity
  8
AM_5
 62
     7
100
AcDbMText
 10
148.7245509497603
 20
71.73441007623559
 30
0.0
 40
2.0
 41
0.0
 71
     5
 72
     1
  1
31
  7
ROMANS
 11
0.0000000000000001
 21
1.0
 31
0.0
 73
     1
 44
1.0
  0
POINT
  5
7450
330
65F0
100
AcDbEntity
  8
DEFPOINTS
 62
     0
100
AcDbPoint
 10
145.3145432217805
 20
60.57441007623556
 30
0.0
  0
POINT
  5
7451
330
65F0
100
AcDbEntity
  8
DEFPOINTS
 62
     0
100
AcDbPoint
 10
145.3145432217805
 20
82.89441007623556
 30
0.0
  0
POINT
  5
7452
330
65F0
100
AcDbEntity
  8
DEFPOINTS
 62
     0
100
AcDbPoint
 10
150.3245509497604
 20
82.89441007623556
 30
0.0
  0
ENDBLK
  5
700B
330
65F0
100
AcDbEntity
  8
0
100
AcDbBlockEnd
  0
BLOCK
  5
700C
330
65FB
100
AcDbEntity
  8
0
100
AcDbBlockBegin
  2
*D11
 70
     1
 10
0.0
 20
0.0
 30
0.0
  3
*D11
  1

  0
LINE
  5
7496
330
65FB
100
AcDbEntity
  8
AM_5
370
    -2
100
AcDbLine
 10
146.3145432217805
 20
82.89441007623556
 30
0.0
 11
151.3245509497604
 21
82.89441007623556
 31
0.0
  0
LINE
  5
7497
330
65FB
100
AcDbEntity
  8
AM_5
370
    -2
100
AcDbLine
 10
140.5645509497604
 20
89.01441007623558
 30
0.0
 11
151.3245509497604
 21
89.01441007623558
 31
0.0
  0
LINE
  5
7498
330
65FB
100
AcDbEntity
  8
AM_5
370
    -2
100
AcDbLine
 10
150.3245509497604
 20
84.39441007623557
 30
0.0
 11
150.3245509497604
 21
87.51441007623558
 31
0.0
  0
SOLID
  5
7499
330
65FB
100
AcDbEntity
  8
AM_5
100
AcDbTrace
 10
150.0745509497604
 20
84.39441007623557
 30
0.0
 11
150.5745509497604
 21
84.39441007623557
 31
0.0
 12
150.3245509497604
 22
82.89441007623556
 32
0.0
 13
150.3245509497604
 23
82.89441007623556
 33
0.0
  0
SOLID
  5
749A
330
65FB
100
AcDbEntity
  8
AM_5
100
AcDbTrace
 10
150.0745509497604
 20
87.51441007623558
 30
0.0
 11
150.5745509497604
 21
87.51441007623558
 31
0.0
 12
150.3245509497604
 22
89.01441007623558
 32
0.0
 13
150.3245509497604
 23
89.01441007623558
 33
0.0
  0
MTEXT
  5
749B
330
65FB
100
AcDbEntity
  8
AM_5
 62
     7
100
AcDbMText
 10
148.7245509497603
 20
85.95441007623559
 30
0.0
 40
2.0
 41
0.0
 71
     5
 72
     1
  1
8.5
  7
ROMANS
 11
0.0000000000000001
 21
1.0
 31
0.0
 73
     1
 44
1.0
  0
POINT
  5
749C
330
65FB
100
AcDbEntity
  8
DEFPOINTS
 62
     0
100
AcDbPoint
 10
145.3145432217805
 20
82.89441007623556
 30
0.0
  0
POINT
  5
749D
330
65FB
100
AcDbEntity
  8
DEFPOINTS
 62
     0
100
AcDbPoint
 10
139.5645509497604
 20
89.01441007623558
 30
0.0
  0
POINT
  5
749E
330
65FB
100
AcDbEntity
  8
DEFPOINTS
 62
     0
100
AcDbPoint
 10
150.3245509497604
 20
89.01441007623558
 30
0.0
  0
ENDBLK
  5
7016
330
65FB
100
AcDbEntity
  8
0
100
AcDbBlockEnd
  0
BLOCK
  5
70EB
330
6608
100
AcDbEntity
  8
0
100
AcDbBlockBegin
  2
*D12
 70
     1
 10
0.0
 20
0.0
 30
0.0
  3
*D12
  1

  0
LINE
  5
74B3
330
6608
100
AcDbEntity
  8
AM_5
370
    -2
100
AcDbLine
 10
170.0015936143267
 20
84.33441007623557
 30
0.0
 11
165.6924223743267
 21
84.33441007623557
 31
0.0
  0
LINE
  5
74B4
330
6608
100
AcDbEntity
  8
AM_5
370
    -2
100
AcDbLine
 10
170.0015936143267
 20
81.45441007623558
 30
0.0
 11
165.6924223743267
 21
81.45441007623558
 31
0.0
  0
LINE
  5
74B5
330
6608
100
AcDbEntity
  8
AM_5
370
    -2
100
AcDbLine
 10
166.6924223743267
 20
85.83441007623557
 30
0.0
 11
166.6924223743267
 21
87.33441007623557
 31
0.0
  0
LINE
  5
74B6
330
6608
100
AcDbEntity
  8
AM_5
370
    -2
100
AcDbLine
 10
166.6924223743267
 20
79.95441007623558
 30
0.0
 11
166.6924223743267
 21
78.45441007623557
 31
0.0
  0
LINE
  5
74B7
330
6608
100
AcDbEntity
  8
AM_5
370
    -2
100
AcDbLine
 10
166.6924223743267
 20
84.33441007623557
 30
0.0
 11
166.6924223743267
 21
81.45441007623558
 31
0.0
  0
SOLID
  5
74B8
330
6608
100
AcDbEntity
  8
AM_5
100
AcDbTrace
 10
166.4424223743267
 20
85.83441007623557
 30
0.0
 11
166.9424223743267
 21
85.83441007623557
 31
0.0
 12
166.6924223743267
 22
84.33441007623557
 32
0.0
 13
166.6924223743267
 23
84.33441007623557
 33
0.0
  0
SOLID
  5
74B9
330
6608
100
AcDbEntity
  8
AM_5
100
AcDbTrace
 10
166.4424223743267
 20
79.95441007623558
 30
0.0
 11
166.9424223743267
 21
79.95441007623558
 31
0.0
 12
166.6924223743267
 22
81.45441007623558
 32
0.0
 13
166.6924223743267
 23
81.45441007623558
 33
0.0
  0
MTEXT
  5
74BA
330
6608
100
AcDbEntity
  8
AM_5
 62
     7
100
AcDbMText
 10
165.0924223743267
 20
82.8944100762356
 30
0.0
 40
2.0
 41
0.0
 71
     5
 72
     1
  1
M4
  7
ROMANS
 11
0.0000000000000001
 21
1.0
 31
0.0
 73
     1
 44
1.0
  0
POINT
  5
74BB
330
6608
100
AcDbEntity
  8
DEFPOINTS
 62
     0
100
AcDbPoint
 10
171.0015936143267
 20
84.33441007623557
 30
0.0
  0
POINT
  5
74BC
330
6608
100
AcDbEntity
  8
DEFPOINTS
 62
     0
100
AcDbPoint
 10
171.0015936143267
 20
81.45441007623558
 30
0.0
  0
POINT
  5
74BD
330
6608
100
AcDbEntity
  8
DEFPOINTS
 62
     0
100
AcDbPoint
 10
166.6924223743267
 20
81.45441007623558
 30
0.0
  0
ENDBLK
  5
70F7
330
6608
100
AcDbEntity
  8
0
100
AcDbBlockEnd
  0
BLOCK
  5
70D1
330
6616
100
AcDbEntity
  8
0
100
AcDbBlockBegin
  2
*D13
 70
     1
 10
0.0
 20
0.0
 30
0.0
  3
*D13
  1

  0
LINE
  5
7479
330
6616
100
AcDbEntity
  8
AM_5
370
    -2
100
AcDbLine
 10
170.0015936143267
 20
62.01441007623557
 30
0.0
 11
165.6924223743267
 21
62.01441007623557
 31
0.0
  0
LINE
  5
747A
330
6616
100
AcDbEntity
  8
AM_5
370
    -2
100
AcDbLine
 10
170.0015936143267
 20
59.13441007623558
 30
0.0
 11
165.6924223743267
 21
59.13441007623558
 31
0.0
  0
LINE
  5
747B
330
6616
100
AcDbEntity
  8
AM_5
370
    -2
100
AcDbLine
 10
166.6924223743267
 20
63.51441007623558
 30
0.0
 11
166.6924223743268
 21
65.01441007623556
 31
0.0
  0
LINE
  5
747C
330
6616
100
AcDbEntity
  8
AM_5
370
    -2
100
AcDbLine
 10
166.6924223743267
 20
57.63441007623558
 30
0.0
 11
166.6924223743267
 21
56.13441007623558
 31
0.0
  0
LINE
  5
747D
330
6616
100
AcDbEntity
  8
AM_5
370
    -2
100
AcDbLine
 10
166.6924223743267
 20
62.01441007623557
 30
0.0
 11
166.6924223743267
 21
59.13441007623558
 31
0.0
  0
SOLID
  5
747E
330
6616
100
AcDbEntity
  8
AM_5
100
AcDbTrace
 10
166.4424223743267
 20
63.51441007623558
 30
0.0
 11
166.9424223743267
 21
63.51441007623558
 31
0.0
 12
166.6924223743267
 22
62.01441007623557
 32
0.0
 13
166.6924223743267
 23
62.01441007623557
 33
0.0
  0
SOLID
  5
747F
330
6616
100
AcDbEntity
  8
AM_5
100
AcDbTrace
 10
166.4424223743267
 20
57.63441007623558
 30
0.0
 11
166.9424223743267
 21
57.63441007623558
 31
0.0
 12
166.6924223743267
 22
59.13441007623558
 32
0.0
 13
166.6924223743267
 23
59.13441007623558
 33
0.0
  0
MTEXT
  5
7480
330
6616
100
AcDbEntity
  8
AM_5
 62
     7
100
AcDbMText
 10
165.0924223743268
 20
60.57441007623561
 30
0.0
 40
2.0
 41
0.0
 71
     5
 72
     1
  1
M4
  7
ROMANS
 11
0.0000000000000001
 21
1.0
 31
0.0
 73
     1
 44
1.0
  0
POINT
  5
7481
330
6616
100
AcDbEntity
  8
DEFPOINTS
 62
     0
100
AcDbPoint
 10
171.0015936143267
 20
62.01441007623557
 30
0.0
  0
POINT
  5
7482
330
6616
100
AcDbEntity
  8
DEFPOINTS
 62
     0
100
AcDbPoint
 10
171.0015936143267
 20
59.13441007623558
 30
0.0
  0
POINT
  5
7483
330
6616
100
AcDbEntity
  8
DEFPOINTS
 62
     0
100
AcDbPoint
 10
166.6924223743267
 20
59.13441007623558
 30
0.0
  0
ENDBLK
  5
70DD
330
6616
100
AcDbEntity
  8
0
100
AcDbBlockEnd
  0
BLOCK
  5
6F57
330
6624
100
AcDbEntity
  8
0
100
AcDbBlockBegin
  2
*D14
 70
     1
 10
0.0
 20
0.0
 30
0.0
  3
*D14
  1

  0
LINE
  5
7453
330
6624
100
AcDbEntity
  8
AM_5
370
    -2
100
AcDbLine
 10
138.1788735938604
 20
67.42205569258222
 30
0.0
 11
128.959545500552
 21
58.20272759927393
 31
0.0
  0
LINE
  5
7454
330
6624
100
AcDbEntity
  8
AM_5
370
    -2
100
AcDbLine
 10
134.6150554166802
 20
70.9858738697625
 30
0.0
 11
125.3957273233718
 21
61.76654577645421
 31
0.0
  0
LINE
  5
7455
330
6624
100
AcDbEntity
  8
AM_5
370
    -2
100
AcDbLine
 10
128.6059921099587
 20
59.97049455224029
 30
0.0
 11
127.1634942763381
 21
61.41299238586092
 31
0.0
  0
SOLID
  5
7456
330
6624
100
AcDbEntity
  8
AM_5
100
AcDbTrace
 10
128.7827688052554
 20
60.14727124753694
 30
0.0
 11
128.4292154146621
 21
59.79371785694366
 31
0.0
 12
129.6666522817386
 22
58.90983438046046
 32
0.0
 13
129.6666522817386
 23
58.90983438046046
 33
0.0
  0
SOLID
  5
7457
330
6624
100
AcDbEntity
  8
AM_5
100
AcDbTrace
 10
127.3402709716348
 20
61.58976908115755
 30
0.0
 11
126.9867175810415
 21
61.23621569056428
 31
0.0
 12
126.1028341045583
 22
62.47365255764075
 32
0.0
 13
126.1028341045583
 23
62.47365255764075
 33
0.0
  0
MTEXT
  5
7458
330
6624
100
AcDbEntity
  8
AM_5
 62
     7
100
AcDbMText
 10
129.0161140430469
 20
61.82311431894906
 30
0.0
 40
2.0
 41
0.0
 71
     5
 72
     1
  1
7
  7
ROMANS
 11
0.7071067811865419
 21
-0.7071067811865532
 31
0.0
 73
     1
 44
1.0
  0
POINT
  5
7459
330
6624
100
AcDbEntity
  8
DEFPOINTS
 62
     0
100
AcDbPoint
 10
138.885980375047
 20
68.12916247376875
 30
0.0
  0
POINT
  5
745A
330
6624
100
AcDbEntity
  8
DEFPOINTS
 62
     0
100
AcDbPoint
 10
135.3221621978668
 20
71.69298065094904
 30
0.0
  0
POINT
  5
745B
330
6624
100
AcDbEntity
  8
DEFPOINTS
 62
     0
100
AcDbPoint
 10
126.1028341045583
 20
62.47365255764075
 30
0.0
  0
ENDBLK
  5
6F61
330
6624
100
AcDbEntity
  8
0
100
AcDbBlockEnd
  0
BLOCK
  5
7039
330
6632
100
AcDbEntity
  8
0
100
AcDbBlockBegin
  2
*D15
 70
     1
 10
0.0
 20
0.0
 30
0.0
  3
*D15
  1

  0
LINE
  5
749F
330
6632
100
AcDbEntity
  8
AM_5
370
    -2
100
AcDbLine
 10
138.1788735938604
 20
75.96390560931578
 30
0.0
 11
129.2421891696343
 21
84.900590033542
 31
0.0
  0
LINE
  5
74A0
330
6632
100
AcDbEntity
  8
AM_5
370
    -2
100
AcDbLine
 10
134.6150554166802
 20
72.40008743213559
 30
0.0
 11
125.6783709924541
 21
81.33677185636182
 31
0.0
  0
LINE
  5
74A1
330
6632
100
AcDbEntity
  8
AM_5
370
    -2
100
AcDbLine
 10
128.888635779041
 20
83.13282308057564
 30
0.0
 11
127.4461379454205
 21
81.69032524695508
 31
0.0
  0
SOLID
  5
74A2
330
6632
100
AcDbEntity
  8
AM_5
100
AcDbTrace
 10
128.7118590837444
 20
83.30959977587227
 30
0.0
 11
129.0654124743376
 21
82.95604638527899
 31
0.0
 12
129.9492959508208
 22
84.19348325235544
 32
0.0
 13
129.9492959508208
 23
84.19348325235544
 33
0.0
  0
SOLID
  5
74A3
330
6632
100
AcDbEntity
  8
AM_5
100
AcDbTrace
 10
127.2693612501238
 20
81.86710194225172
 30
0.0
 11
127.6229146407171
 21
81.51354855165845
 31
0.0
 12
126.3854777736406
 22
80.62966507517527
 32
0.0
 13
126.3854777736406
 23
80.62966507517527
 33
0.0
  0
MTEXT
  5
74A4
330
6632
100
AcDbEntity
  8
AM_5
 62
     7
100
AcDbMText
 10
127.0360160123322
 20
83.54294501366386
 30
0.0
 40
2.0
 41
0.0
 71
     5
 72
     1
  1
7
  7
ROMANS
 11
0.7071067811865504
 21
0.7071067811865447
 31
0.0
 73
     1
 44
1.0
  0
POINT
  5
74A5
330
6632
100
AcDbEntity
  8
DEFPOINTS
 62
     0
100
AcDbPoint
 10
138.885980375047
 20
75.25679882812922
 30
0.0
  0
POINT
  5
74A6
330
6632
100
AcDbEntity
  8
DEFPOINTS
 62
     0
100
AcDbPoint
 10
135.3221621978668
 20
71.69298065094904
 30
0.0
  0
POINT
  5
74A7
330
6632
100
AcDbEntity
  8
DEFPOINTS
 62
     0
100
AcDbPoint
 10
126.3854777736406
 20
80.62966507517527
 30
0.0
  0
ENDBLK
  5
7043
330
6632
100
AcDbEntity
  8
0
100
AcDbBlockEnd
  0
BLOCK
  5
7114
330
6640
100
AcDbEntity
  8
0
100
AcDbBlockBegin
  2
*D16
 70
     1
 10
0.0
 20
0.0
 30
0.0
  3
*D16
  1

  0
LINE
  5
742F
330
6640
100
AcDbEntity
  8
AM_5
370
    -2
100
AcDbLine
 10
182.6004223743267
 20
76.41441007623453
 30
0.0
 11
187.6004223743267
 21
76.41441007623453
 31
0.0
  0
LINE
  5
7430
330
6640
100
AcDbEntity
  8
AM_5
370
    -2
100
AcDbLine
 10
182.6004223743267
 20
67.05441007623455
 30
0.0
 11
187.6004223743267
 21
67.05441007623455
 31
0.0
  0
LINE
  5
7431
330
6640
100
AcDbEntity
  8
AM_5
370
    -2
100
AcDbLine
 10
186.6004223743267
 20
74.91441007623453
 30
0.0
 11
186.6004223743267
 21
68.55441007623454
 31
0.0
  0
SOLID
  5
7432
330
6640
100
AcDbEntity
  8
AM_5
100
AcDbTrace
 10
186.3504223743267
 20
74.91441007623453
 30
0.0
 11
186.8504223743267
 21
74.91441007623453
 31
0.0
 12
186.6004223743267
 22
76.41441007623453
 32
0.0
 13
186.6004223743267
 23
76.41441007623453
 33
0.0
  0
SOLID
  5
7433
330
6640
100
AcDbEntity
  8
AM_5
100
AcDbTrace
 10
186.3504223743267
 20
68.55441007623454
 30
0.0
 11
186.8504223743267
 21
68.55441007623454
 31
0.0
 12
186.6004223743267
 22
67.05441007623455
 32
0.0
 13
186.6004223743267
 23
67.05441007623455
 33
0.0
  0
MTEXT
  5
7434
330
6640
100
AcDbEntity
  8
AM_5
 62
     7
100
AcDbMText
 10
185.0004223743266
 20
71.73441007623456
 30
0.0
 40
2.0
 41
0.0
 71
     5
 72
     1
  1
{%%c13}
  7
ROMANS
 11
0.0000000000000001
 21
1.0
 31
0.0
 73
     1
 44
1.0
  0
POINT
  5
7435
330
6640
100
AcDbEntity
  8
DEFPOINTS
 62
     0
100
AcDbPoint
 10
181.6004223743267
 20
76.41441007623453
 30
0.0
  0
POINT
  5
7436
330
6640
100
AcDbEntity
  8
DEFPOINTS
 62
     0
100
AcDbPoint
 10
181.6004223743267
 20
67.05441007623455
 30
0.0
  0
POINT
  5
7437
330
6640
100
AcDbEntity
  8
DEFPOINTS
 62
     0
100
AcDbPoint
 10
186.6004223743267
 20
67.05441007623455
 30
0.0
  0
ENDBLK
  5
711E
330
6640
100
AcDbEntity
  8
0
100
AcDbBlockEnd
  0
BLOCK
  5
7048
330
664C
100
AcDbEntity
  8
0
100
AcDbBlockBegin
  2
*D17
 70
     1
 10
0.0
 20
0.0
 30
0.0
  3
*D17
  1

  0
LINE
  5
74A8
330
664C
100
AcDbEntity
  8
AM_5
370
    -2
100
AcDbLine
 10
171.7364223743267
 20
90.01441007623558
 30
0.0
 11
171.7364223743267
 21
94.01441007623558
 31
0.0
  0
LINE
  5
74A9
330
664C
100
AcDbEntity
  8
AM_5
370
    -2
100
AcDbLine
 10
173.1764223743267
 20
90.01441007623558
 30
0.0
 11
173.1764223743267
 21
94.01441007623558
 31
0.0
  0
LINE
  5
74AA
330
664C
100
AcDbEntity
  8
AM_5
370
    -2
100
AcDbLine
 10
174.6764223743267
 20
93.01441007623557
 30
0.0
 11
176.1764223743267
 21
93.01441007623557
 31
0.0
  0
LINE
  5
74AB
330
664C
100
AcDbEntity
  8
AM_5
370
    -2
100
AcDbLine
 10
170.2364223743266
 20
93.01441007623557
 30
0.0
 11
166.0707848324275
 21
93.01441007623557
 31
0.0
  0
LINE
  5
74AC
330
664C
100
AcDbEntity
  8
AM_5
370
    -2
100
AcDbLine
 10
173.1764223743267
 20
93.01441007623557
 30
0.0
 11
171.7364223743267
 21
93.01441007623557
 31
0.0
  0
SOLID
  5
74AD
330
664C
100
AcDbEntity
  8
AM_5
100
AcDbTrace
 10
174.6764223743267
 20
93.26441007623557
 30
0.0
 11
174.6764223743267
 21
92.76441007623558
 31
0.0
 12
173.1764223743267
 22
93.01441007623557
 32
0.0
 13
173.1764223743267
 23
93.01441007623557
 33
0.0
  0
SOLID
  5
74AE
330
664C
100
AcDbEntity
  8
AM_5
100
AcDbTrace
 10
170.2364223743266
 20
93.26441007623557
 30
0.0
 11
170.2364223743266
 21
92.76441007623558
 31
0.0
 12
171.7364223743267
 22
93.01441007623557
 32
0.0
 13
171.7364223743267
 23
93.01441007623557
 33
0.0
  0
MTEXT
  5
74AF
330
664C
100
AcDbEntity
  8
AM_5
 62
     7
100
AcDbMText
 10
167.4036036033771
 20
94.61441007623557
 30
0.0
 40
2.0
 41
0.0
 71
     5
 72
     1
  1
2
  7
ROMANS
 73
     1
 44
1.0
  0
POINT
  5
74B0
330
664C
100
AcDbEntity
  8
DEFPOINTS
 62
     0
100
AcDbPoint
 10
171.7364223743267
 20
89.01441007623558
 30
0.0
  0
POINT
  5
74B1
330
664C
100
AcDbEntity
  8
DEFPOINTS
 62
     0
100
AcDbPoint
 10
173.1764223743267
 20
89.01441007623558
 30
0.0
  0
POINT
  5
74B2
330
664C
100
AcDbEntity
  8
DEFPOINTS
 62
     0
100
AcDbPoint
 10
173.1764223743267
 20
93.01441007623557
 30
0.0
  0
ENDBLK
  5
7054
330
664C
100
AcDbEntity
  8
0
100
AcDbBlockEnd
  0
BLOCK
  5
709A
330
6CED
100
AcDbEntity
  8
0
100
AcDbBlockBegin
  2
*D18
 70
     1
 10
0.0
 20
0.0
 30
0.0
  3
*D18
  1

  0
LINE
  5
7438
330
6CED
100
AcDbEntity
  8
AM_5
370
    -2
100
AcDbLine
 10
167.1364223743267
 20
77.13441007623558
 30
0.0
 11
163.1364223743267
 21
77.13441007623558
 31
0.0
  0
LINE
  5
7439
330
6CED
100
AcDbEntity
  8
AM_5
370
    -2
100
AcDbLine
 10
167.1364223743267
 20
66.33441007623557
 30
0.0
 11
163.1364223743267
 21
66.33441007623557
 31
0.0
  0
LINE
  5
743A
330
6CED
100
AcDbEntity
  8
AM_5
370
    -2
100
AcDbLine
 10
164.1364223743267
 20
75.63441007623558
 30
0.0
 11
164.1364223743267
 21
67.83441007623557
 31
0.0
  0
SOLID
  5
743B
330
6CED
100
AcDbEntity
  8
AM_5
100
AcDbTrace
 10
163.8864223743267
 20
75.63441007623558
 30
0.0
 11
164.3864223743267
 21
75.63441007623558
 31
0.0
 12
164.1364223743267
 22
77.13441007623558
 32
0.0
 13
164.1364223743267
 23
77.13441007623558
 33
0.0
  0
SOLID
  5
743C
330
6CED
100
AcDbEntity
  8
AM_5
100
AcDbTrace
 10
163.8864223743267
 20
67.83441007623557
 30
0.0
 11
164.3864223743267
 21
67.83441007623557
 31
0.0
 12
164.1364223743267
 22
66.33441007623557
 32
0.0
 13
164.1364223743267
 23
66.33441007623557
 33
0.0
  0
MTEXT
  5
743D
330
6CED
100
AcDbEntity
  8
AM_5
 62
     7
100
AcDbMText
 10
162.5364223743266
 20
71.7344100762356
 30
0.0
 40
2.0
 41
0.0
 71
     5
 72
     1
  1
15
  7
ROMANS
 11
0.0000000000000001
 21
1.0
 31
0.0
 73
     1
 44
1.0
  0
POINT
  5
743E
330
6CED
100
AcDbEntity
  8
DEFPOINTS
 62
     0
100
AcDbPoint
 10
168.1364223743267
 20
77.13441007623558
 30
0.0
  0
POINT
  5
743F
330
6CED
100
AcDbEntity
  8
DEFPOINTS
 62
     0
100
AcDbPoint
 10
168.1364223743267
 20
66.33441007623557
 30
0.0
  0
POINT
  5
7440
330
6CED
100
AcDbEntity
  8
DEFPOINTS
 62
     0
100
AcDbPoint
 10
164.1364223743267
 20
66.33441007623557
 30
0.0
  0
ENDBLK
  5
70A4
330
6CED
100
AcDbEntity
  8
0
100
AcDbBlockEnd
  0
BLOCK
  5
71D9
330
7197
100
AcDbEntity
  8
0
100
AcDbBlockBegin
  2
GENAXEH
 70
     0
 10
0.0
 20
0.0
 30
0.0
  3
GENAXEH
  1

  0
LINE
  5
71D8
330
7197
100
AcDbEntity
  8
0
100
AcDbLine
 10
-1.0
 20
0.0
 30
0.0
 11
1.0
 21
0.0
 31
0.0
  0
ENDBLK
  5
71DA
330
7197
100
AcDbEntity
  8
0
100
AcDbBlockEnd
  0
BLOCK
  5
720E
330
720D
100
AcDbEntity
  8
0
100
AcDbBlockBegin
  2
COMUNELLO
 70
     0
 10
0.0
 20
0.0
 30
0.0
  3
COMUNELLO
  1

  0
ENDBLK
  5
720F
330
720D
100
AcDbEntity
  8
0
100
AcDbBlockEnd
  0
BLOCK
  5
72D0
330
72CF
100
AcDbEntity
  8
0
100
AcDbBlockBegin
  2
Prova
 70
     0
 10
0.0
 20
0.0
 30
0.0
  3
Prova
  1

  0
ENDBLK
  5
72D1
330
72CF
100
AcDbEntity
  8
0
100
AcDbBlockEnd
  0
BLOCK
  5
72F3
330
72E4
100
AcDbEntity
  8
0
100
AcDbBlockBegin
  2
A4-ORIZZONTALE
 70
     0
 10
0.0
 20
0.0
 30
0.0
  3
A4-ORIZZONTALE
  1

  0
LINE
  5
72E5
330
72E4
100
AcDbEntity
  8
AM_BOR
 62
     7
100
AcDbLine
 10
10.0
 20
10.0
 30
0.0
 11
287.0
 21
10.0
 31
0.0
1001
GENIUS_GENREC_14
1002
{
1000
PYDIR
1011
0.0
1021
0.0
1031
0.0
1002
}
1002
{
1000
PXDIR
1011
297.0
1021
210.0
1031
0.0
1002
}
1002
{
1000
PORI
1011
297.0
1021
0.0
1031
0.0
1002
}
1002
{
1000
PINS
1011
297.0
1021
105.0
1031
0.0
1002
}
1002
{
1000
HVAL
1000
297
1002
}
1002
{
1000
H
1070
     2
1002
}
1002
{
1000
WVAL
1000
210
1002
}
1002
{
1000
W
1070
     2
1002
}
1002
{
1000
C
1070
     2
1002
}
1001
GENIUS_GENODEF_13
1002
{
1000
HIER
1070
     0
1002
}
1002
{
1000
MANEDIT
1070
     0
1002
}
1002
{
1000
NOSEL
1070
     0
1002
}
1002
{
1000
BEHIND
1070
     0
1002
}
1002
{
1000
REACTOR
1002
}
1001
GENIUS_GENOBJ-N-REC_13
1002
{
1000
OWNER
1000
GEN
1002
}
  0
LINE
  5
72E6
330
72E4
100
AcDbEntity
  8
AM_BOR
 62
     7
100
AcDbLine
 10
287.0
 20
200.0
 30
0.0
 11
10.0
 21
200.0
 31
0.0
1001
GENIUS_GENREC_14
1002
{
1000
PYDIR
1011
0.0
1021
0.0
1031
0.0
1002
}
1002
{
1000
PXDIR
1011
297.0
1021
210.0
1031
0.0
1002
}
1002
{
1000
PORI
1011
297.0
1021
0.0
1031
0.0
1002
}
1002
{
1000
PINS
1011
297.0
1021
105.0
1031
0.0
1002
}
1002
{
1000
HVAL
1000
297
1002
}
1002
{
1000
H
1070
     2
1002
}
1002
{
1000
WVAL
1000
210
1002
}
1002
{
1000
W
1070
     2
1002
}
1002
{
1000
C
1070
     2
1002
}
1001
GENIUS_GENODEF_13
1002
{
1000
HIER
1070
     0
1002
}
1002
{
1000
MANEDIT
1070
     0
1002
}
1002
{
1000
NOSEL
1070
     0
1002
}
1002
{
1000
BEHIND
1070
     0
1002
}
1002
{
1000
REACTOR
1002
}
1001
GENIUS_GENOBJ-N-REC_13
1002
{
1000
OWNER
1000
GEN
1002
}
  0
LINE
  5
72E7
330
72E4
100
AcDbEntity
  8
AM_BOR
 62
     7
100
AcDbLine
 10
10.0
 20
200.0
 30
0.0
 11
10.0
 21
10.0
 31
0.0
1001
GENIUS_GENREC_14
1002
{
1000
PYDIR
1011
0.0
1021
0.0
1031
0.0
1002
}
1002
{
1000
PXDIR
1011
297.0
1021
210.0
1031
0.0
1002
}
1002
{
1000
PORI
1011
297.0
1021
0.0
1031
0.0
1002
}
1002
{
1000
PINS
1011
297.0
1021
105.0
1031
0.0
1002
}
1002
{
1000
HVAL
1000
297
1002
}
1002
{
1000
H
1070
     2
1002
}
1002
{
1000
WVAL
1000
210
1002
}
1002
{
1000
W
1070
     2
1002
}
1002
{
1000
C
1070
     2
1002
}
1001
GENIUS_GENODEF_13
1002
{
1000
HIER
1070
     0
1002
}
1002
{
1000
MANEDIT
1070
     0
1002
}
1002
{
1000
NOSEL
1070
     0
1002
}
1002
{
1000
BEHIND
1070
     0
1002
}
1002
{
1000
REACTOR
1002
}
1001
GENIUS_GENOBJ-N-REC_13
1002
{
1000
OWNER
1000
GEN
1002
}
  0
LINE
  5
72E8
330
72E4
100
AcDbEntity
  8
AM_BOR
 62
     4
100
AcDbLine
 10
0.0
 20
0.0
 30
0.0
 11
10.0
 21
0.0
 31
0.0
  0
LINE
  5
72E9
330
72E4
100
AcDbEntity
  8
AM_BOR
 62
     4
100
AcDbLine
 10
0.0
 20
20.0
 30
0.0
 11
0.0
 21
0.0
 31
0.0
  0
LINE
  5
72EA
330
72E4
100
AcDbEntity
  8
AM_BOR
 62
     4
100
AcDbLine
 10
10.0
 20
210.0
 30
0.0
 11
0.0
 21
210.0
 31
0.0
  0
LINE
  5
72EB
330
72E4
100
AcDbEntity
  8
AM_BOR
 62
     4
100
AcDbLine
 10
0.0
 20
210.0
 30
0.0
 11
0.0
 21
190.0
 31
0.0
  0
LINE
  5
72EC
330
72E4
100
AcDbEntity
  8
AM_BOR
 62
     7
100
AcDbLine
 10
287.0
 20
10.0
 30
0.0
 11
287.0
 21
200.0
 31
0.0
1001
GENIUS_GENREC_14
1002
{
1000
PYDIR
1011
0.0
1021
0.0
1031
0.0
1002
}
1002
{
1000
PXDIR
1011
297.0
1021
210.0
1031
0.0
1002
}
1002
{
1000
PORI
1011
297.0
1021
0.0
1031
0.0
1002
}
1002
{
1000
PINS
1011
297.0
1021
105.0
1031
0.0
1002
}
1002
{
1000
HVAL
1000
297
1002
}
1002
{
1000
H
1070
     2
1002
}
1002
{
1000
WVAL
1000
210
1002
}
1002
{
1000
W
1070
     2
1002
}
1002
{
1000
C
1070
     2
1002
}
1001
GENIUS_GENODEF_13
1002
{
1000
HIER
1070
     0
1002
}
1002
{
1000
MANEDIT
1070
     0
1002
}
1002
{
1000
NOSEL
1070
     0
1002
}
1002
{
1000
BEHIND
1070
     0
1002
}
1002
{
1000
REACTOR
1002
}
1001
GENIUS_GENOBJ-N-REC_13
1002
{
1000
OWNER
1000
GEN
1002
}
  0
TEXT
  5
72ED
330
72E4
100
AcDbEntity
  8
AM_BOR
 62
     1
 60
     1
100
AcDbText
 10
287.0
 20
10.0
 30
0.0
 40
2.5
  1
!GENTITLE-INSERT
100
AcDbText
  0
LINE
  5
72EE
330
72E4
100
AcDbEntity
  8
AM_BOR
 62
     4
100
AcDbLine
 10
297.0
 20
0.0
 30
0.0
 11
297.0
 21
20.0
 31
0.0
  0
LINE
  5
72EF
330
72E4
100
AcDbEntity
  8
AM_BOR
 62
     4
100
AcDbLine
 10
287.0
 20
0.0
 30
0.0
 11
297.0
 21
0.0
 31
0.0
  0
LINE
  5
72F0
330
72E4
100
AcDbEntity
  8
AM_BOR
 62
     4
100
AcDbLine
 10
297.0
 20
190.0
 30
0.0
 11
297.0
 21
210.0
 31
0.0
  0
LINE
  5
72F1
330
72E4
100
AcDbEntity
  8
AM_BOR
 62
     4
100
AcDbLine
 10
297.0
 20
210.0
 30
0.0
 11
287.0
 21
210.0
 31
0.0
  0
INSERT
  5
72F2
330
72E4
100
AcDbEntity
  8
AM_0
100
AcDbBlockReference
  2
Prova
 10
0.0
 20
0.0
 30
0.0
  0
ENDBLK
  5
72F4
330
72E4
100
AcDbEntity
  8
0
100
AcDbBlockEnd
  0
BLOCK
  5
7370
330
72FA
100
AcDbEntity
  8
0
100
AcDbBlockBegin
  2
ASM_C4
 70
     2
 10
0.0
 20
0.0
 30
0.0
  3
ASM_C4
  1

  0
MTEXT
  5
72FB
330
72FA
100
AcDbEntity
  8
AM_0
100
AcDbMText
 10
-101.1329575317798
 20
26.37414633253953
 30
0.0
 40
2.1
 41
36.09
 71
     1
 72
     5
  1
{\fArial|b0|i0|c0|p34;Via Cassola , 64\P36027 Rosa' (VI)\PITALY\PTel.0424/585111\PFax.0424/533417\Pwww.comunello.com}
 73
     1
 44
1.0
  0
TEXT
  5
72FC
330
72FA
100
AcDbEntity
  8
AM_BOR
 62
     3
100
AcDbText
 10
-87.35047619047614
 20
41.50000000000011
 30
0.0
 40
2.5
  1
Trattamento
 41
0.8
  7
QUOTE
100
AcDbText
  0
TEXT
  5
72FD
330
72FA
100
AcDbEntity
  8
AM_BOR
100
AcDbText
 10
-189.0
 20
1.302472478823688
 30
0.0
 40
2.5
  1
La F.LLI COMUNELLO si riserva a termini di legge la proprieta' del presente disegno con divieto di riprodurlo o comunicarlo a terzi senza sua autorizzazione.
 41
0.8375497215592698
  7
ISO
 72
     5
 11
-1.0
 21
1.302472478823688
 31
0.0
100
AcDbText
  0
LINE
  5
72FE
330
72FA
100
AcDbEntity
  8
AM_BOR
100
AcDbLine
 10
-190.0
 20
0.0
 30
0.0
 11
0.0
 21
0.0
 31
0.0
  0
LINE
  5
72FF
330
72FA
100
AcDbEntity
  8
AM_BOR
100
AcDbLine
 10
-190.0
 20
4.5
 30
0.0
 11
0.0
 21
4.5
 31
0.0
  0
LINE
  5
7300
330
72FA
100
AcDbEntity
  8
AM_BOR
100
AcDbLine
 10
-190.0
 20
28.49999997550006
 30
0.0
 11
0.0000000000001421
 21
28.49999997550006
 31
0.0
  0
LINE
  5
7301
330
72FA
100
AcDbEntity
  8
AM_BOR
100
AcDbLine
 10
-190.0
 20
36.49999997550014
 30
0.0
 11
0.0000000000001421
 21
36.49999997550014
 31
0.0
  0
LINE
  5
7302
330
72FA
100
AcDbEntity
  8
AM_BOR
100
AcDbLine
 10
-190.0
 20
44.5
 30
0.0
 11
0.0000000000001137
 21
44.5
 31
0.0
  0
LINE
  5
7303
330
72FA
100
AcDbEntity
  8
AM_BOR
100
AcDbLine
 10
-190.0
 20
49.5
 30
0.0
 11
0.0
 21
49.5
 31
0.0
  0
LINE
  5
7304
330
72FA
100
AcDbEntity
  8
AM_BOR
100
AcDbLine
 10
0.0
 20
57.5
 30
0.0
 11
-190.0
 21
57.5
 31
0.0
  0
LINE
  5
7305
330
72FA
100
AcDbEntity
  8
AM_BOR
100
AcDbLine
 10
-88.35047619047619
 20
57.5
 30
0.0
 11
-88.35047619047623
 21
28.4999999755002
 31
0.0
  0
LINE
  5
7306
330
72FA
100
AcDbEntity
  8
AM_BOR
100
AcDbLine
 10
-117.285238095238
 20
57.5
 30
0.0
 11
-117.285238095238
 21
28.49999997550005
 31
0.0
  0
LINE
  5
7307
330
72FA
100
AcDbEntity
  8
AM_BOR
100
AcDbLine
 10
-190.0
 20
0.0
 30
0.0
 11
-190.0
 21
57.5
 31
0.0
  0
HATCH
  5
7308
330
72FA
100
AcDbEntity
  8
AM_0
100
AcDbHatch
 10
0.0
 20
0.0
 30
0.0
210
0.0
220
0.0
230
1.0
  2
SOLID
 70
     1
 71
     1
 91
        1
 92
        7
 72
     1
 73
     1
 93
        8
 10
-190.0
 20
16.74999998775003
 42
0.0
 10
-189.9999999999998
 20
16.24999998775003
 42
0.0
 10
-183.4749377501092
 20
16.24999998775003
 42
0.200356615422539
 10
-172.1250555175808
 20
16.24999998775003
 42
0.0
 10
-104.9422870460472
 20
16.24999998775003
 42
0.0
 10
-104.9422870460472
 20
16.74999998775001
 42
0.0
 10
-172.2261339984467
 20
16.74999998775003
 42
-0.2039899561851438
 10
-183.3738592692433
 20
16.74999998775003
 42
0.0
 97
        8
330
7324
330
7325
330
7323
330
731A
330
7309
330
733E
330
730A
330
731B
 75
     0
 76
     1
 47
0.0837474085199163
 98
        1
 10
-190.9512595196649
 20
16.5781913483155
  0
LINE
  5
7309
102
{ACAD_REACTORS
330
7308
102
}
330
72FA
100
AcDbEntity
  8
AM_0
100
AcDbLine
 10
-172.1250555175808
 20
16.24999998775003
 30
0.0
 11
-104.9422870460472
 21
16.24999998775003
 31
0.0
  0
LINE
  5
730A
102
{ACAD_REACTORS
330
7308
102
}
330
72FA
100
AcDbEntity
  8
AM_0
100
AcDbLine
 10
-172.2261339984466
 20
16.74999998775003
 30
0.0
 11
-104.9422870460472
 21
16.74999998775001
 31
0.0
  0
HATCH
  5
730B
330
72FA
100
AcDbEntity
  8
AM_0
100
AcDbHatch
 10
0.0
 20
0.0
 30
0.0
210
0.0
220
0.0
230
1.0
  2
SOLID
 70
     1
 71
     1
 91
        2
 92
        7
 72
     1
 73
     1
 93
        6
 10
-183.0220216617666
 20
14.84297924086208
 42
0.0
 10
-188.2999091127343
 20
14.84297924086208
 42
0.0
 10
-188.2999091127344
 20
8.093035504433164
 42
0.0
 10
-167.3000841549557
 20
8.093035504433162
 42
0.0
 10
-167.3000841549557
 20
14.84297924086208
 42
0.0
 10
-172.5779716059233
 20
14.84297924086208
 42
-0.2010697463675001
 97
        6
330
7311
330
731E
330
7321
330
7317
330
7316
330
7328
 92
       22
 72
     1
 73
     1
 93
        6
 10
-172.2277903941854
 20
13.04299424448096
 42
0.0
 10
-169.1000691513368
 20
13.04299424448096
 42
0.0
 10
-169.1000691513367
 20
9.893020500814165
 42
0.0
 10
-186.4999241163533
 20
9.893020500814275
 42
0.0
 10
-186.4999241163533
 20
13.04299424448096
 42
0.0
 10
-183.3722028735046
 20
13.04299424448096
 42
0.1884336657203522
 97
        6
330
730F
330
7336
330
7315
330
7322
330
7320
330
731F
 75
     0
 76
     1
 47
0.0434113165432333
 98
        2
 10
-175.1093714947233
 20
13.2812740545475
 10
-175.1093714947233
 20
13.2812740545475
  0
HATCH
  5
730C
330
72FA
100
AcDbEntity
  8
AM_0
100
AcDbHatch
 10
0.0
 20
0.0
 30
0.0
210
0.0
220
0.0
230
1.0
  2
SOLID
 70
     1
 71
     1
 91
        2
 92
        7
 72
     1
 73
     1
 93
        6
 10
-188.2999091127343
 20
24.73292297729091
 42
0.0
 10
-188.2999091127343
 20
17.98297924086199
 42
0.0
 10
-182.899954123591
 20
17.98297924086199
 42
0.2058823529411692
 10
-172.7000391440989
 20
17.98297924086199
 42
0.0
 10
-167.3000841549557
 20
17.98297924086199
 42
0.0
 10
-167.3000841549557
 20
24.73292297729091
 42
0.0
 97
        6
330
7314
330
7319
330
7326
330
731D
330
7312
330
7333
 92
       22
 72
     1
 73
     1
 93
        6
 10
-169.1000691513367
 20
22.93293798090991
 42
0.0
 10
-169.1000691513367
 20
19.7829642372431
 42
0.0
 10
-173.085165840258
 20
19.7829642372431
 42
-0.222699667041523
 10
-182.5148274274319
 20
19.7829642372431
 42
0.0
 10
-186.4999241163532
 20
19.78296423724311
 42
0.0
 10
-186.4999241163532
 20
22.93293798090991
 42
0.0
 97
        6
330
7334
330
7310
330
7327
330
731C
330
7318
330
7313
 75
     0
 76
     1
 47
0.0434113165432333
 98
        2
 10
-176.0648603854307
 20
23.61316742875459
 10
-176.0648603854307
 20
23.61316742875459
  0
TEXT
  5
730D
330
72FA
100
AcDbEntity
  8
AM_BOR
 62
     3
100
AcDbText
 10
-189.0522490983589
 20
33.49999997550026
 30
0.0
 40
2.5
  1
Sostituisce il
 41
0.8
  7
QUOTE
100
AcDbText
  0
TEXT
  5
730E
330
72FA
100
AcDbEntity
  8
AM_BOR
 62
     3
100
AcDbText
 10
-189.0142146823992
 20
41.50000000000011
 30
0.0
 40
2.5
  1
Tolleranze generali
 41
0.8
  7
QUOTE
100
AcDbText
  0
LINE
  5
730F
102
{ACAD_REACTORS
330
730B
102
}
330
72FA
100
AcDbEntity
  8
AM_0
100
AcDbLine
 10
-172.2277903941853
 20
13.04299424448096
 30
0.0
 11
-169.1000691513367
 21
13.04299424448096
 31
0.0
  0
LINE
  5
7310
102
{ACAD_REACTORS
330
730C
102
}
330
72FA
100
AcDbEntity
  8
AM_BOR
100
AcDbLine
 10
-173.085165840258
 20
19.7829642372431
 30
0.0
 11
-169.1000691513367
 21
19.7829642372431
 31
0.0
  0
LINE
  5
7311
102
{ACAD_REACTORS
330
730B
102
}
330
72FA
100
AcDbEntity
  8
AM_BOR
100
AcDbLine
 10
-172.5779716059234
 20
14.84297924086208
 30
0.0
 11
-167.3000841549557
 21
14.84297924086208
 31
0.0
  0
LINE
  5
7312
102
{ACAD_REACTORS
330
730C
102
}
330
72FA
100
AcDbEntity
  8
AM_BOR
100
AcDbLine
 10
-172.7000391440987
 20
17.98297924086199
 30
0.0
 11
-167.3000841549557
 21
17.98297924086199
 31
0.0
  0
LINE
  5
7313
102
{ACAD_REACTORS
330
730C
102
}
330
72FA
100
AcDbEntity
  8
AM_BOR
100
AcDbLine
 10
-169.1000691513367
 20
22.93293798090991
 30
0.0
 11
-186.4999241163532
 21
22.93293798090991
 31
0.0
  0
LINE
  5
7314
102
{ACAD_REACTORS
330
730C
102
}
330
72FA
100
AcDbEntity
  8
AM_0
100
AcDbLine
 10
-167.3000841549557
 20
24.73292297729091
 30
0.0
 11
-188.2999091127343
 21
24.73292297729091
 31
0.0
  0
LINE
  5
7315
102
{ACAD_REACTORS
330
730B
102
}
330
72FA
100
AcDbEntity
  8
AM_0
100
AcDbLine
 10
-169.1000691513367
 20
9.893020500814163
 30
0.0
 11
-186.4999241163533
 21
9.893020500814277
 31
0.0
  0
LINE
  5
7316
102
{ACAD_REACTORS
330
730B
102
}
330
72FA
100
AcDbEntity
  8
AM_0
100
AcDbLine
 10
-167.3000841549557
 20
8.093035504433164
 30
0.0
 11
-188.2999091127343
 21
8.093035504433164
 31
0.0
  0
LINE
  5
7317
102
{ACAD_REACTORS
330
730B
102
}
330
72FA
100
AcDbEntity
  8
AM_BOR
100
AcDbLine
 10
-188.2999091127343
 20
8.093035504433164
 30
0.0
 11
-188.2999091127343
 21
14.84297924086208
 31
0.0
  0
LINE
  5
7318
102
{ACAD_REACTORS
330
730C
102
}
330
72FA
100
AcDbEntity
  8
AM_BOR
100
AcDbLine
 10
-186.4999241163533
 20
19.7829642372431
 30
0.0
 11
-186.4999241163532
 21
22.93293798090991
 31
0.0
  0
LINE
  5
7319
102
{ACAD_REACTORS
330
730C
102
}
330
72FA
100
AcDbEntity
  8
AM_BOR
100
AcDbLine
 10
-188.2999091127343
 20
17.98297924086199
 30
0.0
 11
-188.2999091127343
 21
24.73292297729091
 31
0.0
  0
ARC
  5
731A
102
{ACAD_REACTORS
330
7308
102
}
330
72FA
100
AcDbEntity
  8
AM_BOR
100
AcDbCircle
 10
-177.799996633845
 20
29.8435946634442
 30
0.0
 40
14.73060667047107
100
AcDbArc
 50
247.3408443660875
 51
292.6591556339125
  0
ARC
  5
731B
102
{ACAD_REACTORS
330
7308
102
}
330
72FA
100
AcDbEntity
  8
AM_BOR
100
AcDbCircle
 10
-177.799996633845
 20
29.8435946634442
 30
0.0
 40
14.23060667047107
100
AcDbArc
 50
246.9408441772613
 51
293.0591558227387
  0
LINE
  5
731C
102
{ACAD_REACTORS
330
730C
102
}
330
72FA
100
AcDbEntity
  8
AM_BOR
100
AcDbLine
 10
-186.4999241163533
 20
19.7829642372431
 30
0.0
 11
-182.514827427432
 21
19.7829642372431
 31
0.0
  0
ARC
  5
731D
102
{ACAD_REACTORS
330
730C
102
}
330
72FA
100
AcDbEntity
  8
AM_BOR
100
AcDbCircle
 10
-177.799996633845
 20
29.8435946634442
 30
0.0
 40
12.91060667047107
100
AcDbArc
 50
246.732732002119
 51
293.2672679978809
  0
ARC
  5
731E
102
{ACAD_REACTORS
330
730B
102
}
330
72FA
100
AcDbEntity
  8
AM_0
100
AcDbCircle
 10
-177.799996633845
 20
27.30358966223788
 30
0.0
 40
13.51060166926475
100
AcDbArc
 50
247.2622901981336
 51
292.7377098018663
  0
ARC
  5
731F
102
{ACAD_REACTORS
330
730B
102
}
330
72FA
100
AcDbEntity
  8
AM_0
100
AcDbCircle
 10
-177.799996633845
 20
27.30358966223788
 30
0.0
 40
15.31058666564578
100
AcDbArc
 50
248.6573503713684
 51
291.3426496286314
  0
LINE
  5
7320
102
{ACAD_REACTORS
330
730B
102
}
330
72FA
100
AcDbEntity
  8
AM_BOR
100
AcDbLine
 10
-186.4999241163533
 20
13.04299424448096
 30
0.0
 11
-183.3722028735047
 21
13.04299424448096
 31
0.0
  0
LINE
  5
7321
102
{ACAD_REACTORS
330
730B
102
}
330
72FA
100
AcDbEntity
  8
AM_BOR
100
AcDbLine
 10
-188.2999091127343
 20
14.84297924086208
 30
0.0
 11
-183.0220216617667
 21
14.84297924086208
 31
0.0
  0
LINE
  5
7322
102
{ACAD_REACTORS
330
730B
102
}
330
72FA
100
AcDbEntity
  8
AM_BOR
100
AcDbLine
 10
-186.4999241163533
 20
9.893020500814277
 30
0.0
 11
-186.4999241163533
 21
13.04299424448096
 31
0.0
  0
LINE
  5
7323
102
{ACAD_REACTORS
330
7308
102
}
330
72FA
100
AcDbEntity
  8
AM_0
100
AcDbLine
 10
-183.4749377501091
 20
16.24999998775003
 30
0.0
 11
-189.9999999999998
 21
16.24999998775003
 31
0.0
  0
LINE
  5
7324
102
{ACAD_REACTORS
330
7308
102
}
330
72FA
100
AcDbEntity
  8
AM_0
100
AcDbLine
 10
-183.3738592692434
 20
16.74999998775003
 30
0.0
 11
-190.0
 21
16.74999998775003
 31
0.0
  0
LINE
  5
7325
102
{ACAD_REACTORS
330
7308
102
}
330
72FA
100
AcDbEntity
  8
AM_0
100
AcDbLine
 10
-190.0
 20
16.74999998775003
 30
0.0
 11
-189.9999999999998
 21
16.24999998775003
 31
0.0
  0
LINE
  5
7326
102
{ACAD_REACTORS
330
730C
102
}
330
72FA
100
AcDbEntity
  8
AM_BOR
100
AcDbLine
 10
-188.2999091127343
 20
17.98297924086199
 30
0.0
 11
-182.8999541235913
 21
17.98297924086199
 31
0.0
  0
ARC
  5
7327
102
{ACAD_REACTORS
330
730C
102
}
330
72FA
100
AcDbEntity
  8
AM_BOR
100
AcDbCircle
 10
-177.799996633845
 20
29.8435946634442
 30
0.0
 40
11.11062167409004
100
AcDbArc
 50
244.8902533520527
 51
295.1097466479472
  0
LINE
  5
7328
102
{ACAD_REACTORS
330
730B
102
}
330
72FA
100
AcDbEntity
  8
AM_0
100
AcDbLine
 10
-167.3000841549557
 20
8.093035504433164
 30
0.0
 11
-167.3000841549557
 21
14.84297924086208
 31
0.0
  0
CIRCLE
  5
7329
330
72FA
100
AcDbEntity
  8
AM_0
100
AcDbCircle
 10
-124.380293346984
 20
32.4999999755001
 30
0.0
 40
1.8
  0
CIRCLE
  5
732A
330
72FA
100
AcDbEntity
  8
AM_0
100
AcDbCircle
 10
-124.380293346984
 20
32.4999999755001
 30
0.0
 40
2.700000000000038
  0
LINE
  5
732B
330
72FA
100
AcDbEntity
  8
AM_7
  6
AM_ISO08W050x2
100
AcDbLine
 10
-138.1049065250949
 20
32.4999999755001
 30
0.0
 11
-120.9604255617827
 21
32.4999999755001
 31
0.0
1001
GENIUS_GENODEF_13
1002
{
1000
HIER
1070
     0
1002
}
1002
{
1000
MANEDIT
1070
     0
1002
}
1002
{
1000
NOSEL
1070
     0
1002
}
1002
{
1000
BEHIND
1070
     0
1002
}
1002
{
1000
REACTOR
1002
}
1001
GENIUS_GENOBJ-N-CEN_13
1002
{
1000
OWNER
1000
GEN
1002
}
  0
MTEXT
  5
732C
330
72FA
100
AcDbEntity
  8
AM_0
100
AcDbMText
 10
-166.0331969893245
 20
14.52172519111269
 30
0.0
 40
2.376
 41
71.14
 71
     1
 72
     5
  1
{\fISOCTEUR|b0|i0|c0|p49;Accessories for fittings}
 73
     1
 44
1.0
  0
MTEXT
  5
732D
330
72FA
100
AcDbEntity
  8
AM_0
100
AcDbMText
 10
-166.2858627232913
 20
21.86895223194097
 30
0.0
 40
3.564
 41
80.45999999999999
 71
     1
 72
     5
  1
{\fArial Black|b0|i0|c0|p34;Fratelli Comunello }
  7
ACISOTS
 73
     1
 44
1.0
  0
LINE
  5
732E
330
72FA
100
AcDbEntity
  8
AM_7
  6
AM_ISO08W050x2
100
AcDbLine
 10
-124.380293346984
 20
35.98912961192911
 30
0.0
 11
-124.380293346984
 21
29.01126421122319
 31
0.0
1001
GENIUS_GENODEF_13
1002
{
1000
HIER
1070
     0
1002
}
1002
{
1000
MANEDIT
1070
     0
1002
}
1002
{
1000
NOSEL
1070
     0
1002
}
1002
{
1000
BEHIND
1070
     0
1002
}
1002
{
1000
REACTOR
1002
}
1001
GENIUS_GENOBJ-N-CEN_13
1002
{
1000
OWNER
1000
GEN
1002
}
  0
LINE
  5
732F
330
72FA
100
AcDbEntity
  8
AM_0
100
AcDbLine
 10
-137.284782198657
 20
30.6999999755001
 30
0.0
 11
-137.284782198657
 21
34.2999999755001
 31
0.0
  0
LINE
  5
7330
330
72FA
100
AcDbEntity
  8
AM_0
100
AcDbLine
 10
-129.9383386702092
 20
29.79999997550006
 30
0.0
 11
-129.9383386702092
 21
35.19999997550014
 31
0.0
  0
LINE
  5
7331
330
72FA
100
AcDbEntity
  8
AM_BOR
100
AcDbLine
 10
-141.523492063492
 20
36.49999997550014
 30
0.0
 11
-141.523492063492
 21
28.49999997550003
 31
0.0
  0
LINE
  5
7332
330
72FA
100
AcDbEntity
  8
AM_BOR
100
AcDbLine
 10
-165.761746031746
 20
36.49999997550014
 30
0.0
 11
-165.761746031746
 21
28.49999997550006
 31
0.0
  0
LINE
  5
7333
102
{ACAD_REACTORS
330
730C
102
}
330
72FA
100
AcDbEntity
  8
AM_BOR
100
AcDbLine
 10
-167.3000841549557
 20
17.9829792408621
 30
0.0
 11
-167.3000841549557
 21
24.73292297729091
 31
0.0
  0
LINE
  5
7334
102
{ACAD_REACTORS
330
730C
102
}
330
72FA
100
AcDbEntity
  8
AM_BOR
100
AcDbLine
 10
-169.1000691513367
 20
19.7829642372431
 30
0.0
 11
-169.1000691513367
 21
22.93293798090991
 31
0.0
  0
LINE
  5
7335
330
72FA
100
AcDbEntity
  8
AM_BOR
100
AcDbLine
 10
-169.1000691513366
 20
19.7829642372431
 30
0.0
 11
-169.1000691513366
 21
22.93293798090991
 31
0.0
  0
LINE
  5
7336
102
{ACAD_REACTORS
330
730B
102
}
330
72FA
100
AcDbEntity
  8
AM_0
100
AcDbLine
 10
-169.1000691513367
 20
9.893020500814163
 30
0.0
 11
-169.1000691513367
 21
13.04299424448096
 31
0.0
  0
LINE
  5
7337
330
72FA
100
AcDbEntity
  8
AM_0
100
AcDbLine
 10
-137.284782198657
 20
30.6999999755001
 30
0.0
 11
-129.9383386702092
 21
29.79999997550006
 31
0.0
  0
TEXT
  5
7338
330
72FA
100
AcDbEntity
  8
AM_BOR
 62
     3
100
AcDbText
 10
-164.8514948529634
 20
33.49999997550026
 30
0.0
 40
2.5
  1
Sostituito dal
 41
0.8
  7
QUOTE
100
AcDbText
  0
TEXT
  5
7339
330
72FA
100
AcDbEntity
  8
AM_BOR
 62
     3
100
AcDbText
 10
-164.8330952380952
 20
45.75
 30
0.0
 40
2.5
  1
Denominazione
 41
0.8
  7
QUOTE
 72
     4
 11
-153.642619047619
 21
47.0
 31
0.0
100
AcDbText
  0
LINE
  5
733A
330
72FA
100
AcDbEntity
  8
AM_0
100
AcDbLine
 10
-137.284782198657
 20
34.2999999755001
 30
0.0
 11
-129.9383386702092
 21
35.19999997550014
 31
0.0
  0
MTEXT
  5
733B
330
72FA
100
AcDbEntity
  8
AM_0
100
AcDbMText
 10
-115.7246700667165
 20
20.45426878249846
 30
0.0
 40
2.28096
 41
51.4944
 71
     1
 72
     5
  1
{\fArial Black|b0|i0|c0|p34;S.p.A}
  7
ACISOTS
 73
     1
 44
1.0
  0
TEXT
  5
733C
330
72FA
100
AcDbEntity
  8
AM_6
100
AcDbText
 10
-106.7664486163646
 20
20.06804143302904
 30
0.0
 40
0.9628044757499999
  1
R
 41
0.8
  7
QUOTE
 72
     4
 11
-106.3629876931932
 21
20.54944367090404
 31
0.0
100
AcDbText
  0
CIRCLE
  5
733D
330
72FA
100
AcDbEntity
  8
AM_6
100
AcDbCircle
 10
-106.3629876931932
 20
20.54944367090404
 30
0.0
 40
0.7019941485886019
  0
LINE
  5
733E
102
{ACAD_REACTORS
330
7308
102
}
330
72FA
100
AcDbEntity
  8
AM_BOR
100
AcDbLine
 10
-104.9422870460472
 20
16.74999998775001
 30
0.0
 11
-104.9422870460472
 21
16.24999998775003
 31
0.0
  0
TEXT
  5
733F
330
72FA
100
AcDbEntity
  8
AM_BOR
 62
     3
100
AcDbText
 10
-113.7205821618971
 20
41.1815065028598
 30
0.0
 40
2.5
  1
Peso Unit.(Kg)
 41
0.8
  7
QUOTE
100
AcDbText
  0
TEXT
  5
7340
330
72FA
100
AcDbEntity
  8
AM_BOR
 62
     3
100
AcDbText
 10
-114.4845238095238
 20
46.16666666666666
 30
0.0
 40
2.5
  1
Codice Disegno
 41
0.8
  7
QUOTE
 72
     4
 11
-102.8178571428571
 21
47.0
 31
0.0
100
AcDbText
  0
TEXT
  5
7341
330
72FA
100
AcDbEntity
  8
AM_BOR
 62
     3
100
AcDbText
 10
-116.5976286418845
 20
33.49999997550026
 30
0.0
 40
2.5
  1
Scala
 41
0.8
  7
QUOTE
100
AcDbText
  0
LINE
  5
7342
330
72FA
100
AcDbEntity
  8
AM_BOR
100
AcDbLine
 10
0.0
 20
57.5
 30
0.0
 11
0.0
 21
0.0
 31
0.0
  0
LINE
  5
7343
330
72FA
100
AcDbEntity
  8
AM_BOR
100
AcDbLine
 10
-23.06702380952381
 20
57.5
 30
0.0
 11
-23.06702380952381
 21
12.5
 31
0.0
  0
LINE
  5
7344
330
72FA
100
AcDbEntity
  8
AM_BOR
100
AcDbLine
 10
-73.49967888540709
 20
36.49999997550014
 30
0.0
 11
-73.49967888540709
 21
4.5
 31
0.0
  0
LINE
  5
7345
330
72FA
100
AcDbEntity
  8
AM_BOR
100
AcDbLine
 10
-73.49967888540709
 20
12.5
 30
0.0
 11
0.0
 21
12.5
 31
0.0
  0
LINE
  5
7346
330
72FA
100
AcDbEntity
  8
AM_BOR
100
AcDbLine
 10
-73.49967888540709
 20
20.5
 30
0.0
 11
0.0
 21
20.5
 31
0.0
  0
LINE
  5
7347
330
72FA
100
AcDbEntity
  8
AM_BOR
100
AcDbLine
 10
-40.1931463101742
 20
36.49999997550014
 30
0.0
 11
-40.1931463101742
 21
12.5
 31
0.0
  0
TEXT
  5
7348
330
72FA
100
AcDbEntity
  8
AM_BOR
 62
     3
100
AcDbText
 10
-72.58464640884369
 20
17.50000000000011
 30
0.0
 40
2.5
  1
Approvato
 41
0.8
  7
QUOTE
100
AcDbText
  0
TEXT
  5
7349
330
72FA
100
AcDbEntity
  8
AM_BOR
 62
     3
100
AcDbText
 10
-72.89800933888016
 20
9.494654529804051
 30
0.0
 40
2.5
  1
Nr.Art.
 41
0.8
  7
QUOTE
 72
     1
 11
-68.23134267221348
 21
9.494654529804051
 31
0.0
100
AcDbText
  0
TEXT
  5
734A
330
72FA
100
AcDbEntity
  8
AM_BOR
 62
     3
100
AcDbText
 10
-72.58464640884369
 20
25.49999997550014
 30
0.0
 40
2.5
  1
Verificato
 41
0.8
  7
QUOTE
100
AcDbText
  0
TEXT
  5
734B
330
72FA
100
AcDbEntity
  8
AM_BOR
 62
     3
100
AcDbText
 10
-39.55566753525067
 20
17.50000000000019
 30
0.0
 40
2.5
  1
Data 
 41
0.8
  7
QUOTE
100
AcDbText
  0
TEXT
  5
734C
330
72FA
100
AcDbEntity
  8
AM_BOR
 62
     3
100
AcDbText
 10
-39.55566753525067
 20
25.49999997550023
 30
0.0
 40
2.5
  1
Data 
 41
0.8
  7
QUOTE
100
AcDbText
  0
TEXT
  5
734D
330
72FA
100
AcDbEntity
  8
AM_BOR
 62
     3
100
AcDbText
 10
-68.04208333333334
 20
45.75
 30
0.0
 40
2.5
  1
Materiale - UNI
 41
0.8
  7
QUOTE
 72
     4
 11
-55.70875
 21
47.0
 31
0.0
100
AcDbText
  0
TEXT
  5
734E
330
72FA
100
AcDbEntity
  8
AM_BOR
 62
     3
100
AcDbText
 10
-72.87265296633268
 20
33.49999997550026
 30
0.0
 40
2.5
  1
Disegnato
 41
0.8
  7
QUOTE
100
AcDbText
  0
TEXT
  5
734F
330
72FA
100
AcDbEntity
  8
AM_BOR
 62
     3
100
AcDbText
 10
-39.55566753525067
 20
33.49999997550026
 30
0.0
 40
2.5
  1
Data 
 41
0.8
  7
QUOTE
100
AcDbText
  0
TEXT
  5
7350
330
72FA
100
AcDbEntity
  8
AM_BOR
 62
     3
100
AcDbText
 10
-22.1635143838539
 20
17.49580658048648
 30
0.0
 40
2.5
  1
Attrezzatura 3
 41
0.8
  7
QUOTE
 72
     1
 11
-11.30637152671104
 21
17.49580658048648
 31
0.0
100
AcDbText
  0
TEXT
  5
7351
330
72FA
100
AcDbEntity
  8
AM_BOR
 62
     3
100
AcDbText
 10
-22.17065620663248
 20
25.50335030888863
 30
0.0
 40
2.5
  1
Attrezzatura 2
 41
0.8
  7
QUOTE
100
AcDbText
  0
TEXT
  5
7352
330
72FA
100
AcDbEntity
  8
AM_BOR
 62
     3
100
AcDbText
 10
-22.17065620663248
 20
33.50335030888871
 30
0.0
 40
2.5
  1
Attrezzatura 1
 41
0.8
  7
QUOTE
100
AcDbText
  0
TEXT
  5
7353
330
72FA
100
AcDbEntity
  8
AM_BOR
 62
     3
100
AcDbText
 10
-22.36310222305411
 20
41.49279756757721
 30
0.0
 40
2.5
  1
Coeff.Impiego
 41
0.8
  7
QUOTE
100
AcDbText
  0
TEXT
  5
7354
330
72FA
100
AcDbEntity
  8
AM_BOR
 62
     3
100
AcDbText
 10
-20.48590476190476
 20
45.75
 30
0.0
 40
2.5
  1
Codice Mat.
 41
0.8
  7
QUOTE
 72
     4
 11
-11.53352380952381
 21
47.0
 31
0.0
100
AcDbText
  0
ATTDEF
  5
7355
330
72FA
100
AcDbEntity
  8
AM_BOR
 62
     2
100
AcDbText
 10
-188.7603193669182
 20
53.99987316562778
 30
0.0
 40
2.0
  1

  7
ISO
100
AcDbAttributeDefinition
  3
DENOMINAZIONE 1(MAX 40)
  2
DENOMINAZIONE1
 70
     0
  0
ATTDEF
  5
7356
330
72FA
100
AcDbEntity
  8
AM_BOR
 62
     2
100
AcDbText
 10
-188.7603193669182
 20
50.49987316562777
 30
0.0
 40
2.0
  1

  7
ISO
100
AcDbAttributeDefinition
  3
DENOMINAZIONE 2(MAX 40)
  2
DENOMINAZIONE2
 70
     0
  0
ATTDEF
  5
7357
330
72FA
100
AcDbEntity
  8
AM_BOR
 62
     2
100
AcDbText
 10
-102.8178571428571
 20
53.49987316562778
 30
0.0
 40
3.5
  1

  7
ISO
 72
     4
 11
-102.8178571428571
 21
53.49987316562778
 31
0.0
100
AcDbAttributeDefinition
  3
CODICE DISEGNO(MAX 8)
  2
CODICEDIS.
 70
     0
  0
ATTDEF
  5
7358
330
72FA
100
AcDbEntity
  8
AM_BOR
 62
     2
100
AcDbText
 10
-102.8178571428571
 20
37.18137966848746
 30
0.0
 40
2.5
  1

  7
ISO
 72
     1
 11
-102.8178571428571
 21
37.18137966848746
 31
0.0
100
AcDbAttributeDefinition
  3
PESO UNITARIO(MAX 12)
  2
PESOUNITARIO
 70
     0
  0
ATTDEF
  5
7359
330
72FA
100
AcDbEntity
  8
AM_BOR
 62
     2
100
AcDbText
 10
-87.33297217149113
 20
53.99987316562778
 30
0.0
 40
2.0
  1

  7
ISO
100
AcDbAttributeDefinition
  3
MATERIALE 1(MAX 40)
  2
MATERIALE1
 70
     0
  0
ATTDEF
  5
735A
330
72FA
100
AcDbEntity
  8
AM_BOR
 62
     2
100
AcDbText
 10
-87.33297217149113
 20
50.49987316562777
 30
0.0
 40
2.0
  1

  7
ISO
100
AcDbAttributeDefinition
  3
MATERIALE 2(MAX 40)
  2
MATERIALE2
 70
     0
  0
ATTDEF
  5
735B
330
72FA
100
AcDbEntity
  8
AM_BOR
 62
     2
100
AcDbText
 10
-11.53397217149108
 20
53.49987316562778
 30
0.0
 40
2.5
  1

  7
ISO
 72
     4
 11
-11.53397217149108
 21
53.49987316562778
 31
0.0
100
AcDbAttributeDefinition
  3
CODICE MATERIALE(MAX 13)
  2
CODICEMAT.
 70
     0
  0
ATTDEF
  5
735C
330
72FA
100
AcDbEntity
  8
AM_BOR
 62
     2
100
AcDbText
 10
-11.53397217149108
 20
37.49987316562777
 30
0.0
 40
2.5
  1

  7
ISO
 72
     1
 11
-11.53397217149108
 21
37.49987316562777
 31
0.0
100
AcDbAttributeDefinition
  3
COEFF.D'IMPIEGO(MAX 12)
  2
COEFF.IMPIEGO
 70
     0
  0
ATTDEF
  5
735D
330
72FA
100
AcDbEntity
  8
AM_BOR
 62
     2
100
AcDbText
 10
-68.60697217149109
 20
40.99987316562777
 30
0.0
 40
2.5
  1

  7
ISO
100
AcDbAttributeDefinition
  3
TRATTAMENTO 1(MAX 23)
  2
TRATTAMENTO1
 70
     0
  0
ATTDEF
  5
735E
330
72FA
100
AcDbEntity
  8
AM_BOR
 62
     2
100
AcDbText
 10
-87.35097217149109
 20
37.49987316562777
 30
0.0
 40
2.5
  1

  7
ISO
100
AcDbAttributeDefinition
  3
TRATTAMENTO 2(MAX 32)
  2
TRATTAMENTO2
 70
     0
  0
ATTDEF
  5
735F
330
72FA
100
AcDbEntity
  8
AM_BOR
 62
     2
100
AcDbText
 10
-102.8178571428571
 20
29.49987316562777
 30
0.0
 40
2.5
  1

  7
ISO
 72
     1
 11
-102.8178571428571
 21
29.49987316562777
 31
0.0
100
AcDbAttributeDefinition
  3
SCALA(MAX 7)
  2
SCALA
 70
     0
  0
ATTDEF
  5
7360
330
72FA
100
AcDbEntity
  8
AM_BOR
 62
     2
100
AcDbText
 10
-80.92507753794166
 20
32.49987316562777
 30
0.0
 40
3.5
  1

  7
ISO
 72
     4
 11
-80.92507753794166
 21
32.49987316562777
 31
0.0
100
AcDbAttributeDefinition
  3
FORMATO FOGLIO(MAX 2)
  2
FORMATOFOGLIO
 70
     0
  0
ATTDEF
  5
7361
330
72FA
100
AcDbEntity
  8
AM_BOR
 62
     2
100
AcDbText
 10
-56.8459721714911
 20
29.49987316562777
 30
0.0
 40
2.5
  1

  7
ISO
 72
     1
 11
-56.8459721714911
 21
29.49987316562777
 31
0.0
100
AcDbAttributeDefinition
  3
DISEGNATO(MAX 16)
  2
DISEGNATO
 70
     0
  0
ATTDEF
  5
7362
330
72FA
100
AcDbEntity
  8
AM_BOR
 62
     2
100
AcDbText
 10
-31.62997217149111
 20
29.49987316562777
 30
0.0
 40
2.5
  1

  7
ISO
 72
     1
 11
-31.62997217149111
 21
29.49987316562777
 31
0.0
100
AcDbAttributeDefinition
  3
DATA DISEGNO(MAX 8)
  2
DATADISEGNO
 70
     0
  0
ATTDEF
  5
7363
330
72FA
100
AcDbEntity
  8
AM_BOR
 62
     2
100
AcDbText
 10
-56.8459721714911
 20
21.49987316562777
 30
0.0
 40
2.5
  1

  7
ISO
 72
     1
 11
-56.8459721714911
 21
21.49987316562777
 31
0.0
100
AcDbAttributeDefinition
  3
VERIFICATO(MAX 16)
  2
VERIFICATO
 70
     0
  0
ATTDEF
  5
7364
330
72FA
100
AcDbEntity
  8
AM_BOR
 62
     2
100
AcDbText
 10
-31.62997217149111
 20
21.49987316562777
 30
0.0
 40
2.5
  1

  7
ISO
 72
     1
 11
-31.62997217149111
 21
21.49987316562777
 31
0.0
100
AcDbAttributeDefinition
  3
DATA VERIFICA(MAX 8)
  2
DATAVERIFICA
 70
     0
  0
ATTDEF
  5
7365
330
72FA
100
AcDbEntity
  8
AM_BOR
 62
     2
100
AcDbText
 10
-56.8459721714911
 20
13.49987316562777
 30
0.0
 40
2.5
  1

  7
ISO
 72
     1
 11
-56.8459721714911
 21
13.49987316562777
 31
0.0
100
AcDbAttributeDefinition
  3
APPROVATO(MAX 16)
  2
APPROVATO
 70
     0
  0
ATTDEF
  5
7366
330
72FA
100
AcDbEntity
  8
AM_BOR
 62
     2
100
AcDbText
 10
-31.62997217149111
 20
13.49987316562777
 30
0.0
 40
2.5
  1

  7
ISO
 72
     1
 11
-31.62997217149111
 21
13.49987316562777
 31
0.0
100
AcDbAttributeDefinition
  3
DATA APPROVAZIONE(MAX 8)
  2
DATAAPPROVAZIONE
 70
     0
  0
ATTDEF
  5
7367
330
72FA
100
AcDbEntity
  8
AM_BOR
 62
     2
100
AcDbText
 10
-62.94997217149111
 20
8.999873165627775
 30
0.0
 40
2.5
  1

  7
ISO
100
AcDbAttributeDefinition
  3
NUMERO ARTICOLO 1(MAX 31)
  2
NR.ART.1
 70
     0
  0
ATTDEF
  5
7368
330
72FA
100
AcDbEntity
  8
AM_BOR
 62
     2
100
AcDbText
 10
-72.49997217149112
 20
5.499873165627775
 30
0.0
 40
2.5
  1

  7
ISO
100
AcDbAttributeDefinition
  3
NUMERO ARTICOLO 2(MAX 36)
  2
NR.ART.2
 70
     0
  0
ATTDEF
  5
7369
330
72FA
100
AcDbEntity
  8
AM_BOR
 62
     2
100
AcDbText
 10
-11.53397217149108
 20
29.49987316562777
 30
0.0
 40
2.5
  1

  7
ISO
 72
     1
 11
-11.53397217149108
 21
29.49987316562777
 31
0.0
100
AcDbAttributeDefinition
  3
ATTREZZATURA 1(MAX 13)
  2
ATTREZZATURA1
 70
     0
  0
ATTDEF
  5
736A
330
72FA
100
AcDbEntity
  8
AM_BOR
 62
     2
100
AcDbText
 10
-11.53397217149108
 20
21.49987316562777
 30
0.0
 40
2.5
  1

  7
ISO
 72
     1
 11
-11.53397217149108
 21
21.49987316562777
 31
0.0
100
AcDbAttributeDefinition
  3
ATTREZZATURA 2(MAX 13)
  2
ATTREZZATURA2
 70
     0
  0
ATTDEF
  5
736B
330
72FA
100
AcDbEntity
  8
AM_BOR
 62
     2
100
AcDbText
 10
-11.53397217149108
 20
13.49987316562777
 30
0.0
 40
2.5
  1

  7
ISO
 72
     1
 11
-11.53397217149108
 21
13.49987316562777
 31
0.0
100
AcDbAttributeDefinition
  3
ATTREZZATURA 3(MAX 13)
  2
ATTREZZATURA3
 70
     0
  0
ATTDEF
  5
736C
330
72FA
100
AcDbEntity
  8
AM_BOR
 62
     2
100
AcDbText
 10
-153.9686864572054
 20
40.99987316562777
 30
0.0
 40
2.5
  1
GRADO DI PRECISIONE:
  7
ISO
 72
     1
 11
-139.0579721714911
 21
40.99987316562777
 31
0.0
100
AcDbAttributeDefinition
  3

  2
TOLLERANZEGENERALI
 70
     2
  0
ATTDEF
  5
736D
330
72FA
100
AcDbEntity
  8
AM_BOR
 62
     2
100
AcDbText
 10
-188.9999721714911
 20
37.49987316562777
 30
0.0
 40
2.5
  1
UNI-EN 22768-m
  7
ISO
100
AcDbAttributeDefinition
  3
TOLL.GENERALI(MAX 36)
  2
TOLLERANZEGENERALI
 70
     0
  0
ATTDEF
  5
736E
330
72FA
100
AcDbEntity
  8
AM_BOR
 62
     2
100
AcDbText
 10
-177.880972171491
 20
29.49987316562777
 30
0.0
 40
2.5
  1

  7
ISO
 72
     1
 11
-177.880972171491
 21
29.49987316562777
 31
0.0
100
AcDbAttributeDefinition
  3
SOSTITUISCE IL(MAX 13)
  2
SOSTITUISCEIL
 70
     0
  0
ATTDEF
  5
736F
330
72FA
100
AcDbEntity
  8
AM_BOR
 62
     2
100
AcDbText
 10
-153.6429721714911
 20
29.49987316562777
 30
0.0
 40
2.5
  1

  7
ISO
 72
     1
 11
-153.6429721714911
 21
29.49987316562777
 31
0.0
100
AcDbAttributeDefinition
  3
SOSTITUITO DAL(MAX 13)
  2
SOSTITUITODAL
 70
     0
  0
ENDBLK
  5
7371
330
72FA
100
AcDbEntity
  8
0
100
AcDbBlockEnd
  0
ENDSEC
  0
SECTION
  2
ENTITIES
  0
INSERT
  5
1E
330
2
100
AcDbEntity
  8
AM_0
370
     0
100
AcDbBlockReference
  2
A4-ORIZZONTALE
 10
0.0
 20
0.0
 30
0.0
1001
GENIUS_GENOREF_13
1005
1EB
1001
GENIUS_GENODEF_13
1002
{
1000
HIER
1070
     0
1002
}
1002
{
1000
MANEDIT
1070
     0
1002
}
1002
{
1000
NOSEL
1070
     0
1002
}
1002
{
1000
BEHIND
1070
     0
1002
}
1002
{
1000
REACTOR
1002
}
1001
GENIUS_GENOBJ-N-SDF_13
1002
{
1000
OWNER
1000
GEN
1002
}
1001
GENIUS_GENSCREG_15
1040
1.0
1040
1.0
1011
0.0
1021
0.0
1031
0.0
1011
297.0
1021
210.0
1031
0.0
1070
     5
  0
LINE
  5
87
330
2
100
AcDbEntity
  8
AM_2
100
AcDbLine
 10
103.4999999999999
 20
105.8875728306707
 30
0.0
 11
103.4999999999999
 21
35.8875728306707
 31
0.0
  0
LINE
  5
89
330
2
100
AcDbEntity
  8
AM_2
100
AcDbLine
 10
193.5
 20
35.8875728306707
 30
0.0
 11
193.5
 21
105.8875728306707
 31
0.0
  0
LINE
  5
8A
330
2
100
AcDbEntity
  8
AM_2
100
AcDbLine
 10
103.4999999999999
 20
35.8875728306707
 30
0.0
 11
193.5
 21
35.8875728306707
 31
0.0
  0
LINE
  5
1A9
330
2
100
AcDbEntity
  8
AM_2
100
AcDbLine
 10
193.5
 20
105.8875728306707
 30
0.0
 11
103.4999999999999
 21
105.8875728306707
 31
0.0
  0
LINE
  5
1AA
330
2
100
AcDbEntity
  8
AM_0
100
AcDbLine
 10
163.4999999999999
 20
166.7670181213641
 30
0.0
 11
133.4999999999999
 21
166.7670181213641
 31
0.0
  0
LINE
  5
1AB
330
2
100
AcDbEntity
  8
AM_0
100
AcDbLine
 10
164.5
 20
167.7670181213641
 30
0.0
 11
132.4999999999999
 21
167.7670181213641
 31
0.0
  0
LINE
  5
1AC
330
2
100
AcDbEntity
  8
AM_0
100
AcDbLine
 10
133.4999999999999
 20
156.7670181213641
 30
0.0
 11
163.4999999999999
 21
156.7670181213641
 31
0.0
  0
LINE
  5
1AD
330
2
100
AcDbEntity
  8
AM_0
100
AcDbLine
 10
132.4999999999999
 20
155.7670181213641
 30
0.0
 11
164.5
 21
155.7670181213641
 31
0.0
  0
TEXT
  5
1AE
330
2
100
AcDbEntity
  8
AM_5
100
AcDbText
 10
104.454571841159
 20
129.019273074116
 30
0.0
 40
2.63999999736
  1
CODICE ARTICOLO
 41
0.8
 51
20.0
  7
CART
 72
     4
 11
118.4340003986082
 21
130.339273072796
 31
0.0
100
AcDbText
  0
LINE
  5
1B0
330
2
100
AcDbEntity
  8
AM_0
100
AcDbLine
 10
103.7087750783662
 20
133.4060152799334
 30
0.0
 11
193.8029827552646
 21
133.4060152799334
 31
0.0
  0
LINE
  5
1B1
330
2
100
AcDbEntity
  8
AM_0
100
AcDbLine
 10
103.7087750783662
 20
128.1893570536998
 30
0.0
 11
193.8029827552646
 21
128.1893570536998
 31
0.0
  0
LINE
  5
1B2
330
2
100
AcDbEntity
  8
AM_0
100
AcDbLine
 10
103.7087750783662
 20
122.9093570536998
 30
0.0
 11
193.8029827552646
 21
122.9093570536998
 31
0.0
  0
TEXT
  5
1B3
330
2
100
AcDbEntity
  8
AM_0
100
AcDbText
 10
129.0834227237605
 20
141.4589341989783
 30
0.0
 40
3.0
  1
ART.620 CHIAVISTELLO
 41
0.8
  7
QUOTE
100
AcDbText
  0
LINE
  5
1B5
330
2
100
AcDbEntity
  8
AM_0
100
AcDbLine
 10
103.7087750783662
 20
133.4060152799334
 30
0.0
 11
103.7087750783662
 21
122.9093570536998
 31
0.0
  0
LINE
  5
1B6
330
2
100
AcDbEntity
  8
AM_0
100
AcDbLine
 10
132.4999999999999
 20
167.7670181213641
 30
0.0
 11
132.4999999999999
 21
155.7670181213641
 31
0.0
  0
LINE
  5
1B7
330
2
100
AcDbEntity
  8
AM_0
100
AcDbLine
 10
133.4999999999999
 20
166.7670181213641
 30
0.0
 11
133.4999999999999
 21
156.7670181213641
 31
0.0
  0
TEXT
  5
1B8
330
2
100
AcDbEntity
  8
AM_5
100
AcDbText
 10
173.2281006708172
 20
123.9180867470591
 30
0.0
 40
2.63999999736
  1
2,100 Kg.
 41
0.8
 51
20.0
  7
CART
 72
     4
 11
181.2738149484858
 21
124.7980867461791
 31
0.0
100
AcDbText
1001
GENIUS_GENTRA_14
1002
{
1070
     1
1000
/
1000
2,100 Kg.
1000
ITA
1070
     0
1040
0.8
1070
     0
1002
}
  0
TEXT
  5
1B9
330
2
100
AcDbEntity
  8
AM_5
100
AcDbText
 10
170.8607794144505
 20
129.019273074116
 30
0.0
 40
2.63999999736
  1
PESO LORDO
 41
0.8
 51
20.0
  7
CART
 72
     4
 11
181.2699222611842
 21
130.339273072796
 31
0.0
100
AcDbText
  0
TEXT
  5
1BB
330
2
100
AcDbEntity
  8
AM_5
100
AcDbText
 10
110.2374289782333
 20
123.8659893551913
 30
0.0
 40
2.63999999736
  1
11700505
 41
0.8
 51
20.0
  7
CART
 72
     4
 11
118.4340003986082
 21
125.1859893538713
 31
0.0
100
AcDbText
  0
LINE
  5
1BC
330
2
100
AcDbEntity
  8
AM_0
100
AcDbLine
 10
134.8196877719744
 20
133.4060152799334
 30
0.0
 11
134.8196877719744
 21
122.9093570536998
 31
0.0
  0
TEXT
  5
1E3
330
2
100
AcDbEntity
  8
AM_5
100
AcDbText
 10
153.5919310095078
 20
129.019273074116
 30
0.0
 40
2.63999999736
  1
CONFEZ.
 41
0.8
 51
20.0
  7
CART
 72
     4
 11
160.179359574349
 21
130.339273072796
 31
0.0
100
AcDbText
  0
TEXT
  5
1E4
330
2
100
AcDbEntity
  8
AM_5
100
AcDbText
 10
154.8629653712582
 20
123.9441791699185
 30
0.0
 40
2.63999999736
  1
Pz.50
 41
0.8
 51
20.0
  7
CART
 72
     4
 11
159.3383939382113
 21
125.2641791685985
 31
0.0
100
AcDbText
  0
LINE
  5
1E5
330
2
100
AcDbEntity
  8
AM_0
100
AcDbLine
 10
169.1987710415364
 20
133.4060152799334
 30
0.0
 11
169.1987710415364
 21
122.9093570536998
 31
0.0
  0
LINE
  5
1E6
330
2
100
AcDbEntity
  8
AM_0
100
AcDbLine
 10
164.5
 20
155.7670181213641
 30
0.0
 11
164.5
 21
167.7670181213641
 31
0.0
  0
TEXT
  5
1E7
330
2
100
AcDbEntity
  8
AM_0
100
AcDbText
 10
141.8088659788649
 20
159.1514932915153
 30
0.0
 40
5.0
  1
620
  7
COMPLEX
100
AcDbText
  0
LINE
  5
1E9
330
2
100
AcDbEntity
  8
AM_0
100
AcDbLine
 10
163.4999999999999
 20
156.7670181213641
 30
0.0
 11
163.4999999999999
 21
166.7670181213641
 31
0.0
  0
LINE
  5
1EA
330
2
100
AcDbEntity
  8
AM_0
100
AcDbLine
 10
193.8029827552646
 20
133.4060152799334
 30
0.0
 11
193.8029827552646
 21
122.9093570536998
 31
0.0
  0
POINT
  5
1EB
330
2
100
AcDbEntity
  8
0
 60
     1
100
AcDbPoint
 10
-6.839589919785566
 20
-63.6302196850745
 30
0.0
1001
GENIUS_GENOBJ-N-TIT_13
1002
{
1000
OWNER
1000
GEN
1002
}
1001
GENIUS_GENOENT_13
1002
{
1000
MYREF
1005
1EB
1002
}
1002
{
1000
GRP
1005
0
1002
}
1001
GENIUS_GENODEF_13
1002
{
1000
HIER
1070
     1
1002
}
1002
{
1000
MANEDIT
1070
     1
1002
}
1002
{
1000
NOSEL
1070
     0
1002
}
1002
{
1000
BEHIND
1070
     0
1002
}
1002
{
1000
REACTOR
1002
}
1001
GENIUS_GENOLIS_13
1002
{
1000
ENT
1005
1E
1005
7376
1002
}
1001
GENIUS_GENTITLE_13
1002
{
1000
BORDER
1000
A4-ORIZZONTALE
1002
}
1002
{
1000
TITLE
1000
ASM_C4
1002
}
1002
{
1000
SCALE
1000
1:1
1002
}
1002
{
1000
TITLESTD
1000
ISO
1002
}
1002
{
1000
HRA
1005
1E
1002
}
1002
{
1000
HTIT
1005
7376
1002
}
1002
{
1000
GENIUSID
1005
1EB
1002
}
1002
{
1000
UNCHG
1002
{
1000
GEN-TITLE-SIZ
1000
GEN-TITLE-SCA
1002
}
1002
}
  0
INSERT
  5
1743
330
2
100
AcDbEntity
  8
AM_0
100
AcDbBlockReference
  2
LAYER-GENIUS
 10
0.0
 20
0.0
 30
0.0
  0
INSERT
  5
2222
330
2
100
AcDbEntity
  8
AM_0
100
AcDbBlockReference
  2
LAYER-GENIUS
 10
0.0
 20
0.0
 30
0.0
  0
INSERT
  5
29EF
330
2
100
AcDbEntity
  8
AM_0
100
AcDbBlockReference
  2
LAYER-GENIUS
 10
0.0
 20
0.0
 30
0.0
  0
INSERT
  5
29F0
330
2
100
AcDbEntity
  8
AM_0
100
AcDbBlockReference
  2
LAYER-GENIUS
 10
0.0
 20
0.0
 30
0.0
  0
TEXT
  5
2C24
330
2
100
AcDbEntity
  8
AM_5
100
AcDbText
 10
139.4283940179152
 20
123.9441791699185
 30
0.0
 40
2.63999999736
  1
001
 41
0.8
 51
20.0
  7
CART
 72
     4
 11
142.1438225866283
 21
125.2641791685985
 31
0.0
100
AcDbText
  0
TEXT
  5
2C25
330
2
100
AcDbEntity
  8
AM_5
100
AcDbText
 10
136.1459310867477
 20
129.019273074116
 30
0.0
 40
2.63999999736
  1
FINITURA
 41
0.8
 51
20.0
  7
CART
 72
     4
 11
142.984788222766
 21
130.339273072796
 31
0.0
100
AcDbText
  0
INSERT
  5
2D77
330
2
100
AcDbEntity
  8
AM_5
100
AcDbBlockReference
  2
LAYER-GENIUS
 10
273.9497652420764
 20
315.7800818221807
 30
0.0
  0
LINE
  5
5474
330
2
100
AcDbEntity
  8
AM_0
100
AcDbLine
 10
151.595040473983
 20
133.4060152799334
 30
0.0
 11
151.595040473983
 21
122.9093570536998
 31
0.0
  0
INSERT
  5
5DC9
330
2
100
AcDbEntity
  8
MATRICE-AM_0
100
AcDbBlockReference
  2
LAYER-GENIUS
 10
240.1876269787865
 20
182.1605168193324
 30
0.0
  0
INSERT
  5
5DCB
330
2
100
AcDbEntity
  8
AM_5
100
AcDbBlockReference
  2
LAYER-GENIUS
 10
240.1876269787865
 20
182.1605168193324
 30
0.0
  0
INSERT
  5
5FA3
330
2
100
AcDbEntity
  8
MATRICE-AM_0
100
AcDbBlockReference
  2
LAYER-GENIUS
 10
254.6722698308665
 20
-4.628164158707363
 30
0.0
  0
ARC
  5
66D8
330
2
100
AcDbEntity
  8
AM_3
  6
AM_ISO02W050x2
 48
0.5
100
AcDbCircle
 10
139.2045509497604
 20
71.73441007623558
 30
0.0
 40
5.4
100
AcDbArc
 50
265.7202167997181
 51
94.27978320028188
  0
ARC
  5
66D9
330
2
100
AcDbEntity
  8
AM_0
100
AcDbCircle
 10
115.0845509497604
 20
71.73441007623558
 30
0.0
 40
3.6
100
AcDbArc
 50
94.27978320028188
 51
265.7202167997181
  0
LINE
  5
66DA
330
2
100
AcDbEntity
  8
AM_0
100
AcDbLine
 10
114.8158942333424
 20
75.32437157585135
 30
0.0
 11
132.3645509497604
 21
76.63763482156653
 31
0.0
  0
LINE
  5
66DB
330
2
100
AcDbEntity
  8
AM_0
100
AcDbLine
 10
114.8158942333424
 20
68.14444857661981
 30
0.0
 11
132.3645509497604
 21
66.83118533090461
 31
0.0
  0
LINE
  5
66DC
330
2
100
AcDbEntity
  8
AM_0
100
AcDbLine
 10
168.8564223743267
 20
71.73441007623558
 30
0.0
 11
168.8564223743267
 21
73.89441007623557
 31
0.0
  0
LINE
  5
66DD
330
2
100
AcDbEntity
  8
AM_0
100
AcDbLine
 10
168.8564223743267
 20
73.89441007623557
 30
0.0
 11
168.1364223743267
 21
77.13441007623558
 31
0.0
  0
LINE
  5
66DE
330
2
100
AcDbEntity
  8
AM_0
100
AcDbLine
 10
168.1364223743267
 20
77.13441007623558
 30
0.0
 11
171.0164223743267
 21
77.13441007623558
 31
0.0
  0
LINE
  5
66DF
330
2
100
AcDbEntity
  8
AM_0
100
AcDbLine
 10
171.0164223743267
 20
77.13441007623558
 30
0.0
 11
171.0164223743267
 21
66.33441007623557
 31
0.0
  0
LINE
  5
66E0
330
2
100
AcDbEntity
  8
AM_0
100
AcDbLine
 10
168.8564223743267
 20
69.57441007623557
 30
0.0
 11
168.1364223743267
 21
66.33441007623557
 31
0.0
  0
LINE
  5
66E1
330
2
100
AcDbEntity
  8
AM_0
100
AcDbLine
 10
168.8564223743267
 20
71.73441007623558
 30
0.0
 11
168.8564223743267
 21
69.57441007623557
 31
0.0
  0
LINE
  5
66E2
330
2
100
AcDbEntity
  8
AM_0
100
AcDbLine
 10
168.1364223743267
 20
66.33441007623557
 30
0.0
 11
171.0164223743267
 21
66.33441007623557
 31
0.0
  0
ARC
  5
66E3
330
2
100
AcDbEntity
  8
AM_0
100
AcDbCircle
 10
150.4064223743265
 20
71.73441007623558
 30
0.0
 40
20.61000000000015
100
AcDbArc
 50
344.8107132628172
 51
15.1892867371828
  0
LINE
  5
66FE
330
2
100
AcDbEntity
  8
AM_0
100
AcDbLine
 10
145.3245509497604
 20
60.93441007623558
 30
0.0
 11
145.3245509497604
 21
82.53441007623559
 31
0.0
  0
LINE
  5
66FF
330
2
100
AcDbEntity
  8
AM_0
100
AcDbLine
 10
132.3645509497604
 20
82.53441007623559
 30
0.0
 11
132.3645509497604
 21
60.93441007623558
 31
0.0
  0
ARC
  5
6700
330
2
100
AcDbEntity
  8
AM_0
100
AcDbCircle
 10
138.8445509497603
 20
60.93441007623558
 30
0.0
 40
6.48
100
AcDbArc
 50
180.0
 51
0.0
  0
ARC
  5
6701
330
2
100
AcDbEntity
  8
AM_0
 48
0.5
100
AcDbCircle
 10
138.8445509497603
 20
82.53441007623559
 30
0.0
 40
6.48
100
AcDbArc
 50
0.0
 51
180.0
  0
LINE
  5
6702
330
2
100
AcDbEntity
  8
AM_0
100
AcDbLine
 10
174.6164223743267
 20
54.45441007623557
 30
0.0
 11
174.6164223743267
 21
59.13441007623555
 31
0.0
1001
ACAD
1000
ASC_BOUNDS
1002
{
1070
    19
1002
}
  0
LINE
  5
6703
330
2
100
AcDbEntity
  8
AM_0
100
AcDbLine
 10
178.1444223743267
 20
54.45441007623557
 30
0.0
 11
174.6164223743267
 21
54.45441007623557
 31
0.0
1001
ACAD
1000
ASC_BOUNDS
1002
{
1070
    19
1002
}
  0
LINE
  5
6704
330
2
100
AcDbEntity
  8
AM_7
  6
AM_ISO08W050x2
 48
0.5
100
AcDbLine
 10
132.3745586777402
 20
60.57441007623556
 30
0.0
 11
145.3145432217805
 21
60.57441007623556
 31
0.0
  0
LINE
  5
6705
330
2
100
AcDbEntity
  8
AM_7
  6
AM_ISO08W050x2
 48
0.5
100
AcDbLine
 10
132.3745586777402
 20
82.89441007623556
 30
0.0
 11
145.3145432217805
 21
82.89441007623556
 31
0.0
  0
LINE
  5
6706
330
2
100
AcDbEntity
  8
AM_7
  6
AM_ISO08W050x2
 48
0.5
100
AcDbLine
 10
181.998749425842
 20
71.73441007623495
 30
0.0
 11
180.561769022707
 21
71.73441007623551
 31
0.0
  0
DIMENSION
  5
6707
330
2
100
AcDbEntity
  8
AM_5
100
AcDbDimension
  2
*D4
 10
155.3245509497604
 20
89.01441007623558
 30
0.0
 11
153.7245509497603
 21
71.73441007623559
 31
0.0
 70
    32
  1
48
 71
     5
 42
34.56
  3
GEN-ISO
100
AcDbAlignedDimension
 13
138.8445509497603
 23
54.45441007623557
 33
0.0
 14
138.8445509497603
 24
89.01441007623558
 34
0.0
 50
90.0
100
AcDbRotatedDimension
1001
GENIUS_GENDTOL_13
1000

1000
h7
1000

1040
0.0
1000

  0
DIMENSION
  5
6708
330
2
100
AcDbEntity
  8
AM_5
100
AcDbDimension
  2
*D5
 10
145.3245509497604
 20
101.4180189989083
 30
0.0
 11
138.8445509497603
 21
103.0180189989083
 31
0.0
 70
    32
  1
18
 71
     5
 42
12.96
  3
GEN-ISO
100
AcDbAlignedDimension
 13
132.3645509497604
 23
82.53441007623559
 33
0.0
 14
145.3245509497604
 24
82.53441007623559
 34
0.0
 50
180.0
100
AcDbRotatedDimension
1001
GENIUS_GENDTOL_13
1000

1000
h7
1000

1040
0.0
1000

  0
CIRCLE
  5
6709
330
2
100
AcDbEntity
  8
AM_0
100
AcDbCircle
 10
138.8445509497603
 20
71.73441007623558
 30
0.0
 40
4.68
  0
CIRCLE
  5
670A
330
2
100
AcDbEntity
  8
AM_0
100
AcDbCircle
 10
138.8445509497603
 20
71.73441007623558
 30
0.0
 40
5.256
  0
LINE
  5
670B
330
2
100
AcDbEntity
  8
AM_0
100
AcDbLine
 10
179.8724223743267
 20
67.05441007623557
 30
0.0
 11
181.6004223743267
 21
67.05441007623455
 31
0.0
1001
ACAD
1000
ASC_BOUNDS
1002
{
1070
    19
1002
}
  0
LINE
  5
670C
330
2
100
AcDbEntity
  8
AM_0
100
AcDbLine
 10
179.8724223743266
 20
66.47841007623558
 30
0.0
 11
181.6004223743267
 21
66.47841007623455
 31
0.0
1001
ACAD
1000
ASC_BOUNDS
1002
{
1070
    19
1002
}
  0
LINE
  5
670D
330
2
100
AcDbEntity
  8
AM_0
100
AcDbLine
 10
181.6004223743267
 20
66.47841007623455
 30
0.0
 11
181.6004223743267
 21
71.73441007623456
 31
0.0
1001
ACAD
1000
ASC_BOUNDS
1002
{
1070
    19
1002
}
  0
LINE
  5
670E
330
2
100
AcDbEntity
  8
AM_0
100
AcDbLine
 10
179.2964223743267
 20
55.60641007623558
 30
0.0
 11
179.2964223743267
 21
57.69441007623559
 31
0.0
1001
ACAD
1000
ASC_BOUNDS
1002
{
1070
    19
1002
}
  0
LINE
  5
670F
330
2
100
AcDbEntity
  8
AM_0
100
AcDbLine
 10
178.1444223743267
 20
55.03041007623558
 30
0.0
 11
174.6164223743267
 21
55.03041007623558
 31
0.0
1001
ACAD
1000
ASC_BOUNDS
1002
{
1070
    19
1002
}
  0
LINE
  5
6710
330
2
100
AcDbEntity
  8
AM_0
100
AcDbLine
 10
178.7204223743267
 20
64.11158410008939
 30
0.0
 11
178.7204223743267
 21
65.90241007623558
 31
0.0
1001
ACAD
1000
ASC_BOUNDS
1002
{
1070
    19
1002
}
  0
ARC
  5
6711
330
2
100
AcDbEntity
  8
AM_0
100
AcDbCircle
 10
178.1444223743267
 20
55.60641007623558
 30
0.0
 40
0.5760000000000002
100
AcDbArc
 50
270.0
 51
0.0
1001
ACAD
1000
ASC_BOUNDS
1002
{
1070
    19
1002
}
  0
ARC
  5
6712
330
2
100
AcDbEntity
  8
AM_0
100
AcDbCircle
 10
178.1444223743267
 20
55.60641007623558
 30
0.0
 40
1.152
100
AcDbArc
 50
270.0
 51
0.0
1001
ACAD
1000
ASC_BOUNDS
1002
{
1070
    19
1002
}
  0
LINE
  5
6713
330
2
100
AcDbEntity
  8
AM_0
100
AcDbLine
 10
177.8564223743267
 20
62.19441007623558
 30
0.0
 11
179.2964223743267
 21
63.63441007623555
 31
0.0
1001
ACAD
1000
ASC_BOUNDS
1002
{
1070
    19
1002
}
  0
LINE
  5
6714
330
2
100
AcDbEntity
  8
AM_0
100
AcDbLine
 10
177.8564223743267
 20
63.00899708816247
 30
0.0
 11
178.5517158802901
 21
63.70429059412593
 31
0.0
1001
ACAD
1000
ASC_BOUNDS
1002
{
1070
    19
1002
}
  0
ARC
  5
6715
330
2
100
AcDbEntity
  8
AM_0
100
AcDbCircle
 10
178.1444223743267
 20
64.11158410008939
 30
0.0
 40
0.5760000000000002
100
AcDbArc
 50
315.0000000000002
 51
359.9999999999999
1001
ACAD
1000
ASC_BOUNDS
1002
{
1070
    19
1002
}
  0
LINE
  5
6716
330
2
100
AcDbEntity
  8
AM_0
100
AcDbLine
 10
177.8564223743267
 20
62.19441007623558
 30
0.0
 11
177.8564223743267
 21
63.00899708816247
 31
0.0
1001
ACAD
1000
ASC_BOUNDS
1002
{
1070
    19
1002
}
  0
ARC
  5
6717
330
2
100
AcDbEntity
  8
AM_0
100
AcDbCircle
 10
178.1444223743267
 20
57.03723605238177
 30
0.0
 40
0.5760000000000002
100
AcDbArc
 50
0.0000000000000509
 51
44.99999999999973
1001
ACAD
1000
ASC_BOUNDS
1002
{
1070
    19
1002
}
  0
LINE
  5
6718
330
2
100
AcDbEntity
  8
AM_0
100
AcDbLine
 10
177.8564223743267
 20
58.95441007623557
 30
0.0
 11
179.2964223743267
 21
57.51441007623559
 31
0.0
1001
ACAD
1000
ASC_BOUNDS
1002
{
1070
    19
1002
}
  0
LINE
  5
6719
330
2
100
AcDbEntity
  8
AM_0
100
AcDbLine
 10
177.8564223743267
 20
58.95441007623556
 30
0.0
 11
177.8564223743267
 21
58.13982306430869
 31
0.0
1001
ACAD
1000
ASC_BOUNDS
1002
{
1070
    19
1002
}
  0
LINE
  5
671A
330
2
100
AcDbEntity
  8
AM_0
100
AcDbLine
 10
177.8564223743267
 20
58.13982306430869
 30
0.0
 11
178.5517158802901
 21
57.44452955834522
 31
0.0
1001
ACAD
1000
ASC_BOUNDS
1002
{
1070
    19
1002
}
  0
LINE
  5
671B
330
2
100
AcDbEntity
  8
AM_0
100
AcDbLine
 10
178.7204223743267
 20
55.60641007623558
 30
0.0
 11
178.7204223743267
 21
57.03723605238177
 31
0.0
1001
ACAD
1000
ASC_BOUNDS
1002
{
1070
    19
1002
}
  0
CIRCLE
  5
671C
330
2
100
AcDbEntity
  8
AM_0
100
AcDbCircle
 10
138.8445509497603
 20
60.57441007623556
 30
0.0
 40
2.88
  0
ARC
  5
671D
330
2
100
AcDbEntity
  8
AM_0
100
AcDbCircle
 10
179.8724223743267
 20
65.90241007623558
 30
0.0
 40
1.152
100
AcDbArc
 50
90.0
 51
180.0000000000002
1001
ACAD
1000
ASC_BOUNDS
1002
{
1070
    19
1002
}
  0
ARC
  5
671E
330
2
100
AcDbEntity
  8
AM_0
100
AcDbCircle
 10
179.8724223743266
 20
65.90241007623558
 30
0.0
 40
0.5760000000000002
100
AcDbArc
 50
90.00000000000007
 51
180.0
1001
ACAD
1000
ASC_BOUNDS
1002
{
1070
    19
1002
}
  0
LINE
  5
671F
330
2
100
AcDbEntity
  8
AM_0
100
AcDbLine
 10
179.2964223743267
 20
87.86241007623557
 30
0.0
 11
179.2964223743267
 21
85.77441007623557
 31
0.0
1001
ACAD
1000
ASC_BOUNDS
1002
{
1070
    19
1002
}
  0
LINE
  5
6720
330
2
100
AcDbEntity
  8
AM_0
100
AcDbLine
 10
177.8564223743267
 20
84.51441007623557
 30
0.0
 11
177.8564223743267
 21
85.32899708816248
 31
0.0
1001
ACAD
1000
ASC_BOUNDS
1002
{
1070
    19
1002
}
  0
LINE
  5
6721
330
2
100
AcDbEntity
  8
AM_0
100
AcDbLine
 10
174.6164223743267
 20
89.01441007623558
 30
0.0
 11
174.6164223743267
 21
84.33441007623555
 31
0.0
1001
ACAD
1000
ASC_BOUNDS
1002
{
1070
    19
1002
}
  0
ARC
  5
6722
330
2
100
AcDbEntity
  8
AM_0
100
AcDbCircle
 10
178.1444223743267
 20
87.86241007623557
 30
0.0
 40
1.152
100
AcDbArc
 50
0.0
 51
89.99999999999998
1001
ACAD
1000
ASC_BOUNDS
1002
{
1070
    19
1002
}
  0
ARC
  5
6723
330
2
100
AcDbEntity
  8
AM_0
100
AcDbCircle
 10
178.1444223743267
 20
87.86241007623557
 30
0.0
 40
0.5760000000000002
100
AcDbArc
 50
0.0
 51
89.99999999999998
1001
ACAD
1000
ASC_BOUNDS
1002
{
1070
    19
1002
}
  0
LINE
  5
6724
330
2
100
AcDbEntity
  8
AM_0
100
AcDbLine
 10
178.1444223743267
 20
89.01441007623558
 30
0.0
 11
174.6164223743267
 21
89.01441007623558
 31
0.0
1001
ACAD
1000
ASC_BOUNDS
1002
{
1070
    19
1002
}
  0
LINE
  5
6725
330
2
100
AcDbEntity
  8
AM_0
100
AcDbLine
 10
178.1444223743267
 20
88.43841007623558
 30
0.0
 11
174.6164223743267
 21
88.43841007623558
 31
0.0
1001
ACAD
1000
ASC_BOUNDS
1002
{
1070
    19
1002
}
  0
LINE
  5
6726
330
2
100
AcDbEntity
  8
AM_0
100
AcDbLine
 10
177.8564223743267
 20
85.32899708816248
 30
0.0
 11
178.5517158802901
 21
86.02429059412594
 31
0.0
1001
ACAD
1000
ASC_BOUNDS
1002
{
1070
    19
1002
}
  0
LINE
  5
6727
330
2
100
AcDbEntity
  8
AM_0
100
AcDbLine
 10
177.8564223743267
 20
84.51441007623557
 30
0.0
 11
179.2964223743267
 21
85.95441007623557
 31
0.0
1001
ACAD
1000
ASC_BOUNDS
1002
{
1070
    19
1002
}
  0
LINE
  5
6728
330
2
100
AcDbEntity
  8
AM_0
100
AcDbLine
 10
178.7204223743267
 20
87.86241007623557
 30
0.0
 11
178.7204223743267
 21
86.43158410008936
 31
0.0
1001
ACAD
1000
ASC_BOUNDS
1002
{
1070
    19
1002
}
  0
ARC
  5
6729
330
2
100
AcDbEntity
  8
AM_0
100
AcDbCircle
 10
178.1444223743267
 20
86.43158410008936
 30
0.0
 40
0.5760000000000002
100
AcDbArc
 50
315.0000000000002
 51
359.9999999999999
1001
ACAD
1000
ASC_BOUNDS
1002
{
1070
    19
1002
}
  0
ARC
  5
672A
330
2
100
AcDbEntity
  8
AM_0
100
AcDbCircle
 10
179.8724223743267
 20
77.5664100762356
 30
0.0
 40
1.152
100
AcDbArc
 50
179.9999999999997
 51
270.0
1001
ACAD
1000
ASC_BOUNDS
1002
{
1070
    19
1002
}
  0
LINE
  5
672B
330
2
100
AcDbEntity
  8
AM_0
100
AcDbLine
 10
181.6004223743267
 20
76.99041007623455
 30
0.0
 11
181.6004223743267
 21
71.73441007623456
 31
0.0
1001
ACAD
1000
ASC_BOUNDS
1002
{
1070
    19
1002
}
  0
ARC
  5
672C
330
2
100
AcDbEntity
  8
AM_0
100
AcDbCircle
 10
178.1444223743267
 20
79.35723605238178
 30
0.0
 40
0.5760000000000002
100
AcDbArc
 50
0.0000000000000509
 51
44.99999999999973
1001
ACAD
1000
ASC_BOUNDS
1002
{
1070
    19
1002
}
  0
LINE
  5
672D
330
2
100
AcDbEntity
  8
AM_0
100
AcDbLine
 10
177.8564223743267
 20
81.27441007623557
 30
0.0
 11
179.2964223743267
 21
79.83441007623563
 31
0.0
1001
ACAD
1000
ASC_BOUNDS
1002
{
1070
    19
1002
}
  0
LINE
  5
672E
330
2
100
AcDbEntity
  8
AM_0
100
AcDbLine
 10
177.8564223743267
 20
81.27441007623557
 30
0.0
 11
177.8564223743267
 21
80.45982306430866
 31
0.0
1001
ACAD
1000
ASC_BOUNDS
1002
{
1070
    19
1002
}
  0
LINE
  5
672F
330
2
100
AcDbEntity
  8
AM_0
100
AcDbLine
 10
177.8564223743267
 20
80.45982306430866
 30
0.0
 11
178.5517158802901
 21
79.76452955834523
 31
0.0
1001
ACAD
1000
ASC_BOUNDS
1002
{
1070
    19
1002
}
  0
LINE
  5
6730
330
2
100
AcDbEntity
  8
AM_0
100
AcDbLine
 10
179.8724223743266
 20
76.99041007623558
 30
0.0
 11
181.6004223743267
 21
76.99041007623455
 31
0.0
1001
ACAD
1000
ASC_BOUNDS
1002
{
1070
    19
1002
}
  0
LINE
  5
6731
330
2
100
AcDbEntity
  8
AM_0
100
AcDbLine
 10
178.7204223743267
 20
79.35723605238178
 30
0.0
 11
178.7204223743267
 21
77.5664100762356
 31
0.0
1001
ACAD
1000
ASC_BOUNDS
1002
{
1070
    19
1002
}
  0
ARC
  5
6732
330
2
100
AcDbEntity
  8
AM_0
100
AcDbCircle
 10
179.8724223743266
 20
77.5664100762356
 30
0.0
 40
0.5760000000000002
100
AcDbArc
 50
180.0
 51
269.9999999999998
1001
ACAD
1000
ASC_BOUNDS
1002
{
1070
    19
1002
}
  0
LINE
  5
6733
330
2
100
AcDbEntity
  8
AM_0
100
AcDbLine
 10
179.8724223743267
 20
76.41441007623555
 30
0.0
 11
181.6004223743267
 21
76.41441007623453
 31
0.0
1001
ACAD
1000
ASC_BOUNDS
1002
{
1070
    19
1002
}
  0
CIRCLE
  5
6735
330
2
100
AcDbEntity
  8
AM_0
100
AcDbCircle
 10
138.8445509497603
 20
82.89441007623556
 30
0.0
 40
2.88
  0
ARC
  5
6736
330
2
100
AcDbEntity
  8
AM_3
  6
AM_ISO02W050x2
 48
0.5
100
AcDbCircle
 10
138.8445509497603
 20
60.93441007623558
 30
0.0
 40
5.903999999999999
100
AcDbArc
 50
180.0
 51
0.0
  0
LINE
  5
6737
330
2
100
AcDbEntity
  8
AM_3
  6
AM_ISO02W050x2
 48
0.5
100
AcDbLine
 10
132.9405509497604
 20
82.53441007623559
 30
0.0
 11
132.9405509497604
 21
60.93441007623558
 31
0.0
  0
LINE
  5
6738
330
2
100
AcDbEntity
  8
AM_3
  6
AM_ISO02W050x2
 48
0.5
100
AcDbLine
 10
144.7485509497603
 20
60.93441007623558
 30
0.0
 11
144.7485509497603
 21
82.53441007623559
 31
0.0
  0
ARC
  5
6739
330
2
100
AcDbEntity
  8
AM_3
  6
AM_ISO02W050x2
 48
0.5
100
AcDbCircle
 10
138.8445509497603
 20
82.53441007623559
 30
0.0
 40
5.903999999999999
100
AcDbArc
 50
0.0
 51
180.0
  0
LINE
  5
6754
330
2
100
AcDbEntity
  8
AM_0
100
AcDbLine
 10
171.7364223743267
 20
54.45441007623557
 30
0.0
 11
171.7364223743267
 21
59.13441007623558
 31
0.0
1001
ACAD
1000
ASC_BOUNDS
1002
{
1070
    19
1002
}
  0
LINE
  5
6755
330
2
100
AcDbEntity
  8
AM_0
100
AcDbLine
 10
171.7364223743267
 20
89.01441007623558
 30
0.0
 11
173.1764223743267
 21
89.01441007623558
 31
0.0
1001
ACAD
1000
ASC_BOUNDS
1002
{
1070
    19
1002
}
  0
LINE
  5
6756
330
2
100
AcDbEntity
  8
AM_0
100
AcDbLine
 10
173.1764223743267
 20
89.01441007623558
 30
0.0
 11
173.1764223743267
 21
84.33441007623557
 31
0.0
1001
ACAD
1000
ASC_BOUNDS
1002
{
1070
    19
1002
}
  0
LINE
  5
6757
330
2
100
AcDbEntity
  8
AM_0
100
AcDbLine
 10
173.1764223743267
 20
54.45441007623557
 30
0.0
 11
171.7364223743267
 21
54.45441007623557
 31
0.0
1001
ACAD
1000
ASC_BOUNDS
1002
{
1070
    19
1002
}
  0
LINE
  5
6758
330
2
100
AcDbEntity
  8
AM_7
  6
AM_ISO08W050x2
 48
0.5
100
AcDbLine
 10
179.592659203678
 20
60.57441007623556
 30
0.0
 11
170.3854522210228
 21
60.57441007623556
 31
0.0
  0
LINE
  5
6759
330
2
100
AcDbEntity
  8
AM_7
  6
AM_ISO08W050x2
 48
0.5
100
AcDbLine
 10
179.558053185143
 20
82.89441007623556
 30
0.0
 11
170.4825979720108
 21
82.89441007623556
 31
0.0
  0
LINE
  5
6760
330
2
100
AcDbEntity
  8
AM_0
100
AcDbLine
 10
171.7364223743267
 20
74.07441007623558
 30
0.0
 11
173.1764223743267
 21
74.07441007623558
 31
0.0
1001
ACAD
1000
ASC_BOUNDS
1002
{
1070
    19
1002
}
  0
LINE
  5
6761
330
2
100
AcDbEntity
  8
AM_0
100
AcDbLine
 10
171.7364223743267
 20
69.39441007623559
 30
0.0
 11
173.1764223743267
 21
69.39441007623559
 31
0.0
1001
ACAD
1000
ASC_BOUNDS
1002
{
1070
    19
1002
}
  0
POINT
  5
677C
330
2
100
AcDbEntity
  8
AM_0
100
AcDbPoint
 10
181.4564223743267
 20
71.73441007623558
 30
0.0
1001
ASM_CADM_ALBERO
1005
6780
1005
677F
1005
677E
1005
677D
1005
6783
1005
6782
1005
6781
1005
0
1005
0
1005
0
  0
LINE
  5
677D
330
2
100
AcDbEntity
  8
AM_0
100
AcDbLine
 10
181.4564223743267
 20
69.21441007623558
 30
0.0
 11
173.1764223743267
 21
69.21441007623558
 31
0.0
1001
ASM_CADM_ALBERO
1005
677C
1040
11.5
1040
7.0
1040
7.0
1040
11.5
1040
0.0
1040
10.0
1070
     1
1011
181.4564223743267
1021
71.73441007623558
1031
0.0
1041
0.0
1011
173.1764223743267
1021
71.73441007623558
1031
0.0
1070
     1
1070
     0
1070
     0
1070
     0
1070
     0
1070
     1
1070
     1
1070
     1
1070
     1
1000
7
1070
     0
1070
     0
1040
0.7853981633974483
1040
0.7853981633974483
1040
2.0
1040
2.0
  0
LINE
  5
677E
330
2
100
AcDbEntity
  8
AM_0
100
AcDbLine
 10
181.4564223743267
 20
74.25441007623558
 30
0.0
 11
173.1764223743267
 21
74.25441007623558
 31
0.0
1001
ASM_CADM_ALBERO
1005
677C
1040
11.5
1040
7.0
1040
7.0
1040
11.5
1040
0.0
1040
10.0
1070
     1
1011
181.4564223743267
1021
71.73441007623558
1031
0.0
1041
0.0
1011
173.1764223743267
1021
71.73441007623558
1031
0.0
1070
     1
1070
     0
1070
     0
1070
     0
1070
     0
1070
     1
1070
     1
1070
     1
1070
     1
1000
7
1070
     0
1070
     0
1040
0.7853981633974483
1040
0.7853981633974483
1040
2.0
1040
2.0
  0
LINE
  5
677F
330
2
100
AcDbEntity
  8
AM_0
100
AcDbLine
 10
173.1764223743267
 20
74.25441007623558
 30
0.0
 11
173.1764223743267
 21
69.21441007623558
 31
0.0
1001
ASM_CADM_ALBERO
1005
677C
1040
11.5
1040
7.0
1040
7.0
1040
11.5
1040
0.0
1040
10.0
1070
     1
1011
181.4564223743267
1021
71.73441007623558
1031
0.0
1041
0.0
1011
173.1764223743267
1021
71.73441007623558
1031
0.0
1070
     1
1070
     0
1070
     0
1070
     0
1070
     0
1070
     1
1070
     1
1070
     1
1070
     1
1000
7
1070
     0
1070
     0
1040
0.7853981633974483
1040
0.7853981633974483
1040
2.0
1040
2.0
  0
LINE
  5
6780
330
2
100
AcDbEntity
  8
AM_0
100
AcDbLine
 10
181.4564223743267
 20
74.25441007623558
 30
0.0
 11
181.4564223743267
 21
69.21441007623558
 31
0.0
1001
ASM_CADM_ALBERO
1005
677C
1040
11.5
1040
7.0
1040
7.0
1040
11.5
1040
0.0
1040
10.0
1070
     1
1011
181.4564223743267
1021
71.73441007623558
1031
0.0
1041
0.0
1011
173.1764223743267
1021
71.73441007623558
1031
0.0
1070
     1
1070
     0
1070
     0
1070
     0
1070
     0
1070
     1
1070
     1
1070
     1
1070
     1
1000
7
1070
     0
1070
     0
1040
0.7853981633974483
1040
0.7853981633974483
1040
2.0
1040
2.0
  0
LINE
  5
6781
330
2
100
AcDbEntity
  8
AM_0
100
AcDbLine
 10
173.1764223743267
 20
69.64641007623557
 30
0.0
 11
171.3764223743267
 21
69.64641007623557
 31
0.0
1001
ASM_CADM_ALBERO
1005
677C
1040
2.5
1040
5.799999999999999
1040
5.799999999999999
1040
2.5
1040
0.0
1040
10.0
1070
     2
1011
173.1764223743267
1021
71.73441007623558
1031
0.0
1041
8.280000000000001
1011
171.3764223743267
1021
71.73441007623558
1031
0.0
1070
     1
1070
     0
1070
     0
1070
     0
1070
     0
1070
     0
1070
     1
1070
     1
1070
     1
1000
5.8
1070
     0
1070
     0
1040
0.7853981633974483
1040
0.7853981633974483
1040
2.0
1040
2.0
  0
LINE
  5
6782
330
2
100
AcDbEntity
  8
AM_0
100
AcDbLine
 10
173.1764223743267
 20
73.82241007623557
 30
0.0
 11
171.3764223743267
 21
73.82241007623557
 31
0.0
1001
ASM_CADM_ALBERO
1005
677C
1040
2.5
1040
5.799999999999999
1040
5.799999999999999
1040
2.5
1040
0.0
1040
10.0
1070
     2
1011
173.1764223743267
1021
71.73441007623558
1031
0.0
1041
8.280000000000001
1011
171.3764223743267
1021
71.73441007623558
1031
0.0
1070
     1
1070
     0
1070
     0
1070
     0
1070
     0
1070
     0
1070
     1
1070
     1
1070
     1
1000
5.8
1070
     0
1070
     0
1040
0.7853981633974483
1040
0.7853981633974483
1040
2.0
1040
2.0
  0
LINE
  5
6783
330
2
100
AcDbEntity
  8
AM_0
100
AcDbLine
 10
171.3764223743267
 20
73.82241007623557
 30
0.0
 11
171.3764223743267
 21
69.64641007623557
 31
0.0
1001
ASM_CADM_ALBERO
1005
677C
1040
2.5
1040
5.799999999999999
1040
5.799999999999999
1040
2.5
1040
0.0
1040
10.0
1070
     2
1011
173.1764223743267
1021
71.73441007623558
1031
0.0
1041
8.280000000000001
1011
171.3764223743267
1021
71.73441007623558
1031
0.0
1070
     1
1070
     0
1070
     0
1070
     0
1070
     0
1070
     0
1070
     1
1070
     1
1070
     1
1000
5.8
1070
     0
1070
     0
1040
0.7853981633974483
1040
0.7853981633974483
1040
2.0
1040
2.0
  0
LINE
  5
6784
330
2
100
AcDbEntity
  8
AM_0
100
AcDbLine
 10
181.4564223743267
 20
74.25441007623558
 30
0.0
 11
173.522058964251
 21
74.25441007623558
 31
0.0
  0
LINE
  5
6785
330
2
100
AcDbEntity
  8
AM_0
100
AcDbLine
 10
138.885980375047
 20
68.12916247376877
 30
0.0
 11
142.4497985522272
 21
71.69298065094898
 31
0.0
  0
LINE
  5
6786
330
2
100
AcDbEntity
  8
AM_0
100
AcDbLine
 10
142.4497985522272
 20
71.69298065094898
 30
0.0
 11
138.885980375047
 21
75.25679882812918
 31
0.0
  0
LINE
  5
6787
330
2
100
AcDbEntity
  8
AM_0
100
AcDbLine
 10
138.885980375047
 20
75.25679882812918
 30
0.0
 11
135.3221621978668
 21
71.69298065094898
 31
0.0
  0
LINE
  5
6788
330
2
100
AcDbEntity
  8
AM_0
100
AcDbLine
 10
135.3221621978668
 20
71.69298065094898
 30
0.0
 11
138.885980375047
 21
68.12916247376877
 31
0.0
  0
LINE
  5
6789
330
2
100
AcDbEntity
  8
AM_7
  6
AM_ISO08W050x2
 48
0.5
100
AcDbLine
 10
138.8445509497603
 20
96.88186293270383
 30
0.0
 11
138.8445509497603
 21
45.79595372759263
 31
0.0
  0
CIRCLE
  5
678A
330
2
100
AcDbEntity
  8
AM_0
100
AcDbCircle
 10
138.8445509497603
 20
71.73441007623558
 30
0.0
 40
2.461409944878349
  0
LINE
  5
678B
330
2
100
AcDbEntity
  8
AM_0
100
AcDbLine
 10
171.3764223743267
 20
67.41441007623558
 30
0.0
 11
171.0164223743267
 21
67.41441007623558
 31
0.0
  0
LINE
  5
678C
330
2
100
AcDbEntity
  8
AM_0
100
AcDbLine
 10
171.0164223743267
 20
67.41441007623558
 30
0.0
 11
171.0164223743267
 21
76.0544100762356
 31
0.0
  0
LINE
  5
678D
330
2
100
AcDbEntity
  8
AM_0
100
AcDbLine
 10
171.0164223743267
 20
76.0544100762356
 30
0.0
 11
171.3764223743267
 21
76.0544100762356
 31
0.0
  0
LINE
  5
678E
330
2
100
AcDbEntity
  8
AM_0
100
AcDbLine
 10
171.3764223743267
 20
76.0544100762356
 30
0.0
 11
171.3764223743267
 21
67.41441007623558
 31
0.0
  0
LINE
  5
678F
330
2
100
AcDbEntity
  8
AM_7
  6
AM_ISO08W050x2
 48
0.5
100
AcDbLine
 10
110.988654256479
 20
71.73441007623563
 30
0.0
 11
145.7963706968579
 21
71.73441007623555
 31
0.0
  0
LINE
  5
6790
330
2
100
AcDbEntity
  8
AM_3
  6
AM_ISO02W050x2
 48
0.5
100
AcDbLine
 10
132.3687256114327
 20
76.63794723463758
 30
0.0
 11
138.8015658751335
 21
77.11935232565924
 31
0.0
  0
LINE
  5
6791
330
2
100
AcDbEntity
  8
AM_3
  6
AM_ISO02W050x2
 48
0.5
100
AcDbLine
 10
132.3676137137881
 20
66.83095612729701
 30
0.0
 11
138.8015658751335
 21
66.3494678268119
 31
0.0
  0
CIRCLE
  5
67AC
330
2
100
AcDbEntity
  8
AM_0
100
AcDbCircle
 10
138.8445509497603
 20
82.89441007623556
 30
0.0
 40
2.58336
  0
ARC
  5
67AD
330
2
100
AcDbEntity
  8
AM_0
100
AcDbCircle
 10
138.8792652462889
 20
82.88537169779393
 30
0.0
 40
0.6430320000000035
100
AcDbArc
 50
298.6293652516087
 51
314.9999999999989
  0
LINE
  5
67AE
330
2
100
AcDbEntity
  8
AM_0
100
AcDbLine
 10
139.1873687428329
 20
82.32095838430694
 30
0.0
 11
138.8792652462889
 21
82.46417169779391
 31
0.0
  0
ARC
  5
67AF
330
2
100
AcDbEntity
  8
AM_0
100
AcDbCircle
 10
138.8792652462889
 20
82.88537169779393
 30
0.0
 40
1.803653493917701
100
AcDbArc
 50
304.3806001207804
 51
314.9999999999992
  0
LINE
  5
67B0
330
2
100
AcDbEntity
  8
AM_0
100
AcDbLine
 10
139.1873687428329
 20
82.32095838430694
 30
0.0
 11
139.8977659989146
 21
81.39680791245513
 31
0.0
  0
LINE
  5
67B1
330
2
100
AcDbEntity
  8
AM_0
100
AcDbLine
 10
139.1281885403553
 20
82.19364042157307
 30
0.0
 11
138.8792652462889
 21
82.30934546921849
 31
0.0
  0
LINE
  5
67B2
330
2
100
AcDbEntity
  8
AM_0
100
AcDbLine
 10
139.1873687428329
 20
82.32095838430694
 30
0.0
 11
139.1281885403553
 21
82.19364042157307
 31
0.0
  0
LINE
  5
67B3
330
2
100
AcDbEntity
  8
AM_0
100
AcDbLine
 10
139.1281885403553
 20
82.19364042157307
 30
0.0
 11
139.8977659989146
 21
81.39680791245513
 31
0.0
  0
LINE
  5
67B4
330
2
100
AcDbEntity
  8
AM_0
100
AcDbLine
 10
139.5709965225097
 20
82.63644840372748
 30
0.0
 11
140.3678290316276
 21
81.86687094516811
 31
0.0
  0
LINE
  5
67B5
330
2
100
AcDbEntity
  8
AM_0
100
AcDbLine
 10
139.4436785597758
 20
82.5772682012499
 30
0.0
 11
139.5709965225097
 21
82.63644840372748
 31
0.0
  0
LINE
  5
67B6
330
2
100
AcDbEntity
  8
AM_0
100
AcDbLine
 10
139.5709965225097
 20
82.63644840372748
 30
0.0
 11
139.4552914748643
 21
82.88537169779393
 31
0.0
  0
LINE
  5
67B7
330
2
100
AcDbEntity
  8
AM_0
100
AcDbLine
 10
139.4436785597758
 20
82.5772682012499
 30
0.0
 11
140.3678290316276
 21
81.86687094516811
 31
0.0
  0
ARC
  5
67B8
330
2
100
AcDbEntity
  8
AM_0
100
AcDbCircle
 10
138.8792652462889
 20
82.88537169779393
 30
0.0
 40
1.803653493917701
100
AcDbArc
 50
314.9999999999985
 51
325.6193998792173
  0
LINE
  5
67B9
330
2
100
AcDbEntity
  8
AM_0
100
AcDbLine
 10
139.4436785597758
 20
82.5772682012499
 30
0.0
 11
139.3004652462889
 21
82.88537169779393
 31
0.0
  0
ARC
  5
67BA
330
2
100
AcDbEntity
  8
AM_0
100
AcDbCircle
 10
138.8792652462889
 20
82.88537169779393
 30
0.0
 40
0.6430320000000035
100
AcDbArc
 50
314.9999999999988
 51
331.3706347483891
  0
ARC
  5
67BB
330
2
100
AcDbEntity
  8
AM_0
100
AcDbCircle
 10
138.8792652462889
 20
82.88537169779393
 30
0.0
 40
0.6430320000000035
100
AcDbArc
 50
208.6293652516105
 51
225.0000000000008
  0
LINE
  5
67BC
330
2
100
AcDbEntity
  8
AM_0
100
AcDbLine
 10
138.3148519328019
 20
82.5772682012499
 30
0.0
 11
138.4580652462888
 21
82.88537169779393
 31
0.0
  0
ARC
  5
67BD
330
2
100
AcDbEntity
  8
AM_0
100
AcDbCircle
 10
138.8792652462889
 20
82.88537169779393
 30
0.0
 40
1.803653493917701
100
AcDbArc
 50
214.3806001207823
 51
225.0000000000011
  0
LINE
  5
67BE
330
2
100
AcDbEntity
  8
AM_0
100
AcDbLine
 10
138.3148519328019
 20
82.5772682012499
 30
0.0
 11
137.39070146095
 21
81.86687094516811
 31
0.0
  0
LINE
  5
67BF
330
2
100
AcDbEntity
  8
AM_0
100
AcDbLine
 10
138.187533970068
 20
82.63644840372748
 30
0.0
 11
138.3032390177134
 21
82.88537169779393
 31
0.0
  0
LINE
  5
67C0
330
2
100
AcDbEntity
  8
AM_0
100
AcDbLine
 10
138.3148519328019
 20
82.5772682012499
 30
0.0
 11
138.187533970068
 21
82.63644840372748
 31
0.0
  0
LINE
  5
67C1
330
2
100
AcDbEntity
  8
AM_0
100
AcDbLine
 10
138.187533970068
 20
82.63644840372748
 30
0.0
 11
137.39070146095
 21
81.86687094516811
 31
0.0
  0
LINE
  5
67C2
330
2
100
AcDbEntity
  8
AM_0
100
AcDbLine
 10
138.6303419522224
 20
82.19364042157307
 30
0.0
 11
137.8607644936631
 21
81.39680791245513
 31
0.0
  0
LINE
  5
67C3
330
2
100
AcDbEntity
  8
AM_0
100
AcDbLine
 10
138.5711617497448
 20
82.32095838430694
 30
0.0
 11
138.6303419522224
 21
82.19364042157307
 31
0.0
  0
LINE
  5
67C4
330
2
100
AcDbEntity
  8
AM_0
100
AcDbLine
 10
138.6303419522224
 20
82.19364042157307
 30
0.0
 11
138.8792652462889
 21
82.30934546921849
 31
0.0
  0
LINE
  5
67C5
330
2
100
AcDbEntity
  8
AM_0
100
AcDbLine
 10
138.5711617497448
 20
82.32095838430694
 30
0.0
 11
137.8607644936631
 21
81.39680791245513
 31
0.0
  0
ARC
  5
67C6
330
2
100
AcDbEntity
  8
AM_0
100
AcDbCircle
 10
138.8792652462889
 20
82.88537169779393
 30
0.0
 40
1.803653493917701
100
AcDbArc
 50
225.0000000000004
 51
235.6193998792192
  0
LINE
  5
67C7
330
2
100
AcDbEntity
  8
AM_0
100
AcDbLine
 10
138.5711617497448
 20
82.32095838430694
 30
0.0
 11
138.8792652462889
 21
82.46417169779391
 31
0.0
  0
ARC
  5
67C8
330
2
100
AcDbEntity
  8
AM_0
100
AcDbCircle
 10
138.8792652462889
 20
82.88537169779393
 30
0.0
 40
0.6430320000000035
100
AcDbArc
 50
225.0000000000007
 51
241.370634748391
  0
ARC
  5
67C9
330
2
100
AcDbEntity
  8
AM_0
100
AcDbCircle
 10
138.8792652462889
 20
82.88537169779397
 30
0.0
 40
0.6430320000000035
100
AcDbArc
 50
118.6293652516089
 51
134.9999999999992
  0
LINE
  5
67CA
330
2
100
AcDbEntity
  8
AM_0
100
AcDbLine
 10
138.5711617497448
 20
83.44978501128096
 30
0.0
 11
138.8792652462889
 21
83.30657169779398
 31
0.0
  0
ARC
  5
67CB
330
2
100
AcDbEntity
  8
AM_0
100
AcDbCircle
 10
138.8792652462889
 20
82.88537169779397
 30
0.0
 40
1.803653493917701
100
AcDbArc
 50
124.3806001207806
 51
134.9999999999995
  0
LINE
  5
67CC
330
2
100
AcDbEntity
  8
AM_0
100
AcDbLine
 10
138.5711617497448
 20
83.44978501128096
 30
0.0
 11
137.8607644936631
 21
84.37393548313279
 31
0.0
  0
LINE
  5
67CD
330
2
100
AcDbEntity
  8
AM_0
100
AcDbLine
 10
138.6303419522224
 20
83.57710297401485
 30
0.0
 11
138.8792652462889
 21
83.46139792636941
 31
0.0
  0
LINE
  5
67CE
330
2
100
AcDbEntity
  8
AM_0
100
AcDbLine
 10
138.5711617497448
 20
83.44978501128096
 30
0.0
 11
138.6303419522224
 21
83.57710297401485
 31
0.0
  0
LINE
  5
67CF
330
2
100
AcDbEntity
  8
AM_0
100
AcDbLine
 10
138.6303419522224
 20
83.57710297401485
 30
0.0
 11
137.8607644936631
 21
84.37393548313279
 31
0.0
  0
LINE
  5
67D0
330
2
100
AcDbEntity
  8
AM_0
100
AcDbLine
 10
138.187533970068
 20
83.13429499186041
 30
0.0
 11
137.39070146095
 21
83.90387245041978
 31
0.0
  0
LINE
  5
67D1
330
2
100
AcDbEntity
  8
AM_0
100
AcDbLine
 10
138.3148519328019
 20
83.19347519433804
 30
0.0
 11
138.187533970068
 21
83.13429499186041
 31
0.0
  0
LINE
  5
67D2
330
2
100
AcDbEntity
  8
AM_0
100
AcDbLine
 10
138.187533970068
 20
83.13429499186041
 30
0.0
 11
138.3032390177134
 21
82.88537169779401
 31
0.0
  0
LINE
  5
67D3
330
2
100
AcDbEntity
  8
AM_0
100
AcDbLine
 10
138.3148519328019
 20
83.19347519433804
 30
0.0
 11
137.39070146095
 21
83.90387245041978
 31
0.0
  0
ARC
  5
67D4
330
2
100
AcDbEntity
  8
AM_0
100
AcDbCircle
 10
138.8792652462889
 20
82.88537169779397
 30
0.0
 40
1.803653493917701
100
AcDbArc
 50
134.9999999999988
 51
145.6193998792176
  0
LINE
  5
67D5
330
2
100
AcDbEntity
  8
AM_0
100
AcDbLine
 10
138.3148519328019
 20
83.19347519433804
 30
0.0
 11
138.4580652462888
 21
82.88537169779401
 31
0.0
  0
ARC
  5
67D6
330
2
100
AcDbEntity
  8
AM_0
100
AcDbCircle
 10
138.8792652462889
 20
82.88537169779397
 30
0.0
 40
0.6430320000000035
100
AcDbArc
 50
134.9999999999991
 51
151.3706347483893
  0
ARC
  5
67D7
330
2
100
AcDbEntity
  8
AM_0
100
AcDbCircle
 10
138.8792652462889
 20
82.88537169779397
 30
0.0
 40
0.6430320000000035
100
AcDbArc
 50
28.62936525161089
 51
45.00000000000111
  0
LINE
  5
67D8
330
2
100
AcDbEntity
  8
AM_0
100
AcDbLine
 10
139.4436785597758
 20
83.19347519433804
 30
0.0
 11
139.3004652462889
 21
82.88537169779401
 31
0.0
  0
ARC
  5
67D9
330
2
100
AcDbEntity
  8
AM_0
100
AcDbCircle
 10
138.8792652462889
 20
82.88537169779397
 30
0.0
 40
1.803653493917701
100
AcDbArc
 50
34.38060012078263
 51
45.00000000000142
  0
LINE
  5
67DA
330
2
100
AcDbEntity
  8
AM_0
100
AcDbLine
 10
139.4436785597758
 20
83.19347519433804
 30
0.0
 11
140.3678290316276
 21
83.90387245041978
 31
0.0
  0
LINE
  5
67DB
330
2
100
AcDbEntity
  8
AM_0
100
AcDbLine
 10
139.5709965225097
 20
83.13429499186041
 30
0.0
 11
139.4552914748643
 21
82.88537169779401
 31
0.0
  0
LINE
  5
67DC
330
2
100
AcDbEntity
  8
AM_0
100
AcDbLine
 10
139.4436785597758
 20
83.19347519433804
 30
0.0
 11
139.5709965225097
 21
83.13429499186041
 31
0.0
  0
LINE
  5
67DD
330
2
100
AcDbEntity
  8
AM_0
100
AcDbLine
 10
139.5709965225097
 20
83.13429499186041
 30
0.0
 11
140.3678290316276
 21
83.90387245041978
 31
0.0
  0
LINE
  5
67DE
330
2
100
AcDbEntity
  8
AM_0
100
AcDbLine
 10
139.1281885403553
 20
83.57710297401485
 30
0.0
 11
139.8977659989146
 21
84.37393548313279
 31
0.0
  0
LINE
  5
67DF
330
2
100
AcDbEntity
  8
AM_0
100
AcDbLine
 10
139.1873687428329
 20
83.44978501128096
 30
0.0
 11
139.1281885403553
 21
83.57710297401485
 31
0.0
  0
LINE
  5
67E0
330
2
100
AcDbEntity
  8
AM_0
100
AcDbLine
 10
139.1281885403553
 20
83.57710297401485
 30
0.0
 11
138.8792652462889
 21
83.46139792636941
 31
0.0
  0
LINE
  5
67E1
330
2
100
AcDbEntity
  8
AM_0
100
AcDbLine
 10
139.1873687428329
 20
83.44978501128096
 30
0.0
 11
139.8977659989146
 21
84.37393548313279
 31
0.0
  0
ARC
  5
67E2
330
2
100
AcDbEntity
  8
AM_0
100
AcDbCircle
 10
138.8792652462889
 20
82.88537169779397
 30
0.0
 40
1.803653493917701
100
AcDbArc
 50
45.00000000000071
 51
55.61939987921953
  0
LINE
  5
67E3
330
2
100
AcDbEntity
  8
AM_0
100
AcDbLine
 10
139.1873687428329
 20
83.44978501128096
 30
0.0
 11
138.8792652462889
 21
83.30657169779398
 31
0.0
  0
ARC
  5
67E4
330
2
100
AcDbEntity
  8
AM_0
100
AcDbCircle
 10
138.8792652462889
 20
82.88537169779397
 30
0.0
 40
0.6430320000000035
100
AcDbArc
 50
45.00000000000102
 51
61.37063474839124
  0
LINE
  5
68A6
330
2
100
AcDbEntity
  8
AM_0
100
AcDbLine
 10
138.6303419522224
 20
61.25710297401484
 30
0.0
 11
137.8607644936631
 21
62.0539354831328
 31
0.0
  0
LINE
  5
68A7
330
2
100
AcDbEntity
  8
AM_0
100
AcDbLine
 10
138.5711617497448
 20
61.12978501128094
 30
0.0
 11
138.6303419522224
 21
61.25710297401484
 31
0.0
  0
LINE
  5
68A8
330
2
100
AcDbEntity
  8
AM_0
100
AcDbLine
 10
138.5711617497448
 20
61.12978501128094
 30
0.0
 11
138.8792652462889
 21
60.98657169779397
 31
0.0
  0
LINE
  5
68A9
330
2
100
AcDbEntity
  8
AM_0
100
AcDbLine
 10
138.5711617497448
 20
60.00095838430695
 30
0.0
 11
138.8792652462889
 21
60.14417169779392
 31
0.0
  0
LINE
  5
68AA
330
2
100
AcDbEntity
  8
AM_0
100
AcDbLine
 10
138.5711617497448
 20
60.00095838430695
 30
0.0
 11
138.6303419522224
 21
59.87364042157307
 31
0.0
  0
LINE
  5
68AB
330
2
100
AcDbEntity
  8
AM_0
100
AcDbLine
 10
138.6303419522224
 20
59.87364042157307
 30
0.0
 11
137.8607644936631
 21
59.07680791245512
 31
0.0
  0
CIRCLE
  5
68AC
330
2
100
AcDbEntity
  8
AM_0
100
AcDbCircle
 10
138.8445509497603
 20
60.57441007623556
 30
0.0
 40
2.58336
  0
LINE
  5
68AD
330
2
100
AcDbEntity
  8
AM_0
100
AcDbLine
 10
138.3148519328019
 20
60.87347519433804
 30
0.0
 11
138.4580652462888
 21
60.56537169779399
 31
0.0
  0
LINE
  5
68AE
330
2
100
AcDbEntity
  8
AM_0
100
AcDbLine
 10
138.3148519328019
 20
60.87347519433804
 30
0.0
 11
138.187533970068
 21
60.81429499186042
 31
0.0
  0
LINE
  5
68AF
330
2
100
AcDbEntity
  8
AM_0
100
AcDbLine
 10
138.187533970068
 20
60.81429499186042
 30
0.0
 11
137.39070146095
 21
61.58387245041976
 31
0.0
  0
LINE
  5
68B0
330
2
100
AcDbEntity
  8
AM_0
100
AcDbLine
 10
138.187533970068
 20
60.81429499186042
 30
0.0
 11
138.3032390177134
 21
60.56537169779399
 31
0.0
  0
ARC
  5
68B1
330
2
100
AcDbEntity
  8
AM_0
100
AcDbCircle
 10
138.8792652462889
 20
60.56537169779393
 30
0.0
 40
0.6430320000000035
100
AcDbArc
 50
225.0000000000007
 51
241.370634748391
  0
ARC
  5
68B2
330
2
100
AcDbEntity
  8
AM_0
100
AcDbCircle
 10
138.8792652462889
 20
60.56537169779393
 30
0.0
 40
1.803653493917701
100
AcDbArc
 50
225.0000000000004
 51
235.6193998792192
  0
LINE
  5
68B3
330
2
100
AcDbEntity
  8
AM_0
100
AcDbLine
 10
138.5711617497448
 20
60.00095838430695
 30
0.0
 11
137.8607644936631
 21
59.07680791245512
 31
0.0
  0
LINE
  5
68B4
330
2
100
AcDbEntity
  8
AM_0
100
AcDbLine
 10
138.187533970068
 20
60.31644840372749
 30
0.0
 11
137.39070146095
 21
59.54687094516812
 31
0.0
  0
LINE
  5
68B5
330
2
100
AcDbEntity
  8
AM_0
100
AcDbLine
 10
138.3148519328019
 20
60.25726820124988
 30
0.0
 11
138.187533970068
 21
60.31644840372749
 31
0.0
  0
LINE
  5
68B6
330
2
100
AcDbEntity
  8
AM_0
100
AcDbLine
 10
138.187533970068
 20
60.31644840372749
 30
0.0
 11
138.3032390177134
 21
60.56537169779393
 31
0.0
  0
LINE
  5
68B7
330
2
100
AcDbEntity
  8
AM_0
100
AcDbLine
 10
138.3148519328019
 20
60.25726820124988
 30
0.0
 11
137.39070146095
 21
59.54687094516812
 31
0.0
  0
ARC
  5
68B8
330
2
100
AcDbEntity
  8
AM_0
100
AcDbCircle
 10
138.8792652462889
 20
60.56537169779393
 30
0.0
 40
1.803653493917701
100
AcDbArc
 50
214.3806001207823
 51
225.0000000000011
  0
LINE
  5
68B9
330
2
100
AcDbEntity
  8
AM_0
100
AcDbLine
 10
138.3148519328019
 20
60.25726820124988
 30
0.0
 11
138.4580652462888
 21
60.56537169779393
 31
0.0
  0
ARC
  5
68BA
330
2
100
AcDbEntity
  8
AM_0
100
AcDbCircle
 10
138.8792652462889
 20
60.56537169779393
 30
0.0
 40
0.6430320000000035
100
AcDbArc
 50
208.6293652516105
 51
225.0000000000008
  0
ARC
  5
68BB
330
2
100
AcDbEntity
  8
AM_0
100
AcDbCircle
 10
138.8792652462889
 20
60.56537169779398
 30
0.0
 40
0.6430320000000035
100
AcDbArc
 50
134.9999999999991
 51
151.3706347483893
  0
ARC
  5
68BC
330
2
100
AcDbEntity
  8
AM_0
100
AcDbCircle
 10
138.8792652462889
 20
60.56537169779398
 30
0.0
 40
1.803653493917701
100
AcDbArc
 50
134.9999999999988
 51
145.6193998792176
  0
LINE
  5
68BD
330
2
100
AcDbEntity
  8
AM_0
100
AcDbLine
 10
138.3148519328019
 20
60.87347519433804
 30
0.0
 11
137.39070146095
 21
61.58387245041976
 31
0.0
  0
LINE
  5
68BE
330
2
100
AcDbEntity
  8
AM_0
100
AcDbLine
 10
138.5711617497448
 20
61.12978501128094
 30
0.0
 11
137.8607644936631
 21
62.0539354831328
 31
0.0
  0
ARC
  5
68BF
330
2
100
AcDbEntity
  8
AM_0
100
AcDbCircle
 10
138.8792652462889
 20
60.56537169779398
 30
0.0
 40
1.803653493917701
100
AcDbArc
 50
124.3806001207806
 51
134.9999999999995
  0
ARC
  5
68C0
330
2
100
AcDbEntity
  8
AM_0
100
AcDbCircle
 10
138.8792652462889
 20
60.56537169779398
 30
0.0
 40
0.6430320000000035
100
AcDbArc
 50
118.6293652516089
 51
134.9999999999992
  0
LINE
  5
68C1
330
2
100
AcDbEntity
  8
AM_0
100
AcDbLine
 10
139.5709965225097
 20
60.81429499186042
 30
0.0
 11
140.3678290316276
 21
61.58387245041978
 31
0.0
  0
LINE
  5
68C2
330
2
100
AcDbEntity
  8
AM_0
100
AcDbLine
 10
139.4436785597758
 20
60.87347519433804
 30
0.0
 11
139.5709965225097
 21
60.81429499186042
 31
0.0
  0
LINE
  5
68C3
330
2
100
AcDbEntity
  8
AM_0
100
AcDbLine
 10
139.4436785597758
 20
60.87347519433804
 30
0.0
 11
139.3004652462889
 21
60.56537169779399
 31
0.0
  0
LINE
  5
68C4
330
2
100
AcDbEntity
  8
AM_0
100
AcDbLine
 10
139.5709965225097
 20
60.81429499186042
 30
0.0
 11
139.4552914748643
 21
60.56537169779399
 31
0.0
  0
LINE
  5
68C5
330
2
100
AcDbEntity
  8
AM_0
100
AcDbLine
 10
138.6303419522224
 20
59.87364042157307
 30
0.0
 11
138.8792652462889
 21
59.98934546921851
 31
0.0
  0
ARC
  5
68C6
330
2
100
AcDbEntity
  8
AM_0
100
AcDbCircle
 10
138.8792652462889
 20
60.56537169779393
 30
0.0
 40
0.6430320000000035
100
AcDbArc
 50
314.9999999999988
 51
331.3706347483891
  0
LINE
  5
68C7
330
2
100
AcDbEntity
  8
AM_0
100
AcDbLine
 10
139.4436785597758
 20
60.25726820124988
 30
0.0
 11
139.3004652462889
 21
60.56537169779393
 31
0.0
  0
ARC
  5
68C8
330
2
100
AcDbEntity
  8
AM_0
100
AcDbCircle
 10
138.8792652462889
 20
60.56537169779393
 30
0.0
 40
1.803653493917701
100
AcDbArc
 50
314.9999999999985
 51
325.6193998792173
  0
LINE
  5
68C9
330
2
100
AcDbEntity
  8
AM_0
100
AcDbLine
 10
139.4436785597758
 20
60.25726820124988
 30
0.0
 11
140.3678290316276
 21
59.54687094516812
 31
0.0
  0
LINE
  5
68CA
330
2
100
AcDbEntity
  8
AM_0
100
AcDbLine
 10
139.5709965225097
 20
60.31644840372749
 30
0.0
 11
139.4552914748643
 21
60.56537169779393
 31
0.0
  0
LINE
  5
68CB
330
2
100
AcDbEntity
  8
AM_0
100
AcDbLine
 10
139.4436785597758
 20
60.25726820124988
 30
0.0
 11
139.5709965225097
 21
60.31644840372749
 31
0.0
  0
LINE
  5
68CC
330
2
100
AcDbEntity
  8
AM_0
100
AcDbLine
 10
139.5709965225097
 20
60.31644840372749
 30
0.0
 11
140.3678290316276
 21
59.54687094516812
 31
0.0
  0
LINE
  5
68CD
330
2
100
AcDbEntity
  8
AM_0
100
AcDbLine
 10
139.1281885403553
 20
59.87364042157307
 30
0.0
 11
139.8977659989146
 21
59.07680791245512
 31
0.0
  0
LINE
  5
68CE
330
2
100
AcDbEntity
  8
AM_0
100
AcDbLine
 10
139.1873687428329
 20
60.00095838430695
 30
0.0
 11
139.1281885403553
 21
59.87364042157307
 31
0.0
  0
LINE
  5
68CF
330
2
100
AcDbEntity
  8
AM_0
100
AcDbLine
 10
139.1281885403553
 20
59.87364042157307
 30
0.0
 11
138.8792652462889
 21
59.98934546921851
 31
0.0
  0
LINE
  5
68D0
330
2
100
AcDbEntity
  8
AM_0
100
AcDbLine
 10
139.1873687428329
 20
60.00095838430695
 30
0.0
 11
139.8977659989146
 21
59.07680791245512
 31
0.0
  0
ARC
  5
68D1
330
2
100
AcDbEntity
  8
AM_0
100
AcDbCircle
 10
138.8792652462889
 20
60.56537169779393
 30
0.0
 40
1.803653493917701
100
AcDbArc
 50
304.3806001207804
 51
314.9999999999992
  0
LINE
  5
68D2
330
2
100
AcDbEntity
  8
AM_0
100
AcDbLine
 10
139.1873687428329
 20
60.00095838430695
 30
0.0
 11
138.8792652462889
 21
60.14417169779392
 31
0.0
  0
ARC
  5
68D3
330
2
100
AcDbEntity
  8
AM_0
100
AcDbCircle
 10
138.8792652462889
 20
60.56537169779393
 30
0.0
 40
0.6430320000000035
100
AcDbArc
 50
298.6293652516087
 51
314.9999999999989
  0
ARC
  5
68D4
330
2
100
AcDbEntity
  8
AM_0
100
AcDbCircle
 10
138.8792652462889
 20
60.56537169779398
 30
0.0
 40
0.6430320000000035
100
AcDbArc
 50
45.00000000000102
 51
61.37063474839124
  0
LINE
  5
68D5
330
2
100
AcDbEntity
  8
AM_0
100
AcDbLine
 10
139.1873687428329
 20
61.12978501128094
 30
0.0
 11
138.8792652462889
 21
60.98657169779397
 31
0.0
  0
ARC
  5
68D6
330
2
100
AcDbEntity
  8
AM_0
100
AcDbCircle
 10
138.8792652462889
 20
60.56537169779398
 30
0.0
 40
1.803653493917701
100
AcDbArc
 50
45.00000000000071
 51
55.61939987921953
  0
LINE
  5
68D7
330
2
100
AcDbEntity
  8
AM_0
100
AcDbLine
 10
139.1873687428329
 20
61.12978501128094
 30
0.0
 11
139.8977659989146
 21
62.0539354831328
 31
0.0
  0
LINE
  5
68D8
330
2
100
AcDbEntity
  8
AM_0
100
AcDbLine
 10
139.1281885403553
 20
61.25710297401484
 30
0.0
 11
138.8792652462889
 21
61.1413979263694
 31
0.0
  0
LINE
  5
68D9
330
2
100
AcDbEntity
  8
AM_0
100
AcDbLine
 10
139.1873687428329
 20
61.12978501128094
 30
0.0
 11
139.1281885403553
 21
61.25710297401484
 31
0.0
  0
LINE
  5
68DA
330
2
100
AcDbEntity
  8
AM_0
100
AcDbLine
 10
139.1281885403553
 20
61.25710297401484
 30
0.0
 11
139.8977659989146
 21
62.0539354831328
 31
0.0
  0
LINE
  5
68DB
330
2
100
AcDbEntity
  8
AM_0
100
AcDbLine
 10
139.4436785597758
 20
60.87347519433804
 30
0.0
 11
140.3678290316276
 21
61.58387245041978
 31
0.0
  0
ARC
  5
68DC
330
2
100
AcDbEntity
  8
AM_0
100
AcDbCircle
 10
138.8792652462889
 20
60.56537169779398
 30
0.0
 40
1.803653493917701
100
AcDbArc
 50
34.38060012078263
 51
45.00000000000142
  0
ARC
  5
68DD
330
2
100
AcDbEntity
  8
AM_0
100
AcDbCircle
 10
138.8792652462889
 20
60.56537169779398
 30
0.0
 40
0.6430320000000035
100
AcDbArc
 50
28.62936525161089
 51
45.00000000000111
  0
LINE
  5
68DE
330
2
100
AcDbEntity
  8
AM_0
100
AcDbLine
 10
138.6303419522224
 20
61.25710297401484
 30
0.0
 11
138.8792652462889
 21
61.1413979263694
 31
0.0
  0
LINE
  5
6913
330
2
100
AcDbEntity
  8
AM_3
  6
AM_ISO02W050x2
 48
0.5
100
AcDbLine
 10
112.2045509497604
 20
73.89441007623557
 30
0.0
 11
139.2045509497604
 21
77.13441007623558
 31
0.0
  0
LINE
  5
6914
330
2
100
AcDbEntity
  8
AM_3
  6
AM_ISO02W050x2
 48
0.5
100
AcDbLine
 10
112.2045509497604
 20
69.57441007623557
 30
0.0
 11
139.2045509497604
 21
66.33441007623557
 31
0.0
  0
LINE
  5
6915
102
{ACAD_REACTORS
330
6683
102
}
330
2
100
AcDbEntity
  8
AM_0
100
AcDbLine
 10
177.6764223743267
 20
81.45441007623558
 30
0.0
 11
177.6764223743267
 21
84.33441007623557
 31
0.0
  0
LINE
  5
6916
102
{ACAD_REACTORS
330
6683
102
}
330
2
100
AcDbEntity
  8
AM_0
100
AcDbLine
 10
177.6764223743267
 20
84.33441007623557
 30
0.0
 11
179.1164223743266
 21
85.77441007623557
 31
0.0
  0
LINE
  5
6917
102
{ACAD_REACTORS
330
6683
102
}
330
2
100
AcDbEntity
  8
AM_0
100
AcDbLine
 10
179.1164223743266
 20
85.77441007623557
 30
0.0
 11
179.3324223743267
 21
85.77441007623557
 31
0.0
  0
LINE
  5
6918
102
{ACAD_REACTORS
330
6683
102
}
330
2
100
AcDbEntity
  8
AM_0
100
AcDbLine
 10
179.3324223743267
 20
85.77441007623557
 30
0.0
 11
179.3324223743267
 21
80.01441007623558
 31
0.0
  0
LINE
  5
6919
102
{ACAD_REACTORS
330
6683
102
}
330
2
100
AcDbEntity
  8
AM_0
100
AcDbLine
 10
179.3324223743267
 20
80.01441007623558
 30
0.0
 11
179.1164223743266
 21
80.01441007623558
 31
0.0
  0
LINE
  5
691A
102
{ACAD_REACTORS
330
6683
102
}
330
2
100
AcDbEntity
  8
AM_0
100
AcDbLine
 10
179.1164223743266
 20
80.01441007623558
 30
0.0
 11
177.6764223743267
 21
81.45441007623558
 31
0.0
  0
LINE
  5
691B
102
{ACAD_REACTORS
330
6683
102
}
330
2
100
AcDbEntity
  8
AM_0
100
AcDbLine
 10
177.6764223743267
 20
84.33441007623557
 30
0.0
 11
171.0015936143267
 21
84.33441007623557
 31
0.0
1001
ACAD
1000
ASC_BOUNDS
1002
{
1070
    19
1002
}
  0
LINE
  5
691C
102
{ACAD_REACTORS
330
6683
102
}
330
2
100
AcDbEntity
  8
AM_0
100
AcDbLine
 10
171.0015936143267
 20
84.33441007623557
 30
0.0
 11
170.6924223743267
 21
84.02523883623558
 31
0.0
  0
LINE
  5
691D
102
{ACAD_REACTORS
330
6683
102
}
330
2
100
AcDbEntity
  8
AM_0
100
AcDbLine
 10
170.6924223743267
 20
84.02523883623558
 30
0.0
 11
170.6924223743267
 21
81.76358131623558
 31
0.0
  0
LINE
  5
691E
102
{ACAD_REACTORS
330
6683
102
}
330
2
100
AcDbEntity
  8
AM_0
100
AcDbLine
 10
170.6924223743267
 20
81.76358131623558
 30
0.0
 11
171.0015936143267
 21
81.45441007623558
 31
0.0
  0
LINE
  5
691F
102
{ACAD_REACTORS
330
6683
102
}
330
2
100
AcDbEntity
  8
AM_0
100
AcDbLine
 10
171.0015936143267
 20
81.45441007623558
 30
0.0
 11
177.6764223743267
 21
81.45441007623558
 31
0.0
1001
ACAD
1000
ASC_BOUNDS
1002
{
1070
    19
1002
}
  0
LINE
  5
6920
102
{ACAD_REACTORS
330
6683
102
}
330
2
100
AcDbEntity
  8
AM_0
100
AcDbLine
 10
176.1644223743266
 20
81.45441007623558
 30
0.0
 11
176.1644223743266
 21
84.33441007623557
 31
0.0
  0
LINE
  5
6921
102
{ACAD_REACTORS
330
6683
102
}
330
2
100
AcDbEntity
  8
AM_0
100
AcDbLine
 10
171.0015936143267
 20
81.45441007623558
 30
0.0
 11
171.0015936143267
 21
84.33441007623557
 31
0.0
  0
LINE
  5
6922
102
{ACAD_REACTORS
330
6683
102
}
330
2
100
AcDbEntity
  8
AM_4
100
AcDbLine
 10
177.4244223743267
 20
84.33441007623557
 30
0.0
 11
176.1644223743266
 21
84.02523883623558
 31
0.0
  0
LINE
  5
6923
102
{ACAD_REACTORS
330
6683
102
}
330
2
100
AcDbEntity
  8
AM_4
100
AcDbLine
 10
176.1644223743266
 20
84.02523883623558
 30
0.0
 11
170.6924223743267
 21
84.02523883623558
 31
0.0
  0
LINE
  5
6924
102
{ACAD_REACTORS
330
6683
102
}
330
2
100
AcDbEntity
  8
AM_4
100
AcDbLine
 10
177.4244223743267
 20
81.45441007623558
 30
0.0
 11
176.1644223743266
 21
81.76358131623558
 31
0.0
  0
LINE
  5
6925
102
{ACAD_REACTORS
330
6683
102
}
330
2
100
AcDbEntity
  8
AM_4
100
AcDbLine
 10
176.1644223743266
 20
81.76358131623558
 30
0.0
 11
170.6924223743267
 21
81.76358131623558
 31
0.0
  0
LINE
  5
6926
102
{ACAD_REACTORS
330
6684
102
}
330
2
100
AcDbEntity
  8
AM_4
100
AcDbLine
 10
177.4244223743267
 20
59.13441007623558
 30
0.0
 11
176.1644223743266
 21
59.44358131623558
 31
0.0
  0
LINE
  5
6927
102
{ACAD_REACTORS
330
6684
102
}
330
2
100
AcDbEntity
  8
AM_4
100
AcDbLine
 10
177.4244223743267
 20
62.01441007623557
 30
0.0
 11
176.1644223743266
 21
61.70523883623556
 31
0.0
  0
LINE
  5
6928
102
{ACAD_REACTORS
330
6684
102
}
330
2
100
AcDbEntity
  8
AM_0
100
AcDbLine
 10
177.6764223743267
 20
59.13441007623558
 30
0.0
 11
171.0015936143267
 21
59.13441007623558
 31
0.0
1001
ACAD
1000
ASC_BOUNDS
1002
{
1070
    19
1002
}
  0
LINE
  5
6929
102
{ACAD_REACTORS
330
6684
102
}
330
2
100
AcDbEntity
  8
AM_0
100
AcDbLine
 10
171.0015936143267
 20
62.01441007623557
 30
0.0
 11
177.6764223743267
 21
62.01441007623557
 31
0.0
1001
ACAD
1000
ASC_BOUNDS
1002
{
1070
    19
1002
}
  0
LINE
  5
692A
102
{ACAD_REACTORS
330
6684
102
}
330
2
100
AcDbEntity
  8
AM_4
100
AcDbLine
 10
176.1644223743266
 20
61.70523883623556
 30
0.0
 11
170.6924223743267
 21
61.70523883623556
 31
0.0
  0
LINE
  5
692B
102
{ACAD_REACTORS
330
6684
102
}
330
2
100
AcDbEntity
  8
AM_4
100
AcDbLine
 10
176.1644223743266
 20
59.44358131623558
 30
0.0
 11
170.6924223743267
 21
59.44358131623558
 31
0.0
  0
LINE
  5
692C
102
{ACAD_REACTORS
330
6684
102
}
330
2
100
AcDbEntity
  8
AM_0
100
AcDbLine
 10
170.6924223743267
 20
59.44358131623558
 30
0.0
 11
170.6924223743267
 21
61.70523883623556
 31
0.0
  0
LINE
  5
692D
102
{ACAD_REACTORS
330
6684
102
}
330
2
100
AcDbEntity
  8
AM_0
100
AcDbLine
 10
171.0015936143267
 20
62.01441007623557
 30
0.0
 11
171.0015936143267
 21
59.13441007623558
 31
0.0
  0
LINE
  5
692E
102
{ACAD_REACTORS
330
6684
102
}
330
2
100
AcDbEntity
  8
AM_0
100
AcDbLine
 10
170.6924223743267
 20
61.70523883623556
 30
0.0
 11
171.0015936143267
 21
62.01441007623557
 31
0.0
  0
LINE
  5
692F
102
{ACAD_REACTORS
330
6684
102
}
330
2
100
AcDbEntity
  8
AM_0
100
AcDbLine
 10
171.0015936143267
 20
59.13441007623558
 30
0.0
 11
170.6924223743267
 21
59.44358131623558
 31
0.0
  0
LINE
  5
6930
102
{ACAD_REACTORS
330
6684
102
}
330
2
100
AcDbEntity
  8
AM_0
100
AcDbLine
 10
176.1644223743266
 20
62.01441007623557
 30
0.0
 11
176.1644223743266
 21
59.13441007623558
 31
0.0
  0
LINE
  5
6931
102
{ACAD_REACTORS
330
6684
102
}
330
2
100
AcDbEntity
  8
AM_0
100
AcDbLine
 10
179.3324223743267
 20
57.69441007623559
 30
0.0
 11
179.3324223743267
 21
63.45441007623557
 31
0.0
  0
LINE
  5
6932
102
{ACAD_REACTORS
330
6684
102
}
330
2
100
AcDbEntity
  8
AM_0
100
AcDbLine
 10
177.6764223743267
 20
62.01441007623557
 30
0.0
 11
177.6764223743267
 21
59.13441007623558
 31
0.0
  0
LINE
  5
6933
102
{ACAD_REACTORS
330
6684
102
}
330
2
100
AcDbEntity
  8
AM_0
100
AcDbLine
 10
179.1164223743266
 20
63.45441007623557
 30
0.0
 11
177.6764223743267
 21
62.01441007623557
 31
0.0
  0
LINE
  5
6934
102
{ACAD_REACTORS
330
6684
102
}
330
2
100
AcDbEntity
  8
AM_0
100
AcDbLine
 10
179.3324223743267
 20
63.45441007623557
 30
0.0
 11
179.1164223743266
 21
63.45441007623557
 31
0.0
  0
LINE
  5
6935
102
{ACAD_REACTORS
330
6684
102
}
330
2
100
AcDbEntity
  8
AM_0
100
AcDbLine
 10
177.6764223743267
 20
59.13441007623558
 30
0.0
 11
179.1164223743266
 21
57.69441007623559
 31
0.0
  0
LINE
  5
6936
102
{ACAD_REACTORS
330
6684
102
}
330
2
100
AcDbEntity
  8
AM_0
100
AcDbLine
 10
179.1164223743266
 20
57.69441007623559
 30
0.0
 11
179.3324223743267
 21
57.69441007623559
 31
0.0
  0
LINE
  5
6937
330
2
100
AcDbEntity
  8
AM_0
100
AcDbLine
 10
174.6164223743267
 20
81.45441007623558
 30
0.0
 11
174.6164223743267
 21
74.25441007623558
 31
0.0
1001
ACAD
1000
ASC_BOUNDS
1002
{
1070
    19
1002
}
  0
LINE
  5
6938
330
2
100
AcDbEntity
  8
AM_0
100
AcDbLine
 10
174.6164223743267
 20
62.01441007623557
 30
0.0
 11
174.6164223743267
 21
69.21441007623558
 31
0.0
1001
ACAD
1000
ASC_BOUNDS
1002
{
1070
    19
1002
}
  0
LINE
  5
693A
330
2
100
AcDbEntity
  8
AM_0
100
AcDbLine
 10
171.7364223743267
 20
84.33441007623557
 30
0.0
 11
171.7364223743267
 21
89.01441007623558
 31
0.0
1001
ACAD
1000
ASC_BOUNDS
1002
{
1070
    19
1005
6939
1005
6939
1005
6939
1005
6939
1002
}
  0
POLYLINE
  5
693B
330
2
100
AcDbEntity
  8
AM_0
100
AcDb2dPolyline
 66
     1
 10
0.0
 20
0.0
 30
0.0
 70
     1
 40
0.36
 41
0.36
  0
VERTEX
  5
693C
330
693B
100
AcDbEntity
  8
AM_0
100
AcDbVertex
100
AcDb2dVertex
 10
173.1764223743267
 20
54.45441007623557
 30
0.0
 40
0.0
 41
0.0
  0
VERTEX
  5
693D
330
693B
100
AcDbEntity
  8
AM_0
100
AcDbVertex
100
AcDb2dVertex
 10
171.7364223743267
 20
54.45441007623557
 30
0.0
 40
0.0
 41
0.0
  0
VERTEX
  5
693E
330
693B
100
AcDbEntity
  8
AM_0
100
AcDbVertex
100
AcDb2dVertex
 10
171.7364223743267
 20
59.13441007623558
 30
0.0
 40
0.0
 41
0.0
  0
VERTEX
  5
693F
330
693B
100
AcDbEntity
  8
AM_0
100
AcDbVertex
100
AcDb2dVertex
 10
173.1764223743267
 20
59.1344100762356
 30
0.0
 40
0.0
 41
0.0
  0
SEQEND
  5
6940
330
693B
100
AcDbEntity
  8
AM_0
  0
POLYLINE
  5
6941
330
2
100
AcDbEntity
  8
AM_0
100
AcDb2dPolyline
 66
     1
 10
0.0
 20
0.0
 30
0.0
 70
     1
 40
0.36
 41
0.36
  0
VERTEX
  5
6942
330
6941
100
AcDbEntity
  8
AM_0
100
AcDbVertex
100
AcDb2dVertex
 10
173.1764223743267
 20
62.01441007623557
 30
0.0
 40
0.0
 41
0.0
  0
VERTEX
  5
6943
330
6941
100
AcDbEntity
  8
AM_0
100
AcDbVertex
100
AcDb2dVertex
 10
171.7364223743267
 20
62.01441007623557
 30
0.0
 40
0.0
 41
0.0
  0
VERTEX
  5
6944
330
6941
100
AcDbEntity
  8
AM_0
100
AcDbVertex
100
AcDb2dVertex
 10
171.7364223743267
 20
69.39441007623559
 30
0.0
 40
0.0
 41
0.0
  0
VERTEX
  5
6945
330
6941
100
AcDbEntity
  8
AM_0
100
AcDbVertex
100
AcDb2dVertex
 10
173.1764223743267
 20
69.39441007623559
 30
0.0
 40
0.0
 41
0.0
  0
SEQEND
  5
6946
330
6941
100
AcDbEntity
  8
AM_0
  0
POLYLINE
  5
6947
330
2
100
AcDbEntity
  8
AM_0
100
AcDb2dPolyline
 66
     1
 10
0.0
 20
0.0
 30
0.0
 70
     1
 40
0.36
 41
0.36
  0
VERTEX
  5
6948
330
6947
100
AcDbEntity
  8
AM_0
100
AcDbVertex
100
AcDb2dVertex
 10
173.1764223743267
 20
74.07441007623558
 30
0.0
 40
0.0
 41
0.0
  0
VERTEX
  5
6949
330
6947
100
AcDbEntity
  8
AM_0
100
AcDbVertex
100
AcDb2dVertex
 10
171.7364223743267
 20
74.07441007623555
 30
0.0
 40
0.0
 41
0.0
  0
VERTEX
  5
694A
330
6947
100
AcDbEntity
  8
AM_0
100
AcDbVertex
100
AcDb2dVertex
 10
171.7364223743266
 20
81.45441007623558
 30
0.0
 40
0.0
 41
0.0
  0
VERTEX
  5
694B
330
6947
100
AcDbEntity
  8
AM_0
100
AcDbVertex
100
AcDb2dVertex
 10
173.1764223743267
 20
81.45441007623558
 30
0.0
 40
0.0
 41
0.0
  0
SEQEND
  5
694C
330
6947
100
AcDbEntity
  8
AM_0
  0
LINE
  5
694D
330
2
100
AcDbEntity
  8
AM_0
100
AcDbLine
 10
173.1764223743267
 20
81.45441007623558
 30
0.0
 11
173.1764223743267
 21
62.01441007623557
 31
0.0
1001
ACAD
1000
ASC_BOUNDS
1002
{
1070
    19
1002
}
  0
LINE
  5
694E
330
2
100
AcDbEntity
  8
AM_0
100
AcDbLine
 10
171.7364223743267
 20
62.01441007623557
 30
0.0
 11
171.7364223743267
 21
69.64641007623557
 31
0.0
1001
ACAD
1000
ASC_BOUNDS
1002
{
1070
    19
1002
}
  0
LINE
  5
694F
330
2
100
AcDbEntity
  8
AM_0
100
AcDbLine
 10
173.1764223743267
 20
59.13441007623558
 30
0.0
 11
173.1764223743267
 21
54.45441007623557
 31
0.0
1001
ACAD
1000
ASC_BOUNDS
1002
{
1070
    19
1002
}
  0
LINE
  5
6950
330
2
100
AcDbEntity
  8
AM_0
100
AcDbLine
 10
171.7364223743267
 20
73.82241007623557
 30
0.0
 11
171.7364223743267
 21
81.45441007623558
 31
0.0
1001
ACAD
1000
ASC_BOUNDS
1002
{
1070
    19
1002
}
  0
LINE
  5
6951
330
2
100
AcDbEntity
  8
AM_7
  6
AM_ISO08W050x2
 48
0.5
100
AcDbLine
 10
173.1764223743267
 20
71.73441007623558
 30
0.0
 11
168.5632944470578
 21
71.73441007623558
 31
0.0
  0
LINE
  5
6952
330
2
100
AcDbEntity
  8
AM_0
100
AcDbLine
 10
173.1764223743267
 20
71.73441007623558
 30
0.0
 11
180.561769022707
 21
71.73441007623558
 31
0.0
  0
ARC
  5
6953
330
2
100
AcDbEntity
  8
AM_0
100
AcDbCircle
 10
176.8716771445509
 20
74.46328125733043
 30
0.0
 40
4.589500625584824
100
AcDbArc
 50
323.5165902898551
 51
357.3915305456473
  0
ARC
  5
6954
330
2
100
AcDbEntity
  8
AM_0
100
AcDbCircle
 10
176.8716771445509
 20
69.0055388951407
 30
0.0
 40
4.589500625584824
100
AcDbArc
 50
2.608469454352352
 51
36.48340971014459
  0
LINE
  5
6955
330
2
100
AcDbEntity
  8
AM_4
100
AcDbLine
 10
173.1764223743267
 20
71.73441007623558
 30
0.0
 11
181.4564223743267
 21
74.2544100762357
 31
0.0
  0
LINE
  5
6956
330
2
100
AcDbEntity
  8
AM_4
100
AcDbLine
 10
173.1764223743267
 20
71.73441007623558
 30
0.0
 11
181.4564223743267
 21
69.21441007623518
 31
0.0
  0
LINE
  5
6957
330
2
100
AcDbEntity
  8
AM_4
100
AcDbLine
 10
180.561769022707
 20
71.73441007623558
 30
0.0
 11
173.1764223743267
 21
69.21441007623558
 31
0.0
  0
LINE
  5
6958
330
2
100
AcDbEntity
  8
AM_4
100
AcDbLine
 10
180.561769022707
 20
71.73441007623558
 30
0.0
 11
173.1764223743267
 21
74.25441007623558
 31
0.0
  0
POLYLINE
  5
6959
330
2
100
AcDbEntity
  8
AM_0
100
AcDb2dPolyline
 66
     1
 10
0.0
 20
0.0
 30
0.0
 40
0.5760000000000002
 41
0.5760000000000002
  0
VERTEX
  5
695A
330
6959
100
AcDbEntity
  8
AM_0
100
AcDbVertex
100
AcDb2dVertex
 10
138.8537389472965
 20
96.49912917254738
 30
0.0
  0
VERTEX
  5
695B
330
6959
100
AcDbEntity
  8
AM_0
100
AcDbVertex
100
AcDb2dVertex
 10
138.8537389472965
 20
92.4671291725474
 30
0.0
  0
SEQEND
  5
695C
330
6959
100
AcDbEntity
  8
AM_0
  0
INSERT
  5
695D
330
2
100
AcDbEntity
  8
AM_0
100
AcDbBlockReference
  2
ASM_FREV
 10
138.5627810573699
 20
94.48454295072105
 30
0.0
 41
1.8144
 42
1.8144
 43
1.8144
 50
180.0
  0
TEXT
  5
695E
330
2
100
AcDbEntity
  8
AM_0
100
AcDbText
 10
133.6379810573701
 20
97.19444152658754
 30
0.0
 40
2.016
  1
A
  7
ISO
 72
     4
 11
134.2139810573701
 21
98.20244152658753
 31
0.0
100
AcDbText
  0
POLYLINE
  5
695F
330
2
100
AcDbEntity
  8
AM_0
100
AcDb2dPolyline
 66
     1
 10
0.0
 20
0.0
 30
0.0
 40
0.5760000000000002
 41
0.5760000000000002
  0
VERTEX
  5
6960
330
695F
100
AcDbEntity
  8
AM_0
100
AcDbVertex
100
AcDb2dVertex
 10
138.8308537898999
 20
46.12296693872653
 30
0.0
  0
VERTEX
  5
6961
330
695F
100
AcDbEntity
  8
AM_0
100
AcDbVertex
100
AcDb2dVertex
 10
138.8308537898999
 20
50.15496693872653
 30
0.0
  0
SEQEND
  5
6962
330
695F
100
AcDbEntity
  8
AM_0
  0
INSERT
  5
6963
330
2
100
AcDbEntity
  8
AM_0
100
AcDbBlockReference
  2
ASM_FREV
 10
138.5627810573699
 20
48.13070424918139
 30
0.0
 41
1.8144
 42
1.8144
 43
1.8144
 50
180.0
  0
TEXT
  5
6964
330
2
100
AcDbEntity
  8
AM_0
100
AcDbText
 10
133.6379810573701
 20
50.76349256099201
 30
0.0
 40
2.016
  1
A
  7
ISO
 72
     4
 11
134.2139810573701
 21
51.77149256099202
 31
0.0
100
AcDbText
  0
DIMENSION
  5
6965
330
2
100
AcDbEntity
  8
AM_5
100
AcDbDimension
  2
*D6
 10
174.6164223743267
 20
49.45441007623557
 30
0.0
 11
164.8636808654775
 21
49.45441007623557
 31
0.0
 70
   160
  1
4 MAX
 71
     5
 42
1.439999999999969
  3
GEN-ISO
100
AcDbAlignedDimension
 13
173.1764223743267
 23
54.45441007623557
 33
0.0
 14
174.6164223743267
 24
54.45441007623557
 34
0.0
100
AcDbRotatedDimension
1001
ACAD
1000
DSTYLE
1002
{
1002
}
1001
GENIUS_GENDTOL_13
1000

1000
h7
1000

1040
0.0
1000
4 MAX
  0
DIMENSION
  5
6966
330
2
100
AcDbEntity
  8
AM_5
100
AcDbDimension
  2
*D7
 10
181.6004223743267
 20
49.45441007623557
 30
0.0
 11
178.1084223743267
 21
51.05441007623557
 31
0.0
 70
    32
  1
9.7
 71
     5
 42
6.984000000000008
  3
GEN-ISO
100
AcDbAlignedDimension
 13
174.6164223743267
 23
54.45441007623557
 33
0.0
 14
181.6004223743267
 24
66.47841007623455
 34
0.0
100
AcDbRotatedDimension
1001
GENIUS_GENDTOL_13
1000

1000
h7
1000

1040
0.0
1000

  0
DIMENSION
  5
6967
330
2
100
AcDbEntity
  8
AM_5
100
AcDbDimension
  2
*D8
 10
111.4845509497603
 20
41.71815371341483
 30
0.0
 11
128.4045509497603
 21
43.31815371341483
 31
0.0
 70
    32
  1
47
 71
     5
 42
33.84000000000002
  3
GEN-ISO
100
AcDbAlignedDimension
 13
145.3245509497604
 23
60.93441007623558
 33
0.0
 14
111.4845509497603
 24
71.73441007623558
 34
0.0
100
AcDbRotatedDimension
1001
GENIUS_GENDTOL_13
1000

1000
h7
1000

1040
0.0
1000

  0
DIMENSION
  5
6968
330
2
100
AcDbEntity
  8
AM_5
100
AcDbDimension
  2
*D9
 10
150.3245509497604
 20
60.57441007623556
 30
0.0
 11
148.7245509497604
 21
57.5144100762356
 31
0.0
 70
    32
  1
8.5
 71
     5
 42
6.119999999999997
  3
GEN-ISO
100
AcDbAlignedDimension
 13
138.8445509497603
 23
54.45441007623557
 33
0.0
 14
145.3145432217805
 24
60.57441007623556
 34
0.0
 50
90.0
100
AcDbRotatedDimension
1001
ACAD
1000
DSTYLE
1002
{
1002
}
1001
GENIUS_GENDTOL_13
1000

1000
h7
1000

1040
0.0
1000

  0
DIMENSION
  5
6969
330
2
100
AcDbEntity
  8
AM_5
100
AcDbDimension
  2
*D10
 10
150.3245509497604
 20
82.89441007623556
 30
0.0
 11
148.7245509497603
 21
71.73441007623559
 31
0.0
 70
    32
  1
31
 71
     5
 42
22.32
  3
GEN-ISO
100
AcDbAlignedDimension
 13
145.3145432217805
 23
60.57441007623556
 33
0.0
 14
145.3145432217805
 24
82.89441007623556
 34
0.0
 50
90.0
100
AcDbRotatedDimension
1001
ACAD
1000
DSTYLE
1002
{
1002
}
1001
GENIUS_GENDTOL_13
1000

1000
h7
1000

1040
0.0
1000

  0
DIMENSION
  5
696A
330
2
100
AcDbEntity
  8
AM_5
100
AcDbDimension
  2
*D11
 10
150.3245509497604
 20
89.01441007623558
 30
0.0
 11
148.7245509497603
 21
85.95441007623559
 31
0.0
 70
    32
  1
8.5
 71
     5
 42
6.120000000000004
  3
GEN-ISO
100
AcDbAlignedDimension
 13
145.3145432217805
 23
82.89441007623556
 33
0.0
 14
139.5645509497604
 24
89.01441007623558
 34
0.0
 50
90.0
100
AcDbRotatedDimension
1001
ACAD
1000
DSTYLE
1002
{
1002
}
1001
GENIUS_GENDTOL_13
1000

1000
h7
1000

1040
0.0
1000

  0
DIMENSION
  5
696B
330
2
100
AcDbEntity
  8
AM_5
100
AcDbDimension
  2
*D12
 10
166.6924223743267
 20
81.45441007623558
 30
0.0
 11
166.6924223743267
 21
82.8944100762356
 31
0.0
 70
   160
  1
M4
 71
     5
 42
2.879999999999995
  3
GEN-ISO
100
AcDbAlignedDimension
 13
171.0015936143267
 23
84.33441007623557
 33
0.0
 14
171.0015936143267
 24
81.45441007623558
 34
0.0
 50
90.0
100
AcDbRotatedDimension
1001
GENIUS_GENDTOL_13
1000

1000
h7
1000

1040
0.0
1000
M4
  0
DIMENSION
  5
696C
330
2
100
AcDbEntity
  8
AM_5
100
AcDbDimension
  2
*D13
 10
166.6924223743267
 20
59.13441007623558
 30
0.0
 11
166.6924223743267
 21
60.57441007623561
 31
0.0
 70
   160
  1
M4
 71
     5
 42
2.879999999999995
  3
GEN-ISO
100
AcDbAlignedDimension
 13
171.0015936143267
 23
62.01441007623557
 33
0.0
 14
171.0015936143267
 24
59.13441007623558
 34
0.0
 50
90.0
100
AcDbRotatedDimension
1001
GENIUS_GENDTOL_13
1000

1000
h7
1000

1040
0.0
1000
M4
  0
DIMENSION
  5
696D
330
2
100
AcDbEntity
  8
AM_5
100
AcDbDimension
  2
*D14
 10
126.1028341045583
 20
62.47365255764075
 30
0.0
 11
129.0161140430469
 21
61.82311431894906
 31
0.0
 70
    33
  1
7
 71
     5
 42
5.040000000000077
  3
GEN-ISO
100
AcDbAlignedDimension
 13
138.885980375047
 23
68.12916247376875
 33
0.0
 14
135.3221621978668
 24
71.69298065094904
 34
0.0
1001
GENIUS_GENDTOL_13
1000

1000
h7
1000

1040
0.0
1000

  0
DIMENSION
  5
696E
330
2
100
AcDbEntity
  8
AM_5
100
AcDbDimension
  2
*D15
 10
126.3854777736406
 20
80.62966507517527
 30
0.0
 11
127.0360160123322
 21
83.54294501366386
 31
0.0
 70
    33
  1
7
 71
     5
 42
5.039999999999992
  3
GEN-ISO
100
AcDbAlignedDimension
 13
138.885980375047
 23
75.25679882812923
 33
0.0
 14
135.3221621978668
 24
71.69298065094904
 34
0.0
1001
GENIUS_GENDTOL_13
1000

1000
h7
1000

1040
0.0
1000

  0
INSERT
  5
696F
330
2
100
AcDbEntity
  8
AM_0
100
AcDbBlockReference
 66
     1
  2
ASM_SEAA
 10
164.9767667327142
 20
98.1794845972735
 30
0.0
 41
2.52
 42
2.52
 43
2.52
  0
ATTRIB
  5
6970
330
696F
100
AcDbEntity
  8
AM_0
  6
ByBlock
 62
     7
100
AcDbText
 10
174.4599667327142
 20
99.52908459727355
 30
0.0
 40
2.52
  1
A
  7
ISO
 72
     4
 11
175.1799667327142
 21
100.7890845972735
 31
0.0
100
AcDbAttribute
  2
A
 70
     0
  0
ATTRIB
  5
6971
330
696F
100
AcDbEntity
  8
AM_0
  6
ByBlock
 62
     7
100
AcDbText
 10
178.6151667327142
 20
99.52908459727355
 30
0.0
 40
2.52
  1
A
  7
ISO
 72
     4
 11
179.3351667327142
 21
100.7890845972735
 31
0.0
100
AcDbAttribute
  2
B
 70
     0
  0
SEQEND
  5
6972
330
696F
100
AcDbEntity
  8
AM_0
  0
DIMENSION
  5
6973
330
2
100
AcDbEntity
  8
AM_5
100
AcDbDimension
  2
*D16
 10
186.6004223743267
 20
67.05441007623455
 30
0.0
 11
185.0004223743266
 21
71.73441007623456
 31
0.0
 70
    32
  1
{%%c13}
 71
     5
 42
9.359999999999985
  3
GEN-ISO
100
AcDbAlignedDimension
 13
181.6004223743267
 23
76.41441007623453
 33
0.0
 14
181.6004223743267
 24
67.05441007623455
 34
0.0
 50
90.0
100
AcDbRotatedDimension
1001
GENIUS_GENDTOL_13
1000

1000
h7
1000

1040
0.0
1000
{%%c13}
  0
DIMENSION
  5
6994
330
2
100
AcDbEntity
  8
AM_5
100
AcDbDimension
  2
*D17
 10
173.1764223743267
 20
93.01441007623557
 30
0.0
 11
167.4036036033771
 21
93.01441007623557
 31
0.0
 70
   160
  1
2
 71
     5
 42
1.440000000000026
  3
GEN-ISO
100
AcDbAlignedDimension
 13
171.7364223743267
 23
89.01441007623558
 33
0.0
 14
173.1764223743267
 24
89.01441007623558
 34
0.0
100
AcDbRotatedDimension
1001
ACAD
1000
DSTYLE
1002
{
1070
    40
1040
1.0
1002
}
1001
GENIUS_GENDTOL_13
1000

1000
h7
1000

1040
0.0
1000

  0
INSERT
  5
6A3F
330
2
100
AcDbEntity
  8
AM_0
100
AcDbBlockReference
  2
LAYER-GENIUS
 10
0.0
 20
0.0
 30
0.0
  0
LINE
  5
6BE9
330
2
100
AcDbEntity
  8
AM_0
100
AcDbLine
 10
179.2964223743267
 20
80.01441007623558
 30
0.0
 11
179.2964223743267
 21
77.5664100762356
 31
0.0
1001
ACAD
1000
ASC_BOUNDS
1002
{
1070
    19
1002
}
  0
LINE
  5
6BEA
330
2
100
AcDbEntity
  8
AM_0
100
AcDbLine
 10
179.2964223743267
 20
63.45441007623556
 30
0.0
 11
179.2964223743267
 21
65.90241007623558
 31
0.0
1001
ACAD
1000
ASC_BOUNDS
1002
{
1070
    19
1002
}
  0
HATCH
  5
6C98
330
2
100
AcDbEntity
  8
AM_8
100
AcDbHatch
 10
0.0
 20
0.0
 30
0.0
210
0.0
220
0.0
230
1.0
  2
_U
 70
     0
 71
     0
 91
        1
 92
        1
 93
       11
 72
     1
 10
174.6164223743267
 20
88.43841007623558
 11
178.1444223743267
 21
88.43841007623558
 72
     2
 10
178.1444223743266
 20
87.86241007623557
 40
0.5760000000000082
 50
270.0
 51
360.0
 73
     0
 72
     1
 10
178.7204223743267
 20
87.86241007623557
 11
178.7204223743267
 21
86.43158410008936
 72
     2
 10
178.1444223743267
 20
86.43158410008936
 40
0.5760000000000082
 50
360.0
 51
404.9999999999985
 73
     0
 72
     1
 10
178.5517158802901
 20
86.02429059412591
 11
177.8564223743267
 21
85.32899708816248
 72
     1
 10
177.8564223743267
 20
85.32899708816248
 11
177.8564223743267
 21
84.51441007623557
 72
     1
 10
177.8564223743267
 20
84.51441007623557
 11
179.2964223743267
 21
85.95441007623557
 72
     1
 10
179.2964223743266
 20
85.95441007623561
 11
179.2964223743266
 21
87.86241007623559
 72
     2
 10
178.1444223743266
 20
87.86241007623557
 40
1.152000000000016
 50
0.0
 51
90.0
 73
     1
 72
     1
 10
178.1444223743266
 20
89.01441007623558
 11
174.6164223743266
 21
89.01441007623558
 72
     1
 10
174.6164223743267
 20
89.01441007623558
 11
174.6164223743267
 21
88.43841007623556
 97
        0
 75
     0
 76
     0
 52
135.0
 41
0.36
 77
     0
 78
     1
 53
135.0
 43
-71.31040735550789
 44
-20.56419344313616
 45
-0.2545584412271571
 46
-0.2545584412271571
 79
     0
 98
        1
 10
-71.31040735550789
 20
-20.56419344313616
1001
GENIUS_GENODEF_13
1002
{
1000
HIER
1070
     0
1002
}
1002
{
1000
MANEDIT
1070
     0
1002
}
1002
{
1000
NOSEL
1070
     0
1002
}
1002
{
1000
BEHIND
1070
     0
1002
}
1002
{
1000
REACTOR
1002
}
1001
GENIUS_GENOBJ-N-HTC_13
1002
{
1000
OWNER
1000
GEN
1002
}
1001
GENIUS_GENHATCH_13
1002
{
1000
DATA
1040
135.0
1042
1.944
1000
_U
1070
     0
1011
176.6781422509556
1021
88.86366569850336
1031
0.0
1002
}
1002
{
1000
UCS
1010
0.0
1020
0.0
1030
0.0
1010
1.0
1020
0.0
1030
0.0
1010
0.0
1020
1.0
1030
0.0
1002
}
  0
HATCH
  5
6CA7
330
2
100
AcDbEntity
  8
AM_8
100
AcDbHatch
 10
0.0
 20
0.0
 30
0.0
210
0.0
220
0.0
230
1.0
  2
_U
 70
     0
 71
     0
 91
        1
 92
        1
 93
       11
 72
     1
 10
181.6004223743267
 20
76.41441007623453
 11
181.6004223743267
 21
76.99041007623455
 72
     1
 10
181.6004223743267
 20
76.99041007623455
 11
179.8724223743266
 21
76.99041007623558
 72
     2
 10
179.8724223743267
 20
77.5664100762356
 40
0.5760000000000082
 50
90.0
 51
180.0
 73
     0
 72
     1
 10
179.2964223743266
 20
77.5664100762356
 11
179.2964223743266
 21
79.83441007623565
 72
     1
 10
179.2964223743266
 20
79.83441007623565
 11
177.8564223743266
 21
81.27441007623557
 72
     1
 10
177.8564223743267
 20
81.27441007623557
 11
177.8564223743267
 21
80.45982306430866
 72
     1
 10
177.8564223743267
 20
80.45982306430866
 11
178.5517158802901
 21
79.7645295583452
 72
     2
 10
178.1444223743267
 20
79.35723605238172
 40
0.57599999999997
 50
314.9999999999942
 51
359.9999999999959
 73
     0
 72
     1
 10
178.7204223743267
 20
79.35723605238178
 11
178.7204223743267
 21
77.56641007623557
 72
     2
 10
179.8724223743267
 20
77.5664100762356
 40
1.151999999999975
 50
180.0
 51
270.000000000002
 73
     1
 72
     1
 10
179.8724223743267
 20
76.41441007623559
 11
181.6004223743267
 21
76.41441007623453
 97
        0
 75
     0
 76
     0
 52
135.0
 41
0.36
 77
     0
 78
     1
 53
135.0
 43
-71.31040735550789
 44
-20.56419344313616
 45
-0.2545584412271571
 46
-0.2545584412271571
 79
     0
 98
        1
 10
-71.31040735550789
 20
-20.56419344313616
1001
GENIUS_GENODEF_13
1002
{
1000
HIER
1070
     0
1002
}
1002
{
1000
MANEDIT
1070
     0
1002
}
1002
{
1000
NOSEL
1070
     0
1002
}
1002
{
1000
BEHIND
1070
     0
1002
}
1002
{
1000
REACTOR
1002
}
1001
GENIUS_GENOBJ-N-HTC_13
1002
{
1000
OWNER
1000
GEN
1002
}
1001
GENIUS_GENHATCH_13
1002
{
1000
DATA
1040
135.0
1042
1.944
1000
_U
1070
     0
1011
179.2180113831762
1021
76.96958930622622
1031
0.0
1002
}
1002
{
1000
UCS
1010
0.0
1020
0.0
1030
0.0
1010
1.0
1020
0.0
1030
0.0
1010
0.0
1020
1.0
1030
0.0
1002
}
  0
HATCH
  5
6CB6
330
2
100
AcDbEntity
  8
AM_8
100
AcDbHatch
 10
0.0
 20
0.0
 30
0.0
210
0.0
220
0.0
230
1.0
  2
_U
 70
     0
 71
     0
 91
        1
 92
        1
 93
       11
 72
     1
 10
181.6004223743267
 20
66.47841007623455
 11
181.6004223743267
 21
67.05441007623456
 72
     1
 10
181.6004223743267
 20
67.05441007623456
 11
179.8724223743267
 21
67.05441007623559
 72
     2
 10
179.8724223743267
 20
65.90241007623557
 40
1.152000000000006
 50
89.99999999999797
 51
179.9999999999994
 73
     1
 72
     1
 10
178.7204223743267
 20
65.90241007623558
 11
178.7204223743267
 21
64.11158410008939
 72
     2
 10
178.1444223743267
 20
64.11158410008939
 40
0.5760000000000082
 50
360.0
 51
404.9999999999978
 73
     0
 72
     1
 10
178.5517158802901
 20
63.70429059412595
 11
177.8564223743267
 21
63.00899708816249
 72
     1
 10
177.8564223743267
 20
63.00899708816249
 11
177.8564223743267
 21
62.19441007623558
 72
     1
 10
177.8564223743267
 20
62.19441007623558
 11
179.2964223743267
 21
63.63441007623556
 72
     1
 10
179.2964223743266
 20
63.63441007623555
 11
179.2964223743266
 21
65.90241007623558
 72
     2
 10
179.8724223743267
 20
65.90241007623558
 40
0.5760000000000082
 50
180.0
 51
270.0
 73
     0
 72
     1
 10
179.8724223743267
 20
66.47841007623558
 11
181.6004223743267
 21
66.47841007623454
 97
        0
 75
     0
 76
     0
 52
135.0
 41
0.36
 77
     0
 78
     1
 53
135.0
 43
-71.31040735550789
 44
-20.56419344313616
 45
-0.2545584412271571
 46
-0.2545584412271571
 79
     0
 98
        1
 10
-71.31040735550789
 20
-20.56419344313616
1001
GENIUS_GENODEF_13
1002
{
1000
HIER
1070
     0
1002
}
1002
{
1000
MANEDIT
1070
     0
1002
}
1002
{
1000
NOSEL
1070
     0
1002
}
1002
{
1000
BEHIND
1070
     0
1002
}
1002
{
1000
REACTOR
1002
}
1001
GENIUS_GENOBJ-N-HTC_13
1002
{
1000
OWNER
1000
GEN
1002
}
1001
GENIUS_GENHATCH_13
1002
{
1000
DATA
1040
135.0
1042
1.944
1000
_U
1070
     0
1011
179.0832548635957
1021
65.92136734548143
1031
0.0
1002
}
1002
{
1000
UCS
1010
0.0
1020
0.0
1030
0.0
1010
1.0
1020
0.0
1030
0.0
1010
0.0
1020
1.0
1030
0.0
1002
}
  0
HATCH
  5
6CC5
330
2
100
AcDbEntity
  8
AM_8
100
AcDbHatch
 10
0.0
 20
0.0
 30
0.0
210
0.0
220
0.0
230
1.0
  2
_U
 70
     0
 71
     0
 91
        1
 92
        1
 93
       11
 72
     1
 10
177.8564223743267
 20
58.95441007623559
 11
177.8564223743267
 21
58.13982306430869
 72
     1
 10
177.8564223743267
 20
58.13982306430869
 11
178.5517158802901
 21
57.44452955834524
 72
     2
 10
178.1444223743267
 20
57.03723605238173
 40
0.5759999999999773
 50
314.9999999999935
 51
359.9999999999969
 73
     0
 72
     1
 10
178.7204223743267
 20
57.03723605238178
 11
178.7204223743267
 21
55.60641007623559
 72
     2
 10
178.1444223743266
 20
55.60641007623556
 40
0.5760000000000082
 50
360.0
 51
450.0
 73
     0
 72
     1
 10
178.1444223743266
 20
55.03041007623558
 11
174.6164223743266
 21
55.0304100762356
 72
     1
 10
174.6164223743267
 20
55.03041007623558
 11
174.6164223743267
 21
54.45441007623557
 72
     1
 10
174.6164223743267
 20
54.45441007623559
 11
178.1444223743267
 21
54.45441007623559
 72
     2
 10
178.1444223743266
 20
55.60641007623559
 40
1.152000000000006
 50
270.0
 51
359.9999999999994
 73
     1
 72
     1
 10
179.2964223743266
 20
55.60641007623556
 11
179.2964223743266
 21
57.51441007623559
 72
     1
 10
179.2964223743266
 20
57.51441007623559
 11
177.8564223743266
 21
58.95441007623557
 97
        0
 75
     0
 76
     0
 52
135.0
 41
0.36
 77
     0
 78
     1
 53
135.0
 43
-71.31040735550789
 44
-20.56419344313616
 45
-0.2545584412271571
 46
-0.2545584412271571
 79
     0
 98
        1
 10
-71.31040735550789
 20
-20.56419344313616
1001
GENIUS_GENODEF_13
1002
{
1000
HIER
1070
     0
1002
}
1002
{
1000
MANEDIT
1070
     0
1002
}
1002
{
1000
NOSEL
1070
     0
1002
}
1002
{
1000
BEHIND
1070
     0
1002
}
1002
{
1000
REACTOR
1002
}
1001
GENIUS_GENOBJ-N-HTC_13
1002
{
1000
OWNER
1000
GEN
1002
}
1001
GENIUS_GENHATCH_13
1002
{
1000
DATA
1040
135.0
1042
1.944
1000
_U
1070
     0
1011
179.1413240243163
1021
56.57495069376398
1031
0.0
1002
}
1002
{
1000
UCS
1010
0.0
1020
0.0
1030
0.0
1010
1.0
1020
0.0
1030
0.0
1010
0.0
1020
1.0
1030
0.0
1002
}
  0
HATCH
  5
6CCE
330
2
100
AcDbEntity
  8
AM_8
100
AcDbHatch
 10
0.0
 20
0.0
 30
0.0
210
0.0
220
0.0
230
1.0
  2
_U
 70
     0
 71
     0
 91
        1
 92
        1
 93
        4
 72
     1
 10
173.1764223743266
 20
54.45441007623559
 11
173.1764223743266
 21
59.1344100762356
 72
     1
 10
173.1764223743266
 20
59.13441007623558
 11
171.7364223743266
 21
59.13441007623558
 72
     1
 10
171.7364223743267
 20
59.13441007623558
 11
171.7364223743267
 21
54.45441007623557
 72
     1
 10
171.7364223743267
 20
54.45441007623559
 11
173.1764223743267
 21
54.45441007623559
 97
        0
 75
     0
 76
     0
 52
45.0
 41
0.36
 77
     0
 78
     1
 53
45.0
 43
-71.31040735550789
 44
-20.56419344313616
 45
-0.2545584412271571
 46
0.2545584412271571
 79
     0
 98
        1
 10
-71.31040735550789
 20
-20.56419344313616
1001
GENIUS_GENODEF_13
1002
{
1000
HIER
1070
     0
1002
}
1002
{
1000
MANEDIT
1070
     0
1002
}
1002
{
1000
NOSEL
1070
     0
1002
}
1002
{
1000
BEHIND
1070
     0
1002
}
1002
{
1000
REACTOR
1002
}
1001
GENIUS_GENOBJ-N-HTC_13
1002
{
1000
OWNER
1000
GEN
1002
}
1001
GENIUS_GENHATCH_13
1002
{
1000
DATA
1040
45.0
1042
1.8
1000
_U
1070
     0
1011
172.3943389574853
1021
57.93130449596006
1031
0.0
1002
}
1002
{
1000
UCS
1010
0.0
1020
0.0
1030
0.0
1010
1.0
1020
0.0
1030
0.0
1010
0.0
1020
1.0
1030
0.0
1002
}
  0
HATCH
  5
6CD6
330
2
100
AcDbEntity
  8
AM_8
100
AcDbHatch
 10
0.0
 20
0.0
 30
0.0
210
0.0
220
0.0
230
1.0
  2
_U
 70
     0
 71
     0
 91
        1
 92
        1
 93
        4
 72
     1
 10
173.1764223743266
 20
62.01441007623556
 11
173.1764223743266
 21
69.39441007623556
 72
     1
 10
173.1764223743266
 20
69.39441007623559
 11
171.7364223743266
 21
69.39441007623559
 72
     1
 10
171.7364223743267
 20
69.39441007623559
 11
171.7364223743267
 21
62.01441007623559
 72
     1
 10
171.7364223743267
 20
62.01441007623556
 11
173.1764223743267
 21
62.01441007623556
 97
        0
 75
     0
 76
     0
 52
45.0
 41
0.36
 77
     0
 78
     1
 53
45.0
 43
-71.31040735550789
 44
-20.56419344313616
 45
-0.2545584412271571
 46
0.2545584412271571
 79
     0
 98
        1
 10
-71.31040735550789
 20
-20.56419344313616
1001
GENIUS_GENODEF_13
1002
{
1000
HIER
1070
     0
1002
}
1002
{
1000
MANEDIT
1070
     0
1002
}
1002
{
1000
NOSEL
1070
     0
1002
}
1002
{
1000
BEHIND
1070
     0
1002
}
1002
{
1000
REACTOR
1002
}
1001
GENIUS_GENOBJ-N-HTC_13
1002
{
1000
OWNER
1000
GEN
1002
}
1001
GENIUS_GENHATCH_13
1002
{
1000
DATA
1040
45.0
1042
1.8
1000
_U
1070
     0
1011
172.3943389574853
1021
63.20170754289543
1031
0.0
1002
}
1002
{
1000
UCS
1010
0.0
1020
0.0
1030
0.0
1010
1.0
1020
0.0
1030
0.0
1010
0.0
1020
1.0
1030
0.0
1002
}
  0
HATCH
  5
6CDE
330
2
100
AcDbEntity
  8
AM_8
100
AcDbHatch
 10
0.0
 20
0.0
 30
0.0
210
0.0
220
0.0
230
1.0
  2
_U
 70
     0
 71
     0
 91
        1
 92
        1
 93
        4
 72
     1
 10
171.7364223743266
 20
81.45441007623558
 11
171.7364223743266
 21
74.07441007623555
 72
     1
 10
171.7364223743267
 20
74.07441007623555
 11
173.1764223743267
 21
74.07441007623558
 72
     1
 10
173.1764223743266
 20
74.07441007623558
 11
173.1764223743266
 21
81.4544100762356
 72
     1
 10
173.1764223743266
 20
81.45441007623558
 11
171.7364223743266
 21
81.45441007623555
 97
        0
 75
     0
 76
     0
 52
45.0
 41
0.36
 77
     0
 78
     1
 53
45.0
 43
-71.31040735550789
 44
-20.56419344313616
 45
-0.2545584412271571
 46
0.2545584412271571
 79
     0
 98
        1
 10
-71.31040735550789
 20
-20.56419344313616
1001
GENIUS_GENODEF_13
1002
{
1000
HIER
1070
     0
1002
}
1002
{
1000
MANEDIT
1070
     0
1002
}
1002
{
1000
NOSEL
1070
     0
1002
}
1002
{
1000
BEHIND
1070
     0
1002
}
1002
{
1000
REACTOR
1002
}
1001
GENIUS_GENOBJ-N-HTC_13
1002
{
1000
OWNER
1000
GEN
1002
}
1001
GENIUS_GENHATCH_13
1002
{
1000
DATA
1040
45.0
1042
1.8
1000
_U
1070
     0
1011
172.5306475936225
1021
79.12668766697857
1031
0.0
1002
}
1002
{
1000
UCS
1010
0.0
1020
0.0
1030
0.0
1010
1.0
1020
0.0
1030
0.0
1010
0.0
1020
1.0
1030
0.0
1002
}
  0
HATCH
  5
6CE6
330
2
100
AcDbEntity
  8
AM_8
100
AcDbHatch
 10
0.0
 20
0.0
 30
0.0
210
0.0
220
0.0
230
1.0
  2
_U
 70
     0
 71
     0
 91
        1
 92
        1
 93
        4
 72
     1
 10
173.1764223743266
 20
84.33441007623557
 11
173.1764223743266
 21
89.01441007623558
 72
     1
 10
173.1764223743266
 20
89.01441007623558
 11
171.7364223743266
 21
89.01441007623558
 72
     1
 10
171.7364223743267
 20
89.01441007623558
 11
171.7364223743267
 21
84.33441007623557
 72
     1
 10
171.7364223743267
 20
84.33441007623557
 11
173.1764223743267
 21
84.33441007623557
 97
        0
 75
     0
 76
     0
 52
45.0
 41
0.36
 77
     0
 78
     1
 53
45.0
 43
-71.31040735550789
 44
-20.56419344313616
 45
-0.2545584412271571
 46
0.2545584412271571
 79
     0
 98
        1
 10
-71.31040735550789
 20
-20.56419344313616
1001
GENIUS_GENODEF_13
1002
{
1000
HIER
1070
     0
1002
}
1002
{
1000
MANEDIT
1070
     0
1002
}
1002
{
1000
NOSEL
1070
     0
1002
}
1002
{
1000
BEHIND
1070
     0
1002
}
1002
{
1000
REACTOR
1002
}
1001
GENIUS_GENOBJ-N-HTC_13
1002
{
1000
OWNER
1000
GEN
1002
}
1001
GENIUS_GENHATCH_13
1002
{
1000
DATA
1040
45.0
1042
1.8
1000
_U
1070
     0
1011
172.403688459589
1021
85.47090734083928
1031
0.0
1002
}
1002
{
1000
UCS
1010
0.0
1020
0.0
1030
0.0
1010
1.0
1020
0.0
1030
0.0
1010
0.0
1020
1.0
1030
0.0
1002
}
  0
DIMENSION
  5
6CF9
330
2
100
AcDbEntity
  8
AM_5
100
AcDbDimension
  2
*D18
 10
164.1364223743267
 20
66.33441007623557
 30
0.0
 11
162.5364223743266
 21
71.7344100762356
 31
0.0
 70
    32
  1
15
 71
     5
 42
10.80000000000001
  3
GEN-ISO
100
AcDbAlignedDimension
 13
168.1364223743267
 23
77.13441007623558
 33
0.0
 14
168.1364223743267
 24
66.33441007623557
 34
0.0
 50
90.0
100
AcDbRotatedDimension
1001
ACAD
1000
DSTYLE
1002
{
1070
    40
1040
1.0
1002
}
1001
GENIUS_GENDTOL_13
1000

1000
h7
1000

1040
0.0
1000

  0
INSERT
  5
7214
330
2
100
AcDbEntity
  8
AM_0
100
AcDbBlockReference
  2
COMUNELLO
 10
0.0
 20
0.0
 30
0.0
  0
ENDSEC
  0
SECTION
  2
OBJECTS
  0
DICTIONARY
  5
1A
330
0
100
AcDbDictionary
281
     1
  3
ACAD_GROUP
350
18
  3
ACAD_LAYOUT
350
713A
  3
ACAD_MLINESTYLE
350
19
  3
ACAD_PLOTSETTINGS
350
713B
  3
ACAD_PLOTSTYLENAME
350
7138
  3
AcDbVariableDictionary
350
72B5
  3
AcmDictionary
350
716F
  3
AMG
350
7148
  3
AMGSNAPSETTINGS
350
71A7
  3
DWGPROPS
350
72F8
  0
DICTIONARY
  5
72A6
330
2
100
AcDbDictionary
280
     1
281
     1
  3
ACAD_INDEX
360
72A7
  0
DICTIONARY
  5
18
102
{ACAD_REACTORS
330
1A
102
}
330
1A
100
AcDbDictionary
281
     1
  3
*A1
350
6683
  3
*A2
350
6684
  0
DICTIONARY
  5
713A
102
{ACAD_REACTORS
330
1A
102
}
330
1A
100
AcDbDictionary
281
     1
  3
Layout1
350
713D
  3
Model
350
713C
  0
DICTIONARY
  5
19
102
{ACAD_REACTORS
330
1A
102
}
330
1A
100
AcDbDictionary
281
     1
  3
STANDARD
350
1C
  0
DICTIONARY
  5
713B
102
{ACAD_REACTORS
330
1A
102
}
330
1A
100
AcDbDictionary
281
     1
  0
ACDBDICTIONARYWDFLT
  5
7138
102
{ACAD_REACTORS
330
1A
102
}
330
1A
100
AcDbDictionary
281
     1
  3
Normal
350
7139
100
AcDbDictionaryWithDefault
340
7139
  0
DICTIONARY
  5
72B5
102
{ACAD_REACTORS
330
1A
102
}
330
1A
100
AcDbDictionary
281
     1
  3
DIMASSOC
350
72B7
  3
INDEXCTL
350
72B6
  0
DICTIONARY
  5
716F
102
{ACAD_REACTORS
330
1A
102
}
330
1A
100
AcDbDictionary
281
     1
  3
AcmBOMDATA
350
7170
  3
AcmStdDictionary
350
7174
  0
DICTIONARY
  5
7148
102
{ACAD_REACTORS
330
1A
102
}
330
1A
100
AcDbDictionary
281
     1
  3
AcMgSettings
350
7149
  3
AMGLAYCFG
350
7151
  0
DICTIONARY
  5
71A7
102
{ACAD_REACTORS
330
1A
102
}
330
1A
100
AcDbDictionary
281
     1
  3
DIMENSION
350
71E8
  3
FEA
350
71E9
  3
HATCH (1)
350
71EA
  3
HATCH (2)
350
71EB
  3
SIMPLE WELD
350
71EC
  3
SYMBOLS
350
71ED
  0
XRECORD
  5
72F8
102
{ACAD_REACTORS
330
1A
102
}
330
1A
100
AcDbXrecord
280
     1
  1
DWGPROPS COOKIE
  2

  3

  4

  6

  7

  8

  9

300
AmdtFileType=84
301
=
302
=
303
=
304
=
305
=
306
=
307
=
308
=
309
=
 40
1.291744664351851
 41
2450457.818759722
 42
2452886.426774884
  1

 90
        1
  0
DICTIONARY
  5
72A7
102
{ACAD_REACTORS
330
72A6
102
}
330
72A6
100
AcDbDictionary
281
     1
  3
*A1
350
72A8
  0
GROUP
  5
6683
102
{ACAD_REACTORS
330
18
102
}
330
18
100
AcDbGroup
300

 70
     3
 71
     1
340
6915
340
6916
340
6917
340
6918
340
6919
340
691A
340
691B
340
691C
340
691D
340
691E
340
691F
340
6920
340
6921
340
6922
340
6923
340
6924
340
6925
  0
GROUP
  5
6684
102
{ACAD_REACTORS
330
18
102
}
330
18
100
AcDbGroup
300

 70
     3
 71
     1
340
6932
340
6935
340
6936
340
6931
340
6934
340
6933
340
6928
340
692F
340
692C
340
692E
340
6929
340
6930
340
692D
340
6926
340
692B
340
6927
340
692A
  0
LAYOUT
  5
713D
102
{ACAD_REACTORS
330
713A
102
}
330
713A
100
AcDbPlotSettings
  1

  2
\\NF5000\HP LaserJet 5000 PCL 6
  4

  6

 40
0.0
 41
0.0
 42
0.0
 43
0.0
 44
0.0
 45
0.0
 46
0.0
 47
0.0
 48
0.0
 49
0.0
140
0.0
141
0.0
142
1.0
143
1.0
 70
   688
 72
     0
 73
     0
 74
     5
  7
monochrome.ctb
 75
    16
147
1.0
148
0.0
149
0.0
100
AcDbLayout
  1
Layout1
 70
     1
 71
     1
 10
0.0
 20
0.0
 11
12.0
 21
9.0
 12
0.0
 22
0.0
 32
0.0
 14
1.000000000000000E+20
 24
1.000000000000000E+20
 34
1.000000000000000E+20
 15
-1.000000000000000E+20
 25
-1.000000000000000E+20
 35
-1.000000000000000E+20
146
0.0
 13
0.0
 23
0.0
 33
0.0
 16
1.0
 26
0.0
 36
0.0
 17
0.0
 27
1.0
 37
0.0
 76
     0
330
7
  0
LAYOUT
  5
713C
102
{ACAD_REACTORS
330
713A
102
}
330
713A
100
AcDbPlotSettings
  1

  2
\\NF5000\HP LaserJet 5000 PCL 6
  4

  6

 40
0.0
 41
0.0
 42
0.0
 43
0.0
 44
0.0
 45
0.0
 46
0.0
 47
0.0
 48
0.0
 49
0.0
140
0.0
141
0.0
142
1.0
143
1.0
 70
  1712
 72
     0
 73
     0
 74
     0
  7
monochrome.ctb
 75
     0
147
1.0
148
0.0
149
0.0
100
AcDbLayout
  1
Model
 70
     1
 71
     0
 10
0.0
 20
0.0
 11
12.0
 21
9.0
 12
0.0
 22
0.0
 32
0.0
 14
0.0
 24
0.0
 34
0.0
 15
0.0
 25
0.0
 35
0.0
146
0.0
 13
0.0
 23
0.0
 33
0.0
 16
1.0
 26
0.0
 36
0.0
 17
0.0
 27
1.0
 37
0.0
 76
     0
330
2
  0
MLINESTYLE
  5
1C
102
{ACAD_REACTORS
330
19
102
}
330
19
100
AcDbMlineStyle
  2
STANDARD
 70
     0
  3

 62
     0
 51
90.0
 52
90.0
 71
     2
 49
0.5
 62
   256
  6
BYLAYER
 49
-0.5
 62
   256
  6
BYLAYER
  0
ACDBPLACEHOLDER
  5
7139
102
{ACAD_REACTORS
330
7138
102
}
330
7138
  0
DICTIONARYVAR
  5
72B7
102
{ACAD_REACTORS
330
72B5
102
}
330
72B5
100
DictionaryVariables
280
     0
  1
1
  0
DICTIONARYVAR
  5
72B6
102
{ACAD_REACTORS
330
72B5
102
}
330
72B5
100
DictionaryVariables
280
     0
  1
1
  0
ACMDATADICTIONARY
  5
7170
102
{ACAD_REACTORS
330
716F
102
}
330
716F
100
AcDbDictionary
281
     1
  3
*A1
350
7171
  3
*A2
350
72F5
  3
*A3
350
7372
100
AcmDataDictionary
  0
DICTIONARY
  5
7174
102
{ACAD_REACTORS
330
716F
102
}
330
716F
100
AcDbDictionary
281
     1
  3
ISO
350
7175
  0
DICTIONARY
  5
7149
102
{ACAD_REACTORS
330
7148
102
}
330
7148
100
AcDbDictionary
281
     1
  3
DWGSETTINGS
350
7150
  3
FEM
350
71B0
  3
Shaft
350
71AF
  3
TRANSSETTINGS
350
715B
  0
ACAMGFILTERDAT
  5
71E8
102
{ACAD_REACTORS
330
71A7
102
}
330
71A7
100
AcAmgFilterDat
 70
    15
  1
DIMENSION,AMDT_*_DIM
  2
*
  3
*
  4
*
  5
*
290
     1
  0
ACAMGFILTERDAT
  5
71E9
102
{ACAD_REACTORS
330
71A7
102
}
330
71A7
100
AcAmgFilterDat
 70
    15
  1
*
  2
AM_FEA-AM_*
  3
*
  4
*
  5
*
290
     1
  0
ACAMGFILTERDAT
  5
71EA
102
{ACAD_REACTORS
330
71A7
102
}
330
71A7
100
AcAmgFilterDat
 70
    15
  1
HATCH
  2
*
  3
*
  4
*
  5
*
290
     1
  0
ACAMGFILTERDAT
  5
71EB
102
{ACAD_REACTORS
330
71A7
102
}
330
71A7
100
AcAmgFilterDat
 70
    15
  1
LINE
  2
8,8N,*-8,*-8N,AM_8,AM_8N,*-AM_8,*-AM_8N
  3
*
  4
*
  5
INSERT,STDPART2D
290
     1
  0
ACAMGFILTERDAT
  5
71EC
102
{ACAD_REACTORS
330
71A7
102
}
330
71A7
100
AcAmgFilterDat
 70
    15
  1
ARC
  2
AM_5
  3
*
  4
2
  5
INSERT
290
     0
  0
ACAMGFILTERDAT
  5
71ED
102
{ACAD_REACTORS
330
71A7
102
}
330
71A7
100
AcAmgFilterDat
 70
    15
  1
ACMFCFRAME,ACMDATUMTARGET,ACMDATUMID,ACMWELDSYM,ACMSURFSYM,ACMFEATID,ACMPARTREF,ACMBALLOON,AMDTEDGESYM,AMGSCREWCALCTABLE
  2
*
  3
*
  4
*
  5
*
290
     1
  0
LAYER_INDEX
  5
72A8
102
{ACAD_REACTORS
330
72A7
102
}
330
72A7
100
AcDbIndex
 40
2453095.469328506
100
AcDbLayerIndex
  8
0
360
72A9
 90
        1
  8
DEFPOINTS
360
72AA
 90
        0
  8
AM_0
360
72AB
 90
      272
  8
AM_2
360
72AC
 90
        4
  8
AM_5
360
72AD
 90
       25
  8
MATRICE-AM_0
360
72AE
 90
        2
  8
AM_3
360
72AF
 90
        9
  8
AM_7
360
72B0
 90
        8
  8
AM_4
360
72B1
 90
       12
  8
AM_8
360
72B2
 90
        8
  8
AM_BOR
360
72B3
 90
        0
  8
AM_6
360
74BF
 90
        0
  8
AM_CL
360
74C0
 90
        0
  0
ACMDATAENTRYBLOCK
  5
7171
102
{ACAD_REACTORS
330
7170
102
}
330
7170
100
AcmDataEntry
100
AcmDataEntryBlock
  0
ACMDATAENTRYBLOCK
  5
72F5
102
{ACAD_REACTORS
330
7170
102
}
330
7170
100
AcmDataEntry
100
AcmDataEntryBlock
  0
ACMDATAENTRYBLOCK
  5
7372
102
{ACAD_REACTORS
330
7170
102
}
330
7170
100
AcmDataEntry
100
AcmDataEntryBlock
  0
IDBUFFER
  5
72A9
330
0
100
AcDbIdBuffer
330
1EB
  0
IDBUFFER
  5
72AA
330
0
100
AcDbIdBuffer
  0
IDBUFFER
  5
72AB
330
0
100
AcDbIdBuffer
330
1E
330
1AA
330
1AB
330
1AC
330
1AD
330
1B0
330
1B1
330
1B2
330
1B3
330
1B5
330
1B6
330
1B7
330
1BC
330
1E5
330
1E6
330
1E7
330
1E9
330
1EA
330
1743
330
2222
330
29EF
330
29F0
330
5474
330
66D9
330
66DA
330
66DB
330
66DC
330
66DD
330
66DE
330
66DF
330
66E0
330
66E1
330
66E2
330
66E3
330
66FE
330
66FF
330
6700
330
6701
330
6702
330
6703
330
6709
330
670A
330
670B
330
670C
330
670D
330
670E
330
670F
330
6710
330
6711
330
6712
330
6713
330
6714
330
6715
330
6716
330
6717
330
6718
330
6719
330
671A
330
671B
330
671C
330
671D
330
671E
330
671F
330
6720
330
6721
330
6722
330
6723
330
6724
330
6725
330
6726
330
6727
330
6728
330
6729
330
672A
330
672B
330
672C
330
672D
330
672E
330
672F
330
6730
330
6731
330
6732
330
6733
330
6735
330
6754
330
6755
330
6756
330
6757
330
6760
330
6761
330
677C
330
677D
330
677E
330
677F
330
6780
330
6781
330
6782
330
6783
330
6784
330
6785
330
6786
330
6787
330
6788
330
678A
330
678B
330
678C
330
678D
330
678E
330
67AC
330
67AD
330
67AE
330
67AF
330
67B0
330
67B1
330
67B2
330
67B3
330
67B4
330
67B5
330
67B6
330
67B7
330
67B8
330
67B9
330
67BA
330
67BB
330
67BC
330
67BD
330
67BE
330
67BF
330
67C0
330
67C1
330
67C2
330
67C3
330
67C4
330
67C5
330
67C6
330
67C7
330
67C8
330
67C9
330
67CA
330
67CB
330
67CC
330
67CD
330
67CE
330
67CF
330
67D0
330
67D1
330
67D2
330
67D3
330
67D4
330
67D5
330
67D6
330
67D7
330
67D8
330
67D9
330
67DA
330
67DB
330
67DC
330
67DD
330
67DE
330
67DF
330
67E0
330
67E1
330
67E2
330
67E3
330
67E4
330
68A6
330
68A7
330
68A8
330
68A9
330
68AA
330
68AB
330
68AC
330
68AD
330
68AE
330
68AF
330
68B0
330
68B1
330
68B2
330
68B3
330
68B4
330
68B5
330
68B6
330
68B7
330
68B8
330
68B9
330
68BA
330
68BB
330
68BC
330
68BD
330
68BE
330
68BF
330
68C0
330
68C1
330
68C2
330
68C3
330
68C4
330
68C5
330
68C6
330
68C7
330
68C8
330
68C9
330
68CA
330
68CB
330
68CC
330
68CD
330
68CE
330
68CF
330
68D0
330
68D1
330
68D2
330
68D3
330
68D4
330
68D5
330
68D6
330
68D7
330
68D8
330
68D9
330
68DA
330
68DB
330
68DC
330
68DD
330
68DE
330
6915
330
6916
330
6917
330
6918
330
6919
330
691A
330
691B
330
691C
330
691D
330
691E
330
691F
330
6920
330
6921
330
6928
330
6929
330
692C
330
692D
330
692E
330
692F
330
6930
330
6931
330
6932
330
6933
330
6934
330
6935
330
6936
330
6937
330
6938
330
693A
330
693B
330
6941
330
6947
330
694D
330
694E
330
694F
330
6950
330
6952
330
6953
330
6954
330
6959
330
695D
330
695E
330
695F
330
6963
330
6964
330
696F
330
6A3F
330
6BE9
330
6BEA
330
7214
  0
IDBUFFER
  5
72AC
330
0
100
AcDbIdBuffer
330
87
330
89
330
8A
330
1A9
  0
IDBUFFER
  5
72AD
330
0
100
AcDbIdBuffer
330
1AE
330
1B8
330
1B9
330
1BB
330
1E3
330
1E4
330
2C24
330
2C25
330
2D77
330
5DCB
330
6707
330
6708
330
6965
330
6966
330
6967
330
6968
330
6969
330
696A
330
696B
330
696C
330
696D
330
696E
330
6973
330
6994
330
6CF9
  0
IDBUFFER
  5
72AE
330
0
100
AcDbIdBuffer
330
5DC9
330
5FA3
  0
IDBUFFER
  5
72AF
330
0
100
AcDbIdBuffer
330
66D8
330
6736
330
6737
330
6738
330
6739
330
6790
330
6791
330
6913
330
6914
  0
IDBUFFER
  5
72B0
330
0
100
AcDbIdBuffer
330
6704
330
6705
330
6706
330
6758
330
6759
330
6789
330
678F
330
6951
  0
IDBUFFER
  5
72B1
330
0
100
AcDbIdBuffer
330
6922
330
6923
330
6924
330
6925
330
6926
330
6927
330
692A
330
692B
330
6955
330
6956
330
6957
330
6958
  0
IDBUFFER
  5
72B2
330
0
100
AcDbIdBuffer
330
6C98
330
6CA7
330
6CB6
330
6CC5
330
6CCE
330
6CD6
330
6CDE
330
6CE6
  0
IDBUFFER
  5
72B3
330
0
100
AcDbIdBuffer
  0
IDBUFFER
  5
74BF
330
0
100
AcDbIdBuffer
  0
IDBUFFER
  5
74C0
330
0
100
AcDbIdBuffer
  0
ENDSEC
  0
EOF
