  0
SECTION
  2
HEADER
  9
$ACADVER
  1
AC1009
  9
$INSBASE
 10
0
 20
0
  9
$EXTMIN
 10
-27.775
 20
-33.425
  9
$EXTMAX
 10
133.1
 20
41.75
  9
$LIMMIN
 10
-27.775
 20
-33.425
  9
$LIMMAX
 10
133.1
 20
41.75
  9
$VIEWCTR
 10
10
 20
10
  9
$VIEWSIZE
 40
10
  9
$SNAPMODE
 70
0
  9
$SNAPUNIT
 10
1
 20
1
  9
$SNAPBASE
 10
0
 20
0
  9
$SNAPANG
 50
0
  9
$SNAPSTYLE
 70
0
  9
$SNAPISOPAIR
 70
0
  9
$GRIDMODE
 70
0
  9
$GRIDUNIT
 10
0
 20
0
  9
$ORTHOMODE
 70
0
  9
$REGENMODE
 70
1
  9
$FILLMODE
 70
1
  9
$QTEXTMODE
 70
0
  9
$DRAGMODE
 70
2
  9
$LTSCALE
 40
1
  9
$OSMODE
 70
0
  9
$ATTMODE
 70
1
  9
$TEXTSIZE
 40
3.5
  9
$TRACEWID
 40
0.5
  9
$TEXTSTYLE
  7
STANDARD
  9
$CLAYER
  8
0
  9
$CELTYPE
  6
BYLAYER
  9
$CECOLOR
 62
256
  9
$DIMSCALE
 40
1
  9
$DIMASZ
 40
0.18
  9
$DIMEXO
 40
0.0625
  9
$DIMDLI
 40
0.38
  9
$DIMRND
 40
0
  9
$DIMDLE
 40
0
  9
$DIMEXE
 40
0.18
  9
$DIMTP
 40
0
  9
$DIMTM
 40
0
  9
$DIMTXT
 40
0.18
  9
$DIMCEN
 40
0.09
  9
$DIMTSZ
 40
0
  9
$DIMTOL
 70
0
  9
$DIMLIM
 70
0
  9
$DIMTIH
 70
1
  9
$DIMTOH
 70
1
  9
$DIMSE1
 70
0
  9
$DIMSE2
 70
0
  9
$DIMTAD
 70
0
  9
$DIMZIN
 70
0
  9
$DIMBLK
  1

  9
$DIMASO
 70
1
  9
$DIMSHO
 70
1
  9
$DIMPOST
  1

  9
$DIMAPOST
  1

  9
$DIMALT
 70
0
  9
$DIMALTD
 70
2
  9
$DIMALTF
 40
25.4
  9
$DIMLFAC
 40
1
  9
$DIMTOFL
 70
0
  9
$DIMTVP
 40
0
  9
$DIMTIX
 70
0
  9
$DIMSOXD
 70
0
  9
$DIMSAH
 70
0
  9
$DIMBLK1
  1

  9
$DIMBLK2
  1

  9
$DIMSTYLE
  2
*UNNAMED
  9
$DIMCLRD
 70
0
  9
$DIMCLRE
 70
0
  9
$DIMCLRT
 70
0
  9
$DIMTFAC
 40
1
  9
$DIMGAP
 40
0.09
  9
$LUNITS
 70
2
  9
$LUPREC
 70
4
  9
$AXISMODE
 70
0
  9
$AXISUNIT
 10
0
 20
0
  9
$SKETCHINC
 40
0.1
  9
$FILLETRAD
 40
2
  9
$AUNITS
 70
0
  9
$AUPREC
 70
0
  9
$MENU
  1
ACAD
  9
$ELEVATION
 40
0
  9
$THICKNESS
 40
0
  9
$VIEWDIR
 10
0
 20
0
 30
1
  9
$LIMCHECK
 70
0
  9
$BLIPMODE
 70
1
  9
$CHAMFERA
 40
0
  9
$CHAMFERB
 40
0
  9
$FASTZOOM
 70
1
  9
$SKPOLY
 70
0
  9
$ANGBASE
 50
0
  9
$ANGDIR
 70
0
  9
$PDMODE
 70
0
  9
$PDSIZE
 40
0
  9
$PLINEWID
 40
0
  9
$COORDS
 70
2
  0
ENDSEC
  0
SECTION
  2
TABLES
  0
TABLE
  2
DIMSTYLE
 70
2
  0
DIMSTYLE
  2
DMST_1
 70
0
  3

  4

  5

  6

  7

 40
1
 41
2.45
 42
0
 43
7
 44
0.5
 45
0
 46
0
 47
0
 48
0
140
3.5
141
0
142
0
143
25.4
144
1
145
0
146
1
147
0.09
 71
0
 72
0
 73
0
 74
0
 75
0
 76
0
 77
1
 78
9
170
0
171
2
172
0
173
0
174
0
175
0
176
1
177
1
178
3
  0
DIMSTYLE
  2
DMST_2
 70
0
  3

  4

  5

  6

  7

 40
1
 41
2.45
 42
0
 43
7
 44
0.5
 45
0
 46
0
 47
0
 48
0
140
3.5
141
0
142
0
143
25.4
144
1
145
0
146
1
147
0.09
 71
0
 72
0
 73
0
 74
0
 75
0
 76
0
 77
1
 78
13
170
0
171
2
172
0
173
0
174
0
175
0
176
1
177
1
178
3
  0
ENDTAB
  0
TABLE
  2
LTYPE
 70
9
  0
LTYPE
  2
CONTINUOUS
 70
64
  3
Solid line
 72
65
 73
0
 40
0
  0
LTYPE
  2
BORDER
 70
64
  3
__ __ . __ __ .
 72
65
 73
6
 40
7.408717105263158
 49
2.116776315789474
 49
-1.058388157894737
 49
2.116776315789474
 49
-1.058388157894737
 49
0
 49
-1.058388157894737
  0
LTYPE
  2
CENTER
 70
64
  3
____ _ ____ _
 72
65
 73
4
 40
8.467105263157896
 49
5.291940789473685
 49
-1.058388157894737
 49
1.058388157894737
 49
-1.058388157894737
  0
LTYPE
  2
DASHDOT
 70
64
  3
__ . __ . __ .
 72
65
 73
4
 40
4.233552631578948
 49
2.116776315789474
 49
-1.058388157894737
 49
0
 49
-1.058388157894737
  0
LTYPE
  2
DASHED
 70
64
  3
__ __ __ __ __
 72
65
 73
2
 40
3.175164473684211
 49
2.116776315789474
 49
-1.058388157894737
  0
LTYPE
  2
DIVIDE
 70
64
  3
__ . . __ . . 
 72
65
 73
6
 40
5.291940789473685
 49
2.116776315789474
 49
-1.058388157894737
 49
0
 49
-1.058388157894737
 49
0
 49
-1.058388157894737
  0
LTYPE
  2
DOT
 70
64
  3
..............
 72
65
 73
4
 40
2.116776315789474
 49
0
 49
-1.058388157894737
 49
0
 49
-1.058388157894737
  0
LTYPE
  2
HIDDEN
 70
64
  3
_ _ _ _ _ _ _
 72
65
 73
2
 40
1.587582236842105
 49
1.058388157894737
 49
-0.5291940789473685
  0
LTYPE
  2
PHANTOM
 70
64
  3
_____ _ _ _____ _ _ 
 72
65
 73
6
 40
10.58388157894737
 49
5.291940789473685
 49
-1.058388157894737
 49
1.058388157894737
 49
-1.058388157894737
 49
1.058388157894737
 49
-1.058388157894737
  0
ENDTAB
  0
TABLE
  2
LAYER
 70
3
  0
LAYER
  2
1
 70
0
 62
7
  6
CONTINUOUS
  0
LAYER
  2
0
 70
0
 62
7
  6
CONTINUOUS
  0
ENDTAB
  0
TABLE
  2
STYLE
 70
4
  0
STYLE
  2
STANDARD
 70
0
 40
0
 41
1
 50
0
 71
0
 42
3.5
  3
txt
  4

  0
STYLE
  2
SIMPLEX
 70
0
 40
0
 41
1
 50
0
 71
0
 42
3.5
  3
simplex
  4

  0
STYLE
  2
COMPLEX
 70
0
 40
0
 41
1
 50
0
 71
0
 42
3.5
  3
complex
  4

  0
STYLE
  2
ITALIC
 70
0
 40
0
 41
1
 50
0
 71
0
 42
3.5
  3
italic
  4

  0
ENDTAB
  0
TABLE
  2
VIEW
 70
0
  0
ENDTAB
  0
ENDSEC
  0
SECTION
  2
BLOCKS
  0
BLOCK
  8
1
  2
*D0
 70
1
 10
0
 20
0
 30
0
  0
LINE
  8
1
 62
1
 10
21
 20
-32.925
 30
0
 11
83.45455762324323
 21
-32.925
 31
0
  0
LINE
  8
1
 62
1
 10
21
 20
-17.1
 30
0
 11
21
 21
-33.425
 31
0
  0
LINE
  8
1
 62
1
 10
83.45455762324323
 20
-2.400000000000009
 30
0
 11
83.45455762324323
 21
-33.425
 31
0
  0
LINE
  8
1
 62
1
 10
83.45455762324323
 20
-32.925
 30
0
 11
81.00455762324323
 21
-33.2435
 31
0
  0
LINE
  8
1
 62
1
 10
81.00455762324323
 20
-33.2435
 30
0
 11
81.00455762324323
 21
-32.6065
 31
0
  0
LINE
  8
1
 62
1
 10
81.00455762324323
 20
-32.6065
 30
0
 11
83.45455762324323
 21
-32.925
 31
0
  0
LINE
  8
1
 62
1
 10
21
 20
-32.925
 30
0
 11
23.45
 21
-32.6065
 31
0
  0
LINE
  8
1
 62
1
 10
23.45
 20
-32.6065
 30
0
 11
23.45
 21
-33.2435
 31
0
  0
LINE
  8
1
 62
1
 10
23.45
 20
-33.2435
 30
0
 11
21
 21
-32.925
 31
0
  0
TEXT
  8
1
 62
3
 10
47.41477881162162
 20
-31.575
 30
0
 40
3.5
  1
62,5
 41
0.9
  0
ENDBLK
  8
0
  0
BLOCK
  8
1
  2
*D1
 70
1
 10
0
 20
0
 30
0
  0
LINE
  8
1
 62
1
 10
-12.75
 20
8.300000000000001
 30
0
 11
-12.75
 21
3.4
 31
0
  0
LINE
  8
1
 62
1
 10
-12.75
 20
-3.4
 30
0
 11
-12.75
 21
3.4
 31
0
  0
LINE
  8
1
 62
1
 10
-12.75
 20
-3.4
 30
0
 11
-12.75
 21
-12.975
 31
0
  0
LINE
  8
1
 62
1
 10
3.400000000000009
 20
-3.4
 30
0
 11
-13.25
 21
-3.4
 31
0
  0
LINE
  8
1
 62
1
 10
3.400000000000009
 20
3.4
 30
0
 11
-13.25
 21
3.4
 31
0
  0
LINE
  8
1
 62
1
 10
-12.75
 20
3.4
 30
0
 11
-13.0685
 21
5.85
 31
0
  0
LINE
  8
1
 62
1
 10
-13.0685
 20
5.85
 30
0
 11
-12.4315
 21
5.85
 31
0
  0
LINE
  8
1
 62
1
 10
-12.4315
 20
5.85
 30
0
 11
-12.75
 21
3.4
 31
0
  0
LINE
  8
1
 62
1
 10
-12.75
 20
-3.4
 30
0
 11
-12.4315
 21
-5.85
 31
0
  0
LINE
  8
1
 62
1
 10
-12.4315
 20
-5.85
 30
0
 11
-13.0685
 21
-5.85
 31
0
  0
LINE
  8
1
 62
1
 10
-13.0685
 20
-5.85
 30
0
 11
-12.75
 21
-3.4
 31
0
  0
TEXT
  8
1
 62
3
 10
-13.75
 20
-9.125
 30
0
 40
3.5
  1
7
 50
90
 41
0.9
  0
TEXT
  8
1
 62
3
 10
-13.75
 20
-12.975
 30
0
 40
3.5
  1
Ö
 50
90
 41
0.9
  0
ENDBLK
  8
0
  0
BLOCK
  8
1
  2
*D2
 70
1
 10
0
 20
0
 30
0
  0
LINE
  8
1
 62
1
 10
-22.92499999999999
 20
-17.1
 30
0
 11
-22.92499999999999
 21
3.399999999999999
 31
0
  0
LINE
  8
1
 62
1
 10
6.499999999999996
 20
-17.1
 30
0
 11
-23.42499999999999
 21
-17.1
 31
0
  0
LINE
  8
1
 62
1
 10
3.400000000000009
 20
3.399999999999999
 30
0
 11
-23.42499999999999
 21
3.399999999999999
 31
0
  0
LINE
  8
1
 62
1
 10
-22.92499999999999
 20
3.399999999999999
 30
0
 11
-22.60649999999999
 21
0.9499999999999988
 31
0
  0
LINE
  8
1
 62
1
 10
-22.60649999999999
 20
0.9499999999999988
 30
0
 11
-23.24349999999999
 21
0.9499999999999988
 31
0
  0
LINE
  8
1
 62
1
 10
-23.24349999999999
 20
0.9499999999999988
 30
0
 11
-22.92499999999999
 21
3.399999999999999
 31
0
  0
LINE
  8
1
 62
1
 10
-22.92499999999999
 20
-17.1
 30
0
 11
-23.24349999999999
 21
-14.65
 31
0
  0
LINE
  8
1
 62
1
 10
-23.24349999999999
 20
-14.65
 30
0
 11
-22.60649999999999
 21
-14.65
 31
0
  0
LINE
  8
1
 62
1
 10
-22.60649999999999
 20
-14.65
 30
0
 11
-22.92499999999999
 21
-17.1
 31
0
  0
TEXT
  8
1
 62
3
 10
-24.27499999999999
 20
-11.6625
 30
0
 40
3.5
  1
20,5
 50
90
 41
0.9
  0
ENDBLK
  8
0
  0
BLOCK
  8
1
  2
*D3
 70
1
 10
0
 20
0
 30
0
  0
LINE
  8
1
 62
1
 10
0
 20
37.25
 30
0
 11
107
 21
37.25
 31
0
  0
LINE
  8
1
 62
1
 10
0
 20
0
 30
0
 11
0
 21
37.75
 31
0
  0
LINE
  8
1
 62
1
 10
107
 20
0
 30
0
 11
107
 21
37.75
 31
0
  0
LINE
  8
1
 62
1
 10
107
 20
37.25
 30
0
 11
104.55
 21
36.9315
 31
0
  0
LINE
  8
1
 62
1
 10
104.55
 20
36.9315
 30
0
 11
104.55
 21
37.5685
 31
0
  0
LINE
  8
1
 62
1
 10
104.55
 20
37.5685
 30
0
 11
107
 21
37.25
 31
0
  0
LINE
  8
1
 62
1
 10
0
 20
37.25
 30
0
 11
2.45
 21
37.5685
 31
0
  0
LINE
  8
1
 62
1
 10
2.45
 20
37.5685
 30
0
 11
2.45
 21
36.9315
 31
0
  0
LINE
  8
1
 62
1
 10
2.45
 20
36.9315
 30
0
 11
0
 21
37.25
 31
0
  0
TEXT
  8
1
 62
3
 10
49.825
 20
38.25
 30
0
 40
3.5
  1
107
 41
0.9
  0
ENDBLK
  8
0
  0
BLOCK
  8
1
  2
*D4
 70
1
 10
0
 20
0
 30
0
  0
LINE
  8
1
 62
1
 10
6.5
 20
-32.925
 30
0
 11
21
 21
-32.925
 31
0
  0
LINE
  8
1
 62
1
 10
6.5
 20
-17.1
 30
0
 11
6.5
 21
-33.425
 31
0
  0
LINE
  8
1
 62
1
 10
21
 20
-17.1
 30
0
 11
21
 21
-33.425
 31
0
  0
LINE
  8
1
 62
1
 10
21
 20
-32.925
 30
0
 11
18.55
 21
-33.2435
 31
0
  0
LINE
  8
1
 62
1
 10
18.55
 20
-33.2435
 30
0
 11
18.55
 21
-32.6065
 31
0
  0
LINE
  8
1
 62
1
 10
18.55
 20
-32.6065
 30
0
 11
21
 21
-32.925
 31
0
  0
LINE
  8
1
 62
1
 10
6.5
 20
-32.925
 30
0
 11
8.949999999999999
 21
-32.6065
 31
0
  0
LINE
  8
1
 62
1
 10
8.949999999999999
 20
-32.6065
 30
0
 11
8.949999999999999
 21
-33.2435
 31
0
  0
LINE
  8
1
 62
1
 10
8.949999999999999
 20
-33.2435
 30
0
 11
6.5
 21
-32.925
 31
0
  0
TEXT
  8
1
 62
3
 10
9.462499999999999
 20
-31.575
 30
0
 40
3.5
  1
14,5
 41
0.9
  0
ENDBLK
  8
0
  0
BLOCK
  8
1
  2
*D5
 70
1
 10
0
 20
0
 30
0
  0
LINE
  8
1
 62
1
 10
11.40000000000001
 20
-32.925
 30
0
 11
6.499999999999998
 21
-32.925
 31
0
  0
LINE
  8
1
 62
1
 10
0
 20
-32.925
 30
0
 11
6.499999999999998
 21
-32.925
 31
0
  0
LINE
  8
1
 62
1
 10
0
 20
-32.925
 30
0
 11
-10.81866390045535
 21
-32.925
 31
0
  0
LINE
  8
1
 62
1
 10
0
 20
0
 30
0
 11
0
 21
-33.425
 31
0
  0
LINE
  8
1
 62
1
 10
6.499999999999998
 20
-17.1
 30
0
 11
6.499999999999998
 21
-33.425
 31
0
  0
LINE
  8
1
 62
1
 10
6.499999999999998
 20
-32.925
 30
0
 11
8.949999999999999
 21
-32.6065
 31
0
  0
LINE
  8
1
 62
1
 10
8.949999999999999
 20
-32.6065
 30
0
 11
8.949999999999999
 21
-33.2435
 31
0
  0
LINE
  8
1
 62
1
 10
8.949999999999999
 20
-33.2435
 30
0
 11
6.499999999999998
 21
-32.925
 31
0
  0
LINE
  8
1
 62
1
 10
0
 20
-32.925
 30
0
 11
-2.45
 21
-33.2435
 31
0
  0
LINE
  8
1
 62
1
 10
-2.45
 20
-33.2435
 30
0
 11
-2.45
 21
-32.6065
 31
0
  0
LINE
  8
1
 62
1
 10
-2.45
 20
-32.6065
 30
0
 11
0
 21
-32.925
 31
0
  0
TEXT
  8
1
 62
3
 10
-10.81866390045535
 20
-31.4464014525044
 30
0
 40
3.5
  1
6,5
 41
0.9
  0
ENDBLK
  8
0
  0
ENDSEC
  0
SECTION
  2
ENTITIES
  0
LINE
  8
1
 62
2
  6
PHANTOM
 10
-6.214068770865055
 20
0
 30
0
 11
112.039659938697
 21
0
 31
0
  0
LINE
  8
1
 62
7
 10
73.13397459621548
 20
-3.399999999999997
 30
0
 11
21
 21
-3.4
 31
0
  0
LINE
  8
1
 62
7
 10
6.5
 20
-2.4
 30
0
 11
21
 21
-2.4
 31
0
  0
LINE
  8
1
 62
7
 10
6.5
 20
-2.4
 30
0
 11
6.5
 21
-17.1
 31
0
  0
LINE
  8
1
 62
7
 10
6.5
 20
-17.1
 30
0
 11
21
 21
-17.1
 31
0
  0
LINE
  8
1
 62
7
 10
21
 20
-17.1
 30
0
 11
21
 21
-2.4
 31
0
  0
LINE
  8
1
 62
7
 10
73.13397459621557
 20
3.4
 30
0
 11
73.13397459621548
 21
-3.399999999999997
 31
0
  0
LINE
  8
1
 62
7
 10
74.86602540378452
 20
-3.399999999999997
 30
0
 11
74.86602540378443
 21
3.4
 31
0
  0
LINE
  8
1
 62
7
 10
74.86602540378452
 20
-3.399999999999997
 30
0
 11
83.45455762324323
 21
-2.400000000000005
 31
0
  0
LINE
  8
1
 62
7
 10
83.45455762324323
 20
2.400000000000005
 30
0
 11
74.86602540378443
 21
3.4
 31
0
  0
LINE
  8
1
 62
7
 10
6.5
 20
-3.4
 30
0
 11
3.400000000000006
 21
-3.4
 31
0
  0
LINE
  8
1
 62
7
 10
3.400000000000006
 20
3.4
 30
0
 11
73.13397459621557
 21
3.4
 31
0
  0
LINE
  8
1
 62
7
 10
94.00000000000001
 20
9.897170100926131
 30
0
 11
94.00000000000001
 21
-9.897170100926118
 31
0
  0
ARC
  8
1
 62
7
 10
3.400000000000006
 20
0
 30
0
 40
3.400000000000006
 50
180
 51
270
  0
ARC
  8
1
 62
7
 10
74
 20
-2.90000000000013
 30
0
 40
1.000000000000003
 50
209.9999999999911
 51
330.0000000000089
  0
ARC
  8
1
 62
7
 10
74
 20
2.9
 30
0
 40
0.999999999999996
 50
30.00000000000014
 51
149.9999999999999
  0
ARC
  8
1
 62
7
 10
3.400000000000006
 20
0
 30
0
 40
3.4
 50
90
 51
180
  0
ARC
  8
1
 62
7
 10
86.60501068139284
 20
0
 30
0
 40
3.960474021074276
 50
142.7000239393702
 51
217.2999760606298
  0
POLYLINE
  8
1
 62
7
 66
1
  0
VERTEX
  8
1
 10
107
 20
0
 30
0
 42
0.01741064592086052
  0
VERTEX
  8
1
 10
106.9544992751071
 20
1.305569616745767
 30
0
 42
0.03520033333079572
  0
VERTEX
  8
1
 10
106.5922273946518
 20
3.877247280756636
 30
0
 42
0.03635518185881416
  0
VERTEX
  8
1
 10
105.8785408234396
 20
6.33172416560569
 30
0
 42
0.03828298817235132
  0
VERTEX
  8
1
 10
104.8348118379883
 20
8.594765755921721
 30
0
 42
0.04095554812759371
  0
VERTEX
  8
1
 10
103.4922701654098
 20
10.59782463648834
 30
0
 42
0.04425814113537145
  0
VERTEX
  8
1
 10
101.8910887806667
 20
12.28000921356403
 30
0
 42
0.04790799722149986
  0
VERTEX
  8
1
 10
100.0793000400826
 20
13.58981137269253
 30
0
 42
0.05138143572276774
  0
VERTEX
  8
1
 10
98.11160413701296
 20
14.48664992199251
 30
0
 42
0.05394483738314798
  0
VERTEX
  8
1
 10
96.04799746963441
 20
14.94232535003647
 30
0
 42
0.05489483905078494
  0
VERTEX
  8
1
 10
93.9520025303656
 20
14.94232535003647
 30
0
 42
0.05393445482222385
  0
VERTEX
  8
1
 10
91.88839586298707
 20
14.48664992199251
 30
0
 42
0.05136529550384381
  0
VERTEX
  8
1
 10
89.92069995991744
 20
13.58981137269253
 30
0
 42
0.04789148714977635
  0
VERTEX
  8
1
 10
88.10891121933332
 20
12.28000921356404
 30
0
 42
0.04424443250519331
  0
VERTEX
  8
1
 10
86.50772983459021
 20
10.59782463648834
 30
0
 42
0.0409454877604107
  0
VERTEX
  8
1
 10
85.1651881620117
 20
8.594765755921728
 30
0
 42
0.0666222309441022
  0
VERTEX
  8
1
 10
84.26955757595665
 20
6.331724165605698
 30
0
 42
0.007549140012339095
  0
VERTEX
  8
1
 10
83.70777260534817
 20
3.877247280756639
 30
0
 42
0.02028682762919707
  0
VERTEX
  8
1
 10
83.45455762324323
 20
2.400000000000005
 30
0
  0
SEQEND
  8
1
  0
POLYLINE
  8
1
 62
7
 66
1
  0
VERTEX
  8
1
 10
93.99999999999849
 20
-9.897170100925806
 30
0
 42
0.01914165198189294
  0
VERTEX
  8
1
 10
94.38764445800845
 20
-9.961276518693804
 30
0
 42
0.02508886860906896
  0
VERTEX
  8
1
 10
94.87752889160168
 20
-9.998451060747753
 30
0
 42
0.02528129414304915
  0
VERTEX
  8
1
 10
95.36741332519495
 20
-9.98605954672977
 30
0
  0
VERTEX
  8
1
 10
95.61235554199158
 20
-9.961276518693804
 30
0
  0
SEQEND
  8
1
  0
POLYLINE
  8
1
 62
7
 66
1
  0
VERTEX
  8
1
 10
95.61235554199158
 20
-9.961276518693804
 30
0
 42
0.06097857945399427
  0
VERTEX
  8
1
 10
96.81775296428683
 20
-9.656682153980611
 30
0
 42
0.05581342865619648
  0
VERTEX
  8
1
 10
97.96623995645719
 20
-9.057684602660235
 30
0
 42
0.04946617113597471
  0
VERTEX
  8
1
 10
99.02287613115664
 20
-8.183674241904713
 30
0
 42
0.04346977913594242
  0
VERTEX
  8
1
 10
99.95616602030256
 20
-7.061975861923576
 30
0
 42
0.03854237718290855
  0
VERTEX
  8
1
 10
100.7384815579771
 20
-5.726885989641849
 30
0
 42
0.03485358662095624
  0
VERTEX
  8
1
 10
101.3466144156574
 20
-4.218837645412262
 30
0
 42
0.03234097939431296
  0
VERTEX
  8
1
 10
101.7624404942966
 20
-2.583376645076117
 30
0
 42
0.03089133466857217
  0
VERTEX
  8
1
 10
101.9735186225209
 20
-0.869884731015439
 30
0
 42
0.03041891624671183
  0
VERTEX
  8
1
 10
101.9735186225209
 20
0.869884731015434
 30
0
 42
0.03089316545767591
  0
VERTEX
  8
1
 10
101.7624404942966
 20
2.583376645076121
 30
0
 42
0.0323451177891179
  0
VERTEX
  8
1
 10
101.3466144156574
 20
4.218837645412254
 30
0
 42
0.03486112102438101
  0
VERTEX
  8
1
 10
100.7384815579771
 20
5.72688598964185
 30
0
 42
0.03855521622387684
  0
VERTEX
  8
1
 10
99.95616602030256
 20
7.061975861923573
 30
0
 42
0.04349058279415605
  0
VERTEX
  8
1
 10
99.02287613115662
 20
8.183674241904715
 30
0
 42
0.04949679376447989
  0
VERTEX
  8
1
 10
97.96623995645719
 20
9.057684602660228
 30
0
 42
0.05584991321918201
  0
VERTEX
  8
1
 10
96.81775296428683
 20
9.656682153980611
 30
0
 42
0.06100577441245301
  0
VERTEX
  8
1
 10
95.61235554199158
 20
9.961276518693804
 30
0
 42
0.06302727320586861
  0
VERTEX
  8
1
 10
94.38764445800842
 20
9.961276518693806
 30
0
 42
0.01907775859222225
  0
VERTEX
  8
1
 10
94.00000000000001
 20
9.897170100926131
 30
0
  0
SEQEND
  8
1
  0
POLYLINE
  8
1
 62
7
 66
1
  0
VERTEX
  8
1
 10
96.04799746963442
 20
-14.94232535003647
 30
0
 42
0.05393445482222219
  0
VERTEX
  8
1
 10
98.11160413701296
 20
-14.48664992199251
 30
0
 42
0.0513652955038396
  0
VERTEX
  8
1
 10
100.0793000400826
 20
-13.58981137269253
 30
0
 42
0.04789148714977306
  0
VERTEX
  8
1
 10
101.8910887806667
 20
-12.28000921356403
 30
0
 42
0.04424443250520347
  0
VERTEX
  8
1
 10
103.4922701654098
 20
-10.59782463648834
 30
0
 42
0.04094548776041985
  0
VERTEX
  8
1
 10
104.8348118379884
 20
-8.594765755921722
 30
0
 42
0.03827623483070007
  0
VERTEX
  8
1
 10
105.8785408234396
 20
-6.331724165605698
 30
0
 42
0.03635110683689941
  0
VERTEX
  8
1
 10
106.5922273946518
 20
-3.87724728075664
 30
0
 42
0.03519842829642113
  0
VERTEX
  8
1
 10
106.9544992751072
 20
-1.305569616745764
 30
0
 42
0.01738954789336973
  0
VERTEX
  8
1
 10
107
 20
0
 30
0
  0
SEQEND
  8
1
  0
POLYLINE
  8
1
 62
7
 66
1
  0
VERTEX
  8
1
 10
83.45455762324323
 20
-2.400000000000005
 30
0
 42
0.02031202952235806
  0
VERTEX
  8
1
 10
83.7077726053482
 20
-3.877247280756632
 30
0
 42
0.03635518185880554
  0
VERTEX
  8
1
 10
84.42145917656043
 20
-6.331724165605683
 30
0
 42
0.009912351697549162
  0
VERTEX
  8
1
 10
85.31271748410302
 20
-8.594765755921715
 30
0
 42
0.0473728624075347
  0
VERTEX
  8
1
 10
86.04002740946441
 20
-9.954497465024078
 30
0
 42
0.05206557125100329
  0
VERTEX
  8
1
 10
87.27091581862878
 20
-11.47427133266951
 30
0
 42
0.0450065011928332
  0
VERTEX
  8
1
 10
88.98321913147191
 20
-12.97827229609197
 30
0
 42
0.04856739838797413
  0
VERTEX
  8
1
 10
90.88130504343158
 20
-14.08881499383158
 30
0
 42
0.05175789109468221
  0
VERTEX
  8
1
 10
92.90778002209535
 20
-14.77025612438328
 30
0
 42
0.05386574241045314
  0
VERTEX
  8
1
 10
95
 20
-15
 30
0
  0
VERTEX
  8
1
 10
96.04799746963442
 20
-14.94232535003647
 30
0
  0
SEQEND
  8
1
  0
TEXT
  8
1
 62
7
 10
110
 20
-30
 30
0
 40
7
  1
7352
 41
0.9
  0
DIMENSION
  8
1
  6
CONTINUOUS
 62
1
  2
*D0
  3
DMST_1
 10
83.45455762324323
 20
-32.925
 30
0
 11
52.22727881162162
 21
-30
 31
0
 12
0
 22
0
 32
0
 70
0
 13
21
 23
-17.1
 33
0
 14
83.45455762324323
 24
-2.400000000000005
 34
0
 53
0
  0
DIMENSION
  8
1
  6
CONTINUOUS
 62
1
  2
*D1
  3
DMST_2
 10
-12.75
 20
-3.4
 30
0
 11
-15.5
 21
-10
 31
0
 12
0
 22
0
 32
0
 70
0
  1
Ö<>
 13
3.400000000000006
 23
3.4
 33
0
 14
3.400000000000006
 24
-3.4
 34
0
 50
90
 53
0
  0
DIMENSION
  8
1
  6
CONTINUOUS
 62
1
  2
*D2
  3
DMST_1
 10
-22.92499999999999
 20
-17.1
 30
0
 11
-25.84999999999999
 21
-6.850000000000001
 31
0
 12
0
 22
0
 32
0
 70
0
 13
3.400000000000006
 23
3.4
 33
0
 14
6.5
 24
-17.1
 34
0
 50
90
 53
0
  0
DIMENSION
  8
1
  6
CONTINUOUS
 62
1
  2
*D3
  3
DMST_1
 10
0
 20
37.25
 30
0
 11
53.5
 21
40
 31
0
 12
0
 22
0
 32
0
 70
0
 13
107
 23
0
 33
0
 14
0
 24
0
 34
0
 53
0
  0
DIMENSION
  8
1
  6
CONTINUOUS
 62
1
  2
*D4
  3
DMST_1
 10
6.5
 20
-32.925
 30
0
 11
13.75
 21
-30
 31
0
 12
0
 22
0
 32
0
 70
0
 13
21
 23
-17.1
 33
0
 14
6.5
 24
-17.1
 34
0
 53
0
  0
DIMENSION
  8
1
  6
CONTINUOUS
 62
1
  2
*D5
  3
DMST_1
 10
0
 20
-32.925
 30
0
 11
-7.581163900455351
 21
-29.8714014525044
 31
0
 12
0
 22
0
 32
0
 70
0
 13
6.5
 23
-17.1
 33
0
 14
0
 24
0
 34
0
 53
0
  0
ENDSEC
  0
EOF
