  0
SECTION
  2
HEADER
  9
$ACADVER
  1
AC1015
  9
$ACADMAINTVER
 70
     6
  9
$DWGCODEPAGE
  3
ANSI_1252
  9
$INSBASE
 10
0.0
 20
0.0
 30
0.0
  9
$EXTMIN
 10
0.0
 20
0.0
 30
0.0
  9
$EXTMAX
 10
210.0
 20
297.0
 30
0.0
  9
$LIMMIN
 10
0.0
 20
0.0
  9
$LIMMAX
 10
210.0
 20
297.0
  9
$ORTHOMODE
 70
     0
  9
$REGENMODE
 70
     1
  9
$FILLMODE
 70
     1
  9
$QTEXTMODE
 70
     0
  9
$MIRRTEXT
 70
     1
  9
$LTSCALE
 40
1.0
  9
$ATTMODE
 70
     1
  9
$TEXTSIZE
 40
2.5
  9
$TRACEWID
 40
1.0
  9
$TEXTSTYLE
  7
Standard
  9
$CLAYER
  8
0
  9
$CELTYPE
  6
ByLayer
  9
$CECOLOR
 62
   256
  9
$CELTSCALE
 40
1.0
  9
$DISPSILH
 70
     0
  9
$DIMSCALE
 40
1.0
  9
$DIMASZ
 40
2.5
  9
$DIMEXO
 40
0.625
  9
$DIMDLI
 40
3.75
  9
$DIMRND
 40
0.0
  9
$DIMDLE
 40
0.0
  9
$DIMEXE
 40
1.25
  9
$DIMTP
 40
0.0
  9
$DIMTM
 40
0.0
  9
$DIMTXT
 40
2.5
  9
$DIMCEN
 40
2.5
  9
$DIMTSZ
 40
0.0
  9
$DIMTOL
 70
     0
  9
$DIMLIM
 70
     0
  9
$DIMTIH
 70
     0
  9
$DIMTOH
 70
     0
  9
$DIMSE1
 70
     0
  9
$DIMSE2
 70
     0
  9
$DIMTAD
 70
     1
  9
$DIMZIN
 70
     8
  9
$DIMBLK
  1

  9
$DIMASO
 70
     1
  9
$DIMSHO
 70
     1
  9
$DIMPOST
  1

  9
$DIMAPOST
  1

  9
$DIMALT
 70
     0
  9
$DIMALTD
 70
     3
  9
$DIMALTF
 40
0.0393700787
  9
$DIMLFAC
 40
1.0
  9
$DIMTOFL
 70
     1
  9
$DIMTVP
 40
0.0
  9
$DIMTIX
 70
     0
  9
$DIMSOXD
 70
     0
  9
$DIMSAH
 70
     0
  9
$DIMBLK1
  1

  9
$DIMBLK2
  1

  9
$DIMSTYLE
  2
ISO-25
  9
$DIMCLRD
 70
     0
  9
$DIMCLRE
 70
     0
  9
$DIMCLRT
 70
     0
  9
$DIMTFAC
 40
1.0
  9
$DIMGAP
 40
0.625
  9
$DIMJUST
 70
     0
  9
$DIMSD1
 70
     0
  9
$DIMSD2
 70
     0
  9
$DIMTOLJ
 70
     0
  9
$DIMTZIN
 70
     8
  9
$DIMALTZ
 70
     0
  9
$DIMALTTZ
 70
     0
  9
$DIMUPT
 70
     0
  9
$DIMDEC
 70
     2
  9
$DIMTDEC
 70
     2
  9
$DIMALTU
 70
     2
  9
$DIMALTTD
 70
     3
  9
$DIMTXSTY
  7
Standard
  9
$DIMAUNIT
 70
     0
  9
$DIMADEC
 70
     0
  9
$DIMALTRND
 40
0.0
  9
$DIMAZIN
 70
     0
  9
$DIMDSEP
 70
    44
  9
$DIMATFIT
 70
     3
  9
$DIMFRAC
 70
     0
  9
$DIMLDRBLK
  1

  9
$DIMLUNIT
 70
     2
  9
$DIMLWD
 70
    -2
  9
$DIMLWE
 70
    -2
  9
$DIMTMOVE
 70
     0
  9
$LUNITS
 70
     2
  9
$LUPREC
 70
     4
  9
$SKETCHINC
 40
1.0
  9
$FILLETRAD
 40
10.0
  9
$AUNITS
 70
     0
  9
$AUPREC
 70
     0
  9
$MENU
  1
.
  9
$ELEVATION
 40
0.0
  9
$PELEVATION
 40
0.0
  9
$THICKNESS
 40
0.0
  9
$LIMCHECK
 70
     0
  9
$CHAMFERA
 40
10.0
  9
$CHAMFERB
 40
10.0
  9
$CHAMFERC
 40
20.0
  9
$CHAMFERD
 40
0.0
  9
$SKPOLY
 70
     0
  9
$TDCREATE
 40
2455328.511189803
  9
$TDUCREATE
 40
2455328.42785647
  9
$TDUPDATE
 40
2455328.511189815
  9
$TDUUPDATE
 40
2455328.427856482
  9
$TDINDWG
 40
0.0000000116
  9
$TDUSRTIMER
 40
0.0000000116
  9
$USRTIMER
 70
     1
  9
$ANGBASE
 50
0.0
  9
$ANGDIR
 70
     0
  9
$PDMODE
 70
     0
  9
$PDSIZE
 40
0.0
  9
$PLINEWID
 40
0.0
  9
$SPLFRAME
 70
     0
  9
$SPLINETYPE
 70
     6
  9
$SPLINESEGS
 70
     8
  9
$HANDSEED
  5
14F
  9
$SURFTAB1
 70
     6
  9
$SURFTAB2
 70
     6
  9
$SURFTYPE
 70
     6
  9
$SURFU
 70
     6
  9
$SURFV
 70
     6
  9
$UCSBASE
  2

  9
$UCSNAME
  2

  9
$UCSORG
 10
0.0
 20
0.0
 30
0.0
  9
$UCSXDIR
 10
1.0
 20
0.0
 30
0.0
  9
$UCSYDIR
 10
0.0
 20
1.0
 30
0.0
  9
$UCSORTHOREF
  2

  9
$UCSORTHOVIEW
 70
     0
  9
$UCSORGTOP
 10
0.0
 20
0.0
 30
0.0
  9
$UCSORGBOTTOM
 10
0.0
 20
0.0
 30
0.0
  9
$UCSORGLEFT
 10
0.0
 20
0.0
 30
0.0
  9
$UCSORGRIGHT
 10
0.0
 20
0.0
 30
0.0
  9
$UCSORGFRONT
 10
0.0
 20
0.0
 30
0.0
  9
$UCSORGBACK
 10
0.0
 20
0.0
 30
0.0
  9
$PUCSBASE
  2

  9
$PUCSNAME
  2

  9
$PUCSORG
 10
0.0
 20
0.0
 30
0.0
  9
$PUCSXDIR
 10
1.0
 20
0.0
 30
0.0
  9
$PUCSYDIR
 10
0.0
 20
1.0
 30
0.0
  9
$PUCSORTHOREF
  2

  9
$PUCSORTHOVIEW
 70
     0
  9
$PUCSORGTOP
 10
0.0
 20
0.0
 30
0.0
  9
$PUCSORGBOTTOM
 10
0.0
 20
0.0
 30
0.0
  9
$PUCSORGLEFT
 10
0.0
 20
0.0
 30
0.0
  9
$PUCSORGRIGHT
 10
0.0
 20
0.0
 30
0.0
  9
$PUCSORGFRONT
 10
0.0
 20
0.0
 30
0.0
  9
$PUCSORGBACK
 10
0.0
 20
0.0
 30
0.0
  9
$USERI1
 70
     0
  9
$USERI2
 70
     0
  9
$USERI3
 70
     0
  9
$USERI4
 70
     0
  9
$USERI5
 70
     0
  9
$USERR1
 40
0.0
  9
$USERR2
 40
0.0
  9
$USERR3
 40
0.0
  9
$USERR4
 40
0.0
  9
$USERR5
 40
0.0
  9
$WORLDVIEW
 70
     1
  9
$SHADEDGE
 70
     3
  9
$SHADEDIF
 70
    70
  9
$TILEMODE
 70
     1
  9
$MAXACTVP
 70
    64
  9
$PINSBASE
 10
0.0
 20
0.0
 30
0.0
  9
$PLIMCHECK
 70
     0
  9
$PEXTMIN
 10
0.0
 20
0.0
 30
0.0
  9
$PEXTMAX
 10
210.0
 20
297.0
 30
0.0
  9
$PLIMMIN
 10
0.0
 20
0.0
  9
$PLIMMAX
 10
210.0
 20
297.0
  9
$UNITMODE
 70
     0
  9
$VISRETAIN
 70
     1
  9
$PLINEGEN
 70
     0
  9
$PSLTSCALE
 70
     1
  9
$TREEDEPTH
 70
  3020
  9
$CMLSTYLE
  2
Standard
  9
$CMLJUST
 70
     0
  9
$CMLSCALE
 40
20.0
  9
$PROXYGRAPHICS
 70
     1
  9
$MEASUREMENT
 70
     1
  9
$CELWEIGHT
370
    -1
  9
$ENDCAPS
280
     0
  9
$JOINSTYLE
280
     0
  9
$LWDISPLAY
290
     0
  9
$INSUNITS
 70
     4
  9
$HYPERLINKBASE
  1

  9
$STYLESHEET
  1

  9
$XEDIT
290
     1
  9
$CEPSNTYPE
380
     0
  9
$PSTYLEMODE
290
     1
  9
$FINGERPRINTGUID
  2
{46270F76-4C26-4226-A9E5-0EF7B74539B9}
  9
$VERSIONGUID
  2
{FAEB1C32-E019-11D5-929B-00C0DF256EC4}
  9
$EXTNAMES
290
     1
  9
$PSVPSCALE
 40
0.0
  9
$OLESTARTUP
290
     0
  0
ENDSEC
  0
SECTION
  2
CLASSES
  0
CLASS
  1
ACDBDICTIONARYWDFLT
  2
AcDbDictionaryWithDefault
  3
ObjectDBX Classes
 90
        0
280
     0
281
     0
  0
CLASS
  1
VISUALSTYLE
  2
AcDbVisualStyle
  3
ObjectDBX Classes
 90
     4095
280
     0
281
     0
  0
CLASS
  1
SCALE
  2
AcDbScale
  3
ObjectDBX Classes
 90
     1153
280
     0
281
     0
  0
CLASS
  1
DICTIONARYVAR
  2
AcDbDictionaryVar
  3
ObjectDBX Classes
 90
        0
280
     0
281
     0
  0
CLASS
  1
ACDBPLACEHOLDER
  2
AcDbPlaceHolder
  3
ObjectDBX Classes
 90
        0
280
     0
281
     0
  0
CLASS
  1
LAYOUT
  2
AcDbLayout
  3
ObjectDBX Classes
 90
        0
280
     0
281
     0
  0
ENDSEC
  0
SECTION
  2
TABLES
  0
TABLE
  2
VPORT
  5
8
330
0
100
AcDbSymbolTable
 70
     1
  0
VPORT
  5
29
330
8
100
AcDbSymbolTableRecord
100
AcDbViewportTableRecord
  2
*Active
 70
     0
 10
0.0
 20
0.0
 11
1.0
 21
1.0
 12
344.1869158879
 22
148.5
 13
0.0
 23
0.0
 14
10.0
 24
10.0
 15
10.0
 25
10.0
 16
0.0
 26
0.0
 36
1.0
 17
0.0
 27
0.0
 37
0.0
 40
297.0
 41
1.9729729729
 42
50.0
 43
0.0
 44
0.0
 50
0.0
 51
0.0
 71
     0
 72
   100
 73
     1
 74
     3
 75
     0
 76
     0
 77
     0
 78
     0
281
     0
 65
     1
110
0.0
120
0.0
130
0.0
111
1.0
121
0.0
131
0.0
112
0.0
122
1.0
132
0.0
 79
     0
146
0.0
  0
ENDTAB
  0
TABLE
  2
LTYPE
  5
5
330
0
100
AcDbSymbolTable
 70
     3
  0
LTYPE
  5
14
330
5
100
AcDbSymbolTableRecord
100
AcDbLinetypeTableRecord
  2
ByBlock
 70
     0
  3

 72
    65
 73
     0
 40
0.0
  0
LTYPE
  5
15
330
5
100
AcDbSymbolTableRecord
100
AcDbLinetypeTableRecord
  2
ByLayer
 70
     0
  3

 72
    65
 73
     0
 40
0.0
  0
LTYPE
  5
16
330
5
100
AcDbSymbolTableRecord
100
AcDbLinetypeTableRecord
  2
Continuous
 70
     0
  3
Solid line
 72
    65
 73
     0
 40
0.0
  0
LTYPE
  5
60
330
5
100
AcDbSymbolTableRecord
100
AcDbLinetypeTableRecord
  2
CENTER2
 70
     0
  3
Center (.5x) ___ _ ___ _ ___ _ ___ _ ___ _ ___
 72
    65
 73
     4
 40
28.575
 49
19.05
 74
     4
 75
     0
340
0
 46
0.0
 50
0.0
 44
0.0
 45
0.0
 49
-3.175
 74
     4
 75
     0
340
0
 46
0.0
 50
0.0
 44
0.0
 45
0.0
 49
3.175
 74
     4
 75
     0
340
0
 46
0.0
 50
0.0
 44
0.0
 45
0.0
 49
-3.175
 74
     4
 75
     0
340
0
 46
0.0
 50
0.0
 44
0.0
 45
0.0
  0
LTYPE
  5
CE
330
5
100
AcDbSymbolTableRecord
100
AcDbLinetypeTableRecord
  2
HIDDEN2
 70
     0
  3
Hidden (.5x) _ _ _ _ _ _ _ _ _ _ _ _ _ _ _ _ _ 
 72
    65
 73
     2
 40
4.7625
 49
3.175
 74
     4
 75
     0
340
0
 46
0.0
 50
0.0
 44
0.0
 45
0.0
 49
-1.5875
 74
     4
 75
     0
340
0
 46
0.0
 50
0.0
 44
0.0
 45
0.0
  0
ENDTAB
  0
TABLE
  2
LAYER
  5
2
330
0
100
AcDbSymbolTable
 70
     4
  0
LAYER
  5
10
330
2
100
AcDbSymbolTableRecord
100
AcDbLayerTableRecord
  2
0
 70
     0
 62
     7
  6
Continuous
370
    -3
390
F
  0
LAYER
  5
5D
330
2
100
AcDbSymbolTableRecord
100
AcDbLayerTableRecord
  2
Default
 70
     0
 62
     7
  6
Continuous
370
    -3
390
F
  0
LAYER
  5
70
330
2
100
AcDbSymbolTableRecord
100
AcDbLayerTableRecord
  2
MEGA_015529
 70
     0
 62
     7
  6
Continuous
370
    -3
390
F
  0
LAYER
  5
DD
330
2
100
AcDbSymbolTableRecord
100
AcDbLayerTableRecord
  2
DV1_Standard
 70
     0
 62
     7
  6
Continuous
370
    -3
390
F
  0
ENDTAB
  0
TABLE
  2
STYLE
  5
3
330
0
100
AcDbSymbolTable
 70
     3
  0
STYLE
  5
11
330
3
100
AcDbSymbolTableRecord
100
AcDbTextStyleTableRecord
  2
Standard
 70
     0
 40
0.0
 41
1.0
 50
0.0
 71
     0
 42
2.5
  3
txt
  4

  0
STYLE
  5
F3
330
3
100
AcDbSymbolTableRecord
100
AcDbTextStyleTableRecord
  2
SEACAD_seiso_ttf
 70
     0
 40
0.0
 41
1.0
 50
0.0
 71
     0
 42
0.2
  3
seiso.ttf
  4

  0
STYLE
  5
F6
330
3
100
AcDbSymbolTableRecord
100
AcDbTextStyleTableRecord
  2
SEACAD_semeci1_ttf
 70
     0
 40
0.0
 41
1.0
 50
0.0
 71
     0
 42
0.2
  3
semeci1.ttf
  4

  0
ENDTAB
  0
TABLE
  2
VIEW
  5
6
330
0
100
AcDbSymbolTable
 70
     0
  0
ENDTAB
  0
TABLE
  2
UCS
  5
7
330
0
100
AcDbSymbolTable
 70
     0
  0
ENDTAB
  0
TABLE
  2
APPID
  5
9
330
0
100
AcDbSymbolTable
 70
     1
  0
APPID
  5
12
330
9
100
AcDbSymbolTableRecord
100
AcDbRegAppTableRecord
  2
ACAD
 70
     0
  0
ENDTAB
  0
TABLE
  2
DIMSTYLE
  5
A
330
0
100
AcDbSymbolTable
 70
     3
100
AcDbDimStyleTable
  0
DIMSTYLE
105
27
330
A
100
AcDbSymbolTableRecord
100
AcDbDimStyleTableRecord
  2
ISO-25
 70
     0
 41
2.5
 42
0.625
 43
3.75
 44
1.25
 73
     0
 74
     0
 77
     1
 78
     8
140
2.5
141
2.5
143
0.0393700787
147
0.625
171
     3
172
     1
271
     2
272
     2
274
     3
278
    44
283
     0
284
     8
340
11
  0
DIMSTYLE
105
E1
330
A
100
AcDbSymbolTableRecord
100
AcDbDimStyleTableRecord
  2
Standard
 70
     0
340
11
  0
DIMSTYLE
105
F4
102
{ACAD_REACTORS
330
F5
330
101
330
115
330
11F
330
12A
330
134
330
13F
102
}
330
A
100
AcDbSymbolTableRecord
100
AcDbDimStyleTableRecord
  2
DIN
 70
     0
 41
3.0
 42
0.0
 44
1.5
 73
     0
 74
     0
 77
     1
 78
     8
140
3.0
141
1.5
147
1.5
172
     1
173
     1
271
     0
272
     0
278
    44
284
     8
340
F3
343
EE
344
EE
  0
ENDTAB
  0
TABLE
  2
BLOCK_RECORD
  5
1
330
0
100
AcDbSymbolTable
 70
    16
  0
BLOCK_RECORD
  5
1F
330
1
100
AcDbSymbolTableRecord
100
AcDbBlockTableRecord
  2
*Model_Space
340
22
  0
BLOCK_RECORD
  5
1B
330
1
100
AcDbSymbolTableRecord
100
AcDbBlockTableRecord
  2
*Paper_Space
340
1E
  0
BLOCK_RECORD
  5
5E
330
1
100
AcDbSymbolTableRecord
100
AcDbBlockTableRecord
  2
SEANNOT_GROUP
340
0
102
{BLKREFS
331
5F
102
}
  0
BLOCK_RECORD
  5
64
330
1
100
AcDbSymbolTableRecord
100
AcDbBlockTableRecord
  2
SEANNOT_GROUP1
340
0
102
{BLKREFS
331
65
102
}
  0
BLOCK_RECORD
  5
69
330
1
100
AcDbSymbolTableRecord
100
AcDbBlockTableRecord
  2
SEANNOT_GROUP2
340
0
102
{BLKREFS
331
6A
102
}
  0
BLOCK_RECORD
  5
6E
330
1
100
AcDbSymbolTableRecord
100
AcDbBlockTableRecord
  2
SE
340
0
102
{BLKREFS
331
6F
102
}
  0
BLOCK_RECORD
  5
E2
330
1
100
AcDbSymbolTableRecord
100
AcDbBlockTableRecord
  2
_OBLIQUE
340
0
  0
BLOCK_RECORD
  5
E6
330
1
100
AcDbSymbolTableRecord
100
AcDbBlockTableRecord
  2
_DOT
340
0
  0
BLOCK_RECORD
  5
EE
330
1
100
AcDbSymbolTableRecord
100
AcDbBlockTableRecord
  2
_SE_FILLED
340
0
  0
BLOCK_RECORD
  5
F7
330
1
100
AcDbSymbolTableRecord
100
AcDbBlockTableRecord
  2
DMBLK85
340
0
  0
BLOCK_RECORD
  5
102
330
1
100
AcDbSymbolTableRecord
100
AcDbBlockTableRecord
  2
DMBLK86
340
0
  0
BLOCK_RECORD
  5
10C
330
1
100
AcDbSymbolTableRecord
100
AcDbBlockTableRecord
  2
GDimGGroup
340
0
102
{BLKREFS
331
10D
102
}
  0
BLOCK_RECORD
  5
116
330
1
100
AcDbSymbolTableRecord
100
AcDbBlockTableRecord
  2
DMBLK87
340
0
  0
BLOCK_RECORD
  5
120
330
1
100
AcDbSymbolTableRecord
100
AcDbBlockTableRecord
  2
DMBLK88
340
0
  0
BLOCK_RECORD
  5
12B
330
1
100
AcDbSymbolTableRecord
100
AcDbBlockTableRecord
  2
DMBLK89
340
0
  0
BLOCK_RECORD
  5
135
330
1
100
AcDbSymbolTableRecord
100
AcDbBlockTableRecord
  2
DMBLK90
340
0
  0
BLOCK_RECORD
  5
140
330
1
100
AcDbSymbolTableRecord
100
AcDbBlockTableRecord
  2
DMBLK91
340
0
  0
ENDTAB
  0
ENDSEC
  0
SECTION
  2
BLOCKS
  0
BLOCK
  5
20
330
1F
100
AcDbEntity
  8
0
100
AcDbBlockBegin
  2
*Model_Space
 70
     0
 10
0.0
 20
0.0
 30
0.0
  3
*Model_Space
  1

  0
ENDBLK
  5
21
330
1F
100
AcDbEntity
  8
0
100
AcDbBlockEnd
  0
BLOCK
  5
1C
330
1B
100
AcDbEntity
 67
     1
  8
0
100
AcDbBlockBegin
  2
*Paper_Space
 70
     0
 10
0.0
 20
0.0
 30
0.0
  3
*Paper_Space
  1

  0
ENDBLK
  5
1D
330
1B
100
AcDbEntity
 67
     1
  8
0
100
AcDbBlockEnd
  0
BLOCK
  5
62
330
5E
100
AcDbEntity
  8
0
100
AcDbBlockBegin
  2
SEANNOT_GROUP
 70
     0
 10
0.0
 20
0.0
 30
0.0
  3
SEANNOT_GROUP
  1

  0
LINE
  5
61
330
5E
100
AcDbEntity
  8
Default
  6
CENTER2
 62
     7
100
AcDbLine
 10
62.099397267
 20
235.4874430195
 30
0.0
 11
62.099397267
 21
182.3655340204
 31
0.0
  0
ENDBLK
  5
63
330
5E
100
AcDbEntity
  8
0
100
AcDbBlockEnd
  0
BLOCK
  5
67
330
64
100
AcDbEntity
  8
0
100
AcDbBlockBegin
  2
SEANNOT_GROUP1
 70
     0
 10
0.0
 20
0.0
 30
0.0
  3
SEANNOT_GROUP1
  1

  0
LINE
  5
66
330
64
100
AcDbEntity
  8
Default
  6
CENTER2
 62
     7
100
AcDbLine
 10
179.7882711141
 20
182.3370241405
 30
0.0
 11
54.7601752325
 21
182.3370241405
 31
0.0
  0
ENDBLK
  5
68
330
64
100
AcDbEntity
  8
0
100
AcDbBlockEnd
  0
BLOCK
  5
6C
330
69
100
AcDbEntity
  8
0
100
AcDbBlockBegin
  2
SEANNOT_GROUP2
 70
     0
 10
0.0
 20
0.0
 30
0.0
  3
SEANNOT_GROUP2
  1

  0
LINE
  5
6B
330
69
100
AcDbEntity
  8
Default
  6
CENTER2
 62
     7
100
AcDbLine
 10
59.7884729806
 20
221.3370241405
 30
0.0
 11
49.049397267
 21
221.3370241405
 31
0.0
  0
ENDBLK
  5
6D
330
69
100
AcDbEntity
  8
0
100
AcDbBlockEnd
  0
BLOCK
  5
DF
330
6E
100
AcDbEntity
  8
0
100
AcDbBlockBegin
  2
SE
 70
     0
 10
0.0
 20
0.0
 30
0.0
  3
SE
  1

  0
LINE
  5
71
330
6E
100
AcDbEntity
  8
MEGA_015529
  6
Continuous
 62
     7
100
AcDbLine
 10
69.739397267
 20
234.3370241405
 30
0.0
 11
54.459397267
 21
234.3370241405
 31
0.0
  0
LINE
  5
72
330
6E
100
AcDbEntity
  8
MEGA_015529
  6
Continuous
 62
     7
100
AcDbLine
 10
54.2498251146
 20
234.0370241405
 30
0.0
 11
54.2498251146
 21
226.3370241405
 31
0.0
  0
LINE
  5
73
330
6E
100
AcDbEntity
  8
MEGA_015529
  6
Continuous
 62
     7
100
AcDbLine
 10
69.9489694195
 20
234.0370241405
 30
0.0
 11
54.2498251146
 21
234.0370241405
 31
0.0
  0
LINE
  5
74
330
6E
100
AcDbEntity
  8
MEGA_015529
  6
Continuous
 62
     7
100
AcDbLine
 10
69.9489694195
 20
234.0370241405
 30
0.0
 11
69.9489694195
 21
226.3370241405
 31
0.0
  0
LINE
  5
75
330
6E
100
AcDbEntity
  8
MEGA_015529
  6
Continuous
 62
     7
100
AcDbLine
 10
73.399397267
 20
226.3370241405
 30
0.0
 11
73.399397267
 21
217.3369860636
 31
0.0
  0
SPLINE
  5
76
330
6E
100
AcDbEntity
  8
MEGA_015529
  6
Continuous
 62
     7
100
AcDbSpline
210
0.0
220
0.0
230
1.0
 70
     8
 71
     3
 72
     8
 73
     4
 74
     0
 42
0.0000001126619581
 43
0.0000000001
 40
0.0
 40
0.0
 40
0.0
 40
0.0
 40
1.0
 40
1.0
 40
1.0
 40
1.0
 10
69.95939726704731
 20
234.1170241405203
 30
0.0
 10
69.95590369753603
 20
234.1205177100315
 30
0.0
 10
69.95242810007282
 20
234.0932489981806
 30
0.0
 10
69.94896941947084
 20
234.0370241405203
 30
0.0
  0
LINE
  5
77
330
6E
100
AcDbEntity
  8
MEGA_015529
  6
Continuous
 62
     7
100
AcDbLine
 10
69.959397267
 20
234.1170241405
 30
0.0
 11
69.959397267
 21
226.3370241405
 31
0.0
  0
SPLINE
  5
78
330
6E
100
AcDbEntity
  8
MEGA_015529
  6
Continuous
 62
     7
100
AcDbSpline
210
0.0
220
0.0
230
1.0
 70
     8
 71
     3
 72
     8
 73
     4
 74
     0
 42
0.0000001127203515
 43
0.0000000001
 40
0.0
 40
0.0
 40
0.0
 40
0.0
 40
1.0
 40
1.0
 40
1.0
 40
1.0
 10
54.23939726704732
 20
234.1170241405209
 30
0.0
 10
54.24287094570278
 20
234.1204978191757
 30
0.0
 10
54.24638472163741
 20
234.0929517118155
 30
0.0
 10
54.24982511462378
 20
234.0370241405203
 30
0.0
  0
LINE
  5
79
330
6E
100
AcDbEntity
  8
MEGA_015529
  6
Continuous
 62
     7
100
AcDbLine
 10
54.239397267
 20
234.1170241405
 30
0.0
 11
54.239397267
 21
226.3370241405
 31
0.0
  0
SPLINE
  5
7A
330
6E
100
AcDbEntity
  8
MEGA_015529
  6
Continuous
 62
     7
100
AcDbSpline
210
0.0
220
0.0
230
1.0
 70
    12
 71
     2
 72
     8
 73
     5
 74
     0
 42
0.0000000020161656
 43
0.0000000001
 40
0.0
 40
0.0
 40
0.0
 40
0.5
 40
0.5
 40
1.0
 40
1.0
 40
1.0
 10
50.79939726704731
 20
218.8785241405202
 30
0.0
 41
1.0
 10
50.82085227151089
 20
218.8785241405202
 30
0.0
 41
0.7071067811865349
 10
50.82085227151089
 20
221.3370241405201
 30
0.0
 41
1.0
 10
50.82085227151089
 20
223.7955241405201
 30
0.0
 41
0.7071067811865516
 10
50.79939726704731
 20
223.7955241405203
 30
0.0
 41
1.0
  0
LINE
  5
7B
330
6E
100
AcDbEntity
  8
MEGA_015529
  6
Continuous
 62
     7
100
AcDbLine
 10
50.799397267
 20
226.3370241405
 30
0.0
 11
50.8889238172
 21
226.3370241405
 31
0.0
  0
LINE
  5
7C
330
6E
100
AcDbEntity
  8
MEGA_015529
  6
Continuous
 62
     7
100
AcDbLine
 10
50.799397267
 20
223.7955241405
 30
0.0
 11
50.799397267
 21
226.3370241405
 31
0.0
  0
LINE
  5
7D
330
6E
100
AcDbEntity
  8
MEGA_015529
  6
Continuous
 62
     7
100
AcDbLine
 10
71.6493401516
 20
190.3870241405
 30
0.0
 11
178.099435344
 21
190.3870241405
 31
0.0
  0
LINE
  5
7E
330
6E
100
AcDbEntity
  8
MEGA_015529
  6
Continuous
 62
     7
100
AcDbLine
 10
71.6493401516
 20
190.3870241405
 30
0.0
 11
71.5881759218
 21
190.3258599107
 31
0.0
  0
SPLINE
  5
7F
330
6E
100
AcDbEntity
  8
MEGA_015529
  6
Continuous
 62
     7
100
AcDbSpline
210
0.0
220
0.0
230
1.0
 70
    12
 71
     2
 72
     6
 73
     3
 74
     0
 42
0.0000000033334603
 43
0.0000000001
 40
0.0
 40
0.0
 40
0.0
 40
1.0
 40
1.0
 40
1.0
 10
70.14939726704732
 20
191.8869670251165
 30
0.0
 41
1.0
 10
70.14939726704732
 20
190.3870241405203
 30
0.0
 41
0.7071337046208623
 10
71.64934015164353
 20
190.3870241405203
 30
0.0
 41
1.0
  0
LINE
  5
80
330
6E
100
AcDbEntity
  8
MEGA_015529
  6
Continuous
 62
     7
100
AcDbLine
 10
179.099397267
 20
189.3870622175
 30
0.0
 11
179.099397267
 21
175.2869860636
 31
0.0
  0
LINE
  5
81
330
6E
100
AcDbEntity
  8
MEGA_015529
  6
Continuous
 62
     7
100
AcDbLine
 10
179.099397267
 20
189.3870622175
 30
0.0
 11
179.0382330372
 21
189.3258979876
 31
0.0
  0
LINE
  5
82
330
6E
100
AcDbEntity
  8
MEGA_015529
  6
Continuous
 62
     7
100
AcDbLine
 10
179.0382330372
 20
189.3258979876
 30
0.0
 11
179.0382330372
 21
175.3481502934
 31
0.0
  0
LINE
  5
83
330
6E
100
AcDbEntity
  8
MEGA_015529
  6
Continuous
 62
     7
100
AcDbLine
 10
179.0382330372
 20
175.3481502934
 30
0.0
 11
179.099397267
 21
175.2869860636
 31
0.0
  0
LINE
  5
84
330
6E
100
AcDbEntity
  8
MEGA_015529
  6
Continuous
 62
     7
100
AcDbLine
 10
69.0882711141
 20
191.8258027953
 30
0.0
 11
69.0882711141
 21
215.4155278723
 31
0.0
  0
LINE
  5
85
330
6E
100
AcDbEntity
  8
MEGA_015529
  6
Continuous
 62
     7
100
AcDbLine
 10
69.0882711141
 20
215.4155278723
 30
0.0
 11
55.11052342
 21
215.4155278723
 31
0.0
  0
SPLINE
  5
86
330
6E
100
AcDbEntity
  8
MEGA_015529
  6
Continuous
 62
     7
100
AcDbSpline
210
0.0
220
0.0
230
1.0
 70
    12
 71
     2
 72
     6
 73
     3
 74
     0
 42
0.0000000020000762
 43
0.0000000001
 40
0.0
 40
0.0
 40
0.0
 40
1.0
 40
1.0
 40
1.0
 10
69.08827111412626
 20
191.8258027952596
 30
0.0
 41
1.0
 10
69.08827111412627
 20
189.3258979875993
 30
0.0
 41
0.7071337046209006
 10
71.58817592178667
 20
189.3258979875992
 30
0.0
 41
1.0
  0
LINE
  5
87
330
6E
100
AcDbEntity
  8
MEGA_015529
  6
Continuous
 62
     7
100
AcDbLine
 10
55.11052342
 20
215.4155278723
 30
0.0
 11
55.11052342
 21
175.3481502934
 31
0.0
  0
LINE
  5
88
330
6E
100
AcDbEntity
  8
MEGA_015529
  6
Continuous
 62
     7
100
AcDbLine
 10
178.0382711141
 20
189.3258979876
 30
0.0
 11
71.5881759218
 21
189.3258979876
 31
0.0
  0
LINE
  5
89
330
6E
100
AcDbEntity
  8
MEGA_015529
  6
Continuous
 62
     7
100
AcDbLine
 10
55.11052342
 20
175.3481502934
 30
0.0
 11
178.0382711141
 21
175.3481502934
 31
0.0
  0
LINE
  5
8A
330
6E
100
AcDbEntity
  8
MEGA_015529
  6
Continuous
 62
     7
100
AcDbLine
 10
178.0382711141
 20
175.3481502934
 30
0.0
 11
178.0382711141
 21
189.3258979876
 31
0.0
  0
LINE
  5
8B
330
6E
100
AcDbEntity
  8
MEGA_015529
  6
Continuous
 62
     7
100
AcDbLine
 10
178.099435344
 20
174.2870241405
 30
0.0
 11
55.0493591901
 21
174.2870241405
 31
0.0
  0
LINE
  5
8C
330
6E
100
AcDbEntity
  8
MEGA_015529
  6
Continuous
 62
     7
100
AcDbLine
 10
55.11052342
 20
174.3481883704
 30
0.0
 11
55.0493591901
 21
174.2870241405
 31
0.0
  0
LINE
  5
8D
330
6E
100
AcDbEntity
  8
MEGA_015529
  6
Continuous
 62
     7
100
AcDbLine
 10
178.0382711141
 20
174.3481883704
 30
0.0
 11
55.11052342
 21
174.3481883704
 31
0.0
  0
LINE
  5
8E
330
6E
100
AcDbEntity
  8
MEGA_015529
  6
Continuous
 62
     7
100
AcDbLine
 10
178.099435344
 20
174.2870241405
 30
0.0
 11
178.0382711141
 21
174.3481883704
 31
0.0
  0
LINE
  5
8F
330
6E
100
AcDbEntity
  8
MEGA_015529
  6
Continuous
 62
     7
100
AcDbLine
 10
71.5881759218
 20
190.3258599107
 30
0.0
 11
178.0382711141
 21
190.3258599107
 31
0.0
  0
LINE
  5
90
330
6E
100
AcDbEntity
  8
MEGA_015529
  6
Continuous
 62
     7
100
AcDbLine
 10
178.0382711141
 20
190.3258599107
 30
0.0
 11
178.099435344
 21
190.3870241405
 31
0.0
  0
LINE
  5
91
330
6E
100
AcDbEntity
  8
MEGA_015529
  6
Continuous
 62
     7
100
AcDbLine
 10
54.049397267
 20
175.2869860636
 30
0.0
 11
54.049397267
 21
215.3370622175
 31
0.0
  0
LINE
  5
92
330
6E
100
AcDbEntity
  8
MEGA_015529
  6
Continuous
 62
     7
100
AcDbLine
 10
54.1105614969
 20
215.3982264473
 30
0.0
 11
54.049397267
 21
215.3370622175
 31
0.0
  0
LINE
  5
93
330
6E
100
AcDbEntity
  8
MEGA_015529
  6
Continuous
 62
     7
100
AcDbLine
 10
54.1105614969
 20
175.3481502934
 30
0.0
 11
54.1105614969
 21
215.3982264473
 31
0.0
  0
LINE
  5
94
330
6E
100
AcDbEntity
  8
MEGA_015529
  6
Continuous
 62
     7
100
AcDbLine
 10
54.049397267
 20
175.2869860636
 30
0.0
 11
54.1105614969
 21
175.3481502934
 31
0.0
  0
LINE
  5
95
330
6E
100
AcDbEntity
  8
MEGA_015529
  6
Continuous
 62
     7
100
AcDbLine
 10
70.0882330372
 20
191.8258027953
 30
0.0
 11
70.149397267
 21
191.8869670251
 31
0.0
  0
SPLINE
  5
96
330
6E
100
AcDbEntity
  8
MEGA_015529
  6
Continuous
 62
     7
100
AcDbSpline
210
0.0
220
0.0
230
1.0
 70
    12
 71
     2
 72
     6
 73
     3
 74
     0
 42
0.000000003333291
 43
0.0000000001
 40
0.0
 40
0.0
 40
0.0
 40
1.0
 40
1.0
 40
1.0
 10
70.08823303719062
 20
191.8258027952596
 30
0.0
 41
1.0
 10
70.08815689346736
 20
190.32578376694
 30
0.0
 41
0.7071337046210162
 10
71.58817592178669
 20
190.3258599106633
 30
0.0
 41
1.0
  0
LINE
  5
97
330
6E
100
AcDbEntity
  8
MEGA_015529
  6
Continuous
 62
     7
100
AcDbLine
 10
53.049435344
 20
216.3370241405
 30
0.0
 11
51.7993591901
 21
216.3370241405
 31
0.0
  0
LINE
  5
98
330
6E
100
AcDbEntity
  8
MEGA_015529
  6
Continuous
 62
     7
100
AcDbLine
 10
71.0881949603
 20
216.3981883704
 30
0.0
 11
71.1493591901
 21
216.3370241405
 31
0.0
  0
SPLINE
  5
99
330
6E
100
AcDbEntity
  8
MEGA_015529
  6
Continuous
 62
     7
100
AcDbSpline
210
0.0
220
0.0
230
1.0
 70
    12
 71
     2
 72
     6
 73
     3
 74
     0
 42
0.0000000049823368
 43
0.0000000001
 40
0.0
 40
0.0
 40
0.0
 40
1.0
 40
1.0
 40
1.0
 10
71.08819496025463
 20
216.3981883703771
 30
0.0
 41
1.0
 10
71.07089353531744
 20
216.4154897953155
 30
0.0
 41
0.7101853756247353
 10
69.0882711141263
 20
216.4154897953155
 30
0.0
 41
1.0
  0
LINE
  5
9A
330
6E
100
AcDbEntity
  8
MEGA_015529
  6
Continuous
 62
     7
100
AcDbLine
 10
55.11052342
 20
216.4154897953
 30
0.0
 11
69.0882711141
 21
216.4154897953
 31
0.0
  0
SPLINE
  5
9B
330
6E
100
AcDbEntity
  8
MEGA_015529
  6
Continuous
 62
     7
100
AcDbSpline
210
0.0
220
0.0
230
1.0
 70
    12
 71
     2
 72
     6
 73
     3
 74
     0
 42
0.0000000049823368
 43
0.0000000001
 40
0.0
 40
0.0
 40
0.0
 40
1.0
 40
1.0
 40
1.0
 10
55.11052341996837
 20
216.4154897953155
 30
0.0
 41
1.0
 10
53.12790099877873
 20
216.4154897953155
 30
0.0
 41
0.7101853756248716
 10
53.11059957384003
 20
216.3981883703771
 30
0.0
 41
1.0
  0
LINE
  5
9C
330
6E
100
AcDbEntity
  8
MEGA_015529
  6
Continuous
 62
     7
100
AcDbLine
 10
53.049435344
 20
216.3370241405
 30
0.0
 11
53.1105995738
 21
216.3981883704
 31
0.0
  0
LINE
  5
9D
330
6E
100
AcDbEntity
  8
MEGA_015529
  6
Continuous
 62
     7
100
AcDbLine
 10
70.149397267
 20
215.3370622175
 30
0.0
 11
70.149397267
 21
191.8869670251
 31
0.0
  0
LINE
  5
9E
330
6E
100
AcDbEntity
  8
MEGA_015529
  6
Continuous
 62
     7
100
AcDbLine
 10
70.149397267
 20
215.3370622175
 30
0.0
 11
70.0882330372
 21
215.3982264473
 31
0.0
  0
LINE
  5
9F
330
6E
100
AcDbEntity
  8
MEGA_015529
  6
Continuous
 62
     7
100
AcDbLine
 10
70.0882330372
 20
215.3982264473
 30
0.0
 11
70.0882330372
 21
191.8258027953
 31
0.0
  0
SPLINE
  5
A0
330
6E
100
AcDbEntity
  8
MEGA_015529
  6
Continuous
 62
     7
100
AcDbSpline
210
0.0
220
0.0
230
1.0
 70
    12
 71
     2
 72
     6
 73
     3
 74
     0
 42
0.0000000050001904
 43
0.0000000001
 40
0.0
 40
0.0
 40
0.0
 40
1.0
 40
1.0
 40
1.0
 10
71.14935919011148
 20
216.3370241405202
 30
0.0
 41
1.0
 10
70.1493972670473
 20
216.3370241405202
 30
0.0
 41
0.7071337046208752
 10
70.1493972670473
 20
215.3370622174561
 30
0.0
 41
1.0
  0
SPLINE
  5
A1
330
6E
100
AcDbEntity
  8
MEGA_015529
  6
Continuous
 62
     7
100
AcDbSpline
210
0.0
220
0.0
230
1.0
 70
    12
 71
     2
 72
     6
 73
     3
 74
     0
 42
0.0000000050001904
 43
0.0000000001
 40
0.0
 40
0.0
 40
0.0
 40
1.0
 40
1.0
 40
1.0
 10
54.04939726704733
 20
215.3370622174561
 30
0.0
 41
1.0
 10
54.04939726704731
 20
216.3370241405202
 30
0.0
 41
0.707133704620917
 10
53.04943534398318
 20
216.3370241405202
 30
0.0
 41
1.0
  0
LINE
  5
A2
330
6E
100
AcDbEntity
  8
MEGA_015529
  6
Continuous
 62
     7
100
AcDbLine
 10
69.0882711141
 20
216.4154897953
 30
0.0
 11
69.0882711141
 21
215.4155278723
 31
0.0
  0
ARC
  5
A3
330
6E
100
AcDbEntity
  8
MEGA_015529
  6
Continuous
 62
     7
100
AcDbCircle
 10
71.0882711156
 20
215.398150292
 30
0.0
 40
1.000038081285441
100
AcDbArc
 50
90.0043632124
 51
179.9956367876
  0
ARC
  5
A4
330
6E
100
AcDbEntity
  8
MEGA_015529
  6
Continuous
 62
     7
100
AcDbCircle
 10
53.1105234185
 20
215.398150292
 30
0.0
 40
1.000038081285443
100
AcDbArc
 50
0.0043632124
 51
89.9956367876
  0
LINE
  5
A5
330
6E
100
AcDbEntity
  8
MEGA_015529
  6
Continuous
 62
     7
100
AcDbLine
 10
55.11052342
 20
215.4155278723
 30
0.0
 11
55.11052342
 21
216.4154897953
 31
0.0
  0
SPLINE
  5
A6
330
6E
100
AcDbEntity
  8
MEGA_015529
  6
Continuous
 62
     7
100
AcDbSpline
210
0.0
220
0.0
230
1.0
 70
    12
 71
     2
 72
     6
 73
     3
 74
     0
 42
0.0000000098945754
 43
0.0000000001
 40
0.0
 40
0.0
 40
0.0
 40
1.0
 40
1.0
 40
1.0
 10
70.08823303719045
 20
215.398226447313
 30
0.0
 41
1.0
 10
70.0795823247219
 20
215.4155278722513
 30
0.0
 41
0.7101853756247403
 10
69.08827111412629
 20
215.4155278722513
 30
0.0
 41
1.0
  0
SPLINE
  5
A7
330
6E
100
AcDbEntity
  8
MEGA_015529
  6
Continuous
 62
     7
100
AcDbSpline
210
0.0
220
0.0
230
1.0
 70
    12
 71
     2
 72
     6
 73
     3
 74
     0
 42
0.0000000050001904
 43
0.0000000001
 40
0.0
 40
0.0
 40
0.0
 40
1.0
 40
1.0
 40
1.0
 10
54.04939726704732
 20
175.2869860635844
 30
0.0
 41
1.0
 10
54.04939726704734
 20
174.2870241405203
 30
0.0
 41
0.7071337046208889
 10
55.04935919011148
 20
174.2870241405203
 30
0.0
 41
1.0
  0
SPLINE
  5
A8
330
6E
100
AcDbEntity
  8
MEGA_015529
  6
Continuous
 62
     7
100
AcDbSpline
210
0.0
220
0.0
230
1.0
 70
    12
 71
     2
 72
     6
 73
     3
 74
     0
 42
0.0000000098945754
 43
0.0000000001
 40
0.0
 40
0.0
 40
0.0
 40
1.0
 40
1.0
 40
1.0
 10
55.11052341996837
 20
215.4155278722513
 30
0.0
 41
1.0
 10
54.11921220937355
 20
215.4155278722513
 30
0.0
 41
0.7101853756248843
 10
54.1105614969042
 20
215.398226447313
 30
0.0
 41
1.0
  0
LINE
  5
A9
330
6E
100
AcDbEntity
  8
MEGA_015529
  6
Continuous
 62
     7
100
AcDbLine
 10
70.0882330372
 20
191.8258027953
 30
0.0
 11
69.0882711141
 21
191.8258027953
 31
0.0
  0
ARC
  5
AA
330
6E
100
AcDbEntity
  8
MEGA_015529
  6
Continuous
 62
     7
100
AcDbCircle
 10
55.1105995753
 20
175.3482264488
 30
0.0
 40
1.000038081285455
100
AcDbArc
 50
180.0043632124
 51
269.9956367876
  0
LINE
  5
AB
330
6E
100
AcDbEntity
  8
MEGA_015529
  6
Continuous
 62
     7
100
AcDbLine
 10
55.11052342
 20
175.3481502934
 30
0.0
 11
54.1105614969
 21
175.3481502934
 31
0.0
  0
LINE
  5
AC
330
6E
100
AcDbEntity
  8
MEGA_015529
  6
Continuous
 62
     7
100
AcDbLine
 10
71.5881759218
 20
190.3258599107
 30
0.0
 11
71.5881759218
 21
189.3258979876
 31
0.0
  0
SPLINE
  5
AD
330
6E
100
AcDbEntity
  8
MEGA_015529
  6
Continuous
 62
     7
100
AcDbSpline
210
0.0
220
0.0
230
1.0
 70
    12
 71
     2
 72
     6
 73
     3
 74
     0
 42
0.0000000050001904
 43
0.0000000001
 40
0.0
 40
0.0
 40
0.0
 40
1.0
 40
1.0
 40
1.0
 10
179.0993972670473
 20
189.3870622174561
 30
0.0
 41
1.0
 10
179.0993972670473
 20
190.3870241405202
 30
0.0
 41
0.707133704620881
 10
178.0994353439832
 20
190.3870241405203
 30
0.0
 41
1.0
  0
SPLINE
  5
AE
330
6E
100
AcDbEntity
  8
MEGA_015529
  6
Continuous
 62
     7
100
AcDbSpline
210
0.0
220
0.0
230
1.0
 70
    12
 71
     2
 72
     6
 73
     3
 74
     0
 42
0.0000000050001904
 43
0.0000000001
 40
0.0
 40
0.0
 40
0.0
 40
1.0
 40
1.0
 40
1.0
 10
178.0994353439831
 20
174.2870241405202
 30
0.0
 41
1.0
 10
179.0993972670472
 20
174.2870241405202
 30
0.0
 41
0.7071337046208125
 10
179.0993972670473
 20
175.2869860635844
 30
0.0
 41
1.0
  0
LINE
  5
AF
330
6E
100
AcDbEntity
  8
MEGA_015529
  6
Continuous
 62
     7
100
AcDbLine
 10
55.11052342
 20
175.3481502934
 30
0.0
 11
55.11052342
 21
174.3481883704
 31
0.0
  0
LINE
  5
B0
330
6E
100
AcDbEntity
  8
MEGA_015529
  6
Continuous
 62
     7
100
AcDbLine
 10
178.0382711141
 20
190.3258599107
 30
0.0
 11
178.0382711141
 21
189.3258979876
 31
0.0
  0
ARC
  5
B1
330
6E
100
AcDbEntity
  8
MEGA_015529
  6
Continuous
 62
     7
100
AcDbCircle
 10
178.0381949588
 20
189.3258218323
 30
0.0
 40
1.000038081285443
100
AcDbArc
 50
0.0043632124
 51
89.9956367876
  0
ARC
  5
B2
330
6E
100
AcDbEntity
  8
MEGA_015529
  6
Continuous
 62
     7
100
AcDbCircle
 10
178.0381949588
 20
175.3482264488
 30
0.0
 40
1.00003808128545
100
AcDbArc
 50
270.0043632124
 51
359.9956367876
  0
LINE
  5
B3
330
6E
100
AcDbEntity
  8
MEGA_015529
  6
Continuous
 62
     7
100
AcDbLine
 10
178.0382711141
 20
175.3481502934
 30
0.0
 11
178.0382711141
 21
174.3481883704
 31
0.0
  0
LINE
  5
B4
330
6E
100
AcDbEntity
  8
MEGA_015529
  6
Continuous
 62
     7
100
AcDbLine
 10
179.0382330372
 20
189.3258979876
 30
0.0
 11
178.0382711141
 21
189.3258979876
 31
0.0
  0
LINE
  5
B5
330
6E
100
AcDbEntity
  8
MEGA_015529
  6
Continuous
 62
     7
100
AcDbLine
 10
178.0382711141
 20
175.3481502934
 30
0.0
 11
179.0382330372
 21
175.3481502934
 31
0.0
  0
LINE
  5
B6
330
6E
100
AcDbEntity
  8
MEGA_015529
  6
Continuous
 62
     7
100
AcDbLine
 10
51.8888857403
 20
226.3370241405
 30
0.0
 11
72.3099087938
 21
226.3370241405
 31
0.0
  0
LINE
  5
B7
330
6E
100
AcDbEntity
  8
MEGA_015529
  6
Continuous
 62
     7
100
AcDbLine
 10
51.8888857403
 20
217.4265126138
 30
0.0
 11
72.3099087938
 21
217.4265126138
 31
0.0
  0
LINE
  5
B8
330
6E
100
AcDbEntity
  8
MEGA_015529
  6
Continuous
 62
     7
100
AcDbLine
 10
72.3099087938
 20
217.4265126138
 30
0.0
 11
72.3099087938
 21
226.3370241405
 31
0.0
  0
LINE
  5
B9
330
6E
100
AcDbEntity
  8
MEGA_015529
  6
Continuous
 62
     7
100
AcDbLine
 10
51.8888857403
 20
226.3370241405
 30
0.0
 11
51.8888857403
 21
217.4265126138
 31
0.0
  0
LINE
  5
BA
330
6E
100
AcDbEntity
  8
MEGA_015529
  6
Continuous
 62
     7
100
AcDbLine
 10
50.799397267
 20
217.3369860636
 30
0.0
 11
50.799397267
 21
218.8785241405
 31
0.0
  0
LINE
  5
BB
330
6E
100
AcDbEntity
  8
MEGA_015529
  6
Continuous
 62
     7
100
AcDbLine
 10
50.799397267
 20
217.3369860636
 30
0.0
 11
50.8889238172
 21
217.4265126138
 31
0.0
  0
LINE
  5
BC
330
6E
100
AcDbEntity
  8
MEGA_015529
  6
Continuous
 62
     7
100
AcDbLine
 10
50.8889238172
 20
217.4265126138
 30
0.0
 11
50.8889238172
 21
226.3370241405
 31
0.0
  0
LINE
  5
BD
330
6E
100
AcDbEntity
  8
MEGA_015529
  6
Continuous
 62
     7
100
AcDbLine
 10
73.3098707169
 20
226.3370241405
 30
0.0
 11
73.399397267
 21
226.3370241405
 31
0.0
  0
LINE
  5
BE
330
6E
100
AcDbEntity
  8
MEGA_015529
  6
Continuous
 62
     7
100
AcDbLine
 10
72.3099087938
 20
226.3370241405
 30
0.0
 11
73.3098707169
 21
226.3370241405
 31
0.0
  0
LINE
  5
BF
330
6E
100
AcDbEntity
  8
MEGA_015529
  6
Continuous
 62
     7
100
AcDbLine
 10
50.8889238172
 20
226.3370241405
 30
0.0
 11
51.8888857403
 21
226.3370241405
 31
0.0
  0
LINE
  5
C0
330
6E
100
AcDbEntity
  8
MEGA_015529
  6
Continuous
 62
     7
100
AcDbLine
 10
72.399435344
 20
216.3370241405
 30
0.0
 11
71.1493591901
 21
216.3370241405
 31
0.0
  0
LINE
  5
C1
330
6E
100
AcDbEntity
  8
MEGA_015529
  6
Continuous
 62
     7
100
AcDbLine
 10
72.399435344
 20
216.3370241405
 30
0.0
 11
72.3099087938
 21
216.4265506907
 31
0.0
  0
LINE
  5
C2
330
6E
100
AcDbEntity
  8
MEGA_015529
  6
Continuous
 62
     7
100
AcDbLine
 10
72.3099087938
 20
216.4265506907
 30
0.0
 11
51.8888857403
 21
216.4265506907
 31
0.0
  0
LINE
  5
C3
330
6E
100
AcDbEntity
  8
MEGA_015529
  6
Continuous
 62
     7
100
AcDbLine
 10
51.8888857403
 20
216.4265506907
 30
0.0
 11
51.7993591901
 21
216.3370241405
 31
0.0
  0
LINE
  5
C4
330
6E
100
AcDbEntity
  8
MEGA_015529
  6
Continuous
 62
     7
100
AcDbLine
 10
73.3098707169
 20
217.4265126138
 30
0.0
 11
73.399397267
 21
217.3369860636
 31
0.0
  0
LINE
  5
C5
330
6E
100
AcDbEntity
  8
MEGA_015529
  6
Continuous
 62
     7
100
AcDbLine
 10
73.3098707169
 20
226.3370241405
 30
0.0
 11
73.3098707169
 21
217.4265126138
 31
0.0
  0
SPLINE
  5
C6
330
6E
100
AcDbEntity
  8
MEGA_015529
  6
Continuous
 62
     7
100
AcDbSpline
210
0.0
220
0.0
230
1.0
 70
    12
 71
     2
 72
     6
 73
     3
 74
     0
 42
0.0000000050001904
 43
0.0000000001
 40
0.0
 40
0.0
 40
0.0
 40
1.0
 40
1.0
 40
1.0
 10
72.39943534398314
 20
216.3370241405203
 30
0.0
 41
1.0
 10
73.39939726704733
 20
216.3370241405203
 30
0.0
 41
0.7071337046208823
 10
73.39939726704732
 20
217.3369860635844
 30
0.0
 41
1.0
  0
LINE
  5
C7
330
6E
100
AcDbEntity
  8
MEGA_015529
  6
Continuous
 62
     7
100
AcDbLine
 10
73.3098707169
 20
217.4265126138
 30
0.0
 11
72.3099087938
 21
217.4265126138
 31
0.0
  0
ARC
  5
C8
330
6E
100
AcDbEntity
  8
MEGA_015529
  6
Continuous
 62
     7
100
AcDbCircle
 10
72.3098326385
 20
217.4265887691
 30
0.0
 40
1.000038081285443
100
AcDbArc
 50
270.0043632124
 51
359.9956367876
  0
LINE
  5
C9
330
6E
100
AcDbEntity
  8
MEGA_015529
  6
Continuous
 62
     7
100
AcDbLine
 10
72.3099087938
 20
216.4265506907
 30
0.0
 11
72.3099087938
 21
217.4265126138
 31
0.0
  0
SPLINE
  5
CA
330
6E
100
AcDbEntity
  8
MEGA_015529
  6
Continuous
 62
     7
100
AcDbSpline
210
0.0
220
0.0
230
1.0
 70
    12
 71
     2
 72
     6
 73
     3
 74
     0
 42
0.0000000050001904
 43
0.0000000001
 40
0.0
 40
0.0
 40
0.0
 40
1.0
 40
1.0
 40
1.0
 10
50.7993972670473
 20
217.3369860635844
 30
0.0
 41
1.0
 10
50.79939726704729
 20
216.3370241405202
 30
0.0
 41
0.7071337046208516
 10
51.79935919011151
 20
216.3370241405203
 30
0.0
 41
1.0
  0
LINE
  5
CB
330
6E
100
AcDbEntity
  8
MEGA_015529
  6
Continuous
 62
     7
100
AcDbLine
 10
51.8888857403
 20
216.4265506907
 30
0.0
 11
51.8888857403
 21
217.4265126138
 31
0.0
  0
ARC
  5
CC
330
6E
100
AcDbEntity
  8
MEGA_015529
  6
Continuous
 62
     7
100
AcDbCircle
 10
51.8889618956
 20
217.4265887691
 30
0.0
 40
1.000038081285443
100
AcDbArc
 50
180.0043632124
 51
269.9956367876
  0
LINE
  5
CD
330
6E
100
AcDbEntity
  8
MEGA_015529
  6
Continuous
 62
     7
100
AcDbLine
 10
50.8889238172
 20
217.4265126138
 30
0.0
 11
51.8888857403
 21
217.4265126138
 31
0.0
  0
LINE
  5
CF
330
6E
100
AcDbEntity
  8
MEGA_015529
  6
HIDDEN2
 62
     7
100
AcDbLine
 10
58.5594169351
 20
191.3370241405
 30
0.0
 11
65.639377599
 21
191.3370241405
 31
0.0
  0
LINE
  5
D0
330
6E
100
AcDbEntity
  8
MEGA_015529
  6
HIDDEN2
 62
     7
100
AcDbLine
 10
66.1397266649
 20
191.8370240187
 30
0.0
 11
66.1689786804
 21
233.7374430195
 31
0.0
  0
LINE
  5
D1
330
6E
100
AcDbEntity
  8
MEGA_015529
  6
HIDDEN2
 62
     7
100
AcDbLine
 10
58.0590678692
 20
191.8370240187
 30
0.0
 11
58.0298158537
 21
233.7374430195
 31
0.0
  0
LINE
  5
D2
330
6E
100
AcDbEntity
  8
MEGA_015529
  6
HIDDEN2
 62
     7
100
AcDbLine
 10
66.1397266649
 20
191.8370240187
 30
0.0
 11
58.0590678692
 21
191.8370240187
 31
0.0
  0
LINE
  5
D3
330
6E
100
AcDbEntity
  8
MEGA_015529
  6
HIDDEN2
 62
     7
100
AcDbLine
 10
65.639377599
 20
191.3370241405
 30
0.0
 11
66.1397266649
 21
191.8370240187
 31
0.0
  0
LINE
  5
D4
330
6E
100
AcDbEntity
  8
MEGA_015529
  6
HIDDEN2
 62
     7
100
AcDbLine
 10
58.0590678692
 20
191.8370240187
 30
0.0
 11
58.5594169351
 21
191.3370241405
 31
0.0
  0
ARC
  5
D5
330
6E
100
AcDbEntity
  8
MEGA_015529
  6
HIDDEN2
 62
     7
100
AcDbCircle
 10
66.7689785342
 20
233.7370241405
 30
0.0
 40
0.5999999999999995
100
AcDbArc
 50
90.0
 51
179.96
  0
ARC
  5
D6
330
6E
100
AcDbEntity
  8
MEGA_015529
  6
HIDDEN2
 62
     7
100
AcDbCircle
 10
57.4298159999
 20
233.7370241405
 30
0.0
 40
0.5999999999999996
100
AcDbArc
 50
0.04
 51
90.0
  0
LINE
  5
D7
330
6E
100
AcDbEntity
  8
MEGA_015529
  6
Continuous
 62
     7
100
AcDbLine
 10
69.959397267
 20
234.1170241405
 30
0.0
 11
69.739397267
 21
234.3370241405
 31
0.0
  0
LINE
  5
D8
330
6E
100
AcDbEntity
  8
MEGA_015529
  6
Continuous
 62
     7
100
AcDbLine
 10
54.459397267
 20
234.3370241405
 30
0.0
 11
54.239397267
 21
234.1170241405
 31
0.0
  0
LINE
  5
D9
330
6E
100
AcDbEntity
  8
MEGA_015529
  6
HIDDEN2
 62
     7
100
AcDbLine
 10
50.799397267
 20
218.8785241405
 30
0.0
 11
58.0401893377
 21
218.8785241405
 31
0.0
  0
LINE
  5
DA
330
6E
100
AcDbEntity
  8
MEGA_015529
  6
HIDDEN2
 62
     7
100
AcDbLine
 10
58.0367566236
 20
223.7955241405
 30
0.0
 11
50.799397267
 21
223.7955241405
 31
0.0
  0
LINE
  5
DB
330
6E
100
AcDbEntity
  8
MEGA_015529
  6
HIDDEN2
 62
     7
100
AcDbLine
 10
58.0405673761
 20
218.3370241405
 30
0.0
 11
50.799397267
 21
218.3370241405
 31
0.0
  0
LINE
  5
DC
330
6E
100
AcDbEntity
  8
MEGA_015529
  6
HIDDEN2
 62
     7
100
AcDbLine
 10
58.0363785852
 20
224.3370241405
 30
0.0
 11
50.799397267
 21
224.3370241405
 31
0.0
  0
LINE
  5
DE
330
6E
100
AcDbEntity
  8
DV1_Standard
  6
Continuous
 62
     7
100
AcDbLine
 10
54.098764381
 20
234.0370241405
 30
0.0
 11
54.098764381
 21
226.3370241405
 31
0.0
  0
ENDBLK
  5
E0
330
6E
100
AcDbEntity
  8
0
100
AcDbBlockEnd
  0
BLOCK
  5
E3
330
E2
100
AcDbEntity
  8
0
100
AcDbBlockBegin
  2
_OBLIQUE
 70
     0
 10
0.0
 20
0.0
 30
0.0
  3
_OBLIQUE
  1

  0
LINE
  5
E5
330
E2
100
AcDbEntity
  8
0
  6
ByBlock
 62
     0
370
    -2
100
AcDbLine
 10
-0.5
 20
-0.5
 30
0.0
 11
0.5
 21
0.5
 31
0.0
  0
ENDBLK
  5
E4
330
E2
100
AcDbEntity
  8
0
100
AcDbBlockEnd
  0
BLOCK
  5
E7
330
E6
100
AcDbEntity
  8
0
100
AcDbBlockBegin
  2
_DOT
 70
     0
 10
0.0
 20
0.0
 30
0.0
  3
_DOT
  1

  0
POLYLINE
  5
E9
330
E6
100
AcDbEntity
  8
0
  6
ByBlock
 62
     0
100
AcDb2dPolyline
 66
     1
 10
0.0
 20
0.0
 30
0.0
 70
     1
 40
0.5
 41
0.5
  0
VERTEX
  5
EC
330
E9
100
AcDbEntity
  8
0
  6
ByBlock
 62
     0
100
AcDbVertex
100
AcDb2dVertex
 10
-0.25
 20
0.0
 30
0.0
 42
1.0
  0
VERTEX
  5
ED
330
E9
100
AcDbEntity
  8
0
  6
ByBlock
 62
     0
100
AcDbVertex
100
AcDb2dVertex
 10
0.25
 20
0.0
 30
0.0
 42
1.0
  0
SEQEND
  5
EB
330
E9
100
AcDbEntity
  8
0
  6
ByBlock
 62
     0
  0
LINE
  5
EA
330
E6
100
AcDbEntity
  8
0
  6
ByBlock
 62
     0
370
    -2
100
AcDbLine
 10
-0.5
 20
0.0
 30
0.0
 11
-1.0
 21
0.0
 31
0.0
  0
ENDBLK
  5
E8
330
E6
100
AcDbEntity
  8
0
100
AcDbBlockEnd
  0
BLOCK
  5
F1
330
EE
100
AcDbEntity
  8
0
100
AcDbBlockBegin
  2
_SE_FILLED
 70
     0
 10
0.0
 20
0.0
 30
0.0
  3
_SE_FILLED
  1

  0
SOLID
  5
EF
330
EE
100
AcDbEntity
  8
0
 62
     0
100
AcDbTrace
 10
0.0
 20
0.0
 30
0.0
 11
-1.0
 21
-0.1665
 31
0.0
 12
-1.0
 22
0.1665
 32
0.0
 13
0.0
 23
0.0
 33
0.0
  0
LINE
  5
F0
330
EE
100
AcDbEntity
  8
0
 62
     0
100
AcDbLine
 10
0.0
 20
0.0
 30
0.0
 11
-1.0
 21
0.0
 31
0.0
  0
ENDBLK
  5
F2
330
EE
100
AcDbEntity
  8
0
100
AcDbBlockEnd
  0
BLOCK
  5
FF
330
F7
100
AcDbEntity
  8
0
100
AcDbBlockBegin
  2
DMBLK85
 70
     0
 10
0.0
 20
0.0
 30
0.0
  3
DMBLK85
  1

  0
HATCH
  5
F8
330
F7
100
AcDbEntity
  8
Default
  6
Continuous
 62
     7
100
AcDbHatch
 10
0.0
 20
0.0
 30
0.0
210
0.0
220
0.0
230
1.0
  2
SOLID
 70
     1
 71
     0
 91
        1
 92
        1
 93
        3
 72
     1
 10
189.4106701726887
 20
187.3870241144432
 11
188.9106701683426
 21
190.3870241405203
 72
     1
 10
188.9106701683426
 20
190.3870241405203
 11
188.4106701639964
 21
187.3870241144432
 72
     1
 10
188.4106701639964
 20
187.3870241144432
 11
189.4106701726887
 21
187.3870241144432
 97
        0
 75
     0
 76
     1
 98
        0
  0
HATCH
  5
F9
330
F7
100
AcDbEntity
  8
Default
  6
Continuous
 62
     7
100
AcDbHatch
 10
0.0
 20
0.0
 30
0.0
210
0.0
220
0.0
230
1.0
  2
SOLID
 70
     1
 71
     0
 91
        1
 92
        1
 93
        3
 72
     1
 10
189.4106701726887
 20
177.2870235765113
 11
188.4106701639964
 21
177.2870235765113
 72
     1
 10
188.4106701639964
 20
177.2870235765113
 11
188.9106701683426
 21
174.2870235504343
 72
     1
 10
188.9106701683426
 20
174.2870235504343
 11
189.4106701726887
 21
177.2870235765113
 97
        0
 75
     0
 76
     1
 98
        0
  0
LINE
  5
FA
330
F7
100
AcDbEntity
  8
Default
  6
Continuous
 62
     7
100
AcDbLine
 10
178.099435344
 20
190.3870241405
 30
0.0
 11
190.4106701814
 21
190.3870241405
 31
0.0
  0
LINE
  5
FB
330
F7
100
AcDbEntity
  8
Default
  6
Continuous
 62
     7
100
AcDbLine
 10
178.099435344
 20
174.2870241405
 30
0.0
 11
190.4106701814
 21
174.2870241405
 31
0.0
  0
LINE
  5
FC
330
F7
100
AcDbEntity
  8
Default
  6
Continuous
 62
     7
100
AcDbLine
 10
188.9106701683
 20
190.3870241405
 30
0.0
 11
188.9106701683
 21
174.2870235504
 31
0.0
  0
TEXT
  5
FD
330
F7
100
AcDbEntity
  8
Default
  6
Continuous
 62
     7
100
AcDbText
 10
188.1606701683
 20
182.6559897049
 30
0.0
 40
3.0
  1
16
 50
90.0
  7
SEACAD_seiso_ttf
 11
185.1606701683
 21
182.6559897049
 31
0.0
100
AcDbText
 73
     3
  0
TEXT
  5
FE
330
F7
100
AcDbEntity
  8
Default
  6
Continuous
 62
     7
100
AcDbText
 10
188.1606701683
 20
178.9498761678
 30
0.0
 40
3.0
  1
q
 50
90.0
  7
SEACAD_semeci1_ttf
 11
185.1606701683
 21
178.9498761678
 31
0.0
100
AcDbText
 73
     3
  0
ENDBLK
  5
100
330
F7
100
AcDbEntity
  8
0
100
AcDbBlockEnd
  0
BLOCK
  5
10A
330
102
100
AcDbEntity
  8
0
100
AcDbBlockBegin
  2
DMBLK86
 70
     0
 10
0.0
 20
0.0
 30
0.0
  3
DMBLK86
  1

  0
HATCH
  5
103
330
102
100
AcDbEntity
  8
Default
  6
Continuous
 62
     7
100
AcDbHatch
 10
0.0
 20
0.0
 30
0.0
210
0.0
220
0.0
230
1.0
  2
SOLID
 70
     1
 71
     0
 91
        1
 92
        1
 93
        3
 72
     1
 10
70.39939724097029
 20
258.7780729458117
 11
70.39939724097029
 21
257.7780729371194
 72
     1
 10
70.39939724097029
 20
257.7780729371194
 11
73.39939726704732
 21
258.2780729414656
 72
     1
 10
73.39939726704732
 20
258.2780729414656
 11
70.39939724097029
 21
258.7780729458117
 97
        0
 75
     0
 76
     1
 98
        0
  0
HATCH
  5
104
330
102
100
AcDbEntity
  8
Default
  6
Continuous
 62
     7
100
AcDbHatch
 10
0.0
 20
0.0
 30
0.0
210
0.0
220
0.0
230
1.0
  2
SOLID
 70
     1
 71
     0
 91
        1
 92
        1
 93
        3
 72
     1
 10
53.79939656892792
 20
258.7780729458117
 11
50.79939654285089
 21
258.2780729414656
 72
     1
 10
50.79939654285089
 20
258.2780729414656
 11
53.79939656892792
 21
257.7780729371194
 72
     1
 10
53.79939656892792
 20
257.7780729371194
 11
53.79939656892792
 21
258.7780729458117
 97
        0
 75
     0
 76
     1
 98
        0
  0
LINE
  5
105
330
102
100
AcDbEntity
  8
Default
  6
Continuous
 62
     7
100
AcDbLine
 10
73.399397267
 20
226.3370241405
 30
0.0
 11
73.399397267
 21
259.7780729545
 31
0.0
  0
LINE
  5
106
330
102
100
AcDbEntity
  8
Default
  6
Continuous
 62
     7
100
AcDbLine
 10
50.799397267
 20
225.0662741405
 30
0.0
 11
50.799397267
 21
259.7780729545
 31
0.0
  0
LINE
  5
107
330
102
100
AcDbEntity
  8
Default
  6
Continuous
 62
     7
100
AcDbLine
 10
73.399397267
 20
258.2780729415
 30
0.0
 11
50.7993965429
 21
258.2780729415
 31
0.0
  0
TEXT
  5
108
330
102
100
AcDbEntity
  8
Default
  6
Continuous
 62
     7
100
AcDbText
 10
60.9183627644
 20
259.0280729415
 30
0.0
 40
3.0
  1
22,6
  7
SEACAD_seiso_ttf
 11
60.9183627644
 21
262.0280729415
 31
0.0
100
AcDbText
 73
     3
  0
TEXT
  5
109
330
102
100
AcDbEntity
  8
Default
  6
Continuous
 62
     7
100
AcDbText
 10
57.2122492273
 20
259.0280729415
 30
0.0
 40
3.0
  1
q
  7
SEACAD_semeci1_ttf
 11
57.2122492273
 21
262.0280729415
 31
0.0
100
AcDbText
 73
     3
  0
ENDBLK
  5
10B
330
102
100
AcDbEntity
  8
0
100
AcDbBlockEnd
  0
BLOCK
  5
113
330
10C
100
AcDbEntity
  8
0
100
AcDbBlockBegin
  2
GDimGGroup
 70
     0
 10
0.0
 20
0.0
 30
0.0
  3
GDimGGroup
  1

  0
HATCH
  5
10E
330
10C
100
AcDbEntity
  8
Default
  6
Continuous
 62
     7
100
AcDbHatch
 10
0.0
 20
0.0
 30
0.0
210
0.0
220
0.0
230
1.0
  2
SOLID
 70
     1
 71
     0
 91
        1
 92
        1
 93
        3
 72
     1
 10
57.09876440708287
 20
251.2295563713098
 11
54.09876438100584
 21
250.7295563669636
 72
     1
 10
54.09876438100584
 20
250.7295563669636
 11
57.09876440708287
 21
250.2295563626174
 72
     1
 10
57.09876440708287
 20
250.2295563626174
 11
57.09876440708287
 21
251.2295563713098
 97
        0
 75
     0
 76
     1
 98
        0
  0
LINE
  5
10F
330
10C
100
AcDbEntity
  8
Default
  6
Continuous
 62
     7
100
AcDbLine
 10
54.098764381
 20
234.0370241405
 30
0.0
 11
54.098764381
 21
252.22955638
 31
0.0
  0
LINE
  5
110
330
10C
100
AcDbEntity
  8
Default
  6
Continuous
 62
     7
100
AcDbLine
 10
54.098764381
 20
250.729556367
 30
0.0
 11
62.099397129
 21
250.729556367
 31
0.0
  0
TEXT
  5
111
330
10C
100
AcDbEntity
  8
Default
  6
Continuous
 62
     7
100
AcDbText
 10
57.9950005431
 20
251.479556367
 30
0.0
 40
3.0
  1
O
  7
SEACAD_semeci1_ttf
 11
57.9950005431
 21
254.479556367
 31
0.0
100
AcDbText
 73
     3
  0
TEXT
  5
112
330
10C
100
AcDbEntity
  8
Default
  6
Continuous
 62
     7
100
AcDbText
 10
63.1356118968
 20
251.479556367
 30
0.0
 40
3.0
  1
16
  7
SEACAD_seiso_ttf
 11
63.1356118968
 21
254.479556367
 31
0.0
100
AcDbText
 73
     3
  0
ENDBLK
  5
114
330
10C
100
AcDbEntity
  8
0
100
AcDbBlockEnd
  0
BLOCK
  5
11D
330
116
100
AcDbEntity
  8
0
100
AcDbBlockBegin
  2
DMBLK87
 70
     0
 10
0.0
 20
0.0
 30
0.0
  3
DMBLK87
  1

  0
HATCH
  5
117
330
116
100
AcDbEntity
  8
Default
  6
Continuous
 62
     7
100
AcDbHatch
 10
0.0
 20
0.0
 30
0.0
210
0.0
220
0.0
230
1.0
  2
SOLID
 70
     1
 71
     0
 91
        1
 92
        1
 93
        3
 72
     1
 10
57.04939729312435
 20
153.0623315307369
 11
57.04939729312435
 21
154.0623315394292
 72
     1
 10
57.04939729312435
 20
154.0623315394292
 11
54.04939726704732
 21
153.562331535083
 72
     1
 10
54.04939726704732
 20
153.562331535083
 11
57.04939729312435
 21
153.0623315307369
 97
        0
 75
     0
 76
     1
 98
        0
  0
HATCH
  5
118
330
116
100
AcDbEntity
  8
Default
  6
Continuous
 62
     7
100
AcDbHatch
 10
0.0
 20
0.0
 30
0.0
210
0.0
220
0.0
230
1.0
  2
SOLID
 70
     1
 71
     0
 91
        1
 92
        1
 93
        3
 72
     1
 10
176.0993906367757
 20
153.0623315307369
 11
179.0993906628527
 21
153.562331535083
 72
     1
 10
179.0993906628527
 20
153.562331535083
 11
176.0993906367757
 21
154.0623315394292
 72
     1
 10
176.0993906367757
 20
154.0623315394292
 11
176.0993906367757
 21
153.0623315307369
 97
        0
 75
     0
 76
     1
 98
        0
  0
LINE
  5
119
330
116
100
AcDbEntity
  8
Default
  6
Continuous
 62
     7
100
AcDbLine
 10
54.049397267
 20
175.2869877593
 30
0.0
 11
54.049397267
 21
152.062331522
 31
0.0
  0
LINE
  5
11A
330
116
100
AcDbEntity
  8
Default
  6
Continuous
 62
     7
100
AcDbLine
 10
179.099397267
 20
175.2869865181
 30
0.0
 11
179.099397267
 21
152.062331522
 31
0.0
  0
LINE
  5
11B
330
116
100
AcDbEntity
  8
Default
  6
Continuous
 62
     7
100
AcDbLine
 10
54.049397267
 20
153.5623315351
 30
0.0
 11
179.0993906629
 21
153.5623315351
 31
0.0
  0
TEXT
  5
11C
330
116
100
AcDbEntity
  8
Default
  6
Continuous
 62
     7
100
AcDbText
 10
114.1880303286
 20
154.3123315351
 30
0.0
 40
3.0
  1
125
  7
SEACAD_seiso_ttf
 11
114.1880303286
 21
157.3123315351
 31
0.0
100
AcDbText
 73
     3
  0
ENDBLK
  5
11E
330
116
100
AcDbEntity
  8
0
100
AcDbBlockEnd
  0
BLOCK
  5
128
330
120
100
AcDbEntity
  8
0
100
AcDbBlockBegin
  2
DMBLK88
 70
     0
 10
0.0
 20
0.0
 30
0.0
  3
DMBLK88
  1

  0
HATCH
  5
121
330
120
100
AcDbEntity
  8
Default
  6
Continuous
 62
     7
100
AcDbHatch
 10
0.0
 20
0.0
 30
0.0
210
0.0
220
0.0
230
1.0
  2
SOLID
 70
     1
 71
     0
 91
        1
 92
        1
 93
        3
 72
     1
 10
67.1493972409703
 20
162.2927403482666
 11
70.14939726704733
 21
162.7927403526127
 72
     1
 10
70.14939726704733
 20
162.7927403526127
 11
67.1493972409703
 21
163.2927403569589
 72
     1
 10
67.1493972409703
 20
163.2927403569589
 11
67.1493972409703
 21
162.2927403482666
 97
        0
 75
     0
 76
     1
 98
        0
  0
HATCH
  5
122
330
120
100
AcDbEntity
  8
Default
  6
Continuous
 62
     7
100
AcDbHatch
 10
0.0
 20
0.0
 30
0.0
210
0.0
220
0.0
230
1.0
  2
SOLID
 70
     1
 71
     0
 91
        1
 92
        1
 93
        3
 72
     1
 10
57.04939670303838
 20
162.2927403482666
 11
57.04939670303838
 21
163.2927403569589
 72
     1
 10
57.04939670303838
 20
163.2927403569589
 11
54.04939667696135
 21
162.7927403526127
 72
     1
 10
54.04939667696135
 20
162.7927403526127
 11
57.04939670303838
 21
162.2927403482666
 97
        0
 75
     0
 76
     1
 98
        0
  0
LINE
  5
123
330
120
100
AcDbEntity
  8
Default
  6
Continuous
 62
     7
100
AcDbLine
 10
70.149397267
 20
191.886967011
 30
0.0
 11
70.149397267
 21
161.2927403396
 31
0.0
  0
LINE
  5
124
330
120
100
AcDbEntity
  8
Default
  6
Continuous
 62
     7
100
AcDbLine
 10
54.049397267
 20
175.2869877593
 30
0.0
 11
54.049397267
 21
161.2927403396
 31
0.0
  0
LINE
  5
125
330
120
100
AcDbEntity
  8
Default
  6
Continuous
 62
     7
100
AcDbLine
 10
70.149397267
 20
162.7927403526
 30
0.0
 11
54.049396677
 21
162.7927403526
 31
0.0
  0
TEXT
  5
126
330
120
100
AcDbEntity
  8
Default
  6
Continuous
 62
     7
100
AcDbText
 10
62.4183628315
 20
163.5427403526
 30
0.0
 40
3.0
  1
16
  7
SEACAD_seiso_ttf
 11
62.4183628315
 21
166.5427403526
 31
0.0
100
AcDbText
 73
     3
  0
TEXT
  5
127
330
120
100
AcDbEntity
  8
Default
  6
Continuous
 62
     7
100
AcDbText
 10
58.7122492944
 20
163.5427403526
 30
0.0
 40
3.0
  1
q
  7
SEACAD_semeci1_ttf
 11
58.7122492944
 21
166.5427403526
 31
0.0
100
AcDbText
 73
     3
  0
ENDBLK
  5
129
330
120
100
AcDbEntity
  8
0
100
AcDbBlockEnd
  0
BLOCK
  5
132
330
12B
100
AcDbEntity
  8
0
100
AcDbBlockBegin
  2
DMBLK89
 70
     0
 10
0.0
 20
0.0
 30
0.0
  3
DMBLK89
  1

  0
HATCH
  5
12C
330
12B
100
AcDbEntity
  8
Default
  6
Continuous
 62
     7
100
AcDbHatch
 10
0.0
 20
0.0
 30
0.0
210
0.0
220
0.0
230
1.0
  2
SOLID
 70
     1
 71
     0
 91
        1
 92
        1
 93
        3
 72
     1
 10
43.80168434685893
 20
223.3370241144432
 11
44.80168435555127
 21
223.3370241144432
 72
     1
 10
44.80168435555127
 20
223.3370241144432
 11
44.3016843512051
 21
226.3370241405203
 72
     1
 10
44.3016843512051
 20
226.3370241405203
 11
43.80168434685893
 21
223.3370241144432
 97
        0
 75
     0
 76
     1
 98
        0
  0
HATCH
  5
12D
330
12B
100
AcDbEntity
  8
Default
  6
Continuous
 62
     7
100
AcDbHatch
 10
0.0
 20
0.0
 30
0.0
210
0.0
220
0.0
230
1.0
  2
SOLID
 70
     1
 71
     0
 91
        1
 92
        1
 93
        3
 72
     1
 10
43.80168434685893
 20
177.287025972618
 11
44.3016843512051
 21
174.287025946541
 72
     1
 10
44.3016843512051
 20
174.287025946541
 11
44.80168435555127
 21
177.287025972618
 72
     1
 10
44.80168435555127
 20
177.287025972618
 11
43.80168434685893
 21
177.287025972618
 97
        0
 75
     0
 76
     1
 98
        0
  0
LINE
  5
12E
330
12B
100
AcDbEntity
  8
Default
  6
Continuous
 62
     7
100
AcDbLine
 10
72.3099087938
 20
226.3370241405
 30
0.0
 11
42.8016843382
 21
226.3370241405
 31
0.0
  0
LINE
  5
12F
330
12B
100
AcDbEntity
  8
Default
  6
Continuous
 62
     7
100
AcDbLine
 10
55.0493591901
 20
174.2870241405
 30
0.0
 11
42.8016843382
 21
174.2870241405
 31
0.0
  0
LINE
  5
130
330
12B
100
AcDbEntity
  8
Default
  6
Continuous
 62
     7
100
AcDbLine
 10
44.3016843512
 20
226.3370241405
 30
0.0
 11
44.3016843512
 21
174.2870259465
 31
0.0
  0
TEXT
  5
131
330
12B
100
AcDbEntity
  8
Default
  6
Continuous
 62
     7
100
AcDbText
 10
43.5516843512
 20
198.5392977708
 30
0.0
 40
3.0
  1
52
 50
90.0
  7
SEACAD_seiso_ttf
 11
40.5516843512
 21
198.5392977708
 31
0.0
100
AcDbText
 73
     3
  0
ENDBLK
  5
133
330
12B
100
AcDbEntity
  8
0
100
AcDbBlockEnd
  0
BLOCK
  5
13D
330
135
100
AcDbEntity
  8
0
100
AcDbBlockBegin
  2
DMBLK90
 70
     0
 10
0.0
 20
0.0
 30
0.0
  3
DMBLK90
  1

  0
HATCH
  5
136
330
135
100
AcDbEntity
  8
Default
  6
Continuous
 62
     7
100
AcDbHatch
 10
0.0
 20
0.0
 30
0.0
210
0.0
220
0.0
230
1.0
  2
SOLID
 70
     1
 71
     0
 91
        1
 92
        1
 93
        3
 72
     1
 10
55.02981582762607
 20
242.8307936727329
 11
55.02981582762607
 21
241.8307936640406
 72
     1
 10
55.02981582762607
 20
241.8307936640406
 11
58.02981585370311
 21
242.3307936683867
 72
     1
 10
58.02981585370311
 20
242.3307936683867
 11
55.02981582762607
 21
242.8307936727329
 97
        0
 75
     0
 76
     1
 98
        0
  0
HATCH
  5
137
330
135
100
AcDbEntity
  8
Default
  6
Continuous
 62
     7
100
AcDbHatch
 10
0.0
 20
0.0
 30
0.0
210
0.0
220
0.0
230
1.0
  2
SOLID
 70
     1
 71
     0
 91
        1
 92
        1
 93
        3
 72
     1
 10
69.16897870646856
 20
242.8307936727329
 11
66.16897868039153
 21
242.3307936683867
 72
     1
 10
66.16897868039153
 20
242.3307936683867
 11
69.16897870646856
 21
241.8307936640406
 72
     1
 10
69.16897870646856
 20
241.8307936640406
 11
69.16897870646856
 21
242.8307936727329
 97
        0
 75
     0
 76
     1
 98
        0
  0
LINE
  5
138
330
135
100
AcDbEntity
  8
Default
  6
Continuous
 62
     7
100
AcDbLine
 10
58.0298158537
 20
233.7374430195
 30
0.0
 11
58.0298158537
 21
243.8307936814
 31
0.0
  0
LINE
  5
139
330
135
100
AcDbEntity
  8
Default
  6
Continuous
 62
     7
100
AcDbLine
 10
66.1689786804
 20
233.7374430195
 30
0.0
 11
66.1689786804
 21
243.8307936814
 31
0.0
  0
LINE
  5
13A
330
135
100
AcDbEntity
  8
Default
  6
Continuous
 62
     7
100
AcDbLine
 10
52.0298158015
 20
242.3307936684
 30
0.0
 11
72.1689782302
 21
242.3307936684
 31
0.0
  0
TEXT
  5
13B
330
135
100
AcDbEntity
  8
Default
  6
Continuous
 62
     7
100
AcDbText
 10
62.1115451592
 20
243.0807936684
 30
0.0
 40
3.0
  1
8,1
  7
SEACAD_seiso_ttf
 11
62.1115451592
 21
246.0807936684
 31
0.0
100
AcDbText
 73
     3
  0
TEXT
  5
13C
330
135
100
AcDbEntity
  8
Default
  6
Continuous
 62
     7
100
AcDbText
 10
58.4054316221
 20
243.0807936684
 30
0.0
 40
3.0
  1
q
  7
SEACAD_semeci1_ttf
 11
58.4054316221
 21
246.0807936684
 31
0.0
100
AcDbText
 73
     3
  0
ENDBLK
  5
13E
330
135
100
AcDbEntity
  8
0
100
AcDbBlockEnd
  0
BLOCK
  5
147
330
140
100
AcDbEntity
  8
0
100
AcDbBlockBegin
  2
DMBLK91
 70
     0
 10
0.0
 20
0.0
 30
0.0
  3
DMBLK91
  1

  0
HATCH
  5
141
330
140
100
AcDbEntity
  8
Default
  6
Continuous
 62
     7
100
AcDbHatch
 10
0.0
 20
0.0
 30
0.0
210
0.0
220
0.0
230
1.0
  2
SOLID
 70
     1
 71
     0
 91
        1
 92
        1
 93
        3
 72
     1
 10
43.80168434685893
 20
223.3370241144432
 11
44.80168435555127
 21
223.3370241144432
 72
     1
 10
44.80168435555127
 20
223.3370241144432
 11
44.3016843512051
 21
226.3370241405203
 72
     1
 10
44.3016843512051
 20
226.3370241405203
 11
43.80168434685893
 21
223.3370241144432
 97
        0
 75
     0
 76
     1
 98
        0
  0
HATCH
  5
142
330
140
100
AcDbEntity
  8
Default
  6
Continuous
 62
     7
100
AcDbHatch
 10
0.0
 20
0.0
 30
0.0
210
0.0
220
0.0
230
1.0
  2
SOLID
 70
     1
 71
     0
 91
        1
 92
        1
 93
        3
 72
     1
 10
43.80168434685893
 20
237.3370241665973
 11
44.3016843512051
 21
234.3370241405203
 72
     1
 10
44.3016843512051
 20
234.3370241405203
 11
44.80168435555127
 21
237.3370241665973
 72
     1
 10
44.80168435555127
 20
237.3370241665973
 11
43.80168434685893
 21
237.3370241665973
 97
        0
 75
     0
 76
     1
 98
        0
  0
LINE
  5
143
330
140
100
AcDbEntity
  8
Default
  6
Continuous
 62
     7
100
AcDbLine
 10
72.3099087938
 20
226.3370241405
 30
0.0
 11
42.8016843382
 21
226.3370241405
 31
0.0
  0
LINE
  5
144
330
140
100
AcDbEntity
  8
Default
  6
Continuous
 62
     7
100
AcDbLine
 10
54.459397267
 20
234.3370241405
 30
0.0
 11
42.8016843382
 21
234.3370241405
 31
0.0
  0
LINE
  5
145
330
140
100
AcDbEntity
  8
Default
  6
Continuous
 62
     7
100
AcDbLine
 10
44.3016843512
 20
220.3370240884
 30
0.0
 11
44.3016843512
 21
240.3370245727
 31
0.0
  0
TEXT
  5
146
330
140
100
AcDbEntity
  8
Default
  6
Continuous
 62
     7
100
AcDbText
 10
43.5516843512
 20
229.382478876
 30
0.0
 40
3.0
  1
8
 50
90.0
  7
SEACAD_seiso_ttf
 11
40.5516843512
 21
229.382478876
 31
0.0
100
AcDbText
 73
     3
  0
ENDBLK
  5
148
330
140
100
AcDbEntity
  8
0
100
AcDbBlockEnd
  0
ENDSEC
  0
SECTION
  2
ENTITIES
  0
INSERT
  5
5F
330
1F
100
AcDbEntity
  8
Default
100
AcDbBlockReference
  2
SEANNOT_GROUP
 10
0.0
 20
0.0
 30
0.0
  0
INSERT
  5
65
330
1F
100
AcDbEntity
  8
Default
100
AcDbBlockReference
  2
SEANNOT_GROUP1
 10
0.0
 20
0.0
 30
0.0
  0
INSERT
  5
6A
330
1F
100
AcDbEntity
  8
Default
100
AcDbBlockReference
  2
SEANNOT_GROUP2
 10
0.0
 20
0.0
 30
0.0
  0
INSERT
  5
6F
330
1F
100
AcDbEntity
  8
Default
100
AcDbBlockReference
  2
SE
 10
0.0
 20
0.0
 30
0.0
  0
DIMENSION
  5
F5
330
1F
100
AcDbEntity
  8
Default
  6
Continuous
 62
     7
100
AcDbDimension
  2
DMBLK85
 10
188.9106701683
 20
190.3870241405
 30
0.0
 11
188.9106701683
 21
182.3370238455
 31
0.0
 70
   161
  1
\A1;{\Fsemeca1.ttf;q} <>
 71
     5
 42
-1.0
  3
DIN
100
AcDbAlignedDimension
 13
178.099435344
 23
190.3870241405
 33
0.0
 14
178.099435344
 24
174.2870241405
 34
0.0
  0
DIMENSION
  5
101
330
1F
100
AcDbEntity
  8
Default
  6
Continuous
 62
     7
100
AcDbDimension
  2
DMBLK86
 10
50.799397267
 20
258.2780729415
 30
0.0
 11
62.0993969049
 21
258.2780729415
 31
0.0
 70
   160
  1
\A1;{\Fsemeca1.ttf;q} <>
 71
     5
 42
-1.0
  3
DIN
100
AcDbAlignedDimension
 13
73.399397267
 23
226.3370241405
 33
0.0
 14
50.799397267
 24
225.0662741405
 34
0.0
100
AcDbRotatedDimension
1001
ACAD
1000
DSTYLE
1002
{
1070
   271
1070
     2
1070
   272
1070
     2
1070
     0
1002
}
  0
INSERT
  5
10D
330
1F
100
AcDbEntity
  8
Default
100
AcDbBlockReference
  2
GDimGGroup
 10
0.0
 20
0.0
 30
0.0
  0
DIMENSION
  5
115
330
1F
100
AcDbEntity
  8
Default
  6
Continuous
 62
     7
100
AcDbDimension
  2
DMBLK87
 10
179.099397267
 20
153.5623315351
 30
0.0
 11
116.574393965
 21
153.5623315351
 31
0.0
 70
   160
  1
\A1;<>
 71
     5
 42
-1.0
  3
DIN
100
AcDbAlignedDimension
 13
54.049397267
 23
215.3370622175
 33
0.0
 14
179.099397267
 24
189.3870622175
 34
0.0
100
AcDbRotatedDimension
1001
ACAD
1000
DSTYLE
1002
{
1070
   271
1070
     1
1070
   272
1070
     1
1070
     0
1002
}
  0
DIMENSION
  5
11F
330
1F
100
AcDbEntity
  8
Default
  6
Continuous
 62
     7
100
AcDbDimension
  2
DMBLK88
 10
54.049397267
 20
162.7927403526
 30
0.0
 11
62.099396972
 21
162.7927403526
 31
0.0
 70
   160
  1
\A1;{\Fsemeca1.ttf;q} <>
 71
     5
 42
-1.0
  3
DIN
100
AcDbAlignedDimension
 13
70.149397267
 23
215.3370622175
 33
0.0
 14
54.049397267
 24
215.3370622175
 34
0.0
100
AcDbRotatedDimension
  0
DIMENSION
  5
12A
330
1F
100
AcDbEntity
  8
Default
  6
Continuous
 62
     7
100
AcDbDimension
  2
DMBLK89
 10
44.3016843512
 20
174.2870241405
 30
0.0
 11
44.3016843512
 21
200.3120250435
 31
0.0
 70
   160
  1
\A1;<>
 71
     5
 42
-1.0
  3
DIN
100
AcDbAlignedDimension
 13
72.3099087938
 23
226.3370241405
 33
0.0
 14
55.0493591901
 24
174.2870241405
 34
0.0
 50
90.0
100
AcDbRotatedDimension
1001
ACAD
1000
DSTYLE
1002
{
1070
   271
1070
     1
1070
   272
1070
     1
1070
     0
1002
}
  0
DIMENSION
  5
134
330
1F
100
AcDbEntity
  8
Default
  6
Continuous
 62
     7
100
AcDbDimension
  2
DMBLK90
 10
58.0298158537
 20
242.3307936684
 30
0.0
 11
62.0993974815
 21
242.3307936684
 31
0.0
 70
   161
  1
\A1;{\Fsemeca1.ttf;q} <>
 71
     5
 42
-1.0
  3
DIN
100
AcDbAlignedDimension
 13
58.0298158537
 23
233.7374430195
 33
0.0
 14
66.1689786804
 24
233.7374430195
 34
0.0
1001
ACAD
1000
DSTYLE
1002
{
1070
   271
1070
     1
1070
   272
1070
     1
1070
     0
1002
}
  0
DIMENSION
  5
13F
330
1F
100
AcDbEntity
  8
Default
  6
Continuous
 62
     7
100
AcDbDimension
  2
DMBLK91
 10
44.3016843512
 20
234.3370241405
 30
0.0
 11
44.3016843512
 21
230.3370243305
 31
0.0
 70
   160
  1
\A1;<>
 71
     5
 42
-1.0
  3
DIN
100
AcDbAlignedDimension
 13
72.3099087938
 23
226.3370241405
 33
0.0
 14
54.459397267
 24
234.3370241405
 34
0.0
 50
90.0
100
AcDbRotatedDimension
1001
ACAD
1000
DSTYLE
1002
{
1070
   271
1070
     2
1070
   272
1070
     2
1070
     0
1002
}
  0
ENDSEC
  0
SECTION
  2
OBJECTS
  0
DICTIONARY
  5
C
330
0
100
AcDbDictionary
281
     1
  3
ACAD_GROUP
350
D
  3
ACAD_LAYOUT
350
1A
  3
ACAD_MLEADERSTYLE
350
14C
  3
ACAD_MLINESTYLE
350
17
  3
ACAD_PLOTSETTINGS
350
19
  3
ACAD_PLOTSTYLENAME
350
E
  3
ACAD_SCALELIST
350
3B
  3
ACAD_TABLESTYLE
350
14B
  3
ACAD_VISUALSTYLE
350
2A
  3
AcDbVariableDictionary
350
149
  0
DICTIONARY
  5
D
102
{ACAD_REACTORS
330
C
102
}
330
C
100
AcDbDictionary
281
     1
  0
DICTIONARY
  5
1A
102
{ACAD_REACTORS
330
C
102
}
330
C
100
AcDbDictionary
281
     1
  3
Layout1
350
1E
  3
Model
350
22
  0
DICTIONARY
  5
14C
102
{ACAD_REACTORS
330
C
102
}
330
C
100
AcDbDictionary
281
     1
  0
DICTIONARY
  5
17
102
{ACAD_REACTORS
330
C
102
}
330
C
100
AcDbDictionary
281
     1
  3
Standard
350
18
  0
DICTIONARY
  5
19
102
{ACAD_REACTORS
330
C
102
}
330
C
100
AcDbDictionary
281
     1
  0
ACDBDICTIONARYWDFLT
  5
E
102
{ACAD_REACTORS
330
C
102
}
330
C
100
AcDbDictionary
281
     1
  3
Normal
350
F
100
AcDbDictionaryWithDefault
340
F
  0
DICTIONARY
  5
3B
102
{ACAD_REACTORS
330
C
102
}
330
C
100
AcDbDictionary
281
     1
  3
A0
350
3C
  3
A1
350
3D
  3
A2
350
3E
  3
A3
350
3F
  3
A4
350
40
  3
A5
350
41
  3
A6
350
42
  3
A7
350
43
  3
A8
350
44
  3
A9
350
45
  3
B0
350
46
  3
B1
350
47
  3
B2
350
48
  3
B3
350
49
  3
B4
350
4A
  3
B5
350
4B
  3
B6
350
4C
  3
B7
350
4D
  3
B8
350
4E
  3
B9
350
4F
  3
C0
350
50
  3
C1
350
51
  3
C2
350
52
  3
C3
350
53
  3
C4
350
54
  3
C5
350
55
  3
C6
350
56
  3
C7
350
57
  3
C8
350
58
  3
C9
350
59
  3
D0
350
5A
  3
D1
350
5B
  3
D2
350
5C
  0
DICTIONARY
  5
14B
102
{ACAD_REACTORS
330
C
102
}
330
C
100
AcDbDictionary
281
     1
  0
DICTIONARY
  5
2A
102
{ACAD_REACTORS
330
C
102
}
330
C
100
AcDbDictionary
281
     1
  3
2dWireframe
350
2F
  3
3D Hidden
350
31
  3
3dWireframe
350
30
  3
Basic
350
32
  3
Brighten
350
36
  3
ColorChange
350
3A
  3
Conceptual
350
34
  3
Dim
350
35
  3
Facepattern
350
39
  3
Flat
350
2B
  3
FlatWithEdges
350
2C
  3
Gouraud
350
2D
  3
GouraudWithEdges
350
2E
  3
Linepattern
350
38
  3
Realistic
350
33
  3
Thicken
350
37
  0
DICTIONARY
  5
149
102
{ACAD_REACTORS
330
C
102
}
330
C
100
AcDbDictionary
281
     1
  3
CANNOSCALE
350
14A
  3
PSOLHEIGHT
350
14E
  3
PSOLWIDTH
350
14D
  0
LAYOUT
  5
1E
102
{ACAD_REACTORS
330
1A
102
}
330
1A
100
AcDbPlotSettings
  1

  2
none_device
  4

  6

 40
0.0
 41
0.0
 42
0.0
 43
0.0
 44
0.0
 45
0.0
 46
0.0
 47
0.0
 48
0.0
 49
0.0
140
0.0
141
0.0
142
1.0
143
1.0
 70
   688
 72
     0
 73
     0
 74
     5
  7

 75
    16
147
1.0
148
0.0
149
0.0
100
AcDbLayout
  1
Layout1
 70
     1
 71
     1
 10
0.0
 20
0.0
 11
210.0
 21
297.0
 12
0.0
 22
0.0
 32
0.0
 14
0.0
 24
0.0
 34
0.0
 15
210.0
 25
297.0
 35
0.0
146
0.0
 13
0.0
 23
0.0
 33
0.0
 16
1.0
 26
0.0
 36
0.0
 17
0.0
 27
1.0
 37
0.0
 76
     0
330
1B
  0
LAYOUT
  5
22
102
{ACAD_REACTORS
330
1A
102
}
330
1A
100
AcDbPlotSettings
  1

  2
none_device
  4

  6

 40
0.0
 41
0.0
 42
0.0
 43
0.0
 44
0.0
 45
0.0
 46
0.0
 47
0.0
 48
0.0
 49
0.0
140
0.0
141
0.0
142
1.0
143
1.0
 70
  1712
 72
     0
 73
     0
 74
     0
  7

 75
     0
147
1.0
148
0.0
149
0.0
100
AcDbLayout
  1
Model
 70
     1
 71
     0
 10
0.0
 20
0.0
 11
210.0
 21
297.0
 12
0.0
 22
0.0
 32
0.0
 14
0.0
 24
0.0
 34
0.0
 15
210.0
 25
297.0
 35
0.0
146
0.0
 13
0.0
 23
0.0
 33
0.0
 16
1.0
 26
0.0
 36
0.0
 17
0.0
 27
1.0
 37
0.0
 76
     0
330
1F
331
29
  0
MLINESTYLE
  5
18
102
{ACAD_REACTORS
330
17
102
}
330
17
100
AcDbMlineStyle
  2
Standard
 70
     0
  3

 62
   256
 51
90.0
 52
90.0
 71
     2
 49
0.5
 62
   256
  6
BYLAYER
 49
-0.5
 62
   256
  6
BYLAYER
  0
ACDBPLACEHOLDER
  5
F
102
{ACAD_REACTORS
330
E
102
}
330
E
  0
SCALE
  5
3C
102
{ACAD_REACTORS
330
3B
102
}
330
3B
100
AcDbScale
 70
     0
300
1:1
140
1.0
141
1.0
290
     1
  0
SCALE
  5
3D
102
{ACAD_REACTORS
330
3B
102
}
330
3B
100
AcDbScale
 70
     0
300
1:2
140
1.0
141
2.0
290
     0
  0
SCALE
  5
3E
102
{ACAD_REACTORS
330
3B
102
}
330
3B
100
AcDbScale
 70
     0
300
1:4
140
1.0
141
4.0
290
     0
  0
SCALE
  5
3F
102
{ACAD_REACTORS
330
3B
102
}
330
3B
100
AcDbScale
 70
     0
300
1:5
140
1.0
141
5.0
290
     0
  0
SCALE
  5
40
102
{ACAD_REACTORS
330
3B
102
}
330
3B
100
AcDbScale
 70
     0
300
1:8
140
1.0
141
8.0
290
     0
  0
SCALE
  5
41
102
{ACAD_REACTORS
330
3B
102
}
330
3B
100
AcDbScale
 70
     0
300
1:10
140
1.0
141
10.0
290
     0
  0
SCALE
  5
42
102
{ACAD_REACTORS
330
3B
102
}
330
3B
100
AcDbScale
 70
     0
300
1:16
140
1.0
141
16.0
290
     0
  0
SCALE
  5
43
102
{ACAD_REACTORS
330
3B
102
}
330
3B
100
AcDbScale
 70
     0
300
1:20
140
1.0
141
20.0
290
     0
  0
SCALE
  5
44
102
{ACAD_REACTORS
330
3B
102
}
330
3B
100
AcDbScale
 70
     0
300
1:30
140
1.0
141
30.0
290
     0
  0
SCALE
  5
45
102
{ACAD_REACTORS
330
3B
102
}
330
3B
100
AcDbScale
 70
     0
300
1:40
140
1.0
141
40.0
290
     0
  0
SCALE
  5
46
102
{ACAD_REACTORS
330
3B
102
}
330
3B
100
AcDbScale
 70
     0
300
1:50
140
1.0
141
50.0
290
     0
  0
SCALE
  5
47
102
{ACAD_REACTORS
330
3B
102
}
330
3B
100
AcDbScale
 70
     0
300
1:100
140
1.0
141
100.0
290
     0
  0
SCALE
  5
48
102
{ACAD_REACTORS
330
3B
102
}
330
3B
100
AcDbScale
 70
     0
300
2:1
140
2.0
141
1.0
290
     0
  0
SCALE
  5
49
102
{ACAD_REACTORS
330
3B
102
}
330
3B
100
AcDbScale
 70
     0
300
4:1
140
4.0
141
1.0
290
     0
  0
SCALE
  5
4A
102
{ACAD_REACTORS
330
3B
102
}
330
3B
100
AcDbScale
 70
     0
300
8:1
140
8.0
141
1.0
290
     0
  0
SCALE
  5
4B
102
{ACAD_REACTORS
330
3B
102
}
330
3B
100
AcDbScale
 70
     0
300
10:1
140
10.0
141
1.0
290
     0
  0
SCALE
  5
4C
102
{ACAD_REACTORS
330
3B
102
}
330
3B
100
AcDbScale
 70
     0
300
100:1
140
100.0
141
1.0
290
     0
  0
SCALE
  5
4D
102
{ACAD_REACTORS
330
3B
102
}
330
3B
100
AcDbScale
 70
     0
300
1/128" = 1'-0"
140
0.0078125
141
12.0
290
     0
  0
SCALE
  5
4E
102
{ACAD_REACTORS
330
3B
102
}
330
3B
100
AcDbScale
 70
     0
300
1/64" = 1'-0"
140
0.015625
141
12.0
290
     0
  0
SCALE
  5
4F
102
{ACAD_REACTORS
330
3B
102
}
330
3B
100
AcDbScale
 70
     0
300
1/32" = 1'-0"
140
0.03125
141
12.0
290
     0
  0
SCALE
  5
50
102
{ACAD_REACTORS
330
3B
102
}
330
3B
100
AcDbScale
 70
     0
300
1/16" = 1'-0"
140
0.0625
141
12.0
290
     0
  0
SCALE
  5
51
102
{ACAD_REACTORS
330
3B
102
}
330
3B
100
AcDbScale
 70
     0
300
3/32" = 1'-0"
140
0.09375
141
12.0
290
     0
  0
SCALE
  5
52
102
{ACAD_REACTORS
330
3B
102
}
330
3B
100
AcDbScale
 70
     0
300
1/8" = 1'-0"
140
0.125
141
12.0
290
     0
  0
SCALE
  5
53
102
{ACAD_REACTORS
330
3B
102
}
330
3B
100
AcDbScale
 70
     0
300
3/16" = 1'-0"
140
0.1875
141
12.0
290
     0
  0
SCALE
  5
54
102
{ACAD_REACTORS
330
3B
102
}
330
3B
100
AcDbScale
 70
     0
300
1/4" = 1'-0"
140
0.25
141
12.0
290
     0
  0
SCALE
  5
55
102
{ACAD_REACTORS
330
3B
102
}
330
3B
100
AcDbScale
 70
     0
300
3/8" = 1'-0"
140
0.375
141
12.0
290
     0
  0
SCALE
  5
56
102
{ACAD_REACTORS
330
3B
102
}
330
3B
100
AcDbScale
 70
     0
300
1/2" = 1'-0"
140
0.5
141
12.0
290
     0
  0
SCALE
  5
57
102
{ACAD_REACTORS
330
3B
102
}
330
3B
100
AcDbScale
 70
     0
300
3/4" = 1'-0"
140
0.75
141
12.0
290
     0
  0
SCALE
  5
58
102
{ACAD_REACTORS
330
3B
102
}
330
3B
100
AcDbScale
 70
     0
300
1" = 1'-0"
140
1.0
141
12.0
290
     0
  0
SCALE
  5
59
102
{ACAD_REACTORS
330
3B
102
}
330
3B
100
AcDbScale
 70
     0
300
1-1/2" = 1'-0"
140
1.5
141
12.0
290
     0
  0
SCALE
  5
5A
102
{ACAD_REACTORS
330
3B
102
}
330
3B
100
AcDbScale
 70
     0
300
3" = 1'-0"
140
3.0
141
12.0
290
     0
  0
SCALE
  5
5B
102
{ACAD_REACTORS
330
3B
102
}
330
3B
100
AcDbScale
 70
     0
300
6" = 1'-0"
140
6.0
141
12.0
290
     0
  0
SCALE
  5
5C
102
{ACAD_REACTORS
330
3B
102
}
330
3B
100
AcDbScale
 70
     0
300
1'-0" = 1'-0"
140
12.0
141
12.0
290
     0
  0
VISUALSTYLE
  5
2F
102
{ACAD_REACTORS
330
2A
102
}
330
2A
100
AcDbVisualStyle
  2
2dWireframe
 70
     4
 71
     0
 72
     2
 73
     0
 90
        0
 40
-0.6
 41
-30.0
 62
     5
 63
     7
 74
     1
 91
        4
 64
     7
 65
   257
 75
     1
175
     1
 42
1.0
 92
        0
 66
   257
 43
1.0
 76
     1
 77
     6
 78
     2
 67
     7
 79
     5
170
     0
171
     0
290
     0
174
     0
 93
        1
 44
0.0
173
     0
291
     0
 45
0.0
1001
ACAD
1000
AcDbSavedByObjectVersion
1070
     0
  0
VISUALSTYLE
  5
31
102
{ACAD_REACTORS
330
2A
102
}
330
2A
100
AcDbVisualStyle
  2
3D Hidden
 70
     6
 71
     1
 72
     2
 73
     2
 90
        0
 40
-0.6
 41
-30.0
 62
     5
 63
     7
 74
     2
 91
        2
 64
     7
 65
   257
 75
     2
175
     1
 42
40.0
 92
        0
 66
   257
 43
1.0
 76
     1
 77
     6
 78
     2
 67
     7
 79
     3
170
     0
171
     0
290
     0
174
     0
 93
        1
 44
0.0
173
     0
291
     0
 45
0.0
1001
ACAD
1000
AcDbSavedByObjectVersion
1070
     0
  0
VISUALSTYLE
  5
30
102
{ACAD_REACTORS
330
2A
102
}
330
2A
100
AcDbVisualStyle
  2
3dWireframe
 70
     5
 71
     0
 72
     2
 73
     0
 90
        0
 40
-0.6
 41
-30.0
 62
     5
 63
     7
 74
     1
 91
        4
 64
     7
 65
   257
 75
     1
175
     1
 42
1.0
 92
        0
 66
   257
 43
1.0
 76
     1
 77
     6
 78
     2
 67
     7
 79
     5
170
     0
171
     0
290
     0
174
     0
 93
        1
 44
0.0
173
     0
291
     0
 45
0.0
1001
ACAD
1000
AcDbSavedByObjectVersion
1070
     0
  0
VISUALSTYLE
  5
32
102
{ACAD_REACTORS
330
2A
102
}
330
2A
100
AcDbVisualStyle
  2
Basic
 70
     7
 71
     1
 72
     0
 73
     1
 90
        0
 40
-0.6
 41
-30.0
 62
     5
 63
     7
 74
     0
 91
        4
 64
     7
 65
   257
 75
     1
175
     1
 42
1.0
 92
        8
 66
     7
 43
1.0
 76
     1
 77
     6
 78
     2
 67
     7
 79
     5
170
     0
171
     0
290
     0
174
     0
 93
        1
 44
0.0
173
     0
291
     1
 45
0.0
1001
ACAD
1000
AcDbSavedByObjectVersion
1070
     0
  0
VISUALSTYLE
  5
36
102
{ACAD_REACTORS
330
2A
102
}
330
2A
100
AcDbVisualStyle
  2
Brighten
 70
    12
 71
     2
 72
     2
 73
     0
 90
        0
 40
-0.6
 41
-30.0
 62
     5
 63
     7
 74
     1
 91
        4
 64
     7
 65
   257
 75
     1
175
     1
 42
1.0
 92
        8
 66
     7
 43
1.0
 76
     1
 77
     6
 78
     2
 67
     7
 79
     5
170
     0
171
     0
290
     0
174
     0
 93
        1
 44
50.0
173
     0
291
     1
 45
0.0
1001
ACAD
1000
AcDbSavedByObjectVersion
1070
     0
  0
VISUALSTYLE
  5
3A
102
{ACAD_REACTORS
330
2A
102
}
330
2A
100
AcDbVisualStyle
  2
ColorChange
 70
    16
 71
     2
 72
     2
 73
     3
 90
        0
 40
-0.6
 41
-30.0
 62
     5
 63
     8
 74
     1
 91
        4
 64
     7
 65
   257
 75
     1
175
     1
 42
1.0
 92
        8
 66
     8
 43
1.0
 76
     1
 77
     6
 78
     2
 67
     7
 79
     5
170
     0
171
     0
290
     0
174
     0
 93
        1
 44
0.0
173
     0
291
     1
 45
0.0
1001
ACAD
1000
AcDbSavedByObjectVersion
1070
     0
  0
VISUALSTYLE
  5
34
102
{ACAD_REACTORS
330
2A
102
}
330
2A
100
AcDbVisualStyle
  2
Conceptual
 70
     9
 71
     3
 72
     2
 73
     0
 90
        0
 40
-0.6
 41
-30.0
 62
     5
 63
     7
 74
     2
 91
        2
 64
     7
 65
   257
 75
     1
175
     1
 42
40.0
 92
        8
 66
     7
 43
1.0
 76
     1
 77
     6
 78
     2
 67
     7
 79
     3
170
     0
171
     0
290
     0
174
     0
 93
        1
 44
0.0
173
     0
291
     0
 45
0.0
1001
ACAD
1000
AcDbSavedByObjectVersion
1070
     0
  0
VISUALSTYLE
  5
35
102
{ACAD_REACTORS
330
2A
102
}
330
2A
100
AcDbVisualStyle
  2
Dim
 70
    11
 71
     2
 72
     2
 73
     0
 90
        0
 40
-0.6
 41
-30.0
 62
     5
 63
     7
 74
     1
 91
        4
 64
     7
 65
   257
 75
     1
175
     1
 42
1.0
 92
        8
 66
     7
 43
1.0
 76
     1
 77
     6
 78
     2
 67
     7
 79
     5
170
     0
171
     0
290
     0
174
     0
 93
        1
 44
-50.0
173
     0
291
     1
 45
0.0
1001
ACAD
1000
AcDbSavedByObjectVersion
1070
     0
  0
VISUALSTYLE
  5
39
102
{ACAD_REACTORS
330
2A
102
}
330
2A
100
AcDbVisualStyle
  2
Facepattern
 70
    15
 71
     2
 72
     2
 73
     0
 90
        0
 40
-0.6
 41
-30.0
 62
     5
 63
     7
 74
     1
 91
        4
 64
     7
 65
   257
 75
     1
175
     1
 42
1.0
 92
        8
 66
     7
 43
1.0
 76
     1
 77
     6
 78
     2
 67
     7
 79
     5
170
     0
171
     0
290
     0
174
     0
 93
        1
 44
0.0
173
     0
291
     1
 45
0.0
1001
ACAD
1000
AcDbSavedByObjectVersion
1070
     0
  0
VISUALSTYLE
  5
2B
102
{ACAD_REACTORS
330
2A
102
}
330
2A
100
AcDbVisualStyle
  2
Flat
 70
     0
 71
     2
 72
     1
 73
     1
 90
        2
 40
-0.6
 41
30.0
 62
     5
 63
     7
 74
     0
 91
        4
 64
     7
 65
   257
 75
     1
175
     1
 42
1.0
 92
        8
 66
     7
 43
1.0
 76
     1
 77
     6
 78
     2
 67
     7
 79
     5
170
     0
171
     0
290
     0
174
     0
 93
       13
 44
0.0
173
     0
291
     1
 45
0.0
1001
ACAD
1000
AcDbSavedByObjectVersion
1070
     0
  0
VISUALSTYLE
  5
2C
102
{ACAD_REACTORS
330
2A
102
}
330
2A
100
AcDbVisualStyle
  2
FlatWithEdges
 70
     1
 71
     2
 72
     1
 73
     1
 90
        2
 40
-0.6
 41
30.0
 62
     5
 63
     7
 74
     1
 91
        4
 64
     7
 65
   257
 75
     1
175
     1
 42
1.0
 92
        0
 66
   257
 43
1.0
 76
     1
 77
     6
 78
     2
 67
     7
 79
     5
170
     0
171
     0
290
     0
174
     0
 93
       13
 44
0.0
173
     0
291
     1
 45
0.0
1001
ACAD
1000
AcDbSavedByObjectVersion
1070
     0
  0
VISUALSTYLE
  5
2D
102
{ACAD_REACTORS
330
2A
102
}
330
2A
100
AcDbVisualStyle
  2
Gouraud
 70
     2
 71
     2
 72
     2
 73
     1
 90
        2
 40
-0.6
 41
30.0
 62
     5
 63
     7
 74
     0
 91
        4
 64
     7
 65
   257
 75
     1
175
     1
 42
1.0
 92
        0
 66
     7
 43
1.0
 76
     1
 77
     6
 78
     2
 67
     7
 79
     5
170
     0
171
     0
290
     0
174
     0
 93
       13
 44
0.0
173
     0
291
     1
 45
0.0
1001
ACAD
1000
AcDbSavedByObjectVersion
1070
     0
  0
VISUALSTYLE
  5
2E
102
{ACAD_REACTORS
330
2A
102
}
330
2A
100
AcDbVisualStyle
  2
GouraudWithEdges
 70
     3
 71
     2
 72
     2
 73
     1
 90
        2
 40
-0.6
 41
30.0
 62
     5
 63
     7
 74
     1
 91
        4
 64
     7
 65
   257
 75
     1
175
     1
 42
1.0
 92
        0
 66
   257
 43
1.0
 76
     1
 77
     6
 78
     2
 67
     7
 79
     5
170
     0
171
     0
290
     0
174
     0
 93
       13
 44
0.0
173
     0
291
     1
 45
0.0
1001
ACAD
1000
AcDbSavedByObjectVersion
1070
     0
  0
VISUALSTYLE
  5
38
102
{ACAD_REACTORS
330
2A
102
}
330
2A
100
AcDbVisualStyle
  2
Linepattern
 70
    14
 71
     2
 72
     2
 73
     0
 90
        0
 40
-0.6
 41
-30.0
 62
     5
 63
     7
 74
     1
 91
        4
 64
     7
 65
   257
 75
     7
175
     7
 42
1.0
 92
        8
 66
     7
 43
1.0
 76
     1
 77
     6
 78
     2
 67
     7
 79
     5
170
     0
171
     0
290
     0
174
     0
 93
        1
 44
0.0
173
     0
291
     1
 45
0.0
1001
ACAD
1000
AcDbSavedByObjectVersion
1070
     0
  0
VISUALSTYLE
  5
33
102
{ACAD_REACTORS
330
2A
102
}
330
2A
100
AcDbVisualStyle
  2
Realistic
 70
     8
 71
     2
 72
     2
 73
     0
 90
        0
 40
-0.6
 41
-30.0
 62
     5
 63
     7
 74
     1
 91
        0
 64
     7
 65
   257
 75
     1
175
     1
 42
1.0
 92
        8
 66
     8
 43
1.0
 76
     1
 77
     6
 78
     2
 67
     7
 79
     5
170
     0
171
     0
290
     0
174
     0
 93
       13
 44
0.0
173
     0
291
     0
 45
0.0
1001
ACAD
1000
AcDbSavedByObjectVersion
1070
     0
  0
VISUALSTYLE
  5
37
102
{ACAD_REACTORS
330
2A
102
}
330
2A
100
AcDbVisualStyle
  2
Thicken
 70
    13
 71
     2
 72
     2
 73
     0
 90
        0
 40
-0.6
 41
-30.0
 62
     5
 63
     7
 74
     1
 91
        4
 64
     7
 65
   257
 75
     1
175
     1
 42
1.0
 92
       12
 66
     7
 43
1.0
 76
     1
 77
     6
 78
     2
 67
     7
 79
     5
170
     0
171
     0
290
     0
174
     0
 93
        1
 44
0.0
173
     0
291
     1
 45
0.0
1001
ACAD
1000
AcDbSavedByObjectVersion
1070
     0
  0
DICTIONARYVAR
  5
14A
102
{ACAD_REACTORS
330
149
102
}
330
149
100
DictionaryVariables
280
     0
  1
1:1
  0
DICTIONARYVAR
  5
14E
102
{ACAD_REACTORS
330
149
102
}
330
149
100
DictionaryVariables
280
     0
  1
80.000000
  0
DICTIONARYVAR
  5
14D
102
{ACAD_REACTORS
330
149
102
}
330
149
100
DictionaryVariables
280
     0
  1
5.000000
  0
ENDSEC
  0
EOF
