  0
SECTION
  2
HEADER
  9
$ACADVER
  1
AC1015
  9
$ACADMAINTVER
 70
     6
  9
$DWGCODEPAGE
  3
ANSI_1252
  9
$INSBASE
 10
0.0
 20
0.0
 30
0.0
  9
$EXTMIN
 10
0.0
 20
0.0
 30
0.0
  9
$EXTMAX
 10
210.0
 20
297.0
 30
0.0
  9
$LIMMIN
 10
0.0
 20
0.0
  9
$LIMMAX
 10
210.0
 20
297.0
  9
$ORTHOMODE
 70
     0
  9
$REGENMODE
 70
     1
  9
$FILLMODE
 70
     1
  9
$QTEXTMODE
 70
     0
  9
$MIRRTEXT
 70
     1
  9
$LTSCALE
 40
1.0
  9
$ATTMODE
 70
     1
  9
$TEXTSIZE
 40
2.5
  9
$TRACEWID
 40
1.0
  9
$TEXTSTYLE
  7
Standard
  9
$CLAYER
  8
0
  9
$CELTYPE
  6
ByLayer
  9
$CECOLOR
 62
   256
  9
$CELTSCALE
 40
1.0
  9
$DISPSILH
 70
     0
  9
$DIMSCALE
 40
1.0
  9
$DIMASZ
 40
2.5
  9
$DIMEXO
 40
0.625
  9
$DIMDLI
 40
3.75
  9
$DIMRND
 40
0.0
  9
$DIMDLE
 40
0.0
  9
$DIMEXE
 40
1.25
  9
$DIMTP
 40
0.0
  9
$DIMTM
 40
0.0
  9
$DIMTXT
 40
2.5
  9
$DIMCEN
 40
2.5
  9
$DIMTSZ
 40
0.0
  9
$DIMTOL
 70
     0
  9
$DIMLIM
 70
     0
  9
$DIMTIH
 70
     0
  9
$DIMTOH
 70
     0
  9
$DIMSE1
 70
     0
  9
$DIMSE2
 70
     0
  9
$DIMTAD
 70
     1
  9
$DIMZIN
 70
     8
  9
$DIMBLK
  1

  9
$DIMASO
 70
     1
  9
$DIMSHO
 70
     1
  9
$DIMPOST
  1

  9
$DIMAPOST
  1

  9
$DIMALT
 70
     0
  9
$DIMALTD
 70
     3
  9
$DIMALTF
 40
0.0393700787
  9
$DIMLFAC
 40
1.0
  9
$DIMTOFL
 70
     1
  9
$DIMTVP
 40
0.0
  9
$DIMTIX
 70
     0
  9
$DIMSOXD
 70
     0
  9
$DIMSAH
 70
     0
  9
$DIMBLK1
  1

  9
$DIMBLK2
  1

  9
$DIMSTYLE
  2
ISO-25
  9
$DIMCLRD
 70
     0
  9
$DIMCLRE
 70
     0
  9
$DIMCLRT
 70
     0
  9
$DIMTFAC
 40
1.0
  9
$DIMGAP
 40
0.625
  9
$DIMJUST
 70
     0
  9
$DIMSD1
 70
     0
  9
$DIMSD2
 70
     0
  9
$DIMTOLJ
 70
     0
  9
$DIMTZIN
 70
     8
  9
$DIMALTZ
 70
     0
  9
$DIMALTTZ
 70
     0
  9
$DIMUPT
 70
     0
  9
$DIMDEC
 70
     2
  9
$DIMTDEC
 70
     2
  9
$DIMALTU
 70
     2
  9
$DIMALTTD
 70
     3
  9
$DIMTXSTY
  7
Standard
  9
$DIMAUNIT
 70
     0
  9
$DIMADEC
 70
     0
  9
$DIMALTRND
 40
0.0
  9
$DIMAZIN
 70
     0
  9
$DIMDSEP
 70
    44
  9
$DIMATFIT
 70
     3
  9
$DIMFRAC
 70
     0
  9
$DIMLDRBLK
  1

  9
$DIMLUNIT
 70
     2
  9
$DIMLWD
 70
    -2
  9
$DIMLWE
 70
    -2
  9
$DIMTMOVE
 70
     0
  9
$LUNITS
 70
     2
  9
$LUPREC
 70
     4
  9
$SKETCHINC
 40
1.0
  9
$FILLETRAD
 40
10.0
  9
$AUNITS
 70
     0
  9
$AUPREC
 70
     0
  9
$MENU
  1
.
  9
$ELEVATION
 40
0.0
  9
$PELEVATION
 40
0.0
  9
$THICKNESS
 40
0.0
  9
$LIMCHECK
 70
     0
  9
$CHAMFERA
 40
10.0
  9
$CHAMFERB
 40
10.0
  9
$CHAMFERC
 40
20.0
  9
$CHAMFERD
 40
0.0
  9
$SKPOLY
 70
     0
  9
$TDCREATE
 40
2455327.376523681
  9
$TDUCREATE
 40
2455327.293190347
  9
$TDUPDATE
 40
2455327.376523692
  9
$TDUUPDATE
 40
2455327.293190359
  9
$TDINDWG
 40
0.0000000116
  9
$TDUSRTIMER
 40
0.0000000116
  9
$USRTIMER
 70
     1
  9
$ANGBASE
 50
0.0
  9
$ANGDIR
 70
     0
  9
$PDMODE
 70
     0
  9
$PDSIZE
 40
0.0
  9
$PLINEWID
 40
0.0
  9
$SPLFRAME
 70
     0
  9
$SPLINETYPE
 70
     6
  9
$SPLINESEGS
 70
     8
  9
$HANDSEED
  5
ED
  9
$SURFTAB1
 70
     6
  9
$SURFTAB2
 70
     6
  9
$SURFTYPE
 70
     6
  9
$SURFU
 70
     6
  9
$SURFV
 70
     6
  9
$UCSBASE
  2

  9
$UCSNAME
  2

  9
$UCSORG
 10
0.0
 20
0.0
 30
0.0
  9
$UCSXDIR
 10
1.0
 20
0.0
 30
0.0
  9
$UCSYDIR
 10
0.0
 20
1.0
 30
0.0
  9
$UCSORTHOREF
  2

  9
$UCSORTHOVIEW
 70
     0
  9
$UCSORGTOP
 10
0.0
 20
0.0
 30
0.0
  9
$UCSORGBOTTOM
 10
0.0
 20
0.0
 30
0.0
  9
$UCSORGLEFT
 10
0.0
 20
0.0
 30
0.0
  9
$UCSORGRIGHT
 10
0.0
 20
0.0
 30
0.0
  9
$UCSORGFRONT
 10
0.0
 20
0.0
 30
0.0
  9
$UCSORGBACK
 10
0.0
 20
0.0
 30
0.0
  9
$PUCSBASE
  2

  9
$PUCSNAME
  2

  9
$PUCSORG
 10
0.0
 20
0.0
 30
0.0
  9
$PUCSXDIR
 10
1.0
 20
0.0
 30
0.0
  9
$PUCSYDIR
 10
0.0
 20
1.0
 30
0.0
  9
$PUCSORTHOREF
  2

  9
$PUCSORTHOVIEW
 70
     0
  9
$PUCSORGTOP
 10
0.0
 20
0.0
 30
0.0
  9
$PUCSORGBOTTOM
 10
0.0
 20
0.0
 30
0.0
  9
$PUCSORGLEFT
 10
0.0
 20
0.0
 30
0.0
  9
$PUCSORGRIGHT
 10
0.0
 20
0.0
 30
0.0
  9
$PUCSORGFRONT
 10
0.0
 20
0.0
 30
0.0
  9
$PUCSORGBACK
 10
0.0
 20
0.0
 30
0.0
  9
$USERI1
 70
     0
  9
$USERI2
 70
     0
  9
$USERI3
 70
     0
  9
$USERI4
 70
     0
  9
$USERI5
 70
     0
  9
$USERR1
 40
0.0
  9
$USERR2
 40
0.0
  9
$USERR3
 40
0.0
  9
$USERR4
 40
0.0
  9
$USERR5
 40
0.0
  9
$WORLDVIEW
 70
     1
  9
$SHADEDGE
 70
     3
  9
$SHADEDIF
 70
    70
  9
$TILEMODE
 70
     1
  9
$MAXACTVP
 70
    64
  9
$PINSBASE
 10
0.0
 20
0.0
 30
0.0
  9
$PLIMCHECK
 70
     0
  9
$PEXTMIN
 10
0.0
 20
0.0
 30
0.0
  9
$PEXTMAX
 10
210.0
 20
297.0
 30
0.0
  9
$PLIMMIN
 10
0.0
 20
0.0
  9
$PLIMMAX
 10
210.0
 20
297.0
  9
$UNITMODE
 70
     0
  9
$VISRETAIN
 70
     1
  9
$PLINEGEN
 70
     0
  9
$PSLTSCALE
 70
     1
  9
$TREEDEPTH
 70
  3020
  9
$CMLSTYLE
  2
Standard
  9
$CMLJUST
 70
     0
  9
$CMLSCALE
 40
20.0
  9
$PROXYGRAPHICS
 70
     1
  9
$MEASUREMENT
 70
     1
  9
$CELWEIGHT
370
    -1
  9
$ENDCAPS
280
     0
  9
$JOINSTYLE
280
     0
  9
$LWDISPLAY
290
     0
  9
$INSUNITS
 70
     4
  9
$HYPERLINKBASE
  1

  9
$STYLESHEET
  1

  9
$XEDIT
290
     1
  9
$CEPSNTYPE
380
     0
  9
$PSTYLEMODE
290
     1
  9
$FINGERPRINTGUID
  2
{377DF618-B01C-43EE-B137-F154850D82C2}
  9
$VERSIONGUID
  2
{FAEB1C32-E019-11D5-929B-00C0DF256EC4}
  9
$EXTNAMES
290
     1
  9
$PSVPSCALE
 40
0.0
  9
$OLESTARTUP
290
     0
  0
ENDSEC
  0
SECTION
  2
CLASSES
  0
CLASS
  1
ACDBDICTIONARYWDFLT
  2
AcDbDictionaryWithDefault
  3
ObjectDBX Classes
 90
        0
280
     0
281
     0
  0
CLASS
  1
VISUALSTYLE
  2
AcDbVisualStyle
  3
ObjectDBX Classes
 90
     4095
280
     0
281
     0
  0
CLASS
  1
SCALE
  2
AcDbScale
  3
ObjectDBX Classes
 90
     1153
280
     0
281
     0
  0
CLASS
  1
DICTIONARYVAR
  2
AcDbDictionaryVar
  3
ObjectDBX Classes
 90
        0
280
     0
281
     0
  0
CLASS
  1
ACDBPLACEHOLDER
  2
AcDbPlaceHolder
  3
ObjectDBX Classes
 90
        0
280
     0
281
     0
  0
CLASS
  1
LAYOUT
  2
AcDbLayout
  3
ObjectDBX Classes
 90
        0
280
     0
281
     0
  0
ENDSEC
  0
SECTION
  2
TABLES
  0
TABLE
  2
VPORT
  5
8
330
0
100
AcDbSymbolTable
 70
     1
  0
VPORT
  5
29
330
8
100
AcDbSymbolTableRecord
100
AcDbViewportTableRecord
  2
*Active
 70
     0
 10
0.0
 20
0.0
 11
1.0
 21
1.0
 12
344.1869158879
 22
148.5
 13
0.0
 23
0.0
 14
10.0
 24
10.0
 15
10.0
 25
10.0
 16
0.0
 26
0.0
 36
1.0
 17
0.0
 27
0.0
 37
0.0
 40
297.0
 41
1.9729729729
 42
50.0
 43
0.0
 44
0.0
 50
0.0
 51
0.0
 71
     0
 72
   100
 73
     1
 74
     3
 75
     0
 76
     0
 77
     0
 78
     0
281
     0
 65
     1
110
0.0
120
0.0
130
0.0
111
1.0
121
0.0
131
0.0
112
0.0
122
1.0
132
0.0
 79
     0
146
0.0
  0
ENDTAB
  0
TABLE
  2
LTYPE
  5
5
330
0
100
AcDbSymbolTable
 70
     2
  0
LTYPE
  5
14
330
5
100
AcDbSymbolTableRecord
100
AcDbLinetypeTableRecord
  2
ByBlock
 70
     0
  3

 72
    65
 73
     0
 40
0.0
  0
LTYPE
  5
15
330
5
100
AcDbSymbolTableRecord
100
AcDbLinetypeTableRecord
  2
ByLayer
 70
     0
  3

 72
    65
 73
     0
 40
0.0
  0
LTYPE
  5
16
330
5
100
AcDbSymbolTableRecord
100
AcDbLinetypeTableRecord
  2
Continuous
 70
     0
  3
Solid line
 72
    65
 73
     0
 40
0.0
  0
LTYPE
  5
63
330
5
100
AcDbSymbolTableRecord
100
AcDbLinetypeTableRecord
  2
CENTER2
 70
     0
  3
Center (.5x) ___ _ ___ _ ___ _ ___ _ ___ _ ___
 72
    65
 73
     4
 40
28.575
 49
19.05
 74
     4
 75
     0
340
0
 46
0.0
 50
0.0
 44
0.0
 45
0.0
 49
-3.175
 74
     4
 75
     0
340
0
 46
0.0
 50
0.0
 44
0.0
 45
0.0
 49
3.175
 74
     4
 75
     0
340
0
 46
0.0
 50
0.0
 44
0.0
 45
0.0
 49
-3.175
 74
     4
 75
     0
340
0
 46
0.0
 50
0.0
 44
0.0
 45
0.0
  0
ENDTAB
  0
TABLE
  2
LAYER
  5
2
330
0
100
AcDbSymbolTable
 70
     4
  0
LAYER
  5
10
330
2
100
AcDbSymbolTableRecord
100
AcDbLayerTableRecord
  2
0
 70
     0
 62
     7
  6
Continuous
370
    -3
390
F
  0
LAYER
  5
5F
330
2
100
AcDbSymbolTableRecord
100
AcDbLayerTableRecord
  2
Default
 70
     0
 62
     7
  6
Continuous
370
    -3
390
F
  0
LAYER
  5
62
330
2
100
AcDbSymbolTableRecord
100
AcDbLayerTableRecord
  2
DV1_Standard
 70
     0
 62
     7
  6
Continuous
370
    -3
390
F
  0
LAYER
  5
67
330
2
100
AcDbSymbolTableRecord
100
AcDbLayerTableRecord
  2
MEGA_001158
 70
     0
 62
     7
  6
Continuous
370
    -3
390
F
  0
ENDTAB
  0
TABLE
  2
STYLE
  5
3
330
0
100
AcDbSymbolTable
 70
     3
  0
STYLE
  5
11
330
3
100
AcDbSymbolTableRecord
100
AcDbTextStyleTableRecord
  2
Standard
 70
     0
 40
0.0
 41
1.0
 50
0.0
 71
     0
 42
2.5
  3
txt
  4

  0
STYLE
  5
5D
330
3
100
AcDbSymbolTableRecord
100
AcDbTextStyleTableRecord
  2
SEACAD_seiso_ttf
 70
     0
 40
0.0
 41
1.0
 50
0.0
 71
     0
 42
0.2
  3
seiso.ttf
  4

  0
STYLE
  5
C1
330
3
100
AcDbSymbolTableRecord
100
AcDbTextStyleTableRecord
  2
SEACAD_semeci1_ttf
 70
     0
 40
0.0
 41
1.0
 50
0.0
 71
     0
 42
0.2
  3
semeci1.ttf
  4

  0
ENDTAB
  0
TABLE
  2
VIEW
  5
6
330
0
100
AcDbSymbolTable
 70
     0
  0
ENDTAB
  0
TABLE
  2
UCS
  5
7
330
0
100
AcDbSymbolTable
 70
     0
  0
ENDTAB
  0
TABLE
  2
APPID
  5
9
330
0
100
AcDbSymbolTable
 70
     1
  0
APPID
  5
12
330
9
100
AcDbSymbolTableRecord
100
AcDbRegAppTableRecord
  2
ACAD
 70
     0
  0
ENDTAB
  0
TABLE
  2
DIMSTYLE
  5
A
330
0
100
AcDbSymbolTable
 70
     3
100
AcDbDimStyleTable
  0
DIMSTYLE
105
27
330
A
100
AcDbSymbolTableRecord
100
AcDbDimStyleTableRecord
  2
ISO-25
 70
     0
 41
2.5
 42
0.625
 43
3.75
 44
1.25
 73
     0
 74
     0
 77
     1
 78
     8
140
2.5
141
2.5
143
0.0393700787
147
0.625
171
     3
172
     1
271
     2
272
     2
274
     3
278
    44
283
     0
284
     8
340
11
  0
DIMSTYLE
105
8B
330
A
100
AcDbSymbolTableRecord
100
AcDbDimStyleTableRecord
  2
Standard
 70
     0
340
11
  0
DIMSTYLE
105
9D
102
{ACAD_REACTORS
330
9E
330
A8
330
B2
330
C6
330
D1
330
DC
102
}
330
A
100
AcDbSymbolTableRecord
100
AcDbDimStyleTableRecord
  2
DIN
 70
     0
 41
3.0
 42
0.0
 44
1.5
 73
     0
 74
     0
 77
     1
 78
     8
140
3.0
141
1.5
147
1.5
172
     1
173
     1
271
     2
272
     2
278
    44
284
     8
340
5D
343
98
344
98
  0
ENDTAB
  0
TABLE
  2
BLOCK_RECORD
  5
1
330
0
100
AcDbSymbolTable
 70
    12
  0
BLOCK_RECORD
  5
1F
330
1
100
AcDbSymbolTableRecord
100
AcDbBlockTableRecord
  2
*Model_Space
340
22
  0
BLOCK_RECORD
  5
1B
330
1
100
AcDbSymbolTableRecord
100
AcDbBlockTableRecord
  2
*Paper_Space
340
1E
  0
BLOCK_RECORD
  5
60
330
1
100
AcDbSymbolTableRecord
100
AcDbBlockTableRecord
  2
SE
340
0
102
{BLKREFS
331
61
102
}
  0
BLOCK_RECORD
  5
8C
330
1
100
AcDbSymbolTableRecord
100
AcDbBlockTableRecord
  2
_OBLIQUE
340
0
  0
BLOCK_RECORD
  5
90
330
1
100
AcDbSymbolTableRecord
100
AcDbBlockTableRecord
  2
_DOT
340
0
  0
BLOCK_RECORD
  5
98
330
1
100
AcDbSymbolTableRecord
100
AcDbBlockTableRecord
  2
_SE_FILLED
340
0
  0
BLOCK_RECORD
  5
9F
330
1
100
AcDbSymbolTableRecord
100
AcDbBlockTableRecord
  2
DMBLK1
340
0
  0
BLOCK_RECORD
  5
A9
330
1
100
AcDbSymbolTableRecord
100
AcDbBlockTableRecord
  2
DMBLK2
340
0
  0
BLOCK_RECORD
  5
B3
330
1
100
AcDbSymbolTableRecord
100
AcDbBlockTableRecord
  2
DMBLK3
340
0
  0
BLOCK_RECORD
  5
BC
330
1
100
AcDbSymbolTableRecord
100
AcDbBlockTableRecord
  2
GDimGGroup
340
0
102
{BLKREFS
331
BD
102
}
  0
BLOCK_RECORD
  5
C7
330
1
100
AcDbSymbolTableRecord
100
AcDbBlockTableRecord
  2
DMBLK4
340
0
  0
BLOCK_RECORD
  5
D2
330
1
100
AcDbSymbolTableRecord
100
AcDbBlockTableRecord
  2
DMBLK5
340
0
  0
BLOCK_RECORD
  5
DD
330
1
100
AcDbSymbolTableRecord
100
AcDbBlockTableRecord
  2
DMBLK6
340
0
  0
ENDTAB
  0
ENDSEC
  0
SECTION
  2
BLOCKS
  0
BLOCK
  5
20
330
1F
100
AcDbEntity
  8
0
100
AcDbBlockBegin
  2
*Model_Space
 70
     0
 10
0.0
 20
0.0
 30
0.0
  3
*Model_Space
  1

  0
ENDBLK
  5
21
330
1F
100
AcDbEntity
  8
0
100
AcDbBlockEnd
  0
BLOCK
  5
1C
330
1B
100
AcDbEntity
 67
     1
  8
0
100
AcDbBlockBegin
  2
*Paper_Space
 70
     0
 10
0.0
 20
0.0
 30
0.0
  3
*Paper_Space
  1

  0
ENDBLK
  5
1D
330
1B
100
AcDbEntity
 67
     1
  8
0
100
AcDbBlockEnd
  0
BLOCK
  5
89
330
60
100
AcDbEntity
  8
0
100
AcDbBlockBegin
  2
SE
 70
     0
 10
0.0
 20
0.0
 30
0.0
  3
SE
  1

  0
LINE
  5
64
330
60
100
AcDbEntity
  8
DV1_Standard
  6
CENTER2
 62
     7
100
AcDbLine
 10
70.9824103963
 20
209.641866784
 30
0.0
 11
70.9824103963
 21
166.391866784
 31
0.0
  0
LINE
  5
65
330
60
100
AcDbEntity
  8
DV1_Standard
  6
CENTER2
 62
     7
100
AcDbLine
 10
176.9824103963
 20
156.641866784
 30
0.0
 11
80.7324103963
 21
156.641866784
 31
0.0
  0
ARC
  5
66
330
60
100
AcDbEntity
  8
DV1_Standard
  6
CENTER2
 62
     7
100
AcDbCircle
 10
80.7324103963
 20
166.391866784
 30
0.0
 40
9.75
100
AcDbArc
 50
180.0
 51
270.0
  0
LINE
  5
68
330
60
100
AcDbEntity
  8
MEGA_001158
  6
Continuous
 62
     7
100
AcDbLine
 10
93.9824103963
 20
166.6418667884
 30
0.0
 11
93.9824103963
 21
146.6418667795
 31
0.0
  0
LINE
  5
69
330
60
100
AcDbEntity
  8
MEGA_001158
  6
Continuous
 62
     7
100
AcDbLine
 10
91.1539832726
 20
164.6418667914
 30
0.0
 11
91.1539832726
 21
148.6418667765
 31
0.0
  0
LINE
  5
6A
330
60
100
AcDbEntity
  8
MEGA_001158
  6
Continuous
 62
     7
100
AcDbLine
 10
78.9824103963
 20
209.341866784
 30
0.0
 11
62.9824103963
 21
209.341866784
 31
0.0
  0
ARC
  5
6B
330
60
100
AcDbEntity
  8
MEGA_001158
  6
Continuous
 62
     7
100
AcDbCircle
 10
49.2746966773
 20
195.6418667843
 30
0.0
 40
10.98632583159748
100
AcDbArc
 50
347.0689613689
 51
12.9310387422
  0
LINE
  5
6C
330
60
100
AcDbEntity
  8
MEGA_001158
  6
Continuous
 62
     7
100
AcDbLine
 10
81.9824103963
 20
200.641866784
 30
0.0
 11
59.9824103963
 21
200.641866784
 31
0.0
  0
LINE
  5
6D
330
60
100
AcDbEntity
  8
MEGA_001158
  6
Continuous
 62
     7
100
AcDbLine
 10
81.9824103963
 20
189.641866784
 30
0.0
 11
59.9824103963
 21
189.641866784
 31
0.0
  0
LINE
  5
6E
330
60
100
AcDbEntity
  8
MEGA_001158
  6
Continuous
 62
     7
100
AcDbLine
 10
78.6824103963
 20
209.641866784
 30
0.0
 11
63.2824103963
 21
209.641866784
 31
0.0
  0
LINE
  5
6F
330
60
100
AcDbEntity
  8
MEGA_001158
  6
Continuous
 62
     7
100
AcDbLine
 10
176.9824103963
 20
165.1418667884
 30
0.0
 11
176.9824103963
 21
148.1418667795
 31
0.0
  0
ARC
  5
70
330
60
100
AcDbEntity
  8
MEGA_001158
  6
Continuous
 62
     7
100
AcDbCircle
 10
175.4824103963
 20
148.1418667795
 30
0.0
 40
1.500000000000001
100
AcDbArc
 50
270.0
 51
0.0
  0
LINE
  5
71
330
60
100
AcDbEntity
  8
MEGA_001158
  6
Continuous
 62
     7
100
AcDbLine
 10
175.4824103963
 20
166.6418667884
 30
0.0
 11
93.9824103963
 21
166.6418667884
 31
0.0
  0
ARC
  5
72
330
60
100
AcDbEntity
  8
MEGA_001158
  6
Continuous
 62
     7
100
AcDbCircle
 10
93.9824103963
 20
165.6418667884
 30
0.0
 40
0.9999999999999991
100
AcDbArc
 50
90.0
 51
160.5287793052
  0
ARC
  5
73
330
60
100
AcDbEntity
  8
MEGA_001158
  6
Continuous
 62
     7
100
AcDbCircle
 10
91.1539832726
 20
166.6418667914
 30
0.0
 40
2.0
100
AcDbArc
 50
270.0
 51
340.5287793052
  0
LINE
  5
74
330
60
100
AcDbEntity
  8
MEGA_001158
  6
Continuous
 62
     7
100
AcDbLine
 10
91.1539832726
 20
164.6418667914
 30
0.0
 11
82.4824103963
 21
164.6418667914
 31
0.0
  0
LINE
  5
75
330
60
100
AcDbEntity
  8
MEGA_001158
  6
Continuous
 62
     7
100
AcDbLine
 10
78.9824103963
 20
200.641866784
 30
0.0
 11
78.9824103963
 21
209.341866784
 31
0.0
  0
LINE
  5
76
330
60
100
AcDbEntity
  8
MEGA_001158
  6
Continuous
 62
     7
100
AcDbLine
 10
78.9824103963
 20
168.141866784
 30
0.0
 11
78.9824103963
 21
187.141866784
 31
0.0
  0
ARC
  5
77
330
60
100
AcDbEntity
  8
MEGA_001158
  6
Continuous
 62
     7
100
AcDbCircle
 10
60.4824103963
 20
187.141866784
 30
0.0
 40
2.500000000000002
100
AcDbArc
 50
0.0
 51
90.0
  0
LINE
  5
78
330
60
100
AcDbEntity
  8
MEGA_001158
  6
Continuous
 62
     7
100
AcDbLine
 10
81.9824103963
 20
189.641866784
 30
0.0
 11
81.9824103963
 21
200.641866784
 31
0.0
  0
LINE
  5
79
330
60
100
AcDbEntity
  8
MEGA_001158
  6
Continuous
 62
     7
100
AcDbLine
 10
59.9824103963
 20
193.1881822155
 30
0.0
 11
59.9824103963
 21
189.641866784
 31
0.0
  0
SPLINE
  5
7A
330
60
100
AcDbEntity
  8
MEGA_001158
  6
Continuous
 62
     7
100
AcDbSpline
210
0.0
220
0.0
230
1.0
 70
     8
 71
     3
 72
    68
 73
    64
 74
     0
 42
0.0000000006223566
 43
0.0000000001
 40
0.0
 40
0.0
 40
0.0
 40
0.0
 40
0.0663023615799013
 40
0.0663023615799013
 40
0.0663023615799013
 40
0.1235789092473358
 40
0.1235789092473358
 40
0.1235789092473358
 40
0.1718437735309634
 40
0.1718437735309634
 40
0.1718437735309634
 40
0.2110767558134448
 40
0.2110767558134448
 40
0.2110767558134448
 40
0.2410604810087986
 40
0.2410604810087986
 40
0.2410604810087986
 40
0.2703045524107846
 40
0.2703045524107846
 40
0.2703045524107846
 40
0.301780454708412
 40
0.301780454708412
 40
0.301780454708412
 40
0.3653219868389852
 40
0.3653219868389852
 40
0.3653219868389852
 40
0.4359086775043794
 40
0.4359086775043794
 40
0.4359086775043794
 40
0.5081438897052302
 40
0.5081438897052302
 40
0.5081438897052302
 40
0.5693841558524994
 40
0.5693841558524994
 40
0.5693841558524994
 40
0.6302403685682586
 40
0.6302403685682586
 40
0.6302403685682586
 40
0.690525389281422
 40
0.690525389281422
 40
0.690525389281422
 40
0.7469741089807344
 40
0.7469741089807344
 40
0.7469741089807344
 40
0.7768715543931983
 40
0.7768715543931983
 40
0.7768715543931983
 40
0.80500456774386
 40
0.80500456774386
 40
0.80500456774386
 40
0.8313402528699699
 40
0.8313402528699699
 40
0.8313402528699699
 40
0.8589292074728969
 40
0.8589292074728969
 40
0.8589292074728969
 40
0.8959929204392504
 40
0.8959929204392504
 40
0.8959929204392504
 40
0.9430164838869629
 40
0.9430164838869629
 40
0.9430164838869629
 40
1.0
 40
1.0
 40
1.0
 40
1.0
 10
62.98241039629815
 20
168.1418667839833
 30
0.0
 10
62.98240988193791
 20
167.7513189428478
 30
0.0
 10
62.98242180006258
 20
167.4229738861613
 30
0.0
 10
62.98240896038078
 20
167.0767356516262
 30
0.0
 10
62.98239786857908
 20
166.777631211421
 30
0.0
 10
62.98236830078244
 20
166.4651736389841
 30
0.0
 10
62.98240761329155
 20
166.1566000210942
 30
0.0
 10
62.98244074051368
 20
165.8965762522833
 30
0.0
 10
62.98252277840204
 20
165.6393104097405
 30
0.0
 10
62.98240218731724
 20
165.381233175867
 30
0.0
 10
62.98230416263689
 20
165.1714503515629
 30
0.0
 10
62.98207224984709
 20
164.9611313963708
 30
0.0
 10
62.98237641263557
 20
164.7509601041252
 30
0.0
 10
62.98260886841472
 20
164.5903371306977
 30
0.0
 10
62.98315443247654
 20
164.4298004034888
 30
0.0
 10
62.98668616738984
 20
164.2692933058795
 30
0.0
 10
62.99013077966881
 20
164.1127456790443
 30
0.0
 10
62.99641605122495
 20
163.9562262380031
 30
0.0
 10
63.00496316198623
 20
163.7998449972042
 30
0.0
 10
63.01416256584319
 20
163.6315291499028
 30
0.0
 10
63.02598221791331
 20
163.4633734019299
 30
0.0
 10
63.04044862023975
 20
163.2954334468864
 30
0.0
 10
63.0696524651223
 20
162.9564070403201
 30
0.0
 10
63.10964259650306
 20
162.6182600534711
 30
0.0
 10
63.159917593356
 20
162.2816588515777
 30
0.0
 10
63.21576682349053
 20
161.9077370382537
 30
0.0
 10
63.28430801941984
 20
161.5357227899663
 30
0.0
 10
63.36575784164264
 20
161.1665293772019
 30
0.0
 10
63.4491098891253
 20
160.7887136124622
 30
0.0
 10
63.54598055446084
 20
160.4138519806096
 30
0.0
 10
63.65661597110095
 20
160.0431196621811
 30
0.0
 10
63.75041153359636
 20
159.7288166351916
 30
0.0
 10
63.854100474082
 20
159.417481541123
 30
0.0
 10
63.96733327235135
 20
159.1096556747931
 30
0.0
 10
64.07985595867197
 20
158.8037602635007
 30
0.0
 10
64.20180317415866
 20
158.501330203424
 30
0.0
 10
64.33293950368021
 20
158.2029412179282
 30
0.0
 10
64.46284499711568
 20
157.9073528898275
 30
0.0
 10
64.60176791738996
 20
157.6157301338424
 30
0.0
 10
64.74946755583036
 20
157.328615189857
 30
0.0
 10
64.88776817166132
 20
157.0597711088103
 30
0.0
 10
65.03376401592287
 20
156.7948793756005
 30
0.0
 10
65.18720015655148
 20
156.5344133850113
 30
0.0
 10
65.26846592596448
 20
156.3964604291795
 30
0.0
 10
65.35181882876643
 20
156.2597489716346
 30
0.0
 10
65.43720422945573
 20
156.1243083100912
 30
0.0
 10
65.51755051270517
 20
155.9968608346679
 30
0.0
 10
65.59969647244843
 20
155.8705385863391
 30
0.0
 10
65.68358007457145
 20
155.7454125535323
 30
0.0
 10
65.7621046217012
 20
155.6282804226793
 30
0.0
 10
65.8421518786129
 20
155.5121965449639
 30
0.0
 10
65.92375150029672
 20
155.397109454453
 30
0.0
 10
66.00923430613491
 20
155.2765455693563
 30
0.0
 10
66.09642074097889
 20
155.1570755995718
 30
0.0
 10
66.18502355394726
 20
155.0390926361762
 30
0.0
 10
66.3040548574213
 20
154.8805912810814
 30
0.0
 10
66.42564242998883
 20
154.724773664466
 30
0.0
 10
66.55125227499049
 20
154.5696157397463
 30
0.0
 10
66.71061630097073
 20
154.3727634026884
 30
0.0
 10
66.87645480419273
 20
154.1769729430231
 30
0.0
 10
67.04037723398615
 20
153.9939147210615
 30
0.0
 10
67.2390196960745
 20
153.7720833587409
 30
0.0
 10
67.43484844669
 20
153.5689490060269
 30
0.0
 10
67.66870189359422
 20
153.3281582812793
 30
0.0
  0
ARC
  5
7B
330
60
100
AcDbEntity
  8
MEGA_001158
  6
Continuous
 62
     7
100
AcDbCircle
 10
82.4861089947
 20
168.1433987936
 30
0.0
 40
3.503698933381292
100
AcDbArc
 50
180.0250528629
 51
224.9749471371
  0
LINE
  5
7C
330
60
100
AcDbEntity
  8
MEGA_001158
  6
Continuous
 62
     7
100
AcDbLine
 10
78.9824103963
 20
209.341866784
 30
0.0
 11
78.6824103963
 21
209.641866784
 31
0.0
  0
SPLINE
  5
7D
330
60
100
AcDbEntity
  8
MEGA_001158
  6
Continuous
 62
     7
100
AcDbSpline
210
0.0
220
0.0
230
1.0
 70
     8
 71
     3
 72
    62
 73
    58
 74
     0
 42
0.0000000006223365
 43
0.0000000001
 40
0.0
 40
0.0
 40
0.0
 40
0.0
 40
0.0578341697839805
 40
0.0578341697839805
 40
0.0578341697839805
 40
0.1061985830510275
 40
0.1061985830510275
 40
0.1061985830510275
 40
0.1450883529153854
 40
0.1450883529153854
 40
0.1450883529153854
 40
0.1783978376773795
 40
0.1783978376773795
 40
0.1783978376773795
 40
0.2131006516997165
 40
0.2131006516997165
 40
0.2131006516997165
 40
0.2492955363483927
 40
0.2492955363483927
 40
0.2492955363483927
 40
0.3259546732082426
 40
0.3259546732082426
 40
0.3259546732082426
 40
0.4061255928640141
 40
0.4061255928640141
 40
0.4061255928640141
 40
0.4875537517191697
 40
0.4875537517191697
 40
0.4875537517191697
 40
0.5568107003036623
 40
0.5568107003036623
 40
0.5568107003036623
 40
0.6253526913671349
 40
0.6253526913671349
 40
0.6253526913671349
 40
0.687710518347359
 40
0.687710518347359
 40
0.687710518347359
 40
0.7430564085809276
 40
0.7430564085809276
 40
0.7430564085809276
 40
0.7695120729120334
 40
0.7695120729120334
 40
0.7695120729120334
 40
0.7996210030493843
 40
0.7996210030493843
 40
0.7996210030493843
 40
0.8381863739652105
 40
0.8381863739652105
 40
0.8381863739652105
 40
0.8843941168085729
 40
0.8843941168085729
 40
0.8843941168085729
 40
0.9383342494970377
 40
0.9383342494970377
 40
0.9383342494970377
 40
1.0
 40
1.0
 40
1.0
 40
1.0
 10
67.66870189359422
 20
153.3281582812793
 30
0.0
 10
67.91313118081045
 20
153.0908748508112
 30
0.0
 10
68.11939729709202
 20
152.8921470261309
 30
0.0
 10
68.34464801389787
 20
152.6907636093478
 30
0.0
 10
68.53301621900893
 20
152.5223546768637
 30
0.0
 10
68.73466094549059
 20
152.3520886062607
 30
0.0
 10
68.93750650319754
 20
152.188604321868
 30
0.0
 10
69.10061438612941
 20
152.0571467941737
 30
0.0
 10
69.26449869649439
 20
151.9300741998059
 30
0.0
 10
69.43127706039986
 20
151.8058610656368
 30
0.0
 10
69.57412443107128
 20
151.6994712486162
 30
0.0
 10
69.71909490758321
 20
151.5951791594239
 30
0.0
 10
69.86565436940295
 20
151.4933783813715
 30
0.0
 10
70.01834438496715
 20
151.3873192965995
 30
0.0
 10
70.17275910003046
 20
151.2839643042151
 30
0.0
 10
70.3289409114869
 20
151.1832981180546
 30
0.0
 10
70.49183786405818
 20
151.0783037221027
 30
0.0
 10
70.65665713470054
 20
150.976234317008
 30
0.0
 10
70.82330643967006
 20
150.877216238846
 30
0.0
 10
71.17626216811787
 20
150.6675004052663
 30
0.0
 10
71.5374269426253
 20
150.4714720107478
 30
0.0
 10
71.9056409649255
 20
150.2897611712468
 30
0.0
 10
72.29072300481238
 20
150.0997260924427
 30
0.0
 10
72.68351494315145
 20
149.9253504000744
 30
0.0
 10
73.08273685924088
 20
149.7671466341655
 30
0.0
 10
73.48821936762882
 20
149.6064619190938
 30
0.0
 10
73.9003351046929
 20
149.4624603233895
 30
0.0
 10
74.31770828679873
 20
149.3359209365841
 30
0.0
 10
74.67269596452662
 20
149.2282956147163
 30
0.0
 10
75.03148686898606
 20
149.1333024248346
 30
0.0
 10
75.3931172468219
 20
149.0507743540772
 30
0.0
 10
75.75101442006601
 20
148.9690982420919
 30
0.0
 10
76.11169274404173
 20
148.8996312162916
 30
0.0
 10
76.47425762323657
 20
148.8421513834421
 30
0.0
 10
76.80411028224383
 20
148.7898576374322
 30
0.0
 10
77.1355244270352
 20
148.7474855895496
 30
0.0
 10
77.4679334453521
 20
148.7152887146767
 30
0.0
 10
77.76296414047641
 20
148.686712274655
 30
0.0
 10
78.05877854793808
 20
148.6661513345114
 30
0.0
 10
78.35493651501058
 20
148.6542689823512
 30
0.0
 10
78.49650178268968
 20
148.6485891474278
 30
0.0
 10
78.63814555019411
 20
148.6448922802908
 30
0.0
 10
78.77978523515506
 20
148.6431309353708
 30
0.0
 10
78.94098396090962
 20
148.6411263661232
 30
0.0
 10
79.10217739875333
 20
148.6416287803169
 30
0.0
 10
79.26346522506562
 20
148.6418467084352
 30
0.0
 10
79.47005260022524
 20
148.6421258441824
 30
0.0
 10
79.67679482970195
 20
148.6419382502791
 30
0.0
 10
79.88299286769599
 20
148.6418615102662
 30
0.0
 10
80.13005248849494
 20
148.6417695629389
 30
0.0
 10
80.37633086614102
 20
148.6418367578354
 30
0.0
 10
80.62528824159945
 20
148.6418640592033
 30
0.0
 10
80.91590606968771
 20
148.6418959291739
 30
0.0
 10
81.21017451980914
 20
148.6418734369519
 30
0.0
 10
81.49179708684696
 20
148.6418654922697
 30
0.0
 10
81.81375526695118
 20
148.6418564097042
 30
0.0
 10
82.11918571801647
 20
148.6418663402668
 30
0.0
 10
82.48241039629814
 20
148.6418667765449
 30
0.0
  0
LINE
  5
7E
330
60
100
AcDbEntity
  8
MEGA_001158
  6
Continuous
 62
     7
100
AcDbLine
 10
63.2824103963
 20
209.641866784
 30
0.0
 11
62.9824103963
 21
209.341866784
 31
0.0
  0
ARC
  5
7F
330
60
100
AcDbEntity
  8
MEGA_001158
  6
Continuous
 62
     7
100
AcDbCircle
 10
82.4834640407
 20
168.1444105319
 30
0.0
 40
3.502543898964658
100
AcDbArc
 50
225.0172361596
 51
269.9827641344
  0
LINE
  5
80
330
60
100
AcDbEntity
  8
MEGA_001158
  6
Continuous
 62
     7
100
AcDbLine
 10
93.9824103963
 20
146.6418667795
 30
0.0
 11
175.4824103963
 21
146.6418667795
 31
0.0
  0
LINE
  5
81
330
60
100
AcDbEntity
  8
MEGA_001158
  6
Continuous
 62
     7
100
AcDbLine
 10
82.4824103963
 20
148.6418667765
 30
0.0
 11
91.1539832726
 21
148.6418667765
 31
0.0
  0
ARC
  5
82
330
60
100
AcDbEntity
  8
MEGA_001158
  6
Continuous
 62
     7
100
AcDbCircle
 10
91.1539832726
 20
146.6418667765
 30
0.0
 40
2.0
100
AcDbArc
 50
19.4712206948
 51
90.0
  0
ARC
  5
83
330
60
100
AcDbEntity
  8
MEGA_001158
  6
Continuous
 62
     7
100
AcDbCircle
 10
93.9824103963
 20
147.6418667795
 30
0.0
 40
1.0
100
AcDbArc
 50
199.4712206948
 51
270.0
  0
LINE
  5
84
330
60
100
AcDbEntity
  8
MEGA_001158
  6
Continuous
 62
     7
100
AcDbLine
 10
62.9824103963
 20
209.341866784
 30
0.0
 11
62.9824103963
 21
200.641866784
 31
0.0
  0
LINE
  5
85
330
60
100
AcDbEntity
  8
MEGA_001158
  6
Continuous
 62
     7
100
AcDbLine
 10
59.9824103963
 20
200.641866784
 30
0.0
 11
59.9824103963
 21
198.0920449937
 31
0.0
  0
ARC
  5
86
330
60
100
AcDbEntity
  8
MEGA_001158
  6
Continuous
 62
     7
100
AcDbCircle
 10
81.4824103963
 20
187.141866784
 30
0.0
 40
2.5
100
AcDbArc
 50
90.0
 51
180.0
  0
ARC
  5
87
330
60
100
AcDbEntity
  8
MEGA_001158
  6
Continuous
 62
     7
100
AcDbCircle
 10
175.4824103963
 20
165.1418667884
 30
0.0
 40
1.500000000000001
100
AcDbArc
 50
0.0
 51
90.0
  0
LINE
  5
88
330
60
100
AcDbEntity
  8
MEGA_001158
  6
Continuous
 62
     7
100
AcDbLine
 10
62.9824103963
 20
187.141866784
 30
0.0
 11
62.9824103963
 21
168.141866784
 31
0.0
  0
ENDBLK
  5
8A
330
60
100
AcDbEntity
  8
0
100
AcDbBlockEnd
  0
BLOCK
  5
8D
330
8C
100
AcDbEntity
  8
0
100
AcDbBlockBegin
  2
_OBLIQUE
 70
     0
 10
0.0
 20
0.0
 30
0.0
  3
_OBLIQUE
  1

  0
LINE
  5
8F
330
8C
100
AcDbEntity
  8
0
  6
ByBlock
 62
     0
370
    -2
100
AcDbLine
 10
-0.5
 20
-0.5
 30
0.0
 11
0.5
 21
0.5
 31
0.0
  0
ENDBLK
  5
8E
330
8C
100
AcDbEntity
  8
0
100
AcDbBlockEnd
  0
BLOCK
  5
91
330
90
100
AcDbEntity
  8
0
100
AcDbBlockBegin
  2
_DOT
 70
     0
 10
0.0
 20
0.0
 30
0.0
  3
_DOT
  1

  0
POLYLINE
  5
93
330
90
100
AcDbEntity
  8
0
  6
ByBlock
 62
     0
100
AcDb2dPolyline
 66
     1
 10
0.0
 20
0.0
 30
0.0
 70
     1
 40
0.5
 41
0.5
  0
VERTEX
  5
96
330
93
100
AcDbEntity
  8
0
  6
ByBlock
 62
     0
100
AcDbVertex
100
AcDb2dVertex
 10
-0.25
 20
0.0
 30
0.0
 42
1.0
  0
VERTEX
  5
97
330
93
100
AcDbEntity
  8
0
  6
ByBlock
 62
     0
100
AcDbVertex
100
AcDb2dVertex
 10
0.25
 20
0.0
 30
0.0
 42
1.0
  0
SEQEND
  5
95
330
93
100
AcDbEntity
  8
0
  6
ByBlock
 62
     0
  0
LINE
  5
94
330
90
100
AcDbEntity
  8
0
  6
ByBlock
 62
     0
370
    -2
100
AcDbLine
 10
-0.5
 20
0.0
 30
0.0
 11
-1.0
 21
0.0
 31
0.0
  0
ENDBLK
  5
92
330
90
100
AcDbEntity
  8
0
100
AcDbBlockEnd
  0
BLOCK
  5
9B
330
98
100
AcDbEntity
  8
0
100
AcDbBlockBegin
  2
_SE_FILLED
 70
     0
 10
0.0
 20
0.0
 30
0.0
  3
_SE_FILLED
  1

  0
SOLID
  5
99
330
98
100
AcDbEntity
  8
0
 62
     0
100
AcDbTrace
 10
0.0
 20
0.0
 30
0.0
 11
-1.0
 21
-0.1665
 31
0.0
 12
-1.0
 22
0.1665
 32
0.0
 13
0.0
 23
0.0
 33
0.0
  0
LINE
  5
9A
330
98
100
AcDbEntity
  8
0
 62
     0
100
AcDbLine
 10
0.0
 20
0.0
 30
0.0
 11
-1.0
 21
0.0
 31
0.0
  0
ENDBLK
  5
9C
330
98
100
AcDbEntity
  8
0
100
AcDbBlockEnd
  0
BLOCK
  5
A6
330
9F
100
AcDbEntity
  8
0
100
AcDbBlockBegin
  2
DMBLK1
 70
     0
 10
0.0
 20
0.0
 30
0.0
  3
DMBLK1
  1

  0
HATCH
  5
A0
330
9F
100
AcDbEntity
  8
Default
  6
Continuous
 62
     7
100
AcDbHatch
 10
0.0
 20
0.0
 30
0.0
210
0.0
220
0.0
230
1.0
  2
SOLID
 70
     1
 71
     0
 91
        1
 92
        1
 93
        3
 72
     1
 10
62.98241042237529
 20
119.3590211036918
 11
62.98241042237529
 21
120.3590211123842
 72
     1
 10
62.98241042237529
 20
120.3590211123842
 11
59.98241039629826
 21
119.859021108038
 72
     1
 10
59.98241039629826
 20
119.859021108038
 11
62.98241042237529
 21
119.3590211036918
 97
        0
 75
     0
 76
     1
 98
        0
  0
HATCH
  5
A1
330
9F
100
AcDbEntity
  8
Default
  6
Continuous
 62
     7
100
AcDbHatch
 10
0.0
 20
0.0
 30
0.0
210
0.0
220
0.0
230
1.0
  2
SOLID
 70
     1
 71
     0
 91
        1
 92
        1
 93
        3
 72
     1
 10
173.982409058919
 20
119.3590211036918
 11
176.9824090849961
 21
119.859021108038
 72
     1
 10
176.9824090849961
 20
119.859021108038
 11
173.982409058919
 21
120.3590211123842
 72
     1
 10
173.982409058919
 20
120.3590211123842
 11
173.982409058919
 21
119.3590211036918
 97
        0
 75
     0
 76
     1
 98
        0
  0
LINE
  5
A2
330
9F
100
AcDbEntity
  8
Default
  6
Continuous
 62
     7
100
AcDbLine
 10
59.9824103963
 20
189.641866784
 30
0.0
 11
59.9824103963
 21
118.359021095
 31
0.0
  0
LINE
  5
A3
330
9F
100
AcDbEntity
  8
Default
  6
Continuous
 62
     7
100
AcDbLine
 10
176.9824103963
 20
148.1418667795
 30
0.0
 11
176.9824103963
 21
118.359021095
 31
0.0
  0
LINE
  5
A4
330
9F
100
AcDbEntity
  8
Default
  6
Continuous
 62
     7
100
AcDbLine
 10
59.9824103963
 20
119.859021108
 30
0.0
 11
176.982409085
 21
119.859021108
 31
0.0
  0
TEXT
  5
A5
330
9F
100
AcDbEntity
  8
Default
  6
Continuous
 62
     7
100
AcDbText
 10
116.3005915588
 20
120.609021108
 30
0.0
 40
3.0
  1
117
  7
SEACAD_seiso_ttf
 11
116.3005915588
 21
123.609021108
 31
0.0
100
AcDbText
 73
     3
  0
ENDBLK
  5
A7
330
9F
100
AcDbEntity
  8
0
100
AcDbBlockEnd
  0
BLOCK
  5
B0
330
A9
100
AcDbEntity
  8
0
100
AcDbBlockBegin
  2
DMBLK2
 70
     0
 10
0.0
 20
0.0
 30
0.0
  3
DMBLK2
  1

  0
HATCH
  5
AA
330
A9
100
AcDbEntity
  8
Default
  6
Continuous
 62
     7
100
AcDbHatch
 10
0.0
 20
0.0
 30
0.0
210
0.0
220
0.0
230
1.0
  2
SOLID
 70
     1
 71
     0
 91
        1
 92
        1
 93
        3
 72
     1
 10
36.92980839886813
 20
197.6418667579062
 11
37.92980840756047
 21
197.6418667579062
 72
     1
 10
37.92980840756047
 20
197.6418667579062
 11
37.4298084032143
 21
200.6418667839833
 72
     1
 10
37.4298084032143
 20
200.6418667839833
 11
36.92980839886813
 21
197.6418667579062
 97
        0
 75
     0
 76
     1
 98
        0
  0
HATCH
  5
AB
330
A9
100
AcDbEntity
  8
Default
  6
Continuous
 62
     7
100
AcDbHatch
 10
0.0
 20
0.0
 30
0.0
210
0.0
220
0.0
230
1.0
  2
SOLID
 70
     1
 71
     0
 91
        1
 92
        1
 93
        3
 72
     1
 10
36.92980839886813
 20
149.6418654093511
 11
37.4298084032143
 21
146.6418653832741
 72
     1
 10
37.4298084032143
 20
146.6418653832741
 11
37.92980840756047
 21
149.6418654093511
 72
     1
 10
37.92980840756047
 20
149.6418654093511
 11
36.92980839886813
 21
149.6418654093511
 97
        0
 75
     0
 76
     1
 98
        0
  0
LINE
  5
AC
330
A9
100
AcDbEntity
  8
Default
  6
Continuous
 62
     7
100
AcDbLine
 10
59.9824103963
 20
200.641866784
 30
0.0
 11
35.9298083902
 21
200.641866784
 31
0.0
  0
LINE
  5
AD
330
A9
100
AcDbEntity
  8
Default
  6
Continuous
 62
     7
100
AcDbLine
 10
93.9824103963
 20
146.6418667795
 30
0.0
 11
35.9298083902
 21
146.6418667795
 31
0.0
  0
LINE
  5
AE
330
A9
100
AcDbEntity
  8
Default
  6
Continuous
 62
     7
100
AcDbLine
 10
37.4298084032
 20
200.641866784
 30
0.0
 11
37.4298084032
 21
146.6418653833
 31
0.0
  0
TEXT
  5
AF
330
A9
100
AcDbEntity
  8
Default
  6
Continuous
 62
     7
100
AcDbText
 10
36.6798084032
 20
171.90322972
 30
0.0
 40
3.0
  1
54
 50
90.0
  7
SEACAD_seiso_ttf
 11
33.6798084032
 21
171.90322972
 31
0.0
100
AcDbText
 73
     3
  0
ENDBLK
  5
B1
330
A9
100
AcDbEntity
  8
0
100
AcDbBlockEnd
  0
BLOCK
  5
BA
330
B3
100
AcDbEntity
  8
0
100
AcDbBlockBegin
  2
DMBLK3
 70
     0
 10
0.0
 20
0.0
 30
0.0
  3
DMBLK3
  1

  0
HATCH
  5
B4
330
B3
100
AcDbEntity
  8
Default
  6
Continuous
 62
     7
100
AcDbHatch
 10
0.0
 20
0.0
 30
0.0
210
0.0
220
0.0
230
1.0
  2
SOLID
 70
     1
 71
     0
 91
        1
 92
        1
 93
        3
 72
     1
 10
36.92980839886813
 20
203.6418668100603
 11
37.4298084032143
 21
200.6418667839833
 72
     1
 10
37.4298084032143
 20
200.6418667839833
 11
37.92980840756047
 21
203.6418668100603
 72
     1
 10
37.92980840756047
 20
203.6418668100603
 11
36.92980839886813
 21
203.6418668100603
 97
        0
 75
     0
 76
     1
 98
        0
  0
HATCH
  5
B5
330
B3
100
AcDbEntity
  8
Default
  6
Continuous
 62
     7
100
AcDbHatch
 10
0.0
 20
0.0
 30
0.0
210
0.0
220
0.0
230
1.0
  2
SOLID
 70
     1
 71
     0
 91
        1
 92
        1
 93
        3
 72
     1
 10
36.92980839886813
 20
206.641866370476
 11
37.92980840756047
 21
206.641866370476
 72
     1
 10
37.92980840756047
 20
206.641866370476
 11
37.4298084032143
 21
209.6418663965531
 72
     1
 10
37.4298084032143
 20
209.6418663965531
 11
36.92980839886813
 21
206.641866370476
 97
        0
 75
     0
 76
     1
 98
        0
  0
LINE
  5
B6
330
B3
100
AcDbEntity
  8
Default
  6
Continuous
 62
     7
100
AcDbLine
 10
59.9824103963
 20
200.641866784
 30
0.0
 11
35.9298083902
 21
200.641866784
 31
0.0
  0
LINE
  5
B7
330
B3
100
AcDbEntity
  8
Default
  6
Continuous
 62
     7
100
AcDbLine
 10
63.2824103963
 20
209.641866784
 30
0.0
 11
35.9298083902
 21
209.641866784
 31
0.0
  0
LINE
  5
B8
330
B3
100
AcDbEntity
  8
Default
  6
Continuous
 62
     7
100
AcDbLine
 10
37.4298084032
 20
200.641866784
 30
0.0
 11
37.4298084032
 21
209.6418663966
 31
0.0
  0
TEXT
  5
B9
330
B3
100
AcDbEntity
  8
Default
  6
Continuous
 62
     7
100
AcDbText
 10
36.6798084032
 20
204.2214120448
 30
0.0
 40
3.0
  1
9
 50
90.0
  7
SEACAD_seiso_ttf
 11
33.6798084032
 21
204.2214120448
 31
0.0
100
AcDbText
 73
     3
  0
ENDBLK
  5
BB
330
B3
100
AcDbEntity
  8
0
100
AcDbBlockEnd
  0
BLOCK
  5
C4
330
BC
100
AcDbEntity
  8
0
100
AcDbBlockBegin
  2
GDimGGroup
 70
     0
 10
0.0
 20
0.0
 30
0.0
  3
GDimGGroup
  1

  0
HATCH
  5
BE
330
BC
100
AcDbEntity
  8
Default
  6
Continuous
 62
     7
100
AcDbHatch
 10
0.0
 20
0.0
 30
0.0
210
0.0
220
0.0
230
1.0
  2
SOLID
 70
     1
 71
     0
 91
        1
 92
        1
 93
        3
 72
     1
 10
190.1901479209814
 20
149.6418668055972
 11
189.1901479122891
 21
149.6418668055972
 72
     1
 10
189.1901479122891
 20
149.6418668055972
 11
189.6901479166353
 21
146.6418667795202
 72
     1
 10
189.6901479166353
 20
146.6418667795202
 11
190.1901479209814
 21
149.6418668055972
 97
        0
 75
     0
 76
     1
 98
        0
  0
LINE
  5
BF
330
BC
100
AcDbEntity
  8
Default
  6
Continuous
 62
     7
100
AcDbLine
 10
175.4824103963
 20
146.6418667795
 30
0.0
 11
191.1901479297
 21
146.6418667795
 31
0.0
  0
LINE
  5
C0
330
BC
100
AcDbEntity
  8
Default
  6
Continuous
 62
     7
100
AcDbLine
 10
189.6901479166
 20
146.6418667795
 30
0.0
 11
189.6901479166
 21
156.641866556
 31
0.0
  0
TEXT
  5
C2
330
BC
100
AcDbEntity
  8
Default
  6
Continuous
 62
     7
100
AcDbText
 10
188.9401479166
 20
152.2647426973
 30
0.0
 40
3.0
  1
O
 50
90.0
  7
SEACAD_semeci1_ttf
 11
185.9401479166
 21
152.2647426973
 31
0.0
100
AcDbText
 73
     3
  0
TEXT
  5
C3
330
BC
100
AcDbEntity
  8
Default
  6
Continuous
 62
     7
100
AcDbText
 10
188.9401479166
 20
157.405354051
 30
0.0
 40
3.0
  1
20
 50
90.0
  7
SEACAD_seiso_ttf
 11
185.9401479166
 21
157.405354051
 31
0.0
100
AcDbText
 73
     3
  0
ENDBLK
  5
C5
330
BC
100
AcDbEntity
  8
0
100
AcDbBlockEnd
  0
BLOCK
  5
CF
330
C7
100
AcDbEntity
  8
0
100
AcDbBlockBegin
  2
DMBLK4
 70
     0
 10
0.0
 20
0.0
 30
0.0
  3
DMBLK4
  1

  0
HATCH
  5
C8
330
C7
100
AcDbEntity
  8
Default
  6
Continuous
 62
     7
100
AcDbHatch
 10
0.0
 20
0.0
 30
0.0
210
0.0
220
0.0
230
1.0
  2
SOLID
 70
     1
 71
     0
 91
        1
 92
        1
 93
        3
 72
     1
 10
63.93241037022111
 20
216.8013847843426
 11
63.93241037022111
 21
215.8013847756503
 72
     1
 10
63.93241037022111
 20
215.8013847756503
 11
66.93241039629814
 21
216.3013847799964
 72
     1
 10
66.93241039629814
 20
216.3013847799964
 11
63.93241037022111
 21
216.8013847843426
 97
        0
 75
     0
 76
     1
 98
        0
  0
HATCH
  5
C9
330
C7
100
AcDbEntity
  8
Default
  6
Continuous
 62
     7
100
AcDbHatch
 10
0.0
 20
0.0
 30
0.0
210
0.0
220
0.0
230
1.0
  2
SOLID
 70
     1
 71
     0
 91
        1
 92
        1
 93
        3
 72
     1
 10
78.0324104223752
 20
216.8013847843426
 11
75.03241039629816
 21
216.3013847799964
 72
     1
 10
75.03241039629816
 20
216.3013847799964
 11
78.0324104223752
 21
215.8013847756503
 72
     1
 10
78.0324104223752
 20
215.8013847756503
 11
78.0324104223752
 21
216.8013847843426
 97
        0
 75
     0
 76
     1
 98
        0
  0
LINE
  5
CA
330
C7
100
AcDbEntity
  8
Default
  6
Continuous
 62
     7
100
AcDbLine
 10
66.9324103963
 20
209.641866784
 30
0.0
 11
66.9324103963
 21
217.801384793
 31
0.0
  0
LINE
  5
CB
330
C7
100
AcDbEntity
  8
Default
  6
Continuous
 62
     7
100
AcDbLine
 10
75.0324103963
 20
209.641866784
 30
0.0
 11
75.0324103963
 21
217.801384793
 31
0.0
  0
LINE
  5
CC
330
C7
100
AcDbEntity
  8
Default
  6
Continuous
 62
     7
100
AcDbLine
 10
60.9324103441
 20
216.30138478
 30
0.0
 11
81.0324106586
 21
216.30138478
 31
0.0
  0
TEXT
  5
CD
330
C7
100
AcDbEntity
  8
Default
  6
Continuous
 62
     7
100
AcDbText
 10
71.8809218154
 20
217.05138478
 30
0.0
 40
3.0
  1
8
  7
SEACAD_seiso_ttf
 11
71.8809218154
 21
220.05138478
 31
0.0
100
AcDbText
 73
     3
  0
TEXT
  5
CE
330
C7
100
AcDbEntity
  8
Default
  6
Continuous
 62
     7
100
AcDbText
 10
68.1748082782
 20
217.05138478
 30
0.0
 40
3.0
  1
q
  7
SEACAD_semeci1_ttf
 11
68.1748082782
 21
220.05138478
 31
0.0
100
AcDbText
 73
     3
  0
ENDBLK
  5
D0
330
C7
100
AcDbEntity
  8
0
100
AcDbBlockEnd
  0
BLOCK
  5
DA
330
D2
100
AcDbEntity
  8
0
100
AcDbBlockBegin
  2
DMBLK5
 70
     0
 10
0.0
 20
0.0
 30
0.0
  3
DMBLK5
  1

  0
HATCH
  5
D3
330
D2
100
AcDbEntity
  8
Default
  6
Continuous
 62
     7
100
AcDbHatch
 10
0.0
 20
0.0
 30
0.0
210
0.0
220
0.0
230
1.0
  2
SOLID
 70
     1
 71
     0
 91
        1
 92
        1
 93
        3
 72
     1
 10
62.98241042237529
 20
234.2922230512517
 11
59.98241039629826
 21
233.7922230469055
 72
     1
 10
59.98241039629826
 20
233.7922230469055
 11
62.98241042237529
 21
233.2922230425594
 72
     1
 10
62.98241042237529
 20
233.2922230425594
 11
62.98241042237529
 21
234.2922230512517
 97
        0
 75
     0
 76
     1
 98
        0
  0
HATCH
  5
D4
330
D2
100
AcDbEntity
  8
Default
  6
Continuous
 62
     7
100
AcDbHatch
 10
0.0
 20
0.0
 30
0.0
210
0.0
220
0.0
230
1.0
  2
SOLID
 70
     1
 71
     0
 91
        1
 92
        1
 93
        3
 72
     1
 10
78.98241025101194
 20
234.2922230512517
 11
78.98241025101194
 21
233.2922230425594
 72
     1
 10
78.98241025101194
 20
233.2922230425594
 11
81.98241027708897
 21
233.7922230469055
 72
     1
 10
81.98241027708897
 20
233.7922230469055
 11
78.98241025101194
 21
234.2922230512517
 97
        0
 75
     0
 76
     1
 98
        0
  0
LINE
  5
D5
330
D2
100
AcDbEntity
  8
Default
  6
Continuous
 62
     7
100
AcDbLine
 10
59.9824103963
 20
200.641866784
 30
0.0
 11
59.9824103963
 21
235.2922230599
 31
0.0
  0
LINE
  5
D6
330
D2
100
AcDbEntity
  8
Default
  6
Continuous
 62
     7
100
AcDbLine
 10
81.9824103963
 20
200.641866784
 30
0.0
 11
81.9824103963
 21
235.2922230599
 31
0.0
  0
LINE
  5
D7
330
D2
100
AcDbEntity
  8
Default
  6
Continuous
 62
     7
100
AcDbLine
 10
59.9824103963
 20
233.7922230469
 30
0.0
 11
81.9824102771
 21
233.7922230469
 31
0.0
  0
TEXT
  5
D8
330
D2
100
AcDbEntity
  8
Default
  6
Continuous
 62
     7
100
AcDbText
 10
70.9618069226
 20
234.5422230469
 30
0.0
 40
3.0
  1
22
  7
SEACAD_seiso_ttf
 11
70.9618069226
 21
237.5422230469
 31
0.0
100
AcDbText
 73
     3
  0
TEXT
  5
D9
330
D2
100
AcDbEntity
  8
Default
  6
Continuous
 62
     7
100
AcDbText
 10
67.3211955689
 20
234.5422230469
 30
0.0
 40
3.0
  1
O
  7
SEACAD_semeci1_ttf
 11
67.3211955689
 21
237.5422230469
 31
0.0
100
AcDbText
 73
     3
  0
ENDBLK
  5
DB
330
D2
100
AcDbEntity
  8
0
100
AcDbBlockEnd
  0
BLOCK
  5
E5
330
DD
100
AcDbEntity
  8
0
100
AcDbBlockBegin
  2
DMBLK6
 70
     0
 10
0.0
 20
0.0
 30
0.0
  3
DMBLK6
  1

  0
HATCH
  5
DE
330
DD
100
AcDbEntity
  8
Default
  6
Continuous
 62
     7
100
AcDbHatch
 10
0.0
 20
0.0
 30
0.0
210
0.0
220
0.0
230
1.0
  2
SOLID
 70
     1
 71
     0
 91
        1
 92
        1
 93
        3
 72
     1
 10
65.98241042237518
 20
225.3113043755906
 11
62.98241039629815
 21
224.8113043712445
 72
     1
 10
62.98241039629815
 20
224.8113043712445
 11
65.98241042237518
 21
224.3113043668983
 72
     1
 10
65.98241042237518
 20
224.3113043668983
 11
65.98241042237518
 21
225.3113043755906
 97
        0
 75
     0
 76
     1
 98
        0
  0
HATCH
  5
DF
330
DD
100
AcDbEntity
  8
Default
  6
Continuous
 62
     7
100
AcDbHatch
 10
0.0
 20
0.0
 30
0.0
210
0.0
220
0.0
230
1.0
  2
SOLID
 70
     1
 71
     0
 91
        1
 92
        1
 93
        3
 72
     1
 10
75.98241113018034
 20
225.3113043755906
 11
75.98241113018034
 21
224.3113043668983
 72
     1
 10
75.98241113018034
 20
224.3113043668983
 11
78.98241115625737
 21
224.8113043712445
 72
     1
 10
78.98241115625737
 20
224.8113043712445
 11
75.98241113018034
 21
225.3113043755906
 97
        0
 75
     0
 76
     1
 98
        0
  0
LINE
  5
E0
330
DD
100
AcDbEntity
  8
Default
  6
Continuous
 62
     7
100
AcDbLine
 10
62.9824103963
 20
209.3418669062
 30
0.0
 11
62.9824103963
 21
226.3113043843
 31
0.0
  0
LINE
  5
E1
330
DD
100
AcDbEntity
  8
Default
  6
Continuous
 62
     7
100
AcDbLine
 10
78.9824103963
 20
209.3418669062
 30
0.0
 11
78.9824103963
 21
226.3113043843
 31
0.0
  0
LINE
  5
E2
330
DD
100
AcDbEntity
  8
Default
  6
Continuous
 62
     7
100
AcDbLine
 10
62.9824103963
 20
224.8113043712
 30
0.0
 11
78.9824111563
 21
224.8113043712
 31
0.0
  0
TEXT
  5
E3
330
DD
100
AcDbEntity
  8
Default
  6
Continuous
 62
     7
100
AcDbText
 10
71.268625544
 20
225.5613043712
 30
0.0
 40
3.0
  1
16
  7
SEACAD_seiso_ttf
 11
71.268625544
 21
228.5613043712
 31
0.0
100
AcDbText
 73
     3
  0
TEXT
  5
E4
330
DD
100
AcDbEntity
  8
Default
  6
Continuous
 62
     7
100
AcDbText
 10
67.6280141903
 20
225.5613043712
 30
0.0
 40
3.0
  1
O
  7
SEACAD_semeci1_ttf
 11
67.6280141903
 21
228.5613043712
 31
0.0
100
AcDbText
 73
     3
  0
ENDBLK
  5
E6
330
DD
100
AcDbEntity
  8
0
100
AcDbBlockEnd
  0
ENDSEC
  0
SECTION
  2
ENTITIES
  0
TEXT
  5
5E
330
1F
100
AcDbEntity
  8
Default
  6
Continuous
 62
     7
100
AcDbText
 10
96.4424875104
 20
97.001953742
 30
0.0
 40
5.0
  1
32.205
  7
SEACAD_seiso_ttf
 11
96.4424875104
 21
102.001953742
 31
0.0
100
AcDbText
 73
     3
  0
INSERT
  5
61
330
1F
100
AcDbEntity
  8
0
100
AcDbBlockReference
  2
SE
 10
0.0
 20
0.0
 30
0.0
  0
DIMENSION
  5
9E
330
1F
100
AcDbEntity
  8
Default
  6
Continuous
 62
     7
100
AcDbDimension
  2
DMBLK1
 10
176.9824103963
 20
119.859021108
 30
0.0
 11
118.4824097406
 21
119.859021108
 31
0.0
 70
   160
  1
\A1;<>
 71
     5
 42
-1.0
  3
DIN
100
AcDbAlignedDimension
 13
59.9824103963
 23
189.641866784
 33
0.0
 14
176.9824103963
 24
148.1418667795
 34
0.0
100
AcDbRotatedDimension
  0
DIMENSION
  5
A8
330
1F
100
AcDbEntity
  8
Default
  6
Continuous
 62
     7
100
AcDbDimension
  2
DMBLK2
 10
37.4298084032
 20
146.6418667795
 30
0.0
 11
37.4298084032
 21
173.6418660836
 31
0.0
 70
   160
  1
\A1;<>
 71
     5
 42
-1.0
  3
DIN
100
AcDbAlignedDimension
 13
59.9824103963
 23
200.641866784
 33
0.0
 14
93.9824103963
 24
146.6418667795
 34
0.0
 50
90.0
100
AcDbRotatedDimension
  0
DIMENSION
  5
B2
330
1F
100
AcDbEntity
  8
Default
  6
Continuous
 62
     7
100
AcDbDimension
  2
DMBLK3
 10
37.4298084032
 20
209.641866784
 30
0.0
 11
37.4298084032
 21
205.1418665903
 31
0.0
 70
   160
  1
\A1;<>
 71
     5
 42
-1.0
  3
DIN
100
AcDbAlignedDimension
 13
59.9824103963
 23
200.641866784
 33
0.0
 14
63.2824103963
 24
209.641866784
 34
0.0
 50
90.0
100
AcDbRotatedDimension
  0
INSERT
  5
BD
330
1F
100
AcDbEntity
  8
Default
100
AcDbBlockReference
  2
GDimGGroup
 10
0.0
 20
0.0
 30
0.0
  0
DIMENSION
  5
C6
330
1F
100
AcDbEntity
  8
Default
  6
Continuous
 62
     7
100
AcDbDimension
  2
DMBLK4
 10
66.9324103963
 20
216.30138478
 30
0.0
 11
70.9824105014
 21
216.30138478
 31
0.0
 70
   161
  1
\A1;{\Fsemeca1.ttf;q} <>
 71
     5
 42
-1.0
  3
DIN
100
AcDbAlignedDimension
 13
66.9324103963
 23
209.641866784
 33
0.0
 14
75.0324103963
 24
209.641866784
 34
0.0
1001
ACAD
1000
DSTYLE
1002
{
1070
   271
1070
     0
1070
   272
1070
     0
1070
     0
1002
}
  0
DIMENSION
  5
D1
330
1F
100
AcDbEntity
  8
Default
  6
Continuous
 62
     7
100
AcDbDimension
  2
DMBLK5
 10
59.9824103963
 20
233.7922230469
 30
0.0
 11
70.9824103367
 21
233.7922230469
 31
0.0
 70
   161
  1
\A1;%%C <>
 71
     5
 42
-1.0
  3
DIN
100
AcDbAlignedDimension
 13
59.9824103963
 23
200.641866784
 33
0.0
 14
81.9824103963
 24
200.641866784
 34
0.0
  0
DIMENSION
  5
DC
330
1F
100
AcDbEntity
  8
Default
  6
Continuous
 62
     7
100
AcDbDimension
  2
DMBLK6
 10
62.9824103963
 20
224.8113043712
 30
0.0
 11
70.9824107763
 21
224.8113043712
 31
0.0
 70
   161
  1
\A1;%%C <>
 71
     5
 42
-1.0
  3
DIN
100
AcDbAlignedDimension
 13
62.9824103963
 23
200.641866784
 33
0.0
 14
78.9824103963
 24
200.641866784
 34
0.0
  0
ENDSEC
  0
SECTION
  2
OBJECTS
  0
DICTIONARY
  5
C
330
0
100
AcDbDictionary
281
     1
  3
ACAD_GROUP
350
D
  3
ACAD_LAYOUT
350
1A
  3
ACAD_MLEADERSTYLE
350
EA
  3
ACAD_MLINESTYLE
350
17
  3
ACAD_PLOTSETTINGS
350
19
  3
ACAD_PLOTSTYLENAME
350
E
  3
ACAD_SCALELIST
350
3B
  3
ACAD_TABLESTYLE
350
E9
  3
ACAD_VISUALSTYLE
350
2A
  3
AcDbVariableDictionary
350
E7
  0
DICTIONARY
  5
D
102
{ACAD_REACTORS
330
C
102
}
330
C
100
AcDbDictionary
281
     1
  0
DICTIONARY
  5
1A
102
{ACAD_REACTORS
330
C
102
}
330
C
100
AcDbDictionary
281
     1
  3
Layout1
350
1E
  3
Model
350
22
  0
DICTIONARY
  5
EA
102
{ACAD_REACTORS
330
C
102
}
330
C
100
AcDbDictionary
281
     1
  0
DICTIONARY
  5
17
102
{ACAD_REACTORS
330
C
102
}
330
C
100
AcDbDictionary
281
     1
  3
Standard
350
18
  0
DICTIONARY
  5
19
102
{ACAD_REACTORS
330
C
102
}
330
C
100
AcDbDictionary
281
     1
  0
ACDBDICTIONARYWDFLT
  5
E
102
{ACAD_REACTORS
330
C
102
}
330
C
100
AcDbDictionary
281
     1
  3
Normal
350
F
100
AcDbDictionaryWithDefault
340
F
  0
DICTIONARY
  5
3B
102
{ACAD_REACTORS
330
C
102
}
330
C
100
AcDbDictionary
281
     1
  3
A0
350
3C
  3
A1
350
3D
  3
A2
350
3E
  3
A3
350
3F
  3
A4
350
40
  3
A5
350
41
  3
A6
350
42
  3
A7
350
43
  3
A8
350
44
  3
A9
350
45
  3
B0
350
46
  3
B1
350
47
  3
B2
350
48
  3
B3
350
49
  3
B4
350
4A
  3
B5
350
4B
  3
B6
350
4C
  3
B7
350
4D
  3
B8
350
4E
  3
B9
350
4F
  3
C0
350
50
  3
C1
350
51
  3
C2
350
52
  3
C3
350
53
  3
C4
350
54
  3
C5
350
55
  3
C6
350
56
  3
C7
350
57
  3
C8
350
58
  3
C9
350
59
  3
D0
350
5A
  3
D1
350
5B
  3
D2
350
5C
  0
DICTIONARY
  5
E9
102
{ACAD_REACTORS
330
C
102
}
330
C
100
AcDbDictionary
281
     1
  0
DICTIONARY
  5
2A
102
{ACAD_REACTORS
330
C
102
}
330
C
100
AcDbDictionary
281
     1
  3
2dWireframe
350
2F
  3
3D Hidden
350
31
  3
3dWireframe
350
30
  3
Basic
350
32
  3
Brighten
350
36
  3
ColorChange
350
3A
  3
Conceptual
350
34
  3
Dim
350
35
  3
Facepattern
350
39
  3
Flat
350
2B
  3
FlatWithEdges
350
2C
  3
Gouraud
350
2D
  3
GouraudWithEdges
350
2E
  3
Linepattern
350
38
  3
Realistic
350
33
  3
Thicken
350
37
  0
DICTIONARY
  5
E7
102
{ACAD_REACTORS
330
C
102
}
330
C
100
AcDbDictionary
281
     1
  3
CANNOSCALE
350
E8
  3
PSOLHEIGHT
350
EC
  3
PSOLWIDTH
350
EB
  0
LAYOUT
  5
1E
102
{ACAD_REACTORS
330
1A
102
}
330
1A
100
AcDbPlotSettings
  1

  2
none_device
  4

  6

 40
0.0
 41
0.0
 42
0.0
 43
0.0
 44
0.0
 45
0.0
 46
0.0
 47
0.0
 48
0.0
 49
0.0
140
0.0
141
0.0
142
1.0
143
1.0
 70
   688
 72
     0
 73
     0
 74
     5
  7

 75
    16
147
1.0
148
0.0
149
0.0
100
AcDbLayout
  1
Layout1
 70
     1
 71
     1
 10
0.0
 20
0.0
 11
210.0
 21
297.0
 12
0.0
 22
0.0
 32
0.0
 14
0.0
 24
0.0
 34
0.0
 15
210.0
 25
297.0
 35
0.0
146
0.0
 13
0.0
 23
0.0
 33
0.0
 16
1.0
 26
0.0
 36
0.0
 17
0.0
 27
1.0
 37
0.0
 76
     0
330
1B
  0
LAYOUT
  5
22
102
{ACAD_REACTORS
330
1A
102
}
330
1A
100
AcDbPlotSettings
  1

  2
none_device
  4

  6

 40
0.0
 41
0.0
 42
0.0
 43
0.0
 44
0.0
 45
0.0
 46
0.0
 47
0.0
 48
0.0
 49
0.0
140
0.0
141
0.0
142
1.0
143
1.0
 70
  1712
 72
     0
 73
     0
 74
     0
  7

 75
     0
147
1.0
148
0.0
149
0.0
100
AcDbLayout
  1
Model
 70
     1
 71
     0
 10
0.0
 20
0.0
 11
210.0
 21
297.0
 12
0.0
 22
0.0
 32
0.0
 14
0.0
 24
0.0
 34
0.0
 15
210.0
 25
297.0
 35
0.0
146
0.0
 13
0.0
 23
0.0
 33
0.0
 16
1.0
 26
0.0
 36
0.0
 17
0.0
 27
1.0
 37
0.0
 76
     0
330
1F
331
29
  0
MLINESTYLE
  5
18
102
{ACAD_REACTORS
330
17
102
}
330
17
100
AcDbMlineStyle
  2
Standard
 70
     0
  3

 62
   256
 51
90.0
 52
90.0
 71
     2
 49
0.5
 62
   256
  6
BYLAYER
 49
-0.5
 62
   256
  6
BYLAYER
  0
ACDBPLACEHOLDER
  5
F
102
{ACAD_REACTORS
330
E
102
}
330
E
  0
SCALE
  5
3C
102
{ACAD_REACTORS
330
3B
102
}
330
3B
100
AcDbScale
 70
     0
300
1:1
140
1.0
141
1.0
290
     1
  0
SCALE
  5
3D
102
{ACAD_REACTORS
330
3B
102
}
330
3B
100
AcDbScale
 70
     0
300
1:2
140
1.0
141
2.0
290
     0
  0
SCALE
  5
3E
102
{ACAD_REACTORS
330
3B
102
}
330
3B
100
AcDbScale
 70
     0
300
1:4
140
1.0
141
4.0
290
     0
  0
SCALE
  5
3F
102
{ACAD_REACTORS
330
3B
102
}
330
3B
100
AcDbScale
 70
     0
300
1:5
140
1.0
141
5.0
290
     0
  0
SCALE
  5
40
102
{ACAD_REACTORS
330
3B
102
}
330
3B
100
AcDbScale
 70
     0
300
1:8
140
1.0
141
8.0
290
     0
  0
SCALE
  5
41
102
{ACAD_REACTORS
330
3B
102
}
330
3B
100
AcDbScale
 70
     0
300
1:10
140
1.0
141
10.0
290
     0
  0
SCALE
  5
42
102
{ACAD_REACTORS
330
3B
102
}
330
3B
100
AcDbScale
 70
     0
300
1:16
140
1.0
141
16.0
290
     0
  0
SCALE
  5
43
102
{ACAD_REACTORS
330
3B
102
}
330
3B
100
AcDbScale
 70
     0
300
1:20
140
1.0
141
20.0
290
     0
  0
SCALE
  5
44
102
{ACAD_REACTORS
330
3B
102
}
330
3B
100
AcDbScale
 70
     0
300
1:30
140
1.0
141
30.0
290
     0
  0
SCALE
  5
45
102
{ACAD_REACTORS
330
3B
102
}
330
3B
100
AcDbScale
 70
     0
300
1:40
140
1.0
141
40.0
290
     0
  0
SCALE
  5
46
102
{ACAD_REACTORS
330
3B
102
}
330
3B
100
AcDbScale
 70
     0
300
1:50
140
1.0
141
50.0
290
     0
  0
SCALE
  5
47
102
{ACAD_REACTORS
330
3B
102
}
330
3B
100
AcDbScale
 70
     0
300
1:100
140
1.0
141
100.0
290
     0
  0
SCALE
  5
48
102
{ACAD_REACTORS
330
3B
102
}
330
3B
100
AcDbScale
 70
     0
300
2:1
140
2.0
141
1.0
290
     0
  0
SCALE
  5
49
102
{ACAD_REACTORS
330
3B
102
}
330
3B
100
AcDbScale
 70
     0
300
4:1
140
4.0
141
1.0
290
     0
  0
SCALE
  5
4A
102
{ACAD_REACTORS
330
3B
102
}
330
3B
100
AcDbScale
 70
     0
300
8:1
140
8.0
141
1.0
290
     0
  0
SCALE
  5
4B
102
{ACAD_REACTORS
330
3B
102
}
330
3B
100
AcDbScale
 70
     0
300
10:1
140
10.0
141
1.0
290
     0
  0
SCALE
  5
4C
102
{ACAD_REACTORS
330
3B
102
}
330
3B
100
AcDbScale
 70
     0
300
100:1
140
100.0
141
1.0
290
     0
  0
SCALE
  5
4D
102
{ACAD_REACTORS
330
3B
102
}
330
3B
100
AcDbScale
 70
     0
300
1/128" = 1'-0"
140
0.0078125
141
12.0
290
     0
  0
SCALE
  5
4E
102
{ACAD_REACTORS
330
3B
102
}
330
3B
100
AcDbScale
 70
     0
300
1/64" = 1'-0"
140
0.015625
141
12.0
290
     0
  0
SCALE
  5
4F
102
{ACAD_REACTORS
330
3B
102
}
330
3B
100
AcDbScale
 70
     0
300
1/32" = 1'-0"
140
0.03125
141
12.0
290
     0
  0
SCALE
  5
50
102
{ACAD_REACTORS
330
3B
102
}
330
3B
100
AcDbScale
 70
     0
300
1/16" = 1'-0"
140
0.0625
141
12.0
290
     0
  0
SCALE
  5
51
102
{ACAD_REACTORS
330
3B
102
}
330
3B
100
AcDbScale
 70
     0
300
3/32" = 1'-0"
140
0.09375
141
12.0
290
     0
  0
SCALE
  5
52
102
{ACAD_REACTORS
330
3B
102
}
330
3B
100
AcDbScale
 70
     0
300
1/8" = 1'-0"
140
0.125
141
12.0
290
     0
  0
SCALE
  5
53
102
{ACAD_REACTORS
330
3B
102
}
330
3B
100
AcDbScale
 70
     0
300
3/16" = 1'-0"
140
0.1875
141
12.0
290
     0
  0
SCALE
  5
54
102
{ACAD_REACTORS
330
3B
102
}
330
3B
100
AcDbScale
 70
     0
300
1/4" = 1'-0"
140
0.25
141
12.0
290
     0
  0
SCALE
  5
55
102
{ACAD_REACTORS
330
3B
102
}
330
3B
100
AcDbScale
 70
     0
300
3/8" = 1'-0"
140
0.375
141
12.0
290
     0
  0
SCALE
  5
56
102
{ACAD_REACTORS
330
3B
102
}
330
3B
100
AcDbScale
 70
     0
300
1/2" = 1'-0"
140
0.5
141
12.0
290
     0
  0
SCALE
  5
57
102
{ACAD_REACTORS
330
3B
102
}
330
3B
100
AcDbScale
 70
     0
300
3/4" = 1'-0"
140
0.75
141
12.0
290
     0
  0
SCALE
  5
58
102
{ACAD_REACTORS
330
3B
102
}
330
3B
100
AcDbScale
 70
     0
300
1" = 1'-0"
140
1.0
141
12.0
290
     0
  0
SCALE
  5
59
102
{ACAD_REACTORS
330
3B
102
}
330
3B
100
AcDbScale
 70
     0
300
1-1/2" = 1'-0"
140
1.5
141
12.0
290
     0
  0
SCALE
  5
5A
102
{ACAD_REACTORS
330
3B
102
}
330
3B
100
AcDbScale
 70
     0
300
3" = 1'-0"
140
3.0
141
12.0
290
     0
  0
SCALE
  5
5B
102
{ACAD_REACTORS
330
3B
102
}
330
3B
100
AcDbScale
 70
     0
300
6" = 1'-0"
140
6.0
141
12.0
290
     0
  0
SCALE
  5
5C
102
{ACAD_REACTORS
330
3B
102
}
330
3B
100
AcDbScale
 70
     0
300
1'-0" = 1'-0"
140
12.0
141
12.0
290
     0
  0
VISUALSTYLE
  5
2F
102
{ACAD_REACTORS
330
2A
102
}
330
2A
100
AcDbVisualStyle
  2
2dWireframe
 70
     4
 71
     0
 72
     2
 73
     0
 90
        0
 40
-0.6
 41
-30.0
 62
     5
 63
     7
 74
     1
 91
        4
 64
     7
 65
   257
 75
     1
175
     1
 42
1.0
 92
        0
 66
   257
 43
1.0
 76
     1
 77
     6
 78
     2
 67
     7
 79
     5
170
     0
171
     0
290
     0
174
     0
 93
        1
 44
0.0
173
     0
291
     0
 45
0.0
1001
ACAD
1000
AcDbSavedByObjectVersion
1070
     0
  0
VISUALSTYLE
  5
31
102
{ACAD_REACTORS
330
2A
102
}
330
2A
100
AcDbVisualStyle
  2
3D Hidden
 70
     6
 71
     1
 72
     2
 73
     2
 90
        0
 40
-0.6
 41
-30.0
 62
     5
 63
     7
 74
     2
 91
        2
 64
     7
 65
   257
 75
     2
175
     1
 42
40.0
 92
        0
 66
   257
 43
1.0
 76
     1
 77
     6
 78
     2
 67
     7
 79
     3
170
     0
171
     0
290
     0
174
     0
 93
        1
 44
0.0
173
     0
291
     0
 45
0.0
1001
ACAD
1000
AcDbSavedByObjectVersion
1070
     0
  0
VISUALSTYLE
  5
30
102
{ACAD_REACTORS
330
2A
102
}
330
2A
100
AcDbVisualStyle
  2
3dWireframe
 70
     5
 71
     0
 72
     2
 73
     0
 90
        0
 40
-0.6
 41
-30.0
 62
     5
 63
     7
 74
     1
 91
        4
 64
     7
 65
   257
 75
     1
175
     1
 42
1.0
 92
        0
 66
   257
 43
1.0
 76
     1
 77
     6
 78
     2
 67
     7
 79
     5
170
     0
171
     0
290
     0
174
     0
 93
        1
 44
0.0
173
     0
291
     0
 45
0.0
1001
ACAD
1000
AcDbSavedByObjectVersion
1070
     0
  0
VISUALSTYLE
  5
32
102
{ACAD_REACTORS
330
2A
102
}
330
2A
100
AcDbVisualStyle
  2
Basic
 70
     7
 71
     1
 72
     0
 73
     1
 90
        0
 40
-0.6
 41
-30.0
 62
     5
 63
     7
 74
     0
 91
        4
 64
     7
 65
   257
 75
     1
175
     1
 42
1.0
 92
        8
 66
     7
 43
1.0
 76
     1
 77
     6
 78
     2
 67
     7
 79
     5
170
     0
171
     0
290
     0
174
     0
 93
        1
 44
0.0
173
     0
291
     1
 45
0.0
1001
ACAD
1000
AcDbSavedByObjectVersion
1070
     0
  0
VISUALSTYLE
  5
36
102
{ACAD_REACTORS
330
2A
102
}
330
2A
100
AcDbVisualStyle
  2
Brighten
 70
    12
 71
     2
 72
     2
 73
     0
 90
        0
 40
-0.6
 41
-30.0
 62
     5
 63
     7
 74
     1
 91
        4
 64
     7
 65
   257
 75
     1
175
     1
 42
1.0
 92
        8
 66
     7
 43
1.0
 76
     1
 77
     6
 78
     2
 67
     7
 79
     5
170
     0
171
     0
290
     0
174
     0
 93
        1
 44
50.0
173
     0
291
     1
 45
0.0
1001
ACAD
1000
AcDbSavedByObjectVersion
1070
     0
  0
VISUALSTYLE
  5
3A
102
{ACAD_REACTORS
330
2A
102
}
330
2A
100
AcDbVisualStyle
  2
ColorChange
 70
    16
 71
     2
 72
     2
 73
     3
 90
        0
 40
-0.6
 41
-30.0
 62
     5
 63
     8
 74
     1
 91
        4
 64
     7
 65
   257
 75
     1
175
     1
 42
1.0
 92
        8
 66
     8
 43
1.0
 76
     1
 77
     6
 78
     2
 67
     7
 79
     5
170
     0
171
     0
290
     0
174
     0
 93
        1
 44
0.0
173
     0
291
     1
 45
0.0
1001
ACAD
1000
AcDbSavedByObjectVersion
1070
     0
  0
VISUALSTYLE
  5
34
102
{ACAD_REACTORS
330
2A
102
}
330
2A
100
AcDbVisualStyle
  2
Conceptual
 70
     9
 71
     3
 72
     2
 73
     0
 90
        0
 40
-0.6
 41
-30.0
 62
     5
 63
     7
 74
     2
 91
        2
 64
     7
 65
   257
 75
     1
175
     1
 42
40.0
 92
        8
 66
     7
 43
1.0
 76
     1
 77
     6
 78
     2
 67
     7
 79
     3
170
     0
171
     0
290
     0
174
     0
 93
        1
 44
0.0
173
     0
291
     0
 45
0.0
1001
ACAD
1000
AcDbSavedByObjectVersion
1070
     0
  0
VISUALSTYLE
  5
35
102
{ACAD_REACTORS
330
2A
102
}
330
2A
100
AcDbVisualStyle
  2
Dim
 70
    11
 71
     2
 72
     2
 73
     0
 90
        0
 40
-0.6
 41
-30.0
 62
     5
 63
     7
 74
     1
 91
        4
 64
     7
 65
   257
 75
     1
175
     1
 42
1.0
 92
        8
 66
     7
 43
1.0
 76
     1
 77
     6
 78
     2
 67
     7
 79
     5
170
     0
171
     0
290
     0
174
     0
 93
        1
 44
-50.0
173
     0
291
     1
 45
0.0
1001
ACAD
1000
AcDbSavedByObjectVersion
1070
     0
  0
VISUALSTYLE
  5
39
102
{ACAD_REACTORS
330
2A
102
}
330
2A
100
AcDbVisualStyle
  2
Facepattern
 70
    15
 71
     2
 72
     2
 73
     0
 90
        0
 40
-0.6
 41
-30.0
 62
     5
 63
     7
 74
     1
 91
        4
 64
     7
 65
   257
 75
     1
175
     1
 42
1.0
 92
        8
 66
     7
 43
1.0
 76
     1
 77
     6
 78
     2
 67
     7
 79
     5
170
     0
171
     0
290
     0
174
     0
 93
        1
 44
0.0
173
     0
291
     1
 45
0.0
1001
ACAD
1000
AcDbSavedByObjectVersion
1070
     0
  0
VISUALSTYLE
  5
2B
102
{ACAD_REACTORS
330
2A
102
}
330
2A
100
AcDbVisualStyle
  2
Flat
 70
     0
 71
     2
 72
     1
 73
     1
 90
        2
 40
-0.6
 41
30.0
 62
     5
 63
     7
 74
     0
 91
        4
 64
     7
 65
   257
 75
     1
175
     1
 42
1.0
 92
        8
 66
     7
 43
1.0
 76
     1
 77
     6
 78
     2
 67
     7
 79
     5
170
     0
171
     0
290
     0
174
     0
 93
       13
 44
0.0
173
     0
291
     1
 45
0.0
1001
ACAD
1000
AcDbSavedByObjectVersion
1070
     0
  0
VISUALSTYLE
  5
2C
102
{ACAD_REACTORS
330
2A
102
}
330
2A
100
AcDbVisualStyle
  2
FlatWithEdges
 70
     1
 71
     2
 72
     1
 73
     1
 90
        2
 40
-0.6
 41
30.0
 62
     5
 63
     7
 74
     1
 91
        4
 64
     7
 65
   257
 75
     1
175
     1
 42
1.0
 92
        0
 66
   257
 43
1.0
 76
     1
 77
     6
 78
     2
 67
     7
 79
     5
170
     0
171
     0
290
     0
174
     0
 93
       13
 44
0.0
173
     0
291
     1
 45
0.0
1001
ACAD
1000
AcDbSavedByObjectVersion
1070
     0
  0
VISUALSTYLE
  5
2D
102
{ACAD_REACTORS
330
2A
102
}
330
2A
100
AcDbVisualStyle
  2
Gouraud
 70
     2
 71
     2
 72
     2
 73
     1
 90
        2
 40
-0.6
 41
30.0
 62
     5
 63
     7
 74
     0
 91
        4
 64
     7
 65
   257
 75
     1
175
     1
 42
1.0
 92
        0
 66
     7
 43
1.0
 76
     1
 77
     6
 78
     2
 67
     7
 79
     5
170
     0
171
     0
290
     0
174
     0
 93
       13
 44
0.0
173
     0
291
     1
 45
0.0
1001
ACAD
1000
AcDbSavedByObjectVersion
1070
     0
  0
VISUALSTYLE
  5
2E
102
{ACAD_REACTORS
330
2A
102
}
330
2A
100
AcDbVisualStyle
  2
GouraudWithEdges
 70
     3
 71
     2
 72
     2
 73
     1
 90
        2
 40
-0.6
 41
30.0
 62
     5
 63
     7
 74
     1
 91
        4
 64
     7
 65
   257
 75
     1
175
     1
 42
1.0
 92
        0
 66
   257
 43
1.0
 76
     1
 77
     6
 78
     2
 67
     7
 79
     5
170
     0
171
     0
290
     0
174
     0
 93
       13
 44
0.0
173
     0
291
     1
 45
0.0
1001
ACAD
1000
AcDbSavedByObjectVersion
1070
     0
  0
VISUALSTYLE
  5
38
102
{ACAD_REACTORS
330
2A
102
}
330
2A
100
AcDbVisualStyle
  2
Linepattern
 70
    14
 71
     2
 72
     2
 73
     0
 90
        0
 40
-0.6
 41
-30.0
 62
     5
 63
     7
 74
     1
 91
        4
 64
     7
 65
   257
 75
     7
175
     7
 42
1.0
 92
        8
 66
     7
 43
1.0
 76
     1
 77
     6
 78
     2
 67
     7
 79
     5
170
     0
171
     0
290
     0
174
     0
 93
        1
 44
0.0
173
     0
291
     1
 45
0.0
1001
ACAD
1000
AcDbSavedByObjectVersion
1070
     0
  0
VISUALSTYLE
  5
33
102
{ACAD_REACTORS
330
2A
102
}
330
2A
100
AcDbVisualStyle
  2
Realistic
 70
     8
 71
     2
 72
     2
 73
     0
 90
        0
 40
-0.6
 41
-30.0
 62
     5
 63
     7
 74
     1
 91
        0
 64
     7
 65
   257
 75
     1
175
     1
 42
1.0
 92
        8
 66
     8
 43
1.0
 76
     1
 77
     6
 78
     2
 67
     7
 79
     5
170
     0
171
     0
290
     0
174
     0
 93
       13
 44
0.0
173
     0
291
     0
 45
0.0
1001
ACAD
1000
AcDbSavedByObjectVersion
1070
     0
  0
VISUALSTYLE
  5
37
102
{ACAD_REACTORS
330
2A
102
}
330
2A
100
AcDbVisualStyle
  2
Thicken
 70
    13
 71
     2
 72
     2
 73
     0
 90
        0
 40
-0.6
 41
-30.0
 62
     5
 63
     7
 74
     1
 91
        4
 64
     7
 65
   257
 75
     1
175
     1
 42
1.0
 92
       12
 66
     7
 43
1.0
 76
     1
 77
     6
 78
     2
 67
     7
 79
     5
170
     0
171
     0
290
     0
174
     0
 93
        1
 44
0.0
173
     0
291
     1
 45
0.0
1001
ACAD
1000
AcDbSavedByObjectVersion
1070
     0
  0
DICTIONARYVAR
  5
E8
102
{ACAD_REACTORS
330
E7
102
}
330
E7
100
DictionaryVariables
280
     0
  1
1:1
  0
DICTIONARYVAR
  5
EC
102
{ACAD_REACTORS
330
E7
102
}
330
E7
100
DictionaryVariables
280
     0
  1
80.000000
  0
DICTIONARYVAR
  5
EB
102
{ACAD_REACTORS
330
E7
102
}
330
E7
100
DictionaryVariables
280
     0
  1
5.000000
  0
ENDSEC
  0
EOF
