  0
SECTION
  2
HEADER
  9
$ACADVER
  1
AC1015
  9
$ACADMAINTVER
 70
     6
  9
$DWGCODEPAGE
  3
ANSI_1252
  9
$INSBASE
 10
0.0
 20
0.0
 30
0.0
  9
$EXTMIN
 10
0.0
 20
0.0
 30
0.0
  9
$EXTMAX
 10
210.0
 20
297.0
 30
0.0
  9
$LIMMIN
 10
0.0
 20
0.0
  9
$LIMMAX
 10
210.0
 20
297.0
  9
$ORTHOMODE
 70
     0
  9
$REGENMODE
 70
     1
  9
$FILLMODE
 70
     1
  9
$QTEXTMODE
 70
     0
  9
$MIRRTEXT
 70
     1
  9
$LTSCALE
 40
1.0
  9
$ATTMODE
 70
     1
  9
$TEXTSIZE
 40
2.5
  9
$TRACEWID
 40
1.0
  9
$TEXTSTYLE
  7
Standard
  9
$CLAYER
  8
0
  9
$CELTYPE
  6
ByLayer
  9
$CECOLOR
 62
   256
  9
$CELTSCALE
 40
1.0
  9
$DISPSILH
 70
     0
  9
$DIMSCALE
 40
1.0
  9
$DIMASZ
 40
2.5
  9
$DIMEXO
 40
0.625
  9
$DIMDLI
 40
3.75
  9
$DIMRND
 40
0.0
  9
$DIMDLE
 40
0.0
  9
$DIMEXE
 40
1.25
  9
$DIMTP
 40
0.0
  9
$DIMTM
 40
0.0
  9
$DIMTXT
 40
2.5
  9
$DIMCEN
 40
2.5
  9
$DIMTSZ
 40
0.0
  9
$DIMTOL
 70
     0
  9
$DIMLIM
 70
     0
  9
$DIMTIH
 70
     0
  9
$DIMTOH
 70
     0
  9
$DIMSE1
 70
     0
  9
$DIMSE2
 70
     0
  9
$DIMTAD
 70
     1
  9
$DIMZIN
 70
     8
  9
$DIMBLK
  1

  9
$DIMASO
 70
     1
  9
$DIMSHO
 70
     1
  9
$DIMPOST
  1

  9
$DIMAPOST
  1

  9
$DIMALT
 70
     0
  9
$DIMALTD
 70
     3
  9
$DIMALTF
 40
0.0393700787
  9
$DIMLFAC
 40
1.0
  9
$DIMTOFL
 70
     1
  9
$DIMTVP
 40
0.0
  9
$DIMTIX
 70
     0
  9
$DIMSOXD
 70
     0
  9
$DIMSAH
 70
     0
  9
$DIMBLK1
  1

  9
$DIMBLK2
  1

  9
$DIMSTYLE
  2
ISO-25
  9
$DIMCLRD
 70
     0
  9
$DIMCLRE
 70
     0
  9
$DIMCLRT
 70
     0
  9
$DIMTFAC
 40
1.0
  9
$DIMGAP
 40
0.625
  9
$DIMJUST
 70
     0
  9
$DIMSD1
 70
     0
  9
$DIMSD2
 70
     0
  9
$DIMTOLJ
 70
     0
  9
$DIMTZIN
 70
     8
  9
$DIMALTZ
 70
     0
  9
$DIMALTTZ
 70
     0
  9
$DIMUPT
 70
     0
  9
$DIMDEC
 70
     2
  9
$DIMTDEC
 70
     2
  9
$DIMALTU
 70
     2
  9
$DIMALTTD
 70
     3
  9
$DIMTXSTY
  7
Standard
  9
$DIMAUNIT
 70
     0
  9
$DIMADEC
 70
     0
  9
$DIMALTRND
 40
0.0
  9
$DIMAZIN
 70
     0
  9
$DIMDSEP
 70
    44
  9
$DIMATFIT
 70
     3
  9
$DIMFRAC
 70
     0
  9
$DIMLDRBLK
  1

  9
$DIMLUNIT
 70
     2
  9
$DIMLWD
 70
    -2
  9
$DIMLWE
 70
    -2
  9
$DIMTMOVE
 70
     0
  9
$LUNITS
 70
     2
  9
$LUPREC
 70
     4
  9
$SKETCHINC
 40
1.0
  9
$FILLETRAD
 40
10.0
  9
$AUNITS
 70
     0
  9
$AUPREC
 70
     0
  9
$MENU
  1
.
  9
$ELEVATION
 40
0.0
  9
$PELEVATION
 40
0.0
  9
$THICKNESS
 40
0.0
  9
$LIMCHECK
 70
     0
  9
$CHAMFERA
 40
10.0
  9
$CHAMFERB
 40
10.0
  9
$CHAMFERC
 40
20.0
  9
$CHAMFERD
 40
0.0
  9
$SKPOLY
 70
     0
  9
$TDCREATE
 40
2455324.3695464
  9
$TDUCREATE
 40
2455324.286213067
  9
$TDUPDATE
 40
2455324.369546412
  9
$TDUUPDATE
 40
2455324.286213079
  9
$TDINDWG
 40
0.0000000116
  9
$TDUSRTIMER
 40
0.0000000116
  9
$USRTIMER
 70
     1
  9
$ANGBASE
 50
0.0
  9
$ANGDIR
 70
     0
  9
$PDMODE
 70
     0
  9
$PDSIZE
 40
0.0
  9
$PLINEWID
 40
0.0
  9
$SPLFRAME
 70
     0
  9
$SPLINETYPE
 70
     6
  9
$SPLINESEGS
 70
     8
  9
$HANDSEED
  5
EC
  9
$SURFTAB1
 70
     6
  9
$SURFTAB2
 70
     6
  9
$SURFTYPE
 70
     6
  9
$SURFU
 70
     6
  9
$SURFV
 70
     6
  9
$UCSBASE
  2

  9
$UCSNAME
  2

  9
$UCSORG
 10
0.0
 20
0.0
 30
0.0
  9
$UCSXDIR
 10
1.0
 20
0.0
 30
0.0
  9
$UCSYDIR
 10
0.0
 20
1.0
 30
0.0
  9
$UCSORTHOREF
  2

  9
$UCSORTHOVIEW
 70
     0
  9
$UCSORGTOP
 10
0.0
 20
0.0
 30
0.0
  9
$UCSORGBOTTOM
 10
0.0
 20
0.0
 30
0.0
  9
$UCSORGLEFT
 10
0.0
 20
0.0
 30
0.0
  9
$UCSORGRIGHT
 10
0.0
 20
0.0
 30
0.0
  9
$UCSORGFRONT
 10
0.0
 20
0.0
 30
0.0
  9
$UCSORGBACK
 10
0.0
 20
0.0
 30
0.0
  9
$PUCSBASE
  2

  9
$PUCSNAME
  2

  9
$PUCSORG
 10
0.0
 20
0.0
 30
0.0
  9
$PUCSXDIR
 10
1.0
 20
0.0
 30
0.0
  9
$PUCSYDIR
 10
0.0
 20
1.0
 30
0.0
  9
$PUCSORTHOREF
  2

  9
$PUCSORTHOVIEW
 70
     0
  9
$PUCSORGTOP
 10
0.0
 20
0.0
 30
0.0
  9
$PUCSORGBOTTOM
 10
0.0
 20
0.0
 30
0.0
  9
$PUCSORGLEFT
 10
0.0
 20
0.0
 30
0.0
  9
$PUCSORGRIGHT
 10
0.0
 20
0.0
 30
0.0
  9
$PUCSORGFRONT
 10
0.0
 20
0.0
 30
0.0
  9
$PUCSORGBACK
 10
0.0
 20
0.0
 30
0.0
  9
$USERI1
 70
     0
  9
$USERI2
 70
     0
  9
$USERI3
 70
     0
  9
$USERI4
 70
     0
  9
$USERI5
 70
     0
  9
$USERR1
 40
0.0
  9
$USERR2
 40
0.0
  9
$USERR3
 40
0.0
  9
$USERR4
 40
0.0
  9
$USERR5
 40
0.0
  9
$WORLDVIEW
 70
     1
  9
$SHADEDGE
 70
     3
  9
$SHADEDIF
 70
    70
  9
$TILEMODE
 70
     1
  9
$MAXACTVP
 70
    64
  9
$PINSBASE
 10
0.0
 20
0.0
 30
0.0
  9
$PLIMCHECK
 70
     0
  9
$PEXTMIN
 10
0.0
 20
0.0
 30
0.0
  9
$PEXTMAX
 10
210.0
 20
297.0
 30
0.0
  9
$PLIMMIN
 10
0.0
 20
0.0
  9
$PLIMMAX
 10
210.0
 20
297.0
  9
$UNITMODE
 70
     0
  9
$VISRETAIN
 70
     1
  9
$PLINEGEN
 70
     0
  9
$PSLTSCALE
 70
     1
  9
$TREEDEPTH
 70
  3020
  9
$CMLSTYLE
  2
Standard
  9
$CMLJUST
 70
     0
  9
$CMLSCALE
 40
20.0
  9
$PROXYGRAPHICS
 70
     1
  9
$MEASUREMENT
 70
     1
  9
$CELWEIGHT
370
    -1
  9
$ENDCAPS
280
     0
  9
$JOINSTYLE
280
     0
  9
$LWDISPLAY
290
     0
  9
$INSUNITS
 70
     4
  9
$HYPERLINKBASE
  1

  9
$STYLESHEET
  1

  9
$XEDIT
290
     1
  9
$CEPSNTYPE
380
     0
  9
$PSTYLEMODE
290
     1
  9
$FINGERPRINTGUID
  2
{5F5B46B0-5915-4FE5-874B-75ACDBBBFEF4}
  9
$VERSIONGUID
  2
{FAEB1C32-E019-11D5-929B-00C0DF256EC4}
  9
$EXTNAMES
290
     1
  9
$PSVPSCALE
 40
0.0
  9
$OLESTARTUP
290
     0
  0
ENDSEC
  0
SECTION
  2
CLASSES
  0
CLASS
  1
ACDBDICTIONARYWDFLT
  2
AcDbDictionaryWithDefault
  3
ObjectDBX Classes
 90
        0
280
     0
281
     0
  0
CLASS
  1
VISUALSTYLE
  2
AcDbVisualStyle
  3
ObjectDBX Classes
 90
     4095
280
     0
281
     0
  0
CLASS
  1
SCALE
  2
AcDbScale
  3
ObjectDBX Classes
 90
     1153
280
     0
281
     0
  0
CLASS
  1
DICTIONARYVAR
  2
AcDbDictionaryVar
  3
ObjectDBX Classes
 90
        0
280
     0
281
     0
  0
CLASS
  1
ACDBPLACEHOLDER
  2
AcDbPlaceHolder
  3
ObjectDBX Classes
 90
        0
280
     0
281
     0
  0
CLASS
  1
LAYOUT
  2
AcDbLayout
  3
ObjectDBX Classes
 90
        0
280
     0
281
     0
  0
ENDSEC
  0
SECTION
  2
TABLES
  0
TABLE
  2
VPORT
  5
8
330
0
100
AcDbSymbolTable
 70
     1
  0
VPORT
  5
29
330
8
100
AcDbSymbolTableRecord
100
AcDbViewportTableRecord
  2
*Active
 70
     0
 10
0.0
 20
0.0
 11
1.0
 21
1.0
 12
344.1869158879
 22
148.5
 13
0.0
 23
0.0
 14
10.0
 24
10.0
 15
10.0
 25
10.0
 16
0.0
 26
0.0
 36
1.0
 17
0.0
 27
0.0
 37
0.0
 40
297.0
 41
1.9729729729
 42
50.0
 43
0.0
 44
0.0
 50
0.0
 51
0.0
 71
     0
 72
   100
 73
     1
 74
     3
 75
     0
 76
     0
 77
     0
 78
     0
281
     0
 65
     1
110
0.0
120
0.0
130
0.0
111
1.0
121
0.0
131
0.0
112
0.0
122
1.0
132
0.0
 79
     0
146
0.0
  0
ENDTAB
  0
TABLE
  2
LTYPE
  5
5
330
0
100
AcDbSymbolTable
 70
     2
  0
LTYPE
  5
14
330
5
100
AcDbSymbolTableRecord
100
AcDbLinetypeTableRecord
  2
ByBlock
 70
     0
  3

 72
    65
 73
     0
 40
0.0
  0
LTYPE
  5
15
330
5
100
AcDbSymbolTableRecord
100
AcDbLinetypeTableRecord
  2
ByLayer
 70
     0
  3

 72
    65
 73
     0
 40
0.0
  0
LTYPE
  5
16
330
5
100
AcDbSymbolTableRecord
100
AcDbLinetypeTableRecord
  2
Continuous
 70
     0
  3
Solid line
 72
    65
 73
     0
 40
0.0
  0
LTYPE
  5
82
330
5
100
AcDbSymbolTableRecord
100
AcDbLinetypeTableRecord
  2
CENTER2
 70
     0
  3
Center (.5x) ___ _ ___ _ ___ _ ___ _ ___ _ ___
 72
    65
 73
     4
 40
28.575
 49
19.05
 74
     4
 75
     0
340
0
 46
0.0
 50
0.0
 44
0.0
 45
0.0
 49
-3.175
 74
     4
 75
     0
340
0
 46
0.0
 50
0.0
 44
0.0
 45
0.0
 49
3.175
 74
     4
 75
     0
340
0
 46
0.0
 50
0.0
 44
0.0
 45
0.0
 49
-3.175
 74
     4
 75
     0
340
0
 46
0.0
 50
0.0
 44
0.0
 45
0.0
  0
ENDTAB
  0
TABLE
  2
LAYER
  5
2
330
0
100
AcDbSymbolTable
 70
     4
  0
LAYER
  5
10
330
2
100
AcDbSymbolTableRecord
100
AcDbLayerTableRecord
  2
0
 70
     0
 62
     7
  6
Continuous
370
    -3
390
F
  0
LAYER
  5
5F
330
2
100
AcDbSymbolTableRecord
100
AcDbLayerTableRecord
  2
Default
 70
     0
 62
     7
  6
Continuous
370
    -3
390
F
  0
LAYER
  5
62
330
2
100
AcDbSymbolTableRecord
100
AcDbLayerTableRecord
  2
MEGA_001157
 70
     0
 62
     7
  6
Continuous
370
    -3
390
F
  0
LAYER
  5
81
330
2
100
AcDbSymbolTableRecord
100
AcDbLayerTableRecord
  2
DV1_Standard
 70
     0
 62
     7
  6
Continuous
370
    -3
390
F
  0
ENDTAB
  0
TABLE
  2
STYLE
  5
3
330
0
100
AcDbSymbolTable
 70
     3
  0
STYLE
  5
11
330
3
100
AcDbSymbolTableRecord
100
AcDbTextStyleTableRecord
  2
Standard
 70
     0
 40
0.0
 41
1.0
 50
0.0
 71
     0
 42
2.5
  3
txt
  4

  0
STYLE
  5
5D
330
3
100
AcDbSymbolTableRecord
100
AcDbTextStyleTableRecord
  2
SEACAD_seiso_ttf
 70
     0
 40
0.0
 41
1.0
 50
0.0
 71
     0
 42
0.2
  3
seiso.ttf
  4

  0
STYLE
  5
9E
330
3
100
AcDbSymbolTableRecord
100
AcDbTextStyleTableRecord
  2
SEACAD_semeci1_ttf
 70
     0
 40
0.0
 41
1.0
 50
0.0
 71
     0
 42
0.2
  3
semeci1.ttf
  4

  0
ENDTAB
  0
TABLE
  2
VIEW
  5
6
330
0
100
AcDbSymbolTable
 70
     0
  0
ENDTAB
  0
TABLE
  2
UCS
  5
7
330
0
100
AcDbSymbolTable
 70
     0
  0
ENDTAB
  0
TABLE
  2
APPID
  5
9
330
0
100
AcDbSymbolTable
 70
     1
  0
APPID
  5
12
330
9
100
AcDbSymbolTableRecord
100
AcDbRegAppTableRecord
  2
ACAD
 70
     0
  0
ENDTAB
  0
TABLE
  2
DIMSTYLE
  5
A
330
0
100
AcDbSymbolTable
 70
     3
100
AcDbDimStyleTable
  0
DIMSTYLE
105
27
330
A
100
AcDbSymbolTableRecord
100
AcDbDimStyleTableRecord
  2
ISO-25
 70
     0
 41
2.5
 42
0.625
 43
3.75
 44
1.25
 73
     0
 74
     0
 77
     1
 78
     8
140
2.5
141
2.5
143
0.0393700787
147
0.625
171
     3
172
     1
271
     2
272
     2
274
     3
278
    44
283
     0
284
     8
340
11
  0
DIMSTYLE
105
8A
330
A
100
AcDbSymbolTableRecord
100
AcDbDimStyleTableRecord
  2
Standard
 70
     0
340
11
  0
DIMSTYLE
105
9C
102
{ACAD_REACTORS
330
9D
330
A9
330
B3
330
BD
330
D0
330
DB
102
}
330
A
100
AcDbSymbolTableRecord
100
AcDbDimStyleTableRecord
  2
DIN
 70
     0
 41
3.0
 42
0.0
 44
1.5
 73
     0
 74
     0
 77
     1
 78
     8
140
3.0
141
1.5
147
1.5
172
     1
173
     1
271
     0
272
     0
278
    44
284
     8
340
5D
343
97
344
97
  0
ENDTAB
  0
TABLE
  2
BLOCK_RECORD
  5
1
330
0
100
AcDbSymbolTable
 70
    12
  0
BLOCK_RECORD
  5
1F
330
1
100
AcDbSymbolTableRecord
100
AcDbBlockTableRecord
  2
*Model_Space
340
22
  0
BLOCK_RECORD
  5
1B
330
1
100
AcDbSymbolTableRecord
100
AcDbBlockTableRecord
  2
*Paper_Space
340
1E
  0
BLOCK_RECORD
  5
60
330
1
100
AcDbSymbolTableRecord
100
AcDbBlockTableRecord
  2
SE
340
0
102
{BLKREFS
331
61
102
}
  0
BLOCK_RECORD
  5
8B
330
1
100
AcDbSymbolTableRecord
100
AcDbBlockTableRecord
  2
_OBLIQUE
340
0
  0
BLOCK_RECORD
  5
8F
330
1
100
AcDbSymbolTableRecord
100
AcDbBlockTableRecord
  2
_DOT
340
0
  0
BLOCK_RECORD
  5
97
330
1
100
AcDbSymbolTableRecord
100
AcDbBlockTableRecord
  2
_SE_FILLED
340
0
  0
BLOCK_RECORD
  5
9F
330
1
100
AcDbSymbolTableRecord
100
AcDbBlockTableRecord
  2
DMBLK37
340
0
  0
BLOCK_RECORD
  5
AA
330
1
100
AcDbSymbolTableRecord
100
AcDbBlockTableRecord
  2
DMBLK38
340
0
  0
BLOCK_RECORD
  5
B4
330
1
100
AcDbSymbolTableRecord
100
AcDbBlockTableRecord
  2
DMBLK39
340
0
  0
BLOCK_RECORD
  5
BE
330
1
100
AcDbSymbolTableRecord
100
AcDbBlockTableRecord
  2
DMBLK40
340
0
  0
BLOCK_RECORD
  5
C7
330
1
100
AcDbSymbolTableRecord
100
AcDbBlockTableRecord
  2
GDimGGroup
340
0
102
{BLKREFS
331
C8
102
}
  0
BLOCK_RECORD
  5
D1
330
1
100
AcDbSymbolTableRecord
100
AcDbBlockTableRecord
  2
DMBLK41
340
0
  0
BLOCK_RECORD
  5
DC
330
1
100
AcDbSymbolTableRecord
100
AcDbBlockTableRecord
  2
DMBLK42
340
0
  0
ENDTAB
  0
ENDSEC
  0
SECTION
  2
BLOCKS
  0
BLOCK
  5
20
330
1F
100
AcDbEntity
  8
0
100
AcDbBlockBegin
  2
*Model_Space
 70
     0
 10
0.0
 20
0.0
 30
0.0
  3
*Model_Space
  1

  0
ENDBLK
  5
21
330
1F
100
AcDbEntity
  8
0
100
AcDbBlockEnd
  0
BLOCK
  5
1C
330
1B
100
AcDbEntity
 67
     1
  8
0
100
AcDbBlockBegin
  2
*Paper_Space
 70
     0
 10
0.0
 20
0.0
 30
0.0
  3
*Paper_Space
  1

  0
ENDBLK
  5
1D
330
1B
100
AcDbEntity
 67
     1
  8
0
100
AcDbBlockEnd
  0
BLOCK
  5
88
330
60
100
AcDbEntity
  8
0
100
AcDbBlockBegin
  2
SE
 70
     0
 10
0.0
 20
0.0
 30
0.0
  3
SE
  1

  0
LINE
  5
63
330
60
100
AcDbEntity
  8
MEGA_001157
  6
Continuous
 62
     7
100
AcDbLine
 10
82.4308573949
 20
207.624514833
 30
0.0
 11
82.4308573949
 21
189.6245148241
 31
0.0
  0
LINE
  5
64
330
60
100
AcDbEntity
  8
MEGA_001157
  6
Continuous
 62
     7
100
AcDbLine
 10
70.4308574009
 20
227.6245148285
 30
0.0
 11
47.4308574009
 21
227.6245148285
 31
0.0
  0
LINE
  5
65
330
60
100
AcDbEntity
  8
MEGA_001157
  6
Continuous
 62
     7
100
AcDbLine
 10
66.9308574009
 20
247.3245148285
 30
0.0
 11
50.9308574009
 21
247.3245148285
 31
0.0
  0
ARC
  5
66
330
60
100
AcDbEntity
  8
MEGA_001157
  6
Continuous
 62
     7
100
AcDbCircle
 10
36.2100124989
 20
233.6245148275
 30
0.0
 40
11.48701799889323
100
AcDbArc
 50
347.6417158687
 51
12.35828371
  0
LINE
  5
67
330
60
100
AcDbEntity
  8
MEGA_001157
  6
Continuous
 62
     7
100
AcDbLine
 10
159.4308574009
 20
205.624514833
 30
0.0
 11
159.4308574009
 21
191.6245148241
 31
0.0
  0
LINE
  5
68
330
60
100
AcDbEntity
  8
MEGA_001157
  6
Continuous
 62
     7
100
AcDbLine
 10
66.6308574009
 20
247.6245148285
 30
0.0
 11
51.2308574009
 21
247.6245148285
 31
0.0
  0
LINE
  5
69
330
60
100
AcDbEntity
  8
MEGA_001157
  6
Continuous
 62
     7
100
AcDbLine
 10
70.4308574009
 20
238.6245148285
 30
0.0
 11
47.4308574009
 21
238.6245148285
 31
0.0
  0
ARC
  5
6A
330
60
100
AcDbEntity
  8
MEGA_001157
  6
Continuous
 62
     7
100
AcDbCircle
 10
157.4308574009
 20
191.6245148241
 30
0.0
 40
2.000000000000001
100
AcDbArc
 50
270.0
 51
0.0
  0
ARC
  5
6B
330
60
100
AcDbEntity
  8
MEGA_001157
  6
Continuous
 62
     7
100
AcDbCircle
 10
157.4308574009
 20
205.624514833
 30
0.0
 40
2.000000000000002
100
AcDbArc
 50
0.0
 51
90.0
  0
LINE
  5
6C
330
60
100
AcDbEntity
  8
MEGA_001157
  6
Continuous
 62
     7
100
AcDbLine
 10
157.4308574009
 20
207.624514833
 30
0.0
 11
82.4308573949
 21
207.624514833
 31
0.0
  0
ARC
  5
6D
330
60
100
AcDbEntity
  8
MEGA_001157
  6
Continuous
 62
     7
100
AcDbCircle
 10
80.4308574009
 20
188.1245148285
 30
0.0
 40
2.499999992561667
100
AcDbArc
 50
36.8698976458
 51
90.0
  0
ARC
  5
6E
330
60
100
AcDbEntity
  8
MEGA_001157
  6
Continuous
 62
     7
100
AcDbCircle
 10
80.4308574009
 20
209.1245148285
 30
0.0
 40
2.499999992561666
100
AcDbArc
 50
270.0
 51
323.1301023542
  0
LINE
  5
6F
330
60
100
AcDbEntity
  8
MEGA_001157
  6
Continuous
 62
     7
100
AcDbLine
 10
71.4308574009
 20
190.6245148211
 30
0.0
 11
80.4308574009
 21
190.6245148211
 31
0.0
  0
LINE
  5
70
330
60
100
AcDbEntity
  8
MEGA_001157
  6
Continuous
 62
     7
100
AcDbLine
 10
80.4308574009
 20
206.624514836
 30
0.0
 11
71.4308574009
 21
206.624514836
 31
0.0
  0
LINE
  5
71
330
60
100
AcDbEntity
  8
MEGA_001157
  6
Continuous
 62
     7
100
AcDbLine
 10
66.9308574009
 20
211.1245148285
 30
0.0
 11
66.9308574009
 21
224.1245148285
 31
0.0
  0
LINE
  5
72
330
60
100
AcDbEntity
  8
MEGA_001157
  6
Continuous
 62
     7
100
AcDbLine
 10
50.9308574009
 20
224.1245148285
 30
0.0
 11
50.9308574009
 21
211.1245148285
 31
0.0
  0
ARC
  5
73
330
60
100
AcDbEntity
  8
MEGA_001157
  6
Continuous
 62
     7
100
AcDbCircle
 10
70.4308574009
 20
224.1245148285
 30
0.0
 40
3.5
100
AcDbArc
 50
90.0
 51
180.0
  0
ARC
  5
74
330
60
100
AcDbEntity
  8
MEGA_001157
  6
Continuous
 62
     7
100
AcDbCircle
 10
47.4308574009
 20
224.1245148285
 30
0.0
 40
3.5
100
AcDbArc
 50
0.0
 51
90.0
  0
LINE
  5
75
330
60
100
AcDbEntity
  8
MEGA_001157
  6
Continuous
 62
     7
100
AcDbLine
 10
70.4308574009
 20
227.6245148285
 30
0.0
 11
70.4308574009
 21
238.6245148285
 31
0.0
  0
LINE
  5
76
330
60
100
AcDbEntity
  8
MEGA_001157
  6
Continuous
 62
     7
100
AcDbLine
 10
66.9308574009
 20
238.6245148285
 30
0.0
 11
66.9308574009
 21
247.3245148285
 31
0.0
  0
SPLINE
  5
77
330
60
100
AcDbEntity
  8
MEGA_001157
  6
Continuous
 62
     7
100
AcDbSpline
210
0.0
220
0.0
230
1.0
 70
     8
 71
     3
 72
    74
 73
    70
 74
     0
 42
0.0000000005512294
 43
0.0000000001
 40
0.0
 40
0.0
 40
0.0
 40
0.0
 40
0.0341004748018122
 40
0.0341004748018122
 40
0.0341004748018122
 40
0.0613812466995827
 40
0.0613812466995827
 40
0.0613812466995827
 40
0.0823001651959396
 40
0.0823001651959396
 40
0.0823001651959396
 40
0.1018838955526627
 40
0.1018838955526627
 40
0.1018838955526627
 40
0.1215121331462866
 40
0.1215121331462866
 40
0.1215121331462866
 40
0.1411730933459102
 40
0.1411730933459102
 40
0.1411730933459102
 40
0.1884538365936627
 40
0.1884538365936627
 40
0.1884538365936627
 40
0.239123384155204
 40
0.239123384155204
 40
0.239123384155204
 40
0.2879902145043667
 40
0.2879902145043667
 40
0.2879902145043667
 40
0.3389664950241636
 40
0.3389664950241636
 40
0.3389664950241636
 40
0.3895814005659747
 40
0.3895814005659747
 40
0.3895814005659747
 40
0.4392795278932108
 40
0.4392795278932108
 40
0.4392795278932108
 40
0.489239971103111
 40
0.489239971103111
 40
0.489239971103111
 40
0.5895334607835027
 40
0.5895334607835027
 40
0.5895334607835027
 40
0.6861030221220658
 40
0.6861030221220658
 40
0.6861030221220658
 40
0.77601322050178
 40
0.77601322050178
 40
0.77601322050178
 40
0.8308872118365435
 40
0.8308872118365435
 40
0.8308872118365435
 40
0.8806289792131742
 40
0.8806289792131742
 40
0.8806289792131742
 40
0.895488509625158
 40
0.895488509625158
 40
0.895488509625158
 40
0.914111956489276
 40
0.914111956489276
 40
0.914111956489276
 40
0.9377448661796689
 40
0.9377448661796689
 40
0.9377448661796689
 40
0.9663787733413258
 40
0.9663787733413258
 40
0.9663787733413258
 40
1.0
 40
1.0
 40
1.0
 40
1.0
 10
54.15268280409825
 20
193.846340231763
 30
0.0
 10
54.31532176158468
 20
193.6882736560607
 30
0.0
 10
54.45245177909119
 20
193.5559537639455
 30
0.0
 10
54.60225737732159
 20
193.4215252336659
 30
0.0
 10
54.72210357823475
 20
193.313980863905
 30
0.0
 10
54.85006238398459
 20
193.2050869269294
 30
0.0
 10
54.97864696395865
 20
193.100290853085
 30
0.0
 10
55.07724572642936
 20
193.0199331368259
 30
0.0
 10
55.17621243382537
 20
192.9419848965172
 30
0.0
 10
55.27676711782537
 20
192.8655631422844
 30
0.0
 10
55.37090371565686
 20
192.7940191459471
 30
0.0
 10
55.46643204828428
 20
192.723812992864
 30
0.0
 10
55.56300096913628
 20
192.6552088787756
 30
0.0
 10
55.65978935868803
 20
192.5864488505941
 30
0.0
 10
55.75762307165358
 20
192.5192981514742
 30
0.0
 10
55.85653912153282
 20
192.4537493389736
 30
0.0
 10
55.95562007622901
 20
192.3880912488084
 30
0.0
 10
56.05578697961567
 20
192.3240403907855
 30
0.0
 10
56.15697945276968
 20
192.2616392421787
 30
0.0
 10
56.40032745272602
 20
192.1115767500276
 30
0.0
 10
56.64960640389711
 20
191.9710546581277
 30
0.0
 10
56.90394096347701
 20
191.8403873466976
 30
0.0
 10
57.17650472153066
 20
191.700354574443
 30
0.0
 10
57.45487477181872
 20
191.5716398732663
 30
0.0
 10
57.73814440141881
 20
191.45483825772
 30
0.0
 10
58.01133588622388
 20
191.3421922009444
 30
0.0
 10
58.28908451847084
 20
191.240626623583
 30
0.0
 10
58.57046873239759
 20
191.1503746561698
 30
0.0
 10
58.86399954911892
 20
191.0562267530739
 30
0.0
 10
59.16148659877264
 20
190.9743902983798
 30
0.0
 10
59.46186086544751
 20
190.9051983262442
 30
0.0
 10
59.76010575463739
 20
190.8364968615986
 30
0.0
 10
60.06119707051548
 20
190.7802612394405
 30
0.0
 10
60.36415980821409
 20
190.7361571852387
 30
0.0
 10
60.66163503912441
 20
190.6928519794321
 30
0.0
 10
60.9609145124007
 20
190.6612428480393
 30
0.0
 10
61.26088522163804
 20
190.6442457663003
 30
0.0
 10
61.5624392316072
 20
190.6271589708288
 30
0.0
 10
61.86469179373651
 20
190.6248388822779
 30
0.0
 10
62.16685971565098
 20
190.6235956003433
 30
0.0
 10
62.7734491174093
 20
190.6210997641203
 30
0.0
 10
63.37969742862523
 20
190.6229433374022
 30
0.0
 10
63.98602274586551
 20
190.6236874066148
 30
0.0
 10
64.56983501624268
 20
190.6244038483071
 30
0.0
 10
65.15371868029423
 20
190.6241009199413
 30
0.0
 10
65.73756841636674
 20
190.6240554003184
 30
0.0
 10
66.28115632198211
 20
190.6240130196939
 30
0.0
 10
66.82471481757298
 20
190.6241937704683
 30
0.0
 10
67.36825474683269
 20
190.6242803387847
 30
0.0
 10
67.69998803077375
 20
190.6243331731587
 30
0.0
 10
68.03171439893302
 20
190.6243509254627
 30
0.0
 10
68.36347501301344
 20
190.6243739936094
 30
0.0
 10
68.66420690600886
 20
190.6243949042514
 30
0.0
 10
68.96496693862089
 20
190.6244201828814
 30
0.0
 10
69.26566065722312
 20
190.6244396429418
 30
0.0
 10
69.35548793300988
 20
190.624445456313
 30
0.0
 10
69.4453092908229
 20
190.6244507504253
 30
0.0
 10
69.53518208147285
 20
190.6244558363333
 30
0.0
 10
69.64781963426186
 20
190.6244622105008
 30
0.0
 10
69.76053797571701
 20
190.6244682576292
 30
0.0
 10
69.87297887243474
 20
190.6244737869963
 30
0.0
 10
70.01566489490015
 20
190.6244808036905
 30
0.0
 10
70.15790414042075
 20
190.6244869866193
 30
0.0
 10
70.30164220410335
 20
190.6244924183779
 30
0.0
 10
70.47579690722723
 20
190.6244989995596
 30
0.0
 10
70.6521518793582
 20
190.6245044780213
 30
0.0
 10
70.82101786816332
 20
190.6245079716905
 30
0.0
 10
71.01929614197714
 20
190.6245120738706
 30
0.0
 10
71.20724944700197
 20
190.6245134396417
 30
0.0
 10
71.43085740086944
 20
190.6245148210958
 30
0.0
  0
ARC
  5
78
330
60
100
AcDbEntity
  8
MEGA_001157
  6
Continuous
 62
     7
100
AcDbCircle
 10
71.4356654479
 20
211.1361225065
 30
0.0
 40
4.511610232464448
100
AcDbArc
 50
225.0610606579
 51
269.9389395708
  0
SPLINE
  5
79
330
60
100
AcDbEntity
  8
MEGA_001157
  6
Continuous
 62
     7
100
AcDbSpline
210
0.0
220
0.0
230
1.0
 70
     8
 71
     3
 72
    74
 73
    70
 74
     0
 42
0.0000000005512166
 43
0.0000000001
 40
0.0
 40
0.0
 40
0.0
 40
0.0
 40
0.0467434723970051
 40
0.0467434723970051
 40
0.0467434723970051
 40
0.0871323097050379
 40
0.0871323097050379
 40
0.0871323097050379
 40
0.1211402800988764
 40
0.1211402800988764
 40
0.1211402800988764
 40
0.1489712424556004
 40
0.1489712424556004
 40
0.1489712424556004
 40
0.1756859372074638
 40
0.1756859372074638
 40
0.1756859372074638
 40
0.2310798134094264
 40
0.2310798134094264
 40
0.2310798134094264
 40
0.2903100897152496
 40
0.2903100897152496
 40
0.2903100897152496
 40
0.3648343510302031
 40
0.3648343510302031
 40
0.3648343510302031
 40
0.4409374028256943
 40
0.4409374028256943
 40
0.4409374028256943
 40
0.5185429825620642
 40
0.5185429825620642
 40
0.5185429825620642
 40
0.5683540161022701
 40
0.5683540161022701
 40
0.5683540161022701
 40
0.6184998577659933
 40
0.6184998577659933
 40
0.6184998577659933
 40
0.6680743328382353
 40
0.6680743328382353
 40
0.6680743328382353
 40
0.7168633739358995
 40
0.7168633739358995
 40
0.7168633739358995
 40
0.7645618187862608
 40
0.7645618187862608
 40
0.7645618187862608
 40
0.8289391250051215
 40
0.8289391250051215
 40
0.8289391250051215
 40
0.8898869901598516
 40
0.8898869901598516
 40
0.8898869901598516
 40
0.9051266933725037
 40
0.9051266933725037
 40
0.9051266933725037
 40
0.919876661577328
 40
0.919876661577328
 40
0.919876661577328
 40
0.9341294893754285
 40
0.9341294893754285
 40
0.9341294893754285
 40
0.9486395684482557
 40
0.9486395684482557
 40
0.9486395684482557
 40
0.970074673315859
 40
0.970074673315859
 40
0.970074673315859
 40
1.0
 40
1.0
 40
1.0
 40
1.0
 10
50.93085740086944
 20
211.1245148285341
 30
0.0
 10
50.93085473025977
 20
210.813638896098
 30
0.0
 10
50.93085214243617
 20
210.5522757063826
 30
0.0
 10
50.93084455420357
 20
210.276672564897
 30
0.0
 10
50.93083799756848
 20
210.0385368451434
 30
0.0
 10
50.93082770769014
 20
209.7897697542915
 30
0.0
 10
50.93081553344148
 20
209.5440967195607
 30
0.0
 10
50.93080528255249
 20
209.3372365609488
 30
0.0
 10
50.93079369566804
 20
209.1325700501947
 30
0.0
 10
50.93078047279009
 20
208.9272652164454
 30
0.0
 10
50.93076965163805
 20
208.7592507470854
 30
0.0
 10
50.93075773482402
 20
208.590808778325
 30
0.0
 10
50.9307454850893
 20
208.4224839379334
 30
0.0
 10
50.93073372667721
 20
208.2609104115645
 30
0.0
 10
50.93072166151498
 20
208.0994448062251
 30
0.0
 10
50.93070674639549
 20
207.9379620602721
 30
0.0
 10
50.93067581936112
 20
207.6031218039579
 30
0.0
 10
50.93063263879088
 20
207.2682078507056
 30
0.0
 10
50.93060860143464
 20
206.933323601465
 30
0.0
 10
50.93058289932911
 20
206.5752463558744
 30
0.0
 10
50.93057908385175
 20
206.2172030711776
 30
0.0
 10
50.93046965675252
 20
205.8591601576475
 30
0.0
 10
50.93033197423192
 20
205.4086661651476
 30
0.0
 10
50.93002709814759
 20
204.9581727602412
 30
0.0
 10
50.9302115641396
 20
204.5076260304632
 30
0.0
 10
50.93039993802881
 20
204.0475345044609
 30
0.0
 10
50.93109860695652
 20
203.5873873702888
 30
0.0
 10
50.92985510016106
 20
203.1272883069106
 30
0.0
 10
50.92858704239607
 20
202.6581053542274
 30
0.0
 10
50.92529936180282
 20
202.1889723892315
 30
0.0
 10
50.92989420293712
 20
201.7196556012554
 30
0.0
 10
50.93284339533578
 20
201.4184252728915
 30
0.0
 10
50.93903994736591
 20
201.1171192150407
 30
0.0
 10
50.95988295659993
 20
200.8167177507834
 30
0.0
 10
50.98086606348531
 20
200.5142971184141
 30
0.0
 10
51.01669318353562
 20
200.2127932810774
 30
0.0
 10
51.06437111139704
 20
199.9132672340343
 30
0.0
 10
51.11150579231659
 20
199.6171540158695
 30
0.0
 10
51.17022276107274
 20
199.3229737744963
 30
0.0
 10
51.2408633970872
 20
199.0316468606205
 30
0.0
 10
51.31038483707527
 20
198.7449355892811
 30
0.0
 10
51.39145511174569
 20
198.4609879481948
 30
0.0
 10
51.48380026964559
 20
198.180778868994
 30
0.0
 10
51.57408120819632
 20
197.9068333884079
 30
0.0
 10
51.67513860192404
 20
197.6364611993377
 30
0.0
 10
51.78670380746326
 20
197.3704504589703
 30
0.0
 10
51.93728036028171
 20
197.011422927908
 30
0.0
 10
52.10699812572418
 20
196.6603402876057
 30
0.0
 10
52.29481471824291
 20
196.3191986292557
 30
0.0
 10
52.4726261401085
 20
195.996229915388
 30
0.0
 10
52.66665946594314
 20
195.6821712625927
 30
0.0
 10
52.87598585813173
 20
195.3788500171431
 30
0.0
 10
52.92832685618688
 20
195.3030060848411
 30
0.0
 10
52.98162401429509
 20
195.2278334816069
 30
0.0
 10
53.03584468868672
 20
195.1533474961526
 30
0.0
 10
53.08832295628557
 20
195.0812551527634
 30
0.0
 10
53.14166633861482
 20
195.0098060066479
 30
0.0
 10
53.19589908545469
 20
194.9389694014481
 30
0.0
 10
53.24830394429864
 20
194.8705203091046
 30
0.0
 10
53.301539226781
 20
194.8026431627404
 30
0.0
 10
53.35544112553541
 20
194.7355512124972
 30
0.0
 10
53.41031590717039
 20
194.6672483102963
 30
0.0
 10
53.4658815859419
 20
194.5997592042391
 30
0.0
 10
53.52269828596454
 20
194.5323453004945
 30
0.0
 10
53.6066311106655
 20
194.4327576904583
 30
0.0
 10
53.69329402153046
 20
194.3333341933761
 30
0.0
 10
53.77852640442557
 20
194.2395747811546
 30
0.0
 10
53.89751844658996
 20
194.1086782421467
 30
0.0
 10
54.01372229513655
 20
193.988821379113
 30
0.0
 10
54.15268280409825
 20
193.846340231763
 30
0.0
  0
ARC
  5
7A
330
60
100
AcDbEntity
  8
MEGA_001157
  6
Continuous
 62
     7
100
AcDbCircle
 10
71.4420762178
 20
211.1291618147
 30
0.0
 40
4.511221210369961
100
AcDbArc
 50
180.0590201029
 51
224.9409798971
  0
LINE
  5
7B
330
60
100
AcDbEntity
  8
MEGA_001157
  6
Continuous
 62
     7
100
AcDbLine
 10
66.9308574009
 20
247.3245148285
 30
0.0
 11
66.6308574009
 21
247.6245148285
 31
0.0
  0
LINE
  5
7C
330
60
100
AcDbEntity
  8
MEGA_001157
  6
Continuous
 62
     7
100
AcDbLine
 10
51.2308574009
 20
247.6245148285
 30
0.0
 11
50.9308574009
 21
247.3245148285
 31
0.0
  0
LINE
  5
7D
330
60
100
AcDbEntity
  8
MEGA_001157
  6
Continuous
 62
     7
100
AcDbLine
 10
47.4308574009
 20
238.6245148285
 30
0.0
 11
47.4308574009
 21
236.0786517649
 31
0.0
  0
LINE
  5
7E
330
60
100
AcDbEntity
  8
MEGA_001157
  6
Continuous
 62
     7
100
AcDbLine
 10
50.9308574009
 20
247.3245148285
 30
0.0
 11
50.9308574009
 21
238.6245148285
 31
0.0
  0
LINE
  5
7F
330
60
100
AcDbEntity
  8
MEGA_001157
  6
Continuous
 62
     7
100
AcDbLine
 10
82.4308573949
 20
189.6245148241
 30
0.0
 11
157.4308574009
 21
189.6245148241
 31
0.0
  0
LINE
  5
80
330
60
100
AcDbEntity
  8
MEGA_001157
  6
Continuous
 62
     7
100
AcDbLine
 10
47.4308574009
 20
231.1742938365
 30
0.0
 11
47.4308574009
 21
227.6245148285
 31
0.0
  0
LINE
  5
83
330
60
100
AcDbEntity
  8
DV1_Standard
  6
CENTER2
 62
     7
100
AcDbLine
 10
58.9308574009
 20
247.6245148285
 30
0.0
 11
58.9308574009
 21
204.6245148285
 31
0.0
  0
LINE
  5
84
330
60
100
AcDbEntity
  8
DV1_Standard
  6
CENTER2
 62
     7
100
AcDbLine
 10
159.4308574009
 20
198.6245148285
 30
0.0
 11
66.6424338888
 21
198.6245148285
 31
0.0
  0
ARC
  5
85
330
60
100
AcDbEntity
  8
DV1_Standard
  6
CENTER2
 62
     7
100
AcDbCircle
 10
66.6424338888
 20
206.3745148285
 30
0.0
 40
7.75
100
AcDbArc
 50
174.2922505193
 51
270.0
  0
LINE
  5
86
330
60
100
AcDbEntity
  8
DV1_Standard
  6
CENTER2
 62
     7
100
AcDbLine
 10
58.9308574009
 20
245.1489179054
 30
0.0
 11
58.9308574009
 21
251.5388877381
 31
0.0
  0
LINE
  5
87
330
60
100
AcDbEntity
  8
DV1_Standard
  6
CENTER2
 62
     7
100
AcDbLine
 10
154.912312468
 20
198.6245148285
 30
0.0
 11
164.4369844828
 21
198.6245148285
 31
0.0
  0
ENDBLK
  5
89
330
60
100
AcDbEntity
  8
0
100
AcDbBlockEnd
  0
BLOCK
  5
8C
330
8B
100
AcDbEntity
  8
0
100
AcDbBlockBegin
  2
_OBLIQUE
 70
     0
 10
0.0
 20
0.0
 30
0.0
  3
_OBLIQUE
  1

  0
LINE
  5
8E
330
8B
100
AcDbEntity
  8
0
  6
ByBlock
 62
     0
370
    -2
100
AcDbLine
 10
-0.5
 20
-0.5
 30
0.0
 11
0.5
 21
0.5
 31
0.0
  0
ENDBLK
  5
8D
330
8B
100
AcDbEntity
  8
0
100
AcDbBlockEnd
  0
BLOCK
  5
90
330
8F
100
AcDbEntity
  8
0
100
AcDbBlockBegin
  2
_DOT
 70
     0
 10
0.0
 20
0.0
 30
0.0
  3
_DOT
  1

  0
POLYLINE
  5
92
330
8F
100
AcDbEntity
  8
0
  6
ByBlock
 62
     0
100
AcDb2dPolyline
 66
     1
 10
0.0
 20
0.0
 30
0.0
 70
     1
 40
0.5
 41
0.5
  0
VERTEX
  5
95
330
92
100
AcDbEntity
  8
0
  6
ByBlock
 62
     0
100
AcDbVertex
100
AcDb2dVertex
 10
-0.25
 20
0.0
 30
0.0
 42
1.0
  0
VERTEX
  5
96
330
92
100
AcDbEntity
  8
0
  6
ByBlock
 62
     0
100
AcDbVertex
100
AcDb2dVertex
 10
0.25
 20
0.0
 30
0.0
 42
1.0
  0
SEQEND
  5
94
330
92
100
AcDbEntity
  8
0
  6
ByBlock
 62
     0
  0
LINE
  5
93
330
8F
100
AcDbEntity
  8
0
  6
ByBlock
 62
     0
370
    -2
100
AcDbLine
 10
-0.5
 20
0.0
 30
0.0
 11
-1.0
 21
0.0
 31
0.0
  0
ENDBLK
  5
91
330
8F
100
AcDbEntity
  8
0
100
AcDbBlockEnd
  0
BLOCK
  5
9A
330
97
100
AcDbEntity
  8
0
100
AcDbBlockBegin
  2
_SE_FILLED
 70
     0
 10
0.0
 20
0.0
 30
0.0
  3
_SE_FILLED
  1

  0
SOLID
  5
98
330
97
100
AcDbEntity
  8
0
 62
     0
100
AcDbTrace
 10
0.0
 20
0.0
 30
0.0
 11
-1.0
 21
-0.1665
 31
0.0
 12
-1.0
 22
0.1665
 32
0.0
 13
0.0
 23
0.0
 33
0.0
  0
LINE
  5
99
330
97
100
AcDbEntity
  8
0
 62
     0
100
AcDbLine
 10
0.0
 20
0.0
 30
0.0
 11
-1.0
 21
0.0
 31
0.0
  0
ENDBLK
  5
9B
330
97
100
AcDbEntity
  8
0
100
AcDbBlockEnd
  0
BLOCK
  5
A7
330
9F
100
AcDbEntity
  8
0
100
AcDbBlockBegin
  2
DMBLK37
 70
     0
 10
0.0
 20
0.0
 30
0.0
  3
DMBLK37
  1

  0
HATCH
  5
A0
330
9F
100
AcDbEntity
  8
Default
  6
Continuous
 62
     7
100
AcDbHatch
 10
0.0
 20
0.0
 30
0.0
210
0.0
220
0.0
230
1.0
  2
SOLID
 70
     1
 71
     0
 91
        1
 92
        1
 93
        3
 72
     1
 10
51.88085737479241
 20
255.2291556594632
 11
51.88085737479241
 21
254.2291556507708
 72
     1
 10
51.88085737479241
 20
254.2291556507708
 11
54.88085740086944
 21
254.729155655117
 72
     1
 10
54.88085740086944
 20
254.729155655117
 11
51.88085737479241
 21
255.2291556594632
 97
        0
 75
     0
 76
     1
 98
        0
  0
HATCH
  5
A1
330
9F
100
AcDbEntity
  8
Default
  6
Continuous
 62
     7
100
AcDbHatch
 10
0.0
 20
0.0
 30
0.0
210
0.0
220
0.0
230
1.0
  2
SOLID
 70
     1
 71
     0
 91
        1
 92
        1
 93
        3
 72
     1
 10
65.98085742694649
 20
255.2291556594632
 11
62.98085740086945
 21
254.729155655117
 72
     1
 10
62.98085740086945
 20
254.729155655117
 11
65.98085742694649
 21
254.2291556507708
 72
     1
 10
65.98085742694649
 20
254.2291556507708
 11
65.98085742694649
 21
255.2291556594632
 97
        0
 75
     0
 76
     1
 98
        0
  0
LINE
  5
A2
330
9F
100
AcDbEntity
  8
Default
  6
Continuous
 62
     7
100
AcDbLine
 10
54.8808574009
 20
247.6245148285
 30
0.0
 11
54.8808574009
 21
256.2291556682
 31
0.0
  0
LINE
  5
A3
330
9F
100
AcDbEntity
  8
Default
  6
Continuous
 62
     7
100
AcDbLine
 10
62.9808574009
 20
247.6245148285
 30
0.0
 11
62.9808574009
 21
256.2291556682
 31
0.0
  0
LINE
  5
A4
330
9F
100
AcDbEntity
  8
Default
  6
Continuous
 62
     7
100
AcDbLine
 10
48.8808573487
 20
254.7291556551
 30
0.0
 11
68.9808576631
 21
254.7291556551
 31
0.0
  0
TEXT
  5
A5
330
9F
100
AcDbEntity
  8
Default
  6
Continuous
 62
     7
100
AcDbText
 10
59.8293688199
 20
255.4791556551
 30
0.0
 40
3.0
  1
8
  7
SEACAD_seiso_ttf
 11
59.8293688199
 21
258.4791556551
 31
0.0
100
AcDbText
 73
     3
  0
TEXT
  5
A6
330
9F
100
AcDbEntity
  8
Default
  6
Continuous
 62
     7
100
AcDbText
 10
56.1232552828
 20
255.4791556551
 30
0.0
 40
3.0
  1
q
  7
SEACAD_semeci1_ttf
 11
56.1232552828
 21
258.4791556551
 31
0.0
100
AcDbText
 73
     3
  0
ENDBLK
  5
A8
330
9F
100
AcDbEntity
  8
0
100
AcDbBlockEnd
  0
BLOCK
  5
B1
330
AA
100
AcDbEntity
  8
0
100
AcDbBlockBegin
  2
DMBLK38
 70
     0
 10
0.0
 20
0.0
 30
0.0
  3
DMBLK38
  1

  0
HATCH
  5
AB
330
AA
100
AcDbEntity
  8
Default
  6
Continuous
 62
     7
100
AcDbHatch
 10
0.0
 20
0.0
 30
0.0
210
0.0
220
0.0
230
1.0
  2
SOLID
 70
     1
 71
     0
 91
        1
 92
        1
 93
        3
 72
     1
 10
33.02003296355429
 20
241.6245148546112
 11
33.52003296790046
 21
238.6245148285341
 72
     1
 10
33.52003296790046
 20
238.6245148285341
 11
34.02003297224663
 21
241.6245148546112
 72
     1
 10
34.02003297224663
 20
241.6245148546112
 11
33.02003296355429
 21
241.6245148546112
 97
        0
 75
     0
 76
     1
 98
        0
  0
HATCH
  5
AC
330
AA
100
AcDbEntity
  8
Default
  6
Continuous
 62
     7
100
AcDbHatch
 10
0.0
 20
0.0
 30
0.0
210
0.0
220
0.0
230
1.0
  2
SOLID
 70
     1
 71
     0
 91
        1
 92
        1
 93
        3
 72
     1
 10
33.02003296355429
 20
244.6245144150269
 11
34.02003297224663
 21
244.6245144150269
 72
     1
 10
34.02003297224663
 20
244.6245144150269
 11
33.52003296790046
 21
247.6245144411039
 72
     1
 10
33.52003296790046
 20
247.6245144411039
 11
33.02003296355429
 21
244.6245144150269
 97
        0
 75
     0
 76
     1
 98
        0
  0
LINE
  5
AD
330
AA
100
AcDbEntity
  8
Default
  6
Continuous
 62
     7
100
AcDbLine
 10
47.4308574009
 20
238.6245148285
 30
0.0
 11
32.0200329549
 21
238.6245148285
 31
0.0
  0
LINE
  5
AE
330
AA
100
AcDbEntity
  8
Default
  6
Continuous
 62
     7
100
AcDbLine
 10
51.2308574009
 20
247.6245148285
 30
0.0
 11
32.0200329549
 21
247.6245148285
 31
0.0
  0
LINE
  5
AF
330
AA
100
AcDbEntity
  8
Default
  6
Continuous
 62
     7
100
AcDbLine
 10
33.5200329679
 20
238.6245148285
 30
0.0
 11
33.5200329679
 21
247.6245144411
 31
0.0
  0
TEXT
  5
B0
330
AA
100
AcDbEntity
  8
Default
  6
Continuous
 62
     7
100
AcDbText
 10
32.7700329679
 20
242.2040600894
 30
0.0
 40
3.0
  1
9
 50
90.0
  7
SEACAD_seiso_ttf
 11
29.7700329679
 21
242.2040600894
 31
0.0
100
AcDbText
 73
     3
  0
ENDBLK
  5
B2
330
AA
100
AcDbEntity
  8
0
100
AcDbBlockEnd
  0
BLOCK
  5
BB
330
B4
100
AcDbEntity
  8
0
100
AcDbBlockBegin
  2
DMBLK39
 70
     0
 10
0.0
 20
0.0
 30
0.0
  3
DMBLK39
  1

  0
HATCH
  5
B5
330
B4
100
AcDbEntity
  8
Default
  6
Continuous
 62
     7
100
AcDbHatch
 10
0.0
 20
0.0
 30
0.0
210
0.0
220
0.0
230
1.0
  2
SOLID
 70
     1
 71
     0
 91
        1
 92
        1
 93
        3
 72
     1
 10
33.02003296355429
 20
235.6245148024571
 11
34.02003297224663
 21
235.6245148024571
 72
     1
 10
34.02003297224663
 20
235.6245148024571
 11
33.52003296790046
 21
238.6245148285341
 72
     1
 10
33.52003296790046
 20
238.6245148285341
 11
33.02003296355429
 21
235.6245148024571
 97
        0
 75
     0
 76
     1
 98
        0
  0
HATCH
  5
B6
330
B4
100
AcDbEntity
  8
Default
  6
Continuous
 62
     7
100
AcDbHatch
 10
0.0
 20
0.0
 30
0.0
210
0.0
220
0.0
230
1.0
  2
SOLID
 70
     1
 71
     0
 91
        1
 92
        1
 93
        3
 72
     1
 10
33.02003296355429
 20
192.624516136111
 11
33.52003296790046
 21
189.624516110034
 72
     1
 10
33.52003296790046
 20
189.624516110034
 11
34.02003297224663
 21
192.624516136111
 72
     1
 10
34.02003297224663
 20
192.624516136111
 11
33.02003296355429
 21
192.624516136111
 97
        0
 75
     0
 76
     1
 98
        0
  0
LINE
  5
B7
330
B4
100
AcDbEntity
  8
Default
  6
Continuous
 62
     7
100
AcDbLine
 10
47.4308574009
 20
238.6245148285
 30
0.0
 11
32.0200329549
 21
238.6245148285
 31
0.0
  0
LINE
  5
B8
330
B4
100
AcDbEntity
  8
Default
  6
Continuous
 62
     7
100
AcDbLine
 10
82.4308573949
 20
189.6245148241
 30
0.0
 11
32.0200329549
 21
189.6245148241
 31
0.0
  0
LINE
  5
B9
330
B4
100
AcDbEntity
  8
Default
  6
Continuous
 62
     7
100
AcDbLine
 10
33.5200329679
 20
238.6245148285
 30
0.0
 11
33.5200329679
 21
189.62451611
 31
0.0
  0
TEXT
  5
BA
330
B4
100
AcDbEntity
  8
Default
  6
Continuous
 62
     7
100
AcDbText
 10
32.7700329679
 20
212.3176972875
 30
0.0
 40
3.0
  1
49
 50
90.0
  7
SEACAD_seiso_ttf
 11
29.7700329679
 21
212.3176972875
 31
0.0
100
AcDbText
 73
     3
  0
ENDBLK
  5
BC
330
B4
100
AcDbEntity
  8
0
100
AcDbBlockEnd
  0
BLOCK
  5
C5
330
BE
100
AcDbEntity
  8
0
100
AcDbBlockBegin
  2
DMBLK40
 70
     0
 10
0.0
 20
0.0
 30
0.0
  3
DMBLK40
  1

  0
HATCH
  5
BF
330
BE
100
AcDbEntity
  8
Default
  6
Continuous
 62
     7
100
AcDbHatch
 10
0.0
 20
0.0
 30
0.0
210
0.0
220
0.0
230
1.0
  2
SOLID
 70
     1
 71
     0
 91
        1
 92
        1
 93
        3
 72
     1
 10
50.43085742694647
 20
169.6937381437424
 11
50.43085742694647
 21
170.6937381524347
 72
     1
 10
50.43085742694647
 20
170.6937381524347
 11
47.43085740086944
 21
170.1937381480885
 72
     1
 10
47.43085740086944
 20
170.1937381480885
 11
50.43085742694647
 21
169.6937381437424
 97
        0
 75
     0
 76
     1
 98
        0
  0
HATCH
  5
C0
330
BE
100
AcDbEntity
  8
Default
  6
Continuous
 62
     7
100
AcDbHatch
 10
0.0
 20
0.0
 30
0.0
210
0.0
220
0.0
230
1.0
  2
SOLID
 70
     1
 71
     0
 91
        1
 92
        1
 93
        3
 72
     1
 10
156.4308608318618
 20
169.6937381437424
 11
159.4308608579388
 21
170.1937381480885
 72
     1
 10
159.4308608579388
 20
170.1937381480885
 11
156.4308608318618
 21
170.6937381524347
 72
     1
 10
156.4308608318618
 20
170.6937381524347
 11
156.4308608318618
 21
169.6937381437424
 97
        0
 75
     0
 76
     1
 98
        0
  0
LINE
  5
C1
330
BE
100
AcDbEntity
  8
Default
  6
Continuous
 62
     7
100
AcDbLine
 10
47.4308574009
 20
229.3994043325
 30
0.0
 11
47.4308574009
 21
168.6937381351
 31
0.0
  0
LINE
  5
C2
330
BE
100
AcDbEntity
  8
Default
  6
Continuous
 62
     7
100
AcDbLine
 10
159.4308574009
 20
191.6245148241
 30
0.0
 11
159.4308574009
 21
168.693738135
 31
0.0
  0
LINE
  5
C3
330
BE
100
AcDbEntity
  8
Default
  6
Continuous
 62
     7
100
AcDbLine
 10
47.4308574009
 20
170.1937381481
 30
0.0
 11
159.4308608579
 21
170.1937381481
 31
0.0
  0
TEXT
  5
C4
330
BE
100
AcDbEntity
  8
Default
  6
Continuous
 62
     7
100
AcDbText
 10
101.2831318567
 20
170.9437381481
 30
0.0
 40
3.0
  1
112
  7
SEACAD_seiso_ttf
 11
101.2831318567
 21
173.9437381481
 31
0.0
100
AcDbText
 73
     3
  0
ENDBLK
  5
C6
330
BE
100
AcDbEntity
  8
0
100
AcDbBlockEnd
  0
BLOCK
  5
CE
330
C7
100
AcDbEntity
  8
0
100
AcDbBlockBegin
  2
GDimGGroup
 70
     0
 10
0.0
 20
0.0
 30
0.0
  3
GDimGGroup
  1

  0
HATCH
  5
C9
330
C7
100
AcDbEntity
  8
Default
  6
Continuous
 62
     7
100
AcDbHatch
 10
0.0
 20
0.0
 30
0.0
210
0.0
220
0.0
230
1.0
  2
SOLID
 70
     1
 71
     0
 91
        1
 92
        1
 93
        3
 72
     1
 10
172.1917157025636
 20
192.6245148501481
 11
171.1917156938713
 21
192.6245148501481
 72
     1
 10
171.1917156938713
 20
192.6245148501481
 11
171.6917156982175
 21
189.6245148240711
 72
     1
 10
171.6917156982175
 20
189.6245148240711
 11
172.1917157025636
 21
192.6245148501481
 97
        0
 75
     0
 76
     1
 98
        0
  0
LINE
  5
CA
330
C7
100
AcDbEntity
  8
Default
  6
Continuous
 62
     7
100
AcDbLine
 10
157.4308574009
 20
189.6245148241
 30
0.0
 11
173.1917157113
 21
189.6245148241
 31
0.0
  0
LINE
  5
CB
330
C7
100
AcDbEntity
  8
Default
  6
Continuous
 62
     7
100
AcDbLine
 10
171.6917156982
 20
189.6245148241
 30
0.0
 11
171.6917156982
 21
198.6245144366
 31
0.0
  0
TEXT
  5
CC
330
C7
100
AcDbEntity
  8
Default
  6
Continuous
 62
     7
100
AcDbText
 10
170.9417156982
 20
194.4860269416
 30
0.0
 40
3.0
  1
O
 50
90.0
  7
SEACAD_semeci1_ttf
 11
167.9417156982
 21
194.4860269416
 31
0.0
100
AcDbText
 73
     3
  0
TEXT
  5
CD
330
C7
100
AcDbEntity
  8
Default
  6
Continuous
 62
     7
100
AcDbText
 10
170.9417156982
 20
199.6266382953
 30
0.0
 40
3.0
  1
18
 50
90.0
  7
SEACAD_seiso_ttf
 11
167.9417156982
 21
199.6266382953
 31
0.0
100
AcDbText
 73
     3
  0
ENDBLK
  5
CF
330
C7
100
AcDbEntity
  8
0
100
AcDbBlockEnd
  0
BLOCK
  5
D9
330
D1
100
AcDbEntity
  8
0
100
AcDbBlockBegin
  2
DMBLK41
 70
     0
 10
0.0
 20
0.0
 30
0.0
  3
DMBLK41
  1

  0
HATCH
  5
D2
330
D1
100
AcDbEntity
  8
Default
  6
Continuous
 62
     7
100
AcDbHatch
 10
0.0
 20
0.0
 30
0.0
210
0.0
220
0.0
230
1.0
  2
SOLID
 70
     1
 71
     0
 91
        1
 92
        1
 93
        3
 72
     1
 10
53.93085742694647
 20
264.1488357631229
 11
50.93085740086944
 21
263.6488357587767
 72
     1
 10
50.93085740086944
 20
263.6488357587767
 11
53.93085742694647
 21
263.1488357544305
 72
     1
 10
53.93085742694647
 20
263.1488357544305
 11
53.93085742694647
 21
264.1488357631229
 97
        0
 75
     0
 76
     1
 98
        0
  0
HATCH
  5
D3
330
D1
100
AcDbEntity
  8
Default
  6
Continuous
 62
     7
100
AcDbHatch
 10
0.0
 20
0.0
 30
0.0
210
0.0
220
0.0
230
1.0
  2
SOLID
 70
     1
 71
     0
 91
        1
 92
        1
 93
        3
 72
     1
 10
63.93085813475163
 20
264.1488357631229
 11
63.93085813475163
 21
263.1488357544305
 72
     1
 10
63.93085813475163
 20
263.1488357544305
 11
66.93085816082866
 21
263.6488357587767
 72
     1
 10
66.93085816082866
 20
263.6488357587767
 11
63.93085813475163
 21
264.1488357631229
 97
        0
 75
     0
 76
     1
 98
        0
  0
LINE
  5
D4
330
D1
100
AcDbEntity
  8
Default
  6
Continuous
 62
     7
100
AcDbLine
 10
50.9308574009
 20
247.3245149507
 30
0.0
 11
50.9308574009
 21
265.1488357718
 31
0.0
  0
LINE
  5
D5
330
D1
100
AcDbEntity
  8
Default
  6
Continuous
 62
     7
100
AcDbLine
 10
66.9308574009
 20
247.3245149507
 30
0.0
 11
66.9308574009
 21
265.1488357718
 31
0.0
  0
LINE
  5
D6
330
D1
100
AcDbEntity
  8
Default
  6
Continuous
 62
     7
100
AcDbLine
 10
50.9308574009
 20
263.6488357588
 30
0.0
 11
66.9308581608
 21
263.6488357588
 31
0.0
  0
TEXT
  5
D7
330
D1
100
AcDbEntity
  8
Default
  6
Continuous
 62
     7
100
AcDbText
 10
59.2170725486
 20
264.3988357588
 30
0.0
 40
3.0
  1
16
  7
SEACAD_seiso_ttf
 11
59.2170725486
 21
267.3988357588
 31
0.0
100
AcDbText
 73
     3
  0
TEXT
  5
D8
330
D1
100
AcDbEntity
  8
Default
  6
Continuous
 62
     7
100
AcDbText
 10
55.5764611949
 20
264.3988357588
 30
0.0
 40
3.0
  1
O
  7
SEACAD_semeci1_ttf
 11
55.5764611949
 21
267.3988357588
 31
0.0
100
AcDbText
 73
     3
  0
ENDBLK
  5
DA
330
D1
100
AcDbEntity
  8
0
100
AcDbBlockEnd
  0
BLOCK
  5
E4
330
DC
100
AcDbEntity
  8
0
100
AcDbBlockBegin
  2
DMBLK42
 70
     0
 10
0.0
 20
0.0
 30
0.0
  3
DMBLK42
  1

  0
HATCH
  5
DD
330
DC
100
AcDbEntity
  8
Default
  6
Continuous
 62
     7
100
AcDbHatch
 10
0.0
 20
0.0
 30
0.0
210
0.0
220
0.0
230
1.0
  2
SOLID
 70
     1
 71
     0
 91
        1
 92
        1
 93
        3
 72
     1
 10
67.4308573747924
 20
271.2817571310065
 11
67.4308573747924
 21
270.2817571223142
 72
     1
 10
67.4308573747924
 20
270.2817571223142
 11
70.43085740086943
 21
270.7817571266604
 72
     1
 10
70.43085740086943
 20
270.7817571266604
 11
67.4308573747924
 21
271.2817571310065
 97
        0
 75
     0
 76
     1
 98
        0
  0
HATCH
  5
DE
330
DC
100
AcDbEntity
  8
Default
  6
Continuous
 62
     7
100
AcDbHatch
 10
0.0
 20
0.0
 30
0.0
210
0.0
220
0.0
230
1.0
  2
SOLID
 70
     1
 71
     0
 91
        1
 92
        1
 93
        3
 72
     1
 10
50.43085738224298
 20
271.2817571310065
 11
47.43085735616595
 21
270.7817571266604
 72
     1
 10
47.43085735616595
 20
270.7817571266604
 11
50.43085738224298
 21
270.2817571223142
 72
     1
 10
50.43085738224298
 20
270.2817571223142
 11
50.43085738224298
 21
271.2817571310065
 97
        0
 75
     0
 76
     1
 98
        0
  0
LINE
  5
DF
330
DC
100
AcDbEntity
  8
Default
  6
Continuous
 62
     7
100
AcDbLine
 10
70.4308574009
 20
238.6245148285
 30
0.0
 11
70.4308574009
 21
272.2817571397
 31
0.0
  0
LINE
  5
E0
330
DC
100
AcDbEntity
  8
Default
  6
Continuous
 62
     7
100
AcDbLine
 10
47.4308574009
 20
229.3994043325
 30
0.0
 11
47.4308574009
 21
272.2817571397
 31
0.0
  0
LINE
  5
E1
330
DC
100
AcDbEntity
  8
Default
  6
Continuous
 62
     7
100
AcDbLine
 10
70.4308574009
 20
270.7817571267
 30
0.0
 11
47.4308573562
 21
270.7817571267
 31
0.0
  0
TEXT
  5
E2
330
DC
100
AcDbEntity
  8
Default
  6
Continuous
 62
     7
100
AcDbText
 10
59.0466176008
 20
271.5317571267
 30
0.0
 40
3.0
  1
23
  7
SEACAD_seiso_ttf
 11
59.0466176008
 21
274.5317571267
 31
0.0
100
AcDbText
 73
     3
  0
TEXT
  5
E3
330
DC
100
AcDbEntity
  8
Default
  6
Continuous
 62
     7
100
AcDbText
 10
55.4060062471
 20
271.5317571267
 30
0.0
 40
3.0
  1
O
  7
SEACAD_semeci1_ttf
 11
55.4060062471
 21
274.5317571267
 31
0.0
100
AcDbText
 73
     3
  0
ENDBLK
  5
E5
330
DC
100
AcDbEntity
  8
0
100
AcDbBlockEnd
  0
ENDSEC
  0
SECTION
  2
ENTITIES
  0
TEXT
  5
5E
330
1F
100
AcDbEntity
  8
Default
  6
Continuous
 62
     7
100
AcDbText
 10
86.6076584161
 20
48.9295329051
 30
0.0
 40
5.0
  1
32.200
  7
SEACAD_seiso_ttf
 11
86.6076584161
 21
53.9295329051
 31
0.0
100
AcDbText
 73
     3
  0
INSERT
  5
61
330
1F
100
AcDbEntity
  8
0
100
AcDbBlockReference
  2
SE
 10
0.0
 20
0.0
 30
0.0
  0
DIMENSION
  5
9D
330
1F
100
AcDbEntity
  8
Default
  6
Continuous
 62
     7
100
AcDbDimension
  2
DMBLK37
 10
54.8808574009
 20
254.7291556551
 30
0.0
 11
58.9308575059
 21
254.7291556551
 31
0.0
 70
   161
  1
\A1;{\Fsemeca1.ttf;q} <>
 71
     5
 42
-1.0
  3
DIN
100
AcDbAlignedDimension
 13
54.8808574009
 23
247.6245148285
 33
0.0
 14
62.9808574009
 24
247.6245148285
 34
0.0
  0
DIMENSION
  5
A9
330
1F
100
AcDbEntity
  8
Default
  6
Continuous
 62
     7
100
AcDbDimension
  2
DMBLK38
 10
33.5200329679
 20
247.6245148285
 30
0.0
 11
33.5200329679
 21
243.1245146348
 31
0.0
 70
   160
  1
\A1;<>
 71
     5
 42
-1.0
  3
DIN
100
AcDbAlignedDimension
 13
47.4308574009
 23
238.6245148285
 33
0.0
 14
51.2308574009
 24
247.6245148285
 34
0.0
 50
90.0
100
AcDbRotatedDimension
1001
ACAD
1000
DSTYLE
1002
{
1070
   271
1070
     2
1070
   272
1070
     2
1070
     0
1002
}
  0
DIMENSION
  5
B3
330
1F
100
AcDbEntity
  8
Default
  6
Continuous
 62
     7
100
AcDbDimension
  2
DMBLK39
 10
33.5200329679
 20
189.6245148241
 30
0.0
 11
33.5200329679
 21
214.1245154693
 31
0.0
 70
   160
  1
\A1;<>
 71
     5
 42
-1.0
  3
DIN
100
AcDbAlignedDimension
 13
47.4308574009
 23
238.6245148285
 33
0.0
 14
82.4308573949
 24
189.6245148241
 34
0.0
 50
90.0
100
AcDbRotatedDimension
1001
ACAD
1000
DSTYLE
1002
{
1070
   271
1070
     2
1070
   272
1070
     2
1070
     0
1002
}
  0
DIMENSION
  5
BD
330
1F
100
AcDbEntity
  8
Default
  6
Continuous
 62
     7
100
AcDbDimension
  2
DMBLK40
 10
159.4308574009
 20
170.1937381481
 30
0.0
 11
103.4308591294
 21
170.1937381481
 31
0.0
 70
   160
  1
\A1;<>
 71
     5
 42
-1.0
  3
DIN
100
AcDbAlignedDimension
 13
47.4308574009
 23
229.3994043325
 33
0.0
 14
159.4308574009
 24
191.6245148241
 34
0.0
100
AcDbRotatedDimension
1001
ACAD
1000
DSTYLE
1002
{
1070
   271
1070
     2
1070
   272
1070
     2
1070
     0
1002
}
  0
INSERT
  5
C8
330
1F
100
AcDbEntity
  8
Default
100
AcDbBlockReference
  2
GDimGGroup
 10
0.0
 20
0.0
 30
0.0
  0
DIMENSION
  5
D0
330
1F
100
AcDbEntity
  8
Default
  6
Continuous
 62
     7
100
AcDbDimension
  2
DMBLK41
 10
50.9308574009
 20
263.6488357588
 30
0.0
 11
58.9308577808
 21
263.6488357588
 31
0.0
 70
   161
  1
\A1;%%C <>
 71
     5
 42
-1.0
  3
DIN
100
AcDbAlignedDimension
 13
50.9308574009
 23
238.6245148285
 33
0.0
 14
66.9308574009
 24
238.6245148285
 34
0.0
1001
ACAD
1000
DSTYLE
1002
{
1070
   271
1070
     2
1070
   272
1070
     2
1070
     0
1002
}
  0
DIMENSION
  5
DB
330
1F
100
AcDbEntity
  8
Default
  6
Continuous
 62
     7
100
AcDbDimension
  2
DMBLK42
 10
47.4308574009
 20
270.7817571267
 30
0.0
 11
58.9308573785
 21
270.7817571267
 31
0.0
 70
   160
  1
\A1;%%C <>
 71
     5
 42
-1.0
  3
DIN
100
AcDbAlignedDimension
 13
70.4308574009
 23
238.6245148285
 33
0.0
 14
47.4308574009
 24
229.3994043325
 34
0.0
100
AcDbRotatedDimension
1001
ACAD
1000
DSTYLE
1002
{
1070
   271
1070
     2
1070
   272
1070
     2
1070
     0
1002
}
  0
ENDSEC
  0
SECTION
  2
OBJECTS
  0
DICTIONARY
  5
C
330
0
100
AcDbDictionary
281
     1
  3
ACAD_GROUP
350
D
  3
ACAD_LAYOUT
350
1A
  3
ACAD_MLEADERSTYLE
350
E9
  3
ACAD_MLINESTYLE
350
17
  3
ACAD_PLOTSETTINGS
350
19
  3
ACAD_PLOTSTYLENAME
350
E
  3
ACAD_SCALELIST
350
3B
  3
ACAD_TABLESTYLE
350
E8
  3
ACAD_VISUALSTYLE
350
2A
  3
AcDbVariableDictionary
350
E6
  0
DICTIONARY
  5
D
102
{ACAD_REACTORS
330
C
102
}
330
C
100
AcDbDictionary
281
     1
  0
DICTIONARY
  5
1A
102
{ACAD_REACTORS
330
C
102
}
330
C
100
AcDbDictionary
281
     1
  3
Layout1
350
1E
  3
Model
350
22
  0
DICTIONARY
  5
E9
102
{ACAD_REACTORS
330
C
102
}
330
C
100
AcDbDictionary
281
     1
  0
DICTIONARY
  5
17
102
{ACAD_REACTORS
330
C
102
}
330
C
100
AcDbDictionary
281
     1
  3
Standard
350
18
  0
DICTIONARY
  5
19
102
{ACAD_REACTORS
330
C
102
}
330
C
100
AcDbDictionary
281
     1
  0
ACDBDICTIONARYWDFLT
  5
E
102
{ACAD_REACTORS
330
C
102
}
330
C
100
AcDbDictionary
281
     1
  3
Normal
350
F
100
AcDbDictionaryWithDefault
340
F
  0
DICTIONARY
  5
3B
102
{ACAD_REACTORS
330
C
102
}
330
C
100
AcDbDictionary
281
     1
  3
A0
350
3C
  3
A1
350
3D
  3
A2
350
3E
  3
A3
350
3F
  3
A4
350
40
  3
A5
350
41
  3
A6
350
42
  3
A7
350
43
  3
A8
350
44
  3
A9
350
45
  3
B0
350
46
  3
B1
350
47
  3
B2
350
48
  3
B3
350
49
  3
B4
350
4A
  3
B5
350
4B
  3
B6
350
4C
  3
B7
350
4D
  3
B8
350
4E
  3
B9
350
4F
  3
C0
350
50
  3
C1
350
51
  3
C2
350
52
  3
C3
350
53
  3
C4
350
54
  3
C5
350
55
  3
C6
350
56
  3
C7
350
57
  3
C8
350
58
  3
C9
350
59
  3
D0
350
5A
  3
D1
350
5B
  3
D2
350
5C
  0
DICTIONARY
  5
E8
102
{ACAD_REACTORS
330
C
102
}
330
C
100
AcDbDictionary
281
     1
  0
DICTIONARY
  5
2A
102
{ACAD_REACTORS
330
C
102
}
330
C
100
AcDbDictionary
281
     1
  3
2dWireframe
350
2F
  3
3D Hidden
350
31
  3
3dWireframe
350
30
  3
Basic
350
32
  3
Brighten
350
36
  3
ColorChange
350
3A
  3
Conceptual
350
34
  3
Dim
350
35
  3
Facepattern
350
39
  3
Flat
350
2B
  3
FlatWithEdges
350
2C
  3
Gouraud
350
2D
  3
GouraudWithEdges
350
2E
  3
Linepattern
350
38
  3
Realistic
350
33
  3
Thicken
350
37
  0
DICTIONARY
  5
E6
102
{ACAD_REACTORS
330
C
102
}
330
C
100
AcDbDictionary
281
     1
  3
CANNOSCALE
350
E7
  3
PSOLHEIGHT
350
EB
  3
PSOLWIDTH
350
EA
  0
LAYOUT
  5
1E
102
{ACAD_REACTORS
330
1A
102
}
330
1A
100
AcDbPlotSettings
  1

  2
none_device
  4

  6

 40
0.0
 41
0.0
 42
0.0
 43
0.0
 44
0.0
 45
0.0
 46
0.0
 47
0.0
 48
0.0
 49
0.0
140
0.0
141
0.0
142
1.0
143
1.0
 70
   688
 72
     0
 73
     0
 74
     5
  7

 75
    16
147
1.0
148
0.0
149
0.0
100
AcDbLayout
  1
Layout1
 70
     1
 71
     1
 10
0.0
 20
0.0
 11
210.0
 21
297.0
 12
0.0
 22
0.0
 32
0.0
 14
0.0
 24
0.0
 34
0.0
 15
210.0
 25
297.0
 35
0.0
146
0.0
 13
0.0
 23
0.0
 33
0.0
 16
1.0
 26
0.0
 36
0.0
 17
0.0
 27
1.0
 37
0.0
 76
     0
330
1B
  0
LAYOUT
  5
22
102
{ACAD_REACTORS
330
1A
102
}
330
1A
100
AcDbPlotSettings
  1

  2
none_device
  4

  6

 40
0.0
 41
0.0
 42
0.0
 43
0.0
 44
0.0
 45
0.0
 46
0.0
 47
0.0
 48
0.0
 49
0.0
140
0.0
141
0.0
142
1.0
143
1.0
 70
  1712
 72
     0
 73
     0
 74
     0
  7

 75
     0
147
1.0
148
0.0
149
0.0
100
AcDbLayout
  1
Model
 70
     1
 71
     0
 10
0.0
 20
0.0
 11
210.0
 21
297.0
 12
0.0
 22
0.0
 32
0.0
 14
0.0
 24
0.0
 34
0.0
 15
210.0
 25
297.0
 35
0.0
146
0.0
 13
0.0
 23
0.0
 33
0.0
 16
1.0
 26
0.0
 36
0.0
 17
0.0
 27
1.0
 37
0.0
 76
     0
330
1F
331
29
  0
MLINESTYLE
  5
18
102
{ACAD_REACTORS
330
17
102
}
330
17
100
AcDbMlineStyle
  2
Standard
 70
     0
  3

 62
   256
 51
90.0
 52
90.0
 71
     2
 49
0.5
 62
   256
  6
BYLAYER
 49
-0.5
 62
   256
  6
BYLAYER
  0
ACDBPLACEHOLDER
  5
F
102
{ACAD_REACTORS
330
E
102
}
330
E
  0
SCALE
  5
3C
102
{ACAD_REACTORS
330
3B
102
}
330
3B
100
AcDbScale
 70
     0
300
1:1
140
1.0
141
1.0
290
     1
  0
SCALE
  5
3D
102
{ACAD_REACTORS
330
3B
102
}
330
3B
100
AcDbScale
 70
     0
300
1:2
140
1.0
141
2.0
290
     0
  0
SCALE
  5
3E
102
{ACAD_REACTORS
330
3B
102
}
330
3B
100
AcDbScale
 70
     0
300
1:4
140
1.0
141
4.0
290
     0
  0
SCALE
  5
3F
102
{ACAD_REACTORS
330
3B
102
}
330
3B
100
AcDbScale
 70
     0
300
1:5
140
1.0
141
5.0
290
     0
  0
SCALE
  5
40
102
{ACAD_REACTORS
330
3B
102
}
330
3B
100
AcDbScale
 70
     0
300
1:8
140
1.0
141
8.0
290
     0
  0
SCALE
  5
41
102
{ACAD_REACTORS
330
3B
102
}
330
3B
100
AcDbScale
 70
     0
300
1:10
140
1.0
141
10.0
290
     0
  0
SCALE
  5
42
102
{ACAD_REACTORS
330
3B
102
}
330
3B
100
AcDbScale
 70
     0
300
1:16
140
1.0
141
16.0
290
     0
  0
SCALE
  5
43
102
{ACAD_REACTORS
330
3B
102
}
330
3B
100
AcDbScale
 70
     0
300
1:20
140
1.0
141
20.0
290
     0
  0
SCALE
  5
44
102
{ACAD_REACTORS
330
3B
102
}
330
3B
100
AcDbScale
 70
     0
300
1:30
140
1.0
141
30.0
290
     0
  0
SCALE
  5
45
102
{ACAD_REACTORS
330
3B
102
}
330
3B
100
AcDbScale
 70
     0
300
1:40
140
1.0
141
40.0
290
     0
  0
SCALE
  5
46
102
{ACAD_REACTORS
330
3B
102
}
330
3B
100
AcDbScale
 70
     0
300
1:50
140
1.0
141
50.0
290
     0
  0
SCALE
  5
47
102
{ACAD_REACTORS
330
3B
102
}
330
3B
100
AcDbScale
 70
     0
300
1:100
140
1.0
141
100.0
290
     0
  0
SCALE
  5
48
102
{ACAD_REACTORS
330
3B
102
}
330
3B
100
AcDbScale
 70
     0
300
2:1
140
2.0
141
1.0
290
     0
  0
SCALE
  5
49
102
{ACAD_REACTORS
330
3B
102
}
330
3B
100
AcDbScale
 70
     0
300
4:1
140
4.0
141
1.0
290
     0
  0
SCALE
  5
4A
102
{ACAD_REACTORS
330
3B
102
}
330
3B
100
AcDbScale
 70
     0
300
8:1
140
8.0
141
1.0
290
     0
  0
SCALE
  5
4B
102
{ACAD_REACTORS
330
3B
102
}
330
3B
100
AcDbScale
 70
     0
300
10:1
140
10.0
141
1.0
290
     0
  0
SCALE
  5
4C
102
{ACAD_REACTORS
330
3B
102
}
330
3B
100
AcDbScale
 70
     0
300
100:1
140
100.0
141
1.0
290
     0
  0
SCALE
  5
4D
102
{ACAD_REACTORS
330
3B
102
}
330
3B
100
AcDbScale
 70
     0
300
1/128" = 1'-0"
140
0.0078125
141
12.0
290
     0
  0
SCALE
  5
4E
102
{ACAD_REACTORS
330
3B
102
}
330
3B
100
AcDbScale
 70
     0
300
1/64" = 1'-0"
140
0.015625
141
12.0
290
     0
  0
SCALE
  5
4F
102
{ACAD_REACTORS
330
3B
102
}
330
3B
100
AcDbScale
 70
     0
300
1/32" = 1'-0"
140
0.03125
141
12.0
290
     0
  0
SCALE
  5
50
102
{ACAD_REACTORS
330
3B
102
}
330
3B
100
AcDbScale
 70
     0
300
1/16" = 1'-0"
140
0.0625
141
12.0
290
     0
  0
SCALE
  5
51
102
{ACAD_REACTORS
330
3B
102
}
330
3B
100
AcDbScale
 70
     0
300
3/32" = 1'-0"
140
0.09375
141
12.0
290
     0
  0
SCALE
  5
52
102
{ACAD_REACTORS
330
3B
102
}
330
3B
100
AcDbScale
 70
     0
300
1/8" = 1'-0"
140
0.125
141
12.0
290
     0
  0
SCALE
  5
53
102
{ACAD_REACTORS
330
3B
102
}
330
3B
100
AcDbScale
 70
     0
300
3/16" = 1'-0"
140
0.1875
141
12.0
290
     0
  0
SCALE
  5
54
102
{ACAD_REACTORS
330
3B
102
}
330
3B
100
AcDbScale
 70
     0
300
1/4" = 1'-0"
140
0.25
141
12.0
290
     0
  0
SCALE
  5
55
102
{ACAD_REACTORS
330
3B
102
}
330
3B
100
AcDbScale
 70
     0
300
3/8" = 1'-0"
140
0.375
141
12.0
290
     0
  0
SCALE
  5
56
102
{ACAD_REACTORS
330
3B
102
}
330
3B
100
AcDbScale
 70
     0
300
1/2" = 1'-0"
140
0.5
141
12.0
290
     0
  0
SCALE
  5
57
102
{ACAD_REACTORS
330
3B
102
}
330
3B
100
AcDbScale
 70
     0
300
3/4" = 1'-0"
140
0.75
141
12.0
290
     0
  0
SCALE
  5
58
102
{ACAD_REACTORS
330
3B
102
}
330
3B
100
AcDbScale
 70
     0
300
1" = 1'-0"
140
1.0
141
12.0
290
     0
  0
SCALE
  5
59
102
{ACAD_REACTORS
330
3B
102
}
330
3B
100
AcDbScale
 70
     0
300
1-1/2" = 1'-0"
140
1.5
141
12.0
290
     0
  0
SCALE
  5
5A
102
{ACAD_REACTORS
330
3B
102
}
330
3B
100
AcDbScale
 70
     0
300
3" = 1'-0"
140
3.0
141
12.0
290
     0
  0
SCALE
  5
5B
102
{ACAD_REACTORS
330
3B
102
}
330
3B
100
AcDbScale
 70
     0
300
6" = 1'-0"
140
6.0
141
12.0
290
     0
  0
SCALE
  5
5C
102
{ACAD_REACTORS
330
3B
102
}
330
3B
100
AcDbScale
 70
     0
300
1'-0" = 1'-0"
140
12.0
141
12.0
290
     0
  0
VISUALSTYLE
  5
2F
102
{ACAD_REACTORS
330
2A
102
}
330
2A
100
AcDbVisualStyle
  2
2dWireframe
 70
     4
 71
     0
 72
     2
 73
     0
 90
        0
 40
-0.6
 41
-30.0
 62
     5
 63
     7
 74
     1
 91
        4
 64
     7
 65
   257
 75
     1
175
     1
 42
1.0
 92
        0
 66
   257
 43
1.0
 76
     1
 77
     6
 78
     2
 67
     7
 79
     5
170
     0
171
     0
290
     0
174
     0
 93
        1
 44
0.0
173
     0
291
     0
 45
0.0
1001
ACAD
1000
AcDbSavedByObjectVersion
1070
     0
  0
VISUALSTYLE
  5
31
102
{ACAD_REACTORS
330
2A
102
}
330
2A
100
AcDbVisualStyle
  2
3D Hidden
 70
     6
 71
     1
 72
     2
 73
     2
 90
        0
 40
-0.6
 41
-30.0
 62
     5
 63
     7
 74
     2
 91
        2
 64
     7
 65
   257
 75
     2
175
     1
 42
40.0
 92
        0
 66
   257
 43
1.0
 76
     1
 77
     6
 78
     2
 67
     7
 79
     3
170
     0
171
     0
290
     0
174
     0
 93
        1
 44
0.0
173
     0
291
     0
 45
0.0
1001
ACAD
1000
AcDbSavedByObjectVersion
1070
     0
  0
VISUALSTYLE
  5
30
102
{ACAD_REACTORS
330
2A
102
}
330
2A
100
AcDbVisualStyle
  2
3dWireframe
 70
     5
 71
     0
 72
     2
 73
     0
 90
        0
 40
-0.6
 41
-30.0
 62
     5
 63
     7
 74
     1
 91
        4
 64
     7
 65
   257
 75
     1
175
     1
 42
1.0
 92
        0
 66
   257
 43
1.0
 76
     1
 77
     6
 78
     2
 67
     7
 79
     5
170
     0
171
     0
290
     0
174
     0
 93
        1
 44
0.0
173
     0
291
     0
 45
0.0
1001
ACAD
1000
AcDbSavedByObjectVersion
1070
     0
  0
VISUALSTYLE
  5
32
102
{ACAD_REACTORS
330
2A
102
}
330
2A
100
AcDbVisualStyle
  2
Basic
 70
     7
 71
     1
 72
     0
 73
     1
 90
        0
 40
-0.6
 41
-30.0
 62
     5
 63
     7
 74
     0
 91
        4
 64
     7
 65
   257
 75
     1
175
     1
 42
1.0
 92
        8
 66
     7
 43
1.0
 76
     1
 77
     6
 78
     2
 67
     7
 79
     5
170
     0
171
     0
290
     0
174
     0
 93
        1
 44
0.0
173
     0
291
     1
 45
0.0
1001
ACAD
1000
AcDbSavedByObjectVersion
1070
     0
  0
VISUALSTYLE
  5
36
102
{ACAD_REACTORS
330
2A
102
}
330
2A
100
AcDbVisualStyle
  2
Brighten
 70
    12
 71
     2
 72
     2
 73
     0
 90
        0
 40
-0.6
 41
-30.0
 62
     5
 63
     7
 74
     1
 91
        4
 64
     7
 65
   257
 75
     1
175
     1
 42
1.0
 92
        8
 66
     7
 43
1.0
 76
     1
 77
     6
 78
     2
 67
     7
 79
     5
170
     0
171
     0
290
     0
174
     0
 93
        1
 44
50.0
173
     0
291
     1
 45
0.0
1001
ACAD
1000
AcDbSavedByObjectVersion
1070
     0
  0
VISUALSTYLE
  5
3A
102
{ACAD_REACTORS
330
2A
102
}
330
2A
100
AcDbVisualStyle
  2
ColorChange
 70
    16
 71
     2
 72
     2
 73
     3
 90
        0
 40
-0.6
 41
-30.0
 62
     5
 63
     8
 74
     1
 91
        4
 64
     7
 65
   257
 75
     1
175
     1
 42
1.0
 92
        8
 66
     8
 43
1.0
 76
     1
 77
     6
 78
     2
 67
     7
 79
     5
170
     0
171
     0
290
     0
174
     0
 93
        1
 44
0.0
173
     0
291
     1
 45
0.0
1001
ACAD
1000
AcDbSavedByObjectVersion
1070
     0
  0
VISUALSTYLE
  5
34
102
{ACAD_REACTORS
330
2A
102
}
330
2A
100
AcDbVisualStyle
  2
Conceptual
 70
     9
 71
     3
 72
     2
 73
     0
 90
        0
 40
-0.6
 41
-30.0
 62
     5
 63
     7
 74
     2
 91
        2
 64
     7
 65
   257
 75
     1
175
     1
 42
40.0
 92
        8
 66
     7
 43
1.0
 76
     1
 77
     6
 78
     2
 67
     7
 79
     3
170
     0
171
     0
290
     0
174
     0
 93
        1
 44
0.0
173
     0
291
     0
 45
0.0
1001
ACAD
1000
AcDbSavedByObjectVersion
1070
     0
  0
VISUALSTYLE
  5
35
102
{ACAD_REACTORS
330
2A
102
}
330
2A
100
AcDbVisualStyle
  2
Dim
 70
    11
 71
     2
 72
     2
 73
     0
 90
        0
 40
-0.6
 41
-30.0
 62
     5
 63
     7
 74
     1
 91
        4
 64
     7
 65
   257
 75
     1
175
     1
 42
1.0
 92
        8
 66
     7
 43
1.0
 76
     1
 77
     6
 78
     2
 67
     7
 79
     5
170
     0
171
     0
290
     0
174
     0
 93
        1
 44
-50.0
173
     0
291
     1
 45
0.0
1001
ACAD
1000
AcDbSavedByObjectVersion
1070
     0
  0
VISUALSTYLE
  5
39
102
{ACAD_REACTORS
330
2A
102
}
330
2A
100
AcDbVisualStyle
  2
Facepattern
 70
    15
 71
     2
 72
     2
 73
     0
 90
        0
 40
-0.6
 41
-30.0
 62
     5
 63
     7
 74
     1
 91
        4
 64
     7
 65
   257
 75
     1
175
     1
 42
1.0
 92
        8
 66
     7
 43
1.0
 76
     1
 77
     6
 78
     2
 67
     7
 79
     5
170
     0
171
     0
290
     0
174
     0
 93
        1
 44
0.0
173
     0
291
     1
 45
0.0
1001
ACAD
1000
AcDbSavedByObjectVersion
1070
     0
  0
VISUALSTYLE
  5
2B
102
{ACAD_REACTORS
330
2A
102
}
330
2A
100
AcDbVisualStyle
  2
Flat
 70
     0
 71
     2
 72
     1
 73
     1
 90
        2
 40
-0.6
 41
30.0
 62
     5
 63
     7
 74
     0
 91
        4
 64
     7
 65
   257
 75
     1
175
     1
 42
1.0
 92
        8
 66
     7
 43
1.0
 76
     1
 77
     6
 78
     2
 67
     7
 79
     5
170
     0
171
     0
290
     0
174
     0
 93
       13
 44
0.0
173
     0
291
     1
 45
0.0
1001
ACAD
1000
AcDbSavedByObjectVersion
1070
     0
  0
VISUALSTYLE
  5
2C
102
{ACAD_REACTORS
330
2A
102
}
330
2A
100
AcDbVisualStyle
  2
FlatWithEdges
 70
     1
 71
     2
 72
     1
 73
     1
 90
        2
 40
-0.6
 41
30.0
 62
     5
 63
     7
 74
     1
 91
        4
 64
     7
 65
   257
 75
     1
175
     1
 42
1.0
 92
        0
 66
   257
 43
1.0
 76
     1
 77
     6
 78
     2
 67
     7
 79
     5
170
     0
171
     0
290
     0
174
     0
 93
       13
 44
0.0
173
     0
291
     1
 45
0.0
1001
ACAD
1000
AcDbSavedByObjectVersion
1070
     0
  0
VISUALSTYLE
  5
2D
102
{ACAD_REACTORS
330
2A
102
}
330
2A
100
AcDbVisualStyle
  2
Gouraud
 70
     2
 71
     2
 72
     2
 73
     1
 90
        2
 40
-0.6
 41
30.0
 62
     5
 63
     7
 74
     0
 91
        4
 64
     7
 65
   257
 75
     1
175
     1
 42
1.0
 92
        0
 66
     7
 43
1.0
 76
     1
 77
     6
 78
     2
 67
     7
 79
     5
170
     0
171
     0
290
     0
174
     0
 93
       13
 44
0.0
173
     0
291
     1
 45
0.0
1001
ACAD
1000
AcDbSavedByObjectVersion
1070
     0
  0
VISUALSTYLE
  5
2E
102
{ACAD_REACTORS
330
2A
102
}
330
2A
100
AcDbVisualStyle
  2
GouraudWithEdges
 70
     3
 71
     2
 72
     2
 73
     1
 90
        2
 40
-0.6
 41
30.0
 62
     5
 63
     7
 74
     1
 91
        4
 64
     7
 65
   257
 75
     1
175
     1
 42
1.0
 92
        0
 66
   257
 43
1.0
 76
     1
 77
     6
 78
     2
 67
     7
 79
     5
170
     0
171
     0
290
     0
174
     0
 93
       13
 44
0.0
173
     0
291
     1
 45
0.0
1001
ACAD
1000
AcDbSavedByObjectVersion
1070
     0
  0
VISUALSTYLE
  5
38
102
{ACAD_REACTORS
330
2A
102
}
330
2A
100
AcDbVisualStyle
  2
Linepattern
 70
    14
 71
     2
 72
     2
 73
     0
 90
        0
 40
-0.6
 41
-30.0
 62
     5
 63
     7
 74
     1
 91
        4
 64
     7
 65
   257
 75
     7
175
     7
 42
1.0
 92
        8
 66
     7
 43
1.0
 76
     1
 77
     6
 78
     2
 67
     7
 79
     5
170
     0
171
     0
290
     0
174
     0
 93
        1
 44
0.0
173
     0
291
     1
 45
0.0
1001
ACAD
1000
AcDbSavedByObjectVersion
1070
     0
  0
VISUALSTYLE
  5
33
102
{ACAD_REACTORS
330
2A
102
}
330
2A
100
AcDbVisualStyle
  2
Realistic
 70
     8
 71
     2
 72
     2
 73
     0
 90
        0
 40
-0.6
 41
-30.0
 62
     5
 63
     7
 74
     1
 91
        0
 64
     7
 65
   257
 75
     1
175
     1
 42
1.0
 92
        8
 66
     8
 43
1.0
 76
     1
 77
     6
 78
     2
 67
     7
 79
     5
170
     0
171
     0
290
     0
174
     0
 93
       13
 44
0.0
173
     0
291
     0
 45
0.0
1001
ACAD
1000
AcDbSavedByObjectVersion
1070
     0
  0
VISUALSTYLE
  5
37
102
{ACAD_REACTORS
330
2A
102
}
330
2A
100
AcDbVisualStyle
  2
Thicken
 70
    13
 71
     2
 72
     2
 73
     0
 90
        0
 40
-0.6
 41
-30.0
 62
     5
 63
     7
 74
     1
 91
        4
 64
     7
 65
   257
 75
     1
175
     1
 42
1.0
 92
       12
 66
     7
 43
1.0
 76
     1
 77
     6
 78
     2
 67
     7
 79
     5
170
     0
171
     0
290
     0
174
     0
 93
        1
 44
0.0
173
     0
291
     1
 45
0.0
1001
ACAD
1000
AcDbSavedByObjectVersion
1070
     0
  0
DICTIONARYVAR
  5
E7
102
{ACAD_REACTORS
330
E6
102
}
330
E6
100
DictionaryVariables
280
     0
  1
1:1
  0
DICTIONARYVAR
  5
EB
102
{ACAD_REACTORS
330
E6
102
}
330
E6
100
DictionaryVariables
280
     0
  1
80.000000
  0
DICTIONARYVAR
  5
EA
102
{ACAD_REACTORS
330
E6
102
}
330
E6
100
DictionaryVariables
280
     0
  1
5.000000
  0
ENDSEC
  0
EOF
