  0
SECTION
  2
HEADER
  9
$ACADVER
  1
AC1015
  9
$ACADMAINTVER
 70
     6
  9
$DWGCODEPAGE
  3
ANSI_1252
  9
$INSBASE
 10
0.0
 20
0.0
 30
0.0
  9
$EXTMIN
 10
0.0
 20
0.0
 30
0.0
  9
$EXTMAX
 10
210.0
 20
297.0
 30
0.0
  9
$LIMMIN
 10
0.0
 20
0.0
  9
$LIMMAX
 10
210.0
 20
297.0
  9
$ORTHOMODE
 70
     0
  9
$REGENMODE
 70
     1
  9
$FILLMODE
 70
     1
  9
$QTEXTMODE
 70
     0
  9
$MIRRTEXT
 70
     1
  9
$LTSCALE
 40
1.0
  9
$ATTMODE
 70
     1
  9
$TEXTSIZE
 40
2.5
  9
$TRACEWID
 40
1.0
  9
$TEXTSTYLE
  7
Standard
  9
$CLAYER
  8
0
  9
$CELTYPE
  6
ByLayer
  9
$CECOLOR
 62
   256
  9
$CELTSCALE
 40
1.0
  9
$DISPSILH
 70
     0
  9
$DIMSCALE
 40
1.0
  9
$DIMASZ
 40
2.5
  9
$DIMEXO
 40
0.625
  9
$DIMDLI
 40
3.75
  9
$DIMRND
 40
0.0
  9
$DIMDLE
 40
0.0
  9
$DIMEXE
 40
1.25
  9
$DIMTP
 40
0.0
  9
$DIMTM
 40
0.0
  9
$DIMTXT
 40
2.5
  9
$DIMCEN
 40
2.5
  9
$DIMTSZ
 40
0.0
  9
$DIMTOL
 70
     0
  9
$DIMLIM
 70
     0
  9
$DIMTIH
 70
     0
  9
$DIMTOH
 70
     0
  9
$DIMSE1
 70
     0
  9
$DIMSE2
 70
     0
  9
$DIMTAD
 70
     1
  9
$DIMZIN
 70
     8
  9
$DIMBLK
  1

  9
$DIMASO
 70
     1
  9
$DIMSHO
 70
     1
  9
$DIMPOST
  1

  9
$DIMAPOST
  1

  9
$DIMALT
 70
     0
  9
$DIMALTD
 70
     3
  9
$DIMALTF
 40
0.0393700787
  9
$DIMLFAC
 40
1.0
  9
$DIMTOFL
 70
     1
  9
$DIMTVP
 40
0.0
  9
$DIMTIX
 70
     0
  9
$DIMSOXD
 70
     0
  9
$DIMSAH
 70
     0
  9
$DIMBLK1
  1

  9
$DIMBLK2
  1

  9
$DIMSTYLE
  2
ISO-25
  9
$DIMCLRD
 70
     0
  9
$DIMCLRE
 70
     0
  9
$DIMCLRT
 70
     0
  9
$DIMTFAC
 40
1.0
  9
$DIMGAP
 40
0.625
  9
$DIMJUST
 70
     0
  9
$DIMSD1
 70
     0
  9
$DIMSD2
 70
     0
  9
$DIMTOLJ
 70
     0
  9
$DIMTZIN
 70
     8
  9
$DIMALTZ
 70
     0
  9
$DIMALTTZ
 70
     0
  9
$DIMUPT
 70
     0
  9
$DIMDEC
 70
     2
  9
$DIMTDEC
 70
     2
  9
$DIMALTU
 70
     2
  9
$DIMALTTD
 70
     3
  9
$DIMTXSTY
  7
Standard
  9
$DIMAUNIT
 70
     0
  9
$DIMADEC
 70
     0
  9
$DIMALTRND
 40
0.0
  9
$DIMAZIN
 70
     0
  9
$DIMDSEP
 70
    44
  9
$DIMATFIT
 70
     3
  9
$DIMFRAC
 70
     0
  9
$DIMLDRBLK
  1

  9
$DIMLUNIT
 70
     2
  9
$DIMLWD
 70
    -2
  9
$DIMLWE
 70
    -2
  9
$DIMTMOVE
 70
     0
  9
$LUNITS
 70
     2
  9
$LUPREC
 70
     4
  9
$SKETCHINC
 40
1.0
  9
$FILLETRAD
 40
10.0
  9
$AUNITS
 70
     0
  9
$AUPREC
 70
     0
  9
$MENU
  1
.
  9
$ELEVATION
 40
0.0
  9
$PELEVATION
 40
0.0
  9
$THICKNESS
 40
0.0
  9
$LIMCHECK
 70
     0
  9
$CHAMFERA
 40
10.0
  9
$CHAMFERB
 40
10.0
  9
$CHAMFERC
 40
20.0
  9
$CHAMFERD
 40
0.0
  9
$SKPOLY
 70
     0
  9
$TDCREATE
 40
2455324.317965729
  9
$TDUCREATE
 40
2455324.234632396
  9
$TDUPDATE
 40
2455324.317965741
  9
$TDUUPDATE
 40
2455324.234632407
  9
$TDINDWG
 40
0.0000000116
  9
$TDUSRTIMER
 40
0.0000000116
  9
$USRTIMER
 70
     1
  9
$ANGBASE
 50
0.0
  9
$ANGDIR
 70
     0
  9
$PDMODE
 70
     0
  9
$PDSIZE
 40
0.0
  9
$PLINEWID
 40
0.0
  9
$SPLFRAME
 70
     0
  9
$SPLINETYPE
 70
     6
  9
$SPLINESEGS
 70
     8
  9
$HANDSEED
  5
D9
  9
$SURFTAB1
 70
     6
  9
$SURFTAB2
 70
     6
  9
$SURFTYPE
 70
     6
  9
$SURFU
 70
     6
  9
$SURFV
 70
     6
  9
$UCSBASE
  2

  9
$UCSNAME
  2

  9
$UCSORG
 10
0.0
 20
0.0
 30
0.0
  9
$UCSXDIR
 10
1.0
 20
0.0
 30
0.0
  9
$UCSYDIR
 10
0.0
 20
1.0
 30
0.0
  9
$UCSORTHOREF
  2

  9
$UCSORTHOVIEW
 70
     0
  9
$UCSORGTOP
 10
0.0
 20
0.0
 30
0.0
  9
$UCSORGBOTTOM
 10
0.0
 20
0.0
 30
0.0
  9
$UCSORGLEFT
 10
0.0
 20
0.0
 30
0.0
  9
$UCSORGRIGHT
 10
0.0
 20
0.0
 30
0.0
  9
$UCSORGFRONT
 10
0.0
 20
0.0
 30
0.0
  9
$UCSORGBACK
 10
0.0
 20
0.0
 30
0.0
  9
$PUCSBASE
  2

  9
$PUCSNAME
  2

  9
$PUCSORG
 10
0.0
 20
0.0
 30
0.0
  9
$PUCSXDIR
 10
1.0
 20
0.0
 30
0.0
  9
$PUCSYDIR
 10
0.0
 20
1.0
 30
0.0
  9
$PUCSORTHOREF
  2

  9
$PUCSORTHOVIEW
 70
     0
  9
$PUCSORGTOP
 10
0.0
 20
0.0
 30
0.0
  9
$PUCSORGBOTTOM
 10
0.0
 20
0.0
 30
0.0
  9
$PUCSORGLEFT
 10
0.0
 20
0.0
 30
0.0
  9
$PUCSORGRIGHT
 10
0.0
 20
0.0
 30
0.0
  9
$PUCSORGFRONT
 10
0.0
 20
0.0
 30
0.0
  9
$PUCSORGBACK
 10
0.0
 20
0.0
 30
0.0
  9
$USERI1
 70
     0
  9
$USERI2
 70
     0
  9
$USERI3
 70
     0
  9
$USERI4
 70
     0
  9
$USERI5
 70
     0
  9
$USERR1
 40
0.0
  9
$USERR2
 40
0.0
  9
$USERR3
 40
0.0
  9
$USERR4
 40
0.0
  9
$USERR5
 40
0.0
  9
$WORLDVIEW
 70
     1
  9
$SHADEDGE
 70
     3
  9
$SHADEDIF
 70
    70
  9
$TILEMODE
 70
     1
  9
$MAXACTVP
 70
    64
  9
$PINSBASE
 10
0.0
 20
0.0
 30
0.0
  9
$PLIMCHECK
 70
     0
  9
$PEXTMIN
 10
0.0
 20
0.0
 30
0.0
  9
$PEXTMAX
 10
210.0
 20
297.0
 30
0.0
  9
$PLIMMIN
 10
0.0
 20
0.0
  9
$PLIMMAX
 10
210.0
 20
297.0
  9
$UNITMODE
 70
     0
  9
$VISRETAIN
 70
     1
  9
$PLINEGEN
 70
     0
  9
$PSLTSCALE
 70
     1
  9
$TREEDEPTH
 70
  3020
  9
$CMLSTYLE
  2
Standard
  9
$CMLJUST
 70
     0
  9
$CMLSCALE
 40
20.0
  9
$PROXYGRAPHICS
 70
     1
  9
$MEASUREMENT
 70
     1
  9
$CELWEIGHT
370
    -1
  9
$ENDCAPS
280
     0
  9
$JOINSTYLE
280
     0
  9
$LWDISPLAY
290
     0
  9
$INSUNITS
 70
     4
  9
$HYPERLINKBASE
  1

  9
$STYLESHEET
  1

  9
$XEDIT
290
     1
  9
$CEPSNTYPE
380
     0
  9
$PSTYLEMODE
290
     1
  9
$FINGERPRINTGUID
  2
{22DA4F5F-6C2B-45F6-9228-0CC41B318D52}
  9
$VERSIONGUID
  2
{FAEB1C32-E019-11D5-929B-00C0DF256EC4}
  9
$EXTNAMES
290
     1
  9
$PSVPSCALE
 40
0.0
  9
$OLESTARTUP
290
     0
  0
ENDSEC
  0
SECTION
  2
CLASSES
  0
CLASS
  1
ACDBDICTIONARYWDFLT
  2
AcDbDictionaryWithDefault
  3
ObjectDBX Classes
 90
        0
280
     0
281
     0
  0
CLASS
  1
VISUALSTYLE
  2
AcDbVisualStyle
  3
ObjectDBX Classes
 90
     4095
280
     0
281
     0
  0
CLASS
  1
SCALE
  2
AcDbScale
  3
ObjectDBX Classes
 90
     1153
280
     0
281
     0
  0
CLASS
  1
DICTIONARYVAR
  2
AcDbDictionaryVar
  3
ObjectDBX Classes
 90
        0
280
     0
281
     0
  0
CLASS
  1
ACDBPLACEHOLDER
  2
AcDbPlaceHolder
  3
ObjectDBX Classes
 90
        0
280
     0
281
     0
  0
CLASS
  1
LAYOUT
  2
AcDbLayout
  3
ObjectDBX Classes
 90
        0
280
     0
281
     0
  0
ENDSEC
  0
SECTION
  2
TABLES
  0
TABLE
  2
VPORT
  5
8
330
0
100
AcDbSymbolTable
 70
     1
  0
VPORT
  5
29
330
8
100
AcDbSymbolTableRecord
100
AcDbViewportTableRecord
  2
*Active
 70
     0
 10
0.0
 20
0.0
 11
1.0
 21
1.0
 12
344.1869158879
 22
148.5
 13
0.0
 23
0.0
 14
10.0
 24
10.0
 15
10.0
 25
10.0
 16
0.0
 26
0.0
 36
1.0
 17
0.0
 27
0.0
 37
0.0
 40
297.0
 41
1.9729729729
 42
50.0
 43
0.0
 44
0.0
 50
0.0
 51
0.0
 71
     0
 72
   100
 73
     1
 74
     3
 75
     0
 76
     0
 77
     0
 78
     0
281
     0
 65
     1
110
0.0
120
0.0
130
0.0
111
1.0
121
0.0
131
0.0
112
0.0
122
1.0
132
0.0
 79
     0
146
0.0
  0
ENDTAB
  0
TABLE
  2
LTYPE
  5
5
330
0
100
AcDbSymbolTable
 70
     3
  0
LTYPE
  5
14
330
5
100
AcDbSymbolTableRecord
100
AcDbLinetypeTableRecord
  2
ByBlock
 70
     0
  3

 72
    65
 73
     0
 40
0.0
  0
LTYPE
  5
15
330
5
100
AcDbSymbolTableRecord
100
AcDbLinetypeTableRecord
  2
ByLayer
 70
     0
  3

 72
    65
 73
     0
 40
0.0
  0
LTYPE
  5
16
330
5
100
AcDbSymbolTableRecord
100
AcDbLinetypeTableRecord
  2
Continuous
 70
     0
  3
Solid line
 72
    65
 73
     0
 40
0.0
  0
LTYPE
  5
60
330
5
100
AcDbSymbolTableRecord
100
AcDbLinetypeTableRecord
  2
CENTER2
 70
     0
  3
Center (.5x) ___ _ ___ _ ___ _ ___ _ ___ _ ___
 72
    65
 73
     4
 40
28.575
 49
19.05
 74
     4
 75
     0
340
0
 46
0.0
 50
0.0
 44
0.0
 45
0.0
 49
-3.175
 74
     4
 75
     0
340
0
 46
0.0
 50
0.0
 44
0.0
 45
0.0
 49
3.175
 74
     4
 75
     0
340
0
 46
0.0
 50
0.0
 44
0.0
 45
0.0
 49
-3.175
 74
     4
 75
     0
340
0
 46
0.0
 50
0.0
 44
0.0
 45
0.0
  0
LTYPE
  5
68
330
5
100
AcDbSymbolTableRecord
100
AcDbLinetypeTableRecord
  2
HIDDEN2
 70
     0
  3
Hidden (.5x) _ _ _ _ _ _ _ _ _ _ _ _ _ _ _ _ _ 
 72
    65
 73
     2
 40
4.7625
 49
3.175
 74
     4
 75
     0
340
0
 46
0.0
 50
0.0
 44
0.0
 45
0.0
 49
-1.5875
 74
     4
 75
     0
340
0
 46
0.0
 50
0.0
 44
0.0
 45
0.0
  0
ENDTAB
  0
TABLE
  2
LAYER
  5
2
330
0
100
AcDbSymbolTable
 70
     3
  0
LAYER
  5
10
330
2
100
AcDbSymbolTableRecord
100
AcDbLayerTableRecord
  2
0
 70
     0
 62
     7
  6
Continuous
370
    -3
390
F
  0
LAYER
  5
5D
330
2
100
AcDbSymbolTableRecord
100
AcDbLayerTableRecord
  2
Default
 70
     0
 62
     7
  6
Continuous
370
    -3
390
F
  0
LAYER
  5
66
330
2
100
AcDbSymbolTableRecord
100
AcDbLayerTableRecord
  2
MEGA_025135
 70
     0
 62
     7
  6
Continuous
370
    -3
390
F
  0
ENDTAB
  0
TABLE
  2
STYLE
  5
3
330
0
100
AcDbSymbolTable
 70
     3
  0
STYLE
  5
11
330
3
100
AcDbSymbolTableRecord
100
AcDbTextStyleTableRecord
  2
Standard
 70
     0
 40
0.0
 41
1.0
 50
0.0
 71
     0
 42
2.5
  3
txt
  4

  0
STYLE
  5
91
330
3
100
AcDbSymbolTableRecord
100
AcDbTextStyleTableRecord
  2
SEACAD_seiso_ttf
 70
     0
 40
0.0
 41
1.0
 50
0.0
 71
     0
 42
0.2
  3
seiso.ttf
  4

  0
STYLE
  5
B2
330
3
100
AcDbSymbolTableRecord
100
AcDbTextStyleTableRecord
  2
SEACAD_semeci1_ttf
 70
     0
 40
0.0
 41
1.0
 50
0.0
 71
     0
 42
0.2
  3
semeci1.ttf
  4

  0
ENDTAB
  0
TABLE
  2
VIEW
  5
6
330
0
100
AcDbSymbolTable
 70
     0
  0
ENDTAB
  0
TABLE
  2
UCS
  5
7
330
0
100
AcDbSymbolTable
 70
     0
  0
ENDTAB
  0
TABLE
  2
APPID
  5
9
330
0
100
AcDbSymbolTable
 70
     1
  0
APPID
  5
12
330
9
100
AcDbSymbolTableRecord
100
AcDbRegAppTableRecord
  2
ACAD
 70
     0
  0
ENDTAB
  0
TABLE
  2
DIMSTYLE
  5
A
330
0
100
AcDbSymbolTable
 70
     3
100
AcDbDimStyleTable
  0
DIMSTYLE
105
27
330
A
100
AcDbSymbolTableRecord
100
AcDbDimStyleTableRecord
  2
ISO-25
 70
     0
 41
2.5
 42
0.625
 43
3.75
 44
1.25
 73
     0
 74
     0
 77
     1
 78
     8
140
2.5
141
2.5
143
0.0393700787
147
0.625
171
     3
172
     1
271
     2
272
     2
274
     3
278
    44
283
     0
284
     8
340
11
  0
DIMSTYLE
105
7F
330
A
100
AcDbSymbolTableRecord
100
AcDbDimStyleTableRecord
  2
Standard
 70
     0
340
11
  0
DIMSTYLE
105
92
102
{ACAD_REACTORS
330
93
330
9D
330
A7
330
B1
330
BD
330
C8
102
}
330
A
100
AcDbSymbolTableRecord
100
AcDbDimStyleTableRecord
  2
DIN
 70
     0
 41
3.0
 42
0.0
 44
1.5
 73
     0
 74
     0
 77
     1
 78
     8
140
3.0
141
1.5
147
1.5
172
     1
173
     1
271
     2
272
     2
278
    44
284
     8
340
91
343
8C
344
8C
  0
ENDTAB
  0
TABLE
  2
BLOCK_RECORD
  5
1
330
0
100
AcDbSymbolTable
 70
    12
  0
BLOCK_RECORD
  5
1F
330
1
100
AcDbSymbolTableRecord
100
AcDbBlockTableRecord
  2
*Model_Space
340
22
  0
BLOCK_RECORD
  5
1B
330
1
100
AcDbSymbolTableRecord
100
AcDbBlockTableRecord
  2
*Paper_Space
340
1E
  0
BLOCK_RECORD
  5
5E
330
1
100
AcDbSymbolTableRecord
100
AcDbBlockTableRecord
  2
SEANNOT_GROUP
340
0
102
{BLKREFS
331
5F
102
}
  0
BLOCK_RECORD
  5
64
330
1
100
AcDbSymbolTableRecord
100
AcDbBlockTableRecord
  2
SE
340
0
102
{BLKREFS
331
65
102
}
  0
BLOCK_RECORD
  5
80
330
1
100
AcDbSymbolTableRecord
100
AcDbBlockTableRecord
  2
_OBLIQUE
340
0
  0
BLOCK_RECORD
  5
84
330
1
100
AcDbSymbolTableRecord
100
AcDbBlockTableRecord
  2
_DOT
340
0
  0
BLOCK_RECORD
  5
8C
330
1
100
AcDbSymbolTableRecord
100
AcDbBlockTableRecord
  2
_SE_FILLED
340
0
  0
BLOCK_RECORD
  5
94
330
1
100
AcDbSymbolTableRecord
100
AcDbBlockTableRecord
  2
DMBLK7
340
0
  0
BLOCK_RECORD
  5
9E
330
1
100
AcDbSymbolTableRecord
100
AcDbBlockTableRecord
  2
DMBLK8
340
0
  0
BLOCK_RECORD
  5
A8
330
1
100
AcDbSymbolTableRecord
100
AcDbBlockTableRecord
  2
DMBLK9
340
0
  0
BLOCK_RECORD
  5
B3
330
1
100
AcDbSymbolTableRecord
100
AcDbBlockTableRecord
  2
DMBLK10
340
0
  0
BLOCK_RECORD
  5
BE
330
1
100
AcDbSymbolTableRecord
100
AcDbBlockTableRecord
  2
DMBLK11
340
0
  0
BLOCK_RECORD
  5
C9
330
1
100
AcDbSymbolTableRecord
100
AcDbBlockTableRecord
  2
DMBLK12
340
0
  0
ENDTAB
  0
ENDSEC
  0
SECTION
  2
BLOCKS
  0
BLOCK
  5
20
330
1F
100
AcDbEntity
  8
0
100
AcDbBlockBegin
  2
*Model_Space
 70
     0
 10
0.0
 20
0.0
 30
0.0
  3
*Model_Space
  1

  0
ENDBLK
  5
21
330
1F
100
AcDbEntity
  8
0
100
AcDbBlockEnd
  0
BLOCK
  5
1C
330
1B
100
AcDbEntity
 67
     1
  8
0
100
AcDbBlockBegin
  2
*Paper_Space
 70
     0
 10
0.0
 20
0.0
 30
0.0
  3
*Paper_Space
  1

  0
ENDBLK
  5
1D
330
1B
100
AcDbEntity
 67
     1
  8
0
100
AcDbBlockEnd
  0
BLOCK
  5
62
330
5E
100
AcDbEntity
  8
0
100
AcDbBlockBegin
  2
SEANNOT_GROUP
 70
     0
 10
0.0
 20
0.0
 30
0.0
  3
SEANNOT_GROUP
  1

  0
LINE
  5
61
330
5E
100
AcDbEntity
  8
Default
  6
CENTER2
 62
     7
100
AcDbLine
 10
63.8214980589
 20
153.7851469369
 30
0.0
 11
63.8214980589
 21
199.7851469369
 31
0.0
  0
ENDBLK
  5
63
330
5E
100
AcDbEntity
  8
0
100
AcDbBlockEnd
  0
BLOCK
  5
7D
330
64
100
AcDbEntity
  8
0
100
AcDbBlockBegin
  2
SE
 70
     0
 10
0.0
 20
0.0
 30
0.0
  3
SE
  1

  0
LINE
  5
67
330
64
100
AcDbEntity
  8
MEGA_025135
  6
Continuous
 62
     7
100
AcDbLine
 10
74.3214980589
 20
189.5351469369
 30
0.0
 11
53.3214980589
 21
189.5351469369
 31
0.0
  0
ARC
  5
69
330
64
100
AcDbEntity
  8
MEGA_025135
  6
HIDDEN2
 62
     7
100
AcDbCircle
 10
59.2714980589
 20
198.0351469369
 30
0.0
 40
0.5000000000000004
100
AcDbArc
 50
0.0
 51
90.0
  0
ARC
  5
6A
330
64
100
AcDbEntity
  8
MEGA_025135
  6
HIDDEN2
 62
     7
100
AcDbCircle
 10
68.3714980589
 20
198.0351469369
 30
0.0
 40
0.5000000000000004
100
AcDbArc
 50
90.0
 51
180.0
  0
ARC
  5
6B
330
64
100
AcDbEntity
  8
MEGA_025135
  6
Continuous
 62
     7
100
AcDbCircle
 10
43.4289403674
 20
184.2135627423
 30
0.0
 40
10.35407159365344
100
AcDbArc
 50
348.089475298
 51
15.5751106198
  0
LINE
  5
6C
330
64
100
AcDbEntity
  8
MEGA_025135
  6
Continuous
 62
     7
100
AcDbLine
 10
71.3214980589
 20
198.5351469369
 30
0.0
 11
56.3214980589
 21
198.5351469369
 31
0.0
  0
LINE
  5
6D
330
64
100
AcDbEntity
  8
MEGA_025135
  6
Continuous
 62
     7
100
AcDbLine
 10
71.8214980589
 20
198.0351469369
 30
0.0
 11
55.8214980589
 21
198.0351469369
 31
0.0
  0
SPLINE
  5
6E
330
64
100
AcDbEntity
  8
MEGA_025135
  6
Continuous
 62
     7
100
AcDbSpline
210
0.0
220
0.0
230
1.0
 70
     8
 71
     3
 72
    39
 73
    35
 74
     0
 42
0.0000000002696721
 43
0.0000000001
 40
0.0
 40
0.0
 40
0.0
 40
0.0
 40
0.0423186351667936
 40
0.0817457905507958
 40
0.1190988630267329
 40
0.1542427478250115
 40
0.1870604301139369
 40
0.224673891999557
 40
0.2583757109200491
 40
0.2880672081255344
 40
0.3136822580463471
 40
0.3331349752536428
 40
0.3492611910992914
 40
0.3627526563088434
 40
0.3760165894116574
 40
0.3892526973922765
 40
0.415159831585678
 40
0.4409330200649323
 40
0.4555116305118609
 40
0.4709684614341936
 40
0.4894103194706129
 40
0.5108941738228313
 40
0.5353833353519234
 40
0.5628256818118089
 40
0.593151931562134
 40
0.6262755535339518
 40
0.6620803908596806
 40
0.7004271543022156
 40
0.7412563797370033
 40
0.7857687667370018
 40
0.83423591247581
 40
0.8864016673500247
 40
0.9418540756128547
 40
1.0
 40
1.0
 40
1.0
 40
1.0
 10
54.29733124258558
 20
159.0312489031955
 30
0.0
 10
54.31144763319661
 20
158.4563030022641
 30
0.0
 10
54.34043574671391
 20
157.5209367208068
 30
0.0
 10
54.51536853345002
 20
156.0298038751298
 30
0.0
 10
54.78547953513242
 20
154.679281415924
 30
0.0
 10
55.13497679180504
 20
153.4230509278092
 30
0.0
 10
55.57183087418876
 20
152.1934588689617
 30
0.0
 10
56.09006516526891
 20
151.0143163832504
 30
0.0
 10
56.67496880793264
 20
149.9108878727066
 30
0.0
 10
57.25253522542874
 20
148.9742801166426
 30
0.0
 10
57.78176047955827
 20
148.2167718047665
 30
0.0
 10
58.24307862131521
 20
147.6175464986821
 30
0.0
 10
58.63027494618772
 20
147.1509028659501
 30
0.0
 10
58.98087676149058
 20
146.7536289828004
 30
0.0
 10
59.31795399399838
 20
146.3922944382636
 30
0.0
 10
59.77248748246078
 20
145.93108581252
 30
0.0
 10
60.35831937672511
 20
145.3827285139666
 30
0.0
 10
60.98509509444162
 20
144.8555317800923
 30
0.0
 10
61.53078338383906
 20
144.433914673997
 30
0.0
 10
62.01594228256617
 20
144.0825530020173
 30
0.0
 10
62.58396706331881
 20
143.7007771205769
 30
0.0
 10
63.26235253302456
 20
143.2841862040011
 30
0.0
 10
64.05713402090652
 20
142.8463349576262
 30
0.0
 10
64.97271534242431
 20
142.4040217806132
 30
0.0
 10
66.0118774803192
 20
141.9765231081277
 30
0.0
 10
67.17473158431476
 20
141.5841272012747
 30
0.0
 10
68.45873919389662
 20
141.2515647349664
 30
0.0
 10
69.85816462672358
 20
140.9962307520858
 30
0.0
 10
71.38181671112747
 20
140.8650849965658
 30
0.0
 10
73.02900957902747
 20
140.7349673383544
 30
0.0
 10
74.81957785866942
 20
140.5998070761852
 30
0.0
 10
76.73345350906675
 20
140.4644012790602
 30
0.0
 10
78.81652891336726
 20
140.3265297691384
 30
0.0
 10
80.11404782077427
 20
140.2490982779398
 30
0.0
 10
80.90287651636416
 20
140.2023049358048
 30
0.0
  0
SPLINE
  5
6F
330
64
100
AcDbEntity
  8
MEGA_025135
  6
Continuous
 62
     7
100
AcDbSpline
210
0.0
220
0.0
230
1.0
 70
     8
 71
     3
 72
    24
 73
    20
 74
     0
 42
0.0000000008066483
 43
0.0000000001
 40
0.0
 40
0.0
 40
0.0
 40
0.0
 40
0.0826735631918449
 40
0.157699140004865
 40
0.2250792576207425
 40
0.2848187803283983
 40
0.3369163428163655
 40
0.3813658090121277
 40
0.4181656906872655
 40
0.4519659821613282
 40
0.4931785893793852
 40
0.5421900022362017
 40
0.5989984534628726
 40
0.6636018050125083
 40
0.7359977652923886
 40
0.8161837134740959
 40
0.873991405166563
 40
0.9352636275214902
 40
1.0
 40
1.0
 40
1.0
 40
1.0
 10
80.9028765163643
 20
150.7874937699446
 30
0.0
 10
80.52908204591245
 20
150.8202405067198
 30
0.0
 10
79.92810235673568
 20
150.8782147067347
 30
0.0
 10
79.00725211024732
 20
151.1078008354486
 30
0.0
 10
78.22637740915725
 20
151.3930504875602
 30
0.0
 10
77.55847542757216
 20
151.7150563149011
 30
0.0
 10
77.00372143337947
 20
152.0447705463805
 30
0.0
 10
76.55261413909332
 20
152.3605895767027
 30
0.0
 10
76.18144391221313
 20
152.6569104518014
 30
0.0
 10
75.83698273269582
 20
152.9641142536632
 30
0.0
 10
75.47525185268572
 20
153.3265698233917
 30
0.0
 10
75.07729044784078
 20
153.7852374677883
 30
0.0
 10
74.66094684976946
 20
154.3530064615263
 30
0.0
 10
74.24994978415808
 20
155.0406191106706
 30
0.0
 10
73.87345938427042
 20
155.8554366685636
 30
0.0
 10
73.60377454562587
 20
156.6845402902762
 30
0.0
 10
73.43491092149337
 20
157.486100634801
 30
0.0
 10
73.34371209993192
 20
158.2551944689345
 30
0.0
 10
73.34363314613815
 20
158.7374403705015
 30
0.0
 10
73.34566487529742
 20
159.0312489031955
 30
0.0
  0
LINE
  5
70
330
64
100
AcDbEntity
  8
MEGA_025135
  6
Continuous
 62
     7
100
AcDbLine
 10
53.5600058536
 20
182.0795514815
 30
0.0
 11
54.2973312426
 21
159.0312489032
 31
0.0
  0
LINE
  5
71
330
64
100
AcDbEntity
  8
MEGA_025135
  6
Continuous
 62
     7
100
AcDbLine
 10
53.3214980589
 20
189.5351469369
 30
0.0
 11
53.4028471081
 21
186.9922296206
 31
0.0
  0
LINE
  5
72
330
64
100
AcDbEntity
  8
MEGA_025135
  6
Continuous
 62
     7
100
AcDbLine
 10
73.3456648753
 20
159.0312489032
 30
0.0
 11
74.3214980589
 21
189.5351469369
 31
0.0
  0
SPLINE
  5
73
330
64
100
AcDbEntity
  8
MEGA_025135
  6
Continuous
 62
     7
100
AcDbSpline
210
0.0
220
0.0
230
1.0
 70
     8
 71
     3
 72
    15
 73
    11
 74
     0
 42
0.0000000001632626
 43
0.0000000001
 40
0.0
 40
0.0
 40
0.0
 40
0.0
 40
0.1250013316486697
 40
0.2500014724495915
 40
0.375000901742865
 40
0.5000000000000011
 40
0.6249990982571372
 40
0.7499985275504102
 40
0.8749986683513311
 40
1.0
 40
1.0
 40
1.0
 40
1.0
 10
80.90287651636416
 20
140.2023049358047
 30
0.0
 10
83.70614645924172
 20
140.0536804147227
 30
0.0
 10
88.43052319595304
 20
139.8097583204102
 30
0.0
 10
96.23384864279423
 20
139.5867997425506
 30
0.0
 10
103.8503445260982
 20
139.5113218385079
 30
0.0
 10
111.5142777309066
 20
139.5818540160178
 30
0.0
 10
119.1754470994077
 20
139.799410590197
 30
0.0
 10
126.7837250634504
 20
140.1610912176116
 30
0.0
 10
134.5731577243424
 20
140.6771700664225
 30
0.0
 10
139.2850291171117
 20
141.098479354801
 30
0.0
 10
142.0807326447194
 20
141.3523561096046
 30
0.0
  0
SPLINE
  5
74
330
64
100
AcDbEntity
  8
MEGA_025135
  6
Continuous
 62
     7
100
AcDbSpline
210
0.0
220
0.0
230
1.0
 70
     8
 71
     3
 72
    15
 73
    11
 74
     0
 42
0.0000000001633481
 43
0.0000000001
 40
0.0
 40
0.0
 40
0.0
 40
0.0
 40
0.1250005515276987
 40
0.2500006099814926
 40
0.3750003736124534
 40
0.5000000000000022
 40
0.6249996263875507
 40
0.7499993900185106
 40
0.8749994484723032
 40
1.0
 40
1.0
 40
1.0
 40
1.0
 10
142.0807326447193
 20
151.17613470977
 30
0.0
 10
139.2806521081914
 20
150.9974202463804
 30
0.0
 10
134.561746412483
 20
150.7014805791671
 30
0.0
 10
126.767017163093
 20
150.3564889253122
 30
0.0
 10
119.1573842994834
 20
150.1333685265569
 30
0.0
 10
111.4978769777189
 20
150.0259287352915
 30
0.0
 10
103.8376228481375
 20
150.036047586185
 30
0.0
 10
96.22576945603831
 20
150.1624713515777
 30
0.0
 10
88.42728627096216
 20
150.4084049292113
 30
0.0
 10
83.70500158758938
 20
150.6443681060046
 30
0.0
 10
80.90287651636424
 20
150.7874937699449
 30
0.0
  0
SPLINE
  5
75
330
64
100
AcDbEntity
  8
MEGA_025135
  6
Continuous
 62
     7
100
AcDbSpline
210
0.0
220
0.0
230
1.0
 70
     8
 71
     3
 72
    15
 73
    11
 74
     0
 42
0.0000000004769706
 43
0.0000000001
 40
0.0
 40
0.0
 40
0.0
 40
0.0
 40
0.1250000000004282
 40
0.2500000000005058
 40
0.3750000000005946
 40
0.5000000000003813
 40
0.624999999999872
 40
0.7499999999994046
 40
0.8749999999995888
 40
1.0
 40
1.0
 40
1.0
 40
1.0
 10
142.0807326447194
 20
141.3523561096045
 30
0.0
 10
143.0354586837748
 20
141.4571172848759
 30
0.0
 10
144.6443242749325
 20
141.6402307235685
 30
0.0
 10
147.2734582973562
 20
142.1194559012471
 30
0.0
 10
149.809163282991
 20
142.7256310318843
 30
0.0
 10
152.3228651577939
 20
143.47670452144
 30
0.0
 10
154.790645961735
 20
144.3671349823555
 30
0.0
 10
157.1899788932365
 20
145.3871592697779
 30
0.0
 10
159.5889678982338
 20
146.5648070238667
 30
0.0
 10
160.9915205677311
 20
147.3740196233333
 30
0.0
 10
161.8214980589415
 20
147.8573560254163
 30
0.0
  0
SPLINE
  5
76
330
64
100
AcDbEntity
  8
MEGA_025135
  6
Continuous
 62
     7
100
AcDbSpline
210
0.0
220
0.0
230
1.0
 70
     8
 71
     3
 72
    13
 73
     9
 74
     0
 42
0.0000000006124638
 43
0.0000000001
 40
0.0
 40
0.0
 40
0.0
 40
0.0
 40
0.1664030704069722
 40
0.3331109783003604
 40
0.4999463587480041
 40
0.6667309098613359
 40
0.8332955503850114
 40
1.0
 40
1.0
 40
1.0
 40
1.0
 10
158.0839825271154
 20
154.0744937172583
 30
0.0
 10
157.1389861252555
 20
153.7603364590516
 30
0.0
 10
155.5421117098003
 20
153.2364424061652
 30
0.0
 10
152.8565711720628
 20
152.5414031346813
 30
0.0
 10
150.1983028084892
 20
152.0016530456054
 30
0.0
 10
147.5161769541742
 20
151.5965179002988
 30
0.0
 10
144.7528636723478
 20
151.3560929402983
 30
0.0
 10
143.0763268892033
 20
151.2401706162998
 30
0.0
 10
142.0807326447193
 20
151.17613470977
 30
0.0
  0
SPLINE
  5
77
330
64
100
AcDbEntity
  8
MEGA_025135
  6
Continuous
 62
     7
100
AcDbSpline
210
0.0
220
0.0
230
1.0
 70
     8
 71
     3
 72
    21
 73
    17
 74
     0
 42
0.0000000018545896
 43
0.0000000001
 40
0.0
 40
0.0
 40
0.0
 40
0.0
 40
0.106121154235286
 40
0.1934713857956106
 40
0.2618628399950121
 40
0.3131461583484554
 40
0.3577548430198029
 40
0.3938564276288308
 40
0.4293158910693586
 40
0.4578869412856296
 40
0.4966571729298719
 40
0.547028038268495
 40
0.6101556245404047
 40
0.7161205776396384
 40
0.8476371503159155
 40
1.0
 40
1.0
 40
1.0
 40
1.0
 10
161.8214980589415
 20
147.8573560254163
 30
0.0
 10
162.0012644057562
 20
147.9645289448351
 30
0.0
 10
162.2749003444355
 20
148.1329214472862
 30
0.0
 10
162.6433827560616
 20
148.4404263554948
 30
0.0
 10
162.8894351232422
 20
148.7179463199863
 30
0.0
 10
163.0539068900599
 20
148.9635325122208
 30
0.0
 10
163.1603164535157
 20
149.1755346140069
 30
0.0
 10
163.2318771470218
 20
149.3715280707831
 30
0.0
 10
163.2762102268726
 20
149.5458034826926
 30
0.0
 10
163.3059182843481
 20
149.7278700962758
 30
0.0
 10
163.3213288227103
 20
149.9387143502223
 30
0.0
 10
163.3109638872199
 20
150.2121539582724
 30
0.0
 10
163.2450263639005
 20
150.6015122218845
 30
0.0
 10
163.0768421121505
 20
151.1135570441627
 30
0.0
 10
162.7553408765694
 20
151.7512807442435
 30
0.0
 10
162.4954103633374
 20
152.1444391645056
 30
0.0
 10
162.3263165706366
 20
152.3928320178808
 30
0.0
  0
SPLINE
  5
78
330
64
100
AcDbEntity
  8
MEGA_025135
  6
Continuous
 62
     7
100
AcDbSpline
210
0.0
220
0.0
230
1.0
 70
     8
 71
     3
 72
    28
 73
    24
 74
     0
 42
0.0000000019323868
 43
0.0000000001
 40
0.0
 40
0.0
 40
0.0
 40
0.0
 40
0.028615689116979
 40
0.051864117923539
 40
0.0701495857169635
 40
0.0835692120847712
 40
0.0920975501364933
 40
0.1007466283082058
 40
0.1115944325019652
 40
0.1351575529251846
 40
0.1988091489980338
 40
0.3288326422100682
 40
0.4491799016007284
 40
0.5035396051590858
 40
0.5492686084706908
 40
0.5868438476691384
 40
0.6197983676077887
 40
0.6521117359992352
 40
0.695695582883607
 40
0.7513415138846632
 40
0.8206288284707617
 40
0.9045663276315388
 40
1.0
 40
1.0
 40
1.0
 40
1.0
 10
162.3263165706366
 20
152.3928320178808
 30
0.0
 10
162.3061337524808
 20
152.4225425862694
 30
0.0
 10
162.2743333953617
 20
152.4692284196125
 30
0.0
 10
162.2134740809585
 20
152.5562423430412
 30
0.0
 10
162.1611015527139
 20
152.6299726167451
 30
0.0
 10
162.1205057617126
 20
152.686517651348
 30
0.0
 10
162.0882251289966
 20
152.7311527362077
 30
0.0
 10
162.0635837760825
 20
152.7650627251137
 30
0.0
 10
162.0194640716933
 20
152.8255632988081
 30
0.0
 10
161.9187812981303
 20
152.9621016570684
 30
0.0
 10
161.6875376268621
 20
153.2645396164953
 30
0.0
 10
161.3306479122909
 20
153.6784422788947
 30
0.0
 10
160.9300239533703
 20
154.0303649532181
 30
0.0
 10
160.6014138028395
 20
154.2349820588621
 30
0.0
 10
160.3835127688665
 20
154.338901662385
 30
0.0
 10
160.1915411713524
 20
154.4074626589143
 30
0.0
 10
160.0168723649565
 20
154.4520706852146
 30
0.0
 10
159.8284773760684
 20
154.4824209081829
 30
0.0
 10
159.5979894680689
 20
154.4944325451925
 30
0.0
 10
159.3026562438739
 20
154.4709895503392
 30
0.0
 10
158.9463529326495
 20
154.3894237136064
 30
0.0
 10
158.5323300369314
 20
154.2288552448503
 30
0.0
 10
158.257258953622
 20
154.1357221033803
 30
0.0
 10
158.0839825271154
 20
154.0744937172583
 30
0.0
  0
LINE
  5
79
330
64
100
AcDbEntity
  8
MEGA_025135
  6
Continuous
 62
     7
100
AcDbLine
 10
71.8214980589
 20
189.5351469369
 30
0.0
 11
71.8214980589
 21
198.0351469369
 31
0.0
  0
LINE
  5
7A
330
64
100
AcDbEntity
  8
MEGA_025135
  6
Continuous
 62
     7
100
AcDbLine
 10
55.8214980589
 20
198.0351469369
 30
0.0
 11
55.8214980589
 21
189.5351469369
 31
0.0
  0
ARC
  5
7B
330
64
100
AcDbEntity
  8
MEGA_025135
  6
Continuous
 62
     7
100
AcDbCircle
 10
71.3214980589
 20
198.0351469369
 30
0.0
 40
0.5000000000000004
100
AcDbArc
 50
0.0
 51
90.0
  0
ARC
  5
7C
330
64
100
AcDbEntity
  8
MEGA_025135
  6
Continuous
 62
     7
100
AcDbCircle
 10
56.3214980589
 20
198.0351469369
 30
0.0
 40
0.5000000000000004
100
AcDbArc
 50
90.0
 51
180.0
  0
ENDBLK
  5
7E
330
64
100
AcDbEntity
  8
0
100
AcDbBlockEnd
  0
BLOCK
  5
81
330
80
100
AcDbEntity
  8
0
100
AcDbBlockBegin
  2
_OBLIQUE
 70
     0
 10
0.0
 20
0.0
 30
0.0
  3
_OBLIQUE
  1

  0
LINE
  5
83
330
80
100
AcDbEntity
  8
0
  6
ByBlock
 62
     0
370
    -2
100
AcDbLine
 10
-0.5
 20
-0.5
 30
0.0
 11
0.5
 21
0.5
 31
0.0
  0
ENDBLK
  5
82
330
80
100
AcDbEntity
  8
0
100
AcDbBlockEnd
  0
BLOCK
  5
85
330
84
100
AcDbEntity
  8
0
100
AcDbBlockBegin
  2
_DOT
 70
     0
 10
0.0
 20
0.0
 30
0.0
  3
_DOT
  1

  0
POLYLINE
  5
87
330
84
100
AcDbEntity
  8
0
  6
ByBlock
 62
     0
100
AcDb2dPolyline
 66
     1
 10
0.0
 20
0.0
 30
0.0
 70
     1
 40
0.5
 41
0.5
  0
VERTEX
  5
8A
330
87
100
AcDbEntity
  8
0
  6
ByBlock
 62
     0
100
AcDbVertex
100
AcDb2dVertex
 10
-0.25
 20
0.0
 30
0.0
 42
1.0
  0
VERTEX
  5
8B
330
87
100
AcDbEntity
  8
0
  6
ByBlock
 62
     0
100
AcDbVertex
100
AcDb2dVertex
 10
0.25
 20
0.0
 30
0.0
 42
1.0
  0
SEQEND
  5
89
330
87
100
AcDbEntity
  8
0
  6
ByBlock
 62
     0
  0
LINE
  5
88
330
84
100
AcDbEntity
  8
0
  6
ByBlock
 62
     0
370
    -2
100
AcDbLine
 10
-0.5
 20
0.0
 30
0.0
 11
-1.0
 21
0.0
 31
0.0
  0
ENDBLK
  5
86
330
84
100
AcDbEntity
  8
0
100
AcDbBlockEnd
  0
BLOCK
  5
8F
330
8C
100
AcDbEntity
  8
0
100
AcDbBlockBegin
  2
_SE_FILLED
 70
     0
 10
0.0
 20
0.0
 30
0.0
  3
_SE_FILLED
  1

  0
SOLID
  5
8D
330
8C
100
AcDbEntity
  8
0
 62
     0
100
AcDbTrace
 10
0.0
 20
0.0
 30
0.0
 11
-1.0
 21
-0.1665
 31
0.0
 12
-1.0
 22
0.1665
 32
0.0
 13
0.0
 23
0.0
 33
0.0
  0
LINE
  5
8E
330
8C
100
AcDbEntity
  8
0
 62
     0
100
AcDbLine
 10
0.0
 20
0.0
 30
0.0
 11
-1.0
 21
0.0
 31
0.0
  0
ENDBLK
  5
90
330
8C
100
AcDbEntity
  8
0
100
AcDbBlockEnd
  0
BLOCK
  5
9B
330
94
100
AcDbEntity
  8
0
100
AcDbBlockBegin
  2
DMBLK7
 70
     0
 10
0.0
 20
0.0
 30
0.0
  3
DMBLK7
  1

  0
HATCH
  5
95
330
94
100
AcDbEntity
  8
Default
  6
Continuous
 62
     7
100
AcDbHatch
 10
0.0
 20
0.0
 30
0.0
210
0.0
220
0.0
230
1.0
  2
SOLID
 70
     1
 71
     0
 91
        1
 92
        1
 93
        3
 72
     1
 10
39.27821585866968
 20
195.5351469108146
 11
40.27821586736202
 21
195.5351469108146
 72
     1
 10
40.27821586736202
 20
195.5351469108146
 11
39.77821586301585
 21
198.5351469368916
 72
     1
 10
39.77821586301585
 20
198.5351469368916
 11
39.27821585866968
 21
195.5351469108146
 97
        0
 75
     0
 76
     1
 98
        0
  0
HATCH
  5
96
330
94
100
AcDbEntity
  8
Default
  6
Continuous
 62
     7
100
AcDbHatch
 10
0.0
 20
0.0
 30
0.0
210
0.0
220
0.0
230
1.0
  2
SOLID
 70
     1
 71
     0
 91
        1
 92
        1
 93
        3
 72
     1
 10
39.27821585866968
 20
192.5351473503989
 11
39.77821586301585
 21
189.5351473243218
 72
     1
 10
39.77821586301585
 20
189.5351473243218
 11
40.27821586736202
 21
192.5351473503989
 72
     1
 10
40.27821586736202
 20
192.5351473503989
 11
39.27821585866968
 21
192.5351473503989
 97
        0
 75
     0
 76
     1
 98
        0
  0
LINE
  5
97
330
94
100
AcDbEntity
  8
Default
  6
Continuous
 62
     7
100
AcDbLine
 10
56.3214980589
 20
198.5351469369
 30
0.0
 11
38.27821585
 21
198.5351469369
 31
0.0
  0
LINE
  5
98
330
94
100
AcDbEntity
  8
Default
  6
Continuous
 62
     7
100
AcDbLine
 10
53.3214980589
 20
189.5351469369
 30
0.0
 11
38.27821585
 21
189.5351469369
 31
0.0
  0
LINE
  5
99
330
94
100
AcDbEntity
  8
Default
  6
Continuous
 62
     7
100
AcDbLine
 10
39.778215863
 20
198.5351469369
 30
0.0
 11
39.778215863
 21
189.5351473243
 31
0.0
  0
TEXT
  5
9A
330
94
100
AcDbEntity
  8
Default
  6
Continuous
 62
     7
100
AcDbText
 10
39.028215863
 20
193.1146925852
 30
0.0
 40
3.0
  1
9
 50
90.0
  7
SEACAD_seiso_ttf
 11
36.028215863
 21
193.1146925852
 31
0.0
100
AcDbText
 73
     3
  0
ENDBLK
  5
9C
330
94
100
AcDbEntity
  8
0
100
AcDbBlockEnd
  0
BLOCK
  5
A5
330
9E
100
AcDbEntity
  8
0
100
AcDbBlockBegin
  2
DMBLK8
 70
     0
 10
0.0
 20
0.0
 30
0.0
  3
DMBLK8
  1

  0
HATCH
  5
9F
330
9E
100
AcDbEntity
  8
Default
  6
Continuous
 62
     7
100
AcDbHatch
 10
0.0
 20
0.0
 30
0.0
210
0.0
220
0.0
230
1.0
  2
SOLID
 70
     1
 71
     0
 91
        1
 92
        1
 93
        3
 72
     1
 10
39.27821541908546
 20
186.5351469108146
 11
40.27821542777779
 21
186.5351469108146
 72
     1
 10
40.27821542777779
 20
186.5351469108146
 11
39.77821542343163
 21
189.5351469368916
 72
     1
 10
39.77821542343163
 20
189.5351469368916
 11
39.27821541908546
 21
186.5351469108146
 97
        0
 75
     0
 76
     1
 98
        0
  0
HATCH
  5
A0
330
9E
100
AcDbEntity
  8
Default
  6
Continuous
 62
     7
100
AcDbHatch
 10
0.0
 20
0.0
 30
0.0
210
0.0
220
0.0
230
1.0
  2
SOLID
 70
     1
 71
     0
 91
        1
 92
        1
 93
        3
 72
     1
 10
39.27821541908546
 20
142.5356342309397
 11
39.77821542343163
 21
139.5356342048627
 72
     1
 10
39.77821542343163
 20
139.5356342048627
 11
40.27821542777779
 21
142.5356342309397
 72
     1
 10
40.27821542777779
 20
142.5356342309397
 11
39.27821541908546
 21
142.5356342309397
 97
        0
 75
     0
 76
     1
 98
        0
  0
LINE
  5
A1
330
9E
100
AcDbEntity
  8
Default
  6
Continuous
 62
     7
100
AcDbLine
 10
53.3214980589
 20
189.5351469369
 30
0.0
 11
38.2782154104
 21
189.5351469369
 31
0.0
  0
LINE
  5
A2
330
9E
100
AcDbEntity
  8
Default
  6
Continuous
 62
     7
100
AcDbLine
 10
103.9876462924
 20
139.5356358894
 30
0.0
 11
38.2782154104
 21
139.5356358894
 31
0.0
  0
LINE
  5
A3
330
9E
100
AcDbEntity
  8
Default
  6
Continuous
 62
     7
100
AcDbLine
 10
39.7782154234
 20
189.5351469369
 30
0.0
 11
39.7782154234
 21
139.5356342049
 31
0.0
  0
TEXT
  5
A4
330
9E
100
AcDbEntity
  8
Default
  6
Continuous
 62
     7
100
AcDbText
 10
39.0282154234
 20
162.7967542072
 30
0.0
 40
3.0
  1
50
 50
90.0
  7
SEACAD_seiso_ttf
 11
36.0282154234
 21
162.7967542072
 31
0.0
100
AcDbText
 73
     3
  0
ENDBLK
  5
A6
330
9E
100
AcDbEntity
  8
0
100
AcDbBlockEnd
  0
BLOCK
  5
AF
330
A8
100
AcDbEntity
  8
0
100
AcDbBlockBegin
  2
DMBLK9
 70
     0
 10
0.0
 20
0.0
 30
0.0
  3
DMBLK9
  1

  0
HATCH
  5
A9
330
A8
100
AcDbEntity
  8
Default
  6
Continuous
 62
     7
100
AcDbHatch
 10
0.0
 20
0.0
 30
0.0
210
0.0
220
0.0
230
1.0
  2
SOLID
 70
     1
 71
     0
 91
        1
 92
        1
 93
        3
 72
     1
 10
56.32149808501863
 20
129.3708006548317
 11
56.32149808501863
 21
130.370800663524
 72
     1
 10
56.32149808501863
 20
130.370800663524
 11
53.32149805894159
 21
129.8708006591779
 72
     1
 10
53.32149805894159
 20
129.8708006591779
 11
56.32149808501863
 21
129.3708006548317
 97
        0
 75
     0
 76
     1
 98
        0
  0
HATCH
  5
AA
330
A8
100
AcDbEntity
  8
Default
  6
Continuous
 62
     7
100
AcDbHatch
 10
0.0
 20
0.0
 30
0.0
210
0.0
220
0.0
230
1.0
  2
SOLID
 70
     1
 71
     0
 91
        1
 92
        1
 93
        3
 72
     1
 10
160.3171164954271
 20
129.3708006548317
 11
163.3171165215041
 21
129.8708006591779
 72
     1
 10
163.3171165215041
 20
129.8708006591779
 11
160.3171164954271
 21
130.370800663524
 72
     1
 10
160.3171164954271
 20
130.370800663524
 11
160.3171164954271
 21
129.3708006548317
 97
        0
 75
     0
 76
     1
 98
        0
  0
LINE
  5
AB
330
A8
100
AcDbEntity
  8
Default
  6
Continuous
 62
     7
100
AcDbLine
 10
53.3214980589
 20
189.5351469369
 30
0.0
 11
53.3214980589
 21
128.3708006461
 31
0.0
  0
LINE
  5
AC
330
A8
100
AcDbEntity
  8
Default
  6
Continuous
 62
     7
100
AcDbLine
 10
163.317119838
 20
149.9719325694
 30
0.0
 11
163.317119838
 21
128.3708006461
 31
0.0
  0
LINE
  5
AD
330
A8
100
AcDbEntity
  8
Default
  6
Continuous
 62
     7
100
AcDbLine
 10
53.3214980589
 20
129.8708006592
 30
0.0
 11
163.3171165215
 21
129.8708006592
 31
0.0
  0
TEXT
  5
AE
330
A8
100
AcDbEntity
  8
Default
  6
Continuous
 62
     7
100
AcDbText
 10
106.2056709266
 20
130.6208006592
 30
0.0
 40
3.0
  1
110
  7
SEACAD_seiso_ttf
 11
106.2056709266
 21
133.6208006592
 31
0.0
100
AcDbText
 73
     3
  0
ENDBLK
  5
B0
330
A8
100
AcDbEntity
  8
0
100
AcDbBlockEnd
  0
BLOCK
  5
BB
330
B3
100
AcDbEntity
  8
0
100
AcDbBlockBegin
  2
DMBLK10
 70
     0
 10
0.0
 20
0.0
 30
0.0
  3
DMBLK10
  1

  0
HATCH
  5
B4
330
B3
100
AcDbEntity
  8
Default
  6
Continuous
 62
     7
100
AcDbHatch
 10
0.0
 20
0.0
 30
0.0
210
0.0
220
0.0
230
1.0
  2
SOLID
 70
     1
 71
     0
 91
        1
 92
        1
 93
        3
 72
     1
 10
56.32149808501863
 20
223.7877559855512
 11
53.32149805894159
 21
223.2877559812051
 72
     1
 10
53.32149805894159
 20
223.2877559812051
 11
56.32149808501863
 21
222.7877559768589
 72
     1
 10
56.32149808501863
 20
222.7877559768589
 11
56.32149808501863
 21
223.7877559855512
 97
        0
 75
     0
 76
     1
 98
        0
  0
HATCH
  5
B5
330
B3
100
AcDbEntity
  8
Default
  6
Continuous
 62
     7
100
AcDbHatch
 10
0.0
 20
0.0
 30
0.0
210
0.0
220
0.0
230
1.0
  2
SOLID
 70
     1
 71
     0
 91
        1
 92
        1
 93
        3
 72
     1
 10
71.3214977497425
 20
223.7877559855512
 11
71.3214977497425
 21
222.7877559768589
 72
     1
 10
71.3214977497425
 20
222.7877559768589
 11
74.32149777581954
 21
223.2877559812051
 72
     1
 10
74.32149777581954
 20
223.2877559812051
 11
71.3214977497425
 21
223.7877559855512
 97
        0
 75
     0
 76
     1
 98
        0
  0
LINE
  5
B6
330
B3
100
AcDbEntity
  8
Default
  6
Continuous
 62
     7
100
AcDbLine
 10
53.3214980589
 20
189.5351469369
 30
0.0
 11
53.3214980589
 21
224.7877559942
 31
0.0
  0
LINE
  5
B7
330
B3
100
AcDbEntity
  8
Default
  6
Continuous
 62
     7
100
AcDbLine
 10
74.3214980589
 20
189.5351469369
 30
0.0
 11
74.3214980589
 21
224.7877559942
 31
0.0
  0
LINE
  5
B8
330
B3
100
AcDbEntity
  8
Default
  6
Continuous
 62
     7
100
AcDbLine
 10
53.3214980589
 20
223.2877559812
 30
0.0
 11
74.3214977758
 21
223.2877559812
 31
0.0
  0
TEXT
  5
B9
330
B3
100
AcDbEntity
  8
Default
  6
Continuous
 62
     7
100
AcDbText
 10
64.1077126851
 20
224.0377559812
 30
0.0
 40
3.0
  1
21
  7
SEACAD_seiso_ttf
 11
64.1077126851
 21
227.0377559812
 31
0.0
100
AcDbText
 73
     3
  0
TEXT
  5
BA
330
B3
100
AcDbEntity
  8
Default
  6
Continuous
 62
     7
100
AcDbText
 10
60.4671013314
 20
224.0377559812
 30
0.0
 40
3.0
  1
O
  7
SEACAD_semeci1_ttf
 11
60.4671013314
 21
227.0377559812
 31
0.0
100
AcDbText
 73
     3
  0
ENDBLK
  5
BC
330
B3
100
AcDbEntity
  8
0
100
AcDbBlockEnd
  0
BLOCK
  5
C6
330
BE
100
AcDbEntity
  8
0
100
AcDbBlockBegin
  2
DMBLK11
 70
     0
 10
0.0
 20
0.0
 30
0.0
  3
DMBLK11
  1

  0
HATCH
  5
BF
330
BE
100
AcDbEntity
  8
Default
  6
Continuous
 62
     7
100
AcDbHatch
 10
0.0
 20
0.0
 30
0.0
210
0.0
220
0.0
230
1.0
  2
SOLID
 70
     1
 71
     0
 91
        1
 92
        1
 93
        3
 72
     1
 10
58.82149808501853
 20
214.8148592606119
 11
55.82149805894149
 21
214.3148592562657
 72
     1
 10
55.82149805894149
 20
214.3148592562657
 11
58.82149808501853
 21
213.8148592519196
 72
     1
 10
58.82149808501853
 20
213.8148592519196
 11
58.82149808501853
 21
214.8148592606119
 97
        0
 75
     0
 76
     1
 98
        0
  0
HATCH
  5
C0
330
BE
100
AcDbEntity
  8
Default
  6
Continuous
 62
     7
100
AcDbHatch
 10
0.0
 20
0.0
 30
0.0
210
0.0
220
0.0
230
1.0
  2
SOLID
 70
     1
 71
     0
 91
        1
 92
        1
 93
        3
 72
     1
 10
68.82149879282368
 20
214.8148592606119
 11
68.82149879282368
 21
213.8148592519196
 72
     1
 10
68.82149879282368
 20
213.8148592519196
 11
71.82149881890071
 21
214.3148592562657
 72
     1
 10
71.82149881890071
 20
214.3148592562657
 11
68.82149879282368
 21
214.8148592606119
 97
        0
 75
     0
 76
     1
 98
        0
  0
LINE
  5
C1
330
BE
100
AcDbEntity
  8
Default
  6
Continuous
 62
     7
100
AcDbLine
 10
55.8214980589
 20
198.0351469369
 30
0.0
 11
55.8214980589
 21
215.8148592693
 31
0.0
  0
LINE
  5
C2
330
BE
100
AcDbEntity
  8
Default
  6
Continuous
 62
     7
100
AcDbLine
 10
71.8214980589
 20
198.0351469369
 30
0.0
 11
71.8214980589
 21
215.8148592693
 31
0.0
  0
LINE
  5
C3
330
BE
100
AcDbEntity
  8
Default
  6
Continuous
 62
     7
100
AcDbLine
 10
55.8214980589
 20
214.3148592563
 30
0.0
 11
71.8214988189
 21
214.3148592563
 31
0.0
  0
TEXT
  5
C4
330
BE
100
AcDbEntity
  8
Default
  6
Continuous
 62
     7
100
AcDbText
 10
64.1077132067
 20
215.0648592563
 30
0.0
 40
3.0
  1
16
  7
SEACAD_seiso_ttf
 11
64.1077132067
 21
218.0648592563
 31
0.0
100
AcDbText
 73
     3
  0
TEXT
  5
C5
330
BE
100
AcDbEntity
  8
Default
  6
Continuous
 62
     7
100
AcDbText
 10
60.467101853
 20
215.0648592563
 30
0.0
 40
3.0
  1
O
  7
SEACAD_semeci1_ttf
 11
60.467101853
 21
218.0648592563
 31
0.0
100
AcDbText
 73
     3
  0
ENDBLK
  5
C7
330
BE
100
AcDbEntity
  8
0
100
AcDbBlockEnd
  0
BLOCK
  5
D1
330
C9
100
AcDbEntity
  8
0
100
AcDbBlockBegin
  2
DMBLK12
 70
     0
 10
0.0
 20
0.0
 30
0.0
  3
DMBLK12
  1

  0
HATCH
  5
CA
330
C9
100
AcDbEntity
  8
Default
  6
Continuous
 62
     7
100
AcDbHatch
 10
0.0
 20
0.0
 30
0.0
210
0.0
220
0.0
230
1.0
  2
SOLID
 70
     1
 71
     0
 91
        1
 92
        1
 93
        3
 72
     1
 10
56.77149803286446
 20
205.6118858091465
 11
56.77149803286446
 21
204.6118858004542
 72
     1
 10
56.77149803286446
 20
204.6118858004542
 11
59.7714980589415
 21
205.1118858048004
 72
     1
 10
59.7714980589415
 20
205.1118858048004
 11
56.77149803286446
 21
205.6118858091465
 97
        0
 75
     0
 76
     1
 98
        0
  0
HATCH
  5
CB
330
C9
100
AcDbEntity
  8
Default
  6
Continuous
 62
     7
100
AcDbHatch
 10
0.0
 20
0.0
 30
0.0
210
0.0
220
0.0
230
1.0
  2
SOLID
 70
     1
 71
     0
 91
        1
 92
        1
 93
        3
 72
     1
 10
70.87149808501853
 20
205.6118858091465
 11
67.8714980589415
 21
205.1118858048004
 72
     1
 10
67.8714980589415
 20
205.1118858048004
 11
70.87149808501853
 21
204.6118858004542
 72
     1
 10
70.87149808501853
 20
204.6118858004542
 11
70.87149808501853
 21
205.6118858091465
 97
        0
 75
     0
 76
     1
 98
        0
  0
LINE
  5
CC
330
C9
100
AcDbEntity
  8
Default
  6
Continuous
 62
     7
100
AcDbLine
 10
59.7714980589
 20
198.0351469369
 30
0.0
 11
59.7714980589
 21
206.6118858178
 31
0.0
  0
LINE
  5
CD
330
C9
100
AcDbEntity
  8
Default
  6
Continuous
 62
     7
100
AcDbLine
 10
67.8714980589
 20
198.0351469369
 30
0.0
 11
67.8714980589
 21
206.6118858178
 31
0.0
  0
LINE
  5
CE
330
C9
100
AcDbEntity
  8
Default
  6
Continuous
 62
     7
100
AcDbLine
 10
53.7714980068
 20
205.1118858048
 30
0.0
 11
83.8988249647
 21
205.1118858048
 31
0.0
  0
TEXT
  5
CF
330
C9
100
AcDbEntity
  8
Default
  6
Continuous
 62
     7
100
AcDbText
 10
80.9397337712
 20
205.8618858048
 30
0.0
 40
3.0
  1
8
  7
SEACAD_seiso_ttf
 11
80.9397337712
 21
208.8618858048
 31
0.0
100
AcDbText
 73
     3
  0
TEXT
  5
D0
330
C9
100
AcDbEntity
  8
Default
  6
Continuous
 62
     7
100
AcDbText
 10
77.233620234
 20
205.8618858048
 30
0.0
 40
3.0
  1
q
  7
SEACAD_semeci1_ttf
 11
77.233620234
 21
208.8618858048
 31
0.0
100
AcDbText
 73
     3
  0
ENDBLK
  5
D2
330
C9
100
AcDbEntity
  8
0
100
AcDbBlockEnd
  0
ENDSEC
  0
SECTION
  2
ENTITIES
  0
INSERT
  5
5F
330
1F
100
AcDbEntity
  8
Default
100
AcDbBlockReference
  2
SEANNOT_GROUP
 10
0.0
 20
0.0
 30
0.0
  0
INSERT
  5
65
330
1F
100
AcDbEntity
  8
Default
100
AcDbBlockReference
  2
SE
 10
0.0
 20
0.0
 30
0.0
  0
DIMENSION
  5
93
330
1F
100
AcDbEntity
  8
Default
  6
Continuous
 62
     7
100
AcDbDimension
  2
DMBLK7
 10
39.778215863
 20
189.5351469369
 30
0.0
 11
39.778215863
 21
194.0351471306
 31
0.0
 70
   160
  1
\A1;<>
 71
     5
 42
-1.0
  3
DIN
100
AcDbAlignedDimension
 13
56.3214980589
 23
198.5351469369
 33
0.0
 14
53.3214980589
 24
189.5351469369
 34
0.0
 50
90.0
100
AcDbRotatedDimension
  0
DIMENSION
  5
9D
330
1F
100
AcDbEntity
  8
Default
  6
Continuous
 62
     7
100
AcDbDimension
  2
DMBLK8
 10
39.7782154234
 20
139.5356358894
 30
0.0
 11
39.7782154234
 21
164.5353905709
 31
0.0
 70
   160
  1
\A1;<>
 71
     5
 42
-1.0
  3
DIN
100
AcDbAlignedDimension
 13
53.3214980589
 23
189.5351469369
 33
0.0
 14
103.9876462924
 24
139.5356358894
 34
0.0
 50
90.0
100
AcDbRotatedDimension
  0
DIMENSION
  5
A7
330
1F
100
AcDbEntity
  8
Default
  6
Continuous
 62
     7
100
AcDbDimension
  2
DMBLK9
 10
163.317119838
 20
129.8708006592
 30
0.0
 11
108.3193072902
 21
129.8708006592
 31
0.0
 70
   160
  1
\A1;<>
 71
     5
 42
-1.0
  3
DIN
100
AcDbAlignedDimension
 13
53.3214980589
 23
189.5351469369
 33
0.0
 14
163.317119838
 24
149.9719325694
 34
0.0
100
AcDbRotatedDimension
  0
DIMENSION
  5
B1
330
1F
100
AcDbEntity
  8
Default
  6
Continuous
 62
     7
100
AcDbDimension
  2
DMBLK10
 10
53.3214980589
 20
223.2877559812
 30
0.0
 11
63.8214979174
 21
223.2877559812
 31
0.0
 70
   161
  1
\A1;%%C <>
 71
     5
 42
-1.0
  3
DIN
100
AcDbAlignedDimension
 13
53.3214980589
 23
189.5351469369
 33
0.0
 14
74.3214980589
 24
189.5351469369
 34
0.0
  0
DIMENSION
  5
BD
330
1F
100
AcDbEntity
  8
Default
  6
Continuous
 62
     7
100
AcDbDimension
  2
DMBLK11
 10
55.8214980589
 20
214.3148592563
 30
0.0
 11
63.8214984389
 21
214.3148592563
 31
0.0
 70
   161
  1
\A1;%%C <>
 71
     5
 42
-1.0
  3
DIN
100
AcDbAlignedDimension
 13
55.8214980589
 23
198.0351469369
 33
0.0
 14
71.8214980589
 24
198.0351469369
 34
0.0
  0
DIMENSION
  5
C8
330
1F
100
AcDbEntity
  8
Default
  6
Continuous
 62
     7
100
AcDbDimension
  2
DMBLK12
 10
59.7714980589
 20
205.1118858048
 30
0.0
 11
76.183620234
 21
205.1118858048
 31
0.0
 70
   161
  1
\A1;{\Fsemeca1.ttf;q} <>
 71
     5
 42
-1.0
  3
DIN
100
AcDbAlignedDimension
 13
59.7714980589
 23
198.0351469369
 33
0.0
 14
67.8714980589
 24
198.0351469369
 34
0.0
1001
ACAD
1000
DSTYLE
1002
{
1070
   271
1070
     0
1070
   272
1070
     0
1070
     0
1002
}
  0
ENDSEC
  0
SECTION
  2
OBJECTS
  0
DICTIONARY
  5
C
330
0
100
AcDbDictionary
281
     1
  3
ACAD_GROUP
350
D
  3
ACAD_LAYOUT
350
1A
  3
ACAD_MLEADERSTYLE
350
D6
  3
ACAD_MLINESTYLE
350
17
  3
ACAD_PLOTSETTINGS
350
19
  3
ACAD_PLOTSTYLENAME
350
E
  3
ACAD_SCALELIST
350
3B
  3
ACAD_TABLESTYLE
350
D5
  3
ACAD_VISUALSTYLE
350
2A
  3
AcDbVariableDictionary
350
D3
  0
DICTIONARY
  5
D
102
{ACAD_REACTORS
330
C
102
}
330
C
100
AcDbDictionary
281
     1
  0
DICTIONARY
  5
1A
102
{ACAD_REACTORS
330
C
102
}
330
C
100
AcDbDictionary
281
     1
  3
Layout1
350
1E
  3
Model
350
22
  0
DICTIONARY
  5
D6
102
{ACAD_REACTORS
330
C
102
}
330
C
100
AcDbDictionary
281
     1
  0
DICTIONARY
  5
17
102
{ACAD_REACTORS
330
C
102
}
330
C
100
AcDbDictionary
281
     1
  3
Standard
350
18
  0
DICTIONARY
  5
19
102
{ACAD_REACTORS
330
C
102
}
330
C
100
AcDbDictionary
281
     1
  0
ACDBDICTIONARYWDFLT
  5
E
102
{ACAD_REACTORS
330
C
102
}
330
C
100
AcDbDictionary
281
     1
  3
Normal
350
F
100
AcDbDictionaryWithDefault
340
F
  0
DICTIONARY
  5
3B
102
{ACAD_REACTORS
330
C
102
}
330
C
100
AcDbDictionary
281
     1
  3
A0
350
3C
  3
A1
350
3D
  3
A2
350
3E
  3
A3
350
3F
  3
A4
350
40
  3
A5
350
41
  3
A6
350
42
  3
A7
350
43
  3
A8
350
44
  3
A9
350
45
  3
B0
350
46
  3
B1
350
47
  3
B2
350
48
  3
B3
350
49
  3
B4
350
4A
  3
B5
350
4B
  3
B6
350
4C
  3
B7
350
4D
  3
B8
350
4E
  3
B9
350
4F
  3
C0
350
50
  3
C1
350
51
  3
C2
350
52
  3
C3
350
53
  3
C4
350
54
  3
C5
350
55
  3
C6
350
56
  3
C7
350
57
  3
C8
350
58
  3
C9
350
59
  3
D0
350
5A
  3
D1
350
5B
  3
D2
350
5C
  0
DICTIONARY
  5
D5
102
{ACAD_REACTORS
330
C
102
}
330
C
100
AcDbDictionary
281
     1
  0
DICTIONARY
  5
2A
102
{ACAD_REACTORS
330
C
102
}
330
C
100
AcDbDictionary
281
     1
  3
2dWireframe
350
2F
  3
3D Hidden
350
31
  3
3dWireframe
350
30
  3
Basic
350
32
  3
Brighten
350
36
  3
ColorChange
350
3A
  3
Conceptual
350
34
  3
Dim
350
35
  3
Facepattern
350
39
  3
Flat
350
2B
  3
FlatWithEdges
350
2C
  3
Gouraud
350
2D
  3
GouraudWithEdges
350
2E
  3
Linepattern
350
38
  3
Realistic
350
33
  3
Thicken
350
37
  0
DICTIONARY
  5
D3
102
{ACAD_REACTORS
330
C
102
}
330
C
100
AcDbDictionary
281
     1
  3
CANNOSCALE
350
D4
  3
PSOLHEIGHT
350
D8
  3
PSOLWIDTH
350
D7
  0
LAYOUT
  5
1E
102
{ACAD_REACTORS
330
1A
102
}
330
1A
100
AcDbPlotSettings
  1

  2
none_device
  4

  6

 40
0.0
 41
0.0
 42
0.0
 43
0.0
 44
0.0
 45
0.0
 46
0.0
 47
0.0
 48
0.0
 49
0.0
140
0.0
141
0.0
142
1.0
143
1.0
 70
   688
 72
     0
 73
     0
 74
     5
  7

 75
    16
147
1.0
148
0.0
149
0.0
100
AcDbLayout
  1
Layout1
 70
     1
 71
     1
 10
0.0
 20
0.0
 11
210.0
 21
297.0
 12
0.0
 22
0.0
 32
0.0
 14
0.0
 24
0.0
 34
0.0
 15
210.0
 25
297.0
 35
0.0
146
0.0
 13
0.0
 23
0.0
 33
0.0
 16
1.0
 26
0.0
 36
0.0
 17
0.0
 27
1.0
 37
0.0
 76
     0
330
1B
  0
LAYOUT
  5
22
102
{ACAD_REACTORS
330
1A
102
}
330
1A
100
AcDbPlotSettings
  1

  2
none_device
  4

  6

 40
0.0
 41
0.0
 42
0.0
 43
0.0
 44
0.0
 45
0.0
 46
0.0
 47
0.0
 48
0.0
 49
0.0
140
0.0
141
0.0
142
1.0
143
1.0
 70
  1712
 72
     0
 73
     0
 74
     0
  7

 75
     0
147
1.0
148
0.0
149
0.0
100
AcDbLayout
  1
Model
 70
     1
 71
     0
 10
0.0
 20
0.0
 11
210.0
 21
297.0
 12
0.0
 22
0.0
 32
0.0
 14
0.0
 24
0.0
 34
0.0
 15
210.0
 25
297.0
 35
0.0
146
0.0
 13
0.0
 23
0.0
 33
0.0
 16
1.0
 26
0.0
 36
0.0
 17
0.0
 27
1.0
 37
0.0
 76
     0
330
1F
331
29
  0
MLINESTYLE
  5
18
102
{ACAD_REACTORS
330
17
102
}
330
17
100
AcDbMlineStyle
  2
Standard
 70
     0
  3

 62
   256
 51
90.0
 52
90.0
 71
     2
 49
0.5
 62
   256
  6
BYLAYER
 49
-0.5
 62
   256
  6
BYLAYER
  0
ACDBPLACEHOLDER
  5
F
102
{ACAD_REACTORS
330
E
102
}
330
E
  0
SCALE
  5
3C
102
{ACAD_REACTORS
330
3B
102
}
330
3B
100
AcDbScale
 70
     0
300
1:1
140
1.0
141
1.0
290
     1
  0
SCALE
  5
3D
102
{ACAD_REACTORS
330
3B
102
}
330
3B
100
AcDbScale
 70
     0
300
1:2
140
1.0
141
2.0
290
     0
  0
SCALE
  5
3E
102
{ACAD_REACTORS
330
3B
102
}
330
3B
100
AcDbScale
 70
     0
300
1:4
140
1.0
141
4.0
290
     0
  0
SCALE
  5
3F
102
{ACAD_REACTORS
330
3B
102
}
330
3B
100
AcDbScale
 70
     0
300
1:5
140
1.0
141
5.0
290
     0
  0
SCALE
  5
40
102
{ACAD_REACTORS
330
3B
102
}
330
3B
100
AcDbScale
 70
     0
300
1:8
140
1.0
141
8.0
290
     0
  0
SCALE
  5
41
102
{ACAD_REACTORS
330
3B
102
}
330
3B
100
AcDbScale
 70
     0
300
1:10
140
1.0
141
10.0
290
     0
  0
SCALE
  5
42
102
{ACAD_REACTORS
330
3B
102
}
330
3B
100
AcDbScale
 70
     0
300
1:16
140
1.0
141
16.0
290
     0
  0
SCALE
  5
43
102
{ACAD_REACTORS
330
3B
102
}
330
3B
100
AcDbScale
 70
     0
300
1:20
140
1.0
141
20.0
290
     0
  0
SCALE
  5
44
102
{ACAD_REACTORS
330
3B
102
}
330
3B
100
AcDbScale
 70
     0
300
1:30
140
1.0
141
30.0
290
     0
  0
SCALE
  5
45
102
{ACAD_REACTORS
330
3B
102
}
330
3B
100
AcDbScale
 70
     0
300
1:40
140
1.0
141
40.0
290
     0
  0
SCALE
  5
46
102
{ACAD_REACTORS
330
3B
102
}
330
3B
100
AcDbScale
 70
     0
300
1:50
140
1.0
141
50.0
290
     0
  0
SCALE
  5
47
102
{ACAD_REACTORS
330
3B
102
}
330
3B
100
AcDbScale
 70
     0
300
1:100
140
1.0
141
100.0
290
     0
  0
SCALE
  5
48
102
{ACAD_REACTORS
330
3B
102
}
330
3B
100
AcDbScale
 70
     0
300
2:1
140
2.0
141
1.0
290
     0
  0
SCALE
  5
49
102
{ACAD_REACTORS
330
3B
102
}
330
3B
100
AcDbScale
 70
     0
300
4:1
140
4.0
141
1.0
290
     0
  0
SCALE
  5
4A
102
{ACAD_REACTORS
330
3B
102
}
330
3B
100
AcDbScale
 70
     0
300
8:1
140
8.0
141
1.0
290
     0
  0
SCALE
  5
4B
102
{ACAD_REACTORS
330
3B
102
}
330
3B
100
AcDbScale
 70
     0
300
10:1
140
10.0
141
1.0
290
     0
  0
SCALE
  5
4C
102
{ACAD_REACTORS
330
3B
102
}
330
3B
100
AcDbScale
 70
     0
300
100:1
140
100.0
141
1.0
290
     0
  0
SCALE
  5
4D
102
{ACAD_REACTORS
330
3B
102
}
330
3B
100
AcDbScale
 70
     0
300
1/128" = 1'-0"
140
0.0078125
141
12.0
290
     0
  0
SCALE
  5
4E
102
{ACAD_REACTORS
330
3B
102
}
330
3B
100
AcDbScale
 70
     0
300
1/64" = 1'-0"
140
0.015625
141
12.0
290
     0
  0
SCALE
  5
4F
102
{ACAD_REACTORS
330
3B
102
}
330
3B
100
AcDbScale
 70
     0
300
1/32" = 1'-0"
140
0.03125
141
12.0
290
     0
  0
SCALE
  5
50
102
{ACAD_REACTORS
330
3B
102
}
330
3B
100
AcDbScale
 70
     0
300
1/16" = 1'-0"
140
0.0625
141
12.0
290
     0
  0
SCALE
  5
51
102
{ACAD_REACTORS
330
3B
102
}
330
3B
100
AcDbScale
 70
     0
300
3/32" = 1'-0"
140
0.09375
141
12.0
290
     0
  0
SCALE
  5
52
102
{ACAD_REACTORS
330
3B
102
}
330
3B
100
AcDbScale
 70
     0
300
1/8" = 1'-0"
140
0.125
141
12.0
290
     0
  0
SCALE
  5
53
102
{ACAD_REACTORS
330
3B
102
}
330
3B
100
AcDbScale
 70
     0
300
3/16" = 1'-0"
140
0.1875
141
12.0
290
     0
  0
SCALE
  5
54
102
{ACAD_REACTORS
330
3B
102
}
330
3B
100
AcDbScale
 70
     0
300
1/4" = 1'-0"
140
0.25
141
12.0
290
     0
  0
SCALE
  5
55
102
{ACAD_REACTORS
330
3B
102
}
330
3B
100
AcDbScale
 70
     0
300
3/8" = 1'-0"
140
0.375
141
12.0
290
     0
  0
SCALE
  5
56
102
{ACAD_REACTORS
330
3B
102
}
330
3B
100
AcDbScale
 70
     0
300
1/2" = 1'-0"
140
0.5
141
12.0
290
     0
  0
SCALE
  5
57
102
{ACAD_REACTORS
330
3B
102
}
330
3B
100
AcDbScale
 70
     0
300
3/4" = 1'-0"
140
0.75
141
12.0
290
     0
  0
SCALE
  5
58
102
{ACAD_REACTORS
330
3B
102
}
330
3B
100
AcDbScale
 70
     0
300
1" = 1'-0"
140
1.0
141
12.0
290
     0
  0
SCALE
  5
59
102
{ACAD_REACTORS
330
3B
102
}
330
3B
100
AcDbScale
 70
     0
300
1-1/2" = 1'-0"
140
1.5
141
12.0
290
     0
  0
SCALE
  5
5A
102
{ACAD_REACTORS
330
3B
102
}
330
3B
100
AcDbScale
 70
     0
300
3" = 1'-0"
140
3.0
141
12.0
290
     0
  0
SCALE
  5
5B
102
{ACAD_REACTORS
330
3B
102
}
330
3B
100
AcDbScale
 70
     0
300
6" = 1'-0"
140
6.0
141
12.0
290
     0
  0
SCALE
  5
5C
102
{ACAD_REACTORS
330
3B
102
}
330
3B
100
AcDbScale
 70
     0
300
1'-0" = 1'-0"
140
12.0
141
12.0
290
     0
  0
VISUALSTYLE
  5
2F
102
{ACAD_REACTORS
330
2A
102
}
330
2A
100
AcDbVisualStyle
  2
2dWireframe
 70
     4
 71
     0
 72
     2
 73
     0
 90
        0
 40
-0.6
 41
-30.0
 62
     5
 63
     7
 74
     1
 91
        4
 64
     7
 65
   257
 75
     1
175
     1
 42
1.0
 92
        0
 66
   257
 43
1.0
 76
     1
 77
     6
 78
     2
 67
     7
 79
     5
170
     0
171
     0
290
     0
174
     0
 93
        1
 44
0.0
173
     0
291
     0
 45
0.0
1001
ACAD
1000
AcDbSavedByObjectVersion
1070
     0
  0
VISUALSTYLE
  5
31
102
{ACAD_REACTORS
330
2A
102
}
330
2A
100
AcDbVisualStyle
  2
3D Hidden
 70
     6
 71
     1
 72
     2
 73
     2
 90
        0
 40
-0.6
 41
-30.0
 62
     5
 63
     7
 74
     2
 91
        2
 64
     7
 65
   257
 75
     2
175
     1
 42
40.0
 92
        0
 66
   257
 43
1.0
 76
     1
 77
     6
 78
     2
 67
     7
 79
     3
170
     0
171
     0
290
     0
174
     0
 93
        1
 44
0.0
173
     0
291
     0
 45
0.0
1001
ACAD
1000
AcDbSavedByObjectVersion
1070
     0
  0
VISUALSTYLE
  5
30
102
{ACAD_REACTORS
330
2A
102
}
330
2A
100
AcDbVisualStyle
  2
3dWireframe
 70
     5
 71
     0
 72
     2
 73
     0
 90
        0
 40
-0.6
 41
-30.0
 62
     5
 63
     7
 74
     1
 91
        4
 64
     7
 65
   257
 75
     1
175
     1
 42
1.0
 92
        0
 66
   257
 43
1.0
 76
     1
 77
     6
 78
     2
 67
     7
 79
     5
170
     0
171
     0
290
     0
174
     0
 93
        1
 44
0.0
173
     0
291
     0
 45
0.0
1001
ACAD
1000
AcDbSavedByObjectVersion
1070
     0
  0
VISUALSTYLE
  5
32
102
{ACAD_REACTORS
330
2A
102
}
330
2A
100
AcDbVisualStyle
  2
Basic
 70
     7
 71
     1
 72
     0
 73
     1
 90
        0
 40
-0.6
 41
-30.0
 62
     5
 63
     7
 74
     0
 91
        4
 64
     7
 65
   257
 75
     1
175
     1
 42
1.0
 92
        8
 66
     7
 43
1.0
 76
     1
 77
     6
 78
     2
 67
     7
 79
     5
170
     0
171
     0
290
     0
174
     0
 93
        1
 44
0.0
173
     0
291
     1
 45
0.0
1001
ACAD
1000
AcDbSavedByObjectVersion
1070
     0
  0
VISUALSTYLE
  5
36
102
{ACAD_REACTORS
330
2A
102
}
330
2A
100
AcDbVisualStyle
  2
Brighten
 70
    12
 71
     2
 72
     2
 73
     0
 90
        0
 40
-0.6
 41
-30.0
 62
     5
 63
     7
 74
     1
 91
        4
 64
     7
 65
   257
 75
     1
175
     1
 42
1.0
 92
        8
 66
     7
 43
1.0
 76
     1
 77
     6
 78
     2
 67
     7
 79
     5
170
     0
171
     0
290
     0
174
     0
 93
        1
 44
50.0
173
     0
291
     1
 45
0.0
1001
ACAD
1000
AcDbSavedByObjectVersion
1070
     0
  0
VISUALSTYLE
  5
3A
102
{ACAD_REACTORS
330
2A
102
}
330
2A
100
AcDbVisualStyle
  2
ColorChange
 70
    16
 71
     2
 72
     2
 73
     3
 90
        0
 40
-0.6
 41
-30.0
 62
     5
 63
     8
 74
     1
 91
        4
 64
     7
 65
   257
 75
     1
175
     1
 42
1.0
 92
        8
 66
     8
 43
1.0
 76
     1
 77
     6
 78
     2
 67
     7
 79
     5
170
     0
171
     0
290
     0
174
     0
 93
        1
 44
0.0
173
     0
291
     1
 45
0.0
1001
ACAD
1000
AcDbSavedByObjectVersion
1070
     0
  0
VISUALSTYLE
  5
34
102
{ACAD_REACTORS
330
2A
102
}
330
2A
100
AcDbVisualStyle
  2
Conceptual
 70
     9
 71
     3
 72
     2
 73
     0
 90
        0
 40
-0.6
 41
-30.0
 62
     5
 63
     7
 74
     2
 91
        2
 64
     7
 65
   257
 75
     1
175
     1
 42
40.0
 92
        8
 66
     7
 43
1.0
 76
     1
 77
     6
 78
     2
 67
     7
 79
     3
170
     0
171
     0
290
     0
174
     0
 93
        1
 44
0.0
173
     0
291
     0
 45
0.0
1001
ACAD
1000
AcDbSavedByObjectVersion
1070
     0
  0
VISUALSTYLE
  5
35
102
{ACAD_REACTORS
330
2A
102
}
330
2A
100
AcDbVisualStyle
  2
Dim
 70
    11
 71
     2
 72
     2
 73
     0
 90
        0
 40
-0.6
 41
-30.0
 62
     5
 63
     7
 74
     1
 91
        4
 64
     7
 65
   257
 75
     1
175
     1
 42
1.0
 92
        8
 66
     7
 43
1.0
 76
     1
 77
     6
 78
     2
 67
     7
 79
     5
170
     0
171
     0
290
     0
174
     0
 93
        1
 44
-50.0
173
     0
291
     1
 45
0.0
1001
ACAD
1000
AcDbSavedByObjectVersion
1070
     0
  0
VISUALSTYLE
  5
39
102
{ACAD_REACTORS
330
2A
102
}
330
2A
100
AcDbVisualStyle
  2
Facepattern
 70
    15
 71
     2
 72
     2
 73
     0
 90
        0
 40
-0.6
 41
-30.0
 62
     5
 63
     7
 74
     1
 91
        4
 64
     7
 65
   257
 75
     1
175
     1
 42
1.0
 92
        8
 66
     7
 43
1.0
 76
     1
 77
     6
 78
     2
 67
     7
 79
     5
170
     0
171
     0
290
     0
174
     0
 93
        1
 44
0.0
173
     0
291
     1
 45
0.0
1001
ACAD
1000
AcDbSavedByObjectVersion
1070
     0
  0
VISUALSTYLE
  5
2B
102
{ACAD_REACTORS
330
2A
102
}
330
2A
100
AcDbVisualStyle
  2
Flat
 70
     0
 71
     2
 72
     1
 73
     1
 90
        2
 40
-0.6
 41
30.0
 62
     5
 63
     7
 74
     0
 91
        4
 64
     7
 65
   257
 75
     1
175
     1
 42
1.0
 92
        8
 66
     7
 43
1.0
 76
     1
 77
     6
 78
     2
 67
     7
 79
     5
170
     0
171
     0
290
     0
174
     0
 93
       13
 44
0.0
173
     0
291
     1
 45
0.0
1001
ACAD
1000
AcDbSavedByObjectVersion
1070
     0
  0
VISUALSTYLE
  5
2C
102
{ACAD_REACTORS
330
2A
102
}
330
2A
100
AcDbVisualStyle
  2
FlatWithEdges
 70
     1
 71
     2
 72
     1
 73
     1
 90
        2
 40
-0.6
 41
30.0
 62
     5
 63
     7
 74
     1
 91
        4
 64
     7
 65
   257
 75
     1
175
     1
 42
1.0
 92
        0
 66
   257
 43
1.0
 76
     1
 77
     6
 78
     2
 67
     7
 79
     5
170
     0
171
     0
290
     0
174
     0
 93
       13
 44
0.0
173
     0
291
     1
 45
0.0
1001
ACAD
1000
AcDbSavedByObjectVersion
1070
     0
  0
VISUALSTYLE
  5
2D
102
{ACAD_REACTORS
330
2A
102
}
330
2A
100
AcDbVisualStyle
  2
Gouraud
 70
     2
 71
     2
 72
     2
 73
     1
 90
        2
 40
-0.6
 41
30.0
 62
     5
 63
     7
 74
     0
 91
        4
 64
     7
 65
   257
 75
     1
175
     1
 42
1.0
 92
        0
 66
     7
 43
1.0
 76
     1
 77
     6
 78
     2
 67
     7
 79
     5
170
     0
171
     0
290
     0
174
     0
 93
       13
 44
0.0
173
     0
291
     1
 45
0.0
1001
ACAD
1000
AcDbSavedByObjectVersion
1070
     0
  0
VISUALSTYLE
  5
2E
102
{ACAD_REACTORS
330
2A
102
}
330
2A
100
AcDbVisualStyle
  2
GouraudWithEdges
 70
     3
 71
     2
 72
     2
 73
     1
 90
        2
 40
-0.6
 41
30.0
 62
     5
 63
     7
 74
     1
 91
        4
 64
     7
 65
   257
 75
     1
175
     1
 42
1.0
 92
        0
 66
   257
 43
1.0
 76
     1
 77
     6
 78
     2
 67
     7
 79
     5
170
     0
171
     0
290
     0
174
     0
 93
       13
 44
0.0
173
     0
291
     1
 45
0.0
1001
ACAD
1000
AcDbSavedByObjectVersion
1070
     0
  0
VISUALSTYLE
  5
38
102
{ACAD_REACTORS
330
2A
102
}
330
2A
100
AcDbVisualStyle
  2
Linepattern
 70
    14
 71
     2
 72
     2
 73
     0
 90
        0
 40
-0.6
 41
-30.0
 62
     5
 63
     7
 74
     1
 91
        4
 64
     7
 65
   257
 75
     7
175
     7
 42
1.0
 92
        8
 66
     7
 43
1.0
 76
     1
 77
     6
 78
     2
 67
     7
 79
     5
170
     0
171
     0
290
     0
174
     0
 93
        1
 44
0.0
173
     0
291
     1
 45
0.0
1001
ACAD
1000
AcDbSavedByObjectVersion
1070
     0
  0
VISUALSTYLE
  5
33
102
{ACAD_REACTORS
330
2A
102
}
330
2A
100
AcDbVisualStyle
  2
Realistic
 70
     8
 71
     2
 72
     2
 73
     0
 90
        0
 40
-0.6
 41
-30.0
 62
     5
 63
     7
 74
     1
 91
        0
 64
     7
 65
   257
 75
     1
175
     1
 42
1.0
 92
        8
 66
     8
 43
1.0
 76
     1
 77
     6
 78
     2
 67
     7
 79
     5
170
     0
171
     0
290
     0
174
     0
 93
       13
 44
0.0
173
     0
291
     0
 45
0.0
1001
ACAD
1000
AcDbSavedByObjectVersion
1070
     0
  0
VISUALSTYLE
  5
37
102
{ACAD_REACTORS
330
2A
102
}
330
2A
100
AcDbVisualStyle
  2
Thicken
 70
    13
 71
     2
 72
     2
 73
     0
 90
        0
 40
-0.6
 41
-30.0
 62
     5
 63
     7
 74
     1
 91
        4
 64
     7
 65
   257
 75
     1
175
     1
 42
1.0
 92
       12
 66
     7
 43
1.0
 76
     1
 77
     6
 78
     2
 67
     7
 79
     5
170
     0
171
     0
290
     0
174
     0
 93
        1
 44
0.0
173
     0
291
     1
 45
0.0
1001
ACAD
1000
AcDbSavedByObjectVersion
1070
     0
  0
DICTIONARYVAR
  5
D4
102
{ACAD_REACTORS
330
D3
102
}
330
D3
100
DictionaryVariables
280
     0
  1
1:1
  0
DICTIONARYVAR
  5
D8
102
{ACAD_REACTORS
330
D3
102
}
330
D3
100
DictionaryVariables
280
     0
  1
80.000000
  0
DICTIONARYVAR
  5
D7
102
{ACAD_REACTORS
330
D3
102
}
330
D3
100
DictionaryVariables
280
     0
  1
5.000000
  0
ENDSEC
  0
EOF
