  0
SECTION
  2
HEADER
  9
$ACADVER
  1
AC1015
  9
$ACADMAINTVER
 70
     6
  9
$DWGCODEPAGE
  3
ANSI_1252
  9
$INSBASE
 10
0.0
 20
0.0
 30
0.0
  9
$EXTMIN
 10
0.0
 20
0.0
 30
0.0
  9
$EXTMAX
 10
210.0
 20
297.0
 30
0.0
  9
$LIMMIN
 10
0.0
 20
0.0
  9
$LIMMAX
 10
210.0
 20
297.0
  9
$ORTHOMODE
 70
     0
  9
$REGENMODE
 70
     1
  9
$FILLMODE
 70
     1
  9
$QTEXTMODE
 70
     0
  9
$MIRRTEXT
 70
     1
  9
$LTSCALE
 40
1.0
  9
$ATTMODE
 70
     1
  9
$TEXTSIZE
 40
2.5
  9
$TRACEWID
 40
1.0
  9
$TEXTSTYLE
  7
Standard
  9
$CLAYER
  8
0
  9
$CELTYPE
  6
ByLayer
  9
$CECOLOR
 62
   256
  9
$CELTSCALE
 40
1.0
  9
$DISPSILH
 70
     0
  9
$DIMSCALE
 40
1.0
  9
$DIMASZ
 40
2.5
  9
$DIMEXO
 40
0.625
  9
$DIMDLI
 40
3.75
  9
$DIMRND
 40
0.0
  9
$DIMDLE
 40
0.0
  9
$DIMEXE
 40
1.25
  9
$DIMTP
 40
0.0
  9
$DIMTM
 40
0.0
  9
$DIMTXT
 40
2.5
  9
$DIMCEN
 40
2.5
  9
$DIMTSZ
 40
0.0
  9
$DIMTOL
 70
     0
  9
$DIMLIM
 70
     0
  9
$DIMTIH
 70
     0
  9
$DIMTOH
 70
     0
  9
$DIMSE1
 70
     0
  9
$DIMSE2
 70
     0
  9
$DIMTAD
 70
     1
  9
$DIMZIN
 70
     8
  9
$DIMBLK
  1

  9
$DIMASO
 70
     1
  9
$DIMSHO
 70
     1
  9
$DIMPOST
  1

  9
$DIMAPOST
  1

  9
$DIMALT
 70
     0
  9
$DIMALTD
 70
     3
  9
$DIMALTF
 40
0.0393700787
  9
$DIMLFAC
 40
1.0
  9
$DIMTOFL
 70
     1
  9
$DIMTVP
 40
0.0
  9
$DIMTIX
 70
     0
  9
$DIMSOXD
 70
     0
  9
$DIMSAH
 70
     0
  9
$DIMBLK1
  1

  9
$DIMBLK2
  1

  9
$DIMSTYLE
  2
ISO-25
  9
$DIMCLRD
 70
     0
  9
$DIMCLRE
 70
     0
  9
$DIMCLRT
 70
     0
  9
$DIMTFAC
 40
1.0
  9
$DIMGAP
 40
0.625
  9
$DIMJUST
 70
     0
  9
$DIMSD1
 70
     0
  9
$DIMSD2
 70
     0
  9
$DIMTOLJ
 70
     0
  9
$DIMTZIN
 70
     8
  9
$DIMALTZ
 70
     0
  9
$DIMALTTZ
 70
     0
  9
$DIMUPT
 70
     0
  9
$DIMDEC
 70
     2
  9
$DIMTDEC
 70
     2
  9
$DIMALTU
 70
     2
  9
$DIMALTTD
 70
     3
  9
$DIMTXSTY
  7
Standard
  9
$DIMAUNIT
 70
     0
  9
$DIMADEC
 70
     0
  9
$DIMALTRND
 40
0.0
  9
$DIMAZIN
 70
     0
  9
$DIMDSEP
 70
    44
  9
$DIMATFIT
 70
     3
  9
$DIMFRAC
 70
     0
  9
$DIMLDRBLK
  1

  9
$DIMLUNIT
 70
     2
  9
$DIMLWD
 70
    -2
  9
$DIMLWE
 70
    -2
  9
$DIMTMOVE
 70
     0
  9
$LUNITS
 70
     2
  9
$LUPREC
 70
     4
  9
$SKETCHINC
 40
1.0
  9
$FILLETRAD
 40
10.0
  9
$AUNITS
 70
     0
  9
$AUPREC
 70
     0
  9
$MENU
  1
.
  9
$ELEVATION
 40
0.0
  9
$PELEVATION
 40
0.0
  9
$THICKNESS
 40
0.0
  9
$LIMCHECK
 70
     0
  9
$CHAMFERA
 40
10.0
  9
$CHAMFERB
 40
10.0
  9
$CHAMFERC
 40
20.0
  9
$CHAMFERD
 40
0.0
  9
$SKPOLY
 70
     0
  9
$TDCREATE
 40
2455327.47911588
  9
$TDUCREATE
 40
2455327.395782546
  9
$TDUPDATE
 40
2455327.479115891
  9
$TDUUPDATE
 40
2455327.395782558
  9
$TDINDWG
 40
0.0000000116
  9
$TDUSRTIMER
 40
0.0000000116
  9
$USRTIMER
 70
     1
  9
$ANGBASE
 50
0.0
  9
$ANGDIR
 70
     0
  9
$PDMODE
 70
     0
  9
$PDSIZE
 40
0.0
  9
$PLINEWID
 40
0.0
  9
$SPLFRAME
 70
     0
  9
$SPLINETYPE
 70
     6
  9
$SPLINESEGS
 70
     8
  9
$HANDSEED
  5
10E
  9
$SURFTAB1
 70
     6
  9
$SURFTAB2
 70
     6
  9
$SURFTYPE
 70
     6
  9
$SURFU
 70
     6
  9
$SURFV
 70
     6
  9
$UCSBASE
  2

  9
$UCSNAME
  2

  9
$UCSORG
 10
0.0
 20
0.0
 30
0.0
  9
$UCSXDIR
 10
1.0
 20
0.0
 30
0.0
  9
$UCSYDIR
 10
0.0
 20
1.0
 30
0.0
  9
$UCSORTHOREF
  2

  9
$UCSORTHOVIEW
 70
     0
  9
$UCSORGTOP
 10
0.0
 20
0.0
 30
0.0
  9
$UCSORGBOTTOM
 10
0.0
 20
0.0
 30
0.0
  9
$UCSORGLEFT
 10
0.0
 20
0.0
 30
0.0
  9
$UCSORGRIGHT
 10
0.0
 20
0.0
 30
0.0
  9
$UCSORGFRONT
 10
0.0
 20
0.0
 30
0.0
  9
$UCSORGBACK
 10
0.0
 20
0.0
 30
0.0
  9
$PUCSBASE
  2

  9
$PUCSNAME
  2

  9
$PUCSORG
 10
0.0
 20
0.0
 30
0.0
  9
$PUCSXDIR
 10
1.0
 20
0.0
 30
0.0
  9
$PUCSYDIR
 10
0.0
 20
1.0
 30
0.0
  9
$PUCSORTHOREF
  2

  9
$PUCSORTHOVIEW
 70
     0
  9
$PUCSORGTOP
 10
0.0
 20
0.0
 30
0.0
  9
$PUCSORGBOTTOM
 10
0.0
 20
0.0
 30
0.0
  9
$PUCSORGLEFT
 10
0.0
 20
0.0
 30
0.0
  9
$PUCSORGRIGHT
 10
0.0
 20
0.0
 30
0.0
  9
$PUCSORGFRONT
 10
0.0
 20
0.0
 30
0.0
  9
$PUCSORGBACK
 10
0.0
 20
0.0
 30
0.0
  9
$USERI1
 70
     0
  9
$USERI2
 70
     0
  9
$USERI3
 70
     0
  9
$USERI4
 70
     0
  9
$USERI5
 70
     0
  9
$USERR1
 40
0.0
  9
$USERR2
 40
0.0
  9
$USERR3
 40
0.0
  9
$USERR4
 40
0.0
  9
$USERR5
 40
0.0
  9
$WORLDVIEW
 70
     1
  9
$SHADEDGE
 70
     3
  9
$SHADEDIF
 70
    70
  9
$TILEMODE
 70
     1
  9
$MAXACTVP
 70
    64
  9
$PINSBASE
 10
0.0
 20
0.0
 30
0.0
  9
$PLIMCHECK
 70
     0
  9
$PEXTMIN
 10
0.0
 20
0.0
 30
0.0
  9
$PEXTMAX
 10
210.0
 20
297.0
 30
0.0
  9
$PLIMMIN
 10
0.0
 20
0.0
  9
$PLIMMAX
 10
210.0
 20
297.0
  9
$UNITMODE
 70
     0
  9
$VISRETAIN
 70
     1
  9
$PLINEGEN
 70
     0
  9
$PSLTSCALE
 70
     1
  9
$TREEDEPTH
 70
  3020
  9
$CMLSTYLE
  2
Standard
  9
$CMLJUST
 70
     0
  9
$CMLSCALE
 40
20.0
  9
$PROXYGRAPHICS
 70
     1
  9
$MEASUREMENT
 70
     1
  9
$CELWEIGHT
370
    -1
  9
$ENDCAPS
280
     0
  9
$JOINSTYLE
280
     0
  9
$LWDISPLAY
290
     0
  9
$INSUNITS
 70
     4
  9
$HYPERLINKBASE
  1

  9
$STYLESHEET
  1

  9
$XEDIT
290
     1
  9
$CEPSNTYPE
380
     0
  9
$PSTYLEMODE
290
     1
  9
$FINGERPRINTGUID
  2
{AB8F8B61-C27F-4A7E-AD56-A67E89871297}
  9
$VERSIONGUID
  2
{FAEB1C32-E019-11D5-929B-00C0DF256EC4}
  9
$EXTNAMES
290
     1
  9
$PSVPSCALE
 40
0.0
  9
$OLESTARTUP
290
     0
  0
ENDSEC
  0
SECTION
  2
CLASSES
  0
CLASS
  1
ACDBDICTIONARYWDFLT
  2
AcDbDictionaryWithDefault
  3
ObjectDBX Classes
 90
        0
280
     0
281
     0
  0
CLASS
  1
VISUALSTYLE
  2
AcDbVisualStyle
  3
ObjectDBX Classes
 90
     4095
280
     0
281
     0
  0
CLASS
  1
SCALE
  2
AcDbScale
  3
ObjectDBX Classes
 90
     1153
280
     0
281
     0
  0
CLASS
  1
DICTIONARYVAR
  2
AcDbDictionaryVar
  3
ObjectDBX Classes
 90
        0
280
     0
281
     0
  0
CLASS
  1
ACDBPLACEHOLDER
  2
AcDbPlaceHolder
  3
ObjectDBX Classes
 90
        0
280
     0
281
     0
  0
CLASS
  1
LAYOUT
  2
AcDbLayout
  3
ObjectDBX Classes
 90
        0
280
     0
281
     0
  0
ENDSEC
  0
SECTION
  2
TABLES
  0
TABLE
  2
VPORT
  5
8
330
0
100
AcDbSymbolTable
 70
     1
  0
VPORT
  5
29
330
8
100
AcDbSymbolTableRecord
100
AcDbViewportTableRecord
  2
*Active
 70
     0
 10
0.0
 20
0.0
 11
1.0
 21
1.0
 12
344.1869158879
 22
148.5
 13
0.0
 23
0.0
 14
10.0
 24
10.0
 15
10.0
 25
10.0
 16
0.0
 26
0.0
 36
1.0
 17
0.0
 27
0.0
 37
0.0
 40
297.0
 41
1.9729729729
 42
50.0
 43
0.0
 44
0.0
 50
0.0
 51
0.0
 71
     0
 72
   100
 73
     1
 74
     3
 75
     0
 76
     0
 77
     0
 78
     0
281
     0
 65
     1
110
0.0
120
0.0
130
0.0
111
1.0
121
0.0
131
0.0
112
0.0
122
1.0
132
0.0
 79
     0
146
0.0
  0
ENDTAB
  0
TABLE
  2
LTYPE
  5
5
330
0
100
AcDbSymbolTable
 70
     3
  0
LTYPE
  5
14
330
5
100
AcDbSymbolTableRecord
100
AcDbLinetypeTableRecord
  2
ByBlock
 70
     0
  3

 72
    65
 73
     0
 40
0.0
  0
LTYPE
  5
15
330
5
100
AcDbSymbolTableRecord
100
AcDbLinetypeTableRecord
  2
ByLayer
 70
     0
  3

 72
    65
 73
     0
 40
0.0
  0
LTYPE
  5
16
330
5
100
AcDbSymbolTableRecord
100
AcDbLinetypeTableRecord
  2
Continuous
 70
     0
  3
Solid line
 72
    65
 73
     0
 40
0.0
  0
LTYPE
  5
60
330
5
100
AcDbSymbolTableRecord
100
AcDbLinetypeTableRecord
  2
CENTER2
 70
     0
  3
Center (.5x) ___ _ ___ _ ___ _ ___ _ ___ _ ___
 72
    65
 73
     4
 40
28.575
 49
19.05
 74
     4
 75
     0
340
0
 46
0.0
 50
0.0
 44
0.0
 45
0.0
 49
-3.175
 74
     4
 75
     0
340
0
 46
0.0
 50
0.0
 44
0.0
 45
0.0
 49
3.175
 74
     4
 75
     0
340
0
 46
0.0
 50
0.0
 44
0.0
 45
0.0
 49
-3.175
 74
     4
 75
     0
340
0
 46
0.0
 50
0.0
 44
0.0
 45
0.0
  0
LTYPE
  5
81
330
5
100
AcDbSymbolTableRecord
100
AcDbLinetypeTableRecord
  2
HIDDEN2
 70
     0
  3
Hidden (.5x) _ _ _ _ _ _ _ _ _ _ _ _ _ _ _ _ _ 
 72
    65
 73
     2
 40
4.7625
 49
3.175
 74
     4
 75
     0
340
0
 46
0.0
 50
0.0
 44
0.0
 45
0.0
 49
-1.5875
 74
     4
 75
     0
340
0
 46
0.0
 50
0.0
 44
0.0
 45
0.0
  0
ENDTAB
  0
TABLE
  2
LAYER
  5
2
330
0
100
AcDbSymbolTable
 70
     4
  0
LAYER
  5
10
330
2
100
AcDbSymbolTableRecord
100
AcDbLayerTableRecord
  2
0
 70
     0
 62
     7
  6
Continuous
370
    -3
390
F
  0
LAYER
  5
5D
330
2
100
AcDbSymbolTableRecord
100
AcDbLayerTableRecord
  2
Default
 70
     0
 62
     7
  6
Continuous
370
    -3
390
F
  0
LAYER
  5
66
330
2
100
AcDbSymbolTableRecord
100
AcDbLayerTableRecord
  2
DV1_Standard
 70
     0
 62
     7
  6
Continuous
370
    -3
390
F
  0
LAYER
  5
68
330
2
100
AcDbSymbolTableRecord
100
AcDbLayerTableRecord
  2
MEGA_017875
 70
     0
 62
     7
  6
Continuous
370
    -3
390
F
  0
ENDTAB
  0
TABLE
  2
STYLE
  5
3
330
0
100
AcDbSymbolTable
 70
     3
  0
STYLE
  5
11
330
3
100
AcDbSymbolTableRecord
100
AcDbTextStyleTableRecord
  2
Standard
 70
     0
 40
0.0
 41
1.0
 50
0.0
 71
     0
 42
2.5
  3
txt
  4

  0
STYLE
  5
98
330
3
100
AcDbSymbolTableRecord
100
AcDbTextStyleTableRecord
  2
SEACAD_seiso_ttf
 70
     0
 40
0.0
 41
1.0
 50
0.0
 71
     0
 42
0.2
  3
seiso.ttf
  4

  0
STYLE
  5
9B
330
3
100
AcDbSymbolTableRecord
100
AcDbTextStyleTableRecord
  2
SEACAD_semeci1_ttf
 70
     0
 40
0.0
 41
1.0
 50
0.0
 71
     0
 42
0.2
  3
semeci1.ttf
  4

  0
ENDTAB
  0
TABLE
  2
VIEW
  5
6
330
0
100
AcDbSymbolTable
 70
     0
  0
ENDTAB
  0
TABLE
  2
UCS
  5
7
330
0
100
AcDbSymbolTable
 70
     0
  0
ENDTAB
  0
TABLE
  2
APPID
  5
9
330
0
100
AcDbSymbolTable
 70
     1
  0
APPID
  5
12
330
9
100
AcDbSymbolTableRecord
100
AcDbRegAppTableRecord
  2
ACAD
 70
     0
  0
ENDTAB
  0
TABLE
  2
DIMSTYLE
  5
A
330
0
100
AcDbSymbolTable
 70
     3
100
AcDbDimStyleTable
  0
DIMSTYLE
105
27
330
A
100
AcDbSymbolTableRecord
100
AcDbDimStyleTableRecord
  2
ISO-25
 70
     0
 41
2.5
 42
0.625
 43
3.75
 44
1.25
 73
     0
 74
     0
 77
     1
 78
     8
140
2.5
141
2.5
143
0.0393700787
147
0.625
171
     3
172
     1
271
     2
272
     2
274
     3
278
    44
283
     0
284
     8
340
11
  0
DIMSTYLE
105
86
330
A
100
AcDbSymbolTableRecord
100
AcDbDimStyleTableRecord
  2
Standard
 70
     0
340
11
  0
DIMSTYLE
105
99
102
{ACAD_REACTORS
330
9A
330
A6
330
B1
330
D6
330
E0
330
EA
330
F4
330
FE
102
}
330
A
100
AcDbSymbolTableRecord
100
AcDbDimStyleTableRecord
  2
DIN
 70
     0
 41
3.0
 42
0.0
 44
1.5
 73
     0
 74
     0
 77
     1
 78
     8
140
3.0
141
1.5
147
1.5
172
     1
173
     1
271
     2
272
     2
278
    44
284
     8
340
98
343
93
344
93
  0
ENDTAB
  0
TABLE
  2
BLOCK_RECORD
  5
1
330
0
100
AcDbSymbolTable
 70
    15
  0
BLOCK_RECORD
  5
1F
330
1
100
AcDbSymbolTableRecord
100
AcDbBlockTableRecord
  2
*Model_Space
340
22
  0
BLOCK_RECORD
  5
1B
330
1
100
AcDbSymbolTableRecord
100
AcDbBlockTableRecord
  2
*Paper_Space
340
1E
  0
BLOCK_RECORD
  5
5E
330
1
100
AcDbSymbolTableRecord
100
AcDbBlockTableRecord
  2
SEANNOT_GROUP
340
0
102
{BLKREFS
331
5F
102
}
  0
BLOCK_RECORD
  5
64
330
1
100
AcDbSymbolTableRecord
100
AcDbBlockTableRecord
  2
SE
340
0
102
{BLKREFS
331
65
102
}
  0
BLOCK_RECORD
  5
87
330
1
100
AcDbSymbolTableRecord
100
AcDbBlockTableRecord
  2
_OBLIQUE
340
0
  0
BLOCK_RECORD
  5
8B
330
1
100
AcDbSymbolTableRecord
100
AcDbBlockTableRecord
  2
_DOT
340
0
  0
BLOCK_RECORD
  5
93
330
1
100
AcDbSymbolTableRecord
100
AcDbBlockTableRecord
  2
_SE_FILLED
340
0
  0
BLOCK_RECORD
  5
9C
330
1
100
AcDbSymbolTableRecord
100
AcDbBlockTableRecord
  2
DMBLK155
340
0
  0
BLOCK_RECORD
  5
A7
330
1
100
AcDbSymbolTableRecord
100
AcDbBlockTableRecord
  2
DMBLK156
340
0
  0
BLOCK_RECORD
  5
B2
330
1
100
AcDbSymbolTableRecord
100
AcDbBlockTableRecord
  2
DMBLK157
340
0
  0
BLOCK_RECORD
  5
BC
330
1
100
AcDbSymbolTableRecord
100
AcDbBlockTableRecord
  2
SE1
340
0
102
{BLKREFS
331
BD
102
}
  0
BLOCK_RECORD
  5
D7
330
1
100
AcDbSymbolTableRecord
100
AcDbBlockTableRecord
  2
DMBLK158
340
0
  0
BLOCK_RECORD
  5
E1
330
1
100
AcDbSymbolTableRecord
100
AcDbBlockTableRecord
  2
DMBLK159
340
0
  0
BLOCK_RECORD
  5
EB
330
1
100
AcDbSymbolTableRecord
100
AcDbBlockTableRecord
  2
DMBLK160
340
0
  0
BLOCK_RECORD
  5
F5
330
1
100
AcDbSymbolTableRecord
100
AcDbBlockTableRecord
  2
DMBLK161
340
0
  0
BLOCK_RECORD
  5
FF
330
1
100
AcDbSymbolTableRecord
100
AcDbBlockTableRecord
  2
DMBLK162
340
0
  0
ENDTAB
  0
ENDSEC
  0
SECTION
  2
BLOCKS
  0
BLOCK
  5
20
330
1F
100
AcDbEntity
  8
0
100
AcDbBlockBegin
  2
*Model_Space
 70
     0
 10
0.0
 20
0.0
 30
0.0
  3
*Model_Space
  1

  0
ENDBLK
  5
21
330
1F
100
AcDbEntity
  8
0
100
AcDbBlockEnd
  0
BLOCK
  5
1C
330
1B
100
AcDbEntity
 67
     1
  8
0
100
AcDbBlockBegin
  2
*Paper_Space
 70
     0
 10
0.0
 20
0.0
 30
0.0
  3
*Paper_Space
  1

  0
ENDBLK
  5
1D
330
1B
100
AcDbEntity
 67
     1
  8
0
100
AcDbBlockEnd
  0
BLOCK
  5
62
330
5E
100
AcDbEntity
  8
0
100
AcDbBlockBegin
  2
SEANNOT_GROUP
 70
     0
 10
0.0
 20
0.0
 30
0.0
  3
SEANNOT_GROUP
  1

  0
LINE
  5
61
330
5E
100
AcDbEntity
  8
Default
  6
CENTER2
 62
     7
100
AcDbLine
 10
30.2565220306
 20
195.1009767169
 30
0.0
 11
30.2565220306
 21
132.5719681174
 31
0.0
  0
ENDBLK
  5
63
330
5E
100
AcDbEntity
  8
0
100
AcDbBlockEnd
  0
BLOCK
  5
84
330
64
100
AcDbEntity
  8
0
100
AcDbBlockBegin
  2
SE
 70
     0
 10
0.0
 20
0.0
 30
0.0
  3
SE
  1

  0
LINE
  5
67
330
64
100
AcDbEntity
  8
DV1_Standard
  6
CENTER2
 62
     7
100
AcDbLine
 10
87.0615741355
 20
194.5497059678
 30
0.0
 11
87.0615741355
 21
145.5479279702
 31
0.0
  0
LINE
  5
69
330
64
100
AcDbEntity
  8
MEGA_017875
  6
Continuous
 62
     7
100
AcDbLine
 10
98.0615741355
 20
185.9497059678
 30
0.0
 11
76.0615741355
 21
185.9497059678
 31
0.0
  0
LINE
  5
6A
330
64
100
AcDbEntity
  8
MEGA_017875
  6
Continuous
 62
     7
100
AcDbLine
 10
189.0615741355
 20
145.2041641908
 30
0.0
 11
189.0615741355
 21
146.548396836
 31
0.0
  0
LINE
  5
6B
330
64
100
AcDbEntity
  8
MEGA_017875
  6
Continuous
 62
     7
100
AcDbLine
 10
189.0615741355
 20
145.2041641908
 30
0.0
 11
189.0615741355
 21
136.8955789966
 31
0.0
  0
LINE
  5
6C
330
64
100
AcDbEntity
  8
MEGA_017875
  6
Continuous
 62
     7
100
AcDbLine
 10
189.0615741355
 20
135.5505172181
 30
0.0
 11
189.0615741355
 21
136.8955789966
 31
0.0
  0
LINE
  5
6D
330
64
100
AcDbEntity
  8
MEGA_017875
  6
Continuous
 62
     7
100
AcDbLine
 10
95.0615741355
 20
194.1497059678
 30
0.0
 11
79.0615741355
 21
194.1497059678
 31
0.0
  0
LINE
  5
6E
330
64
100
AcDbEntity
  8
MEGA_017875
  6
Continuous
 62
     7
100
AcDbLine
 10
94.7615741355
 20
194.4497059678
 30
0.0
 11
79.3615741355
 21
194.4497059678
 31
0.0
  0
LINE
  5
6F
330
64
100
AcDbEntity
  8
MEGA_017875
  6
Continuous
 62
     7
100
AcDbLine
 10
95.0610311431
 20
151.0497059678
 30
0.0
 11
95.0610311431
 21
173.5497059678
 31
0.0
  0
LINE
  5
70
330
64
100
AcDbEntity
  8
MEGA_017875
  6
Continuous
 62
     7
100
AcDbLine
 10
79.0618079472
 20
173.5497059678
 30
0.0
 11
79.0618079472
 21
151.0497059678
 31
0.0
  0
ARC
  5
71
330
64
100
AcDbEntity
  8
MEGA_017875
  6
Continuous
 62
     7
100
AcDbCircle
 10
98.04635322
 20
151.0337229065
 30
0.0
 40
2.985364872705453
100
AcDbArc
 50
179.6932481047
 51
270.2921244243
  0
SPLINE
  5
72
330
64
100
AcDbEntity
  8
MEGA_017875
  6
Continuous
 62
     7
100
AcDbSpline
210
0.0
220
0.0
230
1.0
 70
     8
 71
     3
 72
    33
 73
    29
 74
     0
 42
0.000000000323953
 43
0.0000000001
 40
0.0
 40
0.0
 40
0.0
 40
0.0
 40
0.0482678024540786
 40
0.0940356790001698
 40
0.1373535919892881
 40
0.1765721995876284
 40
0.2121900909579783
 40
0.2463696109248483
 40
0.2790018189244583
 40
0.314738790797813
 40
0.3476068715796726
 40
0.3773541170214776
 40
0.4038042887963452
 40
0.4269381619126529
 40
0.4513779372563435
 40
0.479481588261805
 40
0.5111687804083148
 40
0.5463131143923157
 40
0.5847121855055092
 40
0.6260242005474201
 40
0.6697868806275352
 40
0.7089996156239204
 40
0.7495229573500397
 40
0.7928249886525133
 40
0.8406489170384995
 40
0.8912900488348265
 40
0.9443921422625642
 40
1.0
 40
1.0
 40
1.0
 40
1.0
 10
79.06180795756063
 20
151.0497059678007
 30
0.0
 10
79.06173757712156
 20
150.50385404979
 30
0.0
 10
79.06200827767204
 20
149.6085752304915
 30
0.0
 10
79.06027642366969
 20
148.1691842087309
 30
0.0
 10
79.06562888398555
 20
146.8569564630123
 30
0.0
 10
79.05041011085734
 20
145.6401338214618
 30
0.0
 10
79.14256550692889
 20
144.521666765389
 30
0.0
 10
79.32405524606118
 20
143.4829116140383
 30
0.0
 10
79.59557284860207
 20
142.4629553919368
 30
0.0
 10
79.9497643434792
 20
141.4827427817109
 30
0.0
 10
80.37508754156717
 20
140.5641103555924
 30
0.0
 10
80.82632573574242
 20
139.766282466594
 30
0.0
 10
81.27953105720894
 20
139.0874367344955
 30
0.0
 10
81.74143052721928
 20
138.4820918185135
 30
0.0
 10
82.25005957376911
 20
137.8927074961337
 30
0.0
 10
82.8586519475386
 20
137.2756344059023
 30
0.0
 10
83.59661410236
 20
136.6351563106447
 30
0.0
 10
84.47404692275417
 20
135.9997366312231
 30
0.0
 10
85.49238299851902
 20
135.398389648957
 30
0.0
 10
86.64682570681576
 20
134.864923000638
 30
0.0
 10
87.86182798395501
 20
134.459815072477
 30
0.0
 10
89.10434073297857
 20
134.1902502098912
 30
0.0
 10
90.36396065958874
 20
134.0442125527269
 30
0.0
 10
91.71827016552935
 20
134.0521719400642
 30
0.0
 10
93.17727235206169
 20
134.0496138243398
 30
0.0
 10
94.7277197822936
 20
134.0506680932186
 30
0.0
 10
96.39759925822884
 20
134.0504761889424
 30
0.0
 10
97.43271584795
 20
134.0505268688777
 30
0.0
 10
98.06157413548708
 20
134.0505172279356
 30
0.0
  0
LINE
  5
73
330
64
100
AcDbEntity
  8
MEGA_017875
  6
Continuous
 62
     7
100
AcDbLine
 10
187.5615741355
 20
148.048396836
 30
0.0
 11
98.0615741355
 21
148.048396836
 31
0.0
  0
LINE
  5
74
330
64
100
AcDbEntity
  8
MEGA_017875
  6
Continuous
 62
     7
100
AcDbLine
 10
98.0615741355
 20
134.0505172181
 30
0.0
 11
187.5615741355
 21
134.0505172181
 31
0.0
  0
LINE
  5
75
330
64
100
AcDbEntity
  8
MEGA_017875
  6
Continuous
 62
     7
100
AcDbLine
 10
98.0615741355
 20
177.4226959918
 30
0.0
 11
98.0615741355
 21
185.9497059678
 31
0.0
  0
LINE
  5
76
330
64
100
AcDbEntity
  8
MEGA_017875
  6
Continuous
 62
     7
100
AcDbLine
 10
76.0615741355
 20
185.9497059678
 30
0.0
 11
76.0615741355
 21
177.4226914576
 31
0.0
  0
LINE
  5
77
330
64
100
AcDbEntity
  8
MEGA_017875
  6
Continuous
 62
     7
100
AcDbLine
 10
95.0615741355
 20
185.9497059678
 30
0.0
 11
95.0615741355
 21
194.1497059678
 31
0.0
  0
LINE
  5
78
330
64
100
AcDbEntity
  8
MEGA_017875
  6
Continuous
 62
     7
100
AcDbLine
 10
79.0615741355
 20
194.1497059678
 30
0.0
 11
79.0615741355
 21
185.9497059678
 31
0.0
  0
ARC
  5
79
330
64
100
AcDbEntity
  8
MEGA_017875
  6
Continuous
 62
     7
100
AcDbCircle
 10
76.0618079472
 20
173.5497059678
 30
0.0
 40
3.0
100
AcDbArc
 50
0.0
 51
75.5179486395
  0
ARC
  5
7A
330
64
100
AcDbEntity
  8
MEGA_017875
  6
Continuous
 62
     7
100
AcDbCircle
 10
98.0610311431
 20
173.5497059678
 30
0.0
 40
3.000000000000001
100
AcDbArc
 50
104.492111883
 51
180.0
  0
ARC
  5
7B
330
64
100
AcDbEntity
  8
MEGA_017875
  6
Continuous
 62
     7
100
AcDbCircle
 10
97.0615741343
 20
177.4228294937
 30
0.0
 40
1.00000000016402
100
AcDbArc
 50
284.4171153931
 51
0.0117443043
  0
ARC
  5
7C
330
64
100
AcDbEntity
  8
MEGA_017875
  6
Continuous
 62
     7
100
AcDbCircle
 10
77.0595887398
 20
177.4198444949
 30
0.0
 40
0.9961492292235303
100
AcDbArc
 50
179.8435251416
 51
255.6168135941
  0
ARC
  5
7D
330
64
100
AcDbEntity
  8
MEGA_017875
  6
Continuous
 62
     7
100
AcDbCircle
 10
187.5615741355
 20
146.548396836
 30
0.0
 40
1.500000000000001
100
AcDbArc
 50
0.0
 51
90.0
  0
ARC
  5
7E
330
64
100
AcDbEntity
  8
MEGA_017875
  6
Continuous
 62
     7
100
AcDbCircle
 10
187.5615741355
 20
135.5505172181
 30
0.0
 40
1.500000000000001
100
AcDbArc
 50
270.0
 51
0.0
  0
LINE
  5
7F
330
64
100
AcDbEntity
  8
MEGA_017875
  6
Continuous
 62
     7
100
AcDbLine
 10
95.0615741355
 20
194.1497059678
 30
0.0
 11
94.7615741355
 21
194.4497059678
 31
0.0
  0
LINE
  5
80
330
64
100
AcDbEntity
  8
MEGA_017875
  6
Continuous
 62
     7
100
AcDbLine
 10
79.3615741355
 20
194.4497059678
 30
0.0
 11
79.0615741355
 21
194.1497059678
 31
0.0
  0
LINE
  5
82
330
64
100
AcDbEntity
  8
DV1_Standard
  6
HIDDEN2
 62
     7
100
AcDbLine
 10
83.0615741355
 20
194.4497059678
 30
0.0
 11
83.0615741355
 21
194.1497059678
 31
0.0
  0
LINE
  5
83
330
64
100
AcDbEntity
  8
DV1_Standard
  6
HIDDEN2
 62
     7
100
AcDbLine
 10
91.0615741355
 20
194.4497059678
 30
0.0
 11
91.0615741355
 21
194.1497059678
 31
0.0
  0
ENDBLK
  5
85
330
64
100
AcDbEntity
  8
0
100
AcDbBlockEnd
  0
BLOCK
  5
88
330
87
100
AcDbEntity
  8
0
100
AcDbBlockBegin
  2
_OBLIQUE
 70
     0
 10
0.0
 20
0.0
 30
0.0
  3
_OBLIQUE
  1

  0
LINE
  5
8A
330
87
100
AcDbEntity
  8
0
  6
ByBlock
 62
     0
370
    -2
100
AcDbLine
 10
-0.5
 20
-0.5
 30
0.0
 11
0.5
 21
0.5
 31
0.0
  0
ENDBLK
  5
89
330
87
100
AcDbEntity
  8
0
100
AcDbBlockEnd
  0
BLOCK
  5
8C
330
8B
100
AcDbEntity
  8
0
100
AcDbBlockBegin
  2
_DOT
 70
     0
 10
0.0
 20
0.0
 30
0.0
  3
_DOT
  1

  0
POLYLINE
  5
8E
330
8B
100
AcDbEntity
  8
0
  6
ByBlock
 62
     0
100
AcDb2dPolyline
 66
     1
 10
0.0
 20
0.0
 30
0.0
 70
     1
 40
0.5
 41
0.5
  0
VERTEX
  5
91
330
8E
100
AcDbEntity
  8
0
  6
ByBlock
 62
     0
100
AcDbVertex
100
AcDb2dVertex
 10
-0.25
 20
0.0
 30
0.0
 42
1.0
  0
VERTEX
  5
92
330
8E
100
AcDbEntity
  8
0
  6
ByBlock
 62
     0
100
AcDbVertex
100
AcDb2dVertex
 10
0.25
 20
0.0
 30
0.0
 42
1.0
  0
SEQEND
  5
90
330
8E
100
AcDbEntity
  8
0
  6
ByBlock
 62
     0
  0
LINE
  5
8F
330
8B
100
AcDbEntity
  8
0
  6
ByBlock
 62
     0
370
    -2
100
AcDbLine
 10
-0.5
 20
0.0
 30
0.0
 11
-1.0
 21
0.0
 31
0.0
  0
ENDBLK
  5
8D
330
8B
100
AcDbEntity
  8
0
100
AcDbBlockEnd
  0
BLOCK
  5
96
330
93
100
AcDbEntity
  8
0
100
AcDbBlockBegin
  2
_SE_FILLED
 70
     0
 10
0.0
 20
0.0
 30
0.0
  3
_SE_FILLED
  1

  0
SOLID
  5
94
330
93
100
AcDbEntity
  8
0
 62
     0
100
AcDbTrace
 10
0.0
 20
0.0
 30
0.0
 11
-1.0
 21
-0.1665
 31
0.0
 12
-1.0
 22
0.1665
 32
0.0
 13
0.0
 23
0.0
 33
0.0
  0
LINE
  5
95
330
93
100
AcDbEntity
  8
0
 62
     0
100
AcDbLine
 10
0.0
 20
0.0
 30
0.0
 11
-1.0
 21
0.0
 31
0.0
  0
ENDBLK
  5
97
330
93
100
AcDbEntity
  8
0
100
AcDbBlockEnd
  0
BLOCK
  5
A4
330
9C
100
AcDbEntity
  8
0
100
AcDbBlockBegin
  2
DMBLK155
 70
     0
 10
0.0
 20
0.0
 30
0.0
  3
DMBLK155
  1

  0
HATCH
  5
9D
330
9C
100
AcDbEntity
  8
Default
  6
Continuous
 62
     7
100
AcDbHatch
 10
0.0
 20
0.0
 30
0.0
210
0.0
220
0.0
230
1.0
  2
SOLID
 70
     1
 71
     0
 91
        1
 92
        1
 93
        3
 72
     1
 10
80.06157410941005
 20
201.0801810573755
 11
80.06157410941005
 21
200.0801810486832
 72
     1
 10
80.06157410941005
 20
200.0801810486832
 11
83.06157413548708
 21
200.5801810530293
 72
     1
 10
83.06157413548708
 20
200.5801810530293
 11
80.06157410941005
 21
201.0801810573755
 97
        0
 75
     0
 76
     1
 98
        0
  0
HATCH
  5
9E
330
9C
100
AcDbEntity
  8
Default
  6
Continuous
 62
     7
100
AcDbHatch
 10
0.0
 20
0.0
 30
0.0
210
0.0
220
0.0
230
1.0
  2
SOLID
 70
     1
 71
     0
 91
        1
 92
        1
 93
        3
 72
     1
 10
94.06157416156412
 20
201.0801810573755
 11
91.06157413548709
 21
200.5801810530293
 72
     1
 10
91.06157413548709
 20
200.5801810530293
 11
94.06157416156412
 21
200.0801810486832
 72
     1
 10
94.06157416156412
 20
200.0801810486832
 11
94.06157416156412
 21
201.0801810573755
 97
        0
 75
     0
 76
     1
 98
        0
  0
LINE
  5
9F
330
9C
100
AcDbEntity
  8
Default
  6
Continuous
 62
     7
100
AcDbLine
 10
83.0615741355
 20
194.4497059678
 30
0.0
 11
83.0615741355
 21
202.0801810661
 31
0.0
  0
LINE
  5
A0
330
9C
100
AcDbEntity
  8
Default
  6
Continuous
 62
     7
100
AcDbLine
 10
91.0615741355
 20
194.4497059678
 30
0.0
 11
91.0615741355
 21
202.0801810661
 31
0.0
  0
LINE
  5
A1
330
9C
100
AcDbEntity
  8
Default
  6
Continuous
 62
     7
100
AcDbLine
 10
77.0615740833
 20
200.580181053
 30
0.0
 11
97.0615745676
 21
200.580181053
 31
0.0
  0
TEXT
  5
A2
330
9C
100
AcDbEntity
  8
Default
  6
Continuous
 62
     7
100
AcDbText
 10
87.9600856395
 20
201.330181053
 30
0.0
 40
3.0
  1
8
  7
SEACAD_seiso_ttf
 11
87.9600856395
 21
204.330181053
 31
0.0
100
AcDbText
 73
     3
  0
TEXT
  5
A3
330
9C
100
AcDbEntity
  8
Default
  6
Continuous
 62
     7
100
AcDbText
 10
84.2539721024
 20
201.330181053
 30
0.0
 40
3.0
  1
q
  7
SEACAD_semeci1_ttf
 11
84.2539721024
 21
204.330181053
 31
0.0
100
AcDbText
 73
     3
  0
ENDBLK
  5
A5
330
9C
100
AcDbEntity
  8
0
100
AcDbBlockEnd
  0
BLOCK
  5
AF
330
A7
100
AcDbEntity
  8
0
100
AcDbBlockBegin
  2
DMBLK156
 70
     0
 10
0.0
 20
0.0
 30
0.0
  3
DMBLK156
  1

  0
HATCH
  5
A8
330
A7
100
AcDbEntity
  8
Default
  6
Continuous
 62
     7
100
AcDbHatch
 10
0.0
 20
0.0
 30
0.0
210
0.0
220
0.0
230
1.0
  2
SOLID
 70
     1
 71
     0
 91
        1
 92
        1
 93
        3
 72
     1
 10
82.06157416156412
 20
209.6078510690449
 11
79.06157413548709
 21
209.1078510646987
 72
     1
 10
79.06157413548709
 20
209.1078510646987
 11
82.06157416156412
 21
208.6078510603526
 72
     1
 10
82.06157416156412
 20
208.6078510603526
 11
82.06157416156412
 21
209.6078510690449
 97
        0
 75
     0
 76
     1
 98
        0
  0
HATCH
  5
A9
330
A7
100
AcDbEntity
  8
Default
  6
Continuous
 62
     7
100
AcDbHatch
 10
0.0
 20
0.0
 30
0.0
210
0.0
220
0.0
230
1.0
  2
SOLID
 70
     1
 71
     0
 91
        1
 92
        1
 93
        3
 72
     1
 10
92.06157486936928
 20
209.6078510690449
 11
92.06157486936928
 21
208.6078510603526
 72
     1
 10
92.06157486936928
 20
208.6078510603526
 11
95.06157489544631
 21
209.1078510646987
 72
     1
 10
95.06157489544631
 20
209.1078510646987
 11
92.06157486936928
 21
209.6078510690449
 97
        0
 75
     0
 76
     1
 98
        0
  0
LINE
  5
AA
330
A7
100
AcDbEntity
  8
Default
  6
Continuous
 62
     7
100
AcDbLine
 10
79.0615741355
 20
194.1497059678
 30
0.0
 11
79.0615741355
 21
210.6078510777
 31
0.0
  0
LINE
  5
AB
330
A7
100
AcDbEntity
  8
Default
  6
Continuous
 62
     7
100
AcDbLine
 10
95.0615741355
 20
194.1497059678
 30
0.0
 11
95.0615741355
 21
210.6078510777
 31
0.0
  0
LINE
  5
AC
330
A7
100
AcDbEntity
  8
Default
  6
Continuous
 62
     7
100
AcDbLine
 10
79.0615741355
 20
209.1078510647
 30
0.0
 11
95.0615748954
 21
209.1078510647
 31
0.0
  0
TEXT
  5
AD
330
A7
100
AcDbEntity
  8
Default
  6
Continuous
 62
     7
100
AcDbText
 10
87.3477892832
 20
209.8578510647
 30
0.0
 40
3.0
  1
16
  7
SEACAD_seiso_ttf
 11
87.3477892832
 21
212.8578510647
 31
0.0
100
AcDbText
 73
     3
  0
TEXT
  5
AE
330
A7
100
AcDbEntity
  8
Default
  6
Continuous
 62
     7
100
AcDbText
 10
83.7071779295
 20
209.8578510647
 30
0.0
 40
3.0
  1
O
  7
SEACAD_semeci1_ttf
 11
83.7071779295
 21
212.8578510647
 31
0.0
100
AcDbText
 73
     3
  0
ENDBLK
  5
B0
330
A7
100
AcDbEntity
  8
0
100
AcDbBlockEnd
  0
BLOCK
  5
BA
330
B2
100
AcDbEntity
  8
0
100
AcDbBlockBegin
  2
DMBLK157
 70
     0
 10
0.0
 20
0.0
 30
0.0
  3
DMBLK157
  1

  0
HATCH
  5
B3
330
B2
100
AcDbEntity
  8
Default
  6
Continuous
 62
     7
100
AcDbHatch
 10
0.0
 20
0.0
 30
0.0
210
0.0
220
0.0
230
1.0
  2
SOLID
 70
     1
 71
     0
 91
        1
 92
        1
 93
        3
 72
     1
 10
95.06157410941005
 20
217.6107870180128
 11
95.06157410941005
 21
216.6107870093205
 72
     1
 10
95.06157410941005
 20
216.6107870093205
 11
98.06157413548708
 21
217.1107870136667
 72
     1
 10
98.06157413548708
 20
217.1107870136667
 11
95.06157410941005
 21
217.6107870180128
 97
        0
 75
     0
 76
     1
 98
        0
  0
HATCH
  5
B4
330
B2
100
AcDbEntity
  8
Default
  6
Continuous
 62
     7
100
AcDbHatch
 10
0.0
 20
0.0
 30
0.0
210
0.0
220
0.0
230
1.0
  2
SOLID
 70
     1
 71
     0
 91
        1
 92
        1
 93
        3
 72
     1
 10
79.0615742807734
 20
217.6107870180128
 11
76.06157425469637
 21
217.1107870136667
 72
     1
 10
76.06157425469637
 20
217.1107870136667
 11
79.0615742807734
 21
216.6107870093205
 72
     1
 10
79.0615742807734
 20
216.6107870093205
 11
79.0615742807734
 21
217.6107870180128
 97
        0
 75
     0
 76
     1
 98
        0
  0
LINE
  5
B5
330
B2
100
AcDbEntity
  8
Default
  6
Continuous
 62
     7
100
AcDbLine
 10
98.0615741355
 20
185.9497059678
 30
0.0
 11
98.0615741355
 21
218.6107870267
 31
0.0
  0
LINE
  5
B6
330
B2
100
AcDbEntity
  8
Default
  6
Continuous
 62
     7
100
AcDbLine
 10
76.0615741355
 20
185.9497059678
 30
0.0
 11
76.0615741355
 21
218.6107870267
 31
0.0
  0
LINE
  5
B7
330
B2
100
AcDbEntity
  8
Default
  6
Continuous
 62
     7
100
AcDbLine
 10
98.0615741355
 20
217.1107870137
 30
0.0
 11
76.0615742547
 21
217.1107870137
 31
0.0
  0
TEXT
  5
B8
330
B2
100
AcDbEntity
  8
Default
  6
Continuous
 62
     7
100
AcDbText
 10
87.040970781
 20
217.8607870137
 30
0.0
 40
3.0
  1
22
  7
SEACAD_seiso_ttf
 11
87.040970781
 21
220.8607870137
 31
0.0
100
AcDbText
 73
     3
  0
TEXT
  5
B9
330
B2
100
AcDbEntity
  8
Default
  6
Continuous
 62
     7
100
AcDbText
 10
83.4003594273
 20
217.8607870137
 30
0.0
 40
3.0
  1
O
  7
SEACAD_semeci1_ttf
 11
83.4003594273
 21
220.8607870137
 31
0.0
100
AcDbText
 73
     3
  0
ENDBLK
  5
BB
330
B2
100
AcDbEntity
  8
0
100
AcDbBlockEnd
  0
BLOCK
  5
D4
330
BC
100
AcDbEntity
  8
0
100
AcDbBlockBegin
  2
SE1
 70
     0
 10
0.0
 20
0.0
 30
0.0
  3
SE1
  1

  0
SPLINE
  5
BE
330
BC
100
AcDbEntity
  8
MEGA_017875
  6
Continuous
 62
     7
100
AcDbSpline
210
0.0
220
0.0
230
1.0
 70
     8
 71
     3
 72
    11
 73
     7
 74
     0
 42
0.0000000096893473
 43
0.0000000001
 40
0.0
 40
0.0
 40
0.0
 40
0.0
 40
0.125
 40
0.1875
 40
0.1953125
 40
0.2025126435815767
 40
0.2025126435815767
 40
0.2025126435815767
 40
0.2025126435815767
 10
22.94972854404568
 20
135.5108700061416
 30
0.0
 10
22.94972854404568
 20
135.5108700061416
 30
0.0
 10
22.99444488931161
 20
135.4853353257506
 30
0.0
 10
23.05447873067833
 20
135.4429569312409
 30
0.0
 10
23.10309512487981
 20
135.4135892635509
 30
0.0
 10
23.11918690327177
 20
135.4050122114249
 30
0.0
 10
23.12720936317816
 20
135.4009450856829
 30
0.0
  0
LINE
  5
BF
330
BC
100
AcDbEntity
  8
MEGA_017875
  6
Continuous
 62
     7
100
AcDbLine
 10
41.2565220306
 20
185.9497059678
 30
0.0
 11
19.2565220306
 21
185.9497059678
 31
0.0
  0
ARC
  5
C0
330
BC
100
AcDbEntity
  8
MEGA_017875
  6
Continuous
 62
     7
100
AcDbCircle
 10
30.254574585
 20
153.0505172181
 30
0.0
 40
18.99999999999955
100
AcDbArc
 50
247.3894331059
 51
292.6264118798
  0
ARC
  5
C1
330
BC
100
AcDbEntity
  8
MEGA_017875
  6
Continuous
 62
     7
100
AcDbCircle
 10
35.2565220306
 20
141.0497059678
 30
0.0
 40
5.998502051153073
100
AcDbArc
 50
292.6264118798
 51
67.384559487
  0
ARC
  5
C2
330
BC
100
AcDbEntity
  8
MEGA_017875
  6
Continuous
 62
     7
100
AcDbCircle
 10
25.2565220306
 20
141.0497059678
 30
0.0
 40
6.000000000000401
100
AcDbArc
 50
112.5995942634
 51
247.3894331059
  0
ARC
  5
C3
330
BC
100
AcDbEntity
  8
MEGA_017875
  6
Continuous
 62
     7
100
AcDbCircle
 10
30.2545736894
 20
129.0424183793
 30
0.0
 40
19.0059784566904
100
AcDbArc
 50
67.384559487
 51
112.5995942634
  0
LINE
  5
C4
330
BC
100
AcDbEntity
  8
MEGA_017875
  6
Continuous
 62
     7
100
AcDbLine
 10
38.2565220306
 20
194.1497059678
 30
0.0
 11
22.2565220306
 21
194.1497059678
 31
0.0
  0
LINE
  5
C5
330
BC
100
AcDbEntity
  8
MEGA_017875
  6
Continuous
 62
     7
100
AcDbLine
 10
22.5565220306
 20
194.4497059678
 30
0.0
 11
37.9565220306
 21
194.4497059678
 31
0.0
  0
LINE
  5
C6
330
BC
100
AcDbEntity
  8
MEGA_017875
  6
Continuous
 62
     7
100
AcDbLine
 10
41.255488655
 20
151.0497059678
 30
0.0
 11
41.255488655
 21
173.5497059678
 31
0.0
  0
SPLINE
  5
C7
330
BC
100
AcDbEntity
  8
MEGA_017875
  6
Continuous
 62
     7
100
AcDbSpline
210
0.0
220
0.0
230
1.0
 70
     8
 71
     3
 72
    42
 73
    38
 74
     0
 42
0.0000000009994797
 43
0.0000000001
 40
0.0005821849856179
 40
0.0005821849856179
 40
0.0005821849856179
 40
0.0005821849856179
 40
0.0461246638945304
 40
0.0901997821105898
 40
0.132396615549275
 40
0.1721893192139291
 40
0.1916540269903624
 40
0.2124479763155109
 40
0.2317286291771561
 40
0.2479910289313745
 40
0.2641914618530494
 40
0.2799585693747307
 40
0.3140575207001654
 40
0.3455880629676459
 40
0.3743755438245292
 40
0.3940559992064247
 40
0.4119876317518576
 40
0.4286293998371886
 40
0.446949075047097
 40
0.467421578868058
 40
0.4900507106968975
 40
0.5148311011057584
 40
0.5417378133055852
 40
0.5707102707007988
 40
0.6016459991049962
 40
0.6343953932746383
 40
0.6687832774069808
 40
0.7046299901907015
 40
0.7416803328224366
 40
0.7795957475280302
 40
0.8181339098005546
 40
0.8451961491717189
 40
0.8757843789038668
 40
0.9053344526336582
 40
0.9360461444895729
 40
0.9676919209998989
 40
1.0
 40
1.0
 40
1.0
 40
1.0
 10
41.25502408573845
 20
141.0503256739078
 30
0.0
 10
41.25502490433522
 20
141.0515112008426
 30
0.0
 10
41.25502637817456
 20
141.0541674544222
 30
0.0
 10
41.25503607966105
 20
141.0745308206443
 30
0.0
 10
41.25504682330609
 20
141.1056742807131
 30
0.0
 10
41.25505797425501
 20
141.1391636614996
 30
0.0
 10
41.25507166813517
 20
141.1756437006868
 30
0.0
 10
41.25509167861753
 20
141.1988605722011
 30
0.0
 10
41.25511568259088
 20
141.2061769341362
 30
0.0
 10
41.2551303297801
 20
141.2256521798431
 30
0.0
 10
41.25513974685659
 20
141.2551978553413
 30
0.0
 10
41.25515327720663
 20
141.3107619689405
 30
0.0
 10
41.25516837196047
 20
141.4083101777528
 30
0.0
 10
41.25518477814874
 20
141.5654347511604
 30
0.0
 10
41.25519791765032
 20
141.7324695299696
 30
0.0
 10
41.25520849099111
 20
141.8930942120569
 30
0.0
 10
41.25521695307449
 20
142.0377013052448
 30
0.0
 10
41.2552250774918
 20
142.1903458193815
 30
0.0
 10
41.25523348320937
 20
142.3623807428986
 30
0.0
 10
41.25524269841218
 20
142.5675421403057
 30
0.0
 10
41.25525280488683
 20
142.8117774770882
 30
0.0
 10
41.25526382952591
 20
143.099999314202
 30
0.0
 10
41.25527579244914
 20
143.4357921293774
 30
0.0
 10
41.25528871562143
 20
143.8215204336158
 30
0.0
 10
41.25530263250901
 20
144.2586440713604
 30
0.0
 10
41.25531758805584
 20
144.7475286758985
 30
0.0
 10
41.25533366140142
 20
145.2870036129192
 30
0.0
 10
41.25535101470869
 20
145.8723562378697
 30
0.0
 10
41.25536995805164
 20
146.497056801246
 30
0.0
 10
41.25539059280974
 20
147.1531600623348
 30
0.0
 10
41.25541357762516
 20
147.7612230119221
 30
0.0
 10
41.25545337174577
 20
148.3294152356096
 30
0.0
 10
41.25546525895324
 20
148.8435685406621
 30
0.0
 10
41.25547373905662
 20
149.3802461001139
 30
0.0
 10
41.25548157081137
 20
149.9200142656237
 30
0.0
 10
41.25548734245554
 20
150.4899011085407
 30
0.0
 10
41.25548820612494
 20
150.8398311533376
 30
0.0
 10
41.25548865499206
 20
151.0497059678007
 30
0.0
  0
LINE
  5
C8
330
BC
100
AcDbEntity
  8
MEGA_017875
  6
Continuous
 62
     7
100
AcDbLine
 10
19.2565220306
 20
173.5497059678
 30
0.0
 11
19.2565220306
 21
151.0497059678
 31
0.0
  0
ARC
  5
C9
330
BC
100
AcDbEntity
  8
MEGA_017875
  6
Continuous
 62
     7
100
AcDbCircle
 10
30.1475185861
 20
152.9593428923
 30
0.0
 40
18.90981772838115
100
AcDbArc
 50
248.2063910582
 51
270.6921315928
  0
LINE
  5
CA
330
BC
100
AcDbEntity
  8
MEGA_017875
  6
Continuous
 62
     7
100
AcDbLine
 10
19.2565220307
 20
151.0497059678
 30
0.0
 11
19.2565220408
 21
141.0483611501
 31
0.0
  0
ARC
  5
CB
330
BC
100
AcDbEntity
  8
MEGA_017875
  6
Continuous
 62
     7
100
AcDbCircle
 10
25.4522110115
 20
141.19550836
 30
0.0
 40
6.243713148828606
100
AcDbArc
 50
221.851873405
 51
248.1489108475
  0
LINE
  5
CC
330
BC
100
AcDbEntity
  8
MEGA_017875
  6
Continuous
 62
     7
100
AcDbLine
 10
41.2565220306
 20
173.6444400202
 30
0.0
 11
41.2565220306
 21
185.9497059678
 31
0.0
  0
LINE
  5
CD
330
BC
100
AcDbEntity
  8
MEGA_017875
  6
Continuous
 62
     7
100
AcDbLine
 10
19.2565220306
 20
185.9497059678
 30
0.0
 11
19.2565220306
 21
173.5497059678
 31
0.0
  0
LINE
  5
CE
330
BC
100
AcDbEntity
  8
MEGA_017875
  6
Continuous
 62
     7
100
AcDbLine
 10
38.2565220306
 20
185.9497059678
 30
0.0
 11
38.2565220306
 21
194.1497059678
 31
0.0
  0
LINE
  5
CF
330
BC
100
AcDbEntity
  8
MEGA_017875
  6
Continuous
 62
     7
100
AcDbLine
 10
22.2565220306
 20
194.1497059678
 30
0.0
 11
22.2565220306
 21
185.9497059678
 31
0.0
  0
ARC
  5
D0
330
BC
100
AcDbEntity
  8
MEGA_017875
  6
Continuous
 62
     7
100
AcDbCircle
 10
44.255488655
 20
173.5497059678
 30
0.0
 40
3.000000000000001
100
AcDbArc
 50
178.6491266037
 51
180.0
  0
ARC
  5
D1
330
BC
100
AcDbEntity
  8
MEGA_017875
  6
Continuous
 62
     7
100
AcDbCircle
 10
40.9119127653
 20
173.6370162766
 30
0.0
 40
0.3445929963028347
100
AcDbArc
 50
357.2528840997
 51
1.2336309839
  0
LINE
  5
D2
330
BC
100
AcDbEntity
  8
MEGA_017875
  6
Continuous
 62
     7
100
AcDbLine
 10
38.2565220306
 20
194.1497059678
 30
0.0
 11
37.9565220306
 21
194.4497059678
 31
0.0
  0
LINE
  5
D3
330
BC
100
AcDbEntity
  8
MEGA_017875
  6
Continuous
 62
     7
100
AcDbLine
 10
22.5565220306
 20
194.4497059678
 30
0.0
 11
22.2565220306
 21
194.1497059678
 31
0.0
  0
ENDBLK
  5
D5
330
BC
100
AcDbEntity
  8
0
100
AcDbBlockEnd
  0
BLOCK
  5
DE
330
D7
100
AcDbEntity
  8
0
100
AcDbBlockBegin
  2
DMBLK158
 70
     0
 10
0.0
 20
0.0
 30
0.0
  3
DMBLK158
  1

  0
HATCH
  5
D8
330
D7
100
AcDbEntity
  8
Default
  6
Continuous
 62
     7
100
AcDbHatch
 10
0.0
 20
0.0
 30
0.0
210
0.0
220
0.0
230
1.0
  2
SOLID
 70
     1
 71
     0
 91
        1
 92
        1
 93
        3
 72
     1
 10
22.25652205672565
 20
122.3417014292101
 11
22.25652205672565
 21
123.3417014379024
 72
     1
 10
22.25652205672565
 20
123.3417014379024
 11
19.25652203064862
 21
122.8417014335562
 72
     1
 10
19.25652203064862
 20
122.8417014335562
 11
22.25652205672565
 21
122.3417014292101
 97
        0
 75
     0
 76
     1
 98
        0
  0
HATCH
  5
D9
330
D7
100
AcDbEntity
  8
Default
  6
Continuous
 62
     7
100
AcDbHatch
 10
0.0
 20
0.0
 30
0.0
210
0.0
220
0.0
230
1.0
  2
SOLID
 70
     1
 71
     0
 91
        1
 92
        1
 93
        3
 72
     1
 10
38.25502431866231
 20
122.3417014292101
 11
41.25502434473935
 21
122.8417014335562
 72
     1
 10
41.25502434473935
 20
122.8417014335562
 11
38.25502431866231
 21
123.3417014379024
 72
     1
 10
38.25502431866231
 20
123.3417014379024
 11
38.25502431866231
 21
122.3417014292101
 97
        0
 75
     0
 76
     1
 98
        0
  0
LINE
  5
DA
330
D7
100
AcDbEntity
  8
Default
  6
Continuous
 62
     7
100
AcDbLine
 10
19.2565220306
 20
141.0497059678
 30
0.0
 11
19.2565220306
 21
121.3417014205
 31
0.0
  0
LINE
  5
DB
330
D7
100
AcDbEntity
  8
Default
  6
Continuous
 62
     7
100
AcDbLine
 10
41.2550240818
 20
141.0497059678
 30
0.0
 11
41.2550240818
 21
121.3417014205
 31
0.0
  0
LINE
  5
DC
330
D7
100
AcDbEntity
  8
Default
  6
Continuous
 62
     7
100
AcDbLine
 10
19.2565220306
 20
122.8417014336
 30
0.0
 11
41.2550243447
 21
122.8417014336
 31
0.0
  0
TEXT
  5
DD
330
D7
100
AcDbEntity
  8
Default
  6
Continuous
 62
     7
100
AcDbText
 10
28.4148640968
 20
123.5917014336
 30
0.0
 40
3.0
  1
22
  7
SEACAD_seiso_ttf
 11
28.4148640968
 21
126.5917014336
 31
0.0
100
AcDbText
 73
     3
  0
ENDBLK
  5
DF
330
D7
100
AcDbEntity
  8
0
100
AcDbBlockEnd
  0
BLOCK
  5
E8
330
E1
100
AcDbEntity
  8
0
100
AcDbBlockBegin
  2
DMBLK159
 70
     0
 10
0.0
 20
0.0
 30
0.0
  3
DMBLK159
  1

  0
HATCH
  5
E2
330
E1
100
AcDbEntity
  8
Default
  6
Continuous
 62
     7
100
AcDbHatch
 10
0.0
 20
0.0
 30
0.0
210
0.0
220
0.0
230
1.0
  2
SOLID
 70
     1
 71
     0
 91
        1
 92
        1
 93
        3
 72
     1
 10
79.06157416156412
 20
123.1032809503749
 11
79.06157416156412
 21
124.1032809590673
 72
     1
 10
79.06157416156412
 20
124.1032809590673
 11
76.06157413548709
 21
123.6032809547211
 72
     1
 10
76.06157413548709
 20
123.6032809547211
 11
79.06157416156412
 21
123.1032809503749
 97
        0
 75
     0
 76
     1
 98
        0
  0
HATCH
  5
E3
330
E1
100
AcDbEntity
  8
Default
  6
Continuous
 62
     7
100
AcDbHatch
 10
0.0
 20
0.0
 30
0.0
210
0.0
220
0.0
230
1.0
  2
SOLID
 70
     1
 71
     0
 91
        1
 92
        1
 93
        3
 72
     1
 10
186.0615721424568
 20
123.1032809503749
 11
189.0615721685338
 21
123.6032809547211
 72
     1
 10
189.0615721685338
 20
123.6032809547211
 11
186.0615721424568
 21
124.1032809590673
 72
     1
 10
186.0615721424568
 20
124.1032809590673
 11
186.0615721424568
 21
123.1032809503749
 97
        0
 75
     0
 76
     1
 98
        0
  0
LINE
  5
E4
330
E1
100
AcDbEntity
  8
Default
  6
Continuous
 62
     7
100
AcDbLine
 10
76.0615741355
 20
177.4226914576
 30
0.0
 11
76.0615741355
 21
122.1032809417
 31
0.0
  0
LINE
  5
E5
330
E1
100
AcDbEntity
  8
Default
  6
Continuous
 62
     7
100
AcDbLine
 10
189.0615741355
 20
136.895579389
 30
0.0
 11
189.0615741355
 21
122.1032809417
 31
0.0
  0
LINE
  5
E6
330
E1
100
AcDbEntity
  8
Default
  6
Continuous
 62
     7
100
AcDbLine
 10
76.0615741355
 20
123.6032809547
 30
0.0
 11
189.0615721685
 21
123.6032809547
 31
0.0
  0
TEXT
  5
E7
330
E1
100
AcDbEntity
  8
Default
  6
Continuous
 62
     7
100
AcDbText
 10
130.5502095156
 20
124.3532809547
 30
0.0
 40
3.0
  1
113
  7
SEACAD_seiso_ttf
 11
130.5502095156
 21
127.3532809547
 31
0.0
100
AcDbText
 73
     3
  0
ENDBLK
  5
E9
330
E1
100
AcDbEntity
  8
0
100
AcDbBlockEnd
  0
BLOCK
  5
F2
330
EB
100
AcDbEntity
  8
0
100
AcDbBlockBegin
  2
DMBLK160
 70
     0
 10
0.0
 20
0.0
 30
0.0
  3
DMBLK160
  1

  0
HATCH
  5
EC
330
EB
100
AcDbEntity
  8
Default
  6
Continuous
 62
     7
100
AcDbHatch
 10
0.0
 20
0.0
 30
0.0
210
0.0
220
0.0
230
1.0
  2
SOLID
 70
     1
 71
     0
 91
        1
 92
        1
 93
        3
 72
     1
 10
199.9746613588331
 20
137.0505172441386
 11
198.9746613501408
 21
137.0505172441386
 72
     1
 10
198.9746613501408
 20
137.0505172441386
 11
199.4746613544869
 21
134.0505172180615
 72
     1
 10
199.4746613544869
 20
134.0505172180615
 11
199.9746613588331
 21
137.0505172441386
 97
        0
 75
     0
 76
     1
 98
        0
  0
HATCH
  5
ED
330
EB
100
AcDbEntity
  8
Default
  6
Continuous
 62
     7
100
AcDbHatch
 10
0.0
 20
0.0
 30
0.0
210
0.0
220
0.0
230
1.0
  2
SOLID
 70
     1
 71
     0
 91
        1
 92
        1
 93
        3
 72
     1
 10
199.9746613588331
 20
145.0483970026158
 11
199.4746613544869
 21
148.0483970286928
 72
     1
 10
199.4746613544869
 20
148.0483970286928
 11
198.9746613501408
 21
145.0483970026158
 72
     1
 10
198.9746613501408
 20
145.0483970026158
 11
199.9746613588331
 21
145.0483970026158
 97
        0
 75
     0
 76
     1
 98
        0
  0
LINE
  5
EE
330
EB
100
AcDbEntity
  8
Default
  6
Continuous
 62
     7
100
AcDbLine
 10
187.5615741355
 20
134.0505172181
 30
0.0
 11
200.9746613675
 21
134.0505172181
 31
0.0
  0
LINE
  5
EF
330
EB
100
AcDbEntity
  8
Default
  6
Continuous
 62
     7
100
AcDbLine
 10
187.5615741355
 20
148.048396836
 30
0.0
 11
200.9746613675
 21
148.048396836
 31
0.0
  0
LINE
  5
F0
330
EB
100
AcDbEntity
  8
Default
  6
Continuous
 62
     7
100
AcDbLine
 10
199.4746613545
 20
134.0505172181
 30
0.0
 11
199.4746613545
 21
148.0483970287
 31
0.0
  0
TEXT
  5
F1
330
EB
100
AcDbEntity
  8
Default
  6
Continuous
 62
     7
100
AcDbText
 10
198.7246613545
 20
139.5494571234
 30
0.0
 40
3.0
  1
14
 50
90.0
  7
SEACAD_seiso_ttf
 11
195.7246613545
 21
139.5494571234
 31
0.0
100
AcDbText
 73
     3
  0
ENDBLK
  5
F3
330
EB
100
AcDbEntity
  8
0
100
AcDbBlockEnd
  0
BLOCK
  5
FC
330
F5
100
AcDbEntity
  8
0
100
AcDbBlockBegin
  2
DMBLK161
 70
     0
 10
0.0
 20
0.0
 30
0.0
  3
DMBLK161
  1

  0
HATCH
  5
F6
330
F5
100
AcDbEntity
  8
Default
  6
Continuous
 62
     7
100
AcDbHatch
 10
0.0
 20
0.0
 30
0.0
210
0.0
220
0.0
230
1.0
  2
SOLID
 70
     1
 71
     0
 91
        1
 92
        1
 93
        3
 72
     1
 10
63.70782718051453
 20
137.0505172441386
 11
64.2078271848607
 21
134.0505172180615
 72
     1
 10
64.2078271848607
 20
134.0505172180615
 11
64.70782718920688
 21
137.0505172441386
 72
     1
 10
64.70782718920688
 20
137.0505172441386
 11
63.70782718051453
 21
137.0505172441386
 97
        0
 75
     0
 76
     1
 98
        0
  0
HATCH
  5
F7
330
F5
100
AcDbEntity
  8
Default
  6
Continuous
 62
     7
100
AcDbHatch
 10
0.0
 20
0.0
 30
0.0
210
0.0
220
0.0
230
1.0
  2
SOLID
 70
     1
 71
     0
 91
        1
 92
        1
 93
        3
 72
     1
 10
63.70782718051453
 20
182.9497044588111
 11
64.70782718920688
 21
182.9497044588111
 72
     1
 10
64.70782718920688
 20
182.9497044588111
 11
64.2078271848607
 21
185.9497044848882
 72
     1
 10
64.2078271848607
 20
185.9497044848882
 11
63.70782718051453
 21
182.9497044588111
 97
        0
 75
     0
 76
     1
 98
        0
  0
LINE
  5
F8
330
F5
100
AcDbEntity
  8
Default
  6
Continuous
 62
     7
100
AcDbLine
 10
98.0615741355
 20
134.0505172181
 30
0.0
 11
62.7078271718
 21
134.0505172181
 31
0.0
  0
LINE
  5
F9
330
F5
100
AcDbEntity
  8
Default
  6
Continuous
 62
     7
100
AcDbLine
 10
98.0615741355
 20
185.9497059678
 30
0.0
 11
62.7078271718
 21
185.9497059678
 31
0.0
  0
LINE
  5
FA
330
F5
100
AcDbEntity
  8
Default
  6
Continuous
 62
     7
100
AcDbLine
 10
64.2078271849
 20
134.0505172181
 30
0.0
 11
64.2078271849
 21
185.9497044849
 31
0.0
  0
TEXT
  5
FB
330
F5
100
AcDbEntity
  8
Default
  6
Continuous
 62
     7
100
AcDbText
 10
63.4578271849
 20
158.2273835787
 30
0.0
 40
3.0
  1
52
 50
90.0
  7
SEACAD_seiso_ttf
 11
60.4578271849
 21
158.2273835787
 31
0.0
100
AcDbText
 73
     3
  0
ENDBLK
  5
FD
330
F5
100
AcDbEntity
  8
0
100
AcDbBlockEnd
  0
BLOCK
  5
106
330
FF
100
AcDbEntity
  8
0
100
AcDbBlockBegin
  2
DMBLK162
 70
     0
 10
0.0
 20
0.0
 30
0.0
  3
DMBLK162
  1

  0
HATCH
  5
100
330
FF
100
AcDbEntity
  8
Default
  6
Continuous
 62
     7
100
AcDbHatch
 10
0.0
 20
0.0
 30
0.0
210
0.0
220
0.0
230
1.0
  2
SOLID
 70
     1
 71
     0
 91
        1
 92
        1
 93
        3
 72
     1
 10
63.70782718051441
 20
182.9497059417236
 11
64.70782718920677
 21
182.9497059417236
 72
     1
 10
64.70782718920677
 20
182.9497059417236
 11
64.20782718486059
 21
185.9497059678007
 72
     1
 10
64.20782718486059
 20
185.9497059678007
 11
63.70782718051441
 21
182.9497059417236
 97
        0
 75
     0
 76
     1
 98
        0
  0
HATCH
  5
101
330
FF
100
AcDbEntity
  8
Default
  6
Continuous
 62
     7
100
AcDbHatch
 10
0.0
 20
0.0
 30
0.0
210
0.0
220
0.0
230
1.0
  2
SOLID
 70
     1
 71
     0
 91
        1
 92
        1
 93
        3
 72
     1
 10
63.70782718051441
 20
197.4497059938777
 11
64.20782718486059
 21
194.4497059678006
 72
     1
 10
64.20782718486059
 20
194.4497059678006
 11
64.70782718920677
 21
197.4497059938777
 72
     1
 10
64.70782718920677
 20
197.4497059938777
 11
63.70782718051441
 21
197.4497059938777
 97
        0
 75
     0
 76
     1
 98
        0
  0
LINE
  5
102
330
FF
100
AcDbEntity
  8
Default
  6
Continuous
 62
     7
100
AcDbLine
 10
98.0615741355
 20
185.9497059678
 30
0.0
 11
62.7078271718
 21
185.9497059678
 31
0.0
  0
LINE
  5
103
330
FF
100
AcDbEntity
  8
Default
  6
Continuous
 62
     7
100
AcDbLine
 10
79.3615741355
 20
194.4497059678
 30
0.0
 11
62.7078271718
 21
194.4497059678
 31
0.0
  0
LINE
  5
104
330
FF
100
AcDbEntity
  8
Default
  6
Continuous
 62
     7
100
AcDbLine
 10
64.2078271849
 20
179.9497059156
 30
0.0
 11
64.2078271849
 21
200.4497055506
 31
0.0
  0
TEXT
  5
105
330
FF
100
AcDbEntity
  8
Default
  6
Continuous
 62
     7
100
AcDbText
 10
63.4578271849
 20
188.1201607442
 30
0.0
 40
3.0
  1
8,5
 50
90.0
  7
SEACAD_seiso_ttf
 11
60.4578271849
 21
188.1201607442
 31
0.0
100
AcDbText
 73
     3
  0
ENDBLK
  5
107
330
FF
100
AcDbEntity
  8
0
100
AcDbBlockEnd
  0
ENDSEC
  0
SECTION
  2
ENTITIES
  0
INSERT
  5
5F
330
1F
100
AcDbEntity
  8
Default
100
AcDbBlockReference
  2
SEANNOT_GROUP
 10
0.0
 20
0.0
 30
0.0
  0
INSERT
  5
65
330
1F
100
AcDbEntity
  8
0
100
AcDbBlockReference
  2
SE
 10
0.0
 20
0.0
 30
0.0
  0
DIMENSION
  5
9A
330
1F
100
AcDbEntity
  8
Default
  6
Continuous
 62
     7
100
AcDbDimension
  2
DMBLK155
 10
83.0615741355
 20
200.580181053
 30
0.0
 11
87.0615743255
 21
200.580181053
 31
0.0
 70
   161
  1
\A1;{\Fsemeca1.ttf;q} <>
 71
     5
 42
-1.0
  3
DIN
100
AcDbAlignedDimension
 13
83.0615741355
 23
194.4497059678
 33
0.0
 14
91.0615741355
 24
194.4497059678
 34
0.0
  0
DIMENSION
  5
A6
330
1F
100
AcDbEntity
  8
Default
  6
Continuous
 62
     7
100
AcDbDimension
  2
DMBLK156
 10
79.0615741355
 20
209.1078510647
 30
0.0
 11
87.0615745155
 21
209.1078510647
 31
0.0
 70
   161
  1
\A1;%%C <>
 71
     5
 42
-1.0
  3
DIN
100
AcDbAlignedDimension
 13
79.0615741355
 23
194.1497059678
 33
0.0
 14
95.0615741355
 24
194.1497059678
 34
0.0
  0
DIMENSION
  5
B1
330
1F
100
AcDbEntity
  8
Default
  6
Continuous
 62
     7
100
AcDbDimension
  2
DMBLK157
 10
76.0615741355
 20
217.1107870137
 30
0.0
 11
87.0615741951
 21
217.1107870137
 31
0.0
 70
   160
  1
\A1;%%C <>
 71
     5
 42
-1.0
  3
DIN
100
AcDbAlignedDimension
 13
98.0615741355
 23
185.9497059678
 33
0.0
 14
76.0615741355
 24
185.9497059678
 34
0.0
100
AcDbRotatedDimension
  0
INSERT
  5
BD
330
1F
100
AcDbEntity
  8
Default
100
AcDbBlockReference
  2
SE1
 10
0.0
 20
0.0
 30
0.0
  0
DIMENSION
  5
D6
330
1F
100
AcDbEntity
  8
Default
  6
Continuous
 62
     7
100
AcDbDimension
  2
DMBLK158
 10
19.2565220306
 20
122.8417014336
 30
0.0
 11
30.2557731877
 21
122.8417014336
 31
0.0
 70
   161
  1
\A1;<>
 71
     5
 42
-1.0
  3
DIN
100
AcDbAlignedDimension
 13
19.2565220306
 23
141.0497059678
 33
0.0
 14
41.2550240818
 24
141.0497059678
 34
0.0
  0
DIMENSION
  5
E0
330
1F
100
AcDbEntity
  8
Default
  6
Continuous
 62
     7
100
AcDbDimension
  2
DMBLK159
 10
189.0615741355
 20
123.6032809547
 30
0.0
 11
132.561573152
 21
123.6032809547
 31
0.0
 70
   160
  1
\A1;<>
 71
     5
 42
-1.0
  3
DIN
100
AcDbAlignedDimension
 13
76.0615741355
 23
177.4226914576
 33
0.0
 14
189.0615741355
 24
145.2041641908
 34
0.0
100
AcDbRotatedDimension
  0
DIMENSION
  5
EA
330
1F
100
AcDbEntity
  8
Default
  6
Continuous
 62
     7
100
AcDbDimension
  2
DMBLK160
 10
199.4746613545
 20
134.0505172181
 30
0.0
 11
199.4746613545
 21
141.0494571234
 31
0.0
 70
   161
  1
\A1;<>
 71
     5
 42
-1.0
  3
DIN
100
AcDbAlignedDimension
 13
187.5615741355
 23
134.0505172181
 33
0.0
 14
187.5615741355
 24
148.048396836
 34
0.0
  0
DIMENSION
  5
F4
330
1F
100
AcDbEntity
  8
Default
  6
Continuous
 62
     7
100
AcDbDimension
  2
DMBLK161
 10
64.2078271849
 20
134.0505172181
 30
0.0
 11
64.2078271849
 21
160.0001108515
 31
0.0
 70
   161
  1
\A1;<>
 71
     5
 42
-1.0
  3
DIN
100
AcDbAlignedDimension
 13
98.0615741355
 23
134.0505172181
 33
0.0
 14
98.0615741355
 24
185.9497059678
 34
0.0
1001
ACAD
1000
DSTYLE
1002
{
1070
   271
1070
     0
1070
   272
1070
     0
1070
     0
1002
}
  0
DIMENSION
  5
FE
330
1F
100
AcDbEntity
  8
Default
  6
Continuous
 62
     7
100
AcDbDimension
  2
DMBLK162
 10
64.2078271849
 20
194.4497059678
 30
0.0
 11
64.2078271849
 21
190.1997061988
 31
0.0
 70
   160
  1
\A1;<>
 71
     5
 42
-1.0
  3
DIN
100
AcDbAlignedDimension
 13
98.0615741355
 23
185.9497059678
 33
0.0
 14
79.3615741355
 24
194.4497059678
 34
0.0
 50
90.0
100
AcDbRotatedDimension
  0
ENDSEC
  0
SECTION
  2
OBJECTS
  0
DICTIONARY
  5
C
330
0
100
AcDbDictionary
281
     1
  3
ACAD_GROUP
350
D
  3
ACAD_LAYOUT
350
1A
  3
ACAD_MLEADERSTYLE
350
10B
  3
ACAD_MLINESTYLE
350
17
  3
ACAD_PLOTSETTINGS
350
19
  3
ACAD_PLOTSTYLENAME
350
E
  3
ACAD_SCALELIST
350
3B
  3
ACAD_TABLESTYLE
350
10A
  3
ACAD_VISUALSTYLE
350
2A
  3
AcDbVariableDictionary
350
108
  0
DICTIONARY
  5
D
102
{ACAD_REACTORS
330
C
102
}
330
C
100
AcDbDictionary
281
     1
  0
DICTIONARY
  5
1A
102
{ACAD_REACTORS
330
C
102
}
330
C
100
AcDbDictionary
281
     1
  3
Layout1
350
1E
  3
Model
350
22
  0
DICTIONARY
  5
10B
102
{ACAD_REACTORS
330
C
102
}
330
C
100
AcDbDictionary
281
     1
  0
DICTIONARY
  5
17
102
{ACAD_REACTORS
330
C
102
}
330
C
100
AcDbDictionary
281
     1
  3
Standard
350
18
  0
DICTIONARY
  5
19
102
{ACAD_REACTORS
330
C
102
}
330
C
100
AcDbDictionary
281
     1
  0
ACDBDICTIONARYWDFLT
  5
E
102
{ACAD_REACTORS
330
C
102
}
330
C
100
AcDbDictionary
281
     1
  3
Normal
350
F
100
AcDbDictionaryWithDefault
340
F
  0
DICTIONARY
  5
3B
102
{ACAD_REACTORS
330
C
102
}
330
C
100
AcDbDictionary
281
     1
  3
A0
350
3C
  3
A1
350
3D
  3
A2
350
3E
  3
A3
350
3F
  3
A4
350
40
  3
A5
350
41
  3
A6
350
42
  3
A7
350
43
  3
A8
350
44
  3
A9
350
45
  3
B0
350
46
  3
B1
350
47
  3
B2
350
48
  3
B3
350
49
  3
B4
350
4A
  3
B5
350
4B
  3
B6
350
4C
  3
B7
350
4D
  3
B8
350
4E
  3
B9
350
4F
  3
C0
350
50
  3
C1
350
51
  3
C2
350
52
  3
C3
350
53
  3
C4
350
54
  3
C5
350
55
  3
C6
350
56
  3
C7
350
57
  3
C8
350
58
  3
C9
350
59
  3
D0
350
5A
  3
D1
350
5B
  3
D2
350
5C
  0
DICTIONARY
  5
10A
102
{ACAD_REACTORS
330
C
102
}
330
C
100
AcDbDictionary
281
     1
  0
DICTIONARY
  5
2A
102
{ACAD_REACTORS
330
C
102
}
330
C
100
AcDbDictionary
281
     1
  3
2dWireframe
350
2F
  3
3D Hidden
350
31
  3
3dWireframe
350
30
  3
Basic
350
32
  3
Brighten
350
36
  3
ColorChange
350
3A
  3
Conceptual
350
34
  3
Dim
350
35
  3
Facepattern
350
39
  3
Flat
350
2B
  3
FlatWithEdges
350
2C
  3
Gouraud
350
2D
  3
GouraudWithEdges
350
2E
  3
Linepattern
350
38
  3
Realistic
350
33
  3
Thicken
350
37
  0
DICTIONARY
  5
108
102
{ACAD_REACTORS
330
C
102
}
330
C
100
AcDbDictionary
281
     1
  3
CANNOSCALE
350
109
  3
PSOLHEIGHT
350
10D
  3
PSOLWIDTH
350
10C
  0
LAYOUT
  5
1E
102
{ACAD_REACTORS
330
1A
102
}
330
1A
100
AcDbPlotSettings
  1

  2
none_device
  4

  6

 40
0.0
 41
0.0
 42
0.0
 43
0.0
 44
0.0
 45
0.0
 46
0.0
 47
0.0
 48
0.0
 49
0.0
140
0.0
141
0.0
142
1.0
143
1.0
 70
   688
 72
     0
 73
     0
 74
     5
  7

 75
    16
147
1.0
148
0.0
149
0.0
100
AcDbLayout
  1
Layout1
 70
     1
 71
     1
 10
0.0
 20
0.0
 11
210.0
 21
297.0
 12
0.0
 22
0.0
 32
0.0
 14
0.0
 24
0.0
 34
0.0
 15
210.0
 25
297.0
 35
0.0
146
0.0
 13
0.0
 23
0.0
 33
0.0
 16
1.0
 26
0.0
 36
0.0
 17
0.0
 27
1.0
 37
0.0
 76
     0
330
1B
  0
LAYOUT
  5
22
102
{ACAD_REACTORS
330
1A
102
}
330
1A
100
AcDbPlotSettings
  1

  2
none_device
  4

  6

 40
0.0
 41
0.0
 42
0.0
 43
0.0
 44
0.0
 45
0.0
 46
0.0
 47
0.0
 48
0.0
 49
0.0
140
0.0
141
0.0
142
1.0
143
1.0
 70
  1712
 72
     0
 73
     0
 74
     0
  7

 75
     0
147
1.0
148
0.0
149
0.0
100
AcDbLayout
  1
Model
 70
     1
 71
     0
 10
0.0
 20
0.0
 11
210.0
 21
297.0
 12
0.0
 22
0.0
 32
0.0
 14
0.0
 24
0.0
 34
0.0
 15
210.0
 25
297.0
 35
0.0
146
0.0
 13
0.0
 23
0.0
 33
0.0
 16
1.0
 26
0.0
 36
0.0
 17
0.0
 27
1.0
 37
0.0
 76
     0
330
1F
331
29
  0
MLINESTYLE
  5
18
102
{ACAD_REACTORS
330
17
102
}
330
17
100
AcDbMlineStyle
  2
Standard
 70
     0
  3

 62
   256
 51
90.0
 52
90.0
 71
     2
 49
0.5
 62
   256
  6
BYLAYER
 49
-0.5
 62
   256
  6
BYLAYER
  0
ACDBPLACEHOLDER
  5
F
102
{ACAD_REACTORS
330
E
102
}
330
E
  0
SCALE
  5
3C
102
{ACAD_REACTORS
330
3B
102
}
330
3B
100
AcDbScale
 70
     0
300
1:1
140
1.0
141
1.0
290
     1
  0
SCALE
  5
3D
102
{ACAD_REACTORS
330
3B
102
}
330
3B
100
AcDbScale
 70
     0
300
1:2
140
1.0
141
2.0
290
     0
  0
SCALE
  5
3E
102
{ACAD_REACTORS
330
3B
102
}
330
3B
100
AcDbScale
 70
     0
300
1:4
140
1.0
141
4.0
290
     0
  0
SCALE
  5
3F
102
{ACAD_REACTORS
330
3B
102
}
330
3B
100
AcDbScale
 70
     0
300
1:5
140
1.0
141
5.0
290
     0
  0
SCALE
  5
40
102
{ACAD_REACTORS
330
3B
102
}
330
3B
100
AcDbScale
 70
     0
300
1:8
140
1.0
141
8.0
290
     0
  0
SCALE
  5
41
102
{ACAD_REACTORS
330
3B
102
}
330
3B
100
AcDbScale
 70
     0
300
1:10
140
1.0
141
10.0
290
     0
  0
SCALE
  5
42
102
{ACAD_REACTORS
330
3B
102
}
330
3B
100
AcDbScale
 70
     0
300
1:16
140
1.0
141
16.0
290
     0
  0
SCALE
  5
43
102
{ACAD_REACTORS
330
3B
102
}
330
3B
100
AcDbScale
 70
     0
300
1:20
140
1.0
141
20.0
290
     0
  0
SCALE
  5
44
102
{ACAD_REACTORS
330
3B
102
}
330
3B
100
AcDbScale
 70
     0
300
1:30
140
1.0
141
30.0
290
     0
  0
SCALE
  5
45
102
{ACAD_REACTORS
330
3B
102
}
330
3B
100
AcDbScale
 70
     0
300
1:40
140
1.0
141
40.0
290
     0
  0
SCALE
  5
46
102
{ACAD_REACTORS
330
3B
102
}
330
3B
100
AcDbScale
 70
     0
300
1:50
140
1.0
141
50.0
290
     0
  0
SCALE
  5
47
102
{ACAD_REACTORS
330
3B
102
}
330
3B
100
AcDbScale
 70
     0
300
1:100
140
1.0
141
100.0
290
     0
  0
SCALE
  5
48
102
{ACAD_REACTORS
330
3B
102
}
330
3B
100
AcDbScale
 70
     0
300
2:1
140
2.0
141
1.0
290
     0
  0
SCALE
  5
49
102
{ACAD_REACTORS
330
3B
102
}
330
3B
100
AcDbScale
 70
     0
300
4:1
140
4.0
141
1.0
290
     0
  0
SCALE
  5
4A
102
{ACAD_REACTORS
330
3B
102
}
330
3B
100
AcDbScale
 70
     0
300
8:1
140
8.0
141
1.0
290
     0
  0
SCALE
  5
4B
102
{ACAD_REACTORS
330
3B
102
}
330
3B
100
AcDbScale
 70
     0
300
10:1
140
10.0
141
1.0
290
     0
  0
SCALE
  5
4C
102
{ACAD_REACTORS
330
3B
102
}
330
3B
100
AcDbScale
 70
     0
300
100:1
140
100.0
141
1.0
290
     0
  0
SCALE
  5
4D
102
{ACAD_REACTORS
330
3B
102
}
330
3B
100
AcDbScale
 70
     0
300
1/128" = 1'-0"
140
0.0078125
141
12.0
290
     0
  0
SCALE
  5
4E
102
{ACAD_REACTORS
330
3B
102
}
330
3B
100
AcDbScale
 70
     0
300
1/64" = 1'-0"
140
0.015625
141
12.0
290
     0
  0
SCALE
  5
4F
102
{ACAD_REACTORS
330
3B
102
}
330
3B
100
AcDbScale
 70
     0
300
1/32" = 1'-0"
140
0.03125
141
12.0
290
     0
  0
SCALE
  5
50
102
{ACAD_REACTORS
330
3B
102
}
330
3B
100
AcDbScale
 70
     0
300
1/16" = 1'-0"
140
0.0625
141
12.0
290
     0
  0
SCALE
  5
51
102
{ACAD_REACTORS
330
3B
102
}
330
3B
100
AcDbScale
 70
     0
300
3/32" = 1'-0"
140
0.09375
141
12.0
290
     0
  0
SCALE
  5
52
102
{ACAD_REACTORS
330
3B
102
}
330
3B
100
AcDbScale
 70
     0
300
1/8" = 1'-0"
140
0.125
141
12.0
290
     0
  0
SCALE
  5
53
102
{ACAD_REACTORS
330
3B
102
}
330
3B
100
AcDbScale
 70
     0
300
3/16" = 1'-0"
140
0.1875
141
12.0
290
     0
  0
SCALE
  5
54
102
{ACAD_REACTORS
330
3B
102
}
330
3B
100
AcDbScale
 70
     0
300
1/4" = 1'-0"
140
0.25
141
12.0
290
     0
  0
SCALE
  5
55
102
{ACAD_REACTORS
330
3B
102
}
330
3B
100
AcDbScale
 70
     0
300
3/8" = 1'-0"
140
0.375
141
12.0
290
     0
  0
SCALE
  5
56
102
{ACAD_REACTORS
330
3B
102
}
330
3B
100
AcDbScale
 70
     0
300
1/2" = 1'-0"
140
0.5
141
12.0
290
     0
  0
SCALE
  5
57
102
{ACAD_REACTORS
330
3B
102
}
330
3B
100
AcDbScale
 70
     0
300
3/4" = 1'-0"
140
0.75
141
12.0
290
     0
  0
SCALE
  5
58
102
{ACAD_REACTORS
330
3B
102
}
330
3B
100
AcDbScale
 70
     0
300
1" = 1'-0"
140
1.0
141
12.0
290
     0
  0
SCALE
  5
59
102
{ACAD_REACTORS
330
3B
102
}
330
3B
100
AcDbScale
 70
     0
300
1-1/2" = 1'-0"
140
1.5
141
12.0
290
     0
  0
SCALE
  5
5A
102
{ACAD_REACTORS
330
3B
102
}
330
3B
100
AcDbScale
 70
     0
300
3" = 1'-0"
140
3.0
141
12.0
290
     0
  0
SCALE
  5
5B
102
{ACAD_REACTORS
330
3B
102
}
330
3B
100
AcDbScale
 70
     0
300
6" = 1'-0"
140
6.0
141
12.0
290
     0
  0
SCALE
  5
5C
102
{ACAD_REACTORS
330
3B
102
}
330
3B
100
AcDbScale
 70
     0
300
1'-0" = 1'-0"
140
12.0
141
12.0
290
     0
  0
VISUALSTYLE
  5
2F
102
{ACAD_REACTORS
330
2A
102
}
330
2A
100
AcDbVisualStyle
  2
2dWireframe
 70
     4
 71
     0
 72
     2
 73
     0
 90
        0
 40
-0.6
 41
-30.0
 62
     5
 63
     7
 74
     1
 91
        4
 64
     7
 65
   257
 75
     1
175
     1
 42
1.0
 92
        0
 66
   257
 43
1.0
 76
     1
 77
     6
 78
     2
 67
     7
 79
     5
170
     0
171
     0
290
     0
174
     0
 93
        1
 44
0.0
173
     0
291
     0
 45
0.0
1001
ACAD
1000
AcDbSavedByObjectVersion
1070
     0
  0
VISUALSTYLE
  5
31
102
{ACAD_REACTORS
330
2A
102
}
330
2A
100
AcDbVisualStyle
  2
3D Hidden
 70
     6
 71
     1
 72
     2
 73
     2
 90
        0
 40
-0.6
 41
-30.0
 62
     5
 63
     7
 74
     2
 91
        2
 64
     7
 65
   257
 75
     2
175
     1
 42
40.0
 92
        0
 66
   257
 43
1.0
 76
     1
 77
     6
 78
     2
 67
     7
 79
     3
170
     0
171
     0
290
     0
174
     0
 93
        1
 44
0.0
173
     0
291
     0
 45
0.0
1001
ACAD
1000
AcDbSavedByObjectVersion
1070
     0
  0
VISUALSTYLE
  5
30
102
{ACAD_REACTORS
330
2A
102
}
330
2A
100
AcDbVisualStyle
  2
3dWireframe
 70
     5
 71
     0
 72
     2
 73
     0
 90
        0
 40
-0.6
 41
-30.0
 62
     5
 63
     7
 74
     1
 91
        4
 64
     7
 65
   257
 75
     1
175
     1
 42
1.0
 92
        0
 66
   257
 43
1.0
 76
     1
 77
     6
 78
     2
 67
     7
 79
     5
170
     0
171
     0
290
     0
174
     0
 93
        1
 44
0.0
173
     0
291
     0
 45
0.0
1001
ACAD
1000
AcDbSavedByObjectVersion
1070
     0
  0
VISUALSTYLE
  5
32
102
{ACAD_REACTORS
330
2A
102
}
330
2A
100
AcDbVisualStyle
  2
Basic
 70
     7
 71
     1
 72
     0
 73
     1
 90
        0
 40
-0.6
 41
-30.0
 62
     5
 63
     7
 74
     0
 91
        4
 64
     7
 65
   257
 75
     1
175
     1
 42
1.0
 92
        8
 66
     7
 43
1.0
 76
     1
 77
     6
 78
     2
 67
     7
 79
     5
170
     0
171
     0
290
     0
174
     0
 93
        1
 44
0.0
173
     0
291
     1
 45
0.0
1001
ACAD
1000
AcDbSavedByObjectVersion
1070
     0
  0
VISUALSTYLE
  5
36
102
{ACAD_REACTORS
330
2A
102
}
330
2A
100
AcDbVisualStyle
  2
Brighten
 70
    12
 71
     2
 72
     2
 73
     0
 90
        0
 40
-0.6
 41
-30.0
 62
     5
 63
     7
 74
     1
 91
        4
 64
     7
 65
   257
 75
     1
175
     1
 42
1.0
 92
        8
 66
     7
 43
1.0
 76
     1
 77
     6
 78
     2
 67
     7
 79
     5
170
     0
171
     0
290
     0
174
     0
 93
        1
 44
50.0
173
     0
291
     1
 45
0.0
1001
ACAD
1000
AcDbSavedByObjectVersion
1070
     0
  0
VISUALSTYLE
  5
3A
102
{ACAD_REACTORS
330
2A
102
}
330
2A
100
AcDbVisualStyle
  2
ColorChange
 70
    16
 71
     2
 72
     2
 73
     3
 90
        0
 40
-0.6
 41
-30.0
 62
     5
 63
     8
 74
     1
 91
        4
 64
     7
 65
   257
 75
     1
175
     1
 42
1.0
 92
        8
 66
     8
 43
1.0
 76
     1
 77
     6
 78
     2
 67
     7
 79
     5
170
     0
171
     0
290
     0
174
     0
 93
        1
 44
0.0
173
     0
291
     1
 45
0.0
1001
ACAD
1000
AcDbSavedByObjectVersion
1070
     0
  0
VISUALSTYLE
  5
34
102
{ACAD_REACTORS
330
2A
102
}
330
2A
100
AcDbVisualStyle
  2
Conceptual
 70
     9
 71
     3
 72
     2
 73
     0
 90
        0
 40
-0.6
 41
-30.0
 62
     5
 63
     7
 74
     2
 91
        2
 64
     7
 65
   257
 75
     1
175
     1
 42
40.0
 92
        8
 66
     7
 43
1.0
 76
     1
 77
     6
 78
     2
 67
     7
 79
     3
170
     0
171
     0
290
     0
174
     0
 93
        1
 44
0.0
173
     0
291
     0
 45
0.0
1001
ACAD
1000
AcDbSavedByObjectVersion
1070
     0
  0
VISUALSTYLE
  5
35
102
{ACAD_REACTORS
330
2A
102
}
330
2A
100
AcDbVisualStyle
  2
Dim
 70
    11
 71
     2
 72
     2
 73
     0
 90
        0
 40
-0.6
 41
-30.0
 62
     5
 63
     7
 74
     1
 91
        4
 64
     7
 65
   257
 75
     1
175
     1
 42
1.0
 92
        8
 66
     7
 43
1.0
 76
     1
 77
     6
 78
     2
 67
     7
 79
     5
170
     0
171
     0
290
     0
174
     0
 93
        1
 44
-50.0
173
     0
291
     1
 45
0.0
1001
ACAD
1000
AcDbSavedByObjectVersion
1070
     0
  0
VISUALSTYLE
  5
39
102
{ACAD_REACTORS
330
2A
102
}
330
2A
100
AcDbVisualStyle
  2
Facepattern
 70
    15
 71
     2
 72
     2
 73
     0
 90
        0
 40
-0.6
 41
-30.0
 62
     5
 63
     7
 74
     1
 91
        4
 64
     7
 65
   257
 75
     1
175
     1
 42
1.0
 92
        8
 66
     7
 43
1.0
 76
     1
 77
     6
 78
     2
 67
     7
 79
     5
170
     0
171
     0
290
     0
174
     0
 93
        1
 44
0.0
173
     0
291
     1
 45
0.0
1001
ACAD
1000
AcDbSavedByObjectVersion
1070
     0
  0
VISUALSTYLE
  5
2B
102
{ACAD_REACTORS
330
2A
102
}
330
2A
100
AcDbVisualStyle
  2
Flat
 70
     0
 71
     2
 72
     1
 73
     1
 90
        2
 40
-0.6
 41
30.0
 62
     5
 63
     7
 74
     0
 91
        4
 64
     7
 65
   257
 75
     1
175
     1
 42
1.0
 92
        8
 66
     7
 43
1.0
 76
     1
 77
     6
 78
     2
 67
     7
 79
     5
170
     0
171
     0
290
     0
174
     0
 93
       13
 44
0.0
173
     0
291
     1
 45
0.0
1001
ACAD
1000
AcDbSavedByObjectVersion
1070
     0
  0
VISUALSTYLE
  5
2C
102
{ACAD_REACTORS
330
2A
102
}
330
2A
100
AcDbVisualStyle
  2
FlatWithEdges
 70
     1
 71
     2
 72
     1
 73
     1
 90
        2
 40
-0.6
 41
30.0
 62
     5
 63
     7
 74
     1
 91
        4
 64
     7
 65
   257
 75
     1
175
     1
 42
1.0
 92
        0
 66
   257
 43
1.0
 76
     1
 77
     6
 78
     2
 67
     7
 79
     5
170
     0
171
     0
290
     0
174
     0
 93
       13
 44
0.0
173
     0
291
     1
 45
0.0
1001
ACAD
1000
AcDbSavedByObjectVersion
1070
     0
  0
VISUALSTYLE
  5
2D
102
{ACAD_REACTORS
330
2A
102
}
330
2A
100
AcDbVisualStyle
  2
Gouraud
 70
     2
 71
     2
 72
     2
 73
     1
 90
        2
 40
-0.6
 41
30.0
 62
     5
 63
     7
 74
     0
 91
        4
 64
     7
 65
   257
 75
     1
175
     1
 42
1.0
 92
        0
 66
     7
 43
1.0
 76
     1
 77
     6
 78
     2
 67
     7
 79
     5
170
     0
171
     0
290
     0
174
     0
 93
       13
 44
0.0
173
     0
291
     1
 45
0.0
1001
ACAD
1000
AcDbSavedByObjectVersion
1070
     0
  0
VISUALSTYLE
  5
2E
102
{ACAD_REACTORS
330
2A
102
}
330
2A
100
AcDbVisualStyle
  2
GouraudWithEdges
 70
     3
 71
     2
 72
     2
 73
     1
 90
        2
 40
-0.6
 41
30.0
 62
     5
 63
     7
 74
     1
 91
        4
 64
     7
 65
   257
 75
     1
175
     1
 42
1.0
 92
        0
 66
   257
 43
1.0
 76
     1
 77
     6
 78
     2
 67
     7
 79
     5
170
     0
171
     0
290
     0
174
     0
 93
       13
 44
0.0
173
     0
291
     1
 45
0.0
1001
ACAD
1000
AcDbSavedByObjectVersion
1070
     0
  0
VISUALSTYLE
  5
38
102
{ACAD_REACTORS
330
2A
102
}
330
2A
100
AcDbVisualStyle
  2
Linepattern
 70
    14
 71
     2
 72
     2
 73
     0
 90
        0
 40
-0.6
 41
-30.0
 62
     5
 63
     7
 74
     1
 91
        4
 64
     7
 65
   257
 75
     7
175
     7
 42
1.0
 92
        8
 66
     7
 43
1.0
 76
     1
 77
     6
 78
     2
 67
     7
 79
     5
170
     0
171
     0
290
     0
174
     0
 93
        1
 44
0.0
173
     0
291
     1
 45
0.0
1001
ACAD
1000
AcDbSavedByObjectVersion
1070
     0
  0
VISUALSTYLE
  5
33
102
{ACAD_REACTORS
330
2A
102
}
330
2A
100
AcDbVisualStyle
  2
Realistic
 70
     8
 71
     2
 72
     2
 73
     0
 90
        0
 40
-0.6
 41
-30.0
 62
     5
 63
     7
 74
     1
 91
        0
 64
     7
 65
   257
 75
     1
175
     1
 42
1.0
 92
        8
 66
     8
 43
1.0
 76
     1
 77
     6
 78
     2
 67
     7
 79
     5
170
     0
171
     0
290
     0
174
     0
 93
       13
 44
0.0
173
     0
291
     0
 45
0.0
1001
ACAD
1000
AcDbSavedByObjectVersion
1070
     0
  0
VISUALSTYLE
  5
37
102
{ACAD_REACTORS
330
2A
102
}
330
2A
100
AcDbVisualStyle
  2
Thicken
 70
    13
 71
     2
 72
     2
 73
     0
 90
        0
 40
-0.6
 41
-30.0
 62
     5
 63
     7
 74
     1
 91
        4
 64
     7
 65
   257
 75
     1
175
     1
 42
1.0
 92
       12
 66
     7
 43
1.0
 76
     1
 77
     6
 78
     2
 67
     7
 79
     5
170
     0
171
     0
290
     0
174
     0
 93
        1
 44
0.0
173
     0
291
     1
 45
0.0
1001
ACAD
1000
AcDbSavedByObjectVersion
1070
     0
  0
DICTIONARYVAR
  5
109
102
{ACAD_REACTORS
330
108
102
}
330
108
100
DictionaryVariables
280
     0
  1
1:1
  0
DICTIONARYVAR
  5
10D
102
{ACAD_REACTORS
330
108
102
}
330
108
100
DictionaryVariables
280
     0
  1
80.000000
  0
DICTIONARYVAR
  5
10C
102
{ACAD_REACTORS
330
108
102
}
330
108
100
DictionaryVariables
280
     0
  1
5.000000
  0
ENDSEC
  0
EOF
