  0
SECTION
  2
HEADER
  9
$ACADVER
  1
AC1015
  9
$ACADMAINTVER
 70
     6
  9
$DWGCODEPAGE
  3
ANSI_1252
  9
$INSBASE
 10
0.0
 20
0.0
 30
0.0
  9
$EXTMIN
 10
0.0
 20
0.0
 30
0.0
  9
$EXTMAX
 10
210.0
 20
297.0
 30
0.0
  9
$LIMMIN
 10
0.0
 20
0.0
  9
$LIMMAX
 10
210.0
 20
297.0
  9
$ORTHOMODE
 70
     0
  9
$REGENMODE
 70
     1
  9
$FILLMODE
 70
     1
  9
$QTEXTMODE
 70
     0
  9
$MIRRTEXT
 70
     1
  9
$LTSCALE
 40
1.0
  9
$ATTMODE
 70
     1
  9
$TEXTSIZE
 40
2.5
  9
$TRACEWID
 40
1.0
  9
$TEXTSTYLE
  7
Standard
  9
$CLAYER
  8
0
  9
$CELTYPE
  6
ByLayer
  9
$CECOLOR
 62
   256
  9
$CELTSCALE
 40
1.0
  9
$DISPSILH
 70
     0
  9
$DIMSCALE
 40
1.0
  9
$DIMASZ
 40
2.5
  9
$DIMEXO
 40
0.625
  9
$DIMDLI
 40
3.75
  9
$DIMRND
 40
0.0
  9
$DIMDLE
 40
0.0
  9
$DIMEXE
 40
1.25
  9
$DIMTP
 40
0.0
  9
$DIMTM
 40
0.0
  9
$DIMTXT
 40
2.5
  9
$DIMCEN
 40
2.5
  9
$DIMTSZ
 40
0.0
  9
$DIMTOL
 70
     0
  9
$DIMLIM
 70
     0
  9
$DIMTIH
 70
     0
  9
$DIMTOH
 70
     0
  9
$DIMSE1
 70
     0
  9
$DIMSE2
 70
     0
  9
$DIMTAD
 70
     1
  9
$DIMZIN
 70
     8
  9
$DIMBLK
  1

  9
$DIMASO
 70
     1
  9
$DIMSHO
 70
     1
  9
$DIMPOST
  1

  9
$DIMAPOST
  1

  9
$DIMALT
 70
     0
  9
$DIMALTD
 70
     3
  9
$DIMALTF
 40
0.0393700787
  9
$DIMLFAC
 40
1.0
  9
$DIMTOFL
 70
     1
  9
$DIMTVP
 40
0.0
  9
$DIMTIX
 70
     0
  9
$DIMSOXD
 70
     0
  9
$DIMSAH
 70
     0
  9
$DIMBLK1
  1

  9
$DIMBLK2
  1

  9
$DIMSTYLE
  2
ISO-25
  9
$DIMCLRD
 70
     0
  9
$DIMCLRE
 70
     0
  9
$DIMCLRT
 70
     0
  9
$DIMTFAC
 40
1.0
  9
$DIMGAP
 40
0.625
  9
$DIMJUST
 70
     0
  9
$DIMSD1
 70
     0
  9
$DIMSD2
 70
     0
  9
$DIMTOLJ
 70
     0
  9
$DIMTZIN
 70
     8
  9
$DIMALTZ
 70
     0
  9
$DIMALTTZ
 70
     0
  9
$DIMUPT
 70
     0
  9
$DIMDEC
 70
     2
  9
$DIMTDEC
 70
     2
  9
$DIMALTU
 70
     2
  9
$DIMALTTD
 70
     3
  9
$DIMTXSTY
  7
Standard
  9
$DIMAUNIT
 70
     0
  9
$DIMADEC
 70
     0
  9
$DIMALTRND
 40
0.0
  9
$DIMAZIN
 70
     0
  9
$DIMDSEP
 70
    44
  9
$DIMATFIT
 70
     3
  9
$DIMFRAC
 70
     0
  9
$DIMLDRBLK
  1

  9
$DIMLUNIT
 70
     2
  9
$DIMLWD
 70
    -2
  9
$DIMLWE
 70
    -2
  9
$DIMTMOVE
 70
     0
  9
$LUNITS
 70
     2
  9
$LUPREC
 70
     4
  9
$SKETCHINC
 40
1.0
  9
$FILLETRAD
 40
10.0
  9
$AUNITS
 70
     0
  9
$AUPREC
 70
     0
  9
$MENU
  1
.
  9
$ELEVATION
 40
0.0
  9
$PELEVATION
 40
0.0
  9
$THICKNESS
 40
0.0
  9
$LIMCHECK
 70
     0
  9
$CHAMFERA
 40
10.0
  9
$CHAMFERB
 40
10.0
  9
$CHAMFERC
 40
20.0
  9
$CHAMFERD
 40
0.0
  9
$SKPOLY
 70
     0
  9
$TDCREATE
 40
2455327.442119537
  9
$TDUCREATE
 40
2455327.358786204
  9
$TDUPDATE
 40
2455327.442119549
  9
$TDUUPDATE
 40
2455327.358786215
  9
$TDINDWG
 40
0.0000000116
  9
$TDUSRTIMER
 40
0.0000000116
  9
$USRTIMER
 70
     1
  9
$ANGBASE
 50
0.0
  9
$ANGDIR
 70
     0
  9
$PDMODE
 70
     0
  9
$PDSIZE
 40
0.0
  9
$PLINEWID
 40
0.0
  9
$SPLFRAME
 70
     0
  9
$SPLINETYPE
 70
     6
  9
$SPLINESEGS
 70
     8
  9
$HANDSEED
  5
F0
  9
$SURFTAB1
 70
     6
  9
$SURFTAB2
 70
     6
  9
$SURFTYPE
 70
     6
  9
$SURFU
 70
     6
  9
$SURFV
 70
     6
  9
$UCSBASE
  2

  9
$UCSNAME
  2

  9
$UCSORG
 10
0.0
 20
0.0
 30
0.0
  9
$UCSXDIR
 10
1.0
 20
0.0
 30
0.0
  9
$UCSYDIR
 10
0.0
 20
1.0
 30
0.0
  9
$UCSORTHOREF
  2

  9
$UCSORTHOVIEW
 70
     0
  9
$UCSORGTOP
 10
0.0
 20
0.0
 30
0.0
  9
$UCSORGBOTTOM
 10
0.0
 20
0.0
 30
0.0
  9
$UCSORGLEFT
 10
0.0
 20
0.0
 30
0.0
  9
$UCSORGRIGHT
 10
0.0
 20
0.0
 30
0.0
  9
$UCSORGFRONT
 10
0.0
 20
0.0
 30
0.0
  9
$UCSORGBACK
 10
0.0
 20
0.0
 30
0.0
  9
$PUCSBASE
  2

  9
$PUCSNAME
  2

  9
$PUCSORG
 10
0.0
 20
0.0
 30
0.0
  9
$PUCSXDIR
 10
1.0
 20
0.0
 30
0.0
  9
$PUCSYDIR
 10
0.0
 20
1.0
 30
0.0
  9
$PUCSORTHOREF
  2

  9
$PUCSORTHOVIEW
 70
     0
  9
$PUCSORGTOP
 10
0.0
 20
0.0
 30
0.0
  9
$PUCSORGBOTTOM
 10
0.0
 20
0.0
 30
0.0
  9
$PUCSORGLEFT
 10
0.0
 20
0.0
 30
0.0
  9
$PUCSORGRIGHT
 10
0.0
 20
0.0
 30
0.0
  9
$PUCSORGFRONT
 10
0.0
 20
0.0
 30
0.0
  9
$PUCSORGBACK
 10
0.0
 20
0.0
 30
0.0
  9
$USERI1
 70
     0
  9
$USERI2
 70
     0
  9
$USERI3
 70
     0
  9
$USERI4
 70
     0
  9
$USERI5
 70
     0
  9
$USERR1
 40
0.0
  9
$USERR2
 40
0.0
  9
$USERR3
 40
0.0
  9
$USERR4
 40
0.0
  9
$USERR5
 40
0.0
  9
$WORLDVIEW
 70
     1
  9
$SHADEDGE
 70
     3
  9
$SHADEDIF
 70
    70
  9
$TILEMODE
 70
     1
  9
$MAXACTVP
 70
    64
  9
$PINSBASE
 10
0.0
 20
0.0
 30
0.0
  9
$PLIMCHECK
 70
     0
  9
$PEXTMIN
 10
0.0
 20
0.0
 30
0.0
  9
$PEXTMAX
 10
210.0
 20
297.0
 30
0.0
  9
$PLIMMIN
 10
0.0
 20
0.0
  9
$PLIMMAX
 10
210.0
 20
297.0
  9
$UNITMODE
 70
     0
  9
$VISRETAIN
 70
     1
  9
$PLINEGEN
 70
     0
  9
$PSLTSCALE
 70
     1
  9
$TREEDEPTH
 70
  3020
  9
$CMLSTYLE
  2
Standard
  9
$CMLJUST
 70
     0
  9
$CMLSCALE
 40
20.0
  9
$PROXYGRAPHICS
 70
     1
  9
$MEASUREMENT
 70
     1
  9
$CELWEIGHT
370
    -1
  9
$ENDCAPS
280
     0
  9
$JOINSTYLE
280
     0
  9
$LWDISPLAY
290
     0
  9
$INSUNITS
 70
     4
  9
$HYPERLINKBASE
  1

  9
$STYLESHEET
  1

  9
$XEDIT
290
     1
  9
$CEPSNTYPE
380
     0
  9
$PSTYLEMODE
290
     1
  9
$FINGERPRINTGUID
  2
{640DEEB4-827E-4FC5-B457-317C0ABDA0B5}
  9
$VERSIONGUID
  2
{FAEB1C32-E019-11D5-929B-00C0DF256EC4}
  9
$EXTNAMES
290
     1
  9
$PSVPSCALE
 40
0.0
  9
$OLESTARTUP
290
     0
  0
ENDSEC
  0
SECTION
  2
CLASSES
  0
CLASS
  1
ACDBDICTIONARYWDFLT
  2
AcDbDictionaryWithDefault
  3
ObjectDBX Classes
 90
        0
280
     0
281
     0
  0
CLASS
  1
VISUALSTYLE
  2
AcDbVisualStyle
  3
ObjectDBX Classes
 90
     4095
280
     0
281
     0
  0
CLASS
  1
SCALE
  2
AcDbScale
  3
ObjectDBX Classes
 90
     1153
280
     0
281
     0
  0
CLASS
  1
DICTIONARYVAR
  2
AcDbDictionaryVar
  3
ObjectDBX Classes
 90
        0
280
     0
281
     0
  0
CLASS
  1
ACDBPLACEHOLDER
  2
AcDbPlaceHolder
  3
ObjectDBX Classes
 90
        0
280
     0
281
     0
  0
CLASS
  1
LAYOUT
  2
AcDbLayout
  3
ObjectDBX Classes
 90
        0
280
     0
281
     0
  0
ENDSEC
  0
SECTION
  2
TABLES
  0
TABLE
  2
VPORT
  5
8
330
0
100
AcDbSymbolTable
 70
     1
  0
VPORT
  5
29
330
8
100
AcDbSymbolTableRecord
100
AcDbViewportTableRecord
  2
*Active
 70
     0
 10
0.0
 20
0.0
 11
1.0
 21
1.0
 12
344.1869158879
 22
148.5
 13
0.0
 23
0.0
 14
10.0
 24
10.0
 15
10.0
 25
10.0
 16
0.0
 26
0.0
 36
1.0
 17
0.0
 27
0.0
 37
0.0
 40
297.0
 41
1.9729729729
 42
50.0
 43
0.0
 44
0.0
 50
0.0
 51
0.0
 71
     0
 72
   100
 73
     1
 74
     3
 75
     0
 76
     0
 77
     0
 78
     0
281
     0
 65
     1
110
0.0
120
0.0
130
0.0
111
1.0
121
0.0
131
0.0
112
0.0
122
1.0
132
0.0
 79
     0
146
0.0
  0
ENDTAB
  0
TABLE
  2
LTYPE
  5
5
330
0
100
AcDbSymbolTable
 70
     2
  0
LTYPE
  5
14
330
5
100
AcDbSymbolTableRecord
100
AcDbLinetypeTableRecord
  2
ByBlock
 70
     0
  3

 72
    65
 73
     0
 40
0.0
  0
LTYPE
  5
15
330
5
100
AcDbSymbolTableRecord
100
AcDbLinetypeTableRecord
  2
ByLayer
 70
     0
  3

 72
    65
 73
     0
 40
0.0
  0
LTYPE
  5
16
330
5
100
AcDbSymbolTableRecord
100
AcDbLinetypeTableRecord
  2
Continuous
 70
     0
  3
Solid line
 72
    65
 73
     0
 40
0.0
  0
LTYPE
  5
63
330
5
100
AcDbSymbolTableRecord
100
AcDbLinetypeTableRecord
  2
CENTER2
 70
     0
  3
Center (.5x) ___ _ ___ _ ___ _ ___ _ ___ _ ___
 72
    65
 73
     4
 40
28.575
 49
19.05
 74
     4
 75
     0
340
0
 46
0.0
 50
0.0
 44
0.0
 45
0.0
 49
-3.175
 74
     4
 75
     0
340
0
 46
0.0
 50
0.0
 44
0.0
 45
0.0
 49
3.175
 74
     4
 75
     0
340
0
 46
0.0
 50
0.0
 44
0.0
 45
0.0
 49
-3.175
 74
     4
 75
     0
340
0
 46
0.0
 50
0.0
 44
0.0
 45
0.0
  0
ENDTAB
  0
TABLE
  2
LAYER
  5
2
330
0
100
AcDbSymbolTable
 70
     4
  0
LAYER
  5
10
330
2
100
AcDbSymbolTableRecord
100
AcDbLayerTableRecord
  2
0
 70
     0
 62
     7
  6
Continuous
370
    -3
390
F
  0
LAYER
  5
5F
330
2
100
AcDbSymbolTableRecord
100
AcDbLayerTableRecord
  2
Default
 70
     0
 62
     7
  6
Continuous
370
    -3
390
F
  0
LAYER
  5
62
330
2
100
AcDbSymbolTableRecord
100
AcDbLayerTableRecord
  2
DV1_Standard
 70
     0
 62
     7
  6
Continuous
370
    -3
390
F
  0
LAYER
  5
6A
330
2
100
AcDbSymbolTableRecord
100
AcDbLayerTableRecord
  2
MEGA_001163
 70
     0
 62
     7
  6
Continuous
370
    -3
390
F
  0
ENDTAB
  0
TABLE
  2
STYLE
  5
3
330
0
100
AcDbSymbolTable
 70
     3
  0
STYLE
  5
11
330
3
100
AcDbSymbolTableRecord
100
AcDbTextStyleTableRecord
  2
Standard
 70
     0
 40
0.0
 41
1.0
 50
0.0
 71
     0
 42
2.5
  3
txt
  4

  0
STYLE
  5
5D
330
3
100
AcDbSymbolTableRecord
100
AcDbTextStyleTableRecord
  2
SEACAD_seiso_ttf
 70
     0
 40
0.0
 41
1.0
 50
0.0
 71
     0
 42
0.2
  3
seiso.ttf
  4

  0
STYLE
  5
89
330
3
100
AcDbSymbolTableRecord
100
AcDbTextStyleTableRecord
  2
SEACAD_semeci1_ttf
 70
     0
 40
0.0
 41
1.0
 50
0.0
 71
     0
 42
0.2
  3
semeci1.ttf
  4

  0
ENDTAB
  0
TABLE
  2
VIEW
  5
6
330
0
100
AcDbSymbolTable
 70
     0
  0
ENDTAB
  0
TABLE
  2
UCS
  5
7
330
0
100
AcDbSymbolTable
 70
     0
  0
ENDTAB
  0
TABLE
  2
APPID
  5
9
330
0
100
AcDbSymbolTable
 70
     1
  0
APPID
  5
12
330
9
100
AcDbSymbolTableRecord
100
AcDbRegAppTableRecord
  2
ACAD
 70
     0
  0
ENDTAB
  0
TABLE
  2
DIMSTYLE
  5
A
330
0
100
AcDbSymbolTable
 70
     3
100
AcDbDimStyleTable
  0
DIMSTYLE
105
27
330
A
100
AcDbSymbolTableRecord
100
AcDbDimStyleTableRecord
  2
ISO-25
 70
     0
 41
2.5
 42
0.625
 43
3.75
 44
1.25
 73
     0
 74
     0
 77
     1
 78
     8
140
2.5
141
2.5
143
0.0393700787
147
0.625
171
     3
172
     1
271
     2
272
     2
274
     3
278
    44
283
     0
284
     8
340
11
  0
DIMSTYLE
105
8E
330
A
100
AcDbSymbolTableRecord
100
AcDbDimStyleTableRecord
  2
Standard
 70
     0
340
11
  0
DIMSTYLE
105
A0
102
{ACAD_REACTORS
330
A1
330
AB
330
B5
330
BF
330
C9
330
D4
330
DF
102
}
330
A
100
AcDbSymbolTableRecord
100
AcDbDimStyleTableRecord
  2
DIN
 70
     0
 41
3.0
 42
0.0
 44
1.5
 73
     0
 74
     0
 77
     1
 78
     8
140
3.0
141
1.5
147
1.5
172
     1
173
     1
271
     2
272
     2
278
    44
284
     8
340
5D
343
9B
344
9B
  0
ENDTAB
  0
TABLE
  2
BLOCK_RECORD
  5
1
330
0
100
AcDbSymbolTable
 70
    13
  0
BLOCK_RECORD
  5
1F
330
1
100
AcDbSymbolTableRecord
100
AcDbBlockTableRecord
  2
*Model_Space
340
22
  0
BLOCK_RECORD
  5
1B
330
1
100
AcDbSymbolTableRecord
100
AcDbBlockTableRecord
  2
*Paper_Space
340
1E
  0
BLOCK_RECORD
  5
60
330
1
100
AcDbSymbolTableRecord
100
AcDbBlockTableRecord
  2
SE
340
0
102
{BLKREFS
331
61
102
}
  0
BLOCK_RECORD
  5
84
330
1
100
AcDbSymbolTableRecord
100
AcDbBlockTableRecord
  2
GDimGGroup
340
0
102
{BLKREFS
331
85
102
}
  0
BLOCK_RECORD
  5
8F
330
1
100
AcDbSymbolTableRecord
100
AcDbBlockTableRecord
  2
_OBLIQUE
340
0
  0
BLOCK_RECORD
  5
93
330
1
100
AcDbSymbolTableRecord
100
AcDbBlockTableRecord
  2
_DOT
340
0
  0
BLOCK_RECORD
  5
9B
330
1
100
AcDbSymbolTableRecord
100
AcDbBlockTableRecord
  2
_SE_FILLED
340
0
  0
BLOCK_RECORD
  5
A2
330
1
100
AcDbSymbolTableRecord
100
AcDbBlockTableRecord
  2
DMBLK75
340
0
  0
BLOCK_RECORD
  5
AC
330
1
100
AcDbSymbolTableRecord
100
AcDbBlockTableRecord
  2
DMBLK76
340
0
  0
BLOCK_RECORD
  5
B6
330
1
100
AcDbSymbolTableRecord
100
AcDbBlockTableRecord
  2
DMBLK77
340
0
  0
BLOCK_RECORD
  5
C0
330
1
100
AcDbSymbolTableRecord
100
AcDbBlockTableRecord
  2
DMBLK78
340
0
  0
BLOCK_RECORD
  5
CA
330
1
100
AcDbSymbolTableRecord
100
AcDbBlockTableRecord
  2
DMBLK79
340
0
  0
BLOCK_RECORD
  5
D5
330
1
100
AcDbSymbolTableRecord
100
AcDbBlockTableRecord
  2
DMBLK80
340
0
  0
BLOCK_RECORD
  5
E0
330
1
100
AcDbSymbolTableRecord
100
AcDbBlockTableRecord
  2
DMBLK81
340
0
  0
ENDTAB
  0
ENDSEC
  0
SECTION
  2
BLOCKS
  0
BLOCK
  5
20
330
1F
100
AcDbEntity
  8
0
100
AcDbBlockBegin
  2
*Model_Space
 70
     0
 10
0.0
 20
0.0
 30
0.0
  3
*Model_Space
  1

  0
ENDBLK
  5
21
330
1F
100
AcDbEntity
  8
0
100
AcDbBlockEnd
  0
BLOCK
  5
1C
330
1B
100
AcDbEntity
 67
     1
  8
0
100
AcDbBlockBegin
  2
*Paper_Space
 70
     0
 10
0.0
 20
0.0
 30
0.0
  3
*Paper_Space
  1

  0
ENDBLK
  5
1D
330
1B
100
AcDbEntity
 67
     1
  8
0
100
AcDbBlockEnd
  0
BLOCK
  5
82
330
60
100
AcDbEntity
  8
0
100
AcDbBlockBegin
  2
SE
 70
     0
 10
0.0
 20
0.0
 30
0.0
  3
SE
  1

  0
LINE
  5
64
330
60
100
AcDbEntity
  8
DV1_Standard
  6
CENTER2
 62
     7
100
AcDbLine
 10
59.792350504
 20
206.7489069091
 30
0.0
 11
59.792350504
 21
165.2864070882
 31
0.0
  0
LINE
  5
65
330
60
100
AcDbEntity
  8
DV1_Standard
  6
CENTER2
 62
     7
100
AcDbLine
 10
159.792350504
 20
179.4096155597
 30
0.0
 11
159.792350504
 21
165.2864070882
 31
0.0
  0
LINE
  5
66
330
60
100
AcDbEntity
  8
DV1_Standard
  6
CENTER2
 62
     7
100
AcDbLine
 10
74.792350504
 20
150.2864070882
 30
0.0
 11
144.792350504
 21
150.2864070882
 31
0.0
  0
ARC
  5
67
330
60
100
AcDbEntity
  8
DV1_Standard
  6
CENTER2
 62
     7
100
AcDbCircle
 10
74.792350504
 20
165.2864070882
 30
0.0
 40
15.0
100
AcDbArc
 50
180.0
 51
270.0
  0
ARC
  5
68
330
60
100
AcDbEntity
  8
DV1_Standard
  6
CENTER2
 62
     7
100
AcDbCircle
 10
144.792350504
 20
165.2864070882
 30
0.0
 40
15.0
100
AcDbArc
 50
270.0
 51
0.0
  0
LINE
  5
69
330
60
100
AcDbEntity
  8
DV1_Standard
  6
CENTER2
 62
     7
100
AcDbLine
 10
49.792350504
 20
195.2864070882
 30
0.0
 11
51.0447486638
 21
177.3762789847
 31
0.0
  0
LINE
  5
6B
330
60
100
AcDbEntity
  8
MEGA_001163
  6
Continuous
 62
     7
100
AcDbLine
 10
67.792350504
 20
165.2864070882
 30
0.0
 11
51.792350504
 21
165.2864070882
 31
0.0
  0
LINE
  5
6C
330
60
100
AcDbEntity
  8
MEGA_001163
  6
Continuous
 62
     7
100
AcDbLine
 10
74.792350504
 20
158.2864070882
 30
0.0
 11
74.792350504
 21
142.2864070882
 31
0.0
  0
LINE
  5
6D
330
60
100
AcDbEntity
  8
MEGA_001163
  6
Continuous
 62
     7
100
AcDbLine
 10
144.792350504
 20
158.2864070882
 30
0.0
 11
144.792350504
 21
142.2864070882
 31
0.0
  0
LINE
  5
6E
330
60
100
AcDbEntity
  8
MEGA_001163
  6
Continuous
 62
     7
100
AcDbLine
 10
67.792350504
 20
203.2864070882
 30
0.0
 11
51.792350504
 21
203.2864070882
 31
0.0
  0
ARC
  5
6F
330
60
100
AcDbEntity
  8
MEGA_001163
  6
Continuous
 62
     7
100
AcDbCircle
 10
39.4829237745
 20
189.7133263238
 30
0.0
 40
10.78490387241842
100
AcDbArc
 50
349.9318086604
 51
16.3255554239
  0
LINE
  5
70
330
60
100
AcDbEntity
  8
MEGA_001163
  6
Continuous
 62
     7
100
AcDbLine
 10
66.792350504
 20
204.2864070882
 30
0.0
 11
52.792350504
 21
204.2864070882
 31
0.0
  0
LINE
  5
71
330
60
100
AcDbEntity
  8
MEGA_001163
  6
Continuous
 62
     7
100
AcDbLine
 10
69.792350504
 20
195.2864070882
 30
0.0
 11
49.792350504
 21
195.2864070882
 31
0.0
  0
SPLINE
  5
72
330
60
100
AcDbEntity
  8
MEGA_001163
  6
Continuous
 62
     7
100
AcDbSpline
210
0.0
220
0.0
230
1.0
 70
     8
 71
     3
 72
    32
 73
    28
 74
     0
 42
0.0000000003324431
 43
0.0000000001
 40
0.0
 40
0.0
 40
0.0
 40
0.0
 40
0.1117296947080869
 40
0.1117296947080869
 40
0.1117296947080869
 40
0.2236072566491489
 40
0.2236072566491489
 40
0.2236072566491489
 40
0.3356718252369958
 40
0.3356718252369958
 40
0.3356718252369958
 40
0.4478795821361428
 40
0.4478795821361428
 40
0.4478795821361428
 40
0.5601377137764405
 40
0.5601377137764405
 40
0.5601377137764405
 40
0.6703354612668334
 40
0.6703354612668334
 40
0.6703354612668334
 40
0.7803912403038236
 40
0.7803912403038236
 40
0.7803912403038236
 40
0.8902662468676559
 40
0.8902662468676559
 40
0.8902662468676559
 40
1.0
 40
1.0
 40
1.0
 40
1.0
 10
67.79235050402448
 20
165.2864070881676
 30
0.0
 10
67.80720202627161
 20
166.5185822103746
 30
0.0
 10
67.82144605011698
 20
167.5569787083047
 30
0.0
 10
67.86199479202449
 20
168.6464070881676
 30
0.0
 10
67.90259719764497
 20
169.737277258062
 30
0.0
 10
67.96957399268415
 20
170.8793144742515
 30
0.0
 10
68.04844880802447
 20
172.0064070881676
 30
0.0
 10
68.12745546494659
 20
173.1353836706533
 30
0.0
 10
68.21839995119724
 20
174.2493656484228
 30
0.0
 10
68.31799428002448
 20
175.3664070881676
 30
0.0
 10
68.41771586355799
 20
176.4848758057704
 30
0.0
 10
68.5261094081242
 20
177.6064118086788
 30
0.0
 10
68.63691293602447
 20
178.7264070881676
 30
0.0
 10
68.74776620824895
 20
179.8469051802413
 30
0.0
 10
68.86103162817723
 20
180.9658611651948
 30
0.0
 10
68.97148650402448
 20
182.0864070881676
 30
0.0
 10
69.07991409265298
 20
183.1863865272234
 30
0.0
 10
69.18563335978797
 20
184.2878980764996
 30
0.0
 10
69.28269850402448
 20
185.3864070881676
 30
0.0
 10
69.37963859862322
 20
186.4835008837447
 30
0.0
 10
69.4679468542822
 20
187.5775998731065
 30
0.0
 10
69.54454250402448
 20
188.6864070881676
 30
0.0
 10
69.62101234133638
 20
189.793393028378
 30
0.0
 10
69.68580801828809
 20
190.9150389158835
 30
0.0
 10
69.72507450402449
 20
191.9864070881676
 30
0.0
 10
69.7642905094376
 20
193.0563979278312
 30
0.0
 10
69.77804292122696
 20
194.0762402415219
 30
0.0
 10
69.7923505040245
 20
195.2864070881676
 30
0.0
  0
LINE
  5
73
330
60
100
AcDbEntity
  8
MEGA_001163
  6
Continuous
 62
     7
100
AcDbLine
 10
144.792350504
 20
158.2864070882
 30
0.0
 11
74.792350504
 21
158.2864070882
 31
0.0
  0
ARC
  5
74
330
60
100
AcDbEntity
  8
MEGA_001163
  6
Continuous
 62
     7
100
AcDbCircle
 10
166.292350504
 20
174.2980334234
 30
0.0
 40
1.500000000000006
100
AcDbArc
 50
1.7348831871
 51
81.4063774013
  0
ARC
  5
75
330
60
100
AcDbEntity
  8
MEGA_001163
  6
Continuous
 62
     7
100
AcDbCircle
 10
153.292350504
 20
174.2980334234
 30
0.0
 40
1.5
100
AcDbArc
 50
98.5936225987
 51
179.9816292741
  0
LINE
  5
76
330
60
100
AcDbEntity
  8
MEGA_001163
  6
Continuous
 62
     7
100
AcDbLine
 10
67.792350504
 20
195.2864070882
 30
0.0
 11
67.792350504
 21
203.2864070882
 31
0.0
  0
LINE
  5
77
330
60
100
AcDbEntity
  8
MEGA_001163
  6
Continuous
 62
     7
100
AcDbLine
 10
52.792350504
 20
204.2864070882
 30
0.0
 11
51.792350504
 21
203.2864070882
 31
0.0
  0
LINE
  5
78
330
60
100
AcDbEntity
  8
MEGA_001163
  6
Continuous
 62
     7
100
AcDbLine
 10
51.792350504
 20
203.2864070882
 30
0.0
 11
51.792350504
 21
195.2864070882
 31
0.0
  0
ARC
  5
79
330
60
100
AcDbEntity
  8
MEGA_001163
  6
Continuous
 62
     7
100
AcDbCircle
 10
159.792350504
 20
131.2864070882
 30
0.0
 40
45.00000000000001
100
AcDbArc
 50
81.4063774013
 51
98.5936225987
  0
ARC
  5
7A
330
60
100
AcDbEntity
  8
MEGA_001163
  6
Continuous
 62
     7
100
AcDbCircle
 10
74.6673846882
 20
165.1614412723
 30
0.0
 40
6.876169826875504
100
AcDbArc
 50
178.9586632947
 51
271.0413367053
  0
LINE
  5
7B
330
60
100
AcDbEntity
  8
MEGA_001163
  6
Continuous
 62
     7
100
AcDbLine
 10
74.792350504
 20
142.2864070882
 30
0.0
 11
144.792350504
 21
142.2864070882
 31
0.0
  0
SPLINE
  5
7C
330
60
100
AcDbEntity
  8
MEGA_001163
  6
Continuous
 62
     7
100
AcDbSpline
210
0.0
220
0.0
230
1.0
 70
     8
 71
     3
 72
    86
 73
    82
 74
     0
 42
0.0000000004987867
 43
0.0000000001
 40
0.0
 40
0.0
 40
0.0
 40
0.0
 40
0.0860339091870406
 40
0.0860339091870406
 40
0.0860339091870406
 40
0.1793443066926909
 40
0.1793443066926909
 40
0.1793443066926909
 40
0.2674393289219322
 40
0.2674393289219322
 40
0.2674393289219322
 40
0.3168725072416193
 40
0.3168725072416193
 40
0.3168725072416193
 40
0.3642604546066469
 40
0.3642604546066469
 40
0.3642604546066469
 40
0.4076249818273873
 40
0.4076249818273873
 40
0.4076249818273873
 40
0.4444475498848441
 40
0.4444475498848441
 40
0.4444475498848441
 40
0.4711095095102323
 40
0.4711095095102323
 40
0.4711095095102323
 40
0.4919011941616707
 40
0.4919011941616707
 40
0.4919011941616707
 40
0.5097250267522024
 40
0.5097250267522024
 40
0.5097250267522024
 40
0.5261051850445148
 40
0.5261051850445148
 40
0.5261051850445148
 40
0.5413079405519446
 40
0.5413079405519446
 40
0.5413079405519446
 40
0.5753502534805467
 40
0.5753502534805467
 40
0.5753502534805467
 40
0.6057887076394963
 40
0.6057887076394963
 40
0.6057887076394963
 40
0.6483863252071127
 40
0.6483863252071127
 40
0.6483863252071127
 40
0.6942239162622136
 40
0.6942239162622136
 40
0.6942239162622136
 40
0.7419356530536696
 40
0.7419356530536696
 40
0.7419356530536696
 40
0.7600403323305785
 40
0.7600403323305785
 40
0.7600403323305785
 40
0.7782706294300411
 40
0.7782706294300411
 40
0.7782706294300411
 40
0.8000485511265715
 40
0.8000485511265715
 40
0.8000485511265715
 40
0.8278435991745892
 40
0.8278435991745892
 40
0.8278435991745892
 40
0.8612552967309098
 40
0.8612552967309098
 40
0.8612552967309098
 40
0.8993077569489284
 40
0.8993077569489284
 40
0.8993077569489284
 40
0.9198421721066202
 40
0.9198421721066202
 40
0.9198421721066202
 40
0.9423378933397578
 40
0.9423378933397578
 40
0.9423378933397578
 40
0.9683545220991562
 40
0.9683545220991562
 40
0.9683545220991562
 40
1.0
 40
1.0
 40
1.0
 40
1.0
 10
151.7916087682235
 20
174.2980339044328
 30
0.0
 10
151.7911546186719
 20
173.6658360500082
 30
0.0
 10
151.7908086196491
 20
173.132655241344
 30
0.0
 10
151.7904857519405
 20
172.5738578586697
 30
0.0
 10
151.7901355770557
 20
171.9677990802746
 30
0.0
 10
151.7898126117027
 20
171.3316073407119
 30
0.0
 10
151.7897903505515
 20
170.7038559405619
 30
0.0
 10
151.7897693336375
 20
170.1111912962248
 30
0.0
 10
151.790016345952
 20
169.5260498512601
 30
0.0
 10
151.7906267790909
 20
168.9383736593728
 30
0.0
 10
151.790969314338
 20
168.608608126058
 30
0.0
 10
151.7914262807027
 20
168.2780444713824
 30
0.0
 10
151.7920976360727
 20
167.9477011807027
 30
0.0
 10
151.7927412150215
 20
167.6310253972869
 30
0.0
 10
151.7935818098514
 20
167.3145521205562
 30
0.0
 10
151.7941944769014
 20
166.9980177052809
 30
0.0
 10
151.7947551261477
 20
166.7083582869953
 30
0.0
 10
151.7951249084599
 20
166.4186476712357
 30
0.0
 10
151.7948653021187
 20
166.1289641732335
 30
0.0
 10
151.7946448599099
 20
165.8829822381368
 30
0.0
 10
151.7939706037689
 20
165.637019856008
 30
0.0
 10
151.7912860813291
 20
165.391024248447
 30
0.0
 10
151.7893423106287
 20
165.2129072592521
 30
0.0
 10
151.7863446152405
 20
165.0347728509207
 30
0.0
 10
151.7774014598174
 20
164.856881382484
 30
0.0
 10
151.7704273562648
 20
164.7181570214135
 30
0.0
 10
151.7598376501087
 20
164.5795803989723
 30
0.0
 10
151.745154958091
 20
164.4414519189162
 30
0.0
 10
151.7325681067181
 20
164.3230402103038
 30
0.0
 10
151.7169733575583
 20
164.2049578374218
 30
0.0
 10
151.6988069433466
 20
164.0872701963412
 30
0.0
 10
151.6821119514654
 20
163.9791148834948
 30
0.0
 10
151.6632450166879
 20
163.8712929480186
 30
0.0
 10
151.6418002937091
 20
163.7639887251984
 30
0.0
 10
151.6218970134993
 20
163.6643975103067
 30
0.0
 10
151.5997732082987
 20
163.565252256759
 30
0.0
 10
151.5752656005982
 20
163.4666691395444
 30
0.0
 10
151.5203876773122
 20
163.2459198599775
 30
0.0
 10
151.4535571159963
 20
163.02798919148
 30
0.0
 10
151.3747091675835
 20
162.8145836314551
 30
0.0
 10
151.3042083861495
 20
162.6237700586609
 30
0.0
 10
151.2240999559728
 20
162.4365742151098
 30
0.0
 10
151.1358107961035
 20
162.2533031368257
 30
0.0
 10
151.0122530146262
 20
161.9968212779513
 30
0.0
 10
150.8726732054553
 20
161.748026104759
 30
0.0
 10
150.7190052226631
 20
161.5082862285635
 30
0.0
 10
150.5536492578064
 20
161.2503117447274
 30
0.0
 10
150.3719805254601
 20
161.0028224350826
 30
0.0
 10
150.1748598491388
 20
160.7681778048041
 30
0.0
 10
149.9696795678824
 20
160.5239393406597
 30
0.0
 10
149.7477579547694
 20
160.2936173804976
 30
0.0
 10
149.511497972433
 20
160.0795406272034
 30
0.0
 10
149.421846840577
 20
159.9983071358305
 30
0.0
 10
149.3301311322235
 20
159.9194127858046
 30
0.0
 10
149.2364431297822
 20
159.8429180286515
 30
0.0
 10
149.1421050808702
 20
159.7658925189409
 30
0.0
 10
149.0457672737217
 20
159.6913000163776
 30
0.0
 10
148.9475527997667
 20
159.6192643740269
 30
0.0
 10
148.8302257418703
 20
159.5332105609752
 30
0.0
 10
148.710220548491
 20
159.4508055672221
 30
0.0
 10
148.5877654722814
 20
159.3722089194391
 30
0.0
 10
148.4314766962266
 20
159.271896427183
 30
0.0
 10
148.2711972364606
 20
159.1777874578226
 30
0.0
 10
148.107579229996
 20
159.0898884285
 30
0.0
 10
147.9108983198815
 20
158.9842273129607
 30
0.0
 10
147.7093932722406
 20
158.8875394446086
 30
0.0
 10
147.5038916898597
 20
158.8002067462046
 30
0.0
 10
147.2698466888505
 20
158.7007438552172
 30
0.0
 10
147.0306178430416
 20
158.6134154137571
 30
0.0
 10
146.786848698588
 20
158.540586437812
 30
0.0
 10
146.6553024914266
 20
158.5012854197176
 30
0.0
 10
146.5224341254791
 20
158.4662067220528
 30
0.0
 10
146.3887561558732
 20
158.43630932726
 30
0.0
 10
146.2423101862083
 20
158.4035563389868
 30
0.0
 10
146.0948925715241
 20
158.3770216861631
 30
0.0
 10
145.9451281349686
 20
158.3560529999114
 30
0.0
 10
145.7719233860813
 20
158.3318024093156
 30
0.0
 10
145.5955797021867
 20
158.3149964431015
 30
0.0
 10
145.4262870568213
 20
158.3045561582341
 30
0.0
 10
145.2203669617455
 20
158.2918570569361
 30
0.0
 10
145.0248790296971
 20
158.2885761179859
 30
0.0
 10
144.7923505040245
 20
158.2864070881676
 30
0.0
  0
ARC
  5
7D
330
60
100
AcDbEntity
  8
MEGA_001163
  6
Continuous
 62
     7
100
AcDbCircle
 10
74.9045368088
 20
165.398593393
 30
0.0
 40
23.11245857875618
100
AcDbArc
 50
180.2781109159
 51
269.7218890841
  0
LINE
  5
7E
330
60
100
AcDbEntity
  8
MEGA_001163
  6
Continuous
 62
     7
100
AcDbLine
 10
67.792350504
 20
203.2864070882
 30
0.0
 11
66.792350504
 21
204.2864070882
 31
0.0
  0
ARC
  5
7F
330
60
100
AcDbEntity
  8
MEGA_001163
  6
Continuous
 62
     7
100
AcDbCircle
 10
-151.8772301247
 20
161.402748549
 30
0.0
 40
203.706604893208
100
AcDbArc
 50
1.0924080027
 51
7.4560442635
  0
LINE
  5
80
330
60
100
AcDbEntity
  8
MEGA_001163
  6
Continuous
 62
     7
100
AcDbLine
 10
49.792350504
 20
195.2864070882
 30
0.0
 11
49.8451283296
 21
192.7401323092
 31
0.0
  0
SPLINE
  5
81
330
60
100
AcDbEntity
  8
MEGA_001163
  6
Continuous
 62
     7
100
AcDbSpline
210
0.0
220
0.0
230
1.0
 70
     8
 71
     3
 72
   110
 73
   106
 74
     0
 42
0.0000000002214704
 43
0.0000000001
 40
0.0
 40
0.0
 40
0.0
 40
0.0
 40
0.0369333060026281
 40
0.0369333060026281
 40
0.0369333060026281
 40
0.0729879103001047
 40
0.0729879103001047
 40
0.0729879103001047
 40
0.1071937456931093
 40
0.1071937456931093
 40
0.1071937456931093
 40
0.1388779984631694
 40
0.1388779984631694
 40
0.1388779984631694
 40
0.1676496478983636
 40
0.1676496478983636
 40
0.1676496478983636
 40
0.193485927549207
 40
0.193485927549207
 40
0.193485927549207
 40
0.2164679357207071
 40
0.2164679357207071
 40
0.2164679357207071
 40
0.2366527556319385
 40
0.2366527556319385
 40
0.2366527556319385
 40
0.2542903810316083
 40
0.2542903810316083
 40
0.2542903810316083
 40
0.2714073870125028
 40
0.2714073870125028
 40
0.2714073870125028
 40
0.3141465562444477
 40
0.3141465562444477
 40
0.3141465562444477
 40
0.3568747500972755
 40
0.3568747500972755
 40
0.3568747500972755
 40
0.3993860998553675
 40
0.3993860998553675
 40
0.3993860998553675
 40
0.4403678186535869
 40
0.4403678186535869
 40
0.4403678186535869
 40
0.4581633120587345
 40
0.4581633120587345
 40
0.4581633120587345
 40
0.4756130715440244
 40
0.4756130715440244
 40
0.4756130715440244
 40
0.4927226352653189
 40
0.4927226352653189
 40
0.4927226352653189
 40
0.5094968790788166
 40
0.5094968790788166
 40
0.5094968790788166
 40
0.5268482966815103
 40
0.5268482966815103
 40
0.5268482966815103
 40
0.5431870725216903
 40
0.5431870725216903
 40
0.5431870725216903
 40
0.5621357482995184
 40
0.5621357482995184
 40
0.5621357482995184
 40
0.5837231461989534
 40
0.5837231461989534
 40
0.5837231461989534
 40
0.607979845166726
 40
0.607979845166726
 40
0.607979845166726
 40
0.6348739183009484
 40
0.6348739183009484
 40
0.6348739183009484
 40
0.661527609549483
 40
0.661527609549483
 40
0.661527609549483
 40
0.6901510199679919
 40
0.6901510199679919
 40
0.6901510199679919
 40
0.7205609501279245
 40
0.7205609501279245
 40
0.7205609501279245
 40
0.7524280209436509
 40
0.7524280209436509
 40
0.7524280209436509
 40
0.7837621331408275
 40
0.7837621331408275
 40
0.7837621331408275
 40
0.812575605716693
 40
0.812575605716693
 40
0.812575605716693
 40
0.839490881967543
 40
0.839490881967543
 40
0.839490881967543
 40
0.8769556803290954
 40
0.8769556803290954
 40
0.8769556803290954
 40
0.9168697781281061
 40
0.9168697781281061
 40
0.9168697781281061
 40
0.9593109112952728
 40
0.9593109112952728
 40
0.9593109112952728
 40
1.0
 40
1.0
 40
1.0
 40
1.0
 10
144.7923505040245
 20
142.2864070881676
 30
0.0
 10
145.403504568802
 20
142.3006996579132
 30
0.0
 10
145.9186765042132
 20
142.3151824779255
 30
0.0
 10
146.4580994917721
 20
142.3568911926728
 30
0.0
 10
146.984688754158
 20
142.3976075911957
 30
0.0
 10
147.5343888540441
 20
142.4642698012729
 30
0.0
 10
148.0745427228102
 20
142.5469071598323
 30
0.0
 10
148.5869991671929
 20
142.6253071295248
 30
0.0
 10
149.0908632829157
 20
142.7180859388267
 30
0.0
 10
149.5930659315731
 20
142.8268759924221
 30
0.0
 10
150.0582472516327
 20
142.9276462708669
 30
0.0
 10
150.5220030354189
 20
143.0421541731253
 30
0.0
 10
150.9814747914207
 20
143.1704493438703
 30
0.0
 10
151.3987091944221
 20
143.286950866052
 30
0.0
 10
151.8124109942053
 20
143.4148213502192
 30
0.0
 10
152.2222708762371
 20
143.5542779135765
 30
0.0
 10
152.5903156264585
 20
143.6795067009688
 30
0.0
 10
152.955262397488
 20
143.8140780705215
 30
0.0
 10
153.3165288078279
 20
143.9578274872297
 30
0.0
 10
153.6378841928417
 20
144.0856961399182
 30
0.0
 10
153.956327477218
 20
144.220826960428
 30
0.0
 10
154.2715356618444
 20
144.3631267279619
 30
0.0
 10
154.5483791993522
 20
144.4881068933002
 30
0.0
 10
154.8227272143902
 20
144.6186171101874
 30
0.0
 10
155.0943525251078
 20
144.7545643157908
 30
0.0
 10
155.3317004677982
 20
144.8733558580048
 30
0.0
 10
155.5669695231627
 20
144.9962987459408
 30
0.0
 10
155.8000090394108
 20
145.1233146150786
 30
0.0
 10
156.0261698010219
 20
145.2465812874584
 30
0.0
 10
156.2502307019982
 20
145.3736840409496
 30
0.0
 10
156.4720929580701
 20
145.5045749540081
 30
0.0
 10
157.0260571571258
 20
145.831394310756
 30
0.0
 10
157.5663140649252
 20
146.1818306719638
 30
0.0
 10
158.0908330071455
 20
146.5543293170068
 30
0.0
 10
158.6152172533868
 20
146.9267323047424
 30
0.0
 10
159.1238716160012
 20
147.3211862466202
 30
0.0
 10
159.6151622749738
 20
147.7361974693835
 30
0.0
 10
160.1039596509736
 20
148.1491025246543
 30
0.0
 10
160.5755691165064
 20
148.5823567353008
 30
0.0
 10
161.0283383976555
 20
149.0345269315726
 30
0.0
 10
161.464816266886
 20
149.4704272720227
 30
0.0
 10
161.8837853636749
 20
149.9239068293783
 30
0.0
 10
162.2836205699086
 20
150.3934747697358
 30
0.0
 10
162.4572410276232
 20
150.5973752753989
 30
0.0
 10
162.6272536806767
 20
150.8043093378297
 30
0.0
 10
162.7935793888719
 20
151.0141750254895
 30
0.0
 10
162.9566736924774
 20
151.2199634063175
 30
0.0
 10
163.116222920776
 20
151.4285706066852
 30
0.0
 10
163.272127183337
 20
151.6398645273968
 30
0.0
 10
163.4249919788065
 20
151.8470391193093
 30
0.0
 10
163.5743525456683
 20
152.0567966936055
 30
0.0
 10
163.7201273444789
 20
152.2690171504624
 30
0.0
 10
163.8630451918854
 20
152.4770784279747
 30
0.0
 10
164.0025164445219
 20
152.6875069969659
 30
0.0
 10
164.1384681246224
 20
152.9001866607829
 30
0.0
 10
164.279097675584
 20
153.1201842775768
 30
0.0
 10
164.4159612818128
 20
153.3425905671897
 30
0.0
 10
164.5489817532944
 20
153.5672696707205
 30
0.0
 10
164.6742390501596
 20
153.7788363330313
 30
0.0
 10
164.7960886991083
 20
153.9924182641581
 30
0.0
 10
164.9144739275256
 20
154.207906211521
 30
0.0
 10
165.0517696057396
 20
154.4578154635086
 30
0.0
 10
165.1844056767889
 20
154.7102882861798
 30
0.0
 10
165.3123003725077
 20
154.9651430884236
 30
0.0
 10
165.4580052079316
 20
155.2554880226619
 30
0.0
 10
165.5975561892037
 20
155.5489245397976
 30
0.0
 10
165.730833609688
 20
155.8451843486247
 30
0.0
 10
165.8805909024821
 20
156.1780769479295
 30
0.0
 10
166.022427251795
 20
156.514534210856
 30
0.0
 10
166.156414873955
 20
156.8540902997575
 30
0.0
 10
166.3049706570087
 20
157.2305655283209
 30
0.0
 10
166.4438781800706
 20
157.6108500724704
 30
0.0
 10
166.5731323221817
 20
157.9943809616443
 30
0.0
 10
166.7012311779864
 20
158.3744838137968
 30
0.0
 10
166.8198484473828
 20
158.7577752380171
 30
0.0
 10
166.9288750551639
 20
159.1437864887602
 30
0.0
 10
167.0459587758372
 20
159.5583241358409
 30
0.0
 10
167.1519819496913
 20
159.9759984558439
 30
0.0
 10
167.2464572224382
 20
160.396265213051
 30
0.0
 10
167.3468291349415
 20
160.8427627669185
 30
0.0
 10
167.4341666443989
 20
161.2921864691029
 30
0.0
 10
167.5082181931335
 20
161.7438395656396
 30
0.0
 10
167.5858180407861
 20
162.2171343458571
 30
0.0
 10
167.6488281868317
 20
162.6928772891426
 30
0.0
 10
167.6941558374077
 20
163.1703123932861
 30
0.0
 10
167.7387254088314
 20
163.6397626671004
 30
0.0
 10
167.7661989982165
 20
164.1108489742271
 30
0.0
 10
167.7798024752663
 20
164.5821983736758
 30
0.0
 10
167.7923116349464
 20
165.0156305676119
 30
0.0
 10
167.7930924587544
 20
165.4492852280316
 30
0.0
 10
167.7936278190083
 20
165.8828197450444
 30
0.0
 10
167.7941279103837
 20
166.2877935384307
 30
0.0
 10
167.7944138145673
 20
166.6926624967875
 30
0.0
 10
167.7940620750593
 20
167.0978263315286
 30
0.0
 10
167.7935724702111
 20
167.6617953293013
 30
0.0
 10
167.7918474096466
 20
168.2263356598095
 30
0.0
 10
167.7909109406077
 20
168.7890555145588
 30
0.0
 10
167.7899132489495
 20
169.3885637542443
 30
0.0
 10
167.7898106292282
 20
169.9860057064913
 30
0.0
 10
167.7898656764574
 20
170.5908533562161
 30
0.0
 10
167.7899242088285
 20
171.2339950295438
 30
0.0
 10
167.7901610045134
 20
171.8855098220894
 30
0.0
 10
167.7904806836843
 20
172.5067265760238
 30
0.0
 10
167.790787165938
 20
173.1022984121041
 30
0.0
 10
167.7911698297747
 20
173.6700220885772
 30
0.0
 10
167.7916511002348
 20
174.3435089086452
 30
0.0
  0
ENDBLK
  5
83
330
60
100
AcDbEntity
  8
0
100
AcDbBlockEnd
  0
BLOCK
  5
8C
330
84
100
AcDbEntity
  8
0
100
AcDbBlockBegin
  2
GDimGGroup
 70
     0
 10
0.0
 20
0.0
 30
0.0
  3
GDimGGroup
  1

  0
HATCH
  5
86
330
84
100
AcDbEntity
  8
Default
  6
Continuous
 62
     7
100
AcDbHatch
 10
0.0
 20
0.0
 30
0.0
210
0.0
220
0.0
230
1.0
  2
SOLID
 70
     1
 71
     0
 91
        1
 92
        1
 93
        3
 72
     1
 10
154.7916087943005
 20
202.5821374364441
 11
151.7916087682235
 21
202.0821374320979
 72
     1
 10
151.7916087682235
 20
202.0821374320979
 11
154.7916087943005
 21
201.5821374277518
 72
     1
 10
154.7916087943005
 20
201.5821374277518
 11
154.7916087943005
 21
202.5821374364441
 97
        0
 75
     0
 76
     1
 98
        0
  0
LINE
  5
87
330
84
100
AcDbEntity
  8
Default
  6
Continuous
 62
     7
100
AcDbLine
 10
151.7916087682
 20
174.2980339044
 30
0.0
 11
151.7916087682
 21
203.5821374451
 31
0.0
  0
LINE
  5
88
330
84
100
AcDbEntity
  8
Default
  6
Continuous
 62
     7
100
AcDbLine
 10
151.7916087682
 20
202.0821374321
 30
0.0
 11
159.792350481
 21
202.0821374321
 31
0.0
  0
TEXT
  5
8A
330
84
100
AcDbEntity
  8
Default
  6
Continuous
 62
     7
100
AcDbText
 10
155.687953895
 20
202.8321374321
 30
0.0
 40
3.0
  1
O
  7
SEACAD_semeci1_ttf
 11
155.687953895
 21
205.8321374321
 31
0.0
100
AcDbText
 73
     3
  0
TEXT
  5
8B
330
84
100
AcDbEntity
  8
Default
  6
Continuous
 62
     7
100
AcDbText
 10
160.8285652487
 20
202.8321374321
 30
0.0
 40
3.0
  1
16
  7
SEACAD_seiso_ttf
 11
160.8285652487
 21
205.8321374321
 31
0.0
100
AcDbText
 73
     3
  0
ENDBLK
  5
8D
330
84
100
AcDbEntity
  8
0
100
AcDbBlockEnd
  0
BLOCK
  5
90
330
8F
100
AcDbEntity
  8
0
100
AcDbBlockBegin
  2
_OBLIQUE
 70
     0
 10
0.0
 20
0.0
 30
0.0
  3
_OBLIQUE
  1

  0
LINE
  5
92
330
8F
100
AcDbEntity
  8
0
  6
ByBlock
 62
     0
370
    -2
100
AcDbLine
 10
-0.5
 20
-0.5
 30
0.0
 11
0.5
 21
0.5
 31
0.0
  0
ENDBLK
  5
91
330
8F
100
AcDbEntity
  8
0
100
AcDbBlockEnd
  0
BLOCK
  5
94
330
93
100
AcDbEntity
  8
0
100
AcDbBlockBegin
  2
_DOT
 70
     0
 10
0.0
 20
0.0
 30
0.0
  3
_DOT
  1

  0
POLYLINE
  5
96
330
93
100
AcDbEntity
  8
0
  6
ByBlock
 62
     0
100
AcDb2dPolyline
 66
     1
 10
0.0
 20
0.0
 30
0.0
 70
     1
 40
0.5
 41
0.5
  0
VERTEX
  5
99
330
96
100
AcDbEntity
  8
0
  6
ByBlock
 62
     0
100
AcDbVertex
100
AcDb2dVertex
 10
-0.25
 20
0.0
 30
0.0
 42
1.0
  0
VERTEX
  5
9A
330
96
100
AcDbEntity
  8
0
  6
ByBlock
 62
     0
100
AcDbVertex
100
AcDb2dVertex
 10
0.25
 20
0.0
 30
0.0
 42
1.0
  0
SEQEND
  5
98
330
96
100
AcDbEntity
  8
0
  6
ByBlock
 62
     0
  0
LINE
  5
97
330
93
100
AcDbEntity
  8
0
  6
ByBlock
 62
     0
370
    -2
100
AcDbLine
 10
-0.5
 20
0.0
 30
0.0
 11
-1.0
 21
0.0
 31
0.0
  0
ENDBLK
  5
95
330
93
100
AcDbEntity
  8
0
100
AcDbBlockEnd
  0
BLOCK
  5
9E
330
9B
100
AcDbEntity
  8
0
100
AcDbBlockBegin
  2
_SE_FILLED
 70
     0
 10
0.0
 20
0.0
 30
0.0
  3
_SE_FILLED
  1

  0
SOLID
  5
9C
330
9B
100
AcDbEntity
  8
0
 62
     0
100
AcDbTrace
 10
0.0
 20
0.0
 30
0.0
 11
-1.0
 21
-0.1665
 31
0.0
 12
-1.0
 22
0.1665
 32
0.0
 13
0.0
 23
0.0
 33
0.0
  0
LINE
  5
9D
330
9B
100
AcDbEntity
  8
0
 62
     0
100
AcDbLine
 10
0.0
 20
0.0
 30
0.0
 11
-1.0
 21
0.0
 31
0.0
  0
ENDBLK
  5
9F
330
9B
100
AcDbEntity
  8
0
100
AcDbBlockEnd
  0
BLOCK
  5
A9
330
A2
100
AcDbEntity
  8
0
100
AcDbBlockBegin
  2
DMBLK75
 70
     0
 10
0.0
 20
0.0
 30
0.0
  3
DMBLK75
  1

  0
HATCH
  5
A3
330
A2
100
AcDbEntity
  8
Default
  6
Continuous
 62
     7
100
AcDbHatch
 10
0.0
 20
0.0
 30
0.0
210
0.0
220
0.0
230
1.0
  2
SOLID
 70
     1
 71
     0
 91
        1
 92
        1
 93
        3
 72
     1
 10
194.466200478473
 20
176.4096155336036
 11
193.9662004741268
 21
179.4096155596806
 72
     1
 10
193.9662004741268
 20
179.4096155596806
 11
193.4662004697806
 21
176.4096155336036
 72
     1
 10
193.4662004697806
 20
176.4096155336036
 11
194.466200478473
 21
176.4096155336036
 97
        0
 75
     0
 76
     1
 98
        0
  0
HATCH
  5
A4
330
A2
100
AcDbEntity
  8
Default
  6
Continuous
 62
     7
100
AcDbHatch
 10
0.0
 20
0.0
 30
0.0
210
0.0
220
0.0
230
1.0
  2
SOLID
 70
     1
 71
     0
 91
        1
 92
        1
 93
        3
 72
     1
 10
194.466200478473
 20
145.2864085828795
 11
193.4662004697806
 21
145.2864085828795
 72
     1
 10
193.4662004697806
 20
145.2864085828795
 11
193.9662004741268
 21
142.2864085568025
 72
     1
 10
193.9662004741268
 20
142.2864085568025
 11
194.466200478473
 21
145.2864085828795
 97
        0
 75
     0
 76
     1
 98
        0
  0
LINE
  5
A5
330
A2
100
AcDbEntity
  8
Default
  6
Continuous
 62
     7
100
AcDbLine
 10
159.792350504
 20
179.4096155597
 30
0.0
 11
195.4662004872
 21
179.4096155597
 31
0.0
  0
LINE
  5
A6
330
A2
100
AcDbEntity
  8
Default
  6
Continuous
 62
     7
100
AcDbLine
 10
144.792350504
 20
142.2864070882
 30
0.0
 11
195.4662004872
 21
142.2864070882
 31
0.0
  0
LINE
  5
A7
330
A2
100
AcDbEntity
  8
Default
  6
Continuous
 62
     7
100
AcDbLine
 10
193.9662004741
 20
179.4096155597
 30
0.0
 11
193.9662004741
 21
142.2864085568
 31
0.0
  0
TEXT
  5
A8
330
A2
100
AcDbEntity
  8
Default
  6
Continuous
 62
     7
100
AcDbText
 10
193.2162004741
 20
157.3025575128
 30
0.0
 40
3.0
  1
37,12
 50
90.0
  7
SEACAD_seiso_ttf
 11
190.2162004741
 21
157.3025575128
 31
0.0
100
AcDbText
 73
     3
  0
ENDBLK
  5
AA
330
A2
100
AcDbEntity
  8
0
100
AcDbBlockEnd
  0
BLOCK
  5
B3
330
AC
100
AcDbEntity
  8
0
100
AcDbBlockBegin
  2
DMBLK76
 70
     0
 10
0.0
 20
0.0
 30
0.0
  3
DMBLK76
  1

  0
HATCH
  5
AD
330
AC
100
AcDbEntity
  8
Default
  6
Continuous
 62
     7
100
AcDbHatch
 10
0.0
 20
0.0
 30
0.0
210
0.0
220
0.0
230
1.0
  2
SOLID
 70
     1
 71
     0
 91
        1
 92
        1
 93
        3
 72
     1
 10
24.41395291571693
 20
192.2864070620905
 11
25.41395292440927
 21
192.2864070620905
 72
     1
 10
25.41395292440927
 20
192.2864070620905
 11
24.9139529200631
 21
195.2864070881676
 72
     1
 10
24.9139529200631
 20
195.2864070881676
 11
24.41395291571693
 21
192.2864070620905
 97
        0
 75
     0
 76
     1
 98
        0
  0
HATCH
  5
AE
330
AC
100
AcDbEntity
  8
Default
  6
Continuous
 62
     7
100
AcDbHatch
 10
0.0
 20
0.0
 30
0.0
210
0.0
220
0.0
230
1.0
  2
SOLID
 70
     1
 71
     0
 91
        1
 92
        1
 93
        3
 72
     1
 10
24.41395291571693
 20
145.2864077400934
 11
24.9139529200631
 21
142.2864077140163
 72
     1
 10
24.9139529200631
 20
142.2864077140163
 11
25.41395292440927
 21
145.2864077400934
 72
     1
 10
25.41395292440927
 20
145.2864077400934
 11
24.41395291571693
 21
145.2864077400934
 97
        0
 75
     0
 76
     1
 98
        0
  0
LINE
  5
AF
330
AC
100
AcDbEntity
  8
Default
  6
Continuous
 62
     7
100
AcDbLine
 10
49.792350504
 20
195.2864070882
 30
0.0
 11
23.413952907
 21
195.2864070882
 31
0.0
  0
LINE
  5
B0
330
AC
100
AcDbEntity
  8
Default
  6
Continuous
 62
     7
100
AcDbLine
 10
74.792350504
 20
142.2864070882
 30
0.0
 11
23.413952907
 21
142.2864070882
 31
0.0
  0
LINE
  5
B1
330
AC
100
AcDbEntity
  8
Default
  6
Continuous
 62
     7
100
AcDbLine
 10
24.9139529201
 20
195.2864070882
 30
0.0
 11
24.9139529201
 21
142.286407714
 31
0.0
  0
TEXT
  5
B2
330
AC
100
AcDbEntity
  8
Default
  6
Continuous
 62
     7
100
AcDbText
 10
24.1639529201
 20
167.1500437647
 30
0.0
 40
3.0
  1
53
 50
90.0
  7
SEACAD_seiso_ttf
 11
21.1639529201
 21
167.1500437647
 31
0.0
100
AcDbText
 73
     3
  0
ENDBLK
  5
B4
330
AC
100
AcDbEntity
  8
0
100
AcDbBlockEnd
  0
BLOCK
  5
BD
330
B6
100
AcDbEntity
  8
0
100
AcDbBlockBegin
  2
DMBLK77
 70
     0
 10
0.0
 20
0.0
 30
0.0
  3
DMBLK77
  1

  0
HATCH
  5
B7
330
B6
100
AcDbEntity
  8
Default
  6
Continuous
 62
     7
100
AcDbHatch
 10
0.0
 20
0.0
 30
0.0
210
0.0
220
0.0
230
1.0
  2
SOLID
 70
     1
 71
     0
 91
        1
 92
        1
 93
        3
 72
     1
 10
24.41395291571693
 20
198.2864071142446
 11
24.9139529200631
 21
195.2864070881676
 72
     1
 10
24.9139529200631
 20
195.2864070881676
 11
25.41395292440927
 21
198.2864071142446
 72
     1
 10
25.41395292440927
 20
198.2864071142446
 11
24.41395291571693
 21
198.2864071142446
 97
        0
 75
     0
 76
     1
 98
        0
  0
HATCH
  5
B8
330
B6
100
AcDbEntity
  8
Default
  6
Continuous
 62
     7
100
AcDbHatch
 10
0.0
 20
0.0
 30
0.0
210
0.0
220
0.0
230
1.0
  2
SOLID
 70
     1
 71
     0
 91
        1
 92
        1
 93
        3
 72
     1
 10
24.41395291571693
 20
201.2864066746604
 11
25.41395292440927
 21
201.2864066746604
 72
     1
 10
25.41395292440927
 20
201.2864066746604
 11
24.9139529200631
 21
204.2864067007374
 72
     1
 10
24.9139529200631
 20
204.2864067007374
 11
24.41395291571693
 21
201.2864066746604
 97
        0
 75
     0
 76
     1
 98
        0
  0
LINE
  5
B9
330
B6
100
AcDbEntity
  8
Default
  6
Continuous
 62
     7
100
AcDbLine
 10
49.792350504
 20
195.2864070882
 30
0.0
 11
23.413952907
 21
195.2864070882
 31
0.0
  0
LINE
  5
BA
330
B6
100
AcDbEntity
  8
Default
  6
Continuous
 62
     7
100
AcDbLine
 10
52.792350504
 20
204.2864070882
 30
0.0
 11
23.413952907
 21
204.2864070882
 31
0.0
  0
LINE
  5
BB
330
B6
100
AcDbEntity
  8
Default
  6
Continuous
 62
     7
100
AcDbLine
 10
24.9139529201
 20
195.2864070882
 30
0.0
 11
24.9139529201
 21
204.2864067007
 31
0.0
  0
TEXT
  5
BC
330
B6
100
AcDbEntity
  8
Default
  6
Continuous
 62
     7
100
AcDbText
 10
24.1639529201
 20
198.865952349
 30
0.0
 40
3.0
  1
9
 50
90.0
  7
SEACAD_seiso_ttf
 11
21.1639529201
 21
198.865952349
 31
0.0
100
AcDbText
 73
     3
  0
ENDBLK
  5
BE
330
B6
100
AcDbEntity
  8
0
100
AcDbBlockEnd
  0
BLOCK
  5
C7
330
C0
100
AcDbEntity
  8
0
100
AcDbBlockBegin
  2
DMBLK78
 70
     0
 10
0.0
 20
0.0
 30
0.0
  3
DMBLK78
  1

  0
HATCH
  5
C1
330
C0
100
AcDbEntity
  8
Default
  6
Continuous
 62
     7
100
AcDbHatch
 10
0.0
 20
0.0
 30
0.0
210
0.0
220
0.0
230
1.0
  2
SOLID
 70
     1
 71
     0
 91
        1
 92
        1
 93
        3
 72
     1
 10
52.79235053010152
 20
127.0421520179035
 11
52.79235053010152
 21
128.0421520265958
 72
     1
 10
52.79235053010152
 20
128.0421520265958
 11
49.79235050402448
 21
127.5421520222496
 72
     1
 10
49.79235050402448
 20
127.5421520222496
 11
52.79235053010152
 21
127.0421520179035
 97
        0
 75
     0
 76
     1
 98
        0
  0
HATCH
  5
C2
330
C0
100
AcDbEntity
  8
Default
  6
Continuous
 62
     7
100
AcDbHatch
 10
0.0
 20
0.0
 30
0.0
210
0.0
220
0.0
230
1.0
  2
SOLID
 70
     1
 71
     0
 91
        1
 92
        1
 93
        3
 72
     1
 10
164.7916508386271
 20
127.0421520179035
 11
167.7916508647041
 21
127.5421520222496
 72
     1
 10
167.7916508647041
 20
127.5421520222496
 11
164.7916508386271
 21
128.0421520265958
 72
     1
 10
164.7916508386271
 20
128.0421520265958
 11
164.7916508386271
 21
127.0421520179035
 97
        0
 75
     0
 76
     1
 98
        0
  0
LINE
  5
C3
330
C0
100
AcDbEntity
  8
Default
  6
Continuous
 62
     7
100
AcDbLine
 10
49.792350504
 20
195.2864070882
 30
0.0
 11
49.792350504
 21
126.0421520092
 31
0.0
  0
LINE
  5
C4
330
C0
100
AcDbEntity
  8
Default
  6
Continuous
 62
     7
100
AcDbLine
 10
167.7916511002
 20
174.3435089086
 30
0.0
 11
167.7916511002
 21
126.0421520092
 31
0.0
  0
LINE
  5
C5
330
C0
100
AcDbEntity
  8
Default
  6
Continuous
 62
     7
100
AcDbLine
 10
49.792350504
 20
127.5421520222
 30
0.0
 11
167.7916508647
 21
127.5421520222
 31
0.0
  0
TEXT
  5
C6
330
C0
100
AcDbEntity
  8
Default
  6
Continuous
 62
     7
100
AcDbText
 10
106.6101825025
 20
128.2921520222
 30
0.0
 40
3.0
  1
118
  7
SEACAD_seiso_ttf
 11
106.6101825025
 21
131.2921520222
 31
0.0
100
AcDbText
 73
     3
  0
ENDBLK
  5
C8
330
C0
100
AcDbEntity
  8
0
100
AcDbBlockEnd
  0
BLOCK
  5
D2
330
CA
100
AcDbEntity
  8
0
100
AcDbBlockBegin
  2
DMBLK79
 70
     0
 10
0.0
 20
0.0
 30
0.0
  3
DMBLK79
  1

  0
HATCH
  5
CB
330
CA
100
AcDbEntity
  8
Default
  6
Continuous
 62
     7
100
AcDbHatch
 10
0.0
 20
0.0
 30
0.0
210
0.0
220
0.0
230
1.0
  2
SOLID
 70
     1
 71
     0
 91
        1
 92
        1
 93
        3
 72
     1
 10
52.74235047794745
 20
217.2944529745004
 11
52.74235047794745
 21
216.294452965808
 72
     1
 10
52.74235047794745
 20
216.294452965808
 11
55.74235050402449
 21
216.7944529701542
 72
     1
 10
55.74235050402449
 20
216.7944529701542
 11
52.74235047794745
 21
217.2944529745004
 97
        0
 75
     0
 76
     1
 98
        0
  0
HATCH
  5
CC
330
CA
100
AcDbEntity
  8
Default
  6
Continuous
 62
     7
100
AcDbHatch
 10
0.0
 20
0.0
 30
0.0
210
0.0
220
0.0
230
1.0
  2
SOLID
 70
     1
 71
     0
 91
        1
 92
        1
 93
        3
 72
     1
 10
66.84235053010151
 20
217.2944529745004
 11
63.84235050402448
 21
216.7944529701542
 72
     1
 10
63.84235050402448
 20
216.7944529701542
 11
66.84235053010151
 21
216.294452965808
 72
     1
 10
66.84235053010151
 20
216.294452965808
 11
66.84235053010151
 21
217.2944529745004
 97
        0
 75
     0
 76
     1
 98
        0
  0
LINE
  5
CD
330
CA
100
AcDbEntity
  8
Default
  6
Continuous
 62
     7
100
AcDbLine
 10
55.742350504
 20
204.2864070882
 30
0.0
 11
55.742350504
 21
218.2944529832
 31
0.0
  0
LINE
  5
CE
330
CA
100
AcDbEntity
  8
Default
  6
Continuous
 62
     7
100
AcDbLine
 10
63.842350504
 20
204.2864070882
 30
0.0
 11
63.842350504
 21
218.2944529832
 31
0.0
  0
LINE
  5
CF
330
CA
100
AcDbEntity
  8
Default
  6
Continuous
 62
     7
100
AcDbLine
 10
49.7423504519
 20
216.7944529702
 30
0.0
 11
69.8423507663
 21
216.7944529702
 31
0.0
  0
TEXT
  5
D0
330
CA
100
AcDbEntity
  8
Default
  6
Continuous
 62
     7
100
AcDbText
 10
60.8945919959
 20
217.5444529702
 30
0.0
 40
3.0
  1
8
  7
SEACAD_seiso_ttf
 11
60.8945919959
 21
220.5444529702
 31
0.0
100
AcDbText
 73
     3
  0
TEXT
  5
D1
330
CA
100
AcDbEntity
  8
Default
  6
Continuous
 62
     7
100
AcDbText
 10
57.1884784588
 20
217.5444529702
 30
0.0
 40
3.0
  1
q
  7
SEACAD_semeci1_ttf
 11
57.1884784588
 21
220.5444529702
 31
0.0
100
AcDbText
 73
     3
  0
ENDBLK
  5
D3
330
CA
100
AcDbEntity
  8
0
100
AcDbBlockEnd
  0
BLOCK
  5
DD
330
D5
100
AcDbEntity
  8
0
100
AcDbBlockBegin
  2
DMBLK80
 70
     0
 10
0.0
 20
0.0
 30
0.0
  3
DMBLK80
  1

  0
HATCH
  5
D6
330
D5
100
AcDbEntity
  8
Default
  6
Continuous
 62
     7
100
AcDbHatch
 10
0.0
 20
0.0
 30
0.0
210
0.0
220
0.0
230
1.0
  2
SOLID
 70
     1
 71
     0
 91
        1
 92
        1
 93
        3
 72
     1
 10
54.79235053010152
 20
226.8613767418286
 11
51.79235050402448
 21
226.3613767374825
 72
     1
 10
51.79235050402448
 20
226.3613767374825
 11
54.79235053010152
 21
225.8613767331363
 72
     1
 10
54.79235053010152
 20
225.8613767331363
 11
54.79235053010152
 21
226.8613767418286
 97
        0
 75
     0
 76
     1
 98
        0
  0
HATCH
  5
D7
330
D5
100
AcDbEntity
  8
Default
  6
Continuous
 62
     7
100
AcDbHatch
 10
0.0
 20
0.0
 30
0.0
210
0.0
220
0.0
230
1.0
  2
SOLID
 70
     1
 71
     0
 91
        1
 92
        1
 93
        3
 72
     1
 10
64.79235123790666
 20
226.8613767418286
 11
64.79235123790666
 21
225.8613767331363
 72
     1
 10
64.79235123790666
 20
225.8613767331363
 11
67.79235126398369
 21
226.3613767374825
 72
     1
 10
67.79235126398369
 20
226.3613767374825
 11
64.79235123790666
 21
226.8613767418286
 97
        0
 75
     0
 76
     1
 98
        0
  0
LINE
  5
D8
330
D5
100
AcDbEntity
  8
Default
  6
Continuous
 62
     7
100
AcDbLine
 10
51.792350504
 20
203.2864070882
 30
0.0
 11
51.792350504
 21
227.8613767505
 31
0.0
  0
LINE
  5
D9
330
D5
100
AcDbEntity
  8
Default
  6
Continuous
 62
     7
100
AcDbLine
 10
67.792350504
 20
203.2864070882
 30
0.0
 11
67.792350504
 21
227.8613767505
 31
0.0
  0
LINE
  5
DA
330
D5
100
AcDbEntity
  8
Default
  6
Continuous
 62
     7
100
AcDbLine
 10
51.792350504
 20
226.3613767375
 30
0.0
 11
67.792351264
 21
226.3613767375
 31
0.0
  0
TEXT
  5
DB
330
D5
100
AcDbEntity
  8
Default
  6
Continuous
 62
     7
100
AcDbText
 10
60.0785656518
 20
227.1113767375
 30
0.0
 40
3.0
  1
16
  7
SEACAD_seiso_ttf
 11
60.0785656518
 21
230.1113767375
 31
0.0
100
AcDbText
 73
     3
  0
TEXT
  5
DC
330
D5
100
AcDbEntity
  8
Default
  6
Continuous
 62
     7
100
AcDbText
 10
56.4379542981
 20
227.1113767375
 30
0.0
 40
3.0
  1
O
  7
SEACAD_semeci1_ttf
 11
56.4379542981
 21
230.1113767375
 31
0.0
100
AcDbText
 73
     3
  0
ENDBLK
  5
DE
330
D5
100
AcDbEntity
  8
0
100
AcDbBlockEnd
  0
BLOCK
  5
E8
330
E0
100
AcDbEntity
  8
0
100
AcDbBlockBegin
  2
DMBLK81
 70
     0
 10
0.0
 20
0.0
 30
0.0
  3
DMBLK81
  1

  0
HATCH
  5
E1
330
E0
100
AcDbEntity
  8
Default
  6
Continuous
 62
     7
100
AcDbHatch
 10
0.0
 20
0.0
 30
0.0
210
0.0
220
0.0
230
1.0
  2
SOLID
 70
     1
 71
     0
 91
        1
 92
        1
 93
        3
 72
     1
 10
66.79235047794735
 20
235.0219207498452
 11
66.79235047794735
 21
234.0219207411529
 72
     1
 10
66.79235047794735
 20
234.0219207411529
 11
69.79235050402438
 21
234.521920745499
 72
     1
 10
69.79235050402438
 20
234.521920745499
 11
66.79235047794735
 21
235.0219207498452
 97
        0
 75
     0
 76
     1
 98
        0
  0
HATCH
  5
E2
330
E0
100
AcDbEntity
  8
Default
  6
Continuous
 62
     7
100
AcDbHatch
 10
0.0
 20
0.0
 30
0.0
210
0.0
220
0.0
230
1.0
  2
SOLID
 70
     1
 71
     0
 91
        1
 92
        1
 93
        3
 72
     1
 10
52.79235097713625
 20
235.0219207498452
 11
49.79235095105922
 21
234.521920745499
 72
     1
 10
49.79235095105922
 20
234.521920745499
 11
52.79235097713625
 21
234.0219207411529
 72
     1
 10
52.79235097713625
 20
234.0219207411529
 11
52.79235097713625
 21
235.0219207498452
 97
        0
 75
     0
 76
     1
 98
        0
  0
LINE
  5
E3
330
E0
100
AcDbEntity
  8
Default
  6
Continuous
 62
     7
100
AcDbLine
 10
69.792350504
 20
195.2864070882
 30
0.0
 11
69.792350504
 21
236.0219207585
 31
0.0
  0
LINE
  5
E4
330
E0
100
AcDbEntity
  8
Default
  6
Continuous
 62
     7
100
AcDbLine
 10
49.792350504
 20
195.2864070882
 30
0.0
 11
49.792350504
 21
236.0219207585
 31
0.0
  0
LINE
  5
E5
330
E0
100
AcDbEntity
  8
Default
  6
Continuous
 62
     7
100
AcDbLine
 10
69.792350504
 20
234.5219207455
 30
0.0
 11
49.7923509511
 21
234.5219207455
 31
0.0
  0
TEXT
  5
E6
330
E0
100
AcDbEntity
  8
Default
  6
Continuous
 62
     7
100
AcDbText
 10
59.8058382226
 20
235.2719207455
 30
0.0
 40
3.0
  1
20
  7
SEACAD_seiso_ttf
 11
59.8058382226
 21
238.2719207455
 31
0.0
100
AcDbText
 73
     3
  0
TEXT
  5
E7
330
E0
100
AcDbEntity
  8
Default
  6
Continuous
 62
     7
100
AcDbText
 10
56.1652268689
 20
235.2719207455
 30
0.0
 40
3.0
  1
O
  7
SEACAD_semeci1_ttf
 11
56.1652268689
 21
238.2719207455
 31
0.0
100
AcDbText
 73
     3
  0
ENDBLK
  5
E9
330
E0
100
AcDbEntity
  8
0
100
AcDbBlockEnd
  0
ENDSEC
  0
SECTION
  2
ENTITIES
  0
TEXT
  5
5E
330
1F
100
AcDbEntity
  8
Default
  6
Continuous
 62
     7
100
AcDbText
 10
94.238537279
 20
93.7206457271
 30
0.0
 40
5.0
  1
32.240
  7
SEACAD_seiso_ttf
 11
94.238537279
 21
98.7206457271
 31
0.0
100
AcDbText
 73
     3
  0
INSERT
  5
61
330
1F
100
AcDbEntity
  8
0
100
AcDbBlockReference
  2
SE
 10
0.0
 20
0.0
 30
0.0
  0
INSERT
  5
85
330
1F
100
AcDbEntity
  8
Default
100
AcDbBlockReference
  2
GDimGGroup
 10
0.0
 20
0.0
 30
0.0
  0
DIMENSION
  5
A1
330
1F
100
AcDbEntity
  8
Default
  6
Continuous
 62
     7
100
AcDbDimension
  2
DMBLK75
 10
193.9662004741
 20
142.2864070882
 30
0.0
 11
193.9662004741
 21
160.8480120582
 31
0.0
 70
   160
  1
\A1;<>
 71
     5
 42
-1.0
  3
DIN
100
AcDbAlignedDimension
 13
159.792350504
 23
179.4096155597
 33
0.0
 14
144.792350504
 24
142.2864070882
 34
0.0
 50
90.0
100
AcDbRotatedDimension
  0
DIMENSION
  5
AB
330
1F
100
AcDbEntity
  8
Default
  6
Continuous
 62
     7
100
AcDbDimension
  2
DMBLK76
 10
24.9139529201
 20
142.2864070882
 30
0.0
 11
24.9139529201
 21
168.7864074011
 31
0.0
 70
   160
  1
\A1;<>
 71
     5
 42
-1.0
  3
DIN
100
AcDbAlignedDimension
 13
49.792350504
 23
195.2864070882
 33
0.0
 14
74.792350504
 24
142.2864070882
 34
0.0
 50
90.0
100
AcDbRotatedDimension
  0
DIMENSION
  5
B5
330
1F
100
AcDbEntity
  8
Default
  6
Continuous
 62
     7
100
AcDbDimension
  2
DMBLK77
 10
24.9139529201
 20
204.2864070882
 30
0.0
 11
24.9139529201
 21
199.7864068945
 31
0.0
 70
   160
  1
\A1;<>
 71
     5
 42
-1.0
  3
DIN
100
AcDbAlignedDimension
 13
49.792350504
 23
195.2864070882
 33
0.0
 14
52.792350504
 24
204.2864070882
 34
0.0
 50
90.0
100
AcDbRotatedDimension
  0
DIMENSION
  5
BF
330
1F
100
AcDbEntity
  8
Default
  6
Continuous
 62
     7
100
AcDbDimension
  2
DMBLK78
 10
167.7916511002
 20
127.5421520222
 30
0.0
 11
108.7920006844
 21
127.5421520222
 31
0.0
 70
   160
  1
\A1;<>
 71
     5
 42
-1.0
  3
DIN
100
AcDbAlignedDimension
 13
49.792350504
 23
195.2864070882
 33
0.0
 14
167.7916511002
 24
174.3435089086
 34
0.0
100
AcDbRotatedDimension
  0
DIMENSION
  5
C9
330
1F
100
AcDbEntity
  8
Default
  6
Continuous
 62
     7
100
AcDbDimension
  2
DMBLK79
 10
55.742350504
 20
216.7944529702
 30
0.0
 11
59.9960806819
 21
216.7944529702
 31
0.0
 70
   161
  1
\A1;{\Fsemeca1.ttf;q} <>
 71
     5
 42
-1.0
  3
DIN
100
AcDbAlignedDimension
 13
55.742350504
 23
204.2864070882
 33
0.0
 14
63.842350504
 24
204.2864070882
 34
0.0
1001
ACAD
1000
DSTYLE
1002
{
1070
   271
1070
     0
1070
   272
1070
     0
1070
     0
1002
}
  0
DIMENSION
  5
D4
330
1F
100
AcDbEntity
  8
Default
  6
Continuous
 62
     7
100
AcDbDimension
  2
DMBLK80
 10
51.792350504
 20
226.3613767375
 30
0.0
 11
59.792350884
 21
226.3613767375
 31
0.0
 70
   161
  1
\A1;%%C <>
 71
     5
 42
-1.0
  3
DIN
100
AcDbAlignedDimension
 13
51.792350504
 23
203.2864070882
 33
0.0
 14
67.792350504
 24
203.2864070882
 34
0.0
  0
DIMENSION
  5
DF
330
1F
100
AcDbEntity
  8
Default
  6
Continuous
 62
     7
100
AcDbDimension
  2
DMBLK81
 10
49.792350504
 20
234.5219207455
 30
0.0
 11
59.7923507275
 21
234.5219207455
 31
0.0
 70
   160
  1
\A1;%%C <>
 71
     5
 42
-1.0
  3
DIN
100
AcDbAlignedDimension
 13
69.792350504
 23
195.2864070882
 33
0.0
 14
49.792350504
 24
195.2864070882
 34
0.0
100
AcDbRotatedDimension
  0
ENDSEC
  0
SECTION
  2
OBJECTS
  0
DICTIONARY
  5
C
330
0
100
AcDbDictionary
281
     1
  3
ACAD_GROUP
350
D
  3
ACAD_LAYOUT
350
1A
  3
ACAD_MLEADERSTYLE
350
ED
  3
ACAD_MLINESTYLE
350
17
  3
ACAD_PLOTSETTINGS
350
19
  3
ACAD_PLOTSTYLENAME
350
E
  3
ACAD_SCALELIST
350
3B
  3
ACAD_TABLESTYLE
350
EC
  3
ACAD_VISUALSTYLE
350
2A
  3
AcDbVariableDictionary
350
EA
  0
DICTIONARY
  5
D
102
{ACAD_REACTORS
330
C
102
}
330
C
100
AcDbDictionary
281
     1
  0
DICTIONARY
  5
1A
102
{ACAD_REACTORS
330
C
102
}
330
C
100
AcDbDictionary
281
     1
  3
Layout1
350
1E
  3
Model
350
22
  0
DICTIONARY
  5
ED
102
{ACAD_REACTORS
330
C
102
}
330
C
100
AcDbDictionary
281
     1
  0
DICTIONARY
  5
17
102
{ACAD_REACTORS
330
C
102
}
330
C
100
AcDbDictionary
281
     1
  3
Standard
350
18
  0
DICTIONARY
  5
19
102
{ACAD_REACTORS
330
C
102
}
330
C
100
AcDbDictionary
281
     1
  0
ACDBDICTIONARYWDFLT
  5
E
102
{ACAD_REACTORS
330
C
102
}
330
C
100
AcDbDictionary
281
     1
  3
Normal
350
F
100
AcDbDictionaryWithDefault
340
F
  0
DICTIONARY
  5
3B
102
{ACAD_REACTORS
330
C
102
}
330
C
100
AcDbDictionary
281
     1
  3
A0
350
3C
  3
A1
350
3D
  3
A2
350
3E
  3
A3
350
3F
  3
A4
350
40
  3
A5
350
41
  3
A6
350
42
  3
A7
350
43
  3
A8
350
44
  3
A9
350
45
  3
B0
350
46
  3
B1
350
47
  3
B2
350
48
  3
B3
350
49
  3
B4
350
4A
  3
B5
350
4B
  3
B6
350
4C
  3
B7
350
4D
  3
B8
350
4E
  3
B9
350
4F
  3
C0
350
50
  3
C1
350
51
  3
C2
350
52
  3
C3
350
53
  3
C4
350
54
  3
C5
350
55
  3
C6
350
56
  3
C7
350
57
  3
C8
350
58
  3
C9
350
59
  3
D0
350
5A
  3
D1
350
5B
  3
D2
350
5C
  0
DICTIONARY
  5
EC
102
{ACAD_REACTORS
330
C
102
}
330
C
100
AcDbDictionary
281
     1
  0
DICTIONARY
  5
2A
102
{ACAD_REACTORS
330
C
102
}
330
C
100
AcDbDictionary
281
     1
  3
2dWireframe
350
2F
  3
3D Hidden
350
31
  3
3dWireframe
350
30
  3
Basic
350
32
  3
Brighten
350
36
  3
ColorChange
350
3A
  3
Conceptual
350
34
  3
Dim
350
35
  3
Facepattern
350
39
  3
Flat
350
2B
  3
FlatWithEdges
350
2C
  3
Gouraud
350
2D
  3
GouraudWithEdges
350
2E
  3
Linepattern
350
38
  3
Realistic
350
33
  3
Thicken
350
37
  0
DICTIONARY
  5
EA
102
{ACAD_REACTORS
330
C
102
}
330
C
100
AcDbDictionary
281
     1
  3
CANNOSCALE
350
EB
  3
PSOLHEIGHT
350
EF
  3
PSOLWIDTH
350
EE
  0
LAYOUT
  5
1E
102
{ACAD_REACTORS
330
1A
102
}
330
1A
100
AcDbPlotSettings
  1

  2
none_device
  4

  6

 40
0.0
 41
0.0
 42
0.0
 43
0.0
 44
0.0
 45
0.0
 46
0.0
 47
0.0
 48
0.0
 49
0.0
140
0.0
141
0.0
142
1.0
143
1.0
 70
   688
 72
     0
 73
     0
 74
     5
  7

 75
    16
147
1.0
148
0.0
149
0.0
100
AcDbLayout
  1
Layout1
 70
     1
 71
     1
 10
0.0
 20
0.0
 11
210.0
 21
297.0
 12
0.0
 22
0.0
 32
0.0
 14
0.0
 24
0.0
 34
0.0
 15
210.0
 25
297.0
 35
0.0
146
0.0
 13
0.0
 23
0.0
 33
0.0
 16
1.0
 26
0.0
 36
0.0
 17
0.0
 27
1.0
 37
0.0
 76
     0
330
1B
  0
LAYOUT
  5
22
102
{ACAD_REACTORS
330
1A
102
}
330
1A
100
AcDbPlotSettings
  1

  2
none_device
  4

  6

 40
0.0
 41
0.0
 42
0.0
 43
0.0
 44
0.0
 45
0.0
 46
0.0
 47
0.0
 48
0.0
 49
0.0
140
0.0
141
0.0
142
1.0
143
1.0
 70
  1712
 72
     0
 73
     0
 74
     0
  7

 75
     0
147
1.0
148
0.0
149
0.0
100
AcDbLayout
  1
Model
 70
     1
 71
     0
 10
0.0
 20
0.0
 11
210.0
 21
297.0
 12
0.0
 22
0.0
 32
0.0
 14
0.0
 24
0.0
 34
0.0
 15
210.0
 25
297.0
 35
0.0
146
0.0
 13
0.0
 23
0.0
 33
0.0
 16
1.0
 26
0.0
 36
0.0
 17
0.0
 27
1.0
 37
0.0
 76
     0
330
1F
331
29
  0
MLINESTYLE
  5
18
102
{ACAD_REACTORS
330
17
102
}
330
17
100
AcDbMlineStyle
  2
Standard
 70
     0
  3

 62
   256
 51
90.0
 52
90.0
 71
     2
 49
0.5
 62
   256
  6
BYLAYER
 49
-0.5
 62
   256
  6
BYLAYER
  0
ACDBPLACEHOLDER
  5
F
102
{ACAD_REACTORS
330
E
102
}
330
E
  0
SCALE
  5
3C
102
{ACAD_REACTORS
330
3B
102
}
330
3B
100
AcDbScale
 70
     0
300
1:1
140
1.0
141
1.0
290
     1
  0
SCALE
  5
3D
102
{ACAD_REACTORS
330
3B
102
}
330
3B
100
AcDbScale
 70
     0
300
1:2
140
1.0
141
2.0
290
     0
  0
SCALE
  5
3E
102
{ACAD_REACTORS
330
3B
102
}
330
3B
100
AcDbScale
 70
     0
300
1:4
140
1.0
141
4.0
290
     0
  0
SCALE
  5
3F
102
{ACAD_REACTORS
330
3B
102
}
330
3B
100
AcDbScale
 70
     0
300
1:5
140
1.0
141
5.0
290
     0
  0
SCALE
  5
40
102
{ACAD_REACTORS
330
3B
102
}
330
3B
100
AcDbScale
 70
     0
300
1:8
140
1.0
141
8.0
290
     0
  0
SCALE
  5
41
102
{ACAD_REACTORS
330
3B
102
}
330
3B
100
AcDbScale
 70
     0
300
1:10
140
1.0
141
10.0
290
     0
  0
SCALE
  5
42
102
{ACAD_REACTORS
330
3B
102
}
330
3B
100
AcDbScale
 70
     0
300
1:16
140
1.0
141
16.0
290
     0
  0
SCALE
  5
43
102
{ACAD_REACTORS
330
3B
102
}
330
3B
100
AcDbScale
 70
     0
300
1:20
140
1.0
141
20.0
290
     0
  0
SCALE
  5
44
102
{ACAD_REACTORS
330
3B
102
}
330
3B
100
AcDbScale
 70
     0
300
1:30
140
1.0
141
30.0
290
     0
  0
SCALE
  5
45
102
{ACAD_REACTORS
330
3B
102
}
330
3B
100
AcDbScale
 70
     0
300
1:40
140
1.0
141
40.0
290
     0
  0
SCALE
  5
46
102
{ACAD_REACTORS
330
3B
102
}
330
3B
100
AcDbScale
 70
     0
300
1:50
140
1.0
141
50.0
290
     0
  0
SCALE
  5
47
102
{ACAD_REACTORS
330
3B
102
}
330
3B
100
AcDbScale
 70
     0
300
1:100
140
1.0
141
100.0
290
     0
  0
SCALE
  5
48
102
{ACAD_REACTORS
330
3B
102
}
330
3B
100
AcDbScale
 70
     0
300
2:1
140
2.0
141
1.0
290
     0
  0
SCALE
  5
49
102
{ACAD_REACTORS
330
3B
102
}
330
3B
100
AcDbScale
 70
     0
300
4:1
140
4.0
141
1.0
290
     0
  0
SCALE
  5
4A
102
{ACAD_REACTORS
330
3B
102
}
330
3B
100
AcDbScale
 70
     0
300
8:1
140
8.0
141
1.0
290
     0
  0
SCALE
  5
4B
102
{ACAD_REACTORS
330
3B
102
}
330
3B
100
AcDbScale
 70
     0
300
10:1
140
10.0
141
1.0
290
     0
  0
SCALE
  5
4C
102
{ACAD_REACTORS
330
3B
102
}
330
3B
100
AcDbScale
 70
     0
300
100:1
140
100.0
141
1.0
290
     0
  0
SCALE
  5
4D
102
{ACAD_REACTORS
330
3B
102
}
330
3B
100
AcDbScale
 70
     0
300
1/128" = 1'-0"
140
0.0078125
141
12.0
290
     0
  0
SCALE
  5
4E
102
{ACAD_REACTORS
330
3B
102
}
330
3B
100
AcDbScale
 70
     0
300
1/64" = 1'-0"
140
0.015625
141
12.0
290
     0
  0
SCALE
  5
4F
102
{ACAD_REACTORS
330
3B
102
}
330
3B
100
AcDbScale
 70
     0
300
1/32" = 1'-0"
140
0.03125
141
12.0
290
     0
  0
SCALE
  5
50
102
{ACAD_REACTORS
330
3B
102
}
330
3B
100
AcDbScale
 70
     0
300
1/16" = 1'-0"
140
0.0625
141
12.0
290
     0
  0
SCALE
  5
51
102
{ACAD_REACTORS
330
3B
102
}
330
3B
100
AcDbScale
 70
     0
300
3/32" = 1'-0"
140
0.09375
141
12.0
290
     0
  0
SCALE
  5
52
102
{ACAD_REACTORS
330
3B
102
}
330
3B
100
AcDbScale
 70
     0
300
1/8" = 1'-0"
140
0.125
141
12.0
290
     0
  0
SCALE
  5
53
102
{ACAD_REACTORS
330
3B
102
}
330
3B
100
AcDbScale
 70
     0
300
3/16" = 1'-0"
140
0.1875
141
12.0
290
     0
  0
SCALE
  5
54
102
{ACAD_REACTORS
330
3B
102
}
330
3B
100
AcDbScale
 70
     0
300
1/4" = 1'-0"
140
0.25
141
12.0
290
     0
  0
SCALE
  5
55
102
{ACAD_REACTORS
330
3B
102
}
330
3B
100
AcDbScale
 70
     0
300
3/8" = 1'-0"
140
0.375
141
12.0
290
     0
  0
SCALE
  5
56
102
{ACAD_REACTORS
330
3B
102
}
330
3B
100
AcDbScale
 70
     0
300
1/2" = 1'-0"
140
0.5
141
12.0
290
     0
  0
SCALE
  5
57
102
{ACAD_REACTORS
330
3B
102
}
330
3B
100
AcDbScale
 70
     0
300
3/4" = 1'-0"
140
0.75
141
12.0
290
     0
  0
SCALE
  5
58
102
{ACAD_REACTORS
330
3B
102
}
330
3B
100
AcDbScale
 70
     0
300
1" = 1'-0"
140
1.0
141
12.0
290
     0
  0
SCALE
  5
59
102
{ACAD_REACTORS
330
3B
102
}
330
3B
100
AcDbScale
 70
     0
300
1-1/2" = 1'-0"
140
1.5
141
12.0
290
     0
  0
SCALE
  5
5A
102
{ACAD_REACTORS
330
3B
102
}
330
3B
100
AcDbScale
 70
     0
300
3" = 1'-0"
140
3.0
141
12.0
290
     0
  0
SCALE
  5
5B
102
{ACAD_REACTORS
330
3B
102
}
330
3B
100
AcDbScale
 70
     0
300
6" = 1'-0"
140
6.0
141
12.0
290
     0
  0
SCALE
  5
5C
102
{ACAD_REACTORS
330
3B
102
}
330
3B
100
AcDbScale
 70
     0
300
1'-0" = 1'-0"
140
12.0
141
12.0
290
     0
  0
VISUALSTYLE
  5
2F
102
{ACAD_REACTORS
330
2A
102
}
330
2A
100
AcDbVisualStyle
  2
2dWireframe
 70
     4
 71
     0
 72
     2
 73
     0
 90
        0
 40
-0.6
 41
-30.0
 62
     5
 63
     7
 74
     1
 91
        4
 64
     7
 65
   257
 75
     1
175
     1
 42
1.0
 92
        0
 66
   257
 43
1.0
 76
     1
 77
     6
 78
     2
 67
     7
 79
     5
170
     0
171
     0
290
     0
174
     0
 93
        1
 44
0.0
173
     0
291
     0
 45
0.0
1001
ACAD
1000
AcDbSavedByObjectVersion
1070
     0
  0
VISUALSTYLE
  5
31
102
{ACAD_REACTORS
330
2A
102
}
330
2A
100
AcDbVisualStyle
  2
3D Hidden
 70
     6
 71
     1
 72
     2
 73
     2
 90
        0
 40
-0.6
 41
-30.0
 62
     5
 63
     7
 74
     2
 91
        2
 64
     7
 65
   257
 75
     2
175
     1
 42
40.0
 92
        0
 66
   257
 43
1.0
 76
     1
 77
     6
 78
     2
 67
     7
 79
     3
170
     0
171
     0
290
     0
174
     0
 93
        1
 44
0.0
173
     0
291
     0
 45
0.0
1001
ACAD
1000
AcDbSavedByObjectVersion
1070
     0
  0
VISUALSTYLE
  5
30
102
{ACAD_REACTORS
330
2A
102
}
330
2A
100
AcDbVisualStyle
  2
3dWireframe
 70
     5
 71
     0
 72
     2
 73
     0
 90
        0
 40
-0.6
 41
-30.0
 62
     5
 63
     7
 74
     1
 91
        4
 64
     7
 65
   257
 75
     1
175
     1
 42
1.0
 92
        0
 66
   257
 43
1.0
 76
     1
 77
     6
 78
     2
 67
     7
 79
     5
170
     0
171
     0
290
     0
174
     0
 93
        1
 44
0.0
173
     0
291
     0
 45
0.0
1001
ACAD
1000
AcDbSavedByObjectVersion
1070
     0
  0
VISUALSTYLE
  5
32
102
{ACAD_REACTORS
330
2A
102
}
330
2A
100
AcDbVisualStyle
  2
Basic
 70
     7
 71
     1
 72
     0
 73
     1
 90
        0
 40
-0.6
 41
-30.0
 62
     5
 63
     7
 74
     0
 91
        4
 64
     7
 65
   257
 75
     1
175
     1
 42
1.0
 92
        8
 66
     7
 43
1.0
 76
     1
 77
     6
 78
     2
 67
     7
 79
     5
170
     0
171
     0
290
     0
174
     0
 93
        1
 44
0.0
173
     0
291
     1
 45
0.0
1001
ACAD
1000
AcDbSavedByObjectVersion
1070
     0
  0
VISUALSTYLE
  5
36
102
{ACAD_REACTORS
330
2A
102
}
330
2A
100
AcDbVisualStyle
  2
Brighten
 70
    12
 71
     2
 72
     2
 73
     0
 90
        0
 40
-0.6
 41
-30.0
 62
     5
 63
     7
 74
     1
 91
        4
 64
     7
 65
   257
 75
     1
175
     1
 42
1.0
 92
        8
 66
     7
 43
1.0
 76
     1
 77
     6
 78
     2
 67
     7
 79
     5
170
     0
171
     0
290
     0
174
     0
 93
        1
 44
50.0
173
     0
291
     1
 45
0.0
1001
ACAD
1000
AcDbSavedByObjectVersion
1070
     0
  0
VISUALSTYLE
  5
3A
102
{ACAD_REACTORS
330
2A
102
}
330
2A
100
AcDbVisualStyle
  2
ColorChange
 70
    16
 71
     2
 72
     2
 73
     3
 90
        0
 40
-0.6
 41
-30.0
 62
     5
 63
     8
 74
     1
 91
        4
 64
     7
 65
   257
 75
     1
175
     1
 42
1.0
 92
        8
 66
     8
 43
1.0
 76
     1
 77
     6
 78
     2
 67
     7
 79
     5
170
     0
171
     0
290
     0
174
     0
 93
        1
 44
0.0
173
     0
291
     1
 45
0.0
1001
ACAD
1000
AcDbSavedByObjectVersion
1070
     0
  0
VISUALSTYLE
  5
34
102
{ACAD_REACTORS
330
2A
102
}
330
2A
100
AcDbVisualStyle
  2
Conceptual
 70
     9
 71
     3
 72
     2
 73
     0
 90
        0
 40
-0.6
 41
-30.0
 62
     5
 63
     7
 74
     2
 91
        2
 64
     7
 65
   257
 75
     1
175
     1
 42
40.0
 92
        8
 66
     7
 43
1.0
 76
     1
 77
     6
 78
     2
 67
     7
 79
     3
170
     0
171
     0
290
     0
174
     0
 93
        1
 44
0.0
173
     0
291
     0
 45
0.0
1001
ACAD
1000
AcDbSavedByObjectVersion
1070
     0
  0
VISUALSTYLE
  5
35
102
{ACAD_REACTORS
330
2A
102
}
330
2A
100
AcDbVisualStyle
  2
Dim
 70
    11
 71
     2
 72
     2
 73
     0
 90
        0
 40
-0.6
 41
-30.0
 62
     5
 63
     7
 74
     1
 91
        4
 64
     7
 65
   257
 75
     1
175
     1
 42
1.0
 92
        8
 66
     7
 43
1.0
 76
     1
 77
     6
 78
     2
 67
     7
 79
     5
170
     0
171
     0
290
     0
174
     0
 93
        1
 44
-50.0
173
     0
291
     1
 45
0.0
1001
ACAD
1000
AcDbSavedByObjectVersion
1070
     0
  0
VISUALSTYLE
  5
39
102
{ACAD_REACTORS
330
2A
102
}
330
2A
100
AcDbVisualStyle
  2
Facepattern
 70
    15
 71
     2
 72
     2
 73
     0
 90
        0
 40
-0.6
 41
-30.0
 62
     5
 63
     7
 74
     1
 91
        4
 64
     7
 65
   257
 75
     1
175
     1
 42
1.0
 92
        8
 66
     7
 43
1.0
 76
     1
 77
     6
 78
     2
 67
     7
 79
     5
170
     0
171
     0
290
     0
174
     0
 93
        1
 44
0.0
173
     0
291
     1
 45
0.0
1001
ACAD
1000
AcDbSavedByObjectVersion
1070
     0
  0
VISUALSTYLE
  5
2B
102
{ACAD_REACTORS
330
2A
102
}
330
2A
100
AcDbVisualStyle
  2
Flat
 70
     0
 71
     2
 72
     1
 73
     1
 90
        2
 40
-0.6
 41
30.0
 62
     5
 63
     7
 74
     0
 91
        4
 64
     7
 65
   257
 75
     1
175
     1
 42
1.0
 92
        8
 66
     7
 43
1.0
 76
     1
 77
     6
 78
     2
 67
     7
 79
     5
170
     0
171
     0
290
     0
174
     0
 93
       13
 44
0.0
173
     0
291
     1
 45
0.0
1001
ACAD
1000
AcDbSavedByObjectVersion
1070
     0
  0
VISUALSTYLE
  5
2C
102
{ACAD_REACTORS
330
2A
102
}
330
2A
100
AcDbVisualStyle
  2
FlatWithEdges
 70
     1
 71
     2
 72
     1
 73
     1
 90
        2
 40
-0.6
 41
30.0
 62
     5
 63
     7
 74
     1
 91
        4
 64
     7
 65
   257
 75
     1
175
     1
 42
1.0
 92
        0
 66
   257
 43
1.0
 76
     1
 77
     6
 78
     2
 67
     7
 79
     5
170
     0
171
     0
290
     0
174
     0
 93
       13
 44
0.0
173
     0
291
     1
 45
0.0
1001
ACAD
1000
AcDbSavedByObjectVersion
1070
     0
  0
VISUALSTYLE
  5
2D
102
{ACAD_REACTORS
330
2A
102
}
330
2A
100
AcDbVisualStyle
  2
Gouraud
 70
     2
 71
     2
 72
     2
 73
     1
 90
        2
 40
-0.6
 41
30.0
 62
     5
 63
     7
 74
     0
 91
        4
 64
     7
 65
   257
 75
     1
175
     1
 42
1.0
 92
        0
 66
     7
 43
1.0
 76
     1
 77
     6
 78
     2
 67
     7
 79
     5
170
     0
171
     0
290
     0
174
     0
 93
       13
 44
0.0
173
     0
291
     1
 45
0.0
1001
ACAD
1000
AcDbSavedByObjectVersion
1070
     0
  0
VISUALSTYLE
  5
2E
102
{ACAD_REACTORS
330
2A
102
}
330
2A
100
AcDbVisualStyle
  2
GouraudWithEdges
 70
     3
 71
     2
 72
     2
 73
     1
 90
        2
 40
-0.6
 41
30.0
 62
     5
 63
     7
 74
     1
 91
        4
 64
     7
 65
   257
 75
     1
175
     1
 42
1.0
 92
        0
 66
   257
 43
1.0
 76
     1
 77
     6
 78
     2
 67
     7
 79
     5
170
     0
171
     0
290
     0
174
     0
 93
       13
 44
0.0
173
     0
291
     1
 45
0.0
1001
ACAD
1000
AcDbSavedByObjectVersion
1070
     0
  0
VISUALSTYLE
  5
38
102
{ACAD_REACTORS
330
2A
102
}
330
2A
100
AcDbVisualStyle
  2
Linepattern
 70
    14
 71
     2
 72
     2
 73
     0
 90
        0
 40
-0.6
 41
-30.0
 62
     5
 63
     7
 74
     1
 91
        4
 64
     7
 65
   257
 75
     7
175
     7
 42
1.0
 92
        8
 66
     7
 43
1.0
 76
     1
 77
     6
 78
     2
 67
     7
 79
     5
170
     0
171
     0
290
     0
174
     0
 93
        1
 44
0.0
173
     0
291
     1
 45
0.0
1001
ACAD
1000
AcDbSavedByObjectVersion
1070
     0
  0
VISUALSTYLE
  5
33
102
{ACAD_REACTORS
330
2A
102
}
330
2A
100
AcDbVisualStyle
  2
Realistic
 70
     8
 71
     2
 72
     2
 73
     0
 90
        0
 40
-0.6
 41
-30.0
 62
     5
 63
     7
 74
     1
 91
        0
 64
     7
 65
   257
 75
     1
175
     1
 42
1.0
 92
        8
 66
     8
 43
1.0
 76
     1
 77
     6
 78
     2
 67
     7
 79
     5
170
     0
171
     0
290
     0
174
     0
 93
       13
 44
0.0
173
     0
291
     0
 45
0.0
1001
ACAD
1000
AcDbSavedByObjectVersion
1070
     0
  0
VISUALSTYLE
  5
37
102
{ACAD_REACTORS
330
2A
102
}
330
2A
100
AcDbVisualStyle
  2
Thicken
 70
    13
 71
     2
 72
     2
 73
     0
 90
        0
 40
-0.6
 41
-30.0
 62
     5
 63
     7
 74
     1
 91
        4
 64
     7
 65
   257
 75
     1
175
     1
 42
1.0
 92
       12
 66
     7
 43
1.0
 76
     1
 77
     6
 78
     2
 67
     7
 79
     5
170
     0
171
     0
290
     0
174
     0
 93
        1
 44
0.0
173
     0
291
     1
 45
0.0
1001
ACAD
1000
AcDbSavedByObjectVersion
1070
     0
  0
DICTIONARYVAR
  5
EB
102
{ACAD_REACTORS
330
EA
102
}
330
EA
100
DictionaryVariables
280
     0
  1
1:1
  0
DICTIONARYVAR
  5
EF
102
{ACAD_REACTORS
330
EA
102
}
330
EA
100
DictionaryVariables
280
     0
  1
80.000000
  0
DICTIONARYVAR
  5
EE
102
{ACAD_REACTORS
330
EA
102
}
330
EA
100
DictionaryVariables
280
     0
  1
5.000000
  0
ENDSEC
  0
EOF
