  0
SECTION
  2
HEADER
  9
$ACADVER
  1
AC1015
  9
$ACADMAINTVER
 70
     6
  9
$DWGCODEPAGE
  3
ANSI_1252
  9
$INSBASE
 10
0.0
 20
0.0
 30
0.0
  9
$EXTMIN
 10
0.0
 20
0.0
 30
0.0
  9
$EXTMAX
 10
210.0
 20
297.0
 30
0.0
  9
$LIMMIN
 10
0.0
 20
0.0
  9
$LIMMAX
 10
210.0
 20
297.0
  9
$ORTHOMODE
 70
     0
  9
$REGENMODE
 70
     1
  9
$FILLMODE
 70
     1
  9
$QTEXTMODE
 70
     0
  9
$MIRRTEXT
 70
     1
  9
$LTSCALE
 40
1.0
  9
$ATTMODE
 70
     1
  9
$TEXTSIZE
 40
2.5
  9
$TRACEWID
 40
1.0
  9
$TEXTSTYLE
  7
Standard
  9
$CLAYER
  8
0
  9
$CELTYPE
  6
ByLayer
  9
$CECOLOR
 62
   256
  9
$CELTSCALE
 40
1.0
  9
$DISPSILH
 70
     0
  9
$DIMSCALE
 40
1.0
  9
$DIMASZ
 40
2.5
  9
$DIMEXO
 40
0.625
  9
$DIMDLI
 40
3.75
  9
$DIMRND
 40
0.0
  9
$DIMDLE
 40
0.0
  9
$DIMEXE
 40
1.25
  9
$DIMTP
 40
0.0
  9
$DIMTM
 40
0.0
  9
$DIMTXT
 40
2.5
  9
$DIMCEN
 40
2.5
  9
$DIMTSZ
 40
0.0
  9
$DIMTOL
 70
     0
  9
$DIMLIM
 70
     0
  9
$DIMTIH
 70
     0
  9
$DIMTOH
 70
     0
  9
$DIMSE1
 70
     0
  9
$DIMSE2
 70
     0
  9
$DIMTAD
 70
     1
  9
$DIMZIN
 70
     8
  9
$DIMBLK
  1

  9
$DIMASO
 70
     1
  9
$DIMSHO
 70
     1
  9
$DIMPOST
  1

  9
$DIMAPOST
  1

  9
$DIMALT
 70
     0
  9
$DIMALTD
 70
     3
  9
$DIMALTF
 40
0.0393700787
  9
$DIMLFAC
 40
1.0
  9
$DIMTOFL
 70
     1
  9
$DIMTVP
 40
0.0
  9
$DIMTIX
 70
     0
  9
$DIMSOXD
 70
     0
  9
$DIMSAH
 70
     0
  9
$DIMBLK1
  1

  9
$DIMBLK2
  1

  9
$DIMSTYLE
  2
ISO-25
  9
$DIMCLRD
 70
     0
  9
$DIMCLRE
 70
     0
  9
$DIMCLRT
 70
     0
  9
$DIMTFAC
 40
1.0
  9
$DIMGAP
 40
0.625
  9
$DIMJUST
 70
     0
  9
$DIMSD1
 70
     0
  9
$DIMSD2
 70
     0
  9
$DIMTOLJ
 70
     0
  9
$DIMTZIN
 70
     8
  9
$DIMALTZ
 70
     0
  9
$DIMALTTZ
 70
     0
  9
$DIMUPT
 70
     0
  9
$DIMDEC
 70
     2
  9
$DIMTDEC
 70
     2
  9
$DIMALTU
 70
     2
  9
$DIMALTTD
 70
     3
  9
$DIMTXSTY
  7
Standard
  9
$DIMAUNIT
 70
     0
  9
$DIMADEC
 70
     0
  9
$DIMALTRND
 40
0.0
  9
$DIMAZIN
 70
     0
  9
$DIMDSEP
 70
    44
  9
$DIMATFIT
 70
     3
  9
$DIMFRAC
 70
     0
  9
$DIMLDRBLK
  1

  9
$DIMLUNIT
 70
     2
  9
$DIMLWD
 70
    -2
  9
$DIMLWE
 70
    -2
  9
$DIMTMOVE
 70
     0
  9
$LUNITS
 70
     2
  9
$LUPREC
 70
     4
  9
$SKETCHINC
 40
1.0
  9
$FILLETRAD
 40
10.0
  9
$AUNITS
 70
     0
  9
$AUPREC
 70
     0
  9
$MENU
  1
.
  9
$ELEVATION
 40
0.0
  9
$PELEVATION
 40
0.0
  9
$THICKNESS
 40
0.0
  9
$LIMCHECK
 70
     0
  9
$CHAMFERA
 40
10.0
  9
$CHAMFERB
 40
10.0
  9
$CHAMFERC
 40
20.0
  9
$CHAMFERD
 40
0.0
  9
$SKPOLY
 70
     0
  9
$TDCREATE
 40
2455370.395809456
  9
$TDUCREATE
 40
2455370.312476123
  9
$TDUPDATE
 40
2455370.395809467
  9
$TDUUPDATE
 40
2455370.312476134
  9
$TDINDWG
 40
0.0000000116
  9
$TDUSRTIMER
 40
0.0000000116
  9
$USRTIMER
 70
     1
  9
$ANGBASE
 50
0.0
  9
$ANGDIR
 70
     0
  9
$PDMODE
 70
     0
  9
$PDSIZE
 40
0.0
  9
$PLINEWID
 40
0.0
  9
$SPLFRAME
 70
     0
  9
$SPLINETYPE
 70
     6
  9
$SPLINESEGS
 70
     8
  9
$HANDSEED
  5
F3
  9
$SURFTAB1
 70
     6
  9
$SURFTAB2
 70
     6
  9
$SURFTYPE
 70
     6
  9
$SURFU
 70
     6
  9
$SURFV
 70
     6
  9
$UCSBASE
  2

  9
$UCSNAME
  2

  9
$UCSORG
 10
0.0
 20
0.0
 30
0.0
  9
$UCSXDIR
 10
1.0
 20
0.0
 30
0.0
  9
$UCSYDIR
 10
0.0
 20
1.0
 30
0.0
  9
$UCSORTHOREF
  2

  9
$UCSORTHOVIEW
 70
     0
  9
$UCSORGTOP
 10
0.0
 20
0.0
 30
0.0
  9
$UCSORGBOTTOM
 10
0.0
 20
0.0
 30
0.0
  9
$UCSORGLEFT
 10
0.0
 20
0.0
 30
0.0
  9
$UCSORGRIGHT
 10
0.0
 20
0.0
 30
0.0
  9
$UCSORGFRONT
 10
0.0
 20
0.0
 30
0.0
  9
$UCSORGBACK
 10
0.0
 20
0.0
 30
0.0
  9
$PUCSBASE
  2

  9
$PUCSNAME
  2

  9
$PUCSORG
 10
0.0
 20
0.0
 30
0.0
  9
$PUCSXDIR
 10
1.0
 20
0.0
 30
0.0
  9
$PUCSYDIR
 10
0.0
 20
1.0
 30
0.0
  9
$PUCSORTHOREF
  2

  9
$PUCSORTHOVIEW
 70
     0
  9
$PUCSORGTOP
 10
0.0
 20
0.0
 30
0.0
  9
$PUCSORGBOTTOM
 10
0.0
 20
0.0
 30
0.0
  9
$PUCSORGLEFT
 10
0.0
 20
0.0
 30
0.0
  9
$PUCSORGRIGHT
 10
0.0
 20
0.0
 30
0.0
  9
$PUCSORGFRONT
 10
0.0
 20
0.0
 30
0.0
  9
$PUCSORGBACK
 10
0.0
 20
0.0
 30
0.0
  9
$USERI1
 70
     0
  9
$USERI2
 70
     0
  9
$USERI3
 70
     0
  9
$USERI4
 70
     0
  9
$USERI5
 70
     0
  9
$USERR1
 40
0.0
  9
$USERR2
 40
0.0
  9
$USERR3
 40
0.0
  9
$USERR4
 40
0.0
  9
$USERR5
 40
0.0
  9
$WORLDVIEW
 70
     1
  9
$SHADEDGE
 70
     3
  9
$SHADEDIF
 70
    70
  9
$TILEMODE
 70
     1
  9
$MAXACTVP
 70
    64
  9
$PINSBASE
 10
0.0
 20
0.0
 30
0.0
  9
$PLIMCHECK
 70
     0
  9
$PEXTMIN
 10
0.0
 20
0.0
 30
0.0
  9
$PEXTMAX
 10
210.0
 20
297.0
 30
0.0
  9
$PLIMMIN
 10
0.0
 20
0.0
  9
$PLIMMAX
 10
210.0
 20
297.0
  9
$UNITMODE
 70
     0
  9
$VISRETAIN
 70
     1
  9
$PLINEGEN
 70
     0
  9
$PSLTSCALE
 70
     1
  9
$TREEDEPTH
 70
  3020
  9
$CMLSTYLE
  2
Standard
  9
$CMLJUST
 70
     0
  9
$CMLSCALE
 40
20.0
  9
$PROXYGRAPHICS
 70
     1
  9
$MEASUREMENT
 70
     1
  9
$CELWEIGHT
370
    -1
  9
$ENDCAPS
280
     0
  9
$JOINSTYLE
280
     0
  9
$LWDISPLAY
290
     0
  9
$INSUNITS
 70
     4
  9
$HYPERLINKBASE
  1

  9
$STYLESHEET
  1

  9
$XEDIT
290
     1
  9
$CEPSNTYPE
380
     0
  9
$PSTYLEMODE
290
     1
  9
$FINGERPRINTGUID
  2
{C6B31EF1-7203-45F0-BEA2-3966A06D8242}
  9
$VERSIONGUID
  2
{FAEB1C32-E019-11D5-929B-00C0DF256EC4}
  9
$EXTNAMES
290
     1
  9
$PSVPSCALE
 40
0.0
  9
$OLESTARTUP
290
     0
  0
ENDSEC
  0
SECTION
  2
CLASSES
  0
CLASS
  1
ACDBDICTIONARYWDFLT
  2
AcDbDictionaryWithDefault
  3
ObjectDBX Classes
 90
        0
280
     0
281
     0
  0
CLASS
  1
VISUALSTYLE
  2
AcDbVisualStyle
  3
ObjectDBX Classes
 90
     4095
280
     0
281
     0
  0
CLASS
  1
SCALE
  2
AcDbScale
  3
ObjectDBX Classes
 90
     1153
280
     0
281
     0
  0
CLASS
  1
DICTIONARYVAR
  2
AcDbDictionaryVar
  3
ObjectDBX Classes
 90
        0
280
     0
281
     0
  0
CLASS
  1
ACDBPLACEHOLDER
  2
AcDbPlaceHolder
  3
ObjectDBX Classes
 90
        0
280
     0
281
     0
  0
CLASS
  1
LAYOUT
  2
AcDbLayout
  3
ObjectDBX Classes
 90
        0
280
     0
281
     0
  0
ENDSEC
  0
SECTION
  2
TABLES
  0
TABLE
  2
VPORT
  5
8
330
0
100
AcDbSymbolTable
 70
     1
  0
VPORT
  5
29
330
8
100
AcDbSymbolTableRecord
100
AcDbViewportTableRecord
  2
*Active
 70
     0
 10
0.0
 20
0.0
 11
1.0
 21
1.0
 12
344.1869158879
 22
148.5
 13
0.0
 23
0.0
 14
10.0
 24
10.0
 15
10.0
 25
10.0
 16
0.0
 26
0.0
 36
1.0
 17
0.0
 27
0.0
 37
0.0
 40
297.0
 41
1.9729729729
 42
50.0
 43
0.0
 44
0.0
 50
0.0
 51
0.0
 71
     0
 72
   100
 73
     1
 74
     3
 75
     0
 76
     0
 77
     0
 78
     0
281
     0
 65
     1
110
0.0
120
0.0
130
0.0
111
1.0
121
0.0
131
0.0
112
0.0
122
1.0
132
0.0
 79
     0
146
0.0
  0
ENDTAB
  0
TABLE
  2
LTYPE
  5
5
330
0
100
AcDbSymbolTable
 70
     2
  0
LTYPE
  5
14
330
5
100
AcDbSymbolTableRecord
100
AcDbLinetypeTableRecord
  2
ByBlock
 70
     0
  3

 72
    65
 73
     0
 40
0.0
  0
LTYPE
  5
15
330
5
100
AcDbSymbolTableRecord
100
AcDbLinetypeTableRecord
  2
ByLayer
 70
     0
  3

 72
    65
 73
     0
 40
0.0
  0
LTYPE
  5
16
330
5
100
AcDbSymbolTableRecord
100
AcDbLinetypeTableRecord
  2
Continuous
 70
     0
  3
Solid line
 72
    65
 73
     0
 40
0.0
  0
LTYPE
  5
60
330
5
100
AcDbSymbolTableRecord
100
AcDbLinetypeTableRecord
  2
CENTER2
 70
     0
  3
Center (.5x) ___ _ ___ _ ___ _ ___ _ ___ _ ___
 72
    65
 73
     4
 40
28.575
 49
19.05
 74
     4
 75
     0
340
0
 46
0.0
 50
0.0
 44
0.0
 45
0.0
 49
-3.175
 74
     4
 75
     0
340
0
 46
0.0
 50
0.0
 44
0.0
 45
0.0
 49
3.175
 74
     4
 75
     0
340
0
 46
0.0
 50
0.0
 44
0.0
 45
0.0
 49
-3.175
 74
     4
 75
     0
340
0
 46
0.0
 50
0.0
 44
0.0
 45
0.0
  0
ENDTAB
  0
TABLE
  2
LAYER
  5
2
330
0
100
AcDbSymbolTable
 70
     4
  0
LAYER
  5
10
330
2
100
AcDbSymbolTableRecord
100
AcDbLayerTableRecord
  2
0
 70
     0
 62
     7
  6
Continuous
370
    -3
390
F
  0
LAYER
  5
5D
330
2
100
AcDbSymbolTableRecord
100
AcDbLayerTableRecord
  2
Standard
 70
     0
 62
     7
  6
Continuous
370
    -3
390
F
  0
LAYER
  5
69
330
2
100
AcDbSymbolTableRecord
100
AcDbLayerTableRecord
  2
Default
 70
     0
 62
     7
  6
Continuous
370
    -3
390
F
  0
LAYER
  5
80
330
2
100
AcDbSymbolTableRecord
100
AcDbLayerTableRecord
  2
MEGA_028801
 70
     0
 62
     7
  6
Continuous
370
    -3
390
F
  0
ENDTAB
  0
TABLE
  2
STYLE
  5
3
330
0
100
AcDbSymbolTable
 70
     3
  0
STYLE
  5
11
330
3
100
AcDbSymbolTableRecord
100
AcDbTextStyleTableRecord
  2
Standard
 70
     0
 40
0.0
 41
1.0
 50
0.0
 71
     0
 42
2.5
  3
txt
  4

  0
STYLE
  5
AB
330
3
100
AcDbSymbolTableRecord
100
AcDbTextStyleTableRecord
  2
SEACAD_seiso_ttf
 70
     0
 40
0.0
 41
1.0
 50
0.0
 71
     0
 42
0.2
  3
seiso.ttf
  4

  0
STYLE
  5
AE
330
3
100
AcDbSymbolTableRecord
100
AcDbTextStyleTableRecord
  2
SEACAD_semeci1_ttf
 70
     0
 40
0.0
 41
1.0
 50
0.0
 71
     0
 42
0.2
  3
semeci1.ttf
  4

  0
ENDTAB
  0
TABLE
  2
VIEW
  5
6
330
0
100
AcDbSymbolTable
 70
     0
  0
ENDTAB
  0
TABLE
  2
UCS
  5
7
330
0
100
AcDbSymbolTable
 70
     0
  0
ENDTAB
  0
TABLE
  2
APPID
  5
9
330
0
100
AcDbSymbolTable
 70
     1
  0
APPID
  5
12
330
9
100
AcDbSymbolTableRecord
100
AcDbRegAppTableRecord
  2
ACAD
 70
     0
  0
ENDTAB
  0
TABLE
  2
DIMSTYLE
  5
A
330
0
100
AcDbSymbolTable
 70
     3
100
AcDbDimStyleTable
  0
DIMSTYLE
105
27
330
A
100
AcDbSymbolTableRecord
100
AcDbDimStyleTableRecord
  2
ISO-25
 70
     0
 41
2.5
 42
0.625
 43
3.75
 44
1.25
 73
     0
 74
     0
 77
     1
 78
     8
140
2.5
141
2.5
143
0.0393700787
147
0.625
171
     3
172
     1
271
     2
272
     2
274
     3
278
    44
283
     0
284
     8
340
11
  0
DIMSTYLE
105
99
330
A
100
AcDbSymbolTableRecord
100
AcDbDimStyleTableRecord
  2
Standard
 70
     0
340
11
  0
DIMSTYLE
105
AC
102
{ACAD_REACTORS
330
AD
330
B9
330
C3
330
CD
330
D9
330
E3
102
}
330
A
100
AcDbSymbolTableRecord
100
AcDbDimStyleTableRecord
  2
DIN
 70
     0
 41
3.0
 42
0.0
 44
1.5
 73
     0
 74
     0
 77
     1
 78
     8
140
3.0
141
1.5
147
1.5
172
     1
173
     1
271
     2
272
     2
278
    44
284
     8
340
AB
343
A6
344
A6
  0
ENDTAB
  0
TABLE
  2
BLOCK_RECORD
  5
1
330
0
100
AcDbSymbolTable
 70
    15
  0
BLOCK_RECORD
  5
1F
330
1
100
AcDbSymbolTableRecord
100
AcDbBlockTableRecord
  2
*Model_Space
340
22
  0
BLOCK_RECORD
  5
1B
330
1
100
AcDbSymbolTableRecord
100
AcDbBlockTableRecord
  2
*Paper_Space
340
1E
  0
BLOCK_RECORD
  5
5E
330
1
100
AcDbSymbolTableRecord
100
AcDbBlockTableRecord
  2
SEANNOT_GROUP
340
0
102
{BLKREFS
331
5F
102
}
  0
BLOCK_RECORD
  5
6A
330
1
100
AcDbSymbolTableRecord
100
AcDbBlockTableRecord
  2
SEANNOT_GROUP1
340
0
102
{BLKREFS
331
6B
102
}
  0
BLOCK_RECORD
  5
74
330
1
100
AcDbSymbolTableRecord
100
AcDbBlockTableRecord
  2
SEANNOT_GROUP2
340
0
102
{BLKREFS
331
75
102
}
  0
BLOCK_RECORD
  5
7E
330
1
100
AcDbSymbolTableRecord
100
AcDbBlockTableRecord
  2
SE
340
0
102
{BLKREFS
331
7F
102
}
  0
BLOCK_RECORD
  5
8C
330
1
100
AcDbSymbolTableRecord
100
AcDbBlockTableRecord
  2
SE1
340
0
102
{BLKREFS
331
8D
102
}
  0
BLOCK_RECORD
  5
9A
330
1
100
AcDbSymbolTableRecord
100
AcDbBlockTableRecord
  2
_OBLIQUE
340
0
  0
BLOCK_RECORD
  5
9E
330
1
100
AcDbSymbolTableRecord
100
AcDbBlockTableRecord
  2
_DOT
340
0
  0
BLOCK_RECORD
  5
A6
330
1
100
AcDbSymbolTableRecord
100
AcDbBlockTableRecord
  2
_SE_FILLED
340
0
  0
BLOCK_RECORD
  5
AF
330
1
100
AcDbSymbolTableRecord
100
AcDbBlockTableRecord
  2
DMBLK7
340
0
  0
BLOCK_RECORD
  5
BA
330
1
100
AcDbSymbolTableRecord
100
AcDbBlockTableRecord
  2
DMBLK8
340
0
  0
BLOCK_RECORD
  5
C4
330
1
100
AcDbSymbolTableRecord
100
AcDbBlockTableRecord
  2
DMBLK9
340
0
  0
BLOCK_RECORD
  5
CE
330
1
100
AcDbSymbolTableRecord
100
AcDbBlockTableRecord
  2
DMBLK10
340
0
  0
BLOCK_RECORD
  5
DA
330
1
100
AcDbSymbolTableRecord
100
AcDbBlockTableRecord
  2
DMBLK11
340
0
  0
BLOCK_RECORD
  5
E4
330
1
100
AcDbSymbolTableRecord
100
AcDbBlockTableRecord
  2
DMBLK12
340
0
  0
ENDTAB
  0
ENDSEC
  0
SECTION
  2
BLOCKS
  0
BLOCK
  5
20
330
1F
100
AcDbEntity
  8
0
100
AcDbBlockBegin
  2
*Model_Space
 70
     0
 10
0.0
 20
0.0
 30
0.0
  3
*Model_Space
  1

  0
ENDBLK
  5
21
330
1F
100
AcDbEntity
  8
0
100
AcDbBlockEnd
  0
BLOCK
  5
1C
330
1B
100
AcDbEntity
 67
     1
  8
0
100
AcDbBlockBegin
  2
*Paper_Space
 70
     0
 10
0.0
 20
0.0
 30
0.0
  3
*Paper_Space
  1

  0
ENDBLK
  5
1D
330
1B
100
AcDbEntity
 67
     1
  8
0
100
AcDbBlockEnd
  0
BLOCK
  5
67
330
5E
100
AcDbEntity
  8
0
100
AcDbBlockBegin
  2
SEANNOT_GROUP
 70
     0
 10
0.0
 20
0.0
 30
0.0
  3
SEANNOT_GROUP
  1

  0
LINE
  5
61
330
5E
100
AcDbEntity
  8
Standard
  6
CENTER2
 62
     7
100
AcDbLine
 10
131.4867631649
 20
189.0025043841
 30
0.0
 11
119.4867630606
 21
189.0025043841
 31
0.0
  0
LINE
  5
62
330
5E
100
AcDbEntity
  8
Standard
  6
CENTER2
 62
     7
100
AcDbLine
 10
125.4867631128
 20
195.0025044363
 30
0.0
 11
125.4867631128
 21
183.0025043319
 31
0.0
  0
LINE
  5
63
330
5E
100
AcDbEntity
  8
Standard
  6
CENTER2
 62
     7
100
AcDbLine
 10
132.986763178
 20
189.0025043841
 30
0.0
 11
154.7367631128
 21
189.0025043841
 31
0.0
  0
LINE
  5
64
330
5E
100
AcDbEntity
  8
Standard
  6
CENTER2
 62
     7
100
AcDbLine
 10
125.4867631128
 20
196.5025044493
 30
0.0
 11
125.4867631128
 21
218.2525043841
 31
0.0
  0
LINE
  5
65
330
5E
100
AcDbEntity
  8
Standard
  6
CENTER2
 62
     7
100
AcDbLine
 10
117.9867630476
 20
189.0025043841
 30
0.0
 11
96.2367631128
 21
189.0025043841
 31
0.0
  0
LINE
  5
66
330
5E
100
AcDbEntity
  8
Standard
  6
CENTER2
 62
     7
100
AcDbLine
 10
125.4867631128
 20
181.5025043189
 30
0.0
 11
125.4867631128
 21
159.7525043841
 31
0.0
  0
ENDBLK
  5
68
330
5E
100
AcDbEntity
  8
0
100
AcDbBlockEnd
  0
BLOCK
  5
72
330
6A
100
AcDbEntity
  8
0
100
AcDbBlockBegin
  2
SEANNOT_GROUP1
 70
     0
 10
0.0
 20
0.0
 30
0.0
  3
SEANNOT_GROUP1
  1

  0
LINE
  5
6C
330
6A
100
AcDbEntity
  8
Default
  6
CENTER2
 62
     7
100
AcDbLine
 10
109.9867631649
 20
189.0025043841
 30
0.0
 11
97.9867630606
 21
189.0025043841
 31
0.0
  0
LINE
  5
6D
330
6A
100
AcDbEntity
  8
Default
  6
CENTER2
 62
     7
100
AcDbLine
 10
103.9867631128
 20
195.0025044363
 30
0.0
 11
103.9867631128
 21
183.0025043319
 31
0.0
  0
LINE
  5
6E
330
6A
100
AcDbEntity
  8
Default
  6
CENTER2
 62
     7
100
AcDbLine
 10
111.486763178
 20
189.0025043841
 30
0.0
 11
110.4367631128
 21
189.0025043841
 31
0.0
  0
LINE
  5
6F
330
6A
100
AcDbEntity
  8
Default
  6
CENTER2
 62
     7
100
AcDbLine
 10
103.9867631128
 20
196.5025044493
 30
0.0
 11
103.9867631128
 21
195.4525043841
 31
0.0
  0
LINE
  5
70
330
6A
100
AcDbEntity
  8
Default
  6
CENTER2
 62
     7
100
AcDbLine
 10
96.4867630476
 20
189.0025043841
 30
0.0
 11
97.5367631128
 21
189.0025043841
 31
0.0
  0
LINE
  5
71
330
6A
100
AcDbEntity
  8
Default
  6
CENTER2
 62
     7
100
AcDbLine
 10
103.9867631128
 20
181.5025043189
 30
0.0
 11
103.9867631128
 21
182.5525043841
 31
0.0
  0
ENDBLK
  5
73
330
6A
100
AcDbEntity
  8
0
100
AcDbBlockEnd
  0
BLOCK
  5
7C
330
74
100
AcDbEntity
  8
0
100
AcDbBlockBegin
  2
SEANNOT_GROUP2
 70
     0
 10
0.0
 20
0.0
 30
0.0
  3
SEANNOT_GROUP2
  1

  0
LINE
  5
76
330
74
100
AcDbEntity
  8
Default
  6
CENTER2
 62
     7
100
AcDbLine
 10
152.9867631649
 20
189.0025043841
 30
0.0
 11
140.9867630606
 21
189.0025043841
 31
0.0
  0
LINE
  5
77
330
74
100
AcDbEntity
  8
Default
  6
CENTER2
 62
     7
100
AcDbLine
 10
146.9867631128
 20
195.0025044363
 30
0.0
 11
146.9867631128
 21
183.0025043319
 31
0.0
  0
LINE
  5
78
330
74
100
AcDbEntity
  8
Default
  6
CENTER2
 62
     7
100
AcDbLine
 10
154.486763178
 20
189.0025043841
 30
0.0
 11
153.4367631128
 21
189.0025043841
 31
0.0
  0
LINE
  5
79
330
74
100
AcDbEntity
  8
Default
  6
CENTER2
 62
     7
100
AcDbLine
 10
146.9867631128
 20
196.5025044493
 30
0.0
 11
146.9867631128
 21
195.4525043841
 31
0.0
  0
LINE
  5
7A
330
74
100
AcDbEntity
  8
Default
  6
CENTER2
 62
     7
100
AcDbLine
 10
139.4867630476
 20
189.0025043841
 30
0.0
 11
140.5367631128
 21
189.0025043841
 31
0.0
  0
LINE
  5
7B
330
74
100
AcDbEntity
  8
Default
  6
CENTER2
 62
     7
100
AcDbLine
 10
146.9867631128
 20
181.5025043189
 30
0.0
 11
146.9867631128
 21
182.5525043841
 31
0.0
  0
ENDBLK
  5
7D
330
74
100
AcDbEntity
  8
0
100
AcDbBlockEnd
  0
BLOCK
  5
8A
330
7E
100
AcDbEntity
  8
0
100
AcDbBlockBegin
  2
SE
 70
     0
 10
0.0
 20
0.0
 30
0.0
  3
SE
  1

  0
LINE
  5
81
330
7E
100
AcDbEntity
  8
MEGA_028801
  6
Continuous
 62
     7
100
AcDbLine
 10
59.7173282589
 20
177.5025043841
 30
0.0
 11
59.7173282589
 21
200.5025043841
 31
0.0
  0
LINE
  5
82
330
7E
100
AcDbEntity
  8
MEGA_028801
  6
Continuous
 62
     7
100
AcDbLine
 10
63.6173282589
 20
161.5025043841
 30
0.0
 11
63.6173282589
 21
216.5025043841
 31
0.0
  0
LINE
  5
83
330
7E
100
AcDbEntity
  8
MEGA_028801
  6
Continuous
 62
     7
100
AcDbLine
 10
68.7173282589
 20
162.6817615073
 30
0.0
 11
68.7173282589
 21
215.3232472609
 31
0.0
  0
LINE
  5
84
330
7E
100
AcDbEntity
  8
MEGA_028801
  6
Continuous
 62
     7
100
AcDbLine
 10
63.6173282589
 20
200.7068947233
 30
0.0
 11
59.7173282589
 21
200.5025043841
 31
0.0
  0
LINE
  5
85
330
7E
100
AcDbEntity
  8
MEGA_028801
  6
Continuous
 62
     7
100
AcDbLine
 10
59.7173282589
 20
177.5025043841
 30
0.0
 11
63.6173282589
 21
177.2981140449
 31
0.0
  0
LINE
  5
86
330
7E
100
AcDbEntity
  8
MEGA_028801
  6
Continuous
 62
     7
100
AcDbLine
 10
63.6173282589
 20
161.5025043841
 30
0.0
 11
67.9870528531
 21
161.8848057488
 31
0.0
  0
LINE
  5
87
330
7E
100
AcDbEntity
  8
MEGA_028801
  6
Continuous
 62
     7
100
AcDbLine
 10
67.9870528531
 20
216.1202030194
 30
0.0
 11
63.6173282589
 21
216.5025043841
 31
0.0
  0
ARC
  5
88
330
7E
100
AcDbEntity
  8
MEGA_028801
  6
Continuous
 62
     7
100
AcDbCircle
 10
67.9173282589
 20
215.3232472609
 30
0.0
 40
0.8
100
AcDbArc
 50
0.0
 51
85.0
  0
ARC
  5
89
330
7E
100
AcDbEntity
  8
MEGA_028801
  6
Continuous
 62
     7
100
AcDbCircle
 10
67.9173282589
 20
162.6817615073
 30
0.0
 40
0.8000000000000024
100
AcDbArc
 50
275.0
 51
0.0
  0
ENDBLK
  5
8B
330
7E
100
AcDbEntity
  8
0
100
AcDbBlockEnd
  0
BLOCK
  5
97
330
8C
100
AcDbEntity
  8
0
100
AcDbBlockBegin
  2
SE1
 70
     0
 10
0.0
 20
0.0
 30
0.0
  3
SE1
  1

  0
CIRCLE
  5
8E
330
8C
100
AcDbEntity
  8
MEGA_028801
  6
Continuous
 62
     7
100
AcDbCircle
 10
125.4867631128
 20
189.0025043841
 30
0.0
 40
9.1
  0
CIRCLE
  5
8F
330
8C
100
AcDbEntity
  8
MEGA_028801
  6
Continuous
 62
     7
100
AcDbCircle
 10
125.4867631128
 20
189.0025043841
 30
0.0
 40
27.5
  0
CIRCLE
  5
90
330
8C
100
AcDbEntity
  8
MEGA_028801
  6
Continuous
 62
     7
100
AcDbCircle
 10
125.4867631128
 20
189.0025043841
 30
0.0
 40
9.850000000000001
  0
CIRCLE
  5
91
330
8C
100
AcDbEntity
  8
MEGA_028801
  6
Continuous
 62
     7
100
AcDbCircle
 10
103.9867631128
 20
189.0025043841
 30
0.0
 40
4.7
  0
CIRCLE
  5
92
330
8C
100
AcDbEntity
  8
MEGA_028801
  6
Continuous
 62
     7
100
AcDbCircle
 10
146.9867631128
 20
189.0025043841
 30
0.0
 40
4.7
  0
CIRCLE
  5
93
330
8C
100
AcDbEntity
  8
MEGA_028801
  6
Continuous
 62
     7
100
AcDbCircle
 10
103.9867631128
 20
189.0025043841
 30
0.0
 40
2.4
  0
CIRCLE
  5
94
330
8C
100
AcDbEntity
  8
MEGA_028801
  6
Continuous
 62
     7
100
AcDbCircle
 10
103.9867631128
 20
189.0025043841
 30
0.0
 40
2.46931938829405
  0
CIRCLE
  5
95
330
8C
100
AcDbEntity
  8
MEGA_028801
  6
Continuous
 62
     7
100
AcDbCircle
 10
146.9867631128
 20
189.0025043841
 30
0.0
 40
2.4
  0
CIRCLE
  5
96
330
8C
100
AcDbEntity
  8
MEGA_028801
  6
Continuous
 62
     7
100
AcDbCircle
 10
146.9867631128
 20
189.0025043841
 30
0.0
 40
2.46931938829405
  0
ENDBLK
  5
98
330
8C
100
AcDbEntity
  8
0
100
AcDbBlockEnd
  0
BLOCK
  5
9B
330
9A
100
AcDbEntity
  8
0
100
AcDbBlockBegin
  2
_OBLIQUE
 70
     0
 10
0.0
 20
0.0
 30
0.0
  3
_OBLIQUE
  1

  0
LINE
  5
9D
330
9A
100
AcDbEntity
  8
0
  6
ByBlock
 62
     0
370
    -2
100
AcDbLine
 10
-0.5
 20
-0.5
 30
0.0
 11
0.5
 21
0.5
 31
0.0
  0
ENDBLK
  5
9C
330
9A
100
AcDbEntity
  8
0
100
AcDbBlockEnd
  0
BLOCK
  5
9F
330
9E
100
AcDbEntity
  8
0
100
AcDbBlockBegin
  2
_DOT
 70
     0
 10
0.0
 20
0.0
 30
0.0
  3
_DOT
  1

  0
POLYLINE
  5
A1
330
9E
100
AcDbEntity
  8
0
  6
ByBlock
 62
     0
100
AcDb2dPolyline
 66
     1
 10
0.0
 20
0.0
 30
0.0
 70
     1
 40
0.5
 41
0.5
  0
VERTEX
  5
A4
330
A1
100
AcDbEntity
  8
0
  6
ByBlock
 62
     0
100
AcDbVertex
100
AcDb2dVertex
 10
-0.25
 20
0.0
 30
0.0
 42
1.0
  0
VERTEX
  5
A5
330
A1
100
AcDbEntity
  8
0
  6
ByBlock
 62
     0
100
AcDbVertex
100
AcDb2dVertex
 10
0.25
 20
0.0
 30
0.0
 42
1.0
  0
SEQEND
  5
A3
330
A1
100
AcDbEntity
  8
0
  6
ByBlock
 62
     0
  0
LINE
  5
A2
330
9E
100
AcDbEntity
  8
0
  6
ByBlock
 62
     0
370
    -2
100
AcDbLine
 10
-0.5
 20
0.0
 30
0.0
 11
-1.0
 21
0.0
 31
0.0
  0
ENDBLK
  5
A0
330
9E
100
AcDbEntity
  8
0
100
AcDbBlockEnd
  0
BLOCK
  5
A9
330
A6
100
AcDbEntity
  8
0
100
AcDbBlockBegin
  2
_SE_FILLED
 70
     0
 10
0.0
 20
0.0
 30
0.0
  3
_SE_FILLED
  1

  0
SOLID
  5
A7
330
A6
100
AcDbEntity
  8
0
 62
     0
100
AcDbTrace
 10
0.0
 20
0.0
 30
0.0
 11
-1.0
 21
-0.1665
 31
0.0
 12
-1.0
 22
0.1665
 32
0.0
 13
0.0
 23
0.0
 33
0.0
  0
LINE
  5
A8
330
A6
100
AcDbEntity
  8
0
 62
     0
100
AcDbLine
 10
0.0
 20
0.0
 30
0.0
 11
-1.0
 21
0.0
 31
0.0
  0
ENDBLK
  5
AA
330
A6
100
AcDbEntity
  8
0
100
AcDbBlockEnd
  0
BLOCK
  5
B7
330
AF
100
AcDbEntity
  8
0
100
AcDbBlockBegin
  2
DMBLK7
 70
     0
 10
0.0
 20
0.0
 30
0.0
  3
DMBLK7
  1

  0
HATCH
  5
B0
330
AF
100
AcDbEntity
  8
Standard
  6
Continuous
 62
     7
100
AcDbHatch
 10
0.0
 20
0.0
 30
0.0
210
0.0
220
0.0
230
1.0
  2
SOLID
 70
     1
 71
     0
 91
        1
 92
        1
 93
        3
 72
     1
 10
84.40097887012546
 20
164.5025044101765
 11
83.4009788614331
 21
164.5025044101765
 72
     1
 10
83.4009788614331
 20
164.5025044101765
 11
83.90097886577928
 21
161.5025043840995
 72
     1
 10
83.90097886577928
 20
161.5025043840995
 11
84.40097887012546
 21
164.5025044101765
 97
        0
 75
     0
 76
     1
 98
        0
  0
HATCH
  5
B1
330
AF
100
AcDbEntity
  8
Standard
  6
Continuous
 62
     7
100
AcDbHatch
 10
0.0
 20
0.0
 30
0.0
210
0.0
220
0.0
230
1.0
  2
SOLID
 70
     1
 71
     0
 91
        1
 92
        1
 93
        3
 72
     1
 10
84.40097887012546
 20
213.5025040599992
 11
83.90097886577928
 21
216.5025040860762
 72
     1
 10
83.90097886577928
 20
216.5025040860762
 11
83.4009788614331
 21
213.5025040599992
 72
     1
 10
83.4009788614331
 20
213.5025040599992
 11
84.40097887012546
 21
213.5025040599992
 97
        0
 75
     0
 76
     1
 98
        0
  0
LINE
  5
B2
330
AF
100
AcDbEntity
  8
Standard
  6
Continuous
 62
     7
100
AcDbLine
 10
63.6173282589
 20
161.5025043841
 30
0.0
 11
85.4009788788
 21
161.5025043841
 31
0.0
  0
LINE
  5
B3
330
AF
100
AcDbEntity
  8
Standard
  6
Continuous
 62
     7
100
AcDbLine
 10
63.6173282589
 20
216.5025043841
 30
0.0
 11
85.4009788788
 21
216.5025043841
 31
0.0
  0
LINE
  5
B4
330
AF
100
AcDbEntity
  8
Standard
  6
Continuous
 62
     7
100
AcDbLine
 10
83.9009788658
 20
161.5025043841
 30
0.0
 11
83.9009788658
 21
216.5025040861
 31
0.0
  0
TEXT
  5
B5
330
AF
100
AcDbEntity
  8
Standard
  6
Continuous
 62
     7
100
AcDbText
 10
83.1509788658
 20
189.1182644574
 30
0.0
 40
3.0
  1
55
 50
90.0
  7
SEACAD_seiso_ttf
 11
80.1509788658
 21
189.1182644574
 31
0.0
100
AcDbText
 73
     3
  0
TEXT
  5
B6
330
AF
100
AcDbEntity
  8
Standard
  6
Continuous
 62
     7
100
AcDbText
 10
83.1509788658
 20
185.4776531037
 30
0.0
 40
3.0
  1
O
 50
90.0
  7
SEACAD_semeci1_ttf
 11
80.1509788658
 21
185.4776531037
 31
0.0
100
AcDbText
 73
     3
  0
ENDBLK
  5
B8
330
AF
100
AcDbEntity
  8
0
100
AcDbBlockEnd
  0
BLOCK
  5
C1
330
BA
100
AcDbEntity
  8
0
100
AcDbBlockBegin
  2
DMBLK8
 70
     0
 10
0.0
 20
0.0
 30
0.0
  3
DMBLK8
  1

  0
HATCH
  5
BB
330
BA
100
AcDbEntity
  8
Standard
  6
Continuous
 62
     7
100
AcDbHatch
 10
0.0
 20
0.0
 30
0.0
210
0.0
220
0.0
230
1.0
  2
SOLID
 70
     1
 71
     0
 91
        1
 92
        1
 93
        3
 72
     1
 10
172.4602252517217
 20
182.9025044101765
 11
171.4602252430294
 21
182.9025044101765
 72
     1
 10
171.4602252430294
 20
182.9025044101765
 11
171.9602252473755
 21
179.9025043840995
 72
     1
 10
171.9602252473755
 20
179.9025043840995
 11
172.4602252517217
 21
182.9025044101765
 97
        0
 75
     0
 76
     1
 98
        0
  0
HATCH
  5
BC
330
BA
100
AcDbEntity
  8
Standard
  6
Continuous
 62
     7
100
AcDbHatch
 10
0.0
 20
0.0
 30
0.0
210
0.0
220
0.0
230
1.0
  2
SOLID
 70
     1
 71
     0
 91
        1
 92
        1
 93
        3
 72
     1
 10
172.4602252517217
 20
195.1025051060607
 11
171.9602252473755
 21
198.1025051321378
 72
     1
 10
171.9602252473755
 20
198.1025051321378
 11
171.4602252430294
 21
195.1025051060607
 72
     1
 10
171.4602252430294
 20
195.1025051060607
 11
172.4602252517217
 21
195.1025051060607
 97
        0
 75
     0
 76
     1
 98
        0
  0
LINE
  5
BD
330
BA
100
AcDbEntity
  8
Standard
  6
Continuous
 62
     7
100
AcDbLine
 10
125.4867631128
 20
179.9025043841
 30
0.0
 11
173.4602252604
 21
179.9025043841
 31
0.0
  0
LINE
  5
BE
330
BA
100
AcDbEntity
  8
Standard
  6
Continuous
 62
     7
100
AcDbLine
 10
125.4867631128
 20
198.1025043841
 30
0.0
 11
173.4602252604
 21
198.1025043841
 31
0.0
  0
LINE
  5
BF
330
BA
100
AcDbEntity
  8
Standard
  6
Continuous
 62
     7
100
AcDbLine
 10
171.9602252474
 20
179.9025043841
 30
0.0
 11
171.9602252474
 21
198.1025051321
 31
0.0
  0
TEXT
  5
C0
330
BA
100
AcDbEntity
  8
Standard
  6
Continuous
 62
     7
100
AcDbText
 10
171.2102252474
 20
186.2411411218
 30
0.0
 40
3.0
  1
18,2
 50
90.0
  7
SEACAD_seiso_ttf
 11
168.2102252474
 21
186.2411411218
 31
0.0
100
AcDbText
 73
     3
  0
ENDBLK
  5
C2
330
BA
100
AcDbEntity
  8
0
100
AcDbBlockEnd
  0
BLOCK
  5
CB
330
C4
100
AcDbEntity
  8
0
100
AcDbBlockBegin
  2
DMBLK9
 70
     0
 10
0.0
 20
0.0
 30
0.0
  3
DMBLK9
  1

  0
HATCH
  5
C5
330
C4
100
AcDbEntity
  8
Standard
  6
Continuous
 62
     7
100
AcDbHatch
 10
0.0
 20
0.0
 30
0.0
210
0.0
220
0.0
230
1.0
  2
SOLID
 70
     1
 71
     0
 91
        1
 92
        1
 93
        3
 72
     1
 10
161.8181388948434
 20
183.5331849697284
 11
161.3181388904972
 21
186.5331849958054
 72
     1
 10
161.3181388904972
 20
186.5331849958054
 11
160.8181388861511
 21
183.5331849697284
 72
     1
 10
160.8181388861511
 20
183.5331849697284
 11
161.8181388948434
 21
183.5331849697284
 97
        0
 75
     0
 76
     1
 98
        0
  0
HATCH
  5
C6
330
C4
100
AcDbEntity
  8
Standard
  6
Continuous
 62
     7
100
AcDbHatch
 10
0.0
 20
0.0
 30
0.0
210
0.0
220
0.0
230
1.0
  2
SOLID
 70
     1
 71
     0
 91
        1
 92
        1
 93
        3
 72
     1
 10
161.8181388948434
 20
194.4718237984706
 11
160.8181388861511
 21
194.4718237984706
 72
     1
 10
160.8181388861511
 20
194.4718237984706
 11
161.3181388904972
 21
191.4718237723935
 72
     1
 10
161.3181388904972
 20
191.4718237723935
 11
161.8181388948434
 21
194.4718237984706
 97
        0
 75
     0
 76
     1
 98
        0
  0
LINE
  5
C7
330
C4
100
AcDbEntity
  8
Standard
  6
Continuous
 62
     7
100
AcDbLine
 10
103.9867631128
 20
186.5331849958
 30
0.0
 11
162.8181389035
 21
186.5331849958
 31
0.0
  0
LINE
  5
C8
330
C4
100
AcDbEntity
  8
Standard
  6
Continuous
 62
     7
100
AcDbLine
 10
103.9867631128
 20
191.4718237724
 30
0.0
 11
162.8181389035
 21
191.4718237724
 31
0.0
  0
LINE
  5
C9
330
C4
100
AcDbEntity
  8
Standard
  6
Continuous
 62
     7
100
AcDbLine
 10
161.3181388905
 20
180.5331849437
 30
0.0
 11
161.3181388905
 21
197.471823817
 31
0.0
  0
TEXT
  5
CA
330
C4
100
AcDbEntity
  8
Standard
  6
Continuous
 62
     7
100
AcDbText
 10
160.5681388905
 20
188.1502316531
 30
0.0
 40
3.0
  1
5
 50
90.0
  7
SEACAD_seiso_ttf
 11
157.5681388905
 21
188.1502316531
 31
0.0
100
AcDbText
 73
     3
  0
ENDBLK
  5
CC
330
C4
100
AcDbEntity
  8
0
100
AcDbBlockEnd
  0
BLOCK
  5
D7
330
CE
100
AcDbEntity
  8
0
100
AcDbBlockBegin
  2
DMBLK10
 70
     0
 10
0.0
 20
0.0
 30
0.0
  3
DMBLK10
  1

  0
HATCH
  5
CF
330
CE
100
AcDbEntity
  8
Standard
  6
Continuous
 62
     7
100
AcDbHatch
 10
0.0
 20
0.0
 30
0.0
210
0.0
220
0.0
230
1.0
  2
SOLID
 70
     1
 71
     0
 91
        1
 92
        1
 93
        3
 72
     1
 10
106.9867631388529
 20
145.0812359166185
 11
106.9867631388529
 21
146.0812359253109
 72
     1
 10
106.9867631388529
 20
146.0812359253109
 11
103.9867631127758
 21
145.5812359209647
 72
     1
 10
103.9867631127758
 20
145.5812359209647
 11
106.9867631388529
 21
145.0812359166185
 97
        0
 75
     0
 76
     1
 98
        0
  0
HATCH
  5
D0
330
CE
100
AcDbEntity
  8
Standard
  6
Continuous
 62
     7
100
AcDbHatch
 10
0.0
 20
0.0
 30
0.0
210
0.0
220
0.0
230
1.0
  2
SOLID
 70
     1
 71
     0
 91
        1
 92
        1
 93
        3
 72
     1
 10
143.9867645470126
 20
145.0812359166185
 11
146.9867645730896
 21
145.5812359209647
 72
     1
 10
146.9867645730896
 20
145.5812359209647
 11
143.9867645470126
 21
146.0812359253109
 72
     1
 10
143.9867645470126
 20
146.0812359253109
 11
143.9867645470126
 21
145.0812359166185
 97
        0
 75
     0
 76
     1
 98
        0
  0
LINE
  5
D1
330
CE
100
AcDbEntity
  8
Standard
  6
Continuous
 62
     7
100
AcDbLine
 10
103.9867631128
 20
189.0025043841
 30
0.0
 11
103.9867631128
 21
144.0812359079
 31
0.0
  0
LINE
  5
D2
330
CE
100
AcDbEntity
  8
Standard
  6
Continuous
 62
     7
100
AcDbLine
 10
146.9867631128
 20
189.0025043841
 30
0.0
 11
146.9867631128
 21
144.0812359079
 31
0.0
  0
LINE
  5
D3
330
CE
100
AcDbEntity
  8
Standard
  6
Continuous
 62
     7
100
AcDbLine
 10
103.9867631128
 20
145.581235921
 30
0.0
 11
146.9867645731
 21
145.581235921
 31
0.0
  0
TEXT
  5
D4
330
CE
100
AcDbEntity
  8
Standard
  6
Continuous
 62
     7
100
AcDbText
 10
120.5981274793
 20
146.331235921
 30
0.0
 40
3.0
  1
43
  7
SEACAD_seiso_ttf
 11
120.5981274793
 21
149.331235921
 31
0.0
100
AcDbText
 73
     3
  0
TEXT
  5
D5
330
CE
100
AcDbEntity
  8
Standard
  6
Continuous
 62
     7
100
AcDbText
 10
124.2390365702
 20
146.331235921
 30
0.0
 40
3.0
  1
 (Zn)
  7
SEACAD_seiso_ttf
 11
124.2390365702
 21
149.331235921
 31
0.0
100
AcDbText
 73
     3
  0
TEXT
  5
D6
330
CE
100
AcDbEntity
  8
Standard
  6
Continuous
 62
     7
100
AcDbText
 10
120.5981274793
 20
141.831235921
 30
0.0
 40
3.0
  1
38 (Ms)
  7
SEACAD_seiso_ttf
 11
120.5981274793
 21
144.831235921
 31
0.0
100
AcDbText
 73
     3
  0
ENDBLK
  5
D8
330
CE
100
AcDbEntity
  8
0
100
AcDbBlockEnd
  0
BLOCK
  5
E1
330
DA
100
AcDbEntity
  8
0
100
AcDbBlockBegin
  2
DMBLK11
 70
     0
 10
0.0
 20
0.0
 30
0.0
  3
DMBLK11
  1

  0
HATCH
  5
DB
330
DA
100
AcDbEntity
  8
Default
  6
Continuous
 62
     7
100
AcDbHatch
 10
0.0
 20
0.0
 30
0.0
210
0.0
220
0.0
230
1.0
  2
SOLID
 70
     1
 71
     0
 91
        1
 92
        1
 93
        3
 72
     1
 10
71.71732828498567
 20
152.5194835064094
 11
71.71732828498567
 21
153.5194835151017
 72
     1
 10
71.71732828498567
 20
153.5194835151017
 11
68.71732825890864
 21
153.0194835107555
 72
     1
 10
68.71732825890864
 20
153.0194835107555
 11
71.71732828498567
 21
152.5194835064094
 97
        0
 75
     0
 76
     1
 98
        0
  0
HATCH
  5
DC
330
DA
100
AcDbEntity
  8
Default
  6
Continuous
 62
     7
100
AcDbHatch
 10
0.0
 20
0.0
 30
0.0
210
0.0
220
0.0
230
1.0
  2
SOLID
 70
     1
 71
     0
 91
        1
 92
        1
 93
        3
 72
     1
 10
60.6173282328316
 20
152.5194835064094
 11
63.61732825890863
 21
153.0194835107555
 72
     1
 10
63.61732825890863
 20
153.0194835107555
 11
60.6173282328316
 21
153.5194835151017
 72
     1
 10
60.6173282328316
 20
153.5194835151017
 11
60.6173282328316
 21
152.5194835064094
 97
        0
 75
     0
 76
     1
 98
        0
  0
LINE
  5
DD
330
DA
100
AcDbEntity
  8
Default
  6
Continuous
 62
     7
100
AcDbLine
 10
68.7173282589
 20
162.6817615073
 30
0.0
 11
68.7173282589
 21
151.5194834977
 31
0.0
  0
LINE
  5
DE
330
DA
100
AcDbEntity
  8
Default
  6
Continuous
 62
     7
100
AcDbLine
 10
63.6173282589
 20
161.5025043841
 30
0.0
 11
63.6173282589
 21
151.5194834977
 31
0.0
  0
LINE
  5
DF
330
DA
100
AcDbEntity
  8
Default
  6
Continuous
 62
     7
100
AcDbLine
 10
77.7210224281
 20
153.0194835108
 30
0.0
 11
57.6173284884
 21
153.0194835108
 31
0.0
  0
TEXT
  5
E0
330
DA
100
AcDbEntity
  8
Default
  6
Continuous
 62
     7
100
AcDbText
 10
73.1937494598
 20
153.7694835108
 30
0.0
 40
3.0
  1
5,1
  7
SEACAD_seiso_ttf
 11
73.1937494598
 21
156.7694835108
 31
0.0
100
AcDbText
 73
     3
  0
ENDBLK
  5
E2
330
DA
100
AcDbEntity
  8
0
100
AcDbBlockEnd
  0
BLOCK
  5
EB
330
E4
100
AcDbEntity
  8
0
100
AcDbBlockBegin
  2
DMBLK12
 70
     0
 10
0.0
 20
0.0
 30
0.0
  3
DMBLK12
  1

  0
HATCH
  5
E5
330
E4
100
AcDbEntity
  8
Default
  6
Continuous
 62
     7
100
AcDbHatch
 10
0.0
 20
0.0
 30
0.0
210
0.0
220
0.0
230
1.0
  2
SOLID
 70
     1
 71
     0
 91
        1
 92
        1
 93
        3
 72
     1
 10
65.7173282328316
 20
143.5194838938395
 11
68.71732825890864
 21
144.0194838981857
 72
     1
 10
68.71732825890864
 20
144.0194838981857
 11
65.7173282328316
 21
144.5194839025319
 72
     1
 10
65.7173282328316
 20
144.5194839025319
 11
65.7173282328316
 21
143.5194838938395
 97
        0
 75
     0
 76
     1
 98
        0
  0
HATCH
  5
E6
330
E4
100
AcDbEntity
  8
Default
  6
Continuous
 62
     7
100
AcDbHatch
 10
0.0
 20
0.0
 30
0.0
210
0.0
220
0.0
230
1.0
  2
SOLID
 70
     1
 71
     0
 91
        1
 92
        1
 93
        3
 72
     1
 10
62.71732867241586
 20
143.5194838938395
 11
62.71732867241586
 21
144.5194839025319
 72
     1
 10
62.71732867241586
 20
144.5194839025319
 11
59.71732864633883
 21
144.0194838981857
 72
     1
 10
59.71732864633883
 20
144.0194838981857
 11
62.71732867241586
 21
143.5194838938395
 97
        0
 75
     0
 76
     1
 98
        0
  0
LINE
  5
E7
330
E4
100
AcDbEntity
  8
Default
  6
Continuous
 62
     7
100
AcDbLine
 10
68.7173282589
 20
162.6817615073
 30
0.0
 11
68.7173282589
 21
142.5194838851
 31
0.0
  0
LINE
  5
E8
330
E4
100
AcDbEntity
  8
Default
  6
Continuous
 62
     7
100
AcDbLine
 10
59.7173282589
 20
177.5025043841
 30
0.0
 11
59.7173282589
 21
142.5194838851
 31
0.0
  0
LINE
  5
E9
330
E4
100
AcDbEntity
  8
Default
  6
Continuous
 62
     7
100
AcDbLine
 10
68.7173282589
 20
144.0194838982
 30
0.0
 11
59.7173286463
 21
144.0194838982
 31
0.0
  0
TEXT
  5
EA
330
E4
100
AcDbEntity
  8
Default
  6
Continuous
 62
     7
100
AcDbText
 10
63.2968739072
 20
144.7694838982
 30
0.0
 40
3.0
  1
9
  7
SEACAD_seiso_ttf
 11
63.2968739072
 21
147.7694838982
 31
0.0
100
AcDbText
 73
     3
  0
ENDBLK
  5
EC
330
E4
100
AcDbEntity
  8
0
100
AcDbBlockEnd
  0
ENDSEC
  0
SECTION
  2
ENTITIES
  0
INSERT
  5
5F
330
1F
100
AcDbEntity
  8
Standard
100
AcDbBlockReference
  2
SEANNOT_GROUP
 10
0.0
 20
0.0
 30
0.0
  0
INSERT
  5
6B
330
1F
100
AcDbEntity
  8
Default
100
AcDbBlockReference
  2
SEANNOT_GROUP1
 10
0.0
 20
0.0
 30
0.0
  0
INSERT
  5
75
330
1F
100
AcDbEntity
  8
Default
100
AcDbBlockReference
  2
SEANNOT_GROUP2
 10
0.0
 20
0.0
 30
0.0
  0
INSERT
  5
7F
330
1F
100
AcDbEntity
  8
0
100
AcDbBlockReference
  2
SE
 10
0.0
 20
0.0
 30
0.0
  0
INSERT
  5
8D
330
1F
100
AcDbEntity
  8
0
100
AcDbBlockReference
  2
SE1
 10
0.0
 20
0.0
 30
0.0
  0
DIMENSION
  5
AD
330
1F
100
AcDbEntity
  8
Standard
  6
Continuous
 62
     7
100
AcDbDimension
  2
DMBLK7
 10
83.9009788658
 20
161.5025043841
 30
0.0
 11
83.9009788658
 21
189.0025042351
 31
0.0
 70
   161
  1
\A1;%%C <>
 71
     5
 42
-1.0
  3
DIN
100
AcDbAlignedDimension
 13
63.6173282589
 23
161.5025043841
 33
0.0
 14
63.6173282589
 24
216.5025043841
 34
0.0
  0
DIMENSION
  5
B9
330
1F
100
AcDbEntity
  8
Standard
  6
Continuous
 62
     7
100
AcDbDimension
  2
DMBLK8
 10
171.9602248496
 20
198.1025064155
 30
0.0
 11
171.9602252474
 21
189.0025047581
 31
0.0
 70
   161
  1
\A1;<>
 71
     5
 42
-1.0
  3
DIN
100
AcDbAlignedDimension
 13
125.4867635105
 23
179.9025043841
 33
0.0
 14
125.486762715
 24
198.1025043841
 34
0.0
1001
ACAD
1000
DSTYLE
1002
{
1070
    73
1070
     1
1070
    74
1070
     1
1070
    77
1070
     0
1070
   271
1070
     1
1070
   272
1070
     1
1070
     0
1002
}
  0
DIMENSION
  5
C3
330
1F
100
AcDbEntity
  8
Standard
  6
Continuous
 62
     7
100
AcDbDimension
  2
DMBLK9
 10
161.3181387826
 20
191.4718262784
 30
0.0
 11
161.3181388905
 21
189.0025043804
 31
0.0
 70
   161
  1
\A1;<>
 71
     5
 42
-1.0
  3
DIN
100
AcDbAlignedDimension
 13
103.9867632207
 23
186.5331849958
 33
0.0
 14
103.9867630048
 24
191.4718237724
 34
0.0
1001
ACAD
1000
DSTYLE
1002
{
1070
    73
1070
     1
1070
    74
1070
     1
1070
    77
1070
     0
1070
   271
1070
     0
1070
   272
1070
     0
1070
     0
1002
}
  0
DIMENSION
  5
CD
330
1F
100
AcDbEntity
  8
Standard
  6
Continuous
 62
     7
100
AcDbDimension
  2
DMBLK10
 10
103.9867631128
 20
145.581235921
 30
0.0
 11
125.4867638429
 21
145.581235921
 31
0.0
 70
   161
  1
\A1;<>  (Zn)\P38 (Ms)
 71
     5
 42
-1.0
  3
DIN
100
AcDbAlignedDimension
 13
103.9867631128
 23
189.0025043841
 33
0.0
 14
146.9867631128
 24
189.0025043841
 34
0.0
  0
DIMENSION
  5
D9
330
1F
100
AcDbEntity
  8
Default
  6
Continuous
 62
     7
100
AcDbDimension
  2
DMBLK11
 10
63.6173282589
 20
153.0194835108
 30
0.0
 11
72.1437494598
 21
153.0194835108
 31
0.0
 70
   160
  1
\A1;<>
 71
     5
 42
-1.0
  3
DIN
100
AcDbAlignedDimension
 13
68.7173282589
 23
162.6817615073
 33
0.0
 14
63.6173282589
 24
161.5025043841
 34
0.0
100
AcDbRotatedDimension
  0
DIMENSION
  5
E3
330
1F
100
AcDbEntity
  8
Default
  6
Continuous
 62
     7
100
AcDbDimension
  2
DMBLK12
 10
59.7173282589
 20
144.0194838982
 30
0.0
 11
64.2173284526
 21
144.0194838982
 31
0.0
 70
   160
  1
\A1;<>
 71
     5
 42
-1.0
  3
DIN
100
AcDbAlignedDimension
 13
68.7173282589
 23
162.6817615073
 33
0.0
 14
59.7173282589
 24
177.5025043841
 34
0.0
100
AcDbRotatedDimension
  0
ENDSEC
  0
SECTION
  2
OBJECTS
  0
DICTIONARY
  5
C
330
0
100
AcDbDictionary
281
     1
  3
ACAD_GROUP
350
D
  3
ACAD_LAYOUT
350
1A
  3
ACAD_MLEADERSTYLE
350
F0
  3
ACAD_MLINESTYLE
350
17
  3
ACAD_PLOTSETTINGS
350
19
  3
ACAD_PLOTSTYLENAME
350
E
  3
ACAD_SCALELIST
350
3B
  3
ACAD_TABLESTYLE
350
EF
  3
ACAD_VISUALSTYLE
350
2A
  3
AcDbVariableDictionary
350
ED
  0
DICTIONARY
  5
D
102
{ACAD_REACTORS
330
C
102
}
330
C
100
AcDbDictionary
281
     1
  0
DICTIONARY
  5
1A
102
{ACAD_REACTORS
330
C
102
}
330
C
100
AcDbDictionary
281
     1
  3
Layout1
350
1E
  3
Model
350
22
  0
DICTIONARY
  5
F0
102
{ACAD_REACTORS
330
C
102
}
330
C
100
AcDbDictionary
281
     1
  0
DICTIONARY
  5
17
102
{ACAD_REACTORS
330
C
102
}
330
C
100
AcDbDictionary
281
     1
  3
Standard
350
18
  0
DICTIONARY
  5
19
102
{ACAD_REACTORS
330
C
102
}
330
C
100
AcDbDictionary
281
     1
  0
ACDBDICTIONARYWDFLT
  5
E
102
{ACAD_REACTORS
330
C
102
}
330
C
100
AcDbDictionary
281
     1
  3
Normal
350
F
100
AcDbDictionaryWithDefault
340
F
  0
DICTIONARY
  5
3B
102
{ACAD_REACTORS
330
C
102
}
330
C
100
AcDbDictionary
281
     1
  3
A0
350
3C
  3
A1
350
3D
  3
A2
350
3E
  3
A3
350
3F
  3
A4
350
40
  3
A5
350
41
  3
A6
350
42
  3
A7
350
43
  3
A8
350
44
  3
A9
350
45
  3
B0
350
46
  3
B1
350
47
  3
B2
350
48
  3
B3
350
49
  3
B4
350
4A
  3
B5
350
4B
  3
B6
350
4C
  3
B7
350
4D
  3
B8
350
4E
  3
B9
350
4F
  3
C0
350
50
  3
C1
350
51
  3
C2
350
52
  3
C3
350
53
  3
C4
350
54
  3
C5
350
55
  3
C6
350
56
  3
C7
350
57
  3
C8
350
58
  3
C9
350
59
  3
D0
350
5A
  3
D1
350
5B
  3
D2
350
5C
  0
DICTIONARY
  5
EF
102
{ACAD_REACTORS
330
C
102
}
330
C
100
AcDbDictionary
281
     1
  0
DICTIONARY
  5
2A
102
{ACAD_REACTORS
330
C
102
}
330
C
100
AcDbDictionary
281
     1
  3
2dWireframe
350
2F
  3
3D Hidden
350
31
  3
3dWireframe
350
30
  3
Basic
350
32
  3
Brighten
350
36
  3
ColorChange
350
3A
  3
Conceptual
350
34
  3
Dim
350
35
  3
Facepattern
350
39
  3
Flat
350
2B
  3
FlatWithEdges
350
2C
  3
Gouraud
350
2D
  3
GouraudWithEdges
350
2E
  3
Linepattern
350
38
  3
Realistic
350
33
  3
Thicken
350
37
  0
DICTIONARY
  5
ED
102
{ACAD_REACTORS
330
C
102
}
330
C
100
AcDbDictionary
281
     1
  3
CANNOSCALE
350
EE
  3
PSOLHEIGHT
350
F2
  3
PSOLWIDTH
350
F1
  0
LAYOUT
  5
1E
102
{ACAD_REACTORS
330
1A
102
}
330
1A
100
AcDbPlotSettings
  1

  2
none_device
  4

  6

 40
0.0
 41
0.0
 42
0.0
 43
0.0
 44
0.0
 45
0.0
 46
0.0
 47
0.0
 48
0.0
 49
0.0
140
0.0
141
0.0
142
1.0
143
1.0
 70
   688
 72
     0
 73
     0
 74
     5
  7

 75
    16
147
1.0
148
0.0
149
0.0
100
AcDbLayout
  1
Layout1
 70
     1
 71
     1
 10
0.0
 20
0.0
 11
210.0
 21
297.0
 12
0.0
 22
0.0
 32
0.0
 14
0.0
 24
0.0
 34
0.0
 15
210.0
 25
297.0
 35
0.0
146
0.0
 13
0.0
 23
0.0
 33
0.0
 16
1.0
 26
0.0
 36
0.0
 17
0.0
 27
1.0
 37
0.0
 76
     0
330
1B
  0
LAYOUT
  5
22
102
{ACAD_REACTORS
330
1A
102
}
330
1A
100
AcDbPlotSettings
  1

  2
none_device
  4

  6

 40
0.0
 41
0.0
 42
0.0
 43
0.0
 44
0.0
 45
0.0
 46
0.0
 47
0.0
 48
0.0
 49
0.0
140
0.0
141
0.0
142
1.0
143
1.0
 70
  1712
 72
     0
 73
     0
 74
     0
  7

 75
     0
147
1.0
148
0.0
149
0.0
100
AcDbLayout
  1
Model
 70
     1
 71
     0
 10
0.0
 20
0.0
 11
210.0
 21
297.0
 12
0.0
 22
0.0
 32
0.0
 14
0.0
 24
0.0
 34
0.0
 15
210.0
 25
297.0
 35
0.0
146
0.0
 13
0.0
 23
0.0
 33
0.0
 16
1.0
 26
0.0
 36
0.0
 17
0.0
 27
1.0
 37
0.0
 76
     0
330
1F
331
29
  0
MLINESTYLE
  5
18
102
{ACAD_REACTORS
330
17
102
}
330
17
100
AcDbMlineStyle
  2
Standard
 70
     0
  3

 62
   256
 51
90.0
 52
90.0
 71
     2
 49
0.5
 62
   256
  6
BYLAYER
 49
-0.5
 62
   256
  6
BYLAYER
  0
ACDBPLACEHOLDER
  5
F
102
{ACAD_REACTORS
330
E
102
}
330
E
  0
SCALE
  5
3C
102
{ACAD_REACTORS
330
3B
102
}
330
3B
100
AcDbScale
 70
     0
300
1:1
140
1.0
141
1.0
290
     1
  0
SCALE
  5
3D
102
{ACAD_REACTORS
330
3B
102
}
330
3B
100
AcDbScale
 70
     0
300
1:2
140
1.0
141
2.0
290
     0
  0
SCALE
  5
3E
102
{ACAD_REACTORS
330
3B
102
}
330
3B
100
AcDbScale
 70
     0
300
1:4
140
1.0
141
4.0
290
     0
  0
SCALE
  5
3F
102
{ACAD_REACTORS
330
3B
102
}
330
3B
100
AcDbScale
 70
     0
300
1:5
140
1.0
141
5.0
290
     0
  0
SCALE
  5
40
102
{ACAD_REACTORS
330
3B
102
}
330
3B
100
AcDbScale
 70
     0
300
1:8
140
1.0
141
8.0
290
     0
  0
SCALE
  5
41
102
{ACAD_REACTORS
330
3B
102
}
330
3B
100
AcDbScale
 70
     0
300
1:10
140
1.0
141
10.0
290
     0
  0
SCALE
  5
42
102
{ACAD_REACTORS
330
3B
102
}
330
3B
100
AcDbScale
 70
     0
300
1:16
140
1.0
141
16.0
290
     0
  0
SCALE
  5
43
102
{ACAD_REACTORS
330
3B
102
}
330
3B
100
AcDbScale
 70
     0
300
1:20
140
1.0
141
20.0
290
     0
  0
SCALE
  5
44
102
{ACAD_REACTORS
330
3B
102
}
330
3B
100
AcDbScale
 70
     0
300
1:30
140
1.0
141
30.0
290
     0
  0
SCALE
  5
45
102
{ACAD_REACTORS
330
3B
102
}
330
3B
100
AcDbScale
 70
     0
300
1:40
140
1.0
141
40.0
290
     0
  0
SCALE
  5
46
102
{ACAD_REACTORS
330
3B
102
}
330
3B
100
AcDbScale
 70
     0
300
1:50
140
1.0
141
50.0
290
     0
  0
SCALE
  5
47
102
{ACAD_REACTORS
330
3B
102
}
330
3B
100
AcDbScale
 70
     0
300
1:100
140
1.0
141
100.0
290
     0
  0
SCALE
  5
48
102
{ACAD_REACTORS
330
3B
102
}
330
3B
100
AcDbScale
 70
     0
300
2:1
140
2.0
141
1.0
290
     0
  0
SCALE
  5
49
102
{ACAD_REACTORS
330
3B
102
}
330
3B
100
AcDbScale
 70
     0
300
4:1
140
4.0
141
1.0
290
     0
  0
SCALE
  5
4A
102
{ACAD_REACTORS
330
3B
102
}
330
3B
100
AcDbScale
 70
     0
300
8:1
140
8.0
141
1.0
290
     0
  0
SCALE
  5
4B
102
{ACAD_REACTORS
330
3B
102
}
330
3B
100
AcDbScale
 70
     0
300
10:1
140
10.0
141
1.0
290
     0
  0
SCALE
  5
4C
102
{ACAD_REACTORS
330
3B
102
}
330
3B
100
AcDbScale
 70
     0
300
100:1
140
100.0
141
1.0
290
     0
  0
SCALE
  5
4D
102
{ACAD_REACTORS
330
3B
102
}
330
3B
100
AcDbScale
 70
     0
300
1/128" = 1'-0"
140
0.0078125
141
12.0
290
     0
  0
SCALE
  5
4E
102
{ACAD_REACTORS
330
3B
102
}
330
3B
100
AcDbScale
 70
     0
300
1/64" = 1'-0"
140
0.015625
141
12.0
290
     0
  0
SCALE
  5
4F
102
{ACAD_REACTORS
330
3B
102
}
330
3B
100
AcDbScale
 70
     0
300
1/32" = 1'-0"
140
0.03125
141
12.0
290
     0
  0
SCALE
  5
50
102
{ACAD_REACTORS
330
3B
102
}
330
3B
100
AcDbScale
 70
     0
300
1/16" = 1'-0"
140
0.0625
141
12.0
290
     0
  0
SCALE
  5
51
102
{ACAD_REACTORS
330
3B
102
}
330
3B
100
AcDbScale
 70
     0
300
3/32" = 1'-0"
140
0.09375
141
12.0
290
     0
  0
SCALE
  5
52
102
{ACAD_REACTORS
330
3B
102
}
330
3B
100
AcDbScale
 70
     0
300
1/8" = 1'-0"
140
0.125
141
12.0
290
     0
  0
SCALE
  5
53
102
{ACAD_REACTORS
330
3B
102
}
330
3B
100
AcDbScale
 70
     0
300
3/16" = 1'-0"
140
0.1875
141
12.0
290
     0
  0
SCALE
  5
54
102
{ACAD_REACTORS
330
3B
102
}
330
3B
100
AcDbScale
 70
     0
300
1/4" = 1'-0"
140
0.25
141
12.0
290
     0
  0
SCALE
  5
55
102
{ACAD_REACTORS
330
3B
102
}
330
3B
100
AcDbScale
 70
     0
300
3/8" = 1'-0"
140
0.375
141
12.0
290
     0
  0
SCALE
  5
56
102
{ACAD_REACTORS
330
3B
102
}
330
3B
100
AcDbScale
 70
     0
300
1/2" = 1'-0"
140
0.5
141
12.0
290
     0
  0
SCALE
  5
57
102
{ACAD_REACTORS
330
3B
102
}
330
3B
100
AcDbScale
 70
     0
300
3/4" = 1'-0"
140
0.75
141
12.0
290
     0
  0
SCALE
  5
58
102
{ACAD_REACTORS
330
3B
102
}
330
3B
100
AcDbScale
 70
     0
300
1" = 1'-0"
140
1.0
141
12.0
290
     0
  0
SCALE
  5
59
102
{ACAD_REACTORS
330
3B
102
}
330
3B
100
AcDbScale
 70
     0
300
1-1/2" = 1'-0"
140
1.5
141
12.0
290
     0
  0
SCALE
  5
5A
102
{ACAD_REACTORS
330
3B
102
}
330
3B
100
AcDbScale
 70
     0
300
3" = 1'-0"
140
3.0
141
12.0
290
     0
  0
SCALE
  5
5B
102
{ACAD_REACTORS
330
3B
102
}
330
3B
100
AcDbScale
 70
     0
300
6" = 1'-0"
140
6.0
141
12.0
290
     0
  0
SCALE
  5
5C
102
{ACAD_REACTORS
330
3B
102
}
330
3B
100
AcDbScale
 70
     0
300
1'-0" = 1'-0"
140
12.0
141
12.0
290
     0
  0
VISUALSTYLE
  5
2F
102
{ACAD_REACTORS
330
2A
102
}
330
2A
100
AcDbVisualStyle
  2
2dWireframe
 70
     4
 71
     0
 72
     2
 73
     0
 90
        0
 40
-0.6
 41
-30.0
 62
     5
 63
     7
 74
     1
 91
        4
 64
     7
 65
   257
 75
     1
175
     1
 42
1.0
 92
        0
 66
   257
 43
1.0
 76
     1
 77
     6
 78
     2
 67
     7
 79
     5
170
     0
171
     0
290
     0
174
     0
 93
        1
 44
0.0
173
     0
291
     0
 45
0.0
1001
ACAD
1000
AcDbSavedByObjectVersion
1070
     0
  0
VISUALSTYLE
  5
31
102
{ACAD_REACTORS
330
2A
102
}
330
2A
100
AcDbVisualStyle
  2
3D Hidden
 70
     6
 71
     1
 72
     2
 73
     2
 90
        0
 40
-0.6
 41
-30.0
 62
     5
 63
     7
 74
     2
 91
        2
 64
     7
 65
   257
 75
     2
175
     1
 42
40.0
 92
        0
 66
   257
 43
1.0
 76
     1
 77
     6
 78
     2
 67
     7
 79
     3
170
     0
171
     0
290
     0
174
     0
 93
        1
 44
0.0
173
     0
291
     0
 45
0.0
1001
ACAD
1000
AcDbSavedByObjectVersion
1070
     0
  0
VISUALSTYLE
  5
30
102
{ACAD_REACTORS
330
2A
102
}
330
2A
100
AcDbVisualStyle
  2
3dWireframe
 70
     5
 71
     0
 72
     2
 73
     0
 90
        0
 40
-0.6
 41
-30.0
 62
     5
 63
     7
 74
     1
 91
        4
 64
     7
 65
   257
 75
     1
175
     1
 42
1.0
 92
        0
 66
   257
 43
1.0
 76
     1
 77
     6
 78
     2
 67
     7
 79
     5
170
     0
171
     0
290
     0
174
     0
 93
        1
 44
0.0
173
     0
291
     0
 45
0.0
1001
ACAD
1000
AcDbSavedByObjectVersion
1070
     0
  0
VISUALSTYLE
  5
32
102
{ACAD_REACTORS
330
2A
102
}
330
2A
100
AcDbVisualStyle
  2
Basic
 70
     7
 71
     1
 72
     0
 73
     1
 90
        0
 40
-0.6
 41
-30.0
 62
     5
 63
     7
 74
     0
 91
        4
 64
     7
 65
   257
 75
     1
175
     1
 42
1.0
 92
        8
 66
     7
 43
1.0
 76
     1
 77
     6
 78
     2
 67
     7
 79
     5
170
     0
171
     0
290
     0
174
     0
 93
        1
 44
0.0
173
     0
291
     1
 45
0.0
1001
ACAD
1000
AcDbSavedByObjectVersion
1070
     0
  0
VISUALSTYLE
  5
36
102
{ACAD_REACTORS
330
2A
102
}
330
2A
100
AcDbVisualStyle
  2
Brighten
 70
    12
 71
     2
 72
     2
 73
     0
 90
        0
 40
-0.6
 41
-30.0
 62
     5
 63
     7
 74
     1
 91
        4
 64
     7
 65
   257
 75
     1
175
     1
 42
1.0
 92
        8
 66
     7
 43
1.0
 76
     1
 77
     6
 78
     2
 67
     7
 79
     5
170
     0
171
     0
290
     0
174
     0
 93
        1
 44
50.0
173
     0
291
     1
 45
0.0
1001
ACAD
1000
AcDbSavedByObjectVersion
1070
     0
  0
VISUALSTYLE
  5
3A
102
{ACAD_REACTORS
330
2A
102
}
330
2A
100
AcDbVisualStyle
  2
ColorChange
 70
    16
 71
     2
 72
     2
 73
     3
 90
        0
 40
-0.6
 41
-30.0
 62
     5
 63
     8
 74
     1
 91
        4
 64
     7
 65
   257
 75
     1
175
     1
 42
1.0
 92
        8
 66
     8
 43
1.0
 76
     1
 77
     6
 78
     2
 67
     7
 79
     5
170
     0
171
     0
290
     0
174
     0
 93
        1
 44
0.0
173
     0
291
     1
 45
0.0
1001
ACAD
1000
AcDbSavedByObjectVersion
1070
     0
  0
VISUALSTYLE
  5
34
102
{ACAD_REACTORS
330
2A
102
}
330
2A
100
AcDbVisualStyle
  2
Conceptual
 70
     9
 71
     3
 72
     2
 73
     0
 90
        0
 40
-0.6
 41
-30.0
 62
     5
 63
     7
 74
     2
 91
        2
 64
     7
 65
   257
 75
     1
175
     1
 42
40.0
 92
        8
 66
     7
 43
1.0
 76
     1
 77
     6
 78
     2
 67
     7
 79
     3
170
     0
171
     0
290
     0
174
     0
 93
        1
 44
0.0
173
     0
291
     0
 45
0.0
1001
ACAD
1000
AcDbSavedByObjectVersion
1070
     0
  0
VISUALSTYLE
  5
35
102
{ACAD_REACTORS
330
2A
102
}
330
2A
100
AcDbVisualStyle
  2
Dim
 70
    11
 71
     2
 72
     2
 73
     0
 90
        0
 40
-0.6
 41
-30.0
 62
     5
 63
     7
 74
     1
 91
        4
 64
     7
 65
   257
 75
     1
175
     1
 42
1.0
 92
        8
 66
     7
 43
1.0
 76
     1
 77
     6
 78
     2
 67
     7
 79
     5
170
     0
171
     0
290
     0
174
     0
 93
        1
 44
-50.0
173
     0
291
     1
 45
0.0
1001
ACAD
1000
AcDbSavedByObjectVersion
1070
     0
  0
VISUALSTYLE
  5
39
102
{ACAD_REACTORS
330
2A
102
}
330
2A
100
AcDbVisualStyle
  2
Facepattern
 70
    15
 71
     2
 72
     2
 73
     0
 90
        0
 40
-0.6
 41
-30.0
 62
     5
 63
     7
 74
     1
 91
        4
 64
     7
 65
   257
 75
     1
175
     1
 42
1.0
 92
        8
 66
     7
 43
1.0
 76
     1
 77
     6
 78
     2
 67
     7
 79
     5
170
     0
171
     0
290
     0
174
     0
 93
        1
 44
0.0
173
     0
291
     1
 45
0.0
1001
ACAD
1000
AcDbSavedByObjectVersion
1070
     0
  0
VISUALSTYLE
  5
2B
102
{ACAD_REACTORS
330
2A
102
}
330
2A
100
AcDbVisualStyle
  2
Flat
 70
     0
 71
     2
 72
     1
 73
     1
 90
        2
 40
-0.6
 41
30.0
 62
     5
 63
     7
 74
     0
 91
        4
 64
     7
 65
   257
 75
     1
175
     1
 42
1.0
 92
        8
 66
     7
 43
1.0
 76
     1
 77
     6
 78
     2
 67
     7
 79
     5
170
     0
171
     0
290
     0
174
     0
 93
       13
 44
0.0
173
     0
291
     1
 45
0.0
1001
ACAD
1000
AcDbSavedByObjectVersion
1070
     0
  0
VISUALSTYLE
  5
2C
102
{ACAD_REACTORS
330
2A
102
}
330
2A
100
AcDbVisualStyle
  2
FlatWithEdges
 70
     1
 71
     2
 72
     1
 73
     1
 90
        2
 40
-0.6
 41
30.0
 62
     5
 63
     7
 74
     1
 91
        4
 64
     7
 65
   257
 75
     1
175
     1
 42
1.0
 92
        0
 66
   257
 43
1.0
 76
     1
 77
     6
 78
     2
 67
     7
 79
     5
170
     0
171
     0
290
     0
174
     0
 93
       13
 44
0.0
173
     0
291
     1
 45
0.0
1001
ACAD
1000
AcDbSavedByObjectVersion
1070
     0
  0
VISUALSTYLE
  5
2D
102
{ACAD_REACTORS
330
2A
102
}
330
2A
100
AcDbVisualStyle
  2
Gouraud
 70
     2
 71
     2
 72
     2
 73
     1
 90
        2
 40
-0.6
 41
30.0
 62
     5
 63
     7
 74
     0
 91
        4
 64
     7
 65
   257
 75
     1
175
     1
 42
1.0
 92
        0
 66
     7
 43
1.0
 76
     1
 77
     6
 78
     2
 67
     7
 79
     5
170
     0
171
     0
290
     0
174
     0
 93
       13
 44
0.0
173
     0
291
     1
 45
0.0
1001
ACAD
1000
AcDbSavedByObjectVersion
1070
     0
  0
VISUALSTYLE
  5
2E
102
{ACAD_REACTORS
330
2A
102
}
330
2A
100
AcDbVisualStyle
  2
GouraudWithEdges
 70
     3
 71
     2
 72
     2
 73
     1
 90
        2
 40
-0.6
 41
30.0
 62
     5
 63
     7
 74
     1
 91
        4
 64
     7
 65
   257
 75
     1
175
     1
 42
1.0
 92
        0
 66
   257
 43
1.0
 76
     1
 77
     6
 78
     2
 67
     7
 79
     5
170
     0
171
     0
290
     0
174
     0
 93
       13
 44
0.0
173
     0
291
     1
 45
0.0
1001
ACAD
1000
AcDbSavedByObjectVersion
1070
     0
  0
VISUALSTYLE
  5
38
102
{ACAD_REACTORS
330
2A
102
}
330
2A
100
AcDbVisualStyle
  2
Linepattern
 70
    14
 71
     2
 72
     2
 73
     0
 90
        0
 40
-0.6
 41
-30.0
 62
     5
 63
     7
 74
     1
 91
        4
 64
     7
 65
   257
 75
     7
175
     7
 42
1.0
 92
        8
 66
     7
 43
1.0
 76
     1
 77
     6
 78
     2
 67
     7
 79
     5
170
     0
171
     0
290
     0
174
     0
 93
        1
 44
0.0
173
     0
291
     1
 45
0.0
1001
ACAD
1000
AcDbSavedByObjectVersion
1070
     0
  0
VISUALSTYLE
  5
33
102
{ACAD_REACTORS
330
2A
102
}
330
2A
100
AcDbVisualStyle
  2
Realistic
 70
     8
 71
     2
 72
     2
 73
     0
 90
        0
 40
-0.6
 41
-30.0
 62
     5
 63
     7
 74
     1
 91
        0
 64
     7
 65
   257
 75
     1
175
     1
 42
1.0
 92
        8
 66
     8
 43
1.0
 76
     1
 77
     6
 78
     2
 67
     7
 79
     5
170
     0
171
     0
290
     0
174
     0
 93
       13
 44
0.0
173
     0
291
     0
 45
0.0
1001
ACAD
1000
AcDbSavedByObjectVersion
1070
     0
  0
VISUALSTYLE
  5
37
102
{ACAD_REACTORS
330
2A
102
}
330
2A
100
AcDbVisualStyle
  2
Thicken
 70
    13
 71
     2
 72
     2
 73
     0
 90
        0
 40
-0.6
 41
-30.0
 62
     5
 63
     7
 74
     1
 91
        4
 64
     7
 65
   257
 75
     1
175
     1
 42
1.0
 92
       12
 66
     7
 43
1.0
 76
     1
 77
     6
 78
     2
 67
     7
 79
     5
170
     0
171
     0
290
     0
174
     0
 93
        1
 44
0.0
173
     0
291
     1
 45
0.0
1001
ACAD
1000
AcDbSavedByObjectVersion
1070
     0
  0
DICTIONARYVAR
  5
EE
102
{ACAD_REACTORS
330
ED
102
}
330
ED
100
DictionaryVariables
280
     0
  1
1:1
  0
DICTIONARYVAR
  5
F2
102
{ACAD_REACTORS
330
ED
102
}
330
ED
100
DictionaryVariables
280
     0
  1
80.000000
  0
DICTIONARYVAR
  5
F1
102
{ACAD_REACTORS
330
ED
102
}
330
ED
100
DictionaryVariables
280
     0
  1
5.000000
  0
ENDSEC
  0
EOF
