  0
SECTION
  2
HEADER
  9
$ACADVER
  1
AC1009
  9
$DWGCODEPAGE
  3
ansi_1252
  9
$INSBASE
 10
0.0
 20
0.0
 30
0.0
  9
$EXTMIN
 10
0.0
 20
0.0
 30
0.0
  9
$EXTMAX
 10
420.0
 20
297.0
 30
0.0
  9
$LIMMIN
 10
0.0
 20
0.0
  9
$LIMMAX
 10
420.0
 20
297.0
  9
$ORTHOMODE
 70
     0
  9
$REGENMODE
 70
     1
  9
$FILLMODE
 70
     1
  9
$QTEXTMODE
 70
     0
  9
$MIRRTEXT
 70
     1
  9
$DRAGMODE
 70
     2
  9
$LTSCALE
 40
1.0
  9
$OSMODE
 70
    37
  9
$ATTMODE
 70
     1
  9
$TEXTSIZE
 40
3.5277777778
  9
$TRACEWID
 40
1.0
  9
$TEXTSTYLE
  7
STANDARD
  9
$CLAYER
  8
0
  9
$CELTYPE
  6
BYLAYER
  9
$CECOLOR
 62
   256
  9
$DIMSCALE
 40
1.0
  9
$DIMASZ
 40
3.302
  9
$DIMEXO
 40
1.0
  9
$DIMDLI
 40
3.75
  9
$DIMRND
 40
0.0
  9
$DIMDLE
 40
0.0
  9
$DIMEXE
 40
1.0
  9
$DIMTP
 40
0.0
  9
$DIMTM
 40
0.0
  9
$DIMTXT
 40
3.5277777778
  9
$DIMCEN
 40
2.5
  9
$DIMTSZ
 40
0.0
  9
$DIMTOL
 70
     0
  9
$DIMLIM
 70
     0
  9
$DIMTIH
 70
     1
  9
$DIMTOH
 70
     1
  9
$DIMSE1
 70
     0
  9
$DIMSE2
 70
     0
  9
$DIMTAD
 70
     1
  9
$DIMZIN
 70
     0
  9
$DIMBLK
  1

  9
$DIMASO
 70
     1
  9
$DIMSHO
 70
     1
  9
$DIMPOST
  1

  9
$DIMAPOST
  1

  9
$DIMALT
 70
     0
  9
$DIMALTD
 70
     3
  9
$DIMALTF
 40
0.0393700787
  9
$DIMLFAC
 40
1.0
  9
$DIMTOFL
 70
     1
  9
$DIMTVP
 40
0.0
  9
$DIMTIX
 70
     0
  9
$DIMSOXD
 70
     0
  9
$DIMSAH
 70
     0
  9
$DIMBLK1
  1

  9
$DIMBLK2
  1

  9
$DIMSTYLE
  2
ISO-25
  9
$DIMCLRD
 70
     0
  9
$DIMCLRE
 70
     0
  9
$DIMCLRT
 70
     0
  9
$DIMTFAC
 40
1.0
  9
$DIMGAP
 40
1.524
  9
$LUNITS
 70
     2
  9
$LUPREC
 70
     2
  9
$SKETCHINC
 40
1.0
  9
$FILLETRAD
 40
10.0
  9
$AUNITS
 70
     0
  9
$AUPREC
 70
     2
  9
$MENU
  1
.
  9
$ELEVATION
 40
0.0
  9
$PELEVATION
 40
0.0
  9
$THICKNESS
 40
0.0
  9
$LIMCHECK
 70
     0
  9
$CHAMFERA
 40
10.0
  9
$CHAMFERB
 40
10.0
  9
$SKPOLY
 70
     0
  9
$TDCREATE
 40
2456049.595603171
  9
$TDUPDATE
 40
2456049.595603183
  9
$TDINDWG
 40
0.0000000116
  9
$TDUSRTIMER
 40
0.0000000116
  9
$USRTIMER
 70
     1
  9
$ANGBASE
 50
0.0
  9
$ANGDIR
 70
     0
  9
$PDMODE
 70
     0
  9
$PDSIZE
 40
-1.0
  9
$PLINEWID
 40
0.0
  9
$COORDS
 70
     1
  9
$SPLFRAME
 70
     0
  9
$SPLINETYPE
 70
     6
  9
$SPLINESEGS
 70
     8
  9
$ATTDIA
 70
     0
  9
$ATTREQ
 70
     1
  9
$HANDLING
 70
     1
  9
$HANDSEED
  5
2E5
  9
$SURFTAB1
 70
     6
  9
$SURFTAB2
 70
     6
  9
$SURFTYPE
 70
     6
  9
$SURFU
 70
     6
  9
$SURFV
 70
     6
  9
$UCSNAME
  2

  9
$UCSORG
 10
0.0
 20
0.0
 30
0.0
  9
$UCSXDIR
 10
1.0
 20
0.0
 30
0.0
  9
$UCSYDIR
 10
0.0
 20
1.0
 30
0.0
  9
$PUCSNAME
  2

  9
$PUCSORG
 10
0.0
 20
0.0
 30
0.0
  9
$PUCSXDIR
 10
1.0
 20
0.0
 30
0.0
  9
$PUCSYDIR
 10
0.0
 20
1.0
 30
0.0
  9
$USERI1
 70
     0
  9
$USERI2
 70
     0
  9
$USERI3
 70
     0
  9
$USERI4
 70
     0
  9
$USERI5
 70
     0
  9
$USERR1
 40
0.0
  9
$USERR2
 40
0.0
  9
$USERR3
 40
0.0
  9
$USERR4
 40
0.0
  9
$USERR5
 40
0.0
  9
$WORLDVIEW
 70
     1
  9
$SHADEDGE
 70
     3
  9
$SHADEDIF
 70
    70
  9
$TILEMODE
 70
     1
  9
$MAXACTVP
 70
    64
  9
$PLIMCHECK
 70
     0
  9
$PEXTMIN
 10
1.0000000000E+20
 20
1.0000000000E+20
 30
1.0000000000E+20
  9
$PEXTMAX
 10
-1.0000000000E+20
 20
-1.0000000000E+20
 30
-1.0000000000E+20
  9
$PLIMMIN
 10
0.0
 20
0.0
  9
$PLIMMAX
 10
420.0
 20
297.0
  9
$UNITMODE
 70
     0
  9
$VISRETAIN
 70
     1
  9
$PLINEGEN
 70
     0
  9
$PSLTSCALE
 70
     1
  0
ENDSEC
  0
SECTION
  2
TABLES
  0
TABLE
  2
VPORT
 70
     1
  0
VPORT
  2
*ACTIVE
 70
     0
 10
0.0
 20
0.0
 11
1.0
 21
1.0
 12
210.0
 22
148.5
 13
0.0
 23
0.0
 14
10.0
 24
10.0
 15
10.0
 25
10.0
 16
0.0
 26
0.0
 36
1.0
 17
0.0
 27
0.0
 37
0.0
 40
297.0
 41
1.4141414141
 42
50.0
 43
0.0
 44
0.0
 50
0.0
 51
0.0
 71
     0
 72
  2000
 73
     1
 74
     3
 75
     0
 76
     0
 77
     0
 78
     0
  0
ENDTAB
  0
TABLE
  2
LTYPE
 70
     6
  0
LTYPE
  2
CONTINUOUS
 70
     0
  3
Solid line
 72
    65
 73
     0
 40
0.0
  0
LTYPE
  2
HIDDEN
 70
     0
  3
Hidden __ __ __ __ __ __ __ __ __ __ __ __ __ __
 72
    65
 73
     2
 40
1.905
 49
1.27
 49
-0.635
  0
LTYPE
  2
PHANTOM
 70
     0
  3
Phantom ______  __  __  ______  __  __  ______
 72
    65
 73
     6
 40
12.7
 49
6.35
 49
-1.27
 49
1.27
 49
-1.27
 49
1.27
 49
-1.27
  0
LTYPE
  2
CENTER
 70
     0
  3
Center ____ _ ____ _ ____ _ ____ _ ____ _ ____
 72
    65
 73
     4
 40
10.16
 49
6.35
 49
-1.27
 49
1.27
 49
-1.27
  0
LTYPE
  2
CENTERX2
 70
     0
  3
Center (2x) ________  __  ________  __  _____
 72
    65
 73
     4
 40
20.32
 49
12.7
 49
-2.54
 49
2.54
 49
-2.54
  0
LTYPE
  2
DOT2
 70
     0
  3
Dot (.5x) ........................................
 72
    65
 73
     2
 40
0.635
 49
0.0
 49
-0.635
  0
ENDTAB
  0
TABLE
  2
LAYER
 70
     4
  0
LAYER
  2
0
 70
     0
 62
     7
  6
CONTINUOUS
  0
LAYER
  2
HIDDEN
 70
     0
 62
    -1
  6
CONTINUOUS
  0
LAYER
  2
BLOCK
 70
     0
 62
     7
  6
CONTINUOUS
  0
LAYER
  2
BLOCK_0_4MM
 70
     0
 62
     7
  6
CONTINUOUS
  0
ENDTAB
  0
TABLE
  2
STYLE
 70
     1
  0
STYLE
  2
STANDARD
 70
     0
 40
0.0
 41
1.0
 50
0.0
 71
     0
 42
2.5
  3
txt
  4

  0
ENDTAB
  0
TABLE
  2
VIEW
 70
     0
  0
ENDTAB
  0
TABLE
  2
UCS
 70
     0
  0
ENDTAB
  0
TABLE
  2
APPID
 70
     1
  0
APPID
  2
ACAD
 70
     0
  0
ENDTAB
  0
TABLE
  2
DIMSTYLE
 70
     5
  0
DIMSTYLE
  2
ISO-25
 70
     0
  3

  4

  5

  6

  7

 40
1.0
 41
2.5
 42
0.625
 43
3.75
 44
1.25
 45
0.0
 46
0.0
 47
0.0
 48
0.0
140
2.5
141
2.5
142
0.0
143
0.0393700787
144
1.0
145
0.0
146
1.0
147
0.625
 71
     0
 72
     0
 73
     0
 74
     0
 75
     0
 76
     0
 77
     1
 78
     8
170
     0
171
     3
172
     1
173
     0
174
     0
175
     0
176
     0
177
     0
178
     0
  0
DIMSTYLE
  2
SLDDIMSTYLE0
 70
     0
  3

  4

  5

  6

  7

 40
1.0
 41
3.302
 42
0.0625
 43
0.38
 44
0.0
 45
0.000000001
 46
0.0
 47
0.0
 48
0.0
140
2.6458333333
141
0.09
142
0.0
143
25.4
144
1.0
145
0.0
146
1.0
147
0.6614583333
 71
     0
 72
     0
 73
     0
 74
     0
 75
     0
 76
     0
 77
     1
 78
    12
170
     0
171
     2
172
     0
173
     1
174
     0
175
     0
176
     0
177
     0
178
     0
  0
DIMSTYLE
  2
SLDDIMSTYLE1
 70
     0
  3

  4

  5

  6

  7

 40
1.0
 41
3.302
 42
0.0625
 43
0.38
 44
0.0
 45
0.000000001
 46
0.0
 47
0.0
 48
0.0
140
2.6458333333
141
0.09
142
0.0
143
25.4
144
1.0
145
0.0
146
1.0
147
0.6614583333
 71
     0
 72
     0
 73
     0
 74
     0
 75
     0
 76
     0
 77
     1
 78
    12
170
     0
171
     2
172
     0
173
     1
174
     0
175
     0
176
     0
177
     0
178
     0
  0
DIMSTYLE
  2
SLDDIMSTYLE2
 70
     0
  3

  4

  5

  6

  7

 40
1.0
 41
3.302
 42
0.0625
 43
0.38
 44
0.0
 45
0.000000001
 46
0.0
 47
0.0
 48
0.0
140
2.6458333333
141
0.09
142
0.0
143
25.4
144
1.0
145
0.0
146
1.0
147
0.6614583333
 71
     0
 72
     0
 73
     0
 74
     0
 75
     0
 76
     0
 77
     1
 78
    12
170
     0
171
     2
172
     1
173
     1
174
     0
175
     0
176
     0
177
     0
178
     0
  0
DIMSTYLE
  2
SLDDIMSTYLE3
 70
     0
  3

  4

  5

  6

  7

 40
1.0
 41
3.302
 42
0.0625
 43
0.38
 44
0.0
 45
0.000000001
 46
0.0
 47
0.0
 48
0.0
140
2.6458333333
141
0.09
142
0.0
143
25.4
144
1.0
145
0.0
146
1.0
147
0.6614583333
 71
     0
 72
     0
 73
     0
 74
     0
 75
     0
 76
     0
 77
     1
 78
    12
170
     0
171
     2
172
     1
173
     1
174
     0
175
     0
176
     0
177
     0
178
     0
  0
ENDTAB
  0
ENDSEC
  0
SECTION
  2
BLOCKS
  0
BLOCK
  8
0
  2
$MODEL_SPACE
 70
     0
 10
0.0
 20
0.0
 30
0.0
  3
$MODEL_SPACE
  1

  0
ENDBLK
  5
21
  8
0
  0
BLOCK
 67
     1
  8
0
  2
$PAPER_SPACE
 70
     0
 10
0.0
 20
0.0
 30
0.0
  3
$PAPER_SPACE
  1

  0
ENDBLK
  5
1D
 67
     1
  8
0
  0
BLOCK
  8
0
  2
TEMPLATE_BLOCK_23-08-2011
 70
     2
 10
0.0
 20
0.0
 30
0.0
  3
TEMPLATE_BLOCK_23-08-2011
  1

  0
ARC
  5
4A
  8
0
  6
CONTINUOUS
 62
     7
 10
191.4522115405
 20
175.5813166711
 30
0.0
 40
3.0
 50
90.0
 51
270.0
  0
ARC
  5
4B
  8
0
  6
CONTINUOUS
 62
     7
 10
191.4522115405
 20
175.5813166711
 30
0.0
 40
1.249999999999972
 50
270.0
 51
90.0
  0
ARC
  5
4C
  8
0
  6
CONTINUOUS
 62
     7
 10
191.4522115405
 20
175.5813166711
 30
0.0
 40
3.0
 50
270.0
 51
90.0
  0
ARC
  5
4D
  8
0
  6
CONTINUOUS
 62
     7
 10
191.4522115405
 20
175.5813166711
 30
0.0
 40
1.249999999999972
 50
90.0
 51
270.0
  0
LINE
  5
4E
  8
0
  6
CONTINUOUS
 62
     7
 10
62.5356831742
 20
156.4442864895
 30
0.0
 11
87.2023498409
 21
156.4442864895
 31
0.0
  0
LINE
  5
4F
  8
0
  6
CONTINUOUS
 62
     7
 10
62.5356831742
 20
161.4442864895
 30
0.0
 11
210.5356831742
 21
161.4442864895
 31
0.0
  0
LINE
  5
50
  8
0
  6
CONTINUOUS
 62
     7
 10
62.5356831742
 20
166.4442864895
 30
0.0
 11
161.2023498409
 21
166.4442864895
 31
0.0
  0
LINE
  5
51
  8
0
  6
CONTINUOUS
 62
     7
 10
62.5356831742
 20
171.4442864895
 30
0.0
 11
210.5356831742
 21
171.4442864895
 31
0.0
  0
LINE
  5
52
  8
0
  6
CONTINUOUS
 62
     7
 10
62.8245470911
 20
179.4442864895
 30
0.0
 11
210.2468192573
 21
179.4442864895
 31
0.0
  0
LINE
  5
53
  8
0
  6
CONTINUOUS
 62
     7
 10
87.2023498409
 20
156.4442864895
 30
0.0
 11
111.8690165075
 21
156.4442864895
 31
0.0
  0
LINE
  5
54
  8
0
  6
CONTINUOUS
 62
     7
 10
111.8690165075
 20
156.4442864895
 30
0.0
 11
136.5356831742
 21
156.4442864895
 31
0.0
  0
LINE
  5
55
  8
0
  6
CONTINUOUS
 62
     7
 10
136.5356831742
 20
156.4442864895
 30
0.0
 11
161.2023498409
 21
156.4442864895
 31
0.0
  0
LINE
  5
56
  8
0
  6
CONTINUOUS
 62
     7
 10
161.2023498409
 20
156.4442864895
 30
0.0
 11
185.8690165075
 21
156.4442864895
 31
0.0
  0
LINE
  5
57
  8
0
  6
CONTINUOUS
 62
     7
 10
185.8690165075
 20
156.4442864895
 30
0.0
 11
210.5356831742
 21
156.4442864895
 31
0.0
  0
LINE
  5
58
  8
0
  6
CONTINUOUS
 62
     7
 10
87.2023498409
 20
156.4442864895
 30
0.0
 11
87.2023498409
 21
161.4442864895
 31
0.0
  0
LINE
  5
59
  8
0
  6
CONTINUOUS
 62
     7
 10
111.8690165075
 20
156.4442864895
 30
0.0
 11
111.8690165075
 21
161.4442864895
 31
0.0
  0
LINE
  5
5A
  8
0
  6
CONTINUOUS
 62
     7
 10
136.5356831742
 20
156.4442864895
 30
0.0
 11
136.5356831742
 21
161.4442864895
 31
0.0
  0
LINE
  5
5B
  8
0
  6
CONTINUOUS
 62
     7
 10
161.2023498409
 20
156.4442864895
 30
0.0
 11
161.2023498409
 21
161.4442864895
 31
0.0
  0
LINE
  5
5C
  8
0
  6
CONTINUOUS
 62
     7
 10
185.8690165075
 20
156.4442864895
 30
0.0
 11
185.8690165075
 21
161.4442864895
 31
0.0
  0
LINE
  5
5D
  8
0
  6
CONTINUOUS
 62
     7
 10
136.5356831742
 20
161.4442864895
 30
0.0
 11
136.5356831742
 21
179.4442864895
 31
0.0
  0
LINE
  5
5E
  8
0
  6
CONTINUOUS
 62
     7
 10
161.2023498409
 20
161.4442864895
 30
0.0
 11
161.2023498409
 21
179.4442864895
 31
0.0
  0
LINE
  5
5F
  8
0
  6
CENTERX2
 62
     7
 10
191.4522115405
 20
179.0813166711
 30
0.0
 11
191.4522115405
 21
172.0813166711
 31
0.0
  0
LINE
  5
60
  8
0
  6
CENTERX2
 62
     7
 10
187.9522115405
 20
175.5813166711
 30
0.0
 11
194.9522115405
 21
175.5813166711
 31
0.0
  0
LINE
  5
61
  8
0
  6
CONTINUOUS
 62
     7
 10
198.9688251586
 20
176.8313166711
 30
0.0
 11
198.9688251586
 21
174.3313166711
 31
0.0
  0
LINE
  5
62
  8
0
  6
CONTINUOUS
 62
     7
 10
198.9688251586
 20
176.8313166711
 30
0.0
 11
204.9688251586
 21
178.5813166711
 31
0.0
  0
LINE
  5
63
  8
0
  6
CONTINUOUS
 62
     7
 10
204.9688251586
 20
178.5813166711
 30
0.0
 11
204.9688251586
 21
172.5813166711
 31
0.0
  0
LINE
  5
64
  8
0
  6
CONTINUOUS
 62
     7
 10
204.9688251586
 20
172.5813166711
 30
0.0
 11
198.9688251586
 21
174.3313166711
 31
0.0
  0
LINE
  5
65
  8
0
  6
CENTERX2
 62
     7
 10
205.941683749
 20
175.5813166711
 30
0.0
 11
197.8813151032
 21
175.5813166711
 31
0.0
  0
LINE
  5
66
  8
0
  6
CONTINUOUS
 62
     7
 10
161.2023498409
 20
156.4442864895
 30
0.0
 11
161.2023498409
 21
151.4442864895
 31
0.0
  0
LINE
  5
67
  8
0
  6
CONTINUOUS
 62
     7
 10
185.8690165075
 20
156.4442864895
 30
0.0
 11
185.8690165075
 21
151.4442864895
 31
0.0
  0
TEXT
  5
68
  8
BLOCK
 62
     7
 10
63.5576398697
 20
184.8123399363
 30
0.0
 40
1.8520833333
  1
Description
 41
0.7
 11
63.5576398697
 21
184.1580728633
 31
0.0
 73
     1
  0
TEXT
  5
69
  8
BLOCK
 62
     7
 10
63.5514716817
 20
176.8843686002
 30
0.0
 40
1.8520833333
  1
Article nr.
 41
0.7
 11
63.5514716817
 21
176.2301015272
 31
0.0
 73
     1
  0
TEXT
  5
6A
  8
BLOCK
 62
     7
 10
63.5514716817
 20
169.1161588169
 30
0.0
 40
1.8520833333
  1
Material
 41
0.7
 11
63.5514716817
 21
168.4618917439
 31
0.0
 73
     1
  0
TEXT
  5
6B
  8
BLOCK
 62
     7
 10
63.5514716817
 20
164.2307913525
 30
0.0
 40
1.8520833333
  1
Finish
 41
0.7
 11
63.5514716817
 21
163.5765242795
 31
0.0
 73
     1
  0
TEXT
  5
6C
  8
BLOCK
 62
     7
 10
63.5514716817
 20
159.1927191589
 30
0.0
 40
1.8520833333
  1
Drawn by
 41
0.7
 11
63.5514716817
 21
158.5384520858
 31
0.0
 73
     1
  0
TEXT
  5
6D
  8
BLOCK
 62
     7
 10
88.0113040812
 20
159.1927191589
 30
0.0
 40
1.8520833333
  1
Date
 41
0.7
 11
88.0113040812
 21
158.5384520858
 31
0.0
 73
     1
  0
TEXT
  5
6E
  8
BLOCK
 62
     7
 10
112.9654021834
 20
159.3254934295
 30
0.0
 40
1.8520833333
  1
Mod. by
 41
0.7
 11
112.9654021834
 21
158.6712263564
 31
0.0
 73
     1
  0
TEXT
  5
6F
  8
BLOCK
 62
     7
 10
137.4252345829
 20
159.3254934295
 30
0.0
 40
1.8520833333
  1
Date
 41
0.7
 11
137.4252345829
 21
158.6712263564
 31
0.0
 73
     1
  0
TEXT
  5
70
  8
BLOCK
 62
     7
 10
186.4741557862
 20
159.3254934295
 30
0.0
 40
1.8520833333
  1
Date
 41
0.7
 11
186.4741557862
 21
158.6712263564
 31
0.0
 73
     1
  0
TEXT
  5
71
  8
BLOCK
 62
     7
 10
161.8645267427
 20
159.3254934295
 30
0.0
 40
1.8520833333
  1
Rel. by
 41
0.7
 11
161.8645267427
 21
158.6712263564
 31
0.0
 73
     1
  0
TEXT
  5
72
  8
BLOCK
 62
     7
 10
63.5514716817
 20
154.2077359849
 30
0.0
 40
1.8520833333
  1
Remarks
 41
0.7
 11
63.5514716817
 21
153.5534689119
 31
0.0
 73
     1
  0
TEXT
  5
73
  8
BLOCK
 62
     7
 10
137.4252345829
 20
177.0027654141
 30
0.0
 40
1.8520833333
  1
Revision
 41
0.7
 11
137.4252345829
 21
176.3484983411
 31
0.0
 73
     1
  0
TEXT
  5
74
  8
BLOCK
 62
     7
 10
137.4252345829
 20
169.236973898
 30
0.0
 40
1.8520833333
  1
Weight
 41
0.7
 11
137.4252345829
 21
168.582706825
 31
0.0
 73
     1
  0
TEXT
  5
75
  8
BLOCK
 62
     7
 10
137.4252345829
 20
164.2997508115
 30
0.0
 40
1.8520833333
  1
Scale
 41
0.7
 11
137.4252345829
 21
163.6454837385
 31
0.0
 73
     1
  0
TEXT
  5
76
  8
BLOCK
 62
     7
 10
161.8645267427
 20
177.0027654141
 30
0.0
 40
1.8520833333
  1
Projection
 41
0.7
 11
161.8645267427
 21
176.3484983411
 31
0.0
 73
     1
  0
TEXT
  5
77
  8
BLOCK
 62
     7
 10
161.8645267427
 20
154.2153377848
 30
0.0
 40
1.8520833333
  1
Page
 41
0.7
 11
161.8645267427
 21
153.5610707118
 31
0.0
 73
     1
  0
TEXT
  5
78
  8
BLOCK
 62
     7
 10
186.4741557862
 20
154.2153377848
 30
0.0
 40
1.8520833333
  1
Size
 41
0.7
 11
186.4741557862
 21
153.5610707118
 31
0.0
 73
     1
  0
TEXT
  5
79
  8
BLOCK
 62
     7
 10
161.8645267427
 20
169.236973898
 30
0.0
 40
1.8520833333
  1
Tolerances unless otherwise specified
 41
0.6716216216
 11
161.8645267427
 21
168.582706825
 31
0.0
 73
     1
  0
ATTDEF
  5
7A
  8
BLOCK
 62
     7
 10
124.3379506665
 20
182.3528182885
 30
0.0
 40
3.7041666667
  1
Description
 41
0.7
 11
124.3379506665
 21
181.0442841425
 31
0.0
 73
     1
  3

  2
DESCRIPTION
 70
     0
 74
     1
  0
ATTDEF
  5
7B
  8
BLOCK
 62
     7
 10
78.7253407769
 20
174.4128986916
 30
0.0
 40
3.7041666667
  1
Article Nr.
 41
0.7
 11
78.7253407769
 21
173.1043645456
 31
0.0
 73
     1
  3

  2
ARTICLENR.
 70
     0
 74
     1
  0
ATTDEF
  5
7C
  8
BLOCK
 62
     7
 10
149.8774862028
 20
174.4128986916
 30
0.0
 40
3.7041666667
  1
Rev
 41
0.7
 11
149.8774862028
 21
173.1043645456
 31
0.0
 73
     1
  3

  2
REVISION
 70
     0
 74
     1
  0
ATTDEF
  5
7D
  8
BLOCK
 62
     7
 10
78.7253407769
 20
168.1397842609
 30
0.0
 40
2.38125
  1
Material
 41
0.7
 11
78.7253407769
 21
167.2985837385
 31
0.0
 73
     1
  3

  2
MATERIAL
 70
     0
 74
     1
  0
ATTDEF
  5
7E
  8
BLOCK
 62
     7
 10
78.7253407769
 20
163.1397842609
 30
0.0
 40
2.38125
  1
Finish
 41
0.7
 11
78.7253407769
 21
162.2985837385
 31
0.0
 73
     1
  3

  2
FINISH
 70
     0
 74
     1
  0
ATTDEF
  5
7F
  8
BLOCK
 62
     7
 10
74.5596224449
 20
157.714038091
 30
0.0
 40
2.1166666667
  1
DrawnBy
 41
0.7
 11
74.5596224449
 21
156.9663042933
 31
0.0
 73
     1
  3

  2
DRAWNBY
 70
     0
 74
     1
  0
ATTDEF
  5
80
  8
BLOCK
 62
     7
 10
95.5116786932
 20
157.714038091
 30
0.0
 40
2.1166666667
  1
DrawnDate
 41
0.7
 11
95.5116786932
 21
156.9663042933
 31
0.0
 73
     1
  3

  2
DRAWNDATE
 70
     0
 74
     1
  0
ATTDEF
  5
81
  8
BLOCK
 62
     7
 10
146.9579813319
 20
157.555078016
 30
0.0
 40
2.1166666667
  1
Mod.Date
 41
0.7
 11
146.9579813319
 21
156.8073442183
 31
0.0
 73
     1
  3

  2
MODDATE
 70
     0
 74
     1
  0
ATTDEF
  5
82
  8
BLOCK
 62
     7
 10
125.8396174566
 20
157.5496584351
 30
0.0
 40
2.1166666667
  1
Mod.By
 41
0.7
 11
125.8396174566
 21
156.8019246373
 31
0.0
 73
     1
  3

  2
MODBY
 70
     0
 74
     1
  0
ATTDEF
  5
83
  8
BLOCK
 62
     7
 10
198.2363277113
 20
157.555078016
 30
0.0
 40
2.1166666667
  1
Rel.Date
 41
0.7
 11
198.2363277113
 21
156.8073442183
 31
0.0
 73
     1
  3

  2
RELDATE
 70
     0
 74
     1
  0
ATTDEF
  5
84
  8
BLOCK
 62
     7
 10
177.1179638359
 20
157.555078016
 30
0.0
 40
2.1166666667
  1
Rel.By
 41
0.7
 11
177.1179638359
 21
156.8073442183
 31
0.0
 73
     1
  3

  2
RELBY
 70
     0
 74
     1
  0
ATTDEF
  5
85
  8
BLOCK
 62
     7
 10
180.7790129002
 20
152.4812725583
 30
0.0
 40
2.1166666667
  1
2/2
 41
0.7
 11
180.7790129002
 21
151.7335387605
 31
0.0
 73
     1
  3

  2
AUTOATTR1
 70
     0
 74
     1
  0
ATTDEF
  5
86
  8
BLOCK
 62
     7
 10
198.4242550543
 20
152.4812726165
 30
0.0
 40
2.1166666667
  1
Format
 41
0.7
 11
198.4242550543
 21
151.7335388187
 31
0.0
 73
     1
  3

  2
FORMAT
 70
     0
 74
     1
  0
ATTDEF
  5
87
  8
BLOCK
 62
     7
 10
78.7253407769
 20
153.1346813667
 30
0.0
 40
2.38125
  1
Finish
 41
0.7
 11
78.7253407769
 21
152.2934808442
 31
0.0
 73
     1
  3

  2
REMARK
 70
     0
 74
     1
  0
ATTDEF
  5
88
  8
BLOCK
 62
     7
 10
167.6729490394
 20
164.3153124029
 30
0.0
 40
2.1166666667
  1
Angle Tol
 41
0.7
 11
167.6729490394
 21
163.5675786051
 31
0.0
 73
     1
  3

  2
ANGLETOL
 70
     0
 74
     1
  0
ATTDEF
  5
89
  8
BLOCK
 62
     7
 10
193.6694406713
 20
164.1524933923
 30
0.0
 40
2.1166666667
  1
Dim Tol
 41
0.7
 11
193.6694406713
 21
163.4047595946
 31
0.0
 73
     1
  3

  2
DIMTOL
 70
     0
 74
     1
  0
ATTDEF
  5
8A
  8
BLOCK_0_4MM
 62
     7
 10
149.244200989
 20
163.1502406384
 30
0.0
 40
2.5
  1
1:1
 41
0.7
 11
149.244200989
 21
162.2670904836
 31
0.0
 73
     1
  3

  2
AUTOATTR2
 70
     0
 74
     1
  0
ATTDEF
  5
8B
  8
BLOCK_0_4MM
 62
     7
 10
157.7652352179
 20
168.150240813
 30
0.0
 40
2.5
  1
 g
 41
0.7
 11
157.7652352179
 21
167.2670906582
 31
0.0
 73
     1
  3

  2
AUTOATTR3
 70
     0
 74
     1
  0
ENDBLK
  5
49
  8
0
  0
BLOCK
  8
0
  2
TEMPLATE_BLOCK_23-08-2011_
 70
     2
 10
0.0
 20
0.0
 30
0.0
  3
TEMPLATE_BLOCK_23-08-2011_
  1

  0
ARC
  5
8F
  8
0
  6
CONTINUOUS
 62
     7
 10
191.4522115405
 20
175.5813166711
 30
0.0
 40
3.0
 50
90.0
 51
270.0
  0
ARC
  5
90
  8
0
  6
CONTINUOUS
 62
     7
 10
191.4522115405
 20
175.5813166711
 30
0.0
 40
1.249999999999972
 50
270.0
 51
90.0
  0
ARC
  5
91
  8
0
  6
CONTINUOUS
 62
     7
 10
191.4522115405
 20
175.5813166711
 30
0.0
 40
3.0
 50
270.0
 51
90.0
  0
ARC
  5
92
  8
0
  6
CONTINUOUS
 62
     7
 10
191.4522115405
 20
175.5813166711
 30
0.0
 40
1.249999999999972
 50
90.0
 51
270.0
  0
LINE
  5
93
  8
0
  6
CONTINUOUS
 62
     7
 10
62.5356831742
 20
156.4442864895
 30
0.0
 11
87.2023498409
 21
156.4442864895
 31
0.0
  0
LINE
  5
94
  8
0
  6
CONTINUOUS
 62
     7
 10
62.5356831742
 20
161.4442864895
 30
0.0
 11
210.5356831742
 21
161.4442864895
 31
0.0
  0
LINE
  5
95
  8
0
  6
CONTINUOUS
 62
     7
 10
62.5356831742
 20
166.4442864895
 30
0.0
 11
161.2023498409
 21
166.4442864895
 31
0.0
  0
LINE
  5
96
  8
0
  6
CONTINUOUS
 62
     7
 10
62.5356831742
 20
171.4442864895
 30
0.0
 11
210.5356831742
 21
171.4442864895
 31
0.0
  0
LINE
  5
97
  8
0
  6
CONTINUOUS
 62
     7
 10
62.8245470911
 20
179.4442864895
 30
0.0
 11
210.2468192573
 21
179.4442864895
 31
0.0
  0
LINE
  5
98
  8
0
  6
CONTINUOUS
 62
     7
 10
87.2023498409
 20
156.4442864895
 30
0.0
 11
111.8690165075
 21
156.4442864895
 31
0.0
  0
LINE
  5
99
  8
0
  6
CONTINUOUS
 62
     7
 10
111.8690165075
 20
156.4442864895
 30
0.0
 11
136.5356831742
 21
156.4442864895
 31
0.0
  0
LINE
  5
9A
  8
0
  6
CONTINUOUS
 62
     7
 10
136.5356831742
 20
156.4442864895
 30
0.0
 11
161.2023498409
 21
156.4442864895
 31
0.0
  0
LINE
  5
9B
  8
0
  6
CONTINUOUS
 62
     7
 10
161.2023498409
 20
156.4442864895
 30
0.0
 11
185.8690165075
 21
156.4442864895
 31
0.0
  0
LINE
  5
9C
  8
0
  6
CONTINUOUS
 62
     7
 10
185.8690165075
 20
156.4442864895
 30
0.0
 11
210.5356831742
 21
156.4442864895
 31
0.0
  0
LINE
  5
9D
  8
0
  6
CONTINUOUS
 62
     7
 10
87.2023498409
 20
156.4442864895
 30
0.0
 11
87.2023498409
 21
161.4442864895
 31
0.0
  0
LINE
  5
9E
  8
0
  6
CONTINUOUS
 62
     7
 10
111.8690165075
 20
156.4442864895
 30
0.0
 11
111.8690165075
 21
161.4442864895
 31
0.0
  0
LINE
  5
9F
  8
0
  6
CONTINUOUS
 62
     7
 10
136.5356831742
 20
156.4442864895
 30
0.0
 11
136.5356831742
 21
161.4442864895
 31
0.0
  0
LINE
  5
A0
  8
0
  6
CONTINUOUS
 62
     7
 10
161.2023498409
 20
156.4442864895
 30
0.0
 11
161.2023498409
 21
161.4442864895
 31
0.0
  0
LINE
  5
A1
  8
0
  6
CONTINUOUS
 62
     7
 10
185.8690165075
 20
156.4442864895
 30
0.0
 11
185.8690165075
 21
161.4442864895
 31
0.0
  0
LINE
  5
A2
  8
0
  6
CONTINUOUS
 62
     7
 10
136.5356831742
 20
161.4442864895
 30
0.0
 11
136.5356831742
 21
179.4442864895
 31
0.0
  0
LINE
  5
A3
  8
0
  6
CONTINUOUS
 62
     7
 10
161.2023498409
 20
161.4442864895
 30
0.0
 11
161.2023498409
 21
179.4442864895
 31
0.0
  0
LINE
  5
A4
  8
0
  6
CENTERX2
 62
     7
 10
191.4522115405
 20
179.0813166711
 30
0.0
 11
191.4522115405
 21
172.0813166711
 31
0.0
  0
LINE
  5
A5
  8
0
  6
CENTERX2
 62
     7
 10
187.9522115405
 20
175.5813166711
 30
0.0
 11
194.9522115405
 21
175.5813166711
 31
0.0
  0
LINE
  5
A6
  8
0
  6
CONTINUOUS
 62
     7
 10
198.9688251586
 20
176.8313166711
 30
0.0
 11
198.9688251586
 21
174.3313166711
 31
0.0
  0
LINE
  5
A7
  8
0
  6
CONTINUOUS
 62
     7
 10
198.9688251586
 20
176.8313166711
 30
0.0
 11
204.9688251586
 21
178.5813166711
 31
0.0
  0
LINE
  5
A8
  8
0
  6
CONTINUOUS
 62
     7
 10
204.9688251586
 20
178.5813166711
 30
0.0
 11
204.9688251586
 21
172.5813166711
 31
0.0
  0
LINE
  5
A9
  8
0
  6
CONTINUOUS
 62
     7
 10
204.9688251586
 20
172.5813166711
 30
0.0
 11
198.9688251586
 21
174.3313166711
 31
0.0
  0
LINE
  5
AA
  8
0
  6
CENTERX2
 62
     7
 10
205.941683749
 20
175.5813166711
 30
0.0
 11
197.8813151032
 21
175.5813166711
 31
0.0
  0
LINE
  5
AB
  8
0
  6
CONTINUOUS
 62
     7
 10
161.2023498409
 20
156.4442864895
 30
0.0
 11
161.2023498409
 21
151.4442864895
 31
0.0
  0
LINE
  5
AC
  8
0
  6
CONTINUOUS
 62
     7
 10
185.8690165075
 20
156.4442864895
 30
0.0
 11
185.8690165075
 21
151.4442864895
 31
0.0
  0
TEXT
  5
AD
  8
BLOCK
 62
     7
 10
63.5576398697
 20
184.8123399363
 30
0.0
 40
1.8520833333
  1
Description
 41
0.7
 11
63.5576398697
 21
184.1580728633
 31
0.0
 73
     1
  0
TEXT
  5
AE
  8
BLOCK
 62
     7
 10
63.5514716817
 20
176.8843686002
 30
0.0
 40
1.8520833333
  1
Article nr.
 41
0.7
 11
63.5514716817
 21
176.2301015272
 31
0.0
 73
     1
  0
TEXT
  5
AF
  8
BLOCK
 62
     7
 10
63.5514716817
 20
169.1161588169
 30
0.0
 40
1.8520833333
  1
Material
 41
0.7
 11
63.5514716817
 21
168.4618917439
 31
0.0
 73
     1
  0
TEXT
  5
B0
  8
BLOCK
 62
     7
 10
63.5514716817
 20
164.2307913525
 30
0.0
 40
1.8520833333
  1
Finish
 41
0.7
 11
63.5514716817
 21
163.5765242795
 31
0.0
 73
     1
  0
TEXT
  5
B1
  8
BLOCK
 62
     7
 10
63.5514716817
 20
159.1927191589
 30
0.0
 40
1.8520833333
  1
Drawn by
 41
0.7
 11
63.5514716817
 21
158.5384520858
 31
0.0
 73
     1
  0
TEXT
  5
B2
  8
BLOCK
 62
     7
 10
88.0113040812
 20
159.1927191589
 30
0.0
 40
1.8520833333
  1
Date
 41
0.7
 11
88.0113040812
 21
158.5384520858
 31
0.0
 73
     1
  0
TEXT
  5
B3
  8
BLOCK
 62
     7
 10
112.9654021834
 20
159.3254934295
 30
0.0
 40
1.8520833333
  1
Mod. by
 41
0.7
 11
112.9654021834
 21
158.6712263564
 31
0.0
 73
     1
  0
TEXT
  5
B4
  8
BLOCK
 62
     7
 10
137.4252345829
 20
159.3254934295
 30
0.0
 40
1.8520833333
  1
Date
 41
0.7
 11
137.4252345829
 21
158.6712263564
 31
0.0
 73
     1
  0
TEXT
  5
B5
  8
BLOCK
 62
     7
 10
186.4741557862
 20
159.3254934295
 30
0.0
 40
1.8520833333
  1
Date
 41
0.7
 11
186.4741557862
 21
158.6712263564
 31
0.0
 73
     1
  0
TEXT
  5
B6
  8
BLOCK
 62
     7
 10
161.8645267427
 20
159.3254934295
 30
0.0
 40
1.8520833333
  1
Rel. by
 41
0.7
 11
161.8645267427
 21
158.6712263564
 31
0.0
 73
     1
  0
TEXT
  5
B7
  8
BLOCK
 62
     7
 10
63.5514716817
 20
154.2077359849
 30
0.0
 40
1.8520833333
  1
Remarks
 41
0.7
 11
63.5514716817
 21
153.5534689119
 31
0.0
 73
     1
  0
TEXT
  5
B8
  8
BLOCK
 62
     7
 10
137.4252345829
 20
177.0027654141
 30
0.0
 40
1.8520833333
  1
Revision
 41
0.7
 11
137.4252345829
 21
176.3484983411
 31
0.0
 73
     1
  0
TEXT
  5
B9
  8
BLOCK
 62
     7
 10
137.4252345829
 20
169.236973898
 30
0.0
 40
1.8520833333
  1
Weight
 41
0.7
 11
137.4252345829
 21
168.582706825
 31
0.0
 73
     1
  0
TEXT
  5
BA
  8
BLOCK
 62
     7
 10
137.4252345829
 20
164.2997508115
 30
0.0
 40
1.8520833333
  1
Scale
 41
0.7
 11
137.4252345829
 21
163.6454837385
 31
0.0
 73
     1
  0
TEXT
  5
BB
  8
BLOCK
 62
     7
 10
161.8645267427
 20
177.0027654141
 30
0.0
 40
1.8520833333
  1
Projection
 41
0.7
 11
161.8645267427
 21
176.3484983411
 31
0.0
 73
     1
  0
TEXT
  5
BC
  8
BLOCK
 62
     7
 10
161.8645267427
 20
154.2153377848
 30
0.0
 40
1.8520833333
  1
Page
 41
0.7
 11
161.8645267427
 21
153.5610707118
 31
0.0
 73
     1
  0
TEXT
  5
BD
  8
BLOCK
 62
     7
 10
186.4741557862
 20
154.2153377848
 30
0.0
 40
1.8520833333
  1
Size
 41
0.7
 11
186.4741557862
 21
153.5610707118
 31
0.0
 73
     1
  0
TEXT
  5
BE
  8
BLOCK
 62
     7
 10
161.8645267427
 20
169.236973898
 30
0.0
 40
1.8520833333
  1
Tolerances unless otherwise specified
 41
0.6716216216
 11
161.8645267427
 21
168.582706825
 31
0.0
 73
     1
  0
ATTDEF
  5
BF
  8
BLOCK
 62
     7
 10
124.3379506665
 20
182.3528182885
 30
0.0
 40
3.7041666667
  1
Description
 41
0.7
 11
124.3379506665
 21
181.0442841425
 31
0.0
 73
     1
  3

  2
DESCRIPTION
 70
     0
 74
     1
  0
ATTDEF
  5
C0
  8
BLOCK
 62
     7
 10
78.7253407769
 20
174.4128986916
 30
0.0
 40
3.7041666667
  1
Article Nr.
 41
0.7
 11
78.7253407769
 21
173.1043645456
 31
0.0
 73
     1
  3

  2
ARTICLENR.
 70
     0
 74
     1
  0
ATTDEF
  5
C1
  8
BLOCK
 62
     7
 10
149.8774862028
 20
174.4128986916
 30
0.0
 40
3.7041666667
  1
Rev
 41
0.7
 11
149.8774862028
 21
173.1043645456
 31
0.0
 73
     1
  3

  2
REVISION
 70
     0
 74
     1
  0
ATTDEF
  5
C2
  8
BLOCK
 62
     7
 10
78.7253407769
 20
168.1397842609
 30
0.0
 40
2.38125
  1
Material
 41
0.7
 11
78.7253407769
 21
167.2985837385
 31
0.0
 73
     1
  3

  2
MATERIAL
 70
     0
 74
     1
  0
ATTDEF
  5
C3
  8
BLOCK
 62
     7
 10
78.7253407769
 20
163.1397842609
 30
0.0
 40
2.38125
  1
Finish
 41
0.7
 11
78.7253407769
 21
162.2985837385
 31
0.0
 73
     1
  3

  2
FINISH
 70
     0
 74
     1
  0
ATTDEF
  5
C4
  8
BLOCK
 62
     7
 10
74.5596224449
 20
157.714038091
 30
0.0
 40
2.1166666667
  1
DrawnBy
 41
0.7
 11
74.5596224449
 21
156.9663042933
 31
0.0
 73
     1
  3

  2
DRAWNBY
 70
     0
 74
     1
  0
ATTDEF
  5
C5
  8
BLOCK
 62
     7
 10
95.5116786932
 20
157.714038091
 30
0.0
 40
2.1166666667
  1
DrawnDate
 41
0.7
 11
95.5116786932
 21
156.9663042933
 31
0.0
 73
     1
  3

  2
DRAWNDATE
 70
     0
 74
     1
  0
ATTDEF
  5
C6
  8
BLOCK
 62
     7
 10
146.9579813319
 20
157.555078016
 30
0.0
 40
2.1166666667
  1
Mod.Date
 41
0.7
 11
146.9579813319
 21
156.8073442183
 31
0.0
 73
     1
  3

  2
MODDATE
 70
     0
 74
     1
  0
ATTDEF
  5
C7
  8
BLOCK
 62
     7
 10
125.8396174566
 20
157.5496584351
 30
0.0
 40
2.1166666667
  1
Mod.By
 41
0.7
 11
125.8396174566
 21
156.8019246373
 31
0.0
 73
     1
  3

  2
MODBY
 70
     0
 74
     1
  0
ATTDEF
  5
C8
  8
BLOCK
 62
     7
 10
198.2363277113
 20
157.555078016
 30
0.0
 40
2.1166666667
  1
Rel.Date
 41
0.7
 11
198.2363277113
 21
156.8073442183
 31
0.0
 73
     1
  3

  2
RELDATE
 70
     0
 74
     1
  0
ATTDEF
  5
C9
  8
BLOCK
 62
     7
 10
177.1179638359
 20
157.555078016
 30
0.0
 40
2.1166666667
  1
Rel.By
 41
0.7
 11
177.1179638359
 21
156.8073442183
 31
0.0
 73
     1
  3

  2
RELBY
 70
     0
 74
     1
  0
ATTDEF
  5
CA
  8
BLOCK
 62
     7
 10
180.7790129002
 20
152.4812725583
 30
0.0
 40
2.1166666667
  1
2/2
 41
0.7
 11
180.7790129002
 21
151.7335387605
 31
0.0
 73
     1
  3

  2
AUTOATTR1
 70
     0
 74
     1
  0
ATTDEF
  5
CB
  8
BLOCK
 62
     7
 10
198.4242550543
 20
152.4812726165
 30
0.0
 40
2.1166666667
  1
Format
 41
0.7
 11
198.4242550543
 21
151.7335388187
 31
0.0
 73
     1
  3

  2
FORMAT
 70
     0
 74
     1
  0
ATTDEF
  5
CC
  8
BLOCK
 62
     7
 10
78.7253407769
 20
153.1346813667
 30
0.0
 40
2.38125
  1
Finish
 41
0.7
 11
78.7253407769
 21
152.2934808442
 31
0.0
 73
     1
  3

  2
REMARK
 70
     0
 74
     1
  0
ATTDEF
  5
CD
  8
BLOCK
 62
     7
 10
167.6729490394
 20
164.3153124029
 30
0.0
 40
2.1166666667
  1
Angle Tol
 41
0.7
 11
167.6729490394
 21
163.5675786051
 31
0.0
 73
     1
  3

  2
ANGLETOL
 70
     0
 74
     1
  0
ATTDEF
  5
CE
  8
BLOCK
 62
     7
 10
193.6694406713
 20
164.1524933923
 30
0.0
 40
2.1166666667
  1
Dim Tol
 41
0.7
 11
193.6694406713
 21
163.4047595946
 31
0.0
 73
     1
  3

  2
DIMTOL
 70
     0
 74
     1
  0
ATTDEF
  5
CF
  8
BLOCK_0_4MM
 62
     7
 10
149.244200989
 20
163.1502406384
 30
0.0
 40
2.5
  1
1:1
 41
0.7
 11
149.244200989
 21
162.2670904836
 31
0.0
 73
     1
  3

  2
AUTOATTR2
 70
     0
 74
     1
  0
ATTDEF
  5
D0
  8
BLOCK_0_4MM
 62
     7
 10
157.7652352179
 20
168.150240813
 30
0.0
 40
2.5
  1
 g
 41
0.7
 11
157.7652352179
 21
167.2670906582
 31
0.0
 73
     1
  3

  2
AUTOATTR3
 70
     0
 74
     1
  0
ENDBLK
  5
8E
  8
0
  0
BLOCK
  8
0
  2
SW_NOTE_0
 70
     0
 10
0.0
 20
0.0
 30
0.0
  3
SW_NOTE_0
  1

  0
TEXT
  5
F4
  8
0
  6
CONTINUOUS
 62
     0
 10
0.0
 20
0.6358681115
 30
0.0
 40
1.8
  1
Utrechtsestraatweg 220
 41
0.7
 11
0.0
 21
0.0
 31
0.0
 73
     1
  0
TEXT
  5
F5
  8
0
  6
CONTINUOUS
 62
     0
 10
0.0
 20
-2.1641317887
 30
0.0
 40
1.8
  1
NL-3911 TX Rhenen
 41
0.6588235294
 11
0.0
 21
-2.7999999002
 31
0.0
 73
     1
  0
TEXT
  5
F6
  8
0
  6
CONTINUOUS
 62
     0
 10
0.0
 20
-7.764131589
 30
0.0
 40
1.8
  1
P.O. Box 128
 41
0.6416666667
 11
0.0
 21
-8.3999997005
 31
0.0
 73
     1
  0
TEXT
  5
F7
  8
0
  6
CONTINUOUS
 62
     0
 10
0.0
 20
-10.5641314892
 30
0.0
 40
1.8
  1
NL-3910 AC Rhenen
 41
0.6588235294
 11
0.0
 21
-11.1999996006
 31
0.0
 73
     1
  0
TEXT
  5
F8
  8
0
  6
CONTINUOUS
 62
     0
 10
0.0
 20
-13.3641313894
 30
0.0
 40
1.8
  1
The Netherlands
 41
0.7
 11
0.0
 21
-13.9999995008
 31
0.0
 73
     1
  0
TEXT
  5
F9
  8
0
  6
CONTINUOUS
 62
     0
 10
0.0
 20
-16.1641312895
 30
0.0
 40
1.8
  1
www.vanleeuwenint.nl
 41
0.7
 11
0.0
 21
-16.799999401
 31
0.0
 73
     1
  0
ENDBLK
  5
F3
  8
0
  0
BLOCK
  8
0
  2
*D4
 70
     1
 10
0.0
 20
0.0
 30
0.0
  3
*D4
  1

  0
SOLID
  5
118
  8
BLOCK_0_4MM
 62
     7
 10
185.9560510592
 20
240.119106739
 30
0.0
 11
182.6540510592
 21
240.627106739
 31
0.0
 12
182.6540510592
 22
239.611106739
 32
0.0
 13
182.6540510592
 23
239.611106739
 33
0.0
  0
SOLID
  5
119
  8
BLOCK_0_4MM
 62
     7
 10
50.9560510592
 20
240.119106739
 30
0.0
 11
54.2580510592
 21
239.611106739
 31
0.0
 12
54.2580510592
 22
240.627106739
 32
0.0
 13
54.2580510592
 23
240.627106739
 33
0.0
  0
LINE
  5
11A
  8
BLOCK_0_4MM
 62
     7
 10
185.9560510592
 20
206.3172447371
 30
0.0
 11
185.9560510592
 21
241.119106739
 31
0.0
  0
LINE
  5
11B
  8
BLOCK_0_4MM
 62
     7
 10
50.9560510592
 20
206.3172447371
 30
0.0
 11
50.9560510592
 21
241.119106739
 31
0.0
  0
LINE
  5
11C
  8
BLOCK_0_4MM
 62
     7
 10
185.9560510592
 20
240.119106739
 30
0.0
 11
50.9560510592
 21
240.119106739
 31
0.0
  0
TEXT
  5
11D
  8
BLOCK_0_4MM
 62
     7
 10
114.450553272
 20
241.053773928
 30
-10.0390136078
 40
2.6458333333
  1
135
 50
0.0
 41
0.7
 11
114.450553272
 21
240.1191066808
 31
-10.0390136078
 73
     1
  0
ENDBLK
  5
117
  8
0
  0
BLOCK
  8
0
  2
*D5
 70
     1
 10
0.0
 20
0.0
 30
0.0
  3
*D5
  1

  0
SOLID
  5
122
  8
BLOCK_0_4MM
 62
     7
 10
44.6956741487
 20
234.8172447371
 30
0.0
 11
44.1876741487
 21
231.5152447371
 31
0.0
 12
45.2036741487
 22
231.5152447371
 32
0.0
 13
45.2036741487
 23
231.5152447371
 33
0.0
  0
SOLID
  5
123
  8
BLOCK_0_4MM
 62
     7
 10
44.6956741487
 20
177.8172447371
 30
0.0
 11
45.2036741487
 21
181.1192447371
 31
0.0
 12
44.1876741487
 22
181.1192447371
 32
0.0
 13
44.1876741487
 23
181.1192447371
 33
0.0
  0
LINE
  5
124
  8
BLOCK_0_4MM
 62
     7
 10
79.4560510592
 20
234.8172447371
 30
0.0
 11
43.6956741487
 21
234.8172447371
 31
0.0
  0
LINE
  5
125
  8
BLOCK_0_4MM
 62
     7
 10
49.9560510592
 20
177.8172447371
 30
0.0
 11
43.6956741487
 21
177.8172447371
 31
0.0
  0
LINE
  5
126
  8
BLOCK_0_4MM
 62
     7
 10
44.6956741487
 20
234.8172447371
 30
0.0
 11
44.6956741487
 21
177.8172447371
 31
0.0
  0
TEXT
  5
127
  8
BLOCK_0_4MM
 62
     7
 10
43.7610069597
 20
203.2892354174
 30
-10.0390136078
 40
2.6458333333
  1
57
 50
90.0
 41
0.7
 11
44.6956742069
 21
203.2892354174
 31
-10.0390136078
 73
     1
  0
ENDBLK
  5
121
  8
0
  0
BLOCK
  8
0
  2
*D6
 70
     1
 10
0.0
 20
0.0
 30
0.0
  3
*D6
  1

  0
SOLID
  5
12D
  8
BLOCK_0_4MM
 62
     7
 10
193.0488239374
 20
195.3172447371
 30
0.0
 11
193.5568239374
 21
198.6192447371
 31
0.0
 12
192.5408239374
 22
198.6192447371
 32
0.0
 13
192.5408239374
 23
198.6192447371
 33
0.0
  0
SOLID
  5
12E
  8
BLOCK_0_4MM
 62
     7
 10
193.0488239374
 20
234.8172447371
 30
0.0
 11
192.5408239374
 21
231.5152447371
 31
0.0
 12
193.5568239374
 22
231.5152447371
 32
0.0
 13
193.5568239374
 23
231.5152447371
 33
0.0
  0
LINE
  5
12F
  8
BLOCK_0_4MM
 62
     7
 10
186.9560510592
 20
195.3172447371
 30
0.0
 11
194.0488239374
 21
195.3172447371
 31
0.0
  0
LINE
  5
130
  8
BLOCK_0_4MM
 62
     7
 10
157.4560510592
 20
234.8172447371
 30
0.0
 11
194.0488239374
 21
234.8172447371
 31
0.0
  0
LINE
  5
131
  8
BLOCK_0_4MM
 62
     7
 10
193.0488239374
 20
195.3172447371
 30
0.0
 11
193.0488239374
 21
234.8172447371
 31
0.0
  0
TEXT
  5
132
  8
BLOCK_0_4MM
 62
     7
 10
192.1141567485
 20
212.0392354174
 30
-10.0390136078
 40
2.6458333333
  1
40
 50
90.0
 41
0.7
 11
193.0488239957
 21
212.0392354174
 31
-10.0390136078
 73
     1
  0
ENDBLK
  5
12C
  8
0
  0
BLOCK
  8
0
  2
*D7
 70
     1
 10
0.0
 20
0.0
 30
0.0
  3
*D7
  1

  0
SOLID
  5
138
  8
BLOCK_0_4MM
 62
     7
 10
166.9560510592
 20
187.9351045999
 30
0.0
 11
163.6540510592
 21
188.4431045999
 31
0.0
 12
163.6540510592
 22
187.4271045999
 32
0.0
 13
163.6540510592
 23
187.4271045999
 33
0.0
  0
SOLID
  5
139
  8
BLOCK_0_4MM
 62
     7
 10
185.9560510592
 20
187.9351045999
 30
0.0
 11
189.2580510592
 21
187.4271045999
 31
0.0
 12
189.2580510592
 22
188.4431045999
 32
0.0
 13
189.2580510592
 23
188.4431045999
 33
0.0
  0
LINE
  5
13A
  8
BLOCK_0_4MM
 62
     7
 10
166.9560510592
 20
194.3172447371
 30
0.0
 11
166.9560510592
 21
186.9351045999
 31
0.0
  0
LINE
  5
13B
  8
BLOCK_0_4MM
 62
     7
 10
185.9560510592
 20
194.3172447371
 30
0.0
 11
185.9560510592
 21
186.9351045999
 31
0.0
  0
LINE
  5
13C
  8
BLOCK_0_4MM
 62
     7
 10
166.9560510592
 20
187.9351045999
 30
0.0
 11
160.6060510592
 21
187.9351045999
 31
0.0
  0
LINE
  5
13D
  8
BLOCK_0_4MM
 62
     7
 10
166.9560510592
 20
187.9351045999
 30
0.0
 11
185.9560510592
 21
187.9351045999
 31
0.0
  0
LINE
  5
13E
  8
BLOCK_0_4MM
 62
     7
 10
185.9560510592
 20
187.9351045999
 30
0.0
 11
192.3060510592
 21
187.9351045999
 31
0.0
  0
TEXT
  5
13F
  8
BLOCK_0_4MM
 62
     7
 10
171.431172751
 20
188.8697718471
 30
-10.0390136078
 40
2.6458333333
  1
%%c
 50
0.0
 41
0.7
 11
171.431172751
 21
187.9351045999
 31
-10.0390136078
 73
     1
  0
TEXT
  5
140
  8
BLOCK_0_4MM
 62
     7
 10
175.4249111937
 20
188.8697717889
 30
-10.0390136078
 40
2.6458333333
  1
19
 50
0.0
 41
0.7
 11
175.4249111937
 21
187.9351045417
 31
-10.0390136078
 73
     1
  0
ENDBLK
  5
137
  8
0
  0
BLOCK
  8
0
  2
*D8
 70
     1
 10
0.0
 20
0.0
 30
0.0
  3
*D8
  1

  0
SOLID
  5
187
  8
BLOCK_0_4MM
 62
     7
 10
56.4060510592
 20
139.9611873861
 30
0.0
 11
53.1040510592
 21
140.4691873861
 31
0.0
 12
53.1040510592
 22
139.4531873861
 32
0.0
 13
53.1040510592
 23
139.4531873861
 33
0.0
  0
SOLID
  5
188
  8
BLOCK_0_4MM
 62
     7
 10
64.5060510592
 20
139.9611873861
 30
0.0
 11
67.8080510592
 21
139.4531873861
 31
0.0
 12
67.8080510592
 22
140.4691873861
 32
0.0
 13
67.8080510592
 23
140.4691873861
 33
0.0
  0
LINE
  5
189
  8
BLOCK_0_4MM
 62
     7
 10
56.4060510592
 20
131.434966603
 30
0.0
 11
56.4060510592
 21
140.9611873861
 31
0.0
  0
LINE
  5
18A
  8
BLOCK_0_4MM
 62
     7
 10
64.5060510592
 20
131.434966603
 30
0.0
 11
64.5060510592
 21
140.9611873861
 31
0.0
  0
LINE
  5
18B
  8
BLOCK_0_4MM
 62
     7
 10
56.4060510592
 20
139.9611873861
 30
0.0
 11
50.0560510592
 21
139.9611873861
 31
0.0
  0
LINE
  5
18C
  8
BLOCK_0_4MM
 62
     7
 10
56.4060510592
 20
139.9611873861
 30
0.0
 11
64.5060510592
 21
139.9611873861
 31
0.0
  0
LINE
  5
18D
  8
BLOCK_0_4MM
 62
     7
 10
64.5060510592
 20
139.9611873861
 30
0.0
 11
70.8560510592
 21
139.9611873861
 31
0.0
  0
INSERT
  5
195
  8
BLOCK_0_4MM
 62
     7
  2
SW_SYMBOL_MOD_BOX
 10
56.5137593412
 20
140.3280900553
 30
0.0
 41
0.0033796387
 42
0.0033796387
 43
0.0033796387
  0
TEXT
  5
196
  8
BLOCK_0_4MM
 62
     7
 10
60.2973010727
 20
140.895854575
 30
1.1496810474
 40
2.6458333333
  1
8
 41
0.7
 11
60.2973010727
 21
139.9611873279
 31
1.1496810474
 73
     1
  0
ENDBLK
  5
186
  8
0
  0
BLOCK
  8
0
  2
SW_SYMBOL_MOD_BOX
 70
     0
 10
0.0
 20
0.0
 30
0.0
  3
SW_SYMBOL_MOD_BOX
  1

  0
LINE
  5
191
  8
BLOCK_0_4MM
 62
     0
 10
200.0
 20
200.0
 30
0.0
 11
800.0
 21
200.0
 31
0.0
  0
LINE
  5
192
  8
BLOCK_0_4MM
 62
     0
 10
200.0
 20
200.0
 30
0.0
 11
200.0
 21
800.0
 31
0.0
  0
LINE
  5
193
  8
BLOCK_0_4MM
 62
     0
 10
200.0
 20
800.0
 30
0.0
 11
800.0
 21
800.0
 31
0.0
  0
LINE
  5
194
  8
BLOCK_0_4MM
 62
     0
 10
800.0
 20
800.0
 30
0.0
 11
800.0
 21
200.0
 31
0.0
  0
ENDBLK
  5
190
  8
0
  0
ENDSEC
  0
SECTION
  2
ENTITIES
  0
LINE
  5
D2
  8
BLOCK_0_4MM
 62
     7
 10
8.0
 20
292.0
 30
0.0
 11
409.0
 21
292.0
 31
0.0
  0
LINE
  5
D3
  8
BLOCK_0_4MM
 62
     7
 10
219.0
 20
44.0
 30
0.0
 11
219.0
 21
8.0
 31
0.0
  0
LINE
  5
D4
  8
BLOCK_0_4MM
 62
     7
 10
8.0
 20
8.0
 30
0.0
 11
409.0
 21
8.0
 31
0.0
  0
LINE
  5
D5
  8
BLOCK_0_4MM
 62
     7
 10
412.0
 20
289.0
 30
0.0
 11
412.0
 21
11.0
 31
0.0
  0
LINE
  5
D6
  8
BLOCK_0_4MM
 62
     7
 10
219.0
 20
44.0
 30
0.0
 11
412.0
 21
44.0
 31
0.0
  0
LINE
  5
D7
  8
BLOCK_0_4MM
 62
     7
 10
264.0
 20
44.0
 30
0.0
 11
264.0
 21
8.0
 31
0.0
  0
LINE
  5
D8
  8
BLOCK_0_4MM
 62
     7
 10
5.0
 20
289.0
 30
0.0
 11
5.0
 21
11.0
 31
0.0
  0
ARC
  5
D9
  8
BLOCK_0_4MM
 62
     7
 10
409.0
 20
289.0
 30
0.0
 40
3.0
 50
0.0
 51
90.0
  0
ARC
  5
DA
  8
BLOCK_0_4MM
 62
     7
 10
8.0
 20
11.0
 30
0.0
 40
3.000000000000007
 50
180.0
 51
270.0
  0
ARC
  5
DB
  8
BLOCK_0_4MM
 62
     7
 10
8.0
 20
289.0
 30
0.0
 40
3.0
 50
90.0
 51
180.0
  0
ARC
  5
DC
  8
BLOCK_0_4MM
 62
     7
 10
409.0
 20
11.0
 30
0.0
 40
3.0
 50
270.0
 51
0.0
  0
INSERT
  5
DD
  8
BLOCK_0_4MM
 66
     1
  2
TEMPLATE_BLOCK_23-08-2011_
 10
201.4643168258
 20
-143.4442864895
 30
0.0
  0
ATTRIB
  5
DE
  8
0
  6
CONTINUOUS
 62
     7
 10
306.2250632425
 20
38.9085319155
 30
0.0
 40
3.7041666667
  1
Gatdeel rond rvs Immer AG
 41
0.644
 11
306.2250632425
 21
37.5999977694
 31
0.0
 73
     1
  2
DESCRIPTION
 70
     0
 74
     1
  0
ATTRIB
  5
DF
  8
0
  6
CONTINUOUS
 62
     7
 10
280.1896576027
 20
30.9686123186
 30
0.0
 40
3.7041666667
  1
kruk Immer AG
 41
0.6461538462
 11
280.1896576027
 21
29.6600781725
 31
0.0
 73
     1
  2
ARTICLENR.
 70
     0
 74
     1
  0
ATTRIB
  5
E0
  8
0
  6
CONTINUOUS
 62
     7
 10
360.9096966863
 20
30.9686122021
 30
0.0
 40
3.7041666667
  1

 41
0.7
 11
360.9096966863
 21
29.6600780561
 31
0.0
 73
     1
  2
REVISION
 70
     0
 74
     1
  0
ATTRIB
  5
E1
  8
0
  6
CONTINUOUS
 62
     7
 10
280.1896576027
 20
24.6954977715
 30
0.0
 40
2.38125
  1

 41
0.7
 11
280.1896576027
 21
23.854297249
 31
0.0
 73
     1
  2
MATERIAL
 70
     0
 74
     1
  0
ATTRIB
  5
E2
  8
0
  6
CONTINUOUS
 62
     7
 10
280.1896576027
 20
19.6954977715
 30
0.0
 40
2.38125
  1

 41
0.7
 11
280.1896576027
 21
18.854297249
 31
0.0
 73
     1
  2
FINISH
 70
     0
 74
     1
  0
ATTRIB
  5
E3
  8
0
  6
CONTINUOUS
 62
     7
 10
280.6296497772
 20
14.2697515433
 30
0.0
 40
2.1166666667
  1
EvdG
 41
0.7
 11
280.6296497772
 21
13.5220177456
 31
0.0
 73
     1
  2
DRAWNBY
 70
     0
 74
     1
  0
ATTRIB
  5
E4
  8
0
  6
CONTINUOUS
 62
     7
 10
298.355748982
 20
14.2697515433
 30
0.0
 40
2.1166666667
  1
27-04-2012
 41
0.7
 11
298.355748982
 21
13.5220177456
 31
0.0
 73
     1
  2
DRAWNDATE
 70
     0
 74
     1
  0
ATTRIB
  5
E5
  8
0
  6
CONTINUOUS
 62
     7
 10
362.7508710764
 20
14.1107915265
 30
0.0
 40
2.1166666667
  1

 41
0.7
 11
362.7508710764
 21
13.3630577288
 31
0.0
 73
     1
  2
MODDATE
 70
     0
 74
     1
  0
ATTRIB
  5
E6
  8
0
  6
CONTINUOUS
 62
     7
 10
337.9446981475
 20
14.1053719456
 30
0.0
 40
2.1166666667
  1

 41
0.7
 11
337.9446981475
 21
13.3576381479
 31
0.0
 73
     1
  2
MODBY
 70
     0
 74
     1
  0
ATTRIB
  5
E7
  8
0
  6
CONTINUOUS
 62
     7
 10
411.7692492122
 20
14.1107915265
 30
0.0
 40
2.1166666667
  1

 41
0.7
 11
411.7692492122
 21
13.3630577288
 31
0.0
 73
     1
  2
RELDATE
 70
     0
 74
     1
  0
ATTRIB
  5
E8
  8
0
  6
CONTINUOUS
 62
     7
 10
386.9612940516
 20
14.1107915265
 30
0.0
 40
2.1166666667
  1

 41
0.7
 11
386.9612940516
 21
13.3630577288
 31
0.0
 73
     1
  2
RELBY
 70
     0
 74
     1
  0
ATTRIB
  5
E9
  8
0
  6
CONTINUOUS
 62
     7
 10
382.243329726
 20
9.0369860688
 30
0.0
 40
2.1166666667
  1
2/2
 41
0.7
 11
382.243329726
 21
8.2892522711
 31
0.0
 73
     1
  2
AUTOATTR1
 70
     0
 74
     1
  0
ATTRIB
  5
EA
  8
0
  6
CONTINUOUS
 62
     7
 10
405.8309179426
 20
9.0369860688
 30
0.0
 40
2.1166666667
  1
A3
 41
0.7
 11
405.8309179426
 21
8.2892522711
 31
0.0
 73
     1
  2
FORMAT
 70
     0
 74
     1
  0
ATTRIB
  5
EB
  8
0
  6
CONTINUOUS
 62
     7
 10
280.1896576027
 20
9.6903948772
 30
0.0
 40
2.38125
  1

 41
0.7
 11
280.1896576027
 21
8.8491943548
 31
0.0
 73
     1
  2
REMARK
 70
     0
 74
     1
  0
ATTRIB
  5
EC
  8
0
  6
CONTINUOUS
 62
     7
 10
375.8361229267
 20
20.8710259134
 30
0.0
 40
2.1166666667
  1
± 1 °
 41
0.56
 11
375.8361229267
 21
20.1232921157
 31
0.0
 73
     1
  2
ANGLETOL
 70
     0
 74
     1
  0
ATTRIB
  5
ED
  8
0
  6
CONTINUOUS
 62
     7
 10
392.5310415205
 20
20.7082069028
 30
0.0
 40
2.1166666667
  1
± 0.2 mm
 41
0.6125
 11
392.5310415205
 21
19.9604731051
 31
0.0
 73
     1
  2
DIMTOL
 70
     0
 74
     1
  0
ATTRIB
  5
EE
  8
BLOCK_0_4MM
 62
     7
 10
350.7085178148
 20
19.7059541489
 30
0.0
 40
2.5
  1
1:1
 41
0.7
 11
350.7085178148
 21
18.8228039941
 31
0.0
 73
     1
  2
AUTOATTR2
 70
     0
 74
     1
  0
ATTRIB
  5
EF
  8
BLOCK_0_4MM
 62
     7
 10
359.2295520437
 20
24.7059543235
 30
0.0
 40
2.5
  1
 g
 41
0.7
 11
359.2295520437
 21
23.8228041687
 31
0.0
 73
     1
  2
AUTOATTR3
 70
     0
 74
     1
  0
SEQEND
  5
F0
  8
BLOCK_0_4MM
  0
INSERT
  5
FA
  8
0
  6
CONTINUOUS
 62
     7
  2
SW_NOTE_0
 10
220.5
 20
25.7813523681
 30
0.0
  0
TEXT
  5
FB
  8
0
  6
CONTINUOUS
 62
     7
 10
414.6760321318
 20
4.8333996371
 30
0.0
 40
2.35
  1
No material may be reproduced or transmitted in any form or by any means, electronic or mechanical, for any purpose without the express written permission of Van Leeuwen International.
 50
90.0
 41
0.6467391304
 11
415.5061932773
 21
4.8333996371
 31
0.0
 73
     1
  0
TEXT
  5
FC
  8
0
  6
CONTINUOUS
 62
     7
 10
378.6195366537
 20
5.2506703546
 30
0.0
 40
2.35
  1
SW_00206845.slddrw
 41
0.7
 11
378.6195366537
 21
4.4205092091
 31
0.0
 73
     1
  0
TEXT
  5
FD
  8
0
  6
CONTINUOUS
 62
     7
 10
12.2470288249
 20
270.3054526816
 30
0.0
 40
9.525
  1
Concept
 41
0.7
 11
12.2470288249
 21
266.9406505918
 31
0.0
 73
     1
  0
LINE
  5
FE
  8
0
  6
CONTINUOUS
 62
     7
 10
185.9560525128
 20
195.3172447065
 30
0.0
 11
185.9560525128
 21
205.3172447158
 31
0.0
  0
LINE
  5
FF
  8
0
  6
CONTINUOUS
 62
     7
 10
166.9560512611
 20
205.3172447158
 30
0.0
 11
166.9560512611
 21
195.3172447065
 31
0.0
  0
ARC
  5
100
  8
0
  6
CONTINUOUS
 62
     7
 10
156.4560510592
 20
205.3172447371
 30
0.0
 40
10.50000000000003
 50
0.0
 51
90.0
  0
ARC
  5
101
  8
0
  6
CONTINUOUS
 62
     7
 10
156.4560510592
 20
205.3172447371
 30
0.0
 40
29.5
 50
0.0
 51
90.0
  0
LINE
  5
102
  8
0
  6
CONTINUOUS
 62
     7
 10
156.456052334
 20
234.8172446618
 30
0.0
 11
80.4560510525
 21
234.8172446618
 31
0.0
  0
LINE
  5
103
  8
0
  6
CONTINUOUS
 62
     7
 10
80.4560510525
 20
215.8172443414
 30
0.0
 11
156.456052334
 21
215.8172443414
 31
0.0
  0
ARC
  5
104
  8
0
  6
CONTINUOUS
 62
     7
 10
80.4560510592
 20
205.3172447371
 30
0.0
 40
10.5
 50
90.0
 51
180.0
  0
ARC
  5
105
  8
0
  6
CONTINUOUS
 62
     7
 10
80.4560510592
 20
205.3172447371
 30
0.0
 40
29.5
 50
90.0
 51
180.0
  0
LINE
  5
106
  8
0
  6
CONTINUOUS
 62
     7
 10
69.9560521254
 20
177.817244632
 30
0.0
 11
69.9560521254
 21
205.3172447158
 31
0.0
  0
LINE
  5
107
  8
0
  6
CONTINUOUS
 62
     7
 10
50.9560545989
 20
181.4172441045
 30
0.0
 11
50.9560545989
 21
177.817244632
 31
0.0
  0
LINE
  5
108
  8
0
  6
CONTINUOUS
 62
     7
 10
50.9560545989
 20
205.3172447158
 30
0.0
 11
50.9560545989
 21
186.2172452638
 31
0.0
  0
LINE
  5
109
  8
0
  6
CONTINUOUS
 62
     7
 10
52.4560501882
 20
177.817244632
 30
0.0
 11
52.4560501882
 21
169.3172460327
 31
0.0
  0
LINE
  5
10A
  8
0
  6
CONTINUOUS
 62
     7
 10
68.4560528108
 20
169.3172460327
 30
0.0
 11
68.4560528108
 21
177.817244632
 31
0.0
  0
LINE
  5
10B
  8
0
  6
CONTINUOUS
 62
     7
 10
52.4560501882
 20
169.3172460327
 30
0.0
 11
52.9560512015
 21
168.8172450194
 31
0.0
  0
LINE
  5
10C
  8
0
  6
CONTINUOUS
 62
     7
 10
67.9560517975
 20
168.8172450194
 30
0.0
 11
68.4560528108
 21
169.3172460327
 31
0.0
  0
LINE
  5
10D
  8
0
  6
CONTINUOUS
 62
     7
 10
166.9560512611
 20
195.3172447065
 30
0.0
 11
185.9560525128
 21
195.3172447065
 31
0.0
  0
LINE
  5
10E
  8
0
  6
CONTINUOUS
 62
     7
 10
69.9560521254
 20
177.817244632
 30
0.0
 11
50.9560545989
 21
177.817244632
 31
0.0
  0
LINE
  5
10F
  8
0
  6
CONTINUOUS
 62
     7
 10
52.4560501882
 20
169.3172460327
 30
0.0
 11
68.4560528108
 21
169.3172460327
 31
0.0
  0
LINE
  5
110
  8
0
  6
CONTINUOUS
 62
     7
 10
67.9560517975
 20
168.8172450194
 30
0.0
 11
52.9560512015
 21
168.8172450194
 31
0.0
  0
LINE
  5
111
  8
0
  6
CONTINUOUS
 62
     7
 10
51.1756679126
 20
182.1625778356
 30
0.0
 11
51.1756679126
 21
185.4719115326
 31
0.0
  0
LINE
  5
112
  8
0
  6
CONTINUOUS
 62
     7
 10
50.9560545989
 20
186.2172452638
 30
0.0
 11
50.9560545989
 21
181.4172441045
 31
0.0
  0
DIMENSION
  5
113
  8
BLOCK_0_4MM
 62
     7
  2
*D4
 10
50.9560510592
 20
240.119106739
 30
0.0
 11
118.4560510592
 21
240.119106739
 31
0.0
 70
   160
  3
SLDDIMSTYLE0
 13
185.9560510592
 23
205.3172447371
 33
0.0
 14
50.9560510592
 24
205.3172447371
 34
0.0
  0
DIMENSION
  5
11E
  8
BLOCK_0_4MM
 62
     7
  2
*D5
 10
44.6956741487
 20
177.8172447371
 30
0.0
 11
44.6956741487
 21
206.3172447371
 31
0.0
 70
   160
  3
SLDDIMSTYLE0
 13
80.4560510592
 23
234.8172447371
 33
0.0
 14
50.9560510592
 24
177.8172447371
 34
0.0
 50
90.0
  0
DIMENSION
  5
128
  8
BLOCK_0_4MM
 62
     7
  2
*D6
 10
193.0488239374
 20
234.8172447371
 30
0.0
 11
193.0488239374
 21
215.0672447371
 31
0.0
 70
   160
  3
SLDDIMSTYLE1
 13
185.9560510592
 23
195.3172447371
 33
0.0
 14
156.4560510592
 24
234.8172447371
 34
0.0
 50
90.0
  0
DIMENSION
  5
133
  8
BLOCK_0_4MM
 62
     7
  2
*D7
 10
185.9560510592
 20
187.9351045999
 30
0.0
 11
176.4560510592
 21
187.9351045999
 31
0.0
 70
   160
  1
%%c<>
  3
SLDDIMSTYLE2
 13
166.9560510592
 23
195.3172447371
 33
0.0
 14
185.9560510592
 24
195.3172447371
 34
0.0
  0
LINE
  5
141
  8
0
  6
CONTINUOUS
 62
     7
 10
350.0642045507
 20
153.9380448236
 30
0.0
 11
357.1352723691
 21
158.0200853865
 31
0.0
  0
LINE
  5
142
  8
0
  6
CONTINUOUS
 62
     7
 10
347.6360444301
 20
174.4750144269
 30
0.0
 11
340.5649766117
 21
170.392973864
 31
0.0
  0
ARC
  5
143
  8
0
  6
CONTINUOUS
 62
     7
 10
345.4954192049
 20
178.6597724498
 30
0.0
 40
4.700476152980171
 50
297.0910625206
 51
318.1431074778
  0
POLYLINE
  5
144
  8
0
  6
CONTINUOUS
 62
     7
 66
     1
 10
0.0
 20
0.0
 30
0.0
  0
VERTEX
  5
197
  8
0
  6
CONTINUOUS
 62
     7
 10
357.1352723691
 20
158.0200853865
 30
0.0
  0
VERTEX
  5
198
  8
0
  6
CONTINUOUS
 62
     7
 10
358.0335660968
 20
158.5613766674
 30
0.0
  0
VERTEX
  5
199
  8
0
  6
CONTINUOUS
 62
     7
 10
359.5442257098
 20
159.5856104082
 30
0.0
  0
VERTEX
  5
19A
  8
0
  6
CONTINUOUS
 62
     7
 10
360.9579077293
 20
160.700637386
 30
0.0
  0
VERTEX
  5
19B
  8
0
  6
CONTINUOUS
 62
     7
 10
362.2551205549
 20
161.8948610749
 30
0.0
  0
VERTEX
  5
19C
  8
0
  6
CONTINUOUS
 62
     7
 10
363.424494745
 20
163.1583660956
 30
0.0
  0
VERTEX
  5
19D
  8
0
  6
CONTINUOUS
 62
     7
 10
364.4579334948
 20
164.480354585
 30
0.0
  0
VERTEX
  5
19E
  8
0
  6
CONTINUOUS
 62
     7
 10
365.350740065
 20
165.8501584341
 30
0.0
  0
VERTEX
  5
19F
  8
0
  6
CONTINUOUS
 62
     7
 10
366.1009882128
 20
167.2578149233
 30
0.0
  0
VERTEX
  5
1A0
  8
0
  6
CONTINUOUS
 62
     7
 10
366.7086180107
 20
168.6941363455
 30
0.0
  0
VERTEX
  5
1A1
  8
0
  6
CONTINUOUS
 62
     7
 10
367.1746963008
 20
170.1505184446
 30
0.0
  0
VERTEX
  5
1A2
  8
0
  6
CONTINUOUS
 62
     7
 10
367.5009418842
 20
171.6187416232
 30
0.0
  0
VERTEX
  5
1A3
  8
0
  6
CONTINUOUS
 62
     7
 10
367.6895042503
 20
173.090885061
 30
0.0
  0
VERTEX
  5
1A4
  8
0
  6
CONTINUOUS
 62
     7
 10
367.7428476725
 20
174.5593487993
 30
0.0
  0
VERTEX
  5
1A5
  8
0
  6
CONTINUOUS
 62
     7
 10
367.6636695492
 20
176.0169655455
 30
0.0
  0
VERTEX
  5
1A6
  8
0
  6
CONTINUOUS
 62
     7
 10
367.4549741605
 20
177.4560821478
 30
0.0
  0
VERTEX
  5
1A7
  8
0
  6
CONTINUOUS
 62
     7
 10
367.1199923256
 20
178.8701921696
 30
0.0
  0
VERTEX
  5
1A8
  8
0
  6
CONTINUOUS
 62
     7
 10
366.6616611531
 20
180.2543046917
 30
0.0
  0
VERTEX
  5
1A9
  8
0
  6
CONTINUOUS
 62
     7
 10
366.0824567704
 20
181.6041793764
 30
0.0
  0
VERTEX
  5
1AA
  8
0
  6
CONTINUOUS
 62
     7
 10
365.384223102
 20
182.91621014
 30
0.0
  0
VERTEX
  5
1AB
  8
0
  6
CONTINUOUS
 62
     7
 10
364.5680994299
 20
184.1872175789
 30
0.0
  0
VERTEX
  5
1AC
  8
0
  6
CONTINUOUS
 62
     7
 10
363.6346033703
 20
185.4141128933
 30
0.0
  0
VERTEX
  5
1AD
  8
0
  6
CONTINUOUS
 62
     7
 10
362.5839799015
 20
186.5935040235
 30
0.0
  0
VERTEX
  5
1AE
  8
0
  6
CONTINUOUS
 62
     7
 10
361.4167993231
 20
187.7212888587
 30
0.0
  0
VERTEX
  5
1AF
  8
0
  6
CONTINUOUS
 62
     7
 10
360.134848925
 20
188.7923670641
 30
0.0
  0
VERTEX
  5
1B0
  8
0
  6
CONTINUOUS
 62
     7
 10
358.7420391444
 20
189.80065833
 30
0.0
  0
VERTEX
  5
1B1
  8
0
  6
CONTINUOUS
 62
     7
 10
357.1352735216
 20
190.803175443
 30
0.0
  0
SEQEND
  5
1B2
  8
0
  6
CONTINUOUS
 62
     7
  0
LINE
  5
145
  8
0
  6
CONTINUOUS
 62
     7
 10
357.1352735216
 20
190.803175443
 30
0.0
 11
303.3951572452
 21
221.8266842154
 31
0.0
  0
LINE
  5
146
  8
0
  6
CONTINUOUS
 62
     7
 10
293.8959293063
 20
205.371755175
 30
0.0
 11
347.526250408
 21
174.4116298077
 31
0.0
  0
LINE
  5
147
  8
0
  6
CONTINUOUS
 62
     7
 10
255.6654489356
 20
194.1461444586
 30
0.0
 11
275.1108854775
 21
205.3717560304
 31
0.0
  0
LINE
  5
148
  8
0
  6
CONTINUOUS
 62
     7
 10
265.6116601727
 20
221.8266835501
 30
0.0
 11
246.1662236308
 21
210.6010719783
 31
0.0
  0
ARC
  5
149
  8
0
  6
CONTINUOUS
 62
     7
 10
284.5034065208
 20
186.241935603
 30
0.0
 40
21.31125245341525
 50
63.8494893109
 51
116.1505054711
  0
ARC
  5
14A
  8
0
  6
CONTINUOUS
 62
     7
 10
284.5034093315
 20
186.471782562
 30
0.0
 40
40.08574821746156
 50
61.8823625731
 51
118.1176394447
  0
LINE
  5
14B
  8
0
  6
CONTINUOUS
 62
     7
 10
239.2485744569
 20
202.1695071074
 30
0.0
 11
239.2485744569
 21
201.7613022243
 31
0.0
  0
LINE
  5
14C
  8
0
  6
CONTINUOUS
 62
     7
 10
244.5510115161
 20
192.5762143235
 30
0.0
 11
244.9045076713
 21
192.3720797472
 31
0.0
  0
LINE
  5
14D
  8
0
  6
CONTINUOUS
 62
     7
 10
246.9161635798
 20
209.3019979627
 30
0.0
 11
240.9057569302
 21
205.8322640592
 31
0.0
  0
LINE
  5
14E
  8
0
  6
CONTINUOUS
 62
     7
 10
248.9051049712
 20
191.9754826698
 30
0.0
 11
254.9155116208
 21
195.4452165733
 31
0.0
  0
POLYLINE
  5
14F
  8
0
  6
CONTINUOUS
 62
     7
 66
     1
 10
0.0
 20
0.0
 30
0.0
  0
VERTEX
  5
1B3
  8
0
  6
CONTINUOUS
 62
     7
 10
338.5970770344
 20
166.04344718
 30
0.0
  0
VERTEX
  5
1B4
  8
0
  6
CONTINUOUS
 62
     7
 10
338.6500477205
 20
166.9850945649
 30
0.0
  0
VERTEX
  5
1B5
  8
0
  6
CONTINUOUS
 62
     7
 10
338.8081194758
 20
167.8507367017
 30
0.0
  0
VERTEX
  5
1B6
  8
0
  6
CONTINUOUS
 62
     7
 10
339.0688056364
 20
168.6267169644
 30
0.0
  0
VERTEX
  5
1B7
  8
0
  6
CONTINUOUS
 62
     7
 10
339.4279889819
 20
169.3008014001
 30
0.0
  0
VERTEX
  5
1B8
  8
0
  6
CONTINUOUS
 62
     7
 10
339.8800086639
 20
169.862357446
 30
0.0
  0
VERTEX
  5
1B9
  8
0
  6
CONTINUOUS
 62
     7
 10
340.4177339622
 20
170.3025303635
 30
0.0
  0
VERTEX
  5
1BA
  8
0
  6
CONTINUOUS
 62
     7
 10
341.032685458
 20
170.6143778517
 30
0.0
  0
VERTEX
  5
1BB
  8
0
  6
CONTINUOUS
 62
     7
 10
341.7151667417
 20
170.7929803268
 30
0.0
  0
VERTEX
  5
1BC
  8
0
  6
CONTINUOUS
 62
     7
 10
342.4544119279
 20
170.8355230659
 30
0.0
  0
VERTEX
  5
1BD
  8
0
  6
CONTINUOUS
 62
     7
 10
343.2387647787
 20
170.7413342469
 30
0.0
  0
VERTEX
  5
1BE
  8
0
  6
CONTINUOUS
 62
     7
 10
344.0558551941
 20
170.5118986537
 30
0.0
  0
VERTEX
  5
1BF
  8
0
  6
CONTINUOUS
 62
     7
 10
344.8927941409
 20
170.1508379221
 30
0.0
  0
VERTEX
  5
1C0
  8
0
  6
CONTINUOUS
 62
     7
 10
345.7363870214
 20
169.6638421181
 30
0.0
  0
VERTEX
  5
1C1
  8
0
  6
CONTINUOUS
 62
     7
 10
346.5733286025
 20
169.0585921896
 30
0.0
  0
VERTEX
  5
1C2
  8
0
  6
CONTINUOUS
 62
     7
 10
347.3904163837
 20
168.3446367905
 30
0.0
  0
VERTEX
  5
1C3
  8
0
  6
CONTINUOUS
 62
     7
 10
348.1747692344
 20
167.5332310841
 30
0.0
  0
VERTEX
  5
1C4
  8
0
  6
CONTINUOUS
 62
     7
 10
348.9140144206
 20
166.6371740206
 30
0.0
  0
VERTEX
  5
1C5
  8
0
  6
CONTINUOUS
 62
     7
 10
349.5964957044
 20
165.6705954278
 30
0.0
  0
VERTEX
  5
1C6
  8
0
  6
CONTINUOUS
 62
     7
 10
350.2114498343
 20
164.6487385349
 30
0.0
  0
VERTEX
  5
1C7
  8
0
  6
CONTINUOUS
 62
     7
 10
350.7491751327
 20
163.587721203
 30
0.0
  0
VERTEX
  5
1C8
  8
0
  6
CONTINUOUS
 62
     7
 10
351.2011948146
 20
162.5042743411
 30
0.0
  0
VERTEX
  5
1C9
  8
0
  6
CONTINUOUS
 62
     7
 10
351.5603781601
 20
161.4154856419
 30
0.0
  0
VERTEX
  5
1CA
  8
0
  6
CONTINUOUS
 62
     7
 10
351.8210616865
 20
160.3385250654
 30
0.0
  0
VERTEX
  5
1CB
  8
0
  6
CONTINUOUS
 62
     7
 10
351.979136076
 20
159.290375644
 30
0.0
  0
VERTEX
  5
1CC
  8
0
  6
CONTINUOUS
 62
     7
 10
352.0321067621
 20
158.2875696067
 30
0.0
  0
VERTEX
  5
1CD
  8
0
  6
CONTINUOUS
 62
     7
 10
351.979136076
 20
157.3459214613
 30
0.0
  0
VERTEX
  5
1CE
  8
0
  6
CONTINUOUS
 62
     7
 10
351.8210616865
 20
156.4802816056
 30
0.0
  0
VERTEX
  5
1CF
  8
0
  6
CONTINUOUS
 62
     7
 10
351.5603781601
 20
155.7042998223
 30
0.0
  0
VERTEX
  5
1D0
  8
0
  6
CONTINUOUS
 62
     7
 10
351.2011948146
 20
155.0302150063
 30
0.0
  0
VERTEX
  5
1D1
  8
0
  6
CONTINUOUS
 62
     7
 10
350.7491751327
 20
154.4686589605
 30
0.0
  0
VERTEX
  5
1D2
  8
0
  6
CONTINUOUS
 62
     7
 10
350.2114498343
 20
154.0284862331
 30
0.0
  0
VERTEX
  5
1D3
  8
0
  6
CONTINUOUS
 62
     7
 10
349.5964957044
 20
153.7166404557
 30
0.0
  0
VERTEX
  5
1D4
  8
0
  6
CONTINUOUS
 62
     7
 10
348.9140144206
 20
153.5380377904
 30
0.0
  0
VERTEX
  5
1D5
  8
0
  6
CONTINUOUS
 62
     7
 10
348.1747692344
 20
153.4954949563
 30
0.0
  0
VERTEX
  5
1D6
  8
0
  6
CONTINUOUS
 62
     7
 10
347.3904163837
 20
153.5896838703
 30
0.0
  0
VERTEX
  5
1D7
  8
0
  6
CONTINUOUS
 62
     7
 10
346.5733286025
 20
153.8191175151
 30
0.0
  0
VERTEX
  5
1D8
  8
0
  6
CONTINUOUS
 62
     7
 10
345.7363870214
 20
154.1801802902
 30
0.0
  0
VERTEX
  5
1D9
  8
0
  6
CONTINUOUS
 62
     7
 10
344.8927941409
 20
154.6671760942
 30
0.0
  0
VERTEX
  5
1DA
  8
0
  6
CONTINUOUS
 62
     7
 10
344.0558551941
 20
155.2724239793
 30
0.0
  0
VERTEX
  5
1DB
  8
0
  6
CONTINUOUS
 62
     7
 10
343.2387647787
 20
155.9863813267
 30
0.0
  0
VERTEX
  5
1DC
  8
0
  6
CONTINUOUS
 62
     7
 10
342.4544119279
 20
156.7977869381
 30
0.0
  0
VERTEX
  5
1DD
  8
0
  6
CONTINUOUS
 62
     7
 10
341.7151667417
 20
157.6938440966
 30
0.0
  0
VERTEX
  5
1DE
  8
0
  6
CONTINUOUS
 62
     7
 10
341.032685458
 20
158.6604228795
 30
0.0
  0
VERTEX
  5
1DF
  8
0
  6
CONTINUOUS
 62
     7
 10
340.4177339622
 20
159.6822780616
 30
0.0
  0
VERTEX
  5
1E0
  8
0
  6
CONTINUOUS
 62
     7
 10
339.8800086639
 20
160.7432952035
 30
0.0
  0
VERTEX
  5
1E1
  8
0
  6
CONTINUOUS
 62
     7
 10
339.4279889819
 20
161.8267420654
 30
0.0
  0
VERTEX
  5
1E2
  8
0
  6
CONTINUOUS
 62
     7
 10
339.0688056364
 20
162.9155311448
 30
0.0
  0
VERTEX
  5
1E3
  8
0
  6
CONTINUOUS
 62
     7
 10
338.8081194758
 20
163.9924932419
 30
0.0
  0
VERTEX
  5
1E4
  8
0
  6
CONTINUOUS
 62
     7
 10
338.6500477205
 20
165.0406403822
 30
0.0
  0
VERTEX
  5
1E5
  8
0
  6
CONTINUOUS
 62
     7
 10
338.5970770344
 20
166.04344718
 30
0.0
  0
SEQEND
  5
1E6
  8
0
  6
CONTINUOUS
 62
     7
  0
POLYLINE
  5
150
  8
0
  6
CONTINUOUS
 62
     7
 66
     1
 10
0.0
 20
0.0
 30
0.0
  0
VERTEX
  5
1E7
  8
0
  6
CONTINUOUS
 62
     7
 10
257.633351147
 20
198.4956692417
 30
0.0
  0
VERTEX
  5
1E8
  8
0
  6
CONTINUOUS
 62
     7
 10
257.580380461
 20
199.498475279
 30
0.0
  0
VERTEX
  5
1E9
  8
0
  6
CONTINUOUS
 62
     7
 10
257.4223060715
 20
200.5466247004
 30
0.0
  0
VERTEX
  5
1EA
  8
0
  6
CONTINUOUS
 62
     7
 10
257.1616225451
 20
201.6235852769
 30
0.0
  0
VERTEX
  5
1EB
  8
0
  6
CONTINUOUS
 62
     7
 10
256.8024391995
 20
202.7123739761
 30
0.0
  0
VERTEX
  5
1EC
  8
0
  6
CONTINUOUS
 62
     7
 10
256.3504195176
 20
203.795820838
 30
0.0
  0
VERTEX
  5
1ED
  8
0
  6
CONTINUOUS
 62
     7
 10
255.8126942192
 20
204.8568381699
 30
0.0
  0
VERTEX
  5
1EE
  8
0
  6
CONTINUOUS
 62
     7
 10
255.1977400893
 20
205.8786950628
 30
0.0
  0
VERTEX
  5
1EF
  8
0
  6
CONTINUOUS
 62
     7
 10
254.5152614397
 20
206.8452721349
 30
0.0
  0
VERTEX
  5
1F0
  8
0
  6
CONTINUOUS
 62
     7
 10
253.7760136194
 20
207.7413307191
 30
0.0
  0
VERTEX
  5
1F1
  8
0
  6
CONTINUOUS
 62
     7
 10
252.9916634028
 20
208.5527349049
 30
0.0
  0
VERTEX
  5
1F2
  8
0
  6
CONTINUOUS
 62
     7
 10
252.1745729874
 20
209.2666918246
 30
0.0
  0
VERTEX
  5
1F3
  8
0
  6
CONTINUOUS
 62
     7
 10
251.3376314064
 20
209.8719417531
 30
0.0
  0
VERTEX
  5
1F4
  8
0
  6
CONTINUOUS
 62
     7
 10
250.49404116
 20
210.3589360364
 30
0.0
  0
VERTEX
  5
1F5
  8
0
  6
CONTINUOUS
 62
     7
 10
249.657099579
 20
210.7199982887
 30
0.0
  0
VERTEX
  5
1F6
  8
0
  6
CONTINUOUS
 62
     7
 10
248.8400091636
 20
210.9494338819
 30
0.0
  0
VERTEX
  5
1F7
  8
0
  6
CONTINUOUS
 62
     7
 10
248.0556563129
 20
211.0436227009
 30
0.0
  0
VERTEX
  5
1F8
  8
0
  6
CONTINUOUS
 62
     7
 10
247.3164111267
 20
211.0010799618
 30
0.0
  0
VERTEX
  5
1F9
  8
0
  6
CONTINUOUS
 62
     7
 10
246.6339324771
 20
210.822475966
 30
0.0
  0
VERTEX
  5
1FA
  8
0
  6
CONTINUOUS
 62
     7
 10
246.0189783472
 20
210.5106299985
 30
0.0
  0
VERTEX
  5
1FB
  8
0
  6
CONTINUOUS
 62
     7
 10
245.4812530488
 20
210.070457081
 30
0.0
  0
VERTEX
  5
1FC
  8
0
  6
CONTINUOUS
 62
     7
 10
245.0292333669
 20
209.5089010351
 30
0.0
  0
VERTEX
  5
1FD
  8
0
  6
CONTINUOUS
 62
     7
 10
244.6700473872
 20
208.8348181201
 30
0.0
  0
VERTEX
  5
1FE
  8
0
  6
CONTINUOUS
 62
     7
 10
244.4093638608
 20
208.0588363367
 30
0.0
  0
VERTEX
  5
1FF
  8
0
  6
CONTINUOUS
 62
     7
 10
244.3542147095
 20
207.823019224
 30
0.0
  0
SEQEND
  5
200
  8
0
  6
CONTINUOUS
 62
     7
  0
POLYLINE
  5
151
  8
0
  6
CONTINUOUS
 62
     7
 66
     1
 10
0.0
 20
0.0
 30
0.0
  0
VERTEX
  5
201
  8
0
  6
CONTINUOUS
 62
     7
 10
252.3535653847
 20
193.9662370744
 30
0.0
  0
VERTEX
  5
202
  8
0
  6
CONTINUOUS
 62
     7
 10
252.9916634028
 20
193.7977819846
 30
0.0
  0
VERTEX
  5
203
  8
0
  6
CONTINUOUS
 62
     7
 10
253.7760136194
 20
193.7035945913
 30
0.0
  0
VERTEX
  5
204
  8
0
  6
CONTINUOUS
 62
     7
 10
254.5152614397
 20
193.7461359048
 30
0.0
  0
VERTEX
  5
205
  8
0
  6
CONTINUOUS
 62
     7
 10
255.1977400893
 20
193.9247400907
 30
0.0
  0
VERTEX
  5
206
  8
0
  6
CONTINUOUS
 62
     7
 10
255.8126942192
 20
194.2365858681
 30
0.0
  0
VERTEX
  5
207
  8
0
  6
CONTINUOUS
 62
     7
 10
256.3504195176
 20
194.6767585955
 30
0.0
  0
VERTEX
  5
208
  8
0
  6
CONTINUOUS
 62
     7
 10
256.8024391995
 20
195.2383146413
 30
0.0
  0
VERTEX
  5
209
  8
0
  6
CONTINUOUS
 62
     7
 10
257.1616225451
 20
195.9123994573
 30
0.0
  0
VERTEX
  5
20A
  8
0
  6
CONTINUOUS
 62
     7
 10
257.4223060715
 20
196.6883812406
 30
0.0
  0
VERTEX
  5
20B
  8
0
  6
CONTINUOUS
 62
     7
 10
257.580380461
 20
197.5540210963
 30
0.0
  0
VERTEX
  5
20C
  8
0
  6
CONTINUOUS
 62
     7
 10
257.633351147
 20
198.4956692417
 30
0.0
  0
SEQEND
  5
20D
  8
0
  6
CONTINUOUS
 62
     7
  0
POLYLINE
  5
152
  8
0
  6
CONTINUOUS
 62
     7
 66
     1
 10
0.0
 20
0.0
 30
0.0
  0
VERTEX
  5
20E
  8
0
  6
CONTINUOUS
 62
     7
 10
256.9262429329
 20
198.9038741249
 30
0.0
  0
VERTEX
  5
20F
  8
0
  6
CONTINUOUS
 62
     7
 10
256.8726163365
 20
199.8599230397
 30
0.0
  0
VERTEX
  5
210
  8
0
  6
CONTINUOUS
 62
     7
 10
256.7126901198
 20
200.8608292908
 30
0.0
  0
VERTEX
  5
211
  8
0
  6
CONTINUOUS
 62
     7
 10
256.4493170976
 20
201.8887321537
 30
0.0
  0
VERTEX
  5
212
  8
0
  6
CONTINUOUS
 62
     7
 10
256.0871992778
 20
202.9252874235
 30
0.0
  0
VERTEX
  5
213
  8
0
  6
CONTINUOUS
 62
     7
 10
255.6328009331
 20
203.9519959258
 30
0.0
  0
VERTEX
  5
214
  8
0
  6
CONTINUOUS
 62
     7
 10
255.0942247952
 20
204.950540391
 30
0.0
  0
VERTEX
  5
215
  8
0
  6
CONTINUOUS
 62
     7
 10
254.4810882481
 20
205.9030979921
 30
0.0
  0
VERTEX
  5
216
  8
0
  6
CONTINUOUS
 62
     7
 10
253.8043283991
 20
206.7926726494
 30
0.0
  0
VERTEX
  5
217
  8
0
  6
CONTINUOUS
 62
     7
 10
253.0760229543
 20
207.6033885518
 30
0.0
  0
VERTEX
  5
218
  8
0
  6
CONTINUOUS
 62
     7
 10
252.3091689481
 20
208.320779873
 30
0.0
  0
VERTEX
  5
219
  8
0
  6
CONTINUOUS
 62
     7
 10
251.5174509356
 20
208.9320432228
 30
0.0
  0
VERTEX
  5
21A
  8
0
  6
CONTINUOUS
 62
     7
 10
250.7149960134
 20
209.4262718471
 30
0.0
  0
VERTEX
  5
21B
  8
0
  6
CONTINUOUS
 62
     7
 10
249.9161288416
 20
209.7946426786
 30
0.0
  0
VERTEX
  5
21C
  8
0
  6
CONTINUOUS
 62
     7
 10
249.1351003235
 20
210.0305866552
 30
0.0
  0
VERTEX
  5
21D
  8
0
  6
CONTINUOUS
 62
     7
 10
248.3858452608
 20
210.1298936409
 30
0.0
  0
VERTEX
  5
21E
  8
0
  6
CONTINUOUS
 62
     7
 10
247.6817400096
 20
210.0907869286
 30
0.0
  0
VERTEX
  5
21F
  8
0
  6
CONTINUOUS
 62
     7
 10
247.035349599
 20
209.9139673232
 30
0.0
  0
VERTEX
  5
220
  8
0
  6
CONTINUOUS
 62
     7
 10
246.4582064606
 20
209.6025887859
 30
0.0
  0
VERTEX
  5
221
  8
0
  6
CONTINUOUS
 62
     7
 10
245.960604962
 20
209.1622127875
 30
0.0
  0
VERTEX
  5
222
  8
0
  6
CONTINUOUS
 62
     7
 10
245.55143282
 20
208.6006911806
 30
0.0
  0
VERTEX
  5
223
  8
0
  6
CONTINUOUS
 62
     7
 10
245.4799043497
 20
208.4728651057
 30
0.0
  0
SEQEND
  5
224
  8
0
  6
CONTINUOUS
 62
     7
  0
POLYLINE
  5
153
  8
0
  6
CONTINUOUS
 62
     7
 66
     1
 10
0.0
 20
0.0
 30
0.0
  0
VERTEX
  5
225
  8
0
  6
CONTINUOUS
 62
     7
 10
253.4792523907
 20
194.6160840965
 30
0.0
  0
VERTEX
  5
226
  8
0
  6
CONTINUOUS
 62
     7
 10
253.8043283991
 20
194.6195608271
 30
0.0
  0
VERTEX
  5
227
  8
0
  6
CONTINUOUS
 62
     7
 10
254.4810882481
 20
194.7277650045
 30
0.0
  0
VERTEX
  5
228
  8
0
  6
CONTINUOUS
 62
     7
 10
255.0942247952
 20
194.9724102167
 30
0.0
  0
VERTEX
  5
229
  8
0
  6
CONTINUOUS
 62
     7
 10
255.6328009331
 20
195.349127909
 30
0.0
  0
VERTEX
  5
22A
  8
0
  6
CONTINUOUS
 62
     7
 10
256.0871992778
 20
195.8512000103
 30
0.0
  0
VERTEX
  5
22B
  8
0
  6
CONTINUOUS
 62
     7
 10
256.4493170976
 20
196.4696629445
 30
0.0
  0
VERTEX
  5
22C
  8
0
  6
CONTINUOUS
 62
     7
 10
256.7126901198
 20
197.1934814085
 30
0.0
  0
VERTEX
  5
22D
  8
0
  6
CONTINUOUS
 62
     7
 10
256.8726163365
 20
198.0097411603
 30
0.0
  0
VERTEX
  5
22E
  8
0
  6
CONTINUOUS
 62
     7
 10
256.9262429329
 20
198.9038741249
 30
0.0
  0
SEQEND
  5
22F
  8
0
  6
CONTINUOUS
 62
     7
  0
ARC
  5
154
  8
0
  6
CONTINUOUS
 62
     7
 10
247.1068755913
 20
195.0904449054
 30
0.0
 40
3.498561645640228
 50
230.9862644812
 51
9.0083008809
  0
POLYLINE
  5
155
  8
0
  6
CONTINUOUS
 62
     7
 66
     1
 10
0.0
 20
0.0
 30
0.0
  0
VERTEX
  5
230
  8
0
  6
CONTINUOUS
 62
     7
 10
239.2485744569
 20
202.1695071074
 30
0.0
  0
VERTEX
  5
231
  8
0
  6
CONTINUOUS
 62
     7
 10
239.3012632859
 20
203.0285750402
 30
0.0
  0
VERTEX
  5
232
  8
0
  6
CONTINUOUS
 62
     7
 10
239.4583445903
 20
203.8108095141
 30
0.0
  0
VERTEX
  5
233
  8
0
  6
CONTINUOUS
 62
     7
 10
239.7168997008
 20
204.5016344632
 30
0.0
  0
VERTEX
  5
234
  8
0
  6
CONTINUOUS
 62
     7
 10
240.0721028033
 20
205.0881862048
 30
0.0
  0
VERTEX
  5
235
  8
0
  6
CONTINUOUS
 62
     7
 10
240.517342111
 20
205.5595355063
 30
0.0
  0
VERTEX
  5
236
  8
0
  6
CONTINUOUS
 62
     7
 10
241.0443252314
 20
205.906901285
 30
0.0
  0
VERTEX
  5
237
  8
0
  6
CONTINUOUS
 62
     7
 10
241.6432319487
 20
206.1238141222
 30
0.0
  0
VERTEX
  5
238
  8
0
  6
CONTINUOUS
 62
     7
 10
242.3029091532
 20
206.206232632
 30
0.0
  0
VERTEX
  5
239
  8
0
  6
CONTINUOUS
 62
     7
 10
243.0110657703
 20
206.1526225678
 30
0.0
  0
VERTEX
  5
23A
  8
0
  6
CONTINUOUS
 62
     7
 10
243.7545098362
 20
205.963983461
 30
0.0
  0
VERTEX
  5
23B
  8
0
  6
CONTINUOUS
 62
     7
 10
244.519390843
 20
205.6438273506
 30
0.0
  0
VERTEX
  5
23C
  8
0
  6
CONTINUOUS
 62
     7
 10
245.2914684242
 20
205.1981164502
 30
0.0
  0
VERTEX
  5
23D
  8
0
  6
CONTINUOUS
 62
     7
 10
246.0563494309
 20
204.6351597478
 30
0.0
  0
VERTEX
  5
23E
  8
0
  6
CONTINUOUS
 62
     7
 10
246.7997934969
 20
203.9654366068
 30
0.0
  0
VERTEX
  5
23F
  8
0
  6
CONTINUOUS
 62
     7
 10
247.5079501139
 20
203.2014264445
 30
0.0
  0
VERTEX
  5
240
  8
0
  6
CONTINUOUS
 62
     7
 10
248.1676246843
 20
202.3573623672
 30
0.0
  0
VERTEX
  5
241
  8
0
  6
CONTINUOUS
 62
     7
 10
248.7665340358
 20
201.4489650321
 30
0.0
  0
VERTEX
  5
242
  8
0
  6
CONTINUOUS
 62
     7
 10
249.293514522
 20
200.4931590143
 30
0.0
  0
VERTEX
  5
243
  8
0
  6
CONTINUOUS
 62
     7
 10
249.7387564638
 20
199.5077458296
 30
0.0
  0
VERTEX
  5
244
  8
0
  6
CONTINUOUS
 62
     7
 10
250.0939595664
 20
198.5110853152
 30
0.0
  0
VERTEX
  5
245
  8
0
  6
CONTINUOUS
 62
     7
 10
250.3525120427
 20
197.5217405104
 30
0.0
  0
VERTEX
  5
246
  8
0
  6
CONTINUOUS
 62
     7
 10
250.5095959813
 20
196.5581423021
 30
0.0
  0
VERTEX
  5
247
  8
0
  6
CONTINUOUS
 62
     7
 10
250.5622848103
 20
195.6382411423
 30
0.0
  0
SEQEND
  5
248
  8
0
  6
CONTINUOUS
 62
     7
  0
POLYLINE
  5
156
  8
0
  6
CONTINUOUS
 62
     7
 66
     1
 10
0.0
 20
0.0
 30
0.0
  0
VERTEX
  5
249
  8
0
  6
CONTINUOUS
 62
     7
 10
249.8551765961
 20
195.6382411423
 30
0.0
  0
VERTEX
  5
24A
  8
0
  6
CONTINUOUS
 62
     7
 10
249.8011970199
 20
196.5409465941
 30
0.0
  0
VERTEX
  5
24B
  8
0
  6
CONTINUOUS
 62
     7
 10
249.6403541093
 20
197.4876013364
 30
0.0
  0
VERTEX
  5
24C
  8
0
  6
CONTINUOUS
 62
     7
 10
249.3759274159
 20
198.4589302242
 30
0.0
  0
VERTEX
  5
24D
  8
0
  6
CONTINUOUS
 62
     7
 10
249.0132959313
 20
199.4351632478
 30
0.0
  0
VERTEX
  5
24E
  8
0
  6
CONTINUOUS
 62
     7
 10
248.5598432565
 20
200.3964248816
 30
0.0
  0
VERTEX
  5
24F
  8
0
  6
CONTINUOUS
 62
     7
 10
248.0247995514
 20
201.3231477604
 30
0.0
  0
VERTEX
  5
250
  8
0
  6
CONTINUOUS
 62
     7
 10
247.4190571421
 20
202.196467343
 30
0.0
  0
VERTEX
  5
251
  8
0
  6
CONTINUOUS
 62
     7
 10
246.7549466159
 20
202.998603643
 30
0.0
  0
VERTEX
  5
252
  8
0
  6
CONTINUOUS
 62
     7
 10
246.0459865746
 20
203.7132277489
 30
0.0
  0
VERTEX
  5
253
  8
0
  6
CONTINUOUS
 62
     7
 10
245.3066149478
 20
204.3257918393
 30
0.0
  0
VERTEX
  5
254
  8
0
  6
CONTINUOUS
 62
     7
 10
244.5518755265
 20
204.8238272553
 30
0.0
  0
VERTEX
  5
255
  8
0
  6
CONTINUOUS
 62
     7
 10
243.7971361051
 20
205.1971954268
 30
0.0
  0
VERTEX
  5
256
  8
0
  6
CONTINUOUS
 62
     7
 10
243.0577644784
 20
205.438291646
 30
0.0
  0
VERTEX
  5
257
  8
0
  6
CONTINUOUS
 62
     7
 10
242.3488018029
 20
205.5422169012
 30
0.0
  0
VERTEX
  5
258
  8
0
  6
CONTINUOUS
 62
     7
 10
241.6846939109
 20
205.506844773
 30
0.0
  0
VERTEX
  5
259
  8
0
  6
CONTINUOUS
 62
     7
 10
241.0789541358
 20
205.3328989689
 30
0.0
  0
VERTEX
  5
25A
  8
0
  6
CONTINUOUS
 62
     7
 10
240.5439104306
 20
205.0239244029
 30
0.0
  0
VERTEX
  5
25B
  8
0
  6
CONTINUOUS
 62
     7
 10
240.0904524875
 20
204.5862111248
 30
0.0
  0
VERTEX
  5
25C
  8
0
  6
CONTINUOUS
 62
     7
 10
239.7278210029
 20
204.0286635013
 30
0.0
  0
VERTEX
  5
25D
  8
0
  6
CONTINUOUS
 62
     7
 10
239.4633969437
 20
203.3626336545
 30
0.0
  0
VERTEX
  5
25E
  8
0
  6
CONTINUOUS
 62
     7
 10
239.3025540331
 20
202.6016841839
 30
0.0
  0
VERTEX
  5
25F
  8
0
  6
CONTINUOUS
 62
     7
 10
239.2485744569
 20
201.7613022243
 30
0.0
  0
VERTEX
  5
260
  8
0
  6
CONTINUOUS
 62
     7
 10
239.3025540331
 20
200.858596012
 30
0.0
  0
VERTEX
  5
261
  8
0
  6
CONTINUOUS
 62
     7
 10
239.4633969437
 20
199.9119420301
 30
0.0
  0
VERTEX
  5
262
  8
0
  6
CONTINUOUS
 62
     7
 10
239.7278210029
 20
198.9406139026
 30
0.0
  0
VERTEX
  5
263
  8
0
  6
CONTINUOUS
 62
     7
 10
240.0904524875
 20
197.9643816394
 30
0.0
  0
VERTEX
  5
264
  8
0
  6
CONTINUOUS
 62
     7
 10
240.5439104306
 20
197.0031165841
 30
0.0
  0
VERTEX
  5
265
  8
0
  6
CONTINUOUS
 62
     7
 10
241.0789541358
 20
196.0763937053
 30
0.0
  0
VERTEX
  5
266
  8
0
  6
CONTINUOUS
 62
     7
 10
241.6846939109
 20
195.2030764038
 30
0.0
  0
VERTEX
  5
267
  8
0
  6
CONTINUOUS
 62
     7
 10
242.3488018029
 20
194.4009416245
 30
0.0
  0
VERTEX
  5
268
  8
0
  6
CONTINUOUS
 62
     7
 10
243.0577644784
 20
193.6863146671
 30
0.0
  0
VERTEX
  5
269
  8
0
  6
CONTINUOUS
 62
     7
 10
243.7971361051
 20
193.0737513372
 30
0.0
  0
VERTEX
  5
26A
  8
0
  6
CONTINUOUS
 62
     7
 10
244.5518755265
 20
192.5757153508
 30
0.0
  0
VERTEX
  5
26B
  8
0
  6
CONTINUOUS
 62
     7
 10
245.3066149478
 20
192.2023477496
 30
0.0
  0
VERTEX
  5
26C
  8
0
  6
CONTINUOUS
 62
     7
 10
246.0459865746
 20
191.96125077
 30
0.0
  0
VERTEX
  5
26D
  8
0
  6
CONTINUOUS
 62
     7
 10
246.7549466159
 20
191.8573283663
 30
0.0
  0
VERTEX
  5
26E
  8
0
  6
CONTINUOUS
 62
     7
 10
247.4190571421
 20
191.8926989739
 30
0.0
  0
VERTEX
  5
26F
  8
0
  6
CONTINUOUS
 62
     7
 10
248.0247995514
 20
192.0666424968
 30
0.0
  0
VERTEX
  5
270
  8
0
  6
CONTINUOUS
 62
     7
 10
248.5598432565
 20
192.3756170628
 30
0.0
  0
VERTEX
  5
271
  8
0
  6
CONTINUOUS
 62
     7
 10
249.0132959313
 20
192.8133337625
 30
0.0
  0
VERTEX
  5
272
  8
0
  6
CONTINUOUS
 62
     7
 10
249.3759274159
 20
193.3708806255
 30
0.0
  0
VERTEX
  5
273
  8
0
  6
CONTINUOUS
 62
     7
 10
249.6403541093
 20
194.0369097121
 30
0.0
  0
VERTEX
  5
274
  8
0
  6
CONTINUOUS
 62
     7
 10
249.8011970199
 20
194.7978584222
 30
0.0
  0
VERTEX
  5
275
  8
0
  6
CONTINUOUS
 62
     7
 10
249.8551765961
 20
195.6382411423
 30
0.0
  0
SEQEND
  5
276
  8
0
  6
CONTINUOUS
 62
     7
  0
POLYLINE
  5
157
  8
0
  6
CONTINUOUS
 62
     7
 66
     1
 10
0.0
 20
0.0
 30
0.0
  0
VERTEX
  5
277
  8
0
  6
CONTINUOUS
 62
     7
 10
246.9161635798
 20
209.3019979627
 30
0.0
  0
VERTEX
  5
278
  8
0
  6
CONTINUOUS
 62
     7
 10
247.054731881
 20
209.3766351885
 30
0.0
  0
VERTEX
  5
279
  8
0
  6
CONTINUOUS
 62
     7
 10
247.6536385983
 20
209.5935480257
 30
0.0
  0
VERTEX
  5
27A
  8
0
  6
CONTINUOUS
 62
     7
 10
248.3133158029
 20
209.6759665355
 30
0.0
  0
VERTEX
  5
27B
  8
0
  6
CONTINUOUS
 62
     7
 10
249.0214724199
 20
209.6223564713
 30
0.0
  0
VERTEX
  5
27C
  8
0
  6
CONTINUOUS
 62
     7
 10
249.7649164859
 20
209.4337173645
 30
0.0
  0
VERTEX
  5
27D
  8
0
  6
CONTINUOUS
 62
     7
 10
250.5297974926
 20
209.113561254
 30
0.0
  0
VERTEX
  5
27E
  8
0
  6
CONTINUOUS
 62
     7
 10
251.3018750738
 20
208.6678503537
 30
0.0
  0
VERTEX
  5
27F
  8
0
  6
CONTINUOUS
 62
     7
 10
252.0667560806
 20
208.1048936513
 30
0.0
  0
VERTEX
  5
280
  8
0
  6
CONTINUOUS
 62
     7
 10
252.8102001465
 20
207.4351705103
 30
0.0
  0
VERTEX
  5
281
  8
0
  6
CONTINUOUS
 62
     7
 10
253.5183567636
 20
206.6711603479
 30
0.0
  0
VERTEX
  5
282
  8
0
  6
CONTINUOUS
 62
     7
 10
254.1780313339
 20
205.8270962706
 30
0.0
  0
VERTEX
  5
283
  8
0
  6
CONTINUOUS
 62
     7
 10
254.7769406854
 20
204.9186989355
 30
0.0
  0
VERTEX
  5
284
  8
0
  6
CONTINUOUS
 62
     7
 10
255.3039211716
 20
203.9628929178
 30
0.0
  0
VERTEX
  5
285
  8
0
  6
CONTINUOUS
 62
     7
 10
255.7491631135
 20
202.9774797331
 30
0.0
  0
VERTEX
  5
286
  8
0
  6
CONTINUOUS
 62
     7
 10
256.104366216
 20
201.9808192187
 30
0.0
  0
VERTEX
  5
287
  8
0
  6
CONTINUOUS
 62
     7
 10
256.3629186924
 20
200.9914744139
 30
0.0
  0
VERTEX
  5
288
  8
0
  6
CONTINUOUS
 62
     7
 10
256.5200026309
 20
200.0278762056
 30
0.0
  0
VERTEX
  5
289
  8
0
  6
CONTINUOUS
 62
     7
 10
256.5726914599
 20
199.1079750458
 30
0.0
  0
VERTEX
  5
28A
  8
0
  6
CONTINUOUS
 62
     7
 10
256.5200026309
 20
198.2489063526
 30
0.0
  0
VERTEX
  5
28B
  8
0
  6
CONTINUOUS
 62
     7
 10
256.3629186924
 20
197.4666733993
 30
0.0
  0
VERTEX
  5
28C
  8
0
  6
CONTINUOUS
 62
     7
 10
256.104366216
 20
196.7758473098
 30
0.0
  0
VERTEX
  5
28D
  8
0
  6
CONTINUOUS
 62
     7
 10
255.7491631135
 20
196.1892955682
 30
0.0
  0
VERTEX
  5
28E
  8
0
  6
CONTINUOUS
 62
     7
 10
255.3039211716
 20
195.7179477874
 30
0.0
  0
VERTEX
  5
28F
  8
0
  6
CONTINUOUS
 62
     7
 10
254.9155116208
 20
195.4452165733
 30
0.0
  0
SEQEND
  5
290
  8
0
  6
CONTINUOUS
 62
     7
  0
POLYLINE
  5
158
  8
0
  6
CONTINUOUS
 62
     7
 66
     1
 10
0.0
 20
0.0
 30
0.0
  0
VERTEX
  5
291
  8
0
  6
CONTINUOUS
 62
     7
 10
240.4860111975
 20
201.0469451994
 30
0.0
  0
VERTEX
  5
292
  8
0
  6
CONTINUOUS
 62
     7
 10
240.538663148
 20
201.7696986345
 30
0.0
  0
VERTEX
  5
293
  8
0
  6
CONTINUOUS
 62
     7
 10
240.6952544953
 20
202.4129424994
 30
0.0
  0
VERTEX
  5
294
  8
0
  6
CONTINUOUS
 62
     7
 10
240.9517338735
 20
202.9600154325
 30
0.0
  0
VERTEX
  5
295
  8
0
  6
CONTINUOUS
 62
     7
 10
241.3014473491
 20
203.3967547089
 30
0.0
  0
VERTEX
  5
296
  8
0
  6
CONTINUOUS
 62
     7
 10
241.7353544228
 20
203.7118392299
 30
0.0
  0
VERTEX
  5
297
  8
0
  6
CONTINUOUS
 62
     7
 10
242.2422018863
 20
203.8971172981
 30
0.0
  0
VERTEX
  5
298
  8
0
  6
CONTINUOUS
 62
     7
 10
242.8088715329
 20
203.9477853596
 30
0.0
  0
VERTEX
  5
299
  8
0
  6
CONTINUOUS
 62
     7
 10
243.4206804542
 20
203.8625340404
 30
0.0
  0
VERTEX
  5
29A
  8
0
  6
CONTINUOUS
 62
     7
 10
244.061791972
 20
203.6435671969
 30
0.0
  0
VERTEX
  5
29B
  8
0
  6
CONTINUOUS
 62
     7
 10
244.7155896912
 20
203.2965639277
 30
0.0
  0
VERTEX
  5
29C
  8
0
  6
CONTINUOUS
 62
     7
 10
245.3651516521
 20
202.8305021908
 30
0.0
  0
VERTEX
  5
29D
  8
0
  6
CONTINUOUS
 62
     7
 10
245.9936507254
 20
202.257456558
 30
0.0
  0
VERTEX
  5
29E
  8
0
  6
CONTINUOUS
 62
     7
 10
246.584807691
 20
201.5922689769
 30
0.0
  0
VERTEX
  5
29F
  8
0
  6
CONTINUOUS
 62
     7
 10
247.1233127061
 20
200.8521678187
 30
0.0
  0
VERTEX
  5
2A0
  8
0
  6
CONTINUOUS
 62
     7
 10
247.5952177979
 20
200.0563207626
 30
0.0
  0
VERTEX
  5
2A1
  8
0
  6
CONTINUOUS
 62
     7
 10
247.9883030148
 20
199.2253397692
 30
0.0
  0
VERTEX
  5
2A2
  8
0
  6
CONTINUOUS
 62
     7
 10
248.2923872584
 20
198.380746504
 30
0.0
  0
VERTEX
  5
2A3
  8
0
  6
CONTINUOUS
 62
     7
 10
248.4995917024
 20
197.5444164635
 30
0.0
  0
VERTEX
  5
2A4
  8
0
  6
CONTINUOUS
 62
     7
 10
248.6045557944
 20
196.7380086489
 30
0.0
  0
VERTEX
  5
2A5
  8
0
  6
CONTINUOUS
 62
     7
 10
248.6045557944
 20
195.9824096783
 30
0.0
  0
VERTEX
  5
2A6
  8
0
  6
CONTINUOUS
 62
     7
 10
248.4995917024
 20
195.2971900643
 30
0.0
  0
VERTEX
  5
2A7
  8
0
  6
CONTINUOUS
 62
     7
 10
248.2923872584
 20
194.7000939431
 30
0.0
  0
VERTEX
  5
2A8
  8
0
  6
CONTINUOUS
 62
     7
 10
247.9883030148
 20
194.2065884922
 30
0.0
  0
VERTEX
  5
2A9
  8
0
  6
CONTINUOUS
 62
     7
 10
247.5952177979
 20
193.8294536496
 30
0.0
  0
VERTEX
  5
2AA
  8
0
  6
CONTINUOUS
 62
     7
 10
247.1233127061
 20
193.5784573756
 30
0.0
  0
VERTEX
  5
2AB
  8
0
  6
CONTINUOUS
 62
     7
 10
246.584807691
 20
193.4601004933
 30
0.0
  0
VERTEX
  5
2AC
  8
0
  6
CONTINUOUS
 62
     7
 10
245.9936507254
 20
193.4774485967
 30
0.0
  0
VERTEX
  5
2AD
  8
0
  6
CONTINUOUS
 62
     7
 10
245.3651516521
 20
193.6300525481
 30
0.0
  0
VERTEX
  5
2AE
  8
0
  6
CONTINUOUS
 62
     7
 10
244.7155896912
 20
193.913959468
 30
0.0
  0
VERTEX
  5
2AF
  8
0
  6
CONTINUOUS
 62
     7
 10
244.061791972
 20
194.321813837
 30
0.0
  0
VERTEX
  5
2B0
  8
0
  6
CONTINUOUS
 62
     7
 10
243.4206804542
 20
194.8430585961
 30
0.0
  0
VERTEX
  5
2B1
  8
0
  6
CONTINUOUS
 62
     7
 10
242.8088715329
 20
195.4641875822
 30
0.0
  0
VERTEX
  5
2B2
  8
0
  6
CONTINUOUS
 62
     7
 10
242.2422018863
 20
196.169118111
 30
0.0
  0
VERTEX
  5
2B3
  8
0
  6
CONTINUOUS
 62
     7
 10
241.7353544228
 20
196.9395898044
 30
0.0
  0
VERTEX
  5
2B4
  8
0
  6
CONTINUOUS
 62
     7
 10
241.3014473491
 20
197.7556527691
 30
0.0
  0
VERTEX
  5
2B5
  8
0
  6
CONTINUOUS
 62
     7
 10
240.9517338735
 20
198.5961626299
 30
0.0
  0
VERTEX
  5
2B6
  8
0
  6
CONTINUOUS
 62
     7
 10
240.6952544953
 20
199.4393607302
 30
0.0
  0
VERTEX
  5
2B7
  8
0
  6
CONTINUOUS
 62
     7
 10
240.538663148
 20
200.2634011163
 30
0.0
  0
VERTEX
  5
2B8
  8
0
  6
CONTINUOUS
 62
     7
 10
240.4860111975
 20
201.0469451994
 30
0.0
  0
SEQEND
  5
2B9
  8
0
  6
CONTINUOUS
 62
     7
  0
ARC
  5
159
  8
0
  6
CONTINUOUS
 62
     7
 10
245.911363099
 20
196.9692708887
 30
0.0
 40
2.69543022632806
 50
325.127381199
 51
356.1883845728
  0
ARC
  5
15A
  8
0
  6
CONTINUOUS
 62
     7
 10
243.7332746874
 20
200.7429107184
 30
0.0
 40
2.694962918408071
 50
63.804207497
 51
94.8806445672
  0
POLYLINE
  5
15B
  8
0
  6
CONTINUOUS
 62
     7
 66
     1
 10
0.0
 20
0.0
 30
0.0
  0
VERTEX
  5
2BA
  8
0
  6
CONTINUOUS
 62
     7
 10
243.5039863345
 20
203.4281019561
 30
0.0
  0
VERTEX
  5
2BB
  8
0
  6
CONTINUOUS
 62
     7
 10
242.6131178608
 20
203.5654618135
 30
0.0
  0
VERTEX
  5
2BC
  8
0
  6
CONTINUOUS
 62
     7
 10
241.7039550207
 20
203.6691462431
 30
0.0
  0
SEQEND
  5
2BD
  8
0
  6
CONTINUOUS
 62
     7
  0
ARC
  5
15C
  8
0
  6
CONTINUOUS
 62
     7
 10
238.0145207613
 20
200.0637574513
 30
0.0
 40
5.158561184485035
 50
31.8746759231
 51
44.3399103042
  0
ARC
  5
15D
  8
0
  6
CONTINUOUS
 62
     7
 10
246.2140357567
 20
200.7612018952
 30
0.0
 40
4.323266937742547
 50
152.0457671075
 51
207.9542328925
  0
LINE
  5
15E
  8
0
  6
CONTINUOUS
 62
     7
 10
242.3951975806
 20
198.7346008
 30
0.0
 11
241.7039550207
 21
197.0551658755
 31
0.0
  0
POLYLINE
  5
15F
  8
0
  6
CONTINUOUS
 62
     7
 66
     1
 10
0.0
 20
0.0
 30
0.0
  0
VERTEX
  5
2BE
  8
0
  6
CONTINUOUS
 62
     7
 10
241.7039550207
 20
197.0551658755
 30
0.0
  0
VERTEX
  5
2BF
  8
0
  6
CONTINUOUS
 62
     7
 10
243.2266073877
 20
196.8617553253
 30
0.0
  0
VERTEX
  5
2C0
  8
0
  6
CONTINUOUS
 62
     7
 10
243.5039863345
 20
196.8141215885
 30
0.0
  0
SEQEND
  5
2C1
  8
0
  6
CONTINUOUS
 62
     7
  0
ARC
  5
160
  8
0
  6
CONTINUOUS
 62
     7
 10
247.167730513
 20
199.1073969209
 30
0.0
 40
4.322283326618761
 50
212.0439984791
 51
267.9613780536
  0
LINE
  5
161
  8
0
  6
CONTINUOUS
 62
     7
 10
247.0139732443
 20
194.7878492759
 30
0.0
 11
247.4315194383
 21
193.7487133171
 31
0.0
  0
POLYLINE
  5
162
  8
0
  6
CONTINUOUS
 62
     7
 66
     1
 10
0.0
 20
0.0
 30
0.0
  0
VERTEX
  5
2C2
  8
0
  6
CONTINUOUS
 62
     7
 10
247.4315194383
 20
193.7487133171
 30
0.0
  0
VERTEX
  5
2C3
  8
0
  6
CONTINUOUS
 62
     7
 10
248.0253290212
 20
195.1641022345
 30
0.0
  0
VERTEX
  5
2C4
  8
0
  6
CONTINUOUS
 62
     7
 10
248.1227619982
 20
195.4281482415
 30
0.0
  0
SEQEND
  5
2C5
  8
0
  6
CONTINUOUS
 62
     7
  0
POLYLINE
  5
163
  8
0
  6
CONTINUOUS
 62
     7
 66
     1
 10
0.0
 20
0.0
 30
0.0
  0
VERTEX
  5
2C6
  8
0
  6
CONTINUOUS
 62
     7
 10
245.4799043497
 20
208.4728651057
 30
0.0
  0
VERTEX
  5
2C7
  8
0
  6
CONTINUOUS
 62
     7
 10
245.7444706545
 20
208.8960175671
 30
0.0
  0
VERTEX
  5
2C8
  8
0
  6
CONTINUOUS
 62
     7
 10
246.1988716334
 20
209.3980873872
 30
0.0
  0
VERTEX
  5
2C9
  8
0
  6
CONTINUOUS
 62
     7
 10
246.7374451371
 20
209.7748066002
 30
0.0
  0
VERTEX
  5
2CA
  8
0
  6
CONTINUOUS
 62
     7
 10
247.3505816841
 20
210.0194518124
 30
0.0
  0
VERTEX
  5
2CB
  8
0
  6
CONTINUOUS
 62
     7
 10
248.0273441674
 20
210.1276546592
 30
0.0
  0
VERTEX
  5
2CC
  8
0
  6
CONTINUOUS
 62
     7
 10
248.755646978
 20
210.0974885145
 30
0.0
  0
VERTEX
  5
2CD
  8
0
  6
CONTINUOUS
 62
     7
 10
249.5225036183
 20
209.9294875256
 30
0.0
  0
VERTEX
  5
2CE
  8
0
  6
CONTINUOUS
 62
     7
 10
250.3142216309
 20
209.6266527152
 30
0.0
  0
VERTEX
  5
2CF
  8
0
  6
CONTINUOUS
 62
     7
 10
251.1166712847
 20
209.1943896487
 30
0.0
  0
VERTEX
  5
2D0
  8
0
  6
CONTINUOUS
 62
     7
 10
251.9155437248
 20
208.6404050352
 30
0.0
  0
VERTEX
  5
2D1
  8
0
  6
CONTINUOUS
 62
     7
 10
252.6965722429
 20
207.9745926792
 30
0.0
  0
VERTEX
  5
2D2
  8
0
  6
CONTINUOUS
 62
     7
 10
253.4458246715
 20
207.2088297037
 30
0.0
  0
VERTEX
  5
2D3
  8
0
  6
CONTINUOUS
 62
     7
 10
254.1499299227
 20
206.3567803723
 30
0.0
  0
VERTEX
  5
2D4
  8
0
  6
CONTINUOUS
 62
     7
 10
254.7963229674
 20
205.4336527638
 30
0.0
  0
VERTEX
  5
2D5
  8
0
  6
CONTINUOUS
 62
     7
 10
255.37346874
 20
204.455917422
 30
0.0
  0
VERTEX
  5
2D6
  8
0
  6
CONTINUOUS
 62
     7
 10
255.8710649702
 20
203.4410260036
 30
0.0
  0
VERTEX
  5
2D7
  8
0
  6
CONTINUOUS
 62
     7
 10
256.2802371123
 20
202.4070842973
 30
0.0
  0
VERTEX
  5
2D8
  8
0
  6
CONTINUOUS
 62
     7
 10
256.5936832247
 20
201.3725450104
 30
0.0
  0
VERTEX
  5
2D9
  8
0
  6
CONTINUOUS
 62
     7
 10
256.8058056791
 20
200.3558708963
 30
0.0
  0
VERTEX
  5
2DA
  8
0
  6
CONTINUOUS
 62
     7
 10
256.9128217958
 20
199.3752024423
 30
0.0
  0
VERTEX
  5
2DB
  8
0
  6
CONTINUOUS
 62
     7
 10
256.9128217958
 20
198.4480407621
 30
0.0
  0
VERTEX
  5
2DC
  8
0
  6
CONTINUOUS
 62
     7
 10
256.8058056791
 20
197.5909312468
 30
0.0
  0
VERTEX
  5
2DD
  8
0
  6
CONTINUOUS
 62
     7
 10
256.5936832247
 20
196.8191681252
 30
0.0
  0
VERTEX
  5
2DE
  8
0
  6
CONTINUOUS
 62
     7
 10
256.2802371123
 20
196.1465256363
 30
0.0
  0
VERTEX
  5
2DF
  8
0
  6
CONTINUOUS
 62
     7
 10
255.8710649702
 20
195.5850044097
 30
0.0
  0
VERTEX
  5
2E0
  8
0
  6
CONTINUOUS
 62
     7
 10
255.37346874
 20
195.1446249896
 30
0.0
  0
VERTEX
  5
2E1
  8
0
  6
CONTINUOUS
 62
     7
 10
254.7963229674
 20
194.8332485434
 30
0.0
  0
VERTEX
  5
2E2
  8
0
  6
CONTINUOUS
 62
     7
 10
254.1499299227
 20
194.6564298883
 30
0.0
  0
VERTEX
  5
2E3
  8
0
  6
CONTINUOUS
 62
     7
 10
253.4792523907
 20
194.6160840965
 30
0.0
  0
SEQEND
  5
2E4
  8
0
  6
CONTINUOUS
 62
     7
  0
LINE
  5
164
  8
0
  6
CONTINUOUS
 62
     7
 10
248.1226658507
 20
195.4278838941
 30
0.0
 11
247.0139732443
 21
194.7878492759
 31
0.0
  0
LINE
  5
165
  8
0
  6
CONTINUOUS
 62
     7
 10
242.3951975806
 20
202.7878029905
 30
0.0
 11
243.5044539011
 21
203.4281630339
 31
0.0
  0
LINE
  5
166
  8
0
  6
CONTINUOUS
 62
     7
 10
243.5039863345
 20
196.8141215885
 30
0.0
 11
247.9276444801
 21
199.3678450784
 31
0.0
  0
LINE
  5
167
  8
0
  6
CONTINUOUS
 62
     7
 10
246.8190190453
 20
201.288418572
 30
0.0
 11
242.3951975806
 21
198.7346008
 31
0.0
  0
LINE
  5
168
  8
0
  6
CONTINUOUS
 62
     7
 10
247.4273403149
 20
200.3592058774
 30
0.0
 11
241.7039550207
 21
197.0551658755
 31
0.0
  0
LINE
  5
169
  8
0
  6
CONTINUOUS
 62
     7
 10
80.4560510525
 20
135.8849665002
 30
0.0
 11
60.4560514995
 21
135.8849665002
 31
0.0
  0
LINE
  5
16A
  8
0
  6
CONTINUOUS
 62
     7
 10
60.4560514995
 20
116.8849665873
 30
0.0
 11
80.4560510525
 21
116.8849665873
 31
0.0
  0
LINE
  5
16B
  8
0
  6
CONTINUOUS
 62
     7
 10
176.4560518869
 20
135.8849665002
 30
0.0
 11
156.456052334
 21
135.8849665002
 31
0.0
  0
LINE
  5
16C
  8
0
  6
CONTINUOUS
 62
     7
 10
156.456052334
 20
116.8849665873
 30
0.0
 11
176.4560518869
 21
116.8849665873
 31
0.0
  0
LINE
  5
16D
  8
0
  6
CONTINUOUS
 62
     7
 10
156.456052334
 20
135.8849665002
 30
0.0
 11
80.4560510525
 21
135.8849665002
 31
0.0
  0
LINE
  5
16E
  8
0
  6
CONTINUOUS
 62
     7
 10
80.4560510525
 20
116.8849665873
 30
0.0
 11
156.456052334
 21
116.8849665873
 31
0.0
  0
CIRCLE
  5
16F
  8
0
  6
CONTINUOUS
 62
     7
 10
60.4560510592
 20
126.384966603
 30
0.0
 40
9.499999999999993
  0
CIRCLE
  5
170
  8
0
  6
CONTINUOUS
 62
   254
 10
60.4560510592
 20
126.384966603
 30
0.0
 40
8.499999999999993
  0
CIRCLE
  5
171
  8
0
  6
CONTINUOUS
 62
     7
 10
176.4560510592
 20
126.384966603
 30
0.0
 40
9.499999999999972
  0
CIRCLE
  5
172
  8
0
  6
CONTINUOUS
 62
   254
 10
60.4560510592
 20
126.384966603
 30
0.0
 40
5.75
  0
ARC
  5
173
  8
0
  6
CONTINUOUS
 62
     7
 10
60.4560510592
 20
126.384966603
 30
0.0
 40
4.75000000000002
 50
328.4990585601
 51
31.5009414399
  0
LINE
  5
174
  8
0
  6
CONTINUOUS
 62
     7
 10
64.5060492763
 20
128.8669014202
 30
0.0
 11
64.5060492763
 21
130.4349664451
 31
0.0
  0
LINE
  5
175
  8
0
  6
CONTINUOUS
 62
     7
 10
64.5060492763
 20
130.4349664451
 30
0.0
 11
62.9379851827
 21
130.4349664451
 31
0.0
  0
ARC
  5
176
  8
0
  6
CONTINUOUS
 62
     7
 10
60.4560510592
 20
126.384966603
 30
0.0
 40
4.750000000000014
 50
58.4990585601
 51
121.5009414399
  0
LINE
  5
177
  8
0
  6
CONTINUOUS
 62
     7
 10
57.9741140911
 20
130.4349664451
 30
0.0
 11
56.4060499975
 21
130.4349664451
 31
0.0
  0
LINE
  5
178
  8
0
  6
CONTINUOUS
 62
     7
 10
56.4060499975
 20
130.4349664451
 30
0.0
 11
56.4060499975
 21
128.8669014202
 31
0.0
  0
ARC
  5
179
  8
0
  6
CONTINUOUS
 62
     7
 10
60.4560510592
 20
126.384966603
 30
0.0
 40
4.750000000000004
 50
148.4990585601
 51
211.5009414399
  0
LINE
  5
17A
  8
0
  6
CONTINUOUS
 62
     7
 10
56.4060499975
 20
123.9030317255
 30
0.0
 11
56.4060499975
 21
122.3349667006
 31
0.0
  0
LINE
  5
17B
  8
0
  6
CONTINUOUS
 62
     7
 10
56.4060499975
 20
122.3349667006
 30
0.0
 11
57.9741140911
 21
122.3349667006
 31
0.0
  0
ARC
  5
17C
  8
0
  6
CONTINUOUS
 62
     7
 10
60.4560510592
 20
126.384966603
 30
0.0
 40
4.750000000000003
 50
238.4990585601
 51
301.5009414399
  0
LINE
  5
17D
  8
0
  6
CONTINUOUS
 62
     7
 10
62.9379851827
 20
122.3349667006
 30
0.0
 11
64.5060492763
 21
122.3349667006
 31
0.0
  0
LINE
  5
17E
  8
0
  6
CONTINUOUS
 62
     7
 10
64.5060492763
 20
122.3349667006
 30
0.0
 11
64.5060492763
 21
123.9030317255
 31
0.0
  0
CIRCLE
  5
17F
  8
0
  6
CONTINUOUS
 62
   254
 10
60.4560510592
 20
126.384966603
 30
0.0
 40
7.500000000000007
  0
CIRCLE
  5
180
  8
0
  6
CONTINUOUS
 62
   254
 10
60.4560510592
 20
126.384966603
 30
0.0
 40
8.000000000000007
  0
CIRCLE
  5
181
  8
0
  6
CONTINUOUS
 62
     7
 10
60.4560510592
 20
126.384966603
 30
0.0
 40
8.5
  0
DIMENSION
  5
182
  8
BLOCK_0_4MM
 62
     7
  2
*D8
 10
64.5060510592
 20
139.9611873861
 30
0.0
 11
60.4560510592
 21
139.9611873861
 31
0.0
 70
   160
  1
{\fGDT;o}<>
  3
SLDDIMSTYLE3
 13
56.4060510592
 23
130.434966603
 33
0.0
 14
64.5060510592
 24
130.434966603
 34
0.0
  0
ENDSEC
  0
EOF
