  0
SECTION
  2
HEADER
  9
$ACADVER
  1
AC1009
  9
$DWGCODEPAGE
  3
ansi_1252
  9
$INSBASE
 10
0.0
 20
0.0
 30
0.0
  9
$EXTMIN
 10
0.0
 20
0.0
 30
0.0
  9
$EXTMAX
 10
420.0
 20
297.0
 30
0.0
  9
$LIMMIN
 10
0.0
 20
0.0
  9
$LIMMAX
 10
420.0
 20
297.0
  9
$ORTHOMODE
 70
     0
  9
$REGENMODE
 70
     1
  9
$FILLMODE
 70
     1
  9
$QTEXTMODE
 70
     0
  9
$MIRRTEXT
 70
     1
  9
$DRAGMODE
 70
     2
  9
$LTSCALE
 40
1.0
  9
$OSMODE
 70
    37
  9
$ATTMODE
 70
     1
  9
$TEXTSIZE
 40
3.5277777778
  9
$TRACEWID
 40
1.0
  9
$TEXTSTYLE
  7
STANDARD
  9
$CLAYER
  8
0
  9
$CELTYPE
  6
BYLAYER
  9
$CECOLOR
 62
   256
  9
$DIMSCALE
 40
1.0
  9
$DIMASZ
 40
3.302
  9
$DIMEXO
 40
1.0
  9
$DIMDLI
 40
3.75
  9
$DIMRND
 40
0.0
  9
$DIMDLE
 40
0.0
  9
$DIMEXE
 40
1.0
  9
$DIMTP
 40
0.0
  9
$DIMTM
 40
0.0
  9
$DIMTXT
 40
3.5277777778
  9
$DIMCEN
 40
2.5
  9
$DIMTSZ
 40
0.0
  9
$DIMTOL
 70
     0
  9
$DIMLIM
 70
     0
  9
$DIMTIH
 70
     1
  9
$DIMTOH
 70
     1
  9
$DIMSE1
 70
     0
  9
$DIMSE2
 70
     0
  9
$DIMTAD
 70
     1
  9
$DIMZIN
 70
     0
  9
$DIMBLK
  1

  9
$DIMASO
 70
     1
  9
$DIMSHO
 70
     1
  9
$DIMPOST
  1

  9
$DIMAPOST
  1

  9
$DIMALT
 70
     0
  9
$DIMALTD
 70
     3
  9
$DIMALTF
 40
0.0393700787
  9
$DIMLFAC
 40
1.0
  9
$DIMTOFL
 70
     1
  9
$DIMTVP
 40
0.0
  9
$DIMTIX
 70
     0
  9
$DIMSOXD
 70
     0
  9
$DIMSAH
 70
     0
  9
$DIMBLK1
  1

  9
$DIMBLK2
  1

  9
$DIMSTYLE
  2
ISO-25
  9
$DIMCLRD
 70
     0
  9
$DIMCLRE
 70
     0
  9
$DIMCLRT
 70
     0
  9
$DIMTFAC
 40
1.0
  9
$DIMGAP
 40
1.524
  9
$LUNITS
 70
     2
  9
$LUPREC
 70
     2
  9
$SKETCHINC
 40
1.0
  9
$FILLETRAD
 40
10.0
  9
$AUNITS
 70
     0
  9
$AUPREC
 70
     2
  9
$MENU
  1
.
  9
$ELEVATION
 40
0.0
  9
$PELEVATION
 40
0.0
  9
$THICKNESS
 40
0.0
  9
$LIMCHECK
 70
     0
  9
$CHAMFERA
 40
10.0
  9
$CHAMFERB
 40
10.0
  9
$SKPOLY
 70
     0
  9
$TDCREATE
 40
2456049.595535868
  9
$TDUPDATE
 40
2456049.595535879
  9
$TDINDWG
 40
0.0000000116
  9
$TDUSRTIMER
 40
0.0000000116
  9
$USRTIMER
 70
     1
  9
$ANGBASE
 50
0.0
  9
$ANGDIR
 70
     0
  9
$PDMODE
 70
     0
  9
$PDSIZE
 40
-1.0
  9
$PLINEWID
 40
0.0
  9
$COORDS
 70
     1
  9
$SPLFRAME
 70
     0
  9
$SPLINETYPE
 70
     6
  9
$SPLINESEGS
 70
     8
  9
$ATTDIA
 70
     0
  9
$ATTREQ
 70
     1
  9
$HANDLING
 70
     1
  9
$HANDSEED
  5
288
  9
$SURFTAB1
 70
     6
  9
$SURFTAB2
 70
     6
  9
$SURFTYPE
 70
     6
  9
$SURFU
 70
     6
  9
$SURFV
 70
     6
  9
$UCSNAME
  2

  9
$UCSORG
 10
0.0
 20
0.0
 30
0.0
  9
$UCSXDIR
 10
1.0
 20
0.0
 30
0.0
  9
$UCSYDIR
 10
0.0
 20
1.0
 30
0.0
  9
$PUCSNAME
  2

  9
$PUCSORG
 10
0.0
 20
0.0
 30
0.0
  9
$PUCSXDIR
 10
1.0
 20
0.0
 30
0.0
  9
$PUCSYDIR
 10
0.0
 20
1.0
 30
0.0
  9
$USERI1
 70
     0
  9
$USERI2
 70
     0
  9
$USERI3
 70
     0
  9
$USERI4
 70
     0
  9
$USERI5
 70
     0
  9
$USERR1
 40
0.0
  9
$USERR2
 40
0.0
  9
$USERR3
 40
0.0
  9
$USERR4
 40
0.0
  9
$USERR5
 40
0.0
  9
$WORLDVIEW
 70
     1
  9
$SHADEDGE
 70
     3
  9
$SHADEDIF
 70
    70
  9
$TILEMODE
 70
     1
  9
$MAXACTVP
 70
    64
  9
$PLIMCHECK
 70
     0
  9
$PEXTMIN
 10
1.0000000000E+20
 20
1.0000000000E+20
 30
1.0000000000E+20
  9
$PEXTMAX
 10
-1.0000000000E+20
 20
-1.0000000000E+20
 30
-1.0000000000E+20
  9
$PLIMMIN
 10
0.0
 20
0.0
  9
$PLIMMAX
 10
420.0
 20
297.0
  9
$UNITMODE
 70
     0
  9
$VISRETAIN
 70
     1
  9
$PLINEGEN
 70
     0
  9
$PSLTSCALE
 70
     1
  0
ENDSEC
  0
SECTION
  2
TABLES
  0
TABLE
  2
VPORT
 70
     1
  0
VPORT
  2
*ACTIVE
 70
     0
 10
0.0
 20
0.0
 11
1.0
 21
1.0
 12
210.0
 22
148.5
 13
0.0
 23
0.0
 14
10.0
 24
10.0
 15
10.0
 25
10.0
 16
0.0
 26
0.0
 36
1.0
 17
0.0
 27
0.0
 37
0.0
 40
297.0
 41
1.4141414141
 42
50.0
 43
0.0
 44
0.0
 50
0.0
 51
0.0
 71
     0
 72
  2000
 73
     1
 74
     3
 75
     0
 76
     0
 77
     0
 78
     0
  0
ENDTAB
  0
TABLE
  2
LTYPE
 70
     6
  0
LTYPE
  2
CONTINUOUS
 70
     0
  3
Solid line
 72
    65
 73
     0
 40
0.0
  0
LTYPE
  2
HIDDEN
 70
     0
  3
Hidden __ __ __ __ __ __ __ __ __ __ __ __ __ __
 72
    65
 73
     2
 40
1.905
 49
1.27
 49
-0.635
  0
LTYPE
  2
PHANTOM
 70
     0
  3
Phantom ______  __  __  ______  __  __  ______
 72
    65
 73
     6
 40
12.7
 49
6.35
 49
-1.27
 49
1.27
 49
-1.27
 49
1.27
 49
-1.27
  0
LTYPE
  2
CENTER
 70
     0
  3
Center ____ _ ____ _ ____ _ ____ _ ____ _ ____
 72
    65
 73
     4
 40
10.16
 49
6.35
 49
-1.27
 49
1.27
 49
-1.27
  0
LTYPE
  2
CENTERX2
 70
     0
  3
Center (2x) ________  __  ________  __  _____
 72
    65
 73
     4
 40
20.32
 49
12.7
 49
-2.54
 49
2.54
 49
-2.54
  0
LTYPE
  2
DOT2
 70
     0
  3
Dot (.5x) ........................................
 72
    65
 73
     2
 40
0.635
 49
0.0
 49
-0.635
  0
ENDTAB
  0
TABLE
  2
LAYER
 70
     4
  0
LAYER
  2
0
 70
     0
 62
     7
  6
CONTINUOUS
  0
LAYER
  2
HIDDEN
 70
     0
 62
    -1
  6
CONTINUOUS
  0
LAYER
  2
BLOCK
 70
     0
 62
     7
  6
CONTINUOUS
  0
LAYER
  2
BLOCK_0_4MM
 70
     0
 62
     7
  6
CONTINUOUS
  0
ENDTAB
  0
TABLE
  2
STYLE
 70
     1
  0
STYLE
  2
STANDARD
 70
     0
 40
0.0
 41
1.0
 50
0.0
 71
     0
 42
2.5
  3
txt
  4

  0
ENDTAB
  0
TABLE
  2
VIEW
 70
     0
  0
ENDTAB
  0
TABLE
  2
UCS
 70
     0
  0
ENDTAB
  0
TABLE
  2
APPID
 70
     1
  0
APPID
  2
ACAD
 70
     0
  0
ENDTAB
  0
TABLE
  2
DIMSTYLE
 70
     3
  0
DIMSTYLE
  2
ISO-25
 70
     0
  3

  4

  5

  6

  7

 40
1.0
 41
2.5
 42
0.625
 43
3.75
 44
1.25
 45
0.0
 46
0.0
 47
0.0
 48
0.0
140
2.5
141
2.5
142
0.0
143
0.0393700787
144
1.0
145
0.0
146
1.0
147
0.625
 71
     0
 72
     0
 73
     0
 74
     0
 75
     0
 76
     0
 77
     1
 78
     8
170
     0
171
     3
172
     1
173
     0
174
     0
175
     0
176
     0
177
     0
178
     0
  0
DIMSTYLE
  2
SLDDIMSTYLE0
 70
     0
  3

  4

  5

  6

  7

 40
1.0
 41
3.302
 42
0.0625
 43
0.38
 44
0.0
 45
0.000000001
 46
0.0
 47
0.0
 48
0.0
140
2.6458333333
141
0.09
142
0.0
143
25.4
144
1.0
145
0.0
146
1.0
147
0.6614583333
 71
     0
 72
     0
 73
     0
 74
     0
 75
     0
 76
     0
 77
     1
 78
    12
170
     0
171
     2
172
     0
173
     1
174
     0
175
     0
176
     0
177
     0
178
     0
  0
DIMSTYLE
  2
SLDDIMSTYLE1
 70
     0
  3

  4

  5

  6

  7

 40
1.0
 41
3.302
 42
0.0625
 43
0.38
 44
0.0
 45
0.000000001
 46
0.0
 47
0.0
 48
0.0
140
2.6458333333
141
0.09
142
0.0
143
25.4
144
1.0
145
0.0
146
1.0
147
0.6614583333
 71
     0
 72
     0
 73
     0
 74
     0
 75
     0
 76
     0
 77
     1
 78
    12
170
     0
171
     2
172
     1
173
     1
174
     0
175
     0
176
     0
177
     0
178
     0
  0
ENDTAB
  0
ENDSEC
  0
SECTION
  2
BLOCKS
  0
BLOCK
  8
0
  2
$MODEL_SPACE
 70
     0
 10
0.0
 20
0.0
 30
0.0
  3
$MODEL_SPACE
  1

  0
ENDBLK
  5
21
  8
0
  0
BLOCK
 67
     1
  8
0
  2
$PAPER_SPACE
 70
     0
 10
0.0
 20
0.0
 30
0.0
  3
$PAPER_SPACE
  1

  0
ENDBLK
  5
1D
 67
     1
  8
0
  0
BLOCK
  8
0
  2
TEMPLATE_BLOCK_23-08-2011
 70
     2
 10
0.0
 20
0.0
 30
0.0
  3
TEMPLATE_BLOCK_23-08-2011
  1

  0
ARC
  5
4A
  8
0
  6
CONTINUOUS
 62
     7
 10
191.4522115405
 20
175.5813166711
 30
0.0
 40
3.0
 50
90.0
 51
270.0
  0
ARC
  5
4B
  8
0
  6
CONTINUOUS
 62
     7
 10
191.4522115405
 20
175.5813166711
 30
0.0
 40
1.249999999999972
 50
270.0
 51
90.0
  0
ARC
  5
4C
  8
0
  6
CONTINUOUS
 62
     7
 10
191.4522115405
 20
175.5813166711
 30
0.0
 40
3.0
 50
270.0
 51
90.0
  0
ARC
  5
4D
  8
0
  6
CONTINUOUS
 62
     7
 10
191.4522115405
 20
175.5813166711
 30
0.0
 40
1.249999999999972
 50
90.0
 51
270.0
  0
LINE
  5
4E
  8
0
  6
CONTINUOUS
 62
     7
 10
62.5356831742
 20
156.4442864895
 30
0.0
 11
87.2023498409
 21
156.4442864895
 31
0.0
  0
LINE
  5
4F
  8
0
  6
CONTINUOUS
 62
     7
 10
62.5356831742
 20
161.4442864895
 30
0.0
 11
210.5356831742
 21
161.4442864895
 31
0.0
  0
LINE
  5
50
  8
0
  6
CONTINUOUS
 62
     7
 10
62.5356831742
 20
166.4442864895
 30
0.0
 11
161.2023498409
 21
166.4442864895
 31
0.0
  0
LINE
  5
51
  8
0
  6
CONTINUOUS
 62
     7
 10
62.5356831742
 20
171.4442864895
 30
0.0
 11
210.5356831742
 21
171.4442864895
 31
0.0
  0
LINE
  5
52
  8
0
  6
CONTINUOUS
 62
     7
 10
62.8245470911
 20
179.4442864895
 30
0.0
 11
210.2468192573
 21
179.4442864895
 31
0.0
  0
LINE
  5
53
  8
0
  6
CONTINUOUS
 62
     7
 10
87.2023498409
 20
156.4442864895
 30
0.0
 11
111.8690165075
 21
156.4442864895
 31
0.0
  0
LINE
  5
54
  8
0
  6
CONTINUOUS
 62
     7
 10
111.8690165075
 20
156.4442864895
 30
0.0
 11
136.5356831742
 21
156.4442864895
 31
0.0
  0
LINE
  5
55
  8
0
  6
CONTINUOUS
 62
     7
 10
136.5356831742
 20
156.4442864895
 30
0.0
 11
161.2023498409
 21
156.4442864895
 31
0.0
  0
LINE
  5
56
  8
0
  6
CONTINUOUS
 62
     7
 10
161.2023498409
 20
156.4442864895
 30
0.0
 11
185.8690165075
 21
156.4442864895
 31
0.0
  0
LINE
  5
57
  8
0
  6
CONTINUOUS
 62
     7
 10
185.8690165075
 20
156.4442864895
 30
0.0
 11
210.5356831742
 21
156.4442864895
 31
0.0
  0
LINE
  5
58
  8
0
  6
CONTINUOUS
 62
     7
 10
87.2023498409
 20
156.4442864895
 30
0.0
 11
87.2023498409
 21
161.4442864895
 31
0.0
  0
LINE
  5
59
  8
0
  6
CONTINUOUS
 62
     7
 10
111.8690165075
 20
156.4442864895
 30
0.0
 11
111.8690165075
 21
161.4442864895
 31
0.0
  0
LINE
  5
5A
  8
0
  6
CONTINUOUS
 62
     7
 10
136.5356831742
 20
156.4442864895
 30
0.0
 11
136.5356831742
 21
161.4442864895
 31
0.0
  0
LINE
  5
5B
  8
0
  6
CONTINUOUS
 62
     7
 10
161.2023498409
 20
156.4442864895
 30
0.0
 11
161.2023498409
 21
161.4442864895
 31
0.0
  0
LINE
  5
5C
  8
0
  6
CONTINUOUS
 62
     7
 10
185.8690165075
 20
156.4442864895
 30
0.0
 11
185.8690165075
 21
161.4442864895
 31
0.0
  0
LINE
  5
5D
  8
0
  6
CONTINUOUS
 62
     7
 10
136.5356831742
 20
161.4442864895
 30
0.0
 11
136.5356831742
 21
179.4442864895
 31
0.0
  0
LINE
  5
5E
  8
0
  6
CONTINUOUS
 62
     7
 10
161.2023498409
 20
161.4442864895
 30
0.0
 11
161.2023498409
 21
179.4442864895
 31
0.0
  0
LINE
  5
5F
  8
0
  6
CENTERX2
 62
     7
 10
191.4522115405
 20
179.0813166711
 30
0.0
 11
191.4522115405
 21
172.0813166711
 31
0.0
  0
LINE
  5
60
  8
0
  6
CENTERX2
 62
     7
 10
187.9522115405
 20
175.5813166711
 30
0.0
 11
194.9522115405
 21
175.5813166711
 31
0.0
  0
LINE
  5
61
  8
0
  6
CONTINUOUS
 62
     7
 10
198.9688251586
 20
176.8313166711
 30
0.0
 11
198.9688251586
 21
174.3313166711
 31
0.0
  0
LINE
  5
62
  8
0
  6
CONTINUOUS
 62
     7
 10
198.9688251586
 20
176.8313166711
 30
0.0
 11
204.9688251586
 21
178.5813166711
 31
0.0
  0
LINE
  5
63
  8
0
  6
CONTINUOUS
 62
     7
 10
204.9688251586
 20
178.5813166711
 30
0.0
 11
204.9688251586
 21
172.5813166711
 31
0.0
  0
LINE
  5
64
  8
0
  6
CONTINUOUS
 62
     7
 10
204.9688251586
 20
172.5813166711
 30
0.0
 11
198.9688251586
 21
174.3313166711
 31
0.0
  0
LINE
  5
65
  8
0
  6
CENTERX2
 62
     7
 10
205.941683749
 20
175.5813166711
 30
0.0
 11
197.8813151032
 21
175.5813166711
 31
0.0
  0
LINE
  5
66
  8
0
  6
CONTINUOUS
 62
     7
 10
161.2023498409
 20
156.4442864895
 30
0.0
 11
161.2023498409
 21
151.4442864895
 31
0.0
  0
LINE
  5
67
  8
0
  6
CONTINUOUS
 62
     7
 10
185.8690165075
 20
156.4442864895
 30
0.0
 11
185.8690165075
 21
151.4442864895
 31
0.0
  0
TEXT
  5
68
  8
BLOCK
 62
     7
 10
63.5576398697
 20
184.8123399363
 30
0.0
 40
1.8520833333
  1
Description
 41
0.7
 11
63.5576398697
 21
184.1580728633
 31
0.0
 73
     1
  0
TEXT
  5
69
  8
BLOCK
 62
     7
 10
63.5514716817
 20
176.8843686002
 30
0.0
 40
1.8520833333
  1
Article nr.
 41
0.7
 11
63.5514716817
 21
176.2301015272
 31
0.0
 73
     1
  0
TEXT
  5
6A
  8
BLOCK
 62
     7
 10
63.5514716817
 20
169.1161588169
 30
0.0
 40
1.8520833333
  1
Material
 41
0.7
 11
63.5514716817
 21
168.4618917439
 31
0.0
 73
     1
  0
TEXT
  5
6B
  8
BLOCK
 62
     7
 10
63.5514716817
 20
164.2307913525
 30
0.0
 40
1.8520833333
  1
Finish
 41
0.7
 11
63.5514716817
 21
163.5765242795
 31
0.0
 73
     1
  0
TEXT
  5
6C
  8
BLOCK
 62
     7
 10
63.5514716817
 20
159.1927191589
 30
0.0
 40
1.8520833333
  1
Drawn by
 41
0.7
 11
63.5514716817
 21
158.5384520858
 31
0.0
 73
     1
  0
TEXT
  5
6D
  8
BLOCK
 62
     7
 10
88.0113040812
 20
159.1927191589
 30
0.0
 40
1.8520833333
  1
Date
 41
0.7
 11
88.0113040812
 21
158.5384520858
 31
0.0
 73
     1
  0
TEXT
  5
6E
  8
BLOCK
 62
     7
 10
112.9654021834
 20
159.3254934295
 30
0.0
 40
1.8520833333
  1
Mod. by
 41
0.7
 11
112.9654021834
 21
158.6712263564
 31
0.0
 73
     1
  0
TEXT
  5
6F
  8
BLOCK
 62
     7
 10
137.4252345829
 20
159.3254934295
 30
0.0
 40
1.8520833333
  1
Date
 41
0.7
 11
137.4252345829
 21
158.6712263564
 31
0.0
 73
     1
  0
TEXT
  5
70
  8
BLOCK
 62
     7
 10
186.4741557862
 20
159.3254934295
 30
0.0
 40
1.8520833333
  1
Date
 41
0.7
 11
186.4741557862
 21
158.6712263564
 31
0.0
 73
     1
  0
TEXT
  5
71
  8
BLOCK
 62
     7
 10
161.8645267427
 20
159.3254934295
 30
0.0
 40
1.8520833333
  1
Rel. by
 41
0.7
 11
161.8645267427
 21
158.6712263564
 31
0.0
 73
     1
  0
TEXT
  5
72
  8
BLOCK
 62
     7
 10
63.5514716817
 20
154.2077359849
 30
0.0
 40
1.8520833333
  1
Remarks
 41
0.7
 11
63.5514716817
 21
153.5534689119
 31
0.0
 73
     1
  0
TEXT
  5
73
  8
BLOCK
 62
     7
 10
137.4252345829
 20
177.0027654141
 30
0.0
 40
1.8520833333
  1
Revision
 41
0.7
 11
137.4252345829
 21
176.3484983411
 31
0.0
 73
     1
  0
TEXT
  5
74
  8
BLOCK
 62
     7
 10
137.4252345829
 20
169.236973898
 30
0.0
 40
1.8520833333
  1
Weight
 41
0.7
 11
137.4252345829
 21
168.582706825
 31
0.0
 73
     1
  0
TEXT
  5
75
  8
BLOCK
 62
     7
 10
137.4252345829
 20
164.2997508115
 30
0.0
 40
1.8520833333
  1
Scale
 41
0.7
 11
137.4252345829
 21
163.6454837385
 31
0.0
 73
     1
  0
TEXT
  5
76
  8
BLOCK
 62
     7
 10
161.8645267427
 20
177.0027654141
 30
0.0
 40
1.8520833333
  1
Projection
 41
0.7
 11
161.8645267427
 21
176.3484983411
 31
0.0
 73
     1
  0
TEXT
  5
77
  8
BLOCK
 62
     7
 10
161.8645267427
 20
154.2153377848
 30
0.0
 40
1.8520833333
  1
Page
 41
0.7
 11
161.8645267427
 21
153.5610707118
 31
0.0
 73
     1
  0
TEXT
  5
78
  8
BLOCK
 62
     7
 10
186.4741557862
 20
154.2153377848
 30
0.0
 40
1.8520833333
  1
Size
 41
0.7
 11
186.4741557862
 21
153.5610707118
 31
0.0
 73
     1
  0
TEXT
  5
79
  8
BLOCK
 62
     7
 10
161.8645267427
 20
169.236973898
 30
0.0
 40
1.8520833333
  1
Tolerances unless otherwise specified
 41
0.6716216216
 11
161.8645267427
 21
168.582706825
 31
0.0
 73
     1
  0
ATTDEF
  5
7A
  8
BLOCK
 62
     7
 10
124.3379506665
 20
182.3528182885
 30
0.0
 40
3.7041666667
  1
Description
 41
0.7
 11
124.3379506665
 21
181.0442841425
 31
0.0
 73
     1
  3

  2
DESCRIPTION
 70
     0
 74
     1
  0
ATTDEF
  5
7B
  8
BLOCK
 62
     7
 10
78.7253407769
 20
174.4128986916
 30
0.0
 40
3.7041666667
  1
Article Nr.
 41
0.7
 11
78.7253407769
 21
173.1043645456
 31
0.0
 73
     1
  3

  2
ARTICLENR.
 70
     0
 74
     1
  0
ATTDEF
  5
7C
  8
BLOCK
 62
     7
 10
149.8774862028
 20
174.4128986916
 30
0.0
 40
3.7041666667
  1
Rev
 41
0.7
 11
149.8774862028
 21
173.1043645456
 31
0.0
 73
     1
  3

  2
REVISION
 70
     0
 74
     1
  0
ATTDEF
  5
7D
  8
BLOCK
 62
     7
 10
78.7253407769
 20
168.1397842609
 30
0.0
 40
2.38125
  1
Material
 41
0.7
 11
78.7253407769
 21
167.2985837385
 31
0.0
 73
     1
  3

  2
MATERIAL
 70
     0
 74
     1
  0
ATTDEF
  5
7E
  8
BLOCK
 62
     7
 10
78.7253407769
 20
163.1397842609
 30
0.0
 40
2.38125
  1
Finish
 41
0.7
 11
78.7253407769
 21
162.2985837385
 31
0.0
 73
     1
  3

  2
FINISH
 70
     0
 74
     1
  0
ATTDEF
  5
7F
  8
BLOCK
 62
     7
 10
74.5596224449
 20
157.714038091
 30
0.0
 40
2.1166666667
  1
DrawnBy
 41
0.7
 11
74.5596224449
 21
156.9663042933
 31
0.0
 73
     1
  3

  2
DRAWNBY
 70
     0
 74
     1
  0
ATTDEF
  5
80
  8
BLOCK
 62
     7
 10
95.5116786932
 20
157.714038091
 30
0.0
 40
2.1166666667
  1
DrawnDate
 41
0.7
 11
95.5116786932
 21
156.9663042933
 31
0.0
 73
     1
  3

  2
DRAWNDATE
 70
     0
 74
     1
  0
ATTDEF
  5
81
  8
BLOCK
 62
     7
 10
146.9579813319
 20
157.555078016
 30
0.0
 40
2.1166666667
  1
Mod.Date
 41
0.7
 11
146.9579813319
 21
156.8073442183
 31
0.0
 73
     1
  3

  2
MODDATE
 70
     0
 74
     1
  0
ATTDEF
  5
82
  8
BLOCK
 62
     7
 10
125.8396174566
 20
157.5496584351
 30
0.0
 40
2.1166666667
  1
Mod.By
 41
0.7
 11
125.8396174566
 21
156.8019246373
 31
0.0
 73
     1
  3

  2
MODBY
 70
     0
 74
     1
  0
ATTDEF
  5
83
  8
BLOCK
 62
     7
 10
198.2363277113
 20
157.555078016
 30
0.0
 40
2.1166666667
  1
Rel.Date
 41
0.7
 11
198.2363277113
 21
156.8073442183
 31
0.0
 73
     1
  3

  2
RELDATE
 70
     0
 74
     1
  0
ATTDEF
  5
84
  8
BLOCK
 62
     7
 10
177.1179638359
 20
157.555078016
 30
0.0
 40
2.1166666667
  1
Rel.By
 41
0.7
 11
177.1179638359
 21
156.8073442183
 31
0.0
 73
     1
  3

  2
RELBY
 70
     0
 74
     1
  0
ATTDEF
  5
85
  8
BLOCK
 62
     7
 10
180.7790129002
 20
152.4812725583
 30
0.0
 40
2.1166666667
  1
2/2
 41
0.7
 11
180.7790129002
 21
151.7335387605
 31
0.0
 73
     1
  3

  2
AUTOATTR1
 70
     0
 74
     1
  0
ATTDEF
  5
86
  8
BLOCK
 62
     7
 10
198.4242550543
 20
152.4812726165
 30
0.0
 40
2.1166666667
  1
Format
 41
0.7
 11
198.4242550543
 21
151.7335388187
 31
0.0
 73
     1
  3

  2
FORMAT
 70
     0
 74
     1
  0
ATTDEF
  5
87
  8
BLOCK
 62
     7
 10
78.7253407769
 20
153.1346813667
 30
0.0
 40
2.38125
  1
Finish
 41
0.7
 11
78.7253407769
 21
152.2934808442
 31
0.0
 73
     1
  3

  2
REMARK
 70
     0
 74
     1
  0
ATTDEF
  5
88
  8
BLOCK
 62
     7
 10
167.6729490394
 20
164.3153124029
 30
0.0
 40
2.1166666667
  1
Angle Tol
 41
0.7
 11
167.6729490394
 21
163.5675786051
 31
0.0
 73
     1
  3

  2
ANGLETOL
 70
     0
 74
     1
  0
ATTDEF
  5
89
  8
BLOCK
 62
     7
 10
193.6694406713
 20
164.1524933923
 30
0.0
 40
2.1166666667
  1
Dim Tol
 41
0.7
 11
193.6694406713
 21
163.4047595946
 31
0.0
 73
     1
  3

  2
DIMTOL
 70
     0
 74
     1
  0
ATTDEF
  5
8A
  8
BLOCK_0_4MM
 62
     7
 10
149.244200989
 20
163.1502406384
 30
0.0
 40
2.5
  1
1:1
 41
0.7
 11
149.244200989
 21
162.2670904836
 31
0.0
 73
     1
  3

  2
AUTOATTR2
 70
     0
 74
     1
  0
ATTDEF
  5
8B
  8
BLOCK_0_4MM
 62
     7
 10
157.7652352179
 20
168.150240813
 30
0.0
 40
2.5
  1
 g
 41
0.7
 11
157.7652352179
 21
167.2670906582
 31
0.0
 73
     1
  3

  2
AUTOATTR3
 70
     0
 74
     1
  0
ENDBLK
  5
49
  8
0
  0
BLOCK
  8
0
  2
SW_NOTE_0
 70
     0
 10
0.0
 20
0.0
 30
0.0
  3
SW_NOTE_0
  1

  0
TEXT
  5
AF
  8
0
  6
CONTINUOUS
 62
     0
 10
0.0
 20
0.6358681115
 30
0.0
 40
1.8
  1
Utrechtsestraatweg 220
 41
0.7
 11
0.0
 21
0.0
 31
0.0
 73
     1
  0
TEXT
  5
B0
  8
0
  6
CONTINUOUS
 62
     0
 10
0.0
 20
-2.1641317887
 30
0.0
 40
1.8
  1
NL-3911 TX Rhenen
 41
0.6588235294
 11
0.0
 21
-2.7999999002
 31
0.0
 73
     1
  0
TEXT
  5
B1
  8
0
  6
CONTINUOUS
 62
     0
 10
0.0
 20
-7.764131589
 30
0.0
 40
1.8
  1
P.O. Box 128
 41
0.6416666667
 11
0.0
 21
-8.3999997005
 31
0.0
 73
     1
  0
TEXT
  5
B2
  8
0
  6
CONTINUOUS
 62
     0
 10
0.0
 20
-10.5641314892
 30
0.0
 40
1.8
  1
NL-3910 AC Rhenen
 41
0.6588235294
 11
0.0
 21
-11.1999996006
 31
0.0
 73
     1
  0
TEXT
  5
B3
  8
0
  6
CONTINUOUS
 62
     0
 10
0.0
 20
-13.3641313894
 30
0.0
 40
1.8
  1
The Netherlands
 41
0.7
 11
0.0
 21
-13.9999995008
 31
0.0
 73
     1
  0
TEXT
  5
B4
  8
0
  6
CONTINUOUS
 62
     0
 10
0.0
 20
-16.1641312895
 30
0.0
 40
1.8
  1
www.vanleeuwenint.nl
 41
0.7
 11
0.0
 21
-16.799999401
 31
0.0
 73
     1
  0
ENDBLK
  5
AE
  8
0
  0
BLOCK
  8
0
  2
*D3
 70
     1
 10
0.0
 20
0.0
 30
0.0
  3
*D3
  1

  0
SOLID
  5
D3
  8
BLOCK_0_4MM
 62
     7
 10
64.6336741262
 20
232.4885206579
 30
0.0
 11
64.1256741262
 21
229.1865206579
 31
0.0
 12
65.1416741262
 22
229.1865206579
 32
0.0
 13
65.1416741262
 23
229.1865206579
 33
0.0
  0
SOLID
  5
D4
  8
BLOCK_0_4MM
 62
     7
 10
64.6336741262
 20
175.4885206579
 30
0.0
 11
65.1416741262
 21
178.7905206579
 31
0.0
 12
64.1256741262
 22
178.7905206579
 32
0.0
 13
64.1256741262
 23
178.7905206579
 33
0.0
  0
LINE
  5
D5
  8
BLOCK_0_4MM
 62
     7
 10
104.2004518072
 20
232.4885206579
 30
0.0
 11
63.6336741262
 21
232.4885206579
 31
0.0
  0
LINE
  5
D6
  8
BLOCK_0_4MM
 62
     7
 10
69.7004518072
 20
175.4885206579
 30
0.0
 11
63.6336741262
 21
175.4885206579
 31
0.0
  0
LINE
  5
D7
  8
BLOCK_0_4MM
 62
     7
 10
64.6336741262
 20
232.4885206579
 30
0.0
 11
64.6336741262
 21
175.4885206579
 31
0.0
  0
TEXT
  5
D8
  8
BLOCK_0_4MM
 62
     7
 10
63.6990069373
 20
200.9605113382
 30
0.0
 40
2.6458333333
  1
57
 50
90.0
 41
0.7
 11
64.6336741844
 21
200.9605113382
 31
0.0
 73
     1
  0
ENDBLK
  5
D2
  8
0
  0
BLOCK
  8
0
  2
*D4
 70
     1
 10
0.0
 20
0.0
 30
0.0
  3
*D4
  1

  0
SOLID
  5
DD
  8
BLOCK_0_4MM
 62
     7
 10
213.705390192
 20
232.4885206579
 30
0.0
 11
213.197390192
 21
229.1865206579
 31
0.0
 12
214.213390192
 22
229.1865206579
 32
0.0
 13
214.213390192
 23
229.1865206579
 33
0.0
  0
SOLID
  5
DE
  8
BLOCK_0_4MM
 62
     7
 10
213.705390192
 20
213.4885206579
 30
0.0
 11
214.213390192
 21
216.7905206579
 31
0.0
 12
213.197390192
 22
216.7905206579
 32
0.0
 13
213.197390192
 23
216.7905206579
 33
0.0
  0
LINE
  5
DF
  8
BLOCK_0_4MM
 62
     7
 10
206.7004518072
 20
232.4885206579
 30
0.0
 11
214.705390192
 21
232.4885206579
 31
0.0
  0
LINE
  5
E0
  8
BLOCK_0_4MM
 62
     7
 10
206.7004518072
 20
213.4885206579
 30
0.0
 11
214.705390192
 21
213.4885206579
 31
0.0
  0
LINE
  5
E1
  8
BLOCK_0_4MM
 62
     7
 10
213.705390192
 20
232.4885206579
 30
0.0
 11
213.705390192
 21
213.4885206579
 31
0.0
  0
TEXT
  5
E2
  8
BLOCK_0_4MM
 62
     7
 10
212.7707229448
 20
217.9636423497
 30
0.0
 40
2.6458333333
  1
%%c
 50
90.0
 41
0.7
 11
213.705390192
 21
217.9636423497
 31
0.0
 73
     1
  0
TEXT
  5
E3
  8
BLOCK_0_4MM
 62
     7
 10
212.770723003
 20
221.9573807923
 30
0.0
 40
2.6458333333
  1
19
 50
90.0
 41
0.7
 11
213.7053902502
 21
221.9573807923
 31
0.0
 73
     1
  0
ENDBLK
  5
DC
  8
0
  0
BLOCK
  8
0
  2
*D5
 70
     1
 10
0.0
 20
0.0
 30
0.0
  3
*D5
  1

  0
SOLID
  5
E8
  8
BLOCK_0_4MM
 62
     7
 10
205.7004518072
 20
239.8952993108
 30
0.0
 11
202.3984518072
 21
240.4032993108
 31
0.0
 12
202.3984518072
 22
239.3872993108
 32
0.0
 13
202.3984518072
 23
239.3872993108
 33
0.0
  0
SOLID
  5
E9
  8
BLOCK_0_4MM
 62
     7
 10
70.7004518072
 20
239.8952993108
 30
0.0
 11
74.0024518072
 21
239.3872993108
 31
0.0
 12
74.0024518072
 22
240.4032993108
 32
0.0
 13
74.0024518072
 23
240.4032993108
 33
0.0
  0
LINE
  5
EA
  8
BLOCK_0_4MM
 62
     7
 10
205.7004518072
 20
233.4885206579
 30
0.0
 11
205.7004518072
 21
240.8952993108
 31
0.0
  0
LINE
  5
EB
  8
BLOCK_0_4MM
 62
     7
 10
70.7004518072
 20
198.9885206579
 30
0.0
 11
70.7004518072
 21
240.8952993108
 31
0.0
  0
LINE
  5
EC
  8
BLOCK_0_4MM
 62
     7
 10
205.7004518072
 20
239.8952993108
 30
0.0
 11
70.7004518072
 21
239.8952993108
 31
0.0
  0
TEXT
  5
ED
  8
BLOCK_0_4MM
 62
     7
 10
134.1949540201
 20
240.8299664998
 30
0.0
 40
2.6458333333
  1
135
 50
0.0
 41
0.7
 11
134.1949540201
 21
239.8952992526
 31
0.0
 73
     1
  0
ENDBLK
  5
E7
  8
0
  0
BLOCK
  8
0
  2
*D6
 70
     1
 10
0.0
 20
0.0
 30
0.0
  3
*D6
  1

  0
SOLID
  5
10A
  8
BLOCK_0_4MM
 62
     7
 10
76.1504518072
 20
121.2172054819
 30
0.0
 11
72.8484518072
 21
121.7252054819
 31
0.0
 12
72.8484518072
 22
120.7092054819
 32
0.0
 13
72.8484518072
 23
120.7092054819
 33
0.0
  0
SOLID
  5
10B
  8
BLOCK_0_4MM
 62
     7
 10
84.2504518072
 20
121.2172054819
 30
0.0
 11
87.5524518072
 21
120.7092054819
 31
0.0
 12
87.5524518072
 22
121.7252054819
 32
0.0
 13
87.5524518072
 23
121.7252054819
 33
0.0
  0
LINE
  5
10C
  8
BLOCK_0_4MM
 62
     7
 10
76.1504518072
 20
112.7019612699
 30
0.0
 11
76.1504518072
 21
122.2172054819
 31
0.0
  0
LINE
  5
10D
  8
BLOCK_0_4MM
 62
     7
 10
84.2504518072
 20
112.7019612699
 30
0.0
 11
84.2504518072
 21
122.2172054819
 31
0.0
  0
LINE
  5
10E
  8
BLOCK_0_4MM
 62
     7
 10
76.1504518072
 20
121.2172054819
 30
0.0
 11
69.8004518072
 21
121.2172054819
 31
0.0
  0
LINE
  5
10F
  8
BLOCK_0_4MM
 62
     7
 10
76.1504518072
 20
121.2172054819
 30
0.0
 11
84.2504518072
 21
121.2172054819
 31
0.0
  0
LINE
  5
110
  8
BLOCK_0_4MM
 62
     7
 10
84.2504518072
 20
121.2172054819
 30
0.0
 11
90.6004518072
 21
121.2172054819
 31
0.0
  0
INSERT
  5
118
  8
BLOCK_0_4MM
 62
     7
  2
SW_SYMBOL_MOD_BOX
 10
76.2581600893
 20
121.5841081512
 30
0.0
 41
0.0033796387
 42
0.0033796387
 43
0.0033796387
  0
TEXT
  5
119
  8
BLOCK_0_4MM
 62
     7
 10
80.0417018208
 20
122.1518726709
 30
26.25
 40
2.6458333333
  1
8
 41
0.7
 11
80.0417018208
 21
121.2172054237
 31
26.25
 73
     1
  0
ENDBLK
  5
109
  8
0
  0
BLOCK
  8
0
  2
SW_SYMBOL_MOD_BOX
 70
     0
 10
0.0
 20
0.0
 30
0.0
  3
SW_SYMBOL_MOD_BOX
  1

  0
LINE
  5
114
  8
BLOCK_0_4MM
 62
     0
 10
200.0
 20
200.0
 30
0.0
 11
800.0
 21
200.0
 31
0.0
  0
LINE
  5
115
  8
BLOCK_0_4MM
 62
     0
 10
200.0
 20
200.0
 30
0.0
 11
200.0
 21
800.0
 31
0.0
  0
LINE
  5
116
  8
BLOCK_0_4MM
 62
     0
 10
200.0
 20
800.0
 30
0.0
 11
800.0
 21
800.0
 31
0.0
  0
LINE
  5
117
  8
BLOCK_0_4MM
 62
     0
 10
800.0
 20
800.0
 30
0.0
 11
800.0
 21
200.0
 31
0.0
  0
ENDBLK
  5
113
  8
0
  0
ENDSEC
  0
SECTION
  2
ENTITIES
  0
LINE
  5
8D
  8
BLOCK_0_4MM
 62
     7
 10
8.0
 20
292.0
 30
0.0
 11
409.0
 21
292.0
 31
0.0
  0
LINE
  5
8E
  8
BLOCK_0_4MM
 62
     7
 10
219.0
 20
44.0
 30
0.0
 11
219.0
 21
8.0
 31
0.0
  0
LINE
  5
8F
  8
BLOCK_0_4MM
 62
     7
 10
8.0
 20
8.0
 30
0.0
 11
409.0
 21
8.0
 31
0.0
  0
LINE
  5
90
  8
BLOCK_0_4MM
 62
     7
 10
412.0
 20
289.0
 30
0.0
 11
412.0
 21
11.0
 31
0.0
  0
LINE
  5
91
  8
BLOCK_0_4MM
 62
     7
 10
219.0
 20
44.0
 30
0.0
 11
412.0
 21
44.0
 31
0.0
  0
LINE
  5
92
  8
BLOCK_0_4MM
 62
     7
 10
264.0
 20
44.0
 30
0.0
 11
264.0
 21
8.0
 31
0.0
  0
LINE
  5
93
  8
BLOCK_0_4MM
 62
     7
 10
5.0
 20
289.0
 30
0.0
 11
5.0
 21
11.0
 31
0.0
  0
ARC
  5
94
  8
BLOCK_0_4MM
 62
     7
 10
409.0
 20
289.0
 30
0.0
 40
3.0
 50
0.0
 51
90.0
  0
ARC
  5
95
  8
BLOCK_0_4MM
 62
     7
 10
8.0
 20
11.0
 30
0.0
 40
3.000000000000007
 50
180.0
 51
270.0
  0
ARC
  5
96
  8
BLOCK_0_4MM
 62
     7
 10
8.0
 20
289.0
 30
0.0
 40
3.0
 50
90.0
 51
180.0
  0
ARC
  5
97
  8
BLOCK_0_4MM
 62
     7
 10
409.0
 20
11.0
 30
0.0
 40
3.0
 50
270.0
 51
0.0
  0
INSERT
  5
98
  8
BLOCK_0_4MM
 66
     1
  2
TEMPLATE_BLOCK_23-08-2011
 10
201.4643168258
 20
-143.4442864895
 30
0.0
  0
ATTRIB
  5
99
  8
0
  6
CONTINUOUS
 62
     7
 10
305.4910879214
 20
38.9085319155
 30
0.0
 40
3.7041666667
  1
Gatdeel recht rvs Immer AG
 41
0.6461538462
 11
305.4910879214
 21
37.5999977694
 31
0.0
 73
     1
  2
DESCRIPTION
 70
     0
 74
     1
  0
ATTRIB
  5
9A
  8
0
  6
CONTINUOUS
 62
     7
 10
280.1896576027
 20
30.9686123186
 30
0.0
 40
3.7041666667
  1
 kruk Immer AG
 41
0.625
 11
280.1896576027
 21
29.6600781725
 31
0.0
 73
     1
  2
ARTICLENR.
 70
     0
 74
     1
  0
ATTRIB
  5
9B
  8
0
  6
CONTINUOUS
 62
     7
 10
360.90460745
 20
30.9686122021
 30
0.0
 40
3.7041666667
  1

 41
0.7
 11
360.90460745
 21
29.6600780561
 31
0.0
 73
     1
  2
REVISION
 70
     0
 74
     1
  0
ATTRIB
  5
9C
  8
0
  6
CONTINUOUS
 62
     7
 10
280.1896576027
 20
24.6954977715
 30
0.0
 40
2.38125
  1

 41
0.7
 11
280.1896576027
 21
23.854297249
 31
0.0
 73
     1
  2
MATERIAL
 70
     0
 74
     1
  0
ATTRIB
  5
9D
  8
0
  6
CONTINUOUS
 62
     7
 10
280.1896576027
 20
19.6954977715
 30
0.0
 40
2.38125
  1

 41
0.7
 11
280.1896576027
 21
18.854297249
 31
0.0
 73
     1
  2
FINISH
 70
     0
 74
     1
  0
ATTRIB
  5
9E
  8
0
  6
CONTINUOUS
 62
     7
 10
280.6296497772
 20
14.2697515433
 30
0.0
 40
2.1166666667
  1
EvdG
 41
0.7
 11
280.6296497772
 21
13.5220177456
 31
0.0
 73
     1
  2
DRAWNBY
 70
     0
 74
     1
  0
ATTRIB
  5
9F
  8
0
  6
CONTINUOUS
 62
     7
 10
298.355748982
 20
14.2697515433
 30
0.0
 40
2.1166666667
  1
27-04-2012
 41
0.7
 11
298.355748982
 21
13.5220177456
 31
0.0
 73
     1
  2
DRAWNDATE
 70
     0
 74
     1
  0
ATTRIB
  5
A0
  8
0
  6
CONTINUOUS
 62
     7
 10
362.7501484798
 20
14.1107915265
 30
0.0
 40
2.1166666667
  1

 41
0.7
 11
362.7501484798
 21
13.3630577288
 31
0.0
 73
     1
  2
MODDATE
 70
     0
 74
     1
  0
ATTRIB
  5
A1
  8
0
  6
CONTINUOUS
 62
     7
 10
337.9440777554
 20
14.1053719456
 30
0.0
 40
2.1166666667
  1

 41
0.7
 11
337.9440777554
 21
13.3576381479
 31
0.0
 73
     1
  2
MODBY
 70
     0
 74
     1
  0
ATTRIB
  5
A2
  8
0
  6
CONTINUOUS
 62
     7
 10
411.7649959231
 20
14.1107915265
 30
0.0
 40
2.1166666667
  1

 41
0.7
 11
411.7649959231
 21
13.3630577288
 31
0.0
 73
     1
  2
RELDATE
 70
     0
 74
     1
  0
ATTRIB
  5
A3
  8
0
  6
CONTINUOUS
 62
     7
 10
386.9589784919
 20
14.1107915265
 30
0.0
 40
2.1166666667
  1

 41
0.7
 11
386.9589784919
 21
13.3630577288
 31
0.0
 73
     1
  2
RELBY
 70
     0
 74
     1
  0
ATTRIB
  5
A4
  8
0
  6
CONTINUOUS
 62
     7
 10
382.243329726
 20
9.0369860688
 30
0.0
 40
2.1166666667
  1
2/2
 41
0.7
 11
382.243329726
 21
8.2892522711
 31
0.0
 73
     1
  2
AUTOATTR1
 70
     0
 74
     1
  0
ATTRIB
  5
A5
  8
0
  6
CONTINUOUS
 62
     7
 10
405.8309179426
 20
9.0369860688
 30
0.0
 40
2.1166666667
  1
A3
 41
0.7
 11
405.8309179426
 21
8.2892522711
 31
0.0
 73
     1
  2
FORMAT
 70
     0
 74
     1
  0
ATTRIB
  5
A6
  8
0
  6
CONTINUOUS
 62
     7
 10
280.1896576027
 20
9.6903948772
 30
0.0
 40
2.38125
  1

 41
0.7
 11
280.1896576027
 21
8.8491943548
 31
0.0
 73
     1
  2
REMARK
 70
     0
 74
     1
  0
ATTRIB
  5
A7
  8
0
  6
CONTINUOUS
 62
     7
 10
375.8361229267
 20
20.8710259134
 30
0.0
 40
2.1166666667
  1
± 1 °
 41
0.56
 11
375.8361229267
 21
20.1232921157
 31
0.0
 73
     1
  2
ANGLETOL
 70
     0
 74
     1
  0
ATTRIB
  5
A8
  8
0
  6
CONTINUOUS
 62
     7
 10
392.5310415205
 20
20.7082069028
 30
0.0
 40
2.1166666667
  1
± 0.2 mm
 41
0.6125
 11
392.5310415205
 21
19.9604731051
 31
0.0
 73
     1
  2
DIMTOL
 70
     0
 74
     1
  0
ATTRIB
  5
A9
  8
BLOCK_0_4MM
 62
     7
 10
350.7085178148
 20
19.7059541489
 30
0.0
 40
2.5
  1
1:1
 41
0.7
 11
350.7085178148
 21
18.8228039941
 31
0.0
 73
     1
  2
AUTOATTR2
 70
     0
 74
     1
  0
ATTRIB
  5
AA
  8
BLOCK_0_4MM
 62
     7
 10
359.2295520437
 20
24.7059543235
 30
0.0
 40
2.5
  1
 g
 41
0.7
 11
359.2295520437
 21
23.8228041687
 31
0.0
 73
     1
  2
AUTOATTR3
 70
     0
 74
     1
  0
SEQEND
  5
AB
  8
BLOCK_0_4MM
  0
INSERT
  5
B5
  8
0
  6
CONTINUOUS
 62
     7
  2
SW_NOTE_0
 10
220.5
 20
25.7813523681
 30
0.0
  0
TEXT
  5
B6
  8
0
  6
CONTINUOUS
 62
     7
 10
414.6760321318
 20
4.8333996371
 30
0.0
 40
2.35
  1
No material may be reproduced or transmitted in any form or by any means, electronic or mechanical, for any purpose without the express written permission of Van Leeuwen International.
 50
90.0
 41
0.6467391304
 11
415.5061932773
 21
4.8333996371
 31
0.0
 73
     1
  0
TEXT
  5
B7
  8
0
  6
CONTINUOUS
 62
     7
 10
378.6195366537
 20
5.2506703546
 30
0.0
 40
2.35
  1
SW_00206843.slddrw
 41
0.7
 11
378.6195366537
 21
4.4205092091
 31
0.0
 73
     1
  0
TEXT
  5
B8
  8
0
  6
CONTINUOUS
 62
     7
 10
12.2470288249
 20
270.3054526816
 30
0.0
 40
9.525
  1
Concept
 41
0.7
 11
12.2470288249
 21
266.9406505918
 31
0.0
 73
     1
  0
LINE
  5
B9
  8
0
  6
CONTINUOUS
 62
     7
 10
205.7004453699
 20
232.4885206877
 30
0.0
 11
105.2004521798
 21
232.4885206877
 31
0.0
  0
LINE
  5
BA
  8
0
  6
CONTINUOUS
 62
     7
 10
105.2004521798
 20
213.488519436
 30
0.0
 11
205.7004453699
 21
213.488519436
 31
0.0
  0
ARC
  5
BB
  8
0
  6
CONTINUOUS
 62
     7
 10
105.2004518072
 20
197.9885206579
 30
0.0
 40
15.50000000000003
 50
90.0
 51
180.0
  0
ARC
  5
BC
  8
0
  6
CONTINUOUS
 62
     7
 10
105.2004518072
 20
197.9885206579
 30
0.0
 40
34.5
 50
90.0
 51
180.0
  0
LINE
  5
BD
  8
0
  6
CONTINUOUS
 62
     7
 10
89.7004515018
 20
175.4885206579
 30
0.0
 11
89.7004515018
 21
197.9885215519
 31
0.0
  0
LINE
  5
BE
  8
0
  6
CONTINUOUS
 62
     7
 10
70.7004521127
 20
179.5292098655
 30
0.0
 11
70.7004521127
 21
175.4885206579
 31
0.0
  0
LINE
  5
BF
  8
0
  6
CONTINUOUS
 62
     7
 10
70.7004521127
 20
197.9885215519
 30
0.0
 11
70.7004521127
 21
185.4885204343
 31
0.0
  0
LINE
  5
C0
  8
0
  6
CONTINUOUS
 62
     7
 10
70.8345625634
 20
185.0226319043
 30
0.0
 11
70.7004521127
 21
184.8885205223
 31
0.0
  0
LINE
  5
C1
  8
0
  6
CONTINUOUS
 62
     7
 10
70.7004521127
 20
180.0885207599
 30
0.0
 11
70.8345886405
 21
179.9543837665
 31
0.0
  0
LINE
  5
C2
  8
0
  6
CONTINUOUS
 62
     7
 10
72.2004514272
 20
175.4885206579
 30
0.0
 11
72.2004514272
 21
166.9885201959
 31
0.0
  0
LINE
  5
C3
  8
0
  6
CONTINUOUS
 62
     7
 10
88.2004521872
 20
166.9885201959
 30
0.0
 11
88.2004521872
 21
175.4885206579
 31
0.0
  0
LINE
  5
C4
  8
0
  6
CONTINUOUS
 62
     7
 10
72.2004514272
 20
166.9885201959
 30
0.0
 11
72.7004519749
 21
166.4885210453
 31
0.0
  0
LINE
  5
C5
  8
0
  6
CONTINUOUS
 62
     7
 10
87.7004516396
 20
166.4885210453
 30
0.0
 11
88.2004521872
 21
166.9885201959
 31
0.0
  0
LINE
  5
C6
  8
0
  6
CONTINUOUS
 62
     7
 10
205.7004453699
 20
213.488519436
 30
0.0
 11
205.7004453699
 21
232.4885206877
 31
0.0
  0
LINE
  5
C7
  8
0
  6
CONTINUOUS
 62
     7
 10
89.7004515018
 20
175.4885206579
 30
0.0
 11
70.7004521127
 21
175.4885206579
 31
0.0
  0
ARC
  5
C8
  8
0
  6
CONTINUOUS
 62
     7
 10
61.4583300656
 20
182.4890492792
 30
0.0
 40
9.716668520902203
 50
342.2650191971
 51
17.9805045645
  0
LINE
  5
C9
  8
0
  6
CONTINUOUS
 62
     7
 10
70.7004521127
 20
182.4885208739
 30
0.0
 11
70.7004521127
 21
180.0885207599
 31
0.0
  0
LINE
  5
CA
  8
0
  6
CONTINUOUS
 62
     7
 10
70.7004521127
 20
184.8885205223
 30
0.0
 11
70.7004521127
 21
182.4885208739
 31
0.0
  0
LINE
  5
CB
  8
0
  6
CONTINUOUS
 62
     7
 10
70.920067289
 20
180.257114826
 30
0.0
 11
70.920067289
 21
184.7191157399
 31
0.0
  0
LINE
  5
CC
  8
0
  6
CONTINUOUS
 62
     7
 10
72.2004514272
 20
166.9885201959
 30
0.0
 11
88.2004521872
 21
166.9885201959
 31
0.0
  0
LINE
  5
CD
  8
0
  6
CONTINUOUS
 62
     7
 10
87.7004516396
 20
166.4885210453
 30
0.0
 11
72.7004519749
 21
166.4885210453
 31
0.0
  0
DIMENSION
  5
CE
  8
BLOCK_0_4MM
 62
     7
  2
*D3
 10
64.6336741262
 20
175.4885206579
 30
0.0
 11
64.6336741262
 21
203.9885206579
 31
0.0
 70
   160
  3
SLDDIMSTYLE0
 13
105.2004518072
 23
232.4885206579
 33
0.0
 14
70.7004518072
 24
175.4885206579
 34
0.0
 50
90.0
  0
DIMENSION
  5
D9
  8
BLOCK_0_4MM
 62
     7
  2
*D4
 10
213.705390192
 20
213.4885206579
 30
0.0
 11
213.705390192
 21
222.9885206579
 31
0.0
 70
   160
  1
%%c<>
  3
SLDDIMSTYLE0
 13
205.7004518072
 23
232.4885206579
 33
0.0
 14
205.7004518072
 24
213.4885206579
 34
0.0
 50
90.0
  0
DIMENSION
  5
E4
  8
BLOCK_0_4MM
 62
     7
  2
*D5
 10
70.7004518072
 20
239.8952993108
 30
0.0
 11
138.2004518072
 21
239.8952993108
 31
0.0
 70
   160
  3
SLDDIMSTYLE0
 13
205.7004518072
 23
232.4885206579
 33
0.0
 14
70.7004518072
 24
197.9885206579
 34
0.0
  0
LINE
  5
EE
  8
0
  6
CONTINUOUS
 62
     7
 10
105.2004521798
 20
117.1519609644
 30
0.0
 11
80.2004518072
 21
117.1519609644
 31
0.0
  0
LINE
  5
EF
  8
0
  6
CONTINUOUS
 62
     7
 10
80.2004518072
 20
98.1519615753
 30
0.0
 11
105.2004521798
 21
98.1519615753
 31
0.0
  0
LINE
  5
F0
  8
0
  6
CONTINUOUS
 62
     7
 10
205.7004453699
 20
117.1519609644
 30
0.0
 11
105.2004521798
 21
117.1519609644
 31
0.0
  0
LINE
  5
F1
  8
0
  6
CONTINUOUS
 62
     7
 10
105.2004521798
 20
98.1519615753
 30
0.0
 11
205.7004453699
 21
98.1519615753
 31
0.0
  0
CIRCLE
  5
F2
  8
0
  6
CONTINUOUS
 62
     7
 10
80.2004518072
 20
107.6519612699
 30
0.0
 40
8.499999999999986
  0
CIRCLE
  5
F3
  8
0
  6
CONTINUOUS
 62
     7
 10
80.2004518072
 20
107.6519612699
 30
0.0
 40
9.5
  0
LINE
  5
F4
  8
0
  6
CONTINUOUS
 62
     7
 10
205.7004453699
 20
107.6519612699
 30
0.0
 11
205.7004453699
 21
117.1519609644
 31
0.0
  0
LINE
  5
F5
  8
0
  6
CONTINUOUS
 62
     7
 10
205.7004453699
 20
98.1519615753
 30
0.0
 11
205.7004453699
 21
107.6519612699
 31
0.0
  0
CIRCLE
  5
F6
  8
0
  6
CONTINUOUS
 62
   254
 10
80.2004518072
 20
107.6519612699
 30
0.0
 40
7.999999999999986
  0
CIRCLE
  5
F7
  8
0
  6
CONTINUOUS
 62
   254
 10
80.2004518072
 20
107.6519612699
 30
0.0
 40
7.499999999999986
  0
CIRCLE
  5
F8
  8
0
  6
CONTINUOUS
 62
   254
 10
80.2004518072
 20
107.6519612699
 30
0.0
 40
5.75
  0
ARC
  5
F9
  8
0
  6
CONTINUOUS
 62
     7
 10
80.2004518072
 20
107.6519612699
 30
0.0
 40
4.750000000000006
 50
328.4990585601
 51
31.5009414399
  0
LINE
  5
FA
  8
0
  6
CONTINUOUS
 62
     7
 10
84.2504519123
 20
110.1338958843
 30
0.0
 11
84.2504519123
 21
111.7019613749
 31
0.0
  0
LINE
  5
FB
  8
0
  6
CONTINUOUS
 62
     7
 10
84.2504519123
 20
111.7019613749
 30
0.0
 11
82.6823864217
 21
111.7019613749
 31
0.0
  0
ARC
  5
FC
  8
0
  6
CONTINUOUS
 62
     7
 10
80.2004518072
 20
107.6519612699
 30
0.0
 40
4.750000000000013
 50
58.4990585601
 51
121.5009414399
  0
LINE
  5
FD
  8
0
  6
CONTINUOUS
 62
     7
 10
77.7185171927
 20
111.7019613749
 30
0.0
 11
76.1504517022
 21
111.7019613749
 31
0.0
  0
LINE
  5
FE
  8
0
  6
CONTINUOUS
 62
     7
 10
76.1504517022
 20
111.7019613749
 30
0.0
 11
76.1504517022
 21
110.1338958843
 31
0.0
  0
ARC
  5
FF
  8
0
  6
CONTINUOUS
 62
     7
 10
80.2004518072
 20
107.6519612699
 30
0.0
 40
4.750000000000006
 50
148.4990585601
 51
211.5009414399
  0
LINE
  5
100
  8
0
  6
CONTINUOUS
 62
     7
 10
76.1504517022
 20
105.1700266554
 30
0.0
 11
76.1504517022
 21
103.6019611648
 31
0.0
  0
LINE
  5
101
  8
0
  6
CONTINUOUS
 62
     7
 10
76.1504517022
 20
103.6019611648
 30
0.0
 11
77.7185171927
 21
103.6019611648
 31
0.0
  0
ARC
  5
102
  8
0
  6
CONTINUOUS
 62
     7
 10
80.2004518072
 20
107.6519612699
 30
0.0
 40
4.750000000000006
 50
238.4990585601
 51
301.5009414399
  0
LINE
  5
103
  8
0
  6
CONTINUOUS
 62
     7
 10
82.6823864217
 20
103.6019611648
 30
0.0
 11
84.2504519123
 21
103.6019611648
 31
0.0
  0
LINE
  5
104
  8
0
  6
CONTINUOUS
 62
     7
 10
84.2504519123
 20
103.6019611648
 30
0.0
 11
84.2504519123
 21
105.1700266554
 31
0.0
  0
DIMENSION
  5
105
  8
BLOCK_0_4MM
 62
     7
  2
*D6
 10
84.2504518072
 20
121.2172054819
 30
0.0
 11
80.2004518072
 21
121.2172054819
 31
0.0
 70
   160
  1
{\fGDT;o}<>
  3
SLDDIMSTYLE1
 13
76.1504518072
 23
111.7019612699
 33
0.0
 14
84.2504518072
 24
111.7019612699
 34
0.0
  0
LINE
  5
11A
  8
0
  6
CONTINUOUS
 62
     7
 10
375.4815035796
 20
167.7434553925
 30
0.0
 11
304.4172768856
 21
208.7679602318
 31
0.0
  0
LINE
  5
11B
  8
0
  6
CONTINUOUS
 62
     7
 10
294.9180489467
 20
192.3130315717
 30
0.0
 11
365.9822756406
 21
151.2885267324
 31
0.0
  0
LINE
  5
11C
  8
0
  6
CONTINUOUS
 62
     7
 10
253.1520340906
 20
183.1284399487
 30
0.0
 11
269.0619372995
 21
192.3130315717
 31
0.0
  0
LINE
  5
11D
  8
0
  6
CONTINUOUS
 62
     7
 10
259.5627093605
 20
208.7679602318
 30
0.0
 11
243.6528061516
 21
199.5833686088
 31
0.0
  0
POLYLINE
  5
11E
  8
0
  6
CONTINUOUS
 62
     7
 66
     1
 10
0.0
 20
0.0
 30
0.0
  0
VERTEX
  5
13E
  8
0
  6
CONTINUOUS
 62
     7
 10
269.0619372995
 20
192.3130315717
 30
0.0
  0
VERTEX
  5
13F
  8
0
  6
CONTINUOUS
 62
     7
 10
269.4804146754
 20
192.5455031449
 30
0.0
  0
VERTEX
  5
140
  8
0
  6
CONTINUOUS
 62
     7
 10
270.3469216121
 20
192.9763099163
 30
0.0
  0
VERTEX
  5
141
  8
0
  6
CONTINUOUS
 62
     7
 10
271.3170607346
 20
193.3925037252
 30
0.0
  0
VERTEX
  5
142
  8
0
  6
CONTINUOUS
 62
     7
 10
272.3861188398
 20
193.7852484076
 30
0.0
  0
VERTEX
  5
143
  8
0
  6
CONTINUOUS
 62
     7
 10
273.5458562188
 20
194.1456691943
 30
0.0
  0
VERTEX
  5
144
  8
0
  6
CONTINUOUS
 62
     7
 10
274.7865194983
 20
194.465900946
 30
0.0
  0
VERTEX
  5
145
  8
0
  6
CONTINUOUS
 62
     7
 10
276.0970902407
 20
194.7391624635
 30
0.0
  0
VERTEX
  5
146
  8
0
  6
CONTINUOUS
 62
     7
 10
277.4655315696
 20
194.9598083708
 30
0.0
  0
VERTEX
  5
147
  8
0
  6
CONTINUOUS
 62
     7
 10
278.8789919889
 20
195.1233429844
 30
0.0
  0
VERTEX
  5
148
  8
0
  6
CONTINUOUS
 62
     7
 10
280.3240368613
 20
195.2264482501
 30
0.0
  0
VERTEX
  5
149
  8
0
  6
CONTINUOUS
 62
     7
 10
281.786805142
 20
195.2669765167
 30
0.0
  0
VERTEX
  5
14A
  8
0
  6
CONTINUOUS
 62
     7
 10
283.2531815881
 20
195.2439575669
 30
0.0
  0
VERTEX
  5
14B
  8
0
  6
CONTINUOUS
 62
     7
 10
284.7086729521
 20
195.1576301707
 30
0.0
  0
VERTEX
  5
14C
  8
0
  6
CONTINUOUS
 62
     7
 10
286.1386417651
 20
195.0095067138
 30
0.0
  0
VERTEX
  5
14D
  8
0
  6
CONTINUOUS
 62
     7
 10
287.529192738
 20
194.8023055313
 30
0.0
  0
VERTEX
  5
14E
  8
0
  6
CONTINUOUS
 62
     7
 10
288.8668401964
 20
194.5399817063
 30
0.0
  0
VERTEX
  5
14F
  8
0
  6
CONTINUOUS
 62
     7
 10
290.1386740338
 20
194.227735059
 30
0.0
  0
VERTEX
  5
150
  8
0
  6
CONTINUOUS
 62
     7
 10
291.3325796654
 20
193.8720417077
 30
0.0
  0
VERTEX
  5
151
  8
0
  6
CONTINUOUS
 62
     7
 10
292.4374685187
 20
193.4806628212
 30
0.0
  0
VERTEX
  5
152
  8
0
  6
CONTINUOUS
 62
     7
 10
293.4435704275
 20
193.0626343645
 30
0.0
  0
VERTEX
  5
153
  8
0
  6
CONTINUOUS
 62
     7
 10
294.3427457816
 20
192.6282283321
 30
0.0
  0
VERTEX
  5
154
  8
0
  6
CONTINUOUS
 62
     7
 10
294.9180489467
 20
192.3130315717
 30
0.0
  0
SEQEND
  5
155
  8
0
  6
CONTINUOUS
 62
     7
  0
ARC
  5
11F
  8
0
  6
CONTINUOUS
 62
     7
 10
281.9899931231
 20
166.5960264968
 30
0.0
 40
47.76457946970778
 50
61.9956905419
 51
118.0043094581
  0
LINE
  5
120
  8
0
  6
CONTINUOUS
 62
     7
 10
236.7351576362
 20
191.1518022174
 30
0.0
 11
236.735158624
 21
190.7435982846
 31
0.0
  0
LINE
  5
121
  8
0
  6
CONTINUOUS
 62
     7
 10
242.0375974288
 20
181.5585095663
 30
0.0
 11
242.3910927565
 21
181.3543743272
 31
0.0
  0
LINE
  5
122
  8
0
  6
CONTINUOUS
 62
     7
 10
244.4027451128
 20
198.2842951635
 30
0.0
 11
238.392337146
 21
194.8145604997
 31
0.0
  0
LINE
  5
123
  8
0
  6
CONTINUOUS
 62
     7
 10
246.3916871627
 20
180.9577787302
 30
0.0
 11
252.4020951294
 21
184.4275133941
 31
0.0
  0
POLYLINE
  5
124
  8
0
  6
CONTINUOUS
 62
     7
 66
     1
 10
0.0
 20
0.0
 30
0.0
  0
VERTEX
  5
156
  8
0
  6
CONTINUOUS
 62
     7
 10
364.0143734292
 20
155.6380515155
 30
0.0
  0
VERTEX
  5
157
  8
0
  6
CONTINUOUS
 62
     7
 10
364.0673441153
 20
156.640858028
 30
0.0
  0
VERTEX
  5
158
  8
0
  6
CONTINUOUS
 62
     7
 10
364.2254185048
 20
157.6890069742
 30
0.0
  0
VERTEX
  5
159
  8
0
  6
CONTINUOUS
 62
     7
 10
364.4861020312
 20
158.7659675506
 30
0.0
  0
VERTEX
  5
15A
  8
0
  6
CONTINUOUS
 62
     7
 10
364.8452853767
 20
159.8547562499
 30
0.0
  0
VERTEX
  5
15B
  8
0
  6
CONTINUOUS
 62
     7
 10
365.2973050586
 20
160.938203492
 30
0.0
  0
VERTEX
  5
15C
  8
0
  6
CONTINUOUS
 62
     7
 10
365.835030357
 20
161.9992204437
 30
0.0
  0
VERTEX
  5
15D
  8
0
  6
CONTINUOUS
 62
     7
 10
366.4499844869
 20
163.0210773366
 30
0.0
  0
VERTEX
  5
15E
  8
0
  6
CONTINUOUS
 62
     7
 10
367.1324657707
 20
163.9876559294
 30
0.0
  0
VERTEX
  5
15F
  8
0
  6
CONTINUOUS
 62
     7
 10
367.8717109569
 20
164.8837129928
 30
0.0
  0
VERTEX
  5
160
  8
0
  6
CONTINUOUS
 62
     7
 10
368.6560638076
 20
165.6951186993
 30
0.0
  0
VERTEX
  5
161
  8
0
  6
CONTINUOUS
 62
     7
 10
369.4731515888
 20
166.4090748588
 30
0.0
  0
VERTEX
  5
162
  8
0
  6
CONTINUOUS
 62
     7
 10
370.3100931698
 20
167.0143240269
 30
0.0
  0
VERTEX
  5
163
  8
0
  6
CONTINUOUS
 62
     7
 10
371.1536860504
 20
167.5013198308
 30
0.0
  0
VERTEX
  5
164
  8
0
  6
CONTINUOUS
 62
     7
 10
371.9906249972
 20
167.8623813229
 30
0.0
  0
VERTEX
  5
165
  8
0
  6
CONTINUOUS
 62
     7
 10
372.8077154126
 20
168.0918161557
 30
0.0
  0
VERTEX
  5
166
  8
0
  6
CONTINUOUS
 62
     7
 10
373.5920682634
 20
168.1860049746
 30
0.0
  0
VERTEX
  5
167
  8
0
  6
CONTINUOUS
 62
     7
 10
374.3313134496
 20
168.1434622356
 30
0.0
  0
VERTEX
  5
168
  8
0
  6
CONTINUOUS
 62
     7
 10
375.0137947333
 20
167.9648597605
 30
0.0
  0
VERTEX
  5
169
  8
0
  6
CONTINUOUS
 62
     7
 10
375.628746229
 20
167.6530122723
 30
0.0
  0
VERTEX
  5
16A
  8
0
  6
CONTINUOUS
 62
     7
 10
376.1664715274
 20
167.212839735
 30
0.0
  0
VERTEX
  5
16B
  8
0
  6
CONTINUOUS
 62
     7
 10
376.6184912093
 20
166.6512833089
 30
0.0
  0
VERTEX
  5
16C
  8
0
  6
CONTINUOUS
 62
     7
 10
376.9776745549
 20
165.9771988732
 30
0.0
  0
VERTEX
  5
16D
  8
0
  6
CONTINUOUS
 62
     7
 10
377.2383607155
 20
165.2012186105
 30
0.0
  0
VERTEX
  5
16E
  8
0
  6
CONTINUOUS
 62
     7
 10
377.3964324708
 20
164.335576949
 30
0.0
  0
VERTEX
  5
16F
  8
0
  6
CONTINUOUS
 62
     7
 10
377.4494031568
 20
163.3939290887
 30
0.0
  0
VERTEX
  5
170
  8
0
  6
CONTINUOUS
 62
     7
 10
377.3964324708
 20
162.3911225762
 30
0.0
  0
VERTEX
  5
171
  8
0
  6
CONTINUOUS
 62
     7
 10
377.2383607155
 20
161.3429751507
 30
0.0
  0
VERTEX
  5
172
  8
0
  6
CONTINUOUS
 62
     7
 10
376.9776745549
 20
160.2660130536
 30
0.0
  0
VERTEX
  5
173
  8
0
  6
CONTINUOUS
 62
     7
 10
376.6184912093
 20
159.1772243543
 30
0.0
  0
VERTEX
  5
174
  8
0
  6
CONTINUOUS
 62
     7
 10
376.1664715274
 20
158.0937771122
 30
0.0
  0
VERTEX
  5
175
  8
0
  6
CONTINUOUS
 62
     7
 10
375.628746229
 20
157.0327601605
 30
0.0
  0
VERTEX
  5
176
  8
0
  6
CONTINUOUS
 62
     7
 10
375.0137947333
 20
156.0109047883
 30
0.0
  0
VERTEX
  5
177
  8
0
  6
CONTINUOUS
 62
     7
 10
374.3313134496
 20
155.0443261955
 30
0.0
  0
VERTEX
  5
178
  8
0
  6
CONTINUOUS
 62
     7
 10
373.5920682634
 20
154.148269132
 30
0.0
  0
VERTEX
  5
179
  8
0
  6
CONTINUOUS
 62
     7
 10
372.8077154126
 20
153.3368634256
 30
0.0
  0
VERTEX
  5
17A
  8
0
  6
CONTINUOUS
 62
     7
 10
371.9906249972
 20
152.6229057454
 30
0.0
  0
VERTEX
  5
17B
  8
0
  6
CONTINUOUS
 62
     7
 10
371.1536860504
 20
152.017658098
 30
0.0
  0
VERTEX
  5
17C
  8
0
  6
CONTINUOUS
 62
     7
 10
370.3100931698
 20
151.5306622941
 30
0.0
  0
VERTEX
  5
17D
  8
0
  6
CONTINUOUS
 62
     7
 10
369.4731515888
 20
151.1695992812
 30
0.0
  0
VERTEX
  5
17E
  8
0
  6
CONTINUOUS
 62
     7
 10
368.6560638076
 20
150.9401659692
 30
0.0
  0
VERTEX
  5
17F
  8
0
  6
CONTINUOUS
 62
     7
 10
367.8717109569
 20
150.8459771502
 30
0.0
  0
VERTEX
  5
180
  8
0
  6
CONTINUOUS
 62
     7
 10
367.1324657707
 20
150.8885198893
 30
0.0
  0
VERTEX
  5
181
  8
0
  6
CONTINUOUS
 62
     7
 10
366.4499844869
 20
151.0671223644
 30
0.0
  0
VERTEX
  5
182
  8
0
  6
CONTINUOUS
 62
     7
 10
365.835030357
 20
151.3789683319
 30
0.0
  0
VERTEX
  5
183
  8
0
  6
CONTINUOUS
 62
     7
 10
365.2973050586
 20
151.8191408692
 30
0.0
  0
VERTEX
  5
184
  8
0
  6
CONTINUOUS
 62
     7
 10
364.8452853767
 20
152.3806972953
 30
0.0
  0
VERTEX
  5
185
  8
0
  6
CONTINUOUS
 62
     7
 10
364.4861020312
 20
153.054781731
 30
0.0
  0
VERTEX
  5
186
  8
0
  6
CONTINUOUS
 62
     7
 10
364.2254185048
 20
153.8307635144
 30
0.0
  0
VERTEX
  5
187
  8
0
  6
CONTINUOUS
 62
     7
 10
364.0673441153
 20
154.6964036552
 30
0.0
  0
VERTEX
  5
188
  8
0
  6
CONTINUOUS
 62
     7
 10
364.0143734292
 20
155.6380515155
 30
0.0
  0
SEQEND
  5
189
  8
0
  6
CONTINUOUS
 62
     7
  0
POLYLINE
  5
125
  8
0
  6
CONTINUOUS
 62
     7
 66
     1
 10
0.0
 20
0.0
 30
0.0
  0
VERTEX
  5
18A
  8
0
  6
CONTINUOUS
 62
     7
 10
255.1199343264
 20
187.4779658723
 30
0.0
  0
VERTEX
  5
18B
  8
0
  6
CONTINUOUS
 62
     7
 10
255.0669649574
 20
188.4807716245
 30
0.0
  0
VERTEX
  5
18C
  8
0
  6
CONTINUOUS
 62
     7
 10
254.9088912264
 20
189.5289201905
 30
0.0
  0
VERTEX
  5
18D
  8
0
  6
CONTINUOUS
 62
     7
 10
254.6482070415
 20
190.6058811471
 30
0.0
  0
VERTEX
  5
18E
  8
0
  6
CONTINUOUS
 62
     7
 10
254.2890230374
 20
191.6946702265
 30
0.0
  0
VERTEX
  5
18F
  8
0
  6
CONTINUOUS
 62
     7
 10
253.8370033555
 20
192.7781174686
 30
0.0
  0
VERTEX
  5
190
  8
0
  6
CONTINUOUS
 62
     7
 10
253.2992773986
 20
193.8391348005
 30
0.0
  0
VERTEX
  5
191
  8
0
  6
CONTINUOUS
 62
     7
 10
252.684324915
 20
194.860990743
 30
0.0
  0
VERTEX
  5
192
  8
0
  6
CONTINUOUS
 62
     7
 10
252.0018442898
 20
195.8275689556
 30
0.0
  0
VERTEX
  5
193
  8
0
  6
CONTINUOUS
 62
     7
 10
251.2625987744
 20
196.7236262092
 30
0.0
  0
VERTEX
  5
194
  8
0
  6
CONTINUOUS
 62
     7
 10
250.4782462528
 20
197.5350317255
 30
0.0
  0
VERTEX
  5
195
  8
0
  6
CONTINUOUS
 62
     7
 10
249.6611568253
 20
198.2489888354
 30
0.0
  0
VERTEX
  5
196
  8
0
  6
CONTINUOUS
 62
     7
 10
248.8242163556
 20
198.854237362
 30
0.0
  0
VERTEX
  5
197
  8
0
  6
CONTINUOUS
 62
     7
 10
247.9806238866
 20
199.3412329283
 30
0.0
  0
VERTEX
  5
198
  8
0
  6
CONTINUOUS
 62
     7
 10
247.1436834169
 20
199.7022952996
 30
0.0
  0
VERTEX
  5
199
  8
0
  6
CONTINUOUS
 62
     7
 10
246.3265939893
 20
199.9317295621
 30
0.0
  0
VERTEX
  5
19A
  8
0
  6
CONTINUOUS
 62
     7
 10
245.5422414678
 20
200.025918191
 30
0.0
  0
VERTEX
  5
19B
  8
0
  6
CONTINUOUS
 62
     7
 10
244.8029959524
 20
199.983375642
 30
0.0
  0
VERTEX
  5
19C
  8
0
  6
CONTINUOUS
 62
     7
 10
244.1205153272
 20
199.8047727867
 30
0.0
  0
VERTEX
  5
19D
  8
0
  6
CONTINUOUS
 62
     7
 10
243.5055628436
 20
199.4929258688
 30
0.0
  0
VERTEX
  5
19E
  8
0
  6
CONTINUOUS
 62
     7
 10
242.9678368867
 20
199.0527537117
 30
0.0
  0
VERTEX
  5
19F
  8
0
  6
CONTINUOUS
 62
     7
 10
242.5158172048
 20
198.4911972855
 30
0.0
  0
VERTEX
  5
1A0
  8
0
  6
CONTINUOUS
 62
     7
 10
242.1566332007
 20
197.81711323
 30
0.0
  0
VERTEX
  5
1A1
  8
0
  6
CONTINUOUS
 62
     7
 10
241.8959490157
 20
197.0411318268
 30
0.0
  0
VERTEX
  5
1A2
  8
0
  6
CONTINUOUS
 62
     7
 10
241.8407992059
 20
196.8053154745
 30
0.0
  0
SEQEND
  5
1A3
  8
0
  6
CONTINUOUS
 62
     7
  0
POLYLINE
  5
126
  8
0
  6
CONTINUOUS
 62
     7
 66
     1
 10
0.0
 20
0.0
 30
0.0
  0
VERTEX
  5
1A4
  8
0
  6
CONTINUOUS
 62
     7
 10
249.8401492226
 20
182.9485333248
 30
0.0
  0
VERTEX
  5
1A5
  8
0
  6
CONTINUOUS
 62
     7
 10
250.4782462528
 20
182.7800789954
 30
0.0
  0
VERTEX
  5
1A6
  8
0
  6
CONTINUOUS
 62
     7
 10
251.2625987744
 20
182.6858903666
 30
0.0
  0
VERTEX
  5
1A7
  8
0
  6
CONTINUOUS
 62
     7
 10
252.0018442898
 20
182.7284329156
 30
0.0
  0
VERTEX
  5
1A8
  8
0
  6
CONTINUOUS
 62
     7
 10
252.684324915
 20
182.9070357708
 30
0.0
  0
VERTEX
  5
1A9
  8
0
  6
CONTINUOUS
 62
     7
 10
253.2992773986
 20
183.2188826888
 30
0.0
  0
VERTEX
  5
1AA
  8
0
  6
CONTINUOUS
 62
     7
 10
253.8370033555
 20
183.6590548459
 30
0.0
  0
VERTEX
  5
1AB
  8
0
  6
CONTINUOUS
 62
     7
 10
254.2890230374
 20
184.220611272
 30
0.0
  0
VERTEX
  5
1AC
  8
0
  6
CONTINUOUS
 62
     7
 10
254.6482070415
 20
184.8946953275
 30
0.0
  0
VERTEX
  5
1AD
  8
0
  6
CONTINUOUS
 62
     7
 10
254.9088912264
 20
185.6706767307
 30
0.0
  0
VERTEX
  5
1AE
  8
0
  6
CONTINUOUS
 62
     7
 10
255.0669649574
 20
186.5363172517
 30
0.0
  0
VERTEX
  5
1AF
  8
0
  6
CONTINUOUS
 62
     7
 10
255.1199343264
 20
187.4779658723
 30
0.0
  0
SEQEND
  5
1B0
  8
0
  6
CONTINUOUS
 62
     7
  0
POLYLINE
  5
127
  8
0
  6
CONTINUOUS
 62
   254
 66
     1
 10
0.0
 20
0.0
 30
0.0
  0
VERTEX
  5
1B1
  8
0
  6
CONTINUOUS
 62
   254
 10
254.4128280878
 20
187.886169615
 30
0.0
  0
VERTEX
  5
1B2
  8
0
  6
CONTINUOUS
 62
   254
 10
254.3591995158
 20
188.8422197654
 30
0.0
  0
VERTEX
  5
1B3
  8
0
  6
CONTINUOUS
 62
   254
 10
254.1992732991
 20
189.8431259214
 30
0.0
  0
VERTEX
  5
1B4
  8
0
  6
CONTINUOUS
 62
   254
 10
253.9359009355
 20
190.8710284041
 30
0.0
  0
VERTEX
  5
1B5
  8
0
  6
CONTINUOUS
 62
   254
 10
253.5737844327
 20
191.9075829135
 30
0.0
  0
VERTEX
  5
1B6
  8
0
  6
CONTINUOUS
 62
   254
 10
253.1193844417
 20
192.9342927466
 30
0.0
  0
VERTEX
  5
1B7
  8
0
  6
CONTINUOUS
 62
   254
 10
252.5808099502
 20
193.9328366415
 30
0.0
  0
VERTEX
  5
1B8
  8
0
  6
CONTINUOUS
 62
   254
 10
251.967672086
 20
194.885395003
 30
0.0
  0
VERTEX
  5
1B9
  8
0
  6
CONTINUOUS
 62
   254
 10
251.2909122369
 20
195.77496928
 30
0.0
  0
VERTEX
  5
1BA
  8
0
  6
CONTINUOUS
 62
   254
 10
250.562607286
 20
196.5856852776
 30
0.0
  0
VERTEX
  5
1BB
  8
0
  6
CONTINUOUS
 62
   254
 10
249.7957537738
 20
197.3030755532
 30
0.0
  0
VERTEX
  5
1BC
  8
0
  6
CONTINUOUS
 62
   254
 10
249.0040360494
 20
197.9143387366
 30
0.0
  0
VERTEX
  5
1BD
  8
0
  6
CONTINUOUS
 62
   254
 10
248.2015824854
 20
198.4085665768
 30
0.0
  0
VERTEX
  5
1BE
  8
0
  6
CONTINUOUS
 62
   254
 10
247.4027129264
 20
198.7769387865
 30
0.0
  0
VERTEX
  5
1BF
  8
0
  6
CONTINUOUS
 62
   254
 10
246.6216831735
 20
199.0128834759
 30
0.0
  0
VERTEX
  5
1C0
  8
0
  6
CONTINUOUS
 62
   254
 10
245.8724305804
 20
199.1121886557
 30
0.0
  0
VERTEX
  5
1C1
  8
0
  6
CONTINUOUS
 62
   254
 10
245.1683258231
 20
199.0730827989
 30
0.0
  0
VERTEX
  5
1C2
  8
0
  6
CONTINUOUS
 62
   254
 10
244.5219334369
 20
198.8962635736
 30
0.0
  0
VERTEX
  5
1C3
  8
0
  6
CONTINUOUS
 62
   254
 10
243.9447886521
 20
198.5848867472
 30
0.0
  0
VERTEX
  5
1C4
  8
0
  6
CONTINUOUS
 62
   254
 10
243.447190117
 20
198.1445082775
 30
0.0
  0
VERTEX
  5
1C5
  8
0
  6
CONTINUOUS
 62
   254
 10
243.0380179749
 20
197.582987241
 30
0.0
  0
VERTEX
  5
1C6
  8
0
  6
CONTINUOUS
 62
   254
 10
242.9664878583
 20
197.4551613561
 30
0.0
  0
SEQEND
  5
1C7
  8
0
  6
CONTINUOUS
 62
   254
  0
POLYLINE
  5
128
  8
0
  6
CONTINUOUS
 62
   254
 66
     1
 10
0.0
 20
0.0
 30
0.0
  0
VERTEX
  5
1C8
  8
0
  6
CONTINUOUS
 62
   254
 10
250.9658377103
 20
183.5983794916
 30
0.0
  0
VERTEX
  5
1C9
  8
0
  6
CONTINUOUS
 62
   254
 10
251.2909122369
 20
183.6018572677
 30
0.0
  0
VERTEX
  5
1CA
  8
0
  6
CONTINUOUS
 62
   254
 10
251.967672086
 20
183.7100612549
 30
0.0
  0
VERTEX
  5
1CB
  8
0
  6
CONTINUOUS
 62
   254
 10
252.5808099502
 20
183.9547057068
 30
0.0
  0
VERTEX
  5
1CC
  8
0
  6
CONTINUOUS
 62
   254
 10
253.1193844417
 20
184.3314247297
 30
0.0
  0
VERTEX
  5
1CD
  8
0
  6
CONTINUOUS
 62
   254
 10
253.5737844327
 20
184.8334955003
 30
0.0
  0
VERTEX
  5
1CE
  8
0
  6
CONTINUOUS
 62
   254
 10
253.9359009355
 20
185.4519591949
 30
0.0
  0
VERTEX
  5
1CF
  8
0
  6
CONTINUOUS
 62
   254
 10
254.1992732991
 20
186.1757784193
 30
0.0
  0
VERTEX
  5
1D0
  8
0
  6
CONTINUOUS
 62
   254
 10
254.3591995158
 20
186.9920376958
 30
0.0
  0
VERTEX
  5
1D1
  8
0
  6
CONTINUOUS
 62
   254
 10
254.4128280878
 20
187.886169615
 30
0.0
  0
SEQEND
  5
1D2
  8
0
  6
CONTINUOUS
 62
   254
  0
ARC
  5
129
  8
0
  6
CONTINUOUS
 62
     7
 10
244.5934590534
 20
184.0727391036
 30
0.0
 40
3.498560327259357
 50
230.9862811975
 51
9.0083320288
  0
POLYLINE
  5
12A
  8
0
  6
CONTINUOUS
 62
     7
 66
     1
 10
0.0
 20
0.0
 30
0.0
  0
VERTEX
  5
1D3
  8
0
  6
CONTINUOUS
 62
     7
 10
236.7351576362
 20
191.1518022174
 30
0.0
  0
VERTEX
  5
1D4
  8
0
  6
CONTINUOUS
 62
     7
 10
236.7878464652
 20
192.0108706253
 30
0.0
  0
VERTEX
  5
1D5
  8
0
  6
CONTINUOUS
 62
     7
 10
236.9449294159
 20
192.7931040538
 30
0.0
  0
VERTEX
  5
1D6
  8
0
  6
CONTINUOUS
 62
     7
 10
237.203481563
 20
193.4839305236
 30
0.0
  0
VERTEX
  5
1D7
  8
0
  6
CONTINUOUS
 62
     7
 10
237.5586859827
 20
194.0704813147
 30
0.0
  0
VERTEX
  5
1D8
  8
0
  6
CONTINUOUS
 62
     7
 10
238.0039266074
 20
194.5418298558
 30
0.0
  0
VERTEX
  5
1D9
  8
0
  6
CONTINUOUS
 62
     7
 10
238.5309084107
 20
194.8891963949
 30
0.0
  0
VERTEX
  5
1DA
  8
0
  6
CONTINUOUS
 62
     7
 10
239.1298157866
 20
195.1061096124
 30
0.0
  0
VERTEX
  5
1DB
  8
0
  6
CONTINUOUS
 62
     7
 10
239.7894913447
 20
195.1885290726
 30
0.0
  0
VERTEX
  5
1DC
  8
0
  6
CONTINUOUS
 62
     7
 10
240.497646974
 20
195.1349191985
 30
0.0
  0
VERTEX
  5
1DD
  8
0
  6
CONTINUOUS
 62
     7
 10
241.2410911222
 20
194.9462789035
 30
0.0
  0
VERTEX
  5
1DE
  8
0
  6
CONTINUOUS
 62
     7
 10
242.0059747632
 20
194.6261220328
 30
0.0
  0
VERTEX
  5
1DF
  8
0
  6
CONTINUOUS
 62
     7
 10
242.7780495455
 20
194.1804127481
 30
0.0
  0
VERTEX
  5
1E0
  8
0
  6
CONTINUOUS
 62
     7
 10
243.5429331865
 20
193.6174537646
 30
0.0
  0
VERTEX
  5
1E1
  8
0
  6
CONTINUOUS
 62
     7
 10
244.2863773348
 20
192.9477317168
 30
0.0
  0
VERTEX
  5
1E2
  8
0
  6
CONTINUOUS
 62
     7
 10
244.994532964
 20
192.1837225049
 30
0.0
  0
VERTEX
  5
1E3
  8
0
  6
CONTINUOUS
 62
     7
 10
245.6542085222
 20
191.3396578573
 30
0.0
  0
VERTEX
  5
1E4
  8
0
  6
CONTINUOUS
 62
     7
 10
246.253115898
 20
190.4312609023
 30
0.0
  0
VERTEX
  5
1E5
  8
0
  6
CONTINUOUS
 62
     7
 10
246.7800977013
 20
189.4754541242
 30
0.0
  0
VERTEX
  5
1E6
  8
0
  6
CONTINUOUS
 62
     7
 10
247.2253383261
 20
188.4900416998
 30
0.0
  0
VERTEX
  5
1E7
  8
0
  6
CONTINUOUS
 62
     7
 10
247.5805427457
 20
187.4933806152
 30
0.0
  0
VERTEX
  5
1E8
  8
0
  6
CONTINUOUS
 62
     7
 10
247.8390948928
 20
186.5040361906
 30
0.0
  0
VERTEX
  5
1E9
  8
0
  6
CONTINUOUS
 62
     7
 10
247.9961778435
 20
185.5404386476
 30
0.0
  0
VERTEX
  5
1EA
  8
0
  6
CONTINUOUS
 62
     7
 10
248.0488666725
 20
184.6205370126
 30
0.0
  0
SEQEND
  5
1EB
  8
0
  6
CONTINUOUS
 62
     7
  0
POLYLINE
  5
12B
  8
0
  6
CONTINUOUS
 62
     7
 66
     1
 10
0.0
 20
0.0
 30
0.0
  0
VERTEX
  5
1EC
  8
0
  6
CONTINUOUS
 62
     7
 10
247.3417601047
 20
184.6205375828
 30
0.0
  0
VERTEX
  5
1ED
  8
0
  6
CONTINUOUS
 62
     7
 10
247.2877801992
 20
185.5232436049
 30
0.0
  0
VERTEX
  5
1EE
  8
0
  6
CONTINUOUS
 62
     7
 10
247.1269392642
 20
186.4698970166
 30
0.0
  0
VERTEX
  5
1EF
  8
0
  6
CONTINUOUS
 62
     7
 10
246.862511583
 20
187.4412266648
 30
0.0
  0
VERTEX
  5
1F0
  8
0
  6
CONTINUOUS
 62
     7
 10
246.4998800984
 20
188.4174593082
 30
0.0
  0
VERTEX
  5
1F1
  8
0
  6
CONTINUOUS
 62
     7
 10
246.0464267651
 20
189.3787213221
 30
0.0
  0
VERTEX
  5
1F2
  8
0
  6
CONTINUOUS
 62
     7
 10
245.5113827307
 20
190.3054447712
 30
0.0
  0
VERTEX
  5
1F3
  8
0
  6
CONTINUOUS
 62
     7
 10
244.9056403214
 20
191.1787635934
 30
0.0
  0
VERTEX
  5
1F4
  8
0
  6
CONTINUOUS
 62
     7
 10
244.2415301245
 20
191.9808997033
 30
0.0
  0
VERTEX
  5
1F5
  8
0
  6
CONTINUOUS
 62
     7
 10
243.5325718942
 20
192.6955239044
 30
0.0
  0
VERTEX
  5
1F6
  8
0
  6
CONTINUOUS
 62
     7
 10
242.7931977979
 20
193.30808866
 30
0.0
  0
VERTEX
  5
1F7
  8
0
  6
CONTINUOUS
 62
     7
 10
242.0384593644
 20
193.806123886
 30
0.0
  0
VERTEX
  5
1F8
  8
0
  6
CONTINUOUS
 62
     7
 10
241.2837209308
 20
194.179491107
 30
0.0
  0
VERTEX
  5
1F9
  8
0
  6
CONTINUOUS
 62
     7
 10
240.5443468346
 20
194.4205895122
 30
0.0
  0
VERTEX
  5
1FA
  8
0
  6
CONTINUOUS
 62
     7
 10
239.8353886042
 20
194.5245110607
 30
0.0
  0
VERTEX
  5
1FB
  8
0
  6
CONTINUOUS
 62
     7
 10
239.1712784073
 20
194.489140263
 30
0.0
  0
VERTEX
  5
1FC
  8
0
  6
CONTINUOUS
 62
     7
 10
238.565535998
 20
194.31519674
 30
0.0
  0
VERTEX
  5
1FD
  8
0
  6
CONTINUOUS
 62
     7
 10
238.0304919636
 20
194.0062219839
 30
0.0
  0
VERTEX
  5
1FE
  8
0
  6
CONTINUOUS
 62
     7
 10
237.5770386303
 20
193.5685060446
 30
0.0
  0
VERTEX
  5
1FF
  8
0
  6
CONTINUOUS
 62
     7
 10
237.2144071457
 20
193.0109588013
 30
0.0
  0
VERTEX
  5
200
  8
0
  6
CONTINUOUS
 62
     7
 10
236.9499794645
 20
192.3449308554
 30
0.0
  0
VERTEX
  5
201
  8
0
  6
CONTINUOUS
 62
     7
 10
236.7891385295
 20
191.5839804344
 30
0.0
  0
VERTEX
  5
202
  8
0
  6
CONTINUOUS
 62
     7
 10
236.735158624
 20
190.7435982846
 30
0.0
  0
VERTEX
  5
203
  8
0
  6
CONTINUOUS
 62
     7
 10
236.7891385295
 20
189.8408922625
 30
0.0
  0
VERTEX
  5
204
  8
0
  6
CONTINUOUS
 62
     7
 10
236.9499794645
 20
188.8942388508
 30
0.0
  0
VERTEX
  5
205
  8
0
  6
CONTINUOUS
 62
     7
 10
237.2144071457
 20
187.9229092027
 30
0.0
  0
VERTEX
  5
206
  8
0
  6
CONTINUOUS
 62
     7
 10
237.5770386303
 20
186.9466765593
 30
0.0
  0
VERTEX
  5
207
  8
0
  6
CONTINUOUS
 62
     7
 10
238.0304919636
 20
185.9854145454
 30
0.0
  0
VERTEX
  5
208
  8
0
  6
CONTINUOUS
 62
     7
 10
238.565535998
 20
185.0586910962
 30
0.0
  0
VERTEX
  5
209
  8
0
  6
CONTINUOUS
 62
     7
 10
239.1712784073
 20
184.1853722741
 30
0.0
  0
VERTEX
  5
20A
  8
0
  6
CONTINUOUS
 62
     7
 10
239.8353886042
 20
183.3832361641
 30
0.0
  0
VERTEX
  5
20B
  8
0
  6
CONTINUOUS
 62
     7
 10
240.5443468346
 20
182.668611963
 30
0.0
  0
VERTEX
  5
20C
  8
0
  6
CONTINUOUS
 62
     7
 10
241.2837209308
 20
182.0560472075
 30
0.0
  0
VERTEX
  5
20D
  8
0
  6
CONTINUOUS
 62
     7
 10
242.0384593644
 20
181.5580119814
 30
0.0
  0
VERTEX
  5
20E
  8
0
  6
CONTINUOUS
 62
     7
 10
242.7931977979
 20
181.1846447604
 30
0.0
  0
VERTEX
  5
20F
  8
0
  6
CONTINUOUS
 62
     7
 10
243.5325718942
 20
180.9435463552
 30
0.0
  0
VERTEX
  5
210
  8
0
  6
CONTINUOUS
 62
     7
 10
244.2415301245
 20
180.8396248068
 30
0.0
  0
VERTEX
  5
211
  8
0
  6
CONTINUOUS
 62
     7
 10
244.9056403214
 20
180.8749956044
 30
0.0
  0
VERTEX
  5
212
  8
0
  6
CONTINUOUS
 62
     7
 10
245.5113827307
 20
181.0489391274
 30
0.0
  0
VERTEX
  5
213
  8
0
  6
CONTINUOUS
 62
     7
 10
246.0464267651
 20
181.3579138836
 30
0.0
  0
VERTEX
  5
214
  8
0
  6
CONTINUOUS
 62
     7
 10
246.4998800984
 20
181.7956298228
 30
0.0
  0
VERTEX
  5
215
  8
0
  6
CONTINUOUS
 62
     7
 10
246.862511583
 20
182.3531770661
 30
0.0
  0
VERTEX
  5
216
  8
0
  6
CONTINUOUS
 62
     7
 10
247.1269392642
 20
183.019205012
 30
0.0
  0
VERTEX
  5
217
  8
0
  6
CONTINUOUS
 62
     7
 10
247.2877801992
 20
183.780155433
 30
0.0
  0
VERTEX
  5
218
  8
0
  6
CONTINUOUS
 62
     7
 10
247.3417601047
 20
184.6205375828
 30
0.0
  0
SEQEND
  5
219
  8
0
  6
CONTINUOUS
 62
     7
  0
POLYLINE
  5
12C
  8
0
  6
CONTINUOUS
 62
     7
 66
     1
 10
0.0
 20
0.0
 30
0.0
  0
VERTEX
  5
21A
  8
0
  6
CONTINUOUS
 62
     7
 10
244.4027451128
 20
198.2842951635
 30
0.0
  0
VERTEX
  5
21B
  8
0
  6
CONTINUOUS
 62
     7
 10
244.5413163774
 20
198.3589310587
 30
0.0
  0
VERTEX
  5
21C
  8
0
  6
CONTINUOUS
 62
     7
 10
245.1402237533
 20
198.5758442762
 30
0.0
  0
VERTEX
  5
21D
  8
0
  6
CONTINUOUS
 62
     7
 10
245.7998993115
 20
198.6582637364
 30
0.0
  0
VERTEX
  5
21E
  8
0
  6
CONTINUOUS
 62
     7
 10
246.5080549407
 20
198.6046538623
 30
0.0
  0
VERTEX
  5
21F
  8
0
  6
CONTINUOUS
 62
     7
 10
247.251499089
 20
198.4160135673
 30
0.0
  0
VERTEX
  5
220
  8
0
  6
CONTINUOUS
 62
     7
 10
248.0163827299
 20
198.0958566966
 30
0.0
  0
VERTEX
  5
221
  8
0
  6
CONTINUOUS
 62
     7
 10
248.7884575123
 20
197.6501474119
 30
0.0
  0
VERTEX
  5
222
  8
0
  6
CONTINUOUS
 62
     7
 10
249.5533411532
 20
197.0871884284
 30
0.0
  0
VERTEX
  5
223
  8
0
  6
CONTINUOUS
 62
     7
 10
250.2967853015
 20
196.4174663806
 30
0.0
  0
VERTEX
  5
224
  8
0
  6
CONTINUOUS
 62
     7
 10
251.0049409307
 20
195.6534571687
 30
0.0
  0
VERTEX
  5
225
  8
0
  6
CONTINUOUS
 62
     7
 10
251.6646164889
 20
194.8093925212
 30
0.0
  0
VERTEX
  5
226
  8
0
  6
CONTINUOUS
 62
     7
 10
252.2635238648
 20
193.9009955661
 30
0.0
  0
VERTEX
  5
227
  8
0
  6
CONTINUOUS
 62
     7
 10
252.790505668
 20
192.945188788
 30
0.0
  0
VERTEX
  5
228
  8
0
  6
CONTINUOUS
 62
     7
 10
253.2357462928
 20
191.9597763637
 30
0.0
  0
VERTEX
  5
229
  8
0
  6
CONTINUOUS
 62
     7
 10
253.5909507124
 20
190.9631152791
 30
0.0
  0
VERTEX
  5
22A
  8
0
  6
CONTINUOUS
 62
     7
 10
253.8495028595
 20
189.9737708544
 30
0.0
  0
VERTEX
  5
22B
  8
0
  6
CONTINUOUS
 62
     7
 10
254.0065858103
 20
189.0101733114
 30
0.0
  0
VERTEX
  5
22C
  8
0
  6
CONTINUOUS
 62
     7
 10
254.0592746393
 20
188.0902716764
 30
0.0
  0
VERTEX
  5
22D
  8
0
  6
CONTINUOUS
 62
     7
 10
254.0065858103
 20
187.2312032684
 30
0.0
  0
VERTEX
  5
22E
  8
0
  6
CONTINUOUS
 62
     7
 10
253.8495028595
 20
186.4489698399
 30
0.0
  0
VERTEX
  5
22F
  8
0
  6
CONTINUOUS
 62
     7
 10
253.5909507124
 20
185.7581433702
 30
0.0
  0
VERTEX
  5
230
  8
0
  6
CONTINUOUS
 62
     7
 10
253.2357462928
 20
185.171592579
 30
0.0
  0
VERTEX
  5
231
  8
0
  6
CONTINUOUS
 62
     7
 10
252.790505668
 20
184.7002440379
 30
0.0
  0
VERTEX
  5
232
  8
0
  6
CONTINUOUS
 62
     7
 10
252.4020951294
 20
184.4275133941
 30
0.0
  0
SEQEND
  5
233
  8
0
  6
CONTINUOUS
 62
     7
  0
POLYLINE
  5
12D
  8
0
  6
CONTINUOUS
 62
     7
 66
     1
 10
0.0
 20
0.0
 30
0.0
  0
VERTEX
  5
234
  8
0
  6
CONTINUOUS
 62
     7
 10
237.9725953646
 20
190.0292412598
 30
0.0
  0
VERTEX
  5
235
  8
0
  6
CONTINUOUS
 62
     7
 10
238.0252473151
 20
190.7519945047
 30
0.0
  0
VERTEX
  5
236
  8
0
  6
CONTINUOUS
 62
     7
 10
238.181839321
 20
191.3952382746
 30
0.0
  0
VERTEX
  5
237
  8
0
  6
CONTINUOUS
 62
     7
 10
238.4383157358
 20
191.9423128234
 30
0.0
  0
VERTEX
  5
238
  8
0
  6
CONTINUOUS
 62
     7
 10
238.7880338211
 20
192.3790494387
 30
0.0
  0
VERTEX
  5
239
  8
0
  6
CONTINUOUS
 62
     7
 10
239.2219362851
 20
192.6941366208
 30
0.0
  0
VERTEX
  5
23A
  8
0
  6
CONTINUOUS
 62
     7
 10
239.7287853949
 20
192.8794137386
 30
0.0
  0
VERTEX
  5
23B
  8
0
  6
CONTINUOUS
 62
     7
 10
240.2954537244
 20
192.9300825605
 30
0.0
  0
VERTEX
  5
23C
  8
0
  6
CONTINUOUS
 62
     7
 10
240.907265033
 20
192.8448302434
 30
0.0
  0
VERTEX
  5
23D
  8
0
  6
CONTINUOUS
 62
     7
 10
241.5483736284
 20
192.6258654671
 30
0.0
  0
VERTEX
  5
23E
  8
0
  6
CONTINUOUS
 62
     7
 10
242.202175196
 20
192.2788588356
 30
0.0
  0
VERTEX
  5
23F
  8
0
  6
CONTINUOUS
 62
     7
 10
242.8517366424
 20
191.8127973957
 30
0.0
  0
VERTEX
  5
240
  8
0
  6
CONTINUOUS
 62
     7
 10
243.4802345633
 20
191.2397528084
 30
0.0
  0
VERTEX
  5
241
  8
0
  6
CONTINUOUS
 62
     7
 10
244.0713913642
 20
190.5745657026
 30
0.0
  0
VERTEX
  5
242
  8
0
  6
CONTINUOUS
 62
     7
 10
244.6098962147
 20
189.8344642592
 30
0.0
  0
VERTEX
  5
243
  8
0
  6
CONTINUOUS
 62
     7
 10
245.0818022944
 20
189.0386170131
 30
0.0
  0
VERTEX
  5
244
  8
0
  6
CONTINUOUS
 62
     7
 10
245.4748871819
 20
188.2076360197
 30
0.0
  0
VERTEX
  5
245
  8
0
  6
CONTINUOUS
 62
     7
 10
245.778970767
 20
187.3630429445
 30
0.0
  0
VERTEX
  5
246
  8
0
  6
CONTINUOUS
 62
     7
 10
245.9861768574
 20
186.5267124288
 30
0.0
  0
VERTEX
  5
247
  8
0
  6
CONTINUOUS
 62
     7
 10
246.0911389738
 20
185.7203051606
 30
0.0
  0
VERTEX
  5
248
  8
0
  6
CONTINUOUS
 62
     7
 10
246.0911389738
 20
184.9647064277
 30
0.0
  0
VERTEX
  5
249
  8
0
  6
CONTINUOUS
 62
     7
 10
245.9861768574
 20
184.2794858396
 30
0.0
  0
VERTEX
  5
24A
  8
0
  6
CONTINUOUS
 62
     7
 10
245.778970767
 20
183.6823903836
 30
0.0
  0
VERTEX
  5
24B
  8
0
  6
CONTINUOUS
 62
     7
 10
245.4748871819
 20
183.1888847427
 30
0.0
  0
VERTEX
  5
24C
  8
0
  6
CONTINUOUS
 62
     7
 10
245.0818022944
 20
182.8117499
 30
0.0
  0
VERTEX
  5
24D
  8
0
  6
CONTINUOUS
 62
     7
 10
244.6098962147
 20
182.5607538161
 30
0.0
  0
VERTEX
  5
24E
  8
0
  6
CONTINUOUS
 62
     7
 10
244.0713913642
 20
182.4423968388
 30
0.0
  0
VERTEX
  5
24F
  8
0
  6
CONTINUOUS
 62
     7
 10
243.4802345633
 20
182.4597448471
 30
0.0
  0
VERTEX
  5
250
  8
0
  6
CONTINUOUS
 62
     7
 10
242.8517366424
 20
182.6123485134
 30
0.0
  0
VERTEX
  5
251
  8
0
  6
CONTINUOUS
 62
     7
 10
242.202175196
 20
182.8962547561
 30
0.0
  0
VERTEX
  5
252
  8
0
  6
CONTINUOUS
 62
     7
 10
241.5483736284
 20
183.3041113467
 30
0.0
  0
VERTEX
  5
253
  8
0
  6
CONTINUOUS
 62
     7
 10
240.907265033
 20
183.825354799
 30
0.0
  0
VERTEX
  5
254
  8
0
  6
CONTINUOUS
 62
     7
 10
240.2954537244
 20
184.446484783
 30
0.0
  0
VERTEX
  5
255
  8
0
  6
CONTINUOUS
 62
     7
 10
239.7287853949
 20
185.1514149318
 30
0.0
  0
VERTEX
  5
256
  8
0
  6
CONTINUOUS
 62
     7
 10
239.2219362851
 20
185.9218875756
 30
0.0
  0
VERTEX
  5
257
  8
0
  6
CONTINUOUS
 62
     7
 10
238.7880338211
 20
186.7379478791
 30
0.0
  0
VERTEX
  5
258
  8
0
  6
CONTINUOUS
 62
     7
 10
238.4383157358
 20
187.5784604011
 30
0.0
  0
VERTEX
  5
259
  8
0
  6
CONTINUOUS
 62
     7
 10
238.181839321
 20
188.4216563153
 30
0.0
  0
VERTEX
  5
25A
  8
0
  6
CONTINUOUS
 62
     7
 10
238.0252473151
 20
189.2456973667
 30
0.0
  0
VERTEX
  5
25B
  8
0
  6
CONTINUOUS
 62
     7
 10
237.9725953646
 20
190.0292412598
 30
0.0
  0
SEQEND
  5
25C
  8
0
  6
CONTINUOUS
 62
     7
  0
ARC
  5
12E
  8
0
  6
CONTINUOUS
 62
     7
 10
243.3979452057
 20
185.9515643207
 30
0.0
 40
2.69543203486703
 50
325.1274760898
 51
356.1884664131
  0
ARC
  5
12F
  8
0
  6
CONTINUOUS
 62
     7
 10
241.2198626386
 20
189.7252194116
 30
0.0
 40
2.694950267882749
 50
63.8041692272
 51
94.8806990952
  0
LINE
  5
130
  8
0
  6
CONTINUOUS
 62
     7
 10
240.9905728065
 20
192.4103978264
 30
0.0
 11
239.1905405049
 21
192.6514426837
 31
0.0
  0
POLYLINE
  5
131
  8
0
  6
CONTINUOUS
 62
     7
 66
     1
 10
0.0
 20
0.0
 30
0.0
  0
VERTEX
  5
25D
  8
0
  6
CONTINUOUS
 62
     7
 10
239.1905405049
 20
192.6514426837
 30
0.0
  0
VERTEX
  5
25E
  8
0
  6
CONTINUOUS
 62
     7
 10
239.7843500878
 20
191.9216515272
 30
0.0
  0
VERTEX
  5
25F
  8
0
  6
CONTINUOUS
 62
     7
 10
239.8817830648
 20
191.7700990508
 30
0.0
  0
SEQEND
  5
260
  8
0
  6
CONTINUOUS
 62
     7
  0
ARC
  5
132
  8
0
  6
CONTINUOUS
 62
     7
 10
243.7006197475
 20
189.7434981457
 30
0.0
 40
4.32326552942257
 50
152.045760055
 51
207.954239945
  0
LINE
  5
133
  8
0
  6
CONTINUOUS
 62
     7
 10
239.8817830648
 20
187.7168972405
 30
0.0
 11
239.1905405049
 21
186.0374619359
 31
0.0
  0
POLYLINE
  5
134
  8
0
  6
CONTINUOUS
 62
     7
 66
     1
 10
0.0
 20
0.0
 30
0.0
  0
VERTEX
  5
261
  8
0
  6
CONTINUOUS
 62
     7
 10
239.1905405049
 20
186.0374619359
 30
0.0
  0
VERTEX
  5
262
  8
0
  6
CONTINUOUS
 62
     7
 10
240.7131900732
 20
185.8440530013
 30
0.0
  0
VERTEX
  5
263
  8
0
  6
CONTINUOUS
 62
     7
 10
240.9905728065
 20
185.7964170786
 30
0.0
  0
SEQEND
  5
264
  8
0
  6
CONTINUOUS
 62
     7
  0
ARC
  5
135
  8
0
  6
CONTINUOUS
 62
     7
 10
244.6543188933
 20
188.0896972376
 30
0.0
 40
4.322287505024899
 50
212.0440392902
 51
267.9613372425
  0
LINE
  5
136
  8
0
  6
CONTINUOUS
 62
     7
 10
244.5005583993
 20
183.7701455263
 30
0.0
 11
244.9181055811
 21
182.7310089972
 31
0.0
  0
POLYLINE
  5
137
  8
0
  6
CONTINUOUS
 62
     7
 66
     1
 10
0.0
 20
0.0
 30
0.0
  0
VERTEX
  5
265
  8
0
  6
CONTINUOUS
 62
     7
 10
244.9181055811
 20
182.7310089972
 30
0.0
  0
VERTEX
  5
266
  8
0
  6
CONTINUOUS
 62
     7
 10
245.511915164
 20
184.1463981047
 30
0.0
  0
VERTEX
  5
267
  8
0
  6
CONTINUOUS
 62
     7
 10
245.609348141
 20
184.4104443019
 30
0.0
  0
SEQEND
  5
268
  8
0
  6
CONTINUOUS
 62
     7
  0
POLYLINE
  5
138
  8
0
  6
CONTINUOUS
 62
   254
 66
     1
 10
0.0
 20
0.0
 30
0.0
  0
VERTEX
  5
269
  8
0
  6
CONTINUOUS
 62
   254
 10
242.9664878583
 20
197.4551613561
 30
0.0
  0
VERTEX
  5
26A
  8
0
  6
CONTINUOUS
 62
   254
 10
243.2310558094
 20
197.8783130572
 30
0.0
  0
VERTEX
  5
26B
  8
0
  6
CONTINUOUS
 62
   254
 10
243.6854558005
 20
198.3803838278
 30
0.0
  0
VERTEX
  5
26C
  8
0
  6
CONTINUOUS
 62
   254
 10
244.224030292
 20
198.7571028508
 30
0.0
  0
VERTEX
  5
26D
  8
0
  6
CONTINUOUS
 62
   254
 10
244.8371681562
 20
199.0017473026
 30
0.0
  0
VERTEX
  5
26E
  8
0
  6
CONTINUOUS
 62
   254
 10
245.5139280052
 20
199.1099512899
 30
0.0
  0
VERTEX
  5
26F
  8
0
  6
CONTINUOUS
 62
   254
 10
246.2422329561
 20
199.0797842898
 30
0.0
  0
VERTEX
  5
270
  8
0
  6
CONTINUOUS
 62
   254
 10
247.0090864683
 20
198.9117843463
 30
0.0
  0
VERTEX
  5
271
  8
0
  6
CONTINUOUS
 62
   254
 10
247.8008041928
 20
198.6089497022
 30
0.0
  0
VERTEX
  5
272
  8
0
  6
CONTINUOUS
 62
   254
 10
248.6032577568
 20
198.1766843784
 30
0.0
  0
VERTEX
  5
273
  8
0
  6
CONTINUOUS
 62
   254
 10
249.4021273157
 20
197.6227014281
 30
0.0
  0
VERTEX
  5
274
  8
0
  6
CONTINUOUS
 62
   254
 10
250.1831570686
 20
196.9568883593
 30
0.0
  0
VERTEX
  5
275
  8
0
  6
CONTINUOUS
 62
   254
 10
250.9324096618
 20
196.1911249086
 30
0.0
  0
VERTEX
  5
276
  8
0
  6
CONTINUOUS
 62
   254
 10
251.6365144191
 20
195.339077003
 30
0.0
  0
VERTEX
  5
277
  8
0
  6
CONTINUOUS
 62
   254
 10
252.2829068053
 20
194.4159490142
 30
0.0
  0
VERTEX
  5
278
  8
0
  6
CONTINUOUS
 62
   254
 10
252.8600515901
 20
193.4382150031
 30
0.0
  0
VERTEX
  5
279
  8
0
  6
CONTINUOUS
 62
   254
 10
253.3576501252
 20
192.4233214937
 30
0.0
  0
VERTEX
  5
27A
  8
0
  6
CONTINUOUS
 62
   254
 10
253.7668222673
 20
191.3893803577
 30
0.0
  0
VERTEX
  5
27B
  8
0
  6
CONTINUOUS
 62
   254
 10
254.080266404
 20
190.354841641
 30
0.0
  0
VERTEX
  5
27C
  8
0
  6
CONTINUOUS
 62
   254
 10
254.2923895169
 20
189.3381669566
 30
0.0
  0
VERTEX
  5
27D
  8
0
  6
CONTINUOUS
 62
   254
 10
254.3994056336
 20
188.3574989778
 30
0.0
  0
VERTEX
  5
27E
  8
0
  6
CONTINUOUS
 62
   254
 10
254.3994056336
 20
187.4303374878
 30
0.0
  0
VERTEX
  5
27F
  8
0
  6
CONTINUOUS
 62
   254
 10
254.2923895169
 20
186.5732276874
 30
0.0
  0
VERTEX
  5
280
  8
0
  6
CONTINUOUS
 62
   254
 10
254.080266404
 20
185.801465136
 30
0.0
  0
VERTEX
  5
281
  8
0
  6
CONTINUOUS
 62
   254
 10
253.7668222673
 20
185.1288213165
 30
0.0
  0
VERTEX
  5
282
  8
0
  6
CONTINUOUS
 62
   254
 10
253.3576501252
 20
184.56730028
 30
0.0
  0
VERTEX
  5
283
  8
0
  6
CONTINUOUS
 62
   254
 10
252.8600515901
 20
184.1269218103
 30
0.0
  0
VERTEX
  5
284
  8
0
  6
CONTINUOUS
 62
   254
 10
252.2829068053
 20
183.8155449839
 30
0.0
  0
VERTEX
  5
285
  8
0
  6
CONTINUOUS
 62
   254
 10
251.6365144191
 20
183.6387257586
 30
0.0
  0
VERTEX
  5
286
  8
0
  6
CONTINUOUS
 62
   254
 10
250.9658377103
 20
183.5983794916
 30
0.0
  0
SEQEND
  5
287
  8
0
  6
CONTINUOUS
 62
   254
  0
LINE
  5
139
  8
0
  6
CONTINUOUS
 62
     7
 10
245.6092506764
 20
184.4101799544
 30
0.0
 11
244.5005583993
 21
183.7701455263
 31
0.0
  0
LINE
  5
13A
  8
0
  6
CONTINUOUS
 62
     7
 10
239.8817830648
 20
191.7700990508
 30
0.0
 11
240.9910383975
 21
192.410458524
 31
0.0
  0
LINE
  5
13B
  8
0
  6
CONTINUOUS
 62
     7
 10
240.9905728065
 20
185.7964170786
 30
0.0
 11
245.4142297174
 21
188.3501398557
 31
0.0
  0
LINE
  5
13C
  8
0
  6
CONTINUOUS
 62
     7
 10
244.3056038709
 20
190.2707146324
 30
0.0
 11
239.8817830648
 21
187.7168972405
 31
0.0
  0
LINE
  5
13D
  8
0
  6
CONTINUOUS
 62
     7
 10
244.9139253464
 20
189.3415016764
 30
0.0
 11
239.1905405049
 21
186.0374619359
 31
0.0
  0
ENDSEC
  0
EOF
