  0
SECTION
  2
HEADER
  9
$ACADVER
  1
AC1009
  9
$DWGCODEPAGE
  3
ansi_1252
  9
$INSBASE
 10
0.0
 20
0.0
 30
0.0
  9
$EXTMIN
 10
0.0
 20
0.0
 30
0.0
  9
$EXTMAX
 10
420.0
 20
297.0
 30
0.0
  9
$LIMMIN
 10
0.0
 20
0.0
  9
$LIMMAX
 10
420.0
 20
297.0
  9
$ORTHOMODE
 70
     0
  9
$REGENMODE
 70
     1
  9
$FILLMODE
 70
     1
  9
$QTEXTMODE
 70
     0
  9
$MIRRTEXT
 70
     1
  9
$DRAGMODE
 70
     2
  9
$LTSCALE
 40
1.0
  9
$OSMODE
 70
    37
  9
$ATTMODE
 70
     1
  9
$TEXTSIZE
 40
3.5277777778
  9
$TRACEWID
 40
1.0
  9
$TEXTSTYLE
  7
STANDARD
  9
$CLAYER
  8
0
  9
$CELTYPE
  6
BYLAYER
  9
$CECOLOR
 62
   256
  9
$DIMSCALE
 40
1.0
  9
$DIMASZ
 40
3.302
  9
$DIMEXO
 40
1.0
  9
$DIMDLI
 40
3.75
  9
$DIMRND
 40
0.0
  9
$DIMDLE
 40
0.0
  9
$DIMEXE
 40
1.0
  9
$DIMTP
 40
0.0
  9
$DIMTM
 40
0.0
  9
$DIMTXT
 40
3.5277777778
  9
$DIMCEN
 40
2.5
  9
$DIMTSZ
 40
0.0
  9
$DIMTOL
 70
     0
  9
$DIMLIM
 70
     0
  9
$DIMTIH
 70
     1
  9
$DIMTOH
 70
     1
  9
$DIMSE1
 70
     0
  9
$DIMSE2
 70
     0
  9
$DIMTAD
 70
     1
  9
$DIMZIN
 70
     0
  9
$DIMBLK
  1

  9
$DIMASO
 70
     1
  9
$DIMSHO
 70
     1
  9
$DIMPOST
  1

  9
$DIMAPOST
  1

  9
$DIMALT
 70
     0
  9
$DIMALTD
 70
     3
  9
$DIMALTF
 40
0.0393700787
  9
$DIMLFAC
 40
1.0
  9
$DIMTOFL
 70
     1
  9
$DIMTVP
 40
0.0
  9
$DIMTIX
 70
     0
  9
$DIMSOXD
 70
     0
  9
$DIMSAH
 70
     0
  9
$DIMBLK1
  1

  9
$DIMBLK2
  1

  9
$DIMSTYLE
  2
ISO-25
  9
$DIMCLRD
 70
     0
  9
$DIMCLRE
 70
     0
  9
$DIMCLRT
 70
     0
  9
$DIMTFAC
 40
1.0
  9
$DIMGAP
 40
1.524
  9
$LUNITS
 70
     2
  9
$LUPREC
 70
     2
  9
$SKETCHINC
 40
1.0
  9
$FILLETRAD
 40
10.0
  9
$AUNITS
 70
     0
  9
$AUPREC
 70
     2
  9
$MENU
  1
.
  9
$ELEVATION
 40
0.0
  9
$PELEVATION
 40
0.0
  9
$THICKNESS
 40
0.0
  9
$LIMCHECK
 70
     0
  9
$CHAMFERA
 40
10.0
  9
$CHAMFERB
 40
10.0
  9
$SKPOLY
 70
     0
  9
$TDCREATE
 40
2456049.595463287
  9
$TDUPDATE
 40
2456049.595463299
  9
$TDINDWG
 40
0.0000000116
  9
$TDUSRTIMER
 40
0.0000000116
  9
$USRTIMER
 70
     1
  9
$ANGBASE
 50
0.0
  9
$ANGDIR
 70
     0
  9
$PDMODE
 70
     0
  9
$PDSIZE
 40
-1.0
  9
$PLINEWID
 40
0.0
  9
$COORDS
 70
     1
  9
$SPLFRAME
 70
     0
  9
$SPLINETYPE
 70
     6
  9
$SPLINESEGS
 70
     8
  9
$ATTDIA
 70
     0
  9
$ATTREQ
 70
     1
  9
$HANDLING
 70
     1
  9
$HANDSEED
  5
2D7
  9
$SURFTAB1
 70
     6
  9
$SURFTAB2
 70
     6
  9
$SURFTYPE
 70
     6
  9
$SURFU
 70
     6
  9
$SURFV
 70
     6
  9
$UCSNAME
  2

  9
$UCSORG
 10
0.0
 20
0.0
 30
0.0
  9
$UCSXDIR
 10
1.0
 20
0.0
 30
0.0
  9
$UCSYDIR
 10
0.0
 20
1.0
 30
0.0
  9
$PUCSNAME
  2

  9
$PUCSORG
 10
0.0
 20
0.0
 30
0.0
  9
$PUCSXDIR
 10
1.0
 20
0.0
 30
0.0
  9
$PUCSYDIR
 10
0.0
 20
1.0
 30
0.0
  9
$USERI1
 70
     0
  9
$USERI2
 70
     0
  9
$USERI3
 70
     0
  9
$USERI4
 70
     0
  9
$USERI5
 70
     0
  9
$USERR1
 40
0.0
  9
$USERR2
 40
0.0
  9
$USERR3
 40
0.0
  9
$USERR4
 40
0.0
  9
$USERR5
 40
0.0
  9
$WORLDVIEW
 70
     1
  9
$SHADEDGE
 70
     3
  9
$SHADEDIF
 70
    70
  9
$TILEMODE
 70
     1
  9
$MAXACTVP
 70
    64
  9
$PLIMCHECK
 70
     0
  9
$PEXTMIN
 10
1.0000000000E+20
 20
1.0000000000E+20
 30
1.0000000000E+20
  9
$PEXTMAX
 10
-1.0000000000E+20
 20
-1.0000000000E+20
 30
-1.0000000000E+20
  9
$PLIMMIN
 10
0.0
 20
0.0
  9
$PLIMMAX
 10
420.0
 20
297.0
  9
$UNITMODE
 70
     0
  9
$VISRETAIN
 70
     1
  9
$PLINEGEN
 70
     0
  9
$PSLTSCALE
 70
     1
  0
ENDSEC
  0
SECTION
  2
TABLES
  0
TABLE
  2
VPORT
 70
     1
  0
VPORT
  2
*ACTIVE
 70
     0
 10
0.0
 20
0.0
 11
1.0
 21
1.0
 12
210.0
 22
148.5
 13
0.0
 23
0.0
 14
10.0
 24
10.0
 15
10.0
 25
10.0
 16
0.0
 26
0.0
 36
1.0
 17
0.0
 27
0.0
 37
0.0
 40
297.0
 41
1.4141414141
 42
50.0
 43
0.0
 44
0.0
 50
0.0
 51
0.0
 71
     0
 72
  2000
 73
     1
 74
     3
 75
     0
 76
     0
 77
     0
 78
     0
  0
ENDTAB
  0
TABLE
  2
LTYPE
 70
     6
  0
LTYPE
  2
CONTINUOUS
 70
     0
  3
Solid line
 72
    65
 73
     0
 40
0.0
  0
LTYPE
  2
HIDDEN
 70
     0
  3
Hidden __ __ __ __ __ __ __ __ __ __ __ __ __ __
 72
    65
 73
     2
 40
1.905
 49
1.27
 49
-0.635
  0
LTYPE
  2
PHANTOM
 70
     0
  3
Phantom ______  __  __  ______  __  __  ______
 72
    65
 73
     6
 40
12.7
 49
6.35
 49
-1.27
 49
1.27
 49
-1.27
 49
1.27
 49
-1.27
  0
LTYPE
  2
CENTER
 70
     0
  3
Center ____ _ ____ _ ____ _ ____ _ ____ _ ____
 72
    65
 73
     4
 40
10.16
 49
6.35
 49
-1.27
 49
1.27
 49
-1.27
  0
LTYPE
  2
CENTERX2
 70
     0
  3
Center (2x) ________  __  ________  __  _____
 72
    65
 73
     4
 40
20.32
 49
12.7
 49
-2.54
 49
2.54
 49
-2.54
  0
LTYPE
  2
DOT2
 70
     0
  3
Dot (.5x) ........................................
 72
    65
 73
     2
 40
0.635
 49
0.0
 49
-0.635
  0
ENDTAB
  0
TABLE
  2
LAYER
 70
     4
  0
LAYER
  2
0
 70
     0
 62
     7
  6
CONTINUOUS
  0
LAYER
  2
HIDDEN
 70
     0
 62
    -1
  6
CONTINUOUS
  0
LAYER
  2
BLOCK
 70
     0
 62
     7
  6
CONTINUOUS
  0
LAYER
  2
BLOCK_0_4MM
 70
     0
 62
     7
  6
CONTINUOUS
  0
ENDTAB
  0
TABLE
  2
STYLE
 70
     1
  0
STYLE
  2
STANDARD
 70
     0
 40
0.0
 41
1.0
 50
0.0
 71
     0
 42
2.5
  3
txt
  4

  0
ENDTAB
  0
TABLE
  2
VIEW
 70
     0
  0
ENDTAB
  0
TABLE
  2
UCS
 70
     0
  0
ENDTAB
  0
TABLE
  2
APPID
 70
     1
  0
APPID
  2
ACAD
 70
     0
  0
ENDTAB
  0
TABLE
  2
DIMSTYLE
 70
     4
  0
DIMSTYLE
  2
ISO-25
 70
     0
  3

  4

  5

  6

  7

 40
1.0
 41
2.5
 42
0.625
 43
3.75
 44
1.25
 45
0.0
 46
0.0
 47
0.0
 48
0.0
140
2.5
141
2.5
142
0.0
143
0.0393700787
144
1.0
145
0.0
146
1.0
147
0.625
 71
     0
 72
     0
 73
     0
 74
     0
 75
     0
 76
     0
 77
     1
 78
     8
170
     0
171
     3
172
     1
173
     0
174
     0
175
     0
176
     0
177
     0
178
     0
  0
DIMSTYLE
  2
SLDDIMSTYLE0
 70
     0
  3

  4

  5

  6

  7

 40
1.0
 41
3.302
 42
0.0625
 43
0.38
 44
0.0
 45
0.000000001
 46
0.0
 47
0.0
 48
0.0
140
2.6458333333
141
0.09
142
0.0
143
25.4
144
1.0
145
0.0
146
1.0
147
0.6614583333
 71
     0
 72
     0
 73
     0
 74
     0
 75
     0
 76
     0
 77
     1
 78
    12
170
     0
171
     2
172
     0
173
     1
174
     0
175
     0
176
     0
177
     0
178
     0
  0
DIMSTYLE
  2
SLDDIMSTYLE1
 70
     0
  3

  4

  5

  6

  7

 40
1.0
 41
3.302
 42
0.0625
 43
0.38
 44
0.0
 45
0.000000001
 46
0.0
 47
0.0
 48
0.0
140
2.6458333333
141
0.09
142
0.0
143
25.4
144
1.0
145
0.0
146
1.0
147
0.6614583333
 71
     0
 72
     0
 73
     0
 74
     0
 75
     0
 76
     0
 77
     1
 78
    12
170
     0
171
     2
172
     0
173
     1
174
     0
175
     0
176
     0
177
     0
178
     0
  0
DIMSTYLE
  2
SLDDIMSTYLE2
 70
     0
  3

  4

  5

  6

  7

 40
1.0
 41
3.302
 42
0.0625
 43
0.38
 44
0.0
 45
0.000000001
 46
0.0
 47
0.0
 48
0.0
140
2.6458333333
141
0.09
142
0.0
143
25.4
144
1.0
145
0.0
146
1.0
147
0.6614583333
 71
     0
 72
     0
 73
     0
 74
     0
 75
     0
 76
     0
 77
     1
 78
    12
170
     0
171
     2
172
     1
173
     1
174
     0
175
     0
176
     0
177
     0
178
     0
  0
ENDTAB
  0
ENDSEC
  0
SECTION
  2
BLOCKS
  0
BLOCK
  8
0
  2
$MODEL_SPACE
 70
     0
 10
0.0
 20
0.0
 30
0.0
  3
$MODEL_SPACE
  1

  0
ENDBLK
  5
21
  8
0
  0
BLOCK
 67
     1
  8
0
  2
$PAPER_SPACE
 70
     0
 10
0.0
 20
0.0
 30
0.0
  3
$PAPER_SPACE
  1

  0
ENDBLK
  5
1D
 67
     1
  8
0
  0
BLOCK
  8
0
  2
TEMPLATE_BLOCK_23-08-2011
 70
     2
 10
0.0
 20
0.0
 30
0.0
  3
TEMPLATE_BLOCK_23-08-2011
  1

  0
ARC
  5
4A
  8
0
  6
CONTINUOUS
 62
     7
 10
191.4522115405
 20
175.5813166711
 30
0.0
 40
3.0
 50
90.0
 51
270.0
  0
ARC
  5
4B
  8
0
  6
CONTINUOUS
 62
     7
 10
191.4522115405
 20
175.5813166711
 30
0.0
 40
1.249999999999972
 50
270.0
 51
90.0
  0
ARC
  5
4C
  8
0
  6
CONTINUOUS
 62
     7
 10
191.4522115405
 20
175.5813166711
 30
0.0
 40
3.0
 50
270.0
 51
90.0
  0
ARC
  5
4D
  8
0
  6
CONTINUOUS
 62
     7
 10
191.4522115405
 20
175.5813166711
 30
0.0
 40
1.249999999999972
 50
90.0
 51
270.0
  0
LINE
  5
4E
  8
0
  6
CONTINUOUS
 62
     7
 10
62.5356831742
 20
156.4442864895
 30
0.0
 11
87.2023498409
 21
156.4442864895
 31
0.0
  0
LINE
  5
4F
  8
0
  6
CONTINUOUS
 62
     7
 10
62.5356831742
 20
161.4442864895
 30
0.0
 11
210.5356831742
 21
161.4442864895
 31
0.0
  0
LINE
  5
50
  8
0
  6
CONTINUOUS
 62
     7
 10
62.5356831742
 20
166.4442864895
 30
0.0
 11
161.2023498409
 21
166.4442864895
 31
0.0
  0
LINE
  5
51
  8
0
  6
CONTINUOUS
 62
     7
 10
62.5356831742
 20
171.4442864895
 30
0.0
 11
210.5356831742
 21
171.4442864895
 31
0.0
  0
LINE
  5
52
  8
0
  6
CONTINUOUS
 62
     7
 10
62.8245470911
 20
179.4442864895
 30
0.0
 11
210.2468192573
 21
179.4442864895
 31
0.0
  0
LINE
  5
53
  8
0
  6
CONTINUOUS
 62
     7
 10
87.2023498409
 20
156.4442864895
 30
0.0
 11
111.8690165075
 21
156.4442864895
 31
0.0
  0
LINE
  5
54
  8
0
  6
CONTINUOUS
 62
     7
 10
111.8690165075
 20
156.4442864895
 30
0.0
 11
136.5356831742
 21
156.4442864895
 31
0.0
  0
LINE
  5
55
  8
0
  6
CONTINUOUS
 62
     7
 10
136.5356831742
 20
156.4442864895
 30
0.0
 11
161.2023498409
 21
156.4442864895
 31
0.0
  0
LINE
  5
56
  8
0
  6
CONTINUOUS
 62
     7
 10
161.2023498409
 20
156.4442864895
 30
0.0
 11
185.8690165075
 21
156.4442864895
 31
0.0
  0
LINE
  5
57
  8
0
  6
CONTINUOUS
 62
     7
 10
185.8690165075
 20
156.4442864895
 30
0.0
 11
210.5356831742
 21
156.4442864895
 31
0.0
  0
LINE
  5
58
  8
0
  6
CONTINUOUS
 62
     7
 10
87.2023498409
 20
156.4442864895
 30
0.0
 11
87.2023498409
 21
161.4442864895
 31
0.0
  0
LINE
  5
59
  8
0
  6
CONTINUOUS
 62
     7
 10
111.8690165075
 20
156.4442864895
 30
0.0
 11
111.8690165075
 21
161.4442864895
 31
0.0
  0
LINE
  5
5A
  8
0
  6
CONTINUOUS
 62
     7
 10
136.5356831742
 20
156.4442864895
 30
0.0
 11
136.5356831742
 21
161.4442864895
 31
0.0
  0
LINE
  5
5B
  8
0
  6
CONTINUOUS
 62
     7
 10
161.2023498409
 20
156.4442864895
 30
0.0
 11
161.2023498409
 21
161.4442864895
 31
0.0
  0
LINE
  5
5C
  8
0
  6
CONTINUOUS
 62
     7
 10
185.8690165075
 20
156.4442864895
 30
0.0
 11
185.8690165075
 21
161.4442864895
 31
0.0
  0
LINE
  5
5D
  8
0
  6
CONTINUOUS
 62
     7
 10
136.5356831742
 20
161.4442864895
 30
0.0
 11
136.5356831742
 21
179.4442864895
 31
0.0
  0
LINE
  5
5E
  8
0
  6
CONTINUOUS
 62
     7
 10
161.2023498409
 20
161.4442864895
 30
0.0
 11
161.2023498409
 21
179.4442864895
 31
0.0
  0
LINE
  5
5F
  8
0
  6
CENTERX2
 62
     7
 10
191.4522115405
 20
179.0813166711
 30
0.0
 11
191.4522115405
 21
172.0813166711
 31
0.0
  0
LINE
  5
60
  8
0
  6
CENTERX2
 62
     7
 10
187.9522115405
 20
175.5813166711
 30
0.0
 11
194.9522115405
 21
175.5813166711
 31
0.0
  0
LINE
  5
61
  8
0
  6
CONTINUOUS
 62
     7
 10
198.9688251586
 20
176.8313166711
 30
0.0
 11
198.9688251586
 21
174.3313166711
 31
0.0
  0
LINE
  5
62
  8
0
  6
CONTINUOUS
 62
     7
 10
198.9688251586
 20
176.8313166711
 30
0.0
 11
204.9688251586
 21
178.5813166711
 31
0.0
  0
LINE
  5
63
  8
0
  6
CONTINUOUS
 62
     7
 10
204.9688251586
 20
178.5813166711
 30
0.0
 11
204.9688251586
 21
172.5813166711
 31
0.0
  0
LINE
  5
64
  8
0
  6
CONTINUOUS
 62
     7
 10
204.9688251586
 20
172.5813166711
 30
0.0
 11
198.9688251586
 21
174.3313166711
 31
0.0
  0
LINE
  5
65
  8
0
  6
CENTERX2
 62
     7
 10
205.941683749
 20
175.5813166711
 30
0.0
 11
197.8813151032
 21
175.5813166711
 31
0.0
  0
LINE
  5
66
  8
0
  6
CONTINUOUS
 62
     7
 10
161.2023498409
 20
156.4442864895
 30
0.0
 11
161.2023498409
 21
151.4442864895
 31
0.0
  0
LINE
  5
67
  8
0
  6
CONTINUOUS
 62
     7
 10
185.8690165075
 20
156.4442864895
 30
0.0
 11
185.8690165075
 21
151.4442864895
 31
0.0
  0
TEXT
  5
68
  8
BLOCK
 62
     7
 10
63.5576398697
 20
184.8123399363
 30
0.0
 40
1.8520833333
  1
Description
 41
0.7
 11
63.5576398697
 21
184.1580728633
 31
0.0
 73
     1
  0
TEXT
  5
69
  8
BLOCK
 62
     7
 10
63.5514716817
 20
176.8843686002
 30
0.0
 40
1.8520833333
  1
Article nr.
 41
0.7
 11
63.5514716817
 21
176.2301015272
 31
0.0
 73
     1
  0
TEXT
  5
6A
  8
BLOCK
 62
     7
 10
63.5514716817
 20
169.1161588169
 30
0.0
 40
1.8520833333
  1
Material
 41
0.7
 11
63.5514716817
 21
168.4618917439
 31
0.0
 73
     1
  0
TEXT
  5
6B
  8
BLOCK
 62
     7
 10
63.5514716817
 20
164.2307913525
 30
0.0
 40
1.8520833333
  1
Finish
 41
0.7
 11
63.5514716817
 21
163.5765242795
 31
0.0
 73
     1
  0
TEXT
  5
6C
  8
BLOCK
 62
     7
 10
63.5514716817
 20
159.1927191589
 30
0.0
 40
1.8520833333
  1
Drawn by
 41
0.7
 11
63.5514716817
 21
158.5384520858
 31
0.0
 73
     1
  0
TEXT
  5
6D
  8
BLOCK
 62
     7
 10
88.0113040812
 20
159.1927191589
 30
0.0
 40
1.8520833333
  1
Date
 41
0.7
 11
88.0113040812
 21
158.5384520858
 31
0.0
 73
     1
  0
TEXT
  5
6E
  8
BLOCK
 62
     7
 10
112.9654021834
 20
159.3254934295
 30
0.0
 40
1.8520833333
  1
Mod. by
 41
0.7
 11
112.9654021834
 21
158.6712263564
 31
0.0
 73
     1
  0
TEXT
  5
6F
  8
BLOCK
 62
     7
 10
137.4252345829
 20
159.3254934295
 30
0.0
 40
1.8520833333
  1
Date
 41
0.7
 11
137.4252345829
 21
158.6712263564
 31
0.0
 73
     1
  0
TEXT
  5
70
  8
BLOCK
 62
     7
 10
186.4741557862
 20
159.3254934295
 30
0.0
 40
1.8520833333
  1
Date
 41
0.7
 11
186.4741557862
 21
158.6712263564
 31
0.0
 73
     1
  0
TEXT
  5
71
  8
BLOCK
 62
     7
 10
161.8645267427
 20
159.3254934295
 30
0.0
 40
1.8520833333
  1
Rel. by
 41
0.7
 11
161.8645267427
 21
158.6712263564
 31
0.0
 73
     1
  0
TEXT
  5
72
  8
BLOCK
 62
     7
 10
63.5514716817
 20
154.2077359849
 30
0.0
 40
1.8520833333
  1
Remarks
 41
0.7
 11
63.5514716817
 21
153.5534689119
 31
0.0
 73
     1
  0
TEXT
  5
73
  8
BLOCK
 62
     7
 10
137.4252345829
 20
177.0027654141
 30
0.0
 40
1.8520833333
  1
Revision
 41
0.7
 11
137.4252345829
 21
176.3484983411
 31
0.0
 73
     1
  0
TEXT
  5
74
  8
BLOCK
 62
     7
 10
137.4252345829
 20
169.236973898
 30
0.0
 40
1.8520833333
  1
Weight
 41
0.7
 11
137.4252345829
 21
168.582706825
 31
0.0
 73
     1
  0
TEXT
  5
75
  8
BLOCK
 62
     7
 10
137.4252345829
 20
164.2997508115
 30
0.0
 40
1.8520833333
  1
Scale
 41
0.7
 11
137.4252345829
 21
163.6454837385
 31
0.0
 73
     1
  0
TEXT
  5
76
  8
BLOCK
 62
     7
 10
161.8645267427
 20
177.0027654141
 30
0.0
 40
1.8520833333
  1
Projection
 41
0.7
 11
161.8645267427
 21
176.3484983411
 31
0.0
 73
     1
  0
TEXT
  5
77
  8
BLOCK
 62
     7
 10
161.8645267427
 20
154.2153377848
 30
0.0
 40
1.8520833333
  1
Page
 41
0.7
 11
161.8645267427
 21
153.5610707118
 31
0.0
 73
     1
  0
TEXT
  5
78
  8
BLOCK
 62
     7
 10
186.4741557862
 20
154.2153377848
 30
0.0
 40
1.8520833333
  1
Size
 41
0.7
 11
186.4741557862
 21
153.5610707118
 31
0.0
 73
     1
  0
TEXT
  5
79
  8
BLOCK
 62
     7
 10
161.8645267427
 20
169.236973898
 30
0.0
 40
1.8520833333
  1
Tolerances unless otherwise specified
 41
0.6716216216
 11
161.8645267427
 21
168.582706825
 31
0.0
 73
     1
  0
ATTDEF
  5
7A
  8
BLOCK
 62
     7
 10
124.3379506665
 20
182.3528182885
 30
0.0
 40
3.7041666667
  1
Description
 41
0.7
 11
124.3379506665
 21
181.0442841425
 31
0.0
 73
     1
  3

  2
DESCRIPTION
 70
     0
 74
     1
  0
ATTDEF
  5
7B
  8
BLOCK
 62
     7
 10
78.7253407769
 20
174.4128986916
 30
0.0
 40
3.7041666667
  1
Article Nr.
 41
0.7
 11
78.7253407769
 21
173.1043645456
 31
0.0
 73
     1
  3

  2
ARTICLENR.
 70
     0
 74
     1
  0
ATTDEF
  5
7C
  8
BLOCK
 62
     7
 10
149.8774862028
 20
174.4128986916
 30
0.0
 40
3.7041666667
  1
Rev
 41
0.7
 11
149.8774862028
 21
173.1043645456
 31
0.0
 73
     1
  3

  2
REVISION
 70
     0
 74
     1
  0
ATTDEF
  5
7D
  8
BLOCK
 62
     7
 10
78.7253407769
 20
168.1397842609
 30
0.0
 40
2.38125
  1
Material
 41
0.7
 11
78.7253407769
 21
167.2985837385
 31
0.0
 73
     1
  3

  2
MATERIAL
 70
     0
 74
     1
  0
ATTDEF
  5
7E
  8
BLOCK
 62
     7
 10
78.7253407769
 20
163.1397842609
 30
0.0
 40
2.38125
  1
Finish
 41
0.7
 11
78.7253407769
 21
162.2985837385
 31
0.0
 73
     1
  3

  2
FINISH
 70
     0
 74
     1
  0
ATTDEF
  5
7F
  8
BLOCK
 62
     7
 10
74.5596224449
 20
157.714038091
 30
0.0
 40
2.1166666667
  1
DrawnBy
 41
0.7
 11
74.5596224449
 21
156.9663042933
 31
0.0
 73
     1
  3

  2
DRAWNBY
 70
     0
 74
     1
  0
ATTDEF
  5
80
  8
BLOCK
 62
     7
 10
95.5116786932
 20
157.714038091
 30
0.0
 40
2.1166666667
  1
DrawnDate
 41
0.7
 11
95.5116786932
 21
156.9663042933
 31
0.0
 73
     1
  3

  2
DRAWNDATE
 70
     0
 74
     1
  0
ATTDEF
  5
81
  8
BLOCK
 62
     7
 10
146.9579813319
 20
157.555078016
 30
0.0
 40
2.1166666667
  1
Mod.Date
 41
0.7
 11
146.9579813319
 21
156.8073442183
 31
0.0
 73
     1
  3

  2
MODDATE
 70
     0
 74
     1
  0
ATTDEF
  5
82
  8
BLOCK
 62
     7
 10
125.8396174566
 20
157.5496584351
 30
0.0
 40
2.1166666667
  1
Mod.By
 41
0.7
 11
125.8396174566
 21
156.8019246373
 31
0.0
 73
     1
  3

  2
MODBY
 70
     0
 74
     1
  0
ATTDEF
  5
83
  8
BLOCK
 62
     7
 10
198.2363277113
 20
157.555078016
 30
0.0
 40
2.1166666667
  1
Rel.Date
 41
0.7
 11
198.2363277113
 21
156.8073442183
 31
0.0
 73
     1
  3

  2
RELDATE
 70
     0
 74
     1
  0
ATTDEF
  5
84
  8
BLOCK
 62
     7
 10
177.1179638359
 20
157.555078016
 30
0.0
 40
2.1166666667
  1
Rel.By
 41
0.7
 11
177.1179638359
 21
156.8073442183
 31
0.0
 73
     1
  3

  2
RELBY
 70
     0
 74
     1
  0
ATTDEF
  5
85
  8
BLOCK
 62
     7
 10
180.7790129002
 20
152.4812725583
 30
0.0
 40
2.1166666667
  1
2/2
 41
0.7
 11
180.7790129002
 21
151.7335387605
 31
0.0
 73
     1
  3

  2
AUTOATTR1
 70
     0
 74
     1
  0
ATTDEF
  5
86
  8
BLOCK
 62
     7
 10
198.4242550543
 20
152.4812726165
 30
0.0
 40
2.1166666667
  1
Format
 41
0.7
 11
198.4242550543
 21
151.7335388187
 31
0.0
 73
     1
  3

  2
FORMAT
 70
     0
 74
     1
  0
ATTDEF
  5
87
  8
BLOCK
 62
     7
 10
78.7253407769
 20
153.1346813667
 30
0.0
 40
2.38125
  1
Finish
 41
0.7
 11
78.7253407769
 21
152.2934808442
 31
0.0
 73
     1
  3

  2
REMARK
 70
     0
 74
     1
  0
ATTDEF
  5
88
  8
BLOCK
 62
     7
 10
167.6729490394
 20
164.3153124029
 30
0.0
 40
2.1166666667
  1
Angle Tol
 41
0.7
 11
167.6729490394
 21
163.5675786051
 31
0.0
 73
     1
  3

  2
ANGLETOL
 70
     0
 74
     1
  0
ATTDEF
  5
89
  8
BLOCK
 62
     7
 10
193.6694406713
 20
164.1524933923
 30
0.0
 40
2.1166666667
  1
Dim Tol
 41
0.7
 11
193.6694406713
 21
163.4047595946
 31
0.0
 73
     1
  3

  2
DIMTOL
 70
     0
 74
     1
  0
ATTDEF
  5
8A
  8
BLOCK_0_4MM
 62
     7
 10
149.244200989
 20
163.1502406384
 30
0.0
 40
2.5
  1
1:1
 41
0.7
 11
149.244200989
 21
162.2670904836
 31
0.0
 73
     1
  3

  2
AUTOATTR2
 70
     0
 74
     1
  0
ATTDEF
  5
8B
  8
BLOCK_0_4MM
 62
     7
 10
157.7652352179
 20
168.150240813
 30
0.0
 40
2.5
  1
 g
 41
0.7
 11
157.7652352179
 21
167.2670906582
 31
0.0
 73
     1
  3

  2
AUTOATTR3
 70
     0
 74
     1
  0
ENDBLK
  5
49
  8
0
  0
BLOCK
  8
0
  2
SW_NOTE_0
 70
     0
 10
0.0
 20
0.0
 30
0.0
  3
SW_NOTE_0
  1

  0
TEXT
  5
AF
  8
0
  6
CONTINUOUS
 62
     0
 10
0.0
 20
0.6358681115
 30
0.0
 40
1.8
  1
Utrechtsestraatweg 220
 41
0.7
 11
0.0
 21
0.0
 31
0.0
 73
     1
  0
TEXT
  5
B0
  8
0
  6
CONTINUOUS
 62
     0
 10
0.0
 20
-2.1641317887
 30
0.0
 40
1.8
  1
NL-3911 TX Rhenen
 41
0.6588235294
 11
0.0
 21
-2.7999999002
 31
0.0
 73
     1
  0
TEXT
  5
B1
  8
0
  6
CONTINUOUS
 62
     0
 10
0.0
 20
-7.764131589
 30
0.0
 40
1.8
  1
P.O. Box 128
 41
0.6416666667
 11
0.0
 21
-8.3999997005
 31
0.0
 73
     1
  0
TEXT
  5
B2
  8
0
  6
CONTINUOUS
 62
     0
 10
0.0
 20
-10.5641314892
 30
0.0
 40
1.8
  1
NL-3910 AC Rhenen
 41
0.6588235294
 11
0.0
 21
-11.1999996006
 31
0.0
 73
     1
  0
TEXT
  5
B3
  8
0
  6
CONTINUOUS
 62
     0
 10
0.0
 20
-13.3641313894
 30
0.0
 40
1.8
  1
The Netherlands
 41
0.7
 11
0.0
 21
-13.9999995008
 31
0.0
 73
     1
  0
TEXT
  5
B4
  8
0
  6
CONTINUOUS
 62
     0
 10
0.0
 20
-16.1641312895
 30
0.0
 40
1.8
  1
www.vanleeuwenint.nl
 41
0.7
 11
0.0
 21
-16.799999401
 31
0.0
 73
     1
  0
ENDBLK
  5
AE
  8
0
  0
BLOCK
  8
0
  2
*D3
 70
     1
 10
0.0
 20
0.0
 30
0.0
  3
*D3
  1

  0
SOLID
  5
D1
  8
BLOCK_0_4MM
 62
     7
 10
182.7181238788
 20
237.1482290746
 30
0.0
 11
179.4161238788
 21
237.6562290746
 31
0.0
 12
179.4161238788
 22
236.6402290746
 32
0.0
 13
179.4161238788
 23
236.6402290746
 33
0.0
  0
SOLID
  5
D2
  8
BLOCK_0_4MM
 62
     7
 10
47.7181238788
 20
237.1482290746
 30
0.0
 11
51.0201238788
 21
236.6402290746
 31
0.0
 12
51.0201238788
 22
237.6562290746
 32
0.0
 13
51.0201238788
 23
237.6562290746
 33
0.0
  0
LINE
  5
D3
  8
BLOCK_0_4MM
 62
     7
 10
182.7181238788
 20
231.9338169033
 30
0.0
 11
182.7181238788
 21
238.1482290746
 31
0.0
  0
LINE
  5
D4
  8
BLOCK_0_4MM
 62
     7
 10
47.7181238788
 20
231.9338169033
 30
0.0
 11
47.7181238788
 21
238.1482290746
 31
0.0
  0
LINE
  5
D5
  8
BLOCK_0_4MM
 62
     7
 10
182.7181238788
 20
237.1482290746
 30
0.0
 11
47.7181238788
 21
237.1482290746
 31
0.0
  0
TEXT
  5
D6
  8
BLOCK_0_4MM
 62
     7
 10
111.2126260916
 20
238.0828962636
 30
0.0
 40
2.6458333333
  1
135
 50
0.0
 41
0.7
 11
111.2126260916
 21
237.1482290164
 31
0.0
 73
     1
  0
ENDBLK
  5
D0
  8
0
  0
BLOCK
  8
0
  2
*D4
 70
     1
 10
0.0
 20
0.0
 30
0.0
  3
*D4
  1

  0
SOLID
  5
DB
  8
BLOCK_0_4MM
 62
     7
 10
40.2875317757
 20
230.9338169033
 30
0.0
 11
39.7795317757
 21
227.6318169033
 31
0.0
 12
40.7955317757
 22
227.6318169033
 32
0.0
 13
40.7955317757
 23
227.6318169033
 33
0.0
  0
SOLID
  5
DC
  8
BLOCK_0_4MM
 62
     7
 10
40.2875317757
 20
173.9338169033
 30
0.0
 11
40.7955317757
 21
177.2358169033
 31
0.0
 12
39.7795317757
 22
177.2358169033
 32
0.0
 13
39.7795317757
 23
177.2358169033
 33
0.0
  0
LINE
  5
DD
  8
BLOCK_0_4MM
 62
     7
 10
46.7181238788
 20
230.9338169033
 30
0.0
 11
39.2875317757
 21
230.9338169033
 31
0.0
  0
LINE
  5
DE
  8
BLOCK_0_4MM
 62
     7
 10
46.7181238788
 20
173.9338169033
 30
0.0
 11
39.2875317757
 21
173.9338169033
 31
0.0
  0
LINE
  5
DF
  8
BLOCK_0_4MM
 62
     7
 10
40.2875317757
 20
230.9338169033
 30
0.0
 11
40.2875317757
 21
173.9338169033
 31
0.0
  0
TEXT
  5
E0
  8
BLOCK_0_4MM
 62
     7
 10
39.3528645868
 20
199.4058075836
 30
0.0
 40
2.6458333333
  1
57
 50
90.0
 41
0.7
 11
40.2875318339
 21
199.4058075836
 31
0.0
 73
     1
  0
ENDBLK
  5
DA
  8
0
  0
BLOCK
  8
0
  2
*D5
 70
     1
 10
0.0
 20
0.0
 30
0.0
  3
*D5
  1

  0
SOLID
  5
E6
  8
BLOCK_0_4MM
 62
     7
 10
49.2181238788
 20
158.4914651053
 30
0.0
 11
52.5201238788
 21
157.9834651053
 31
0.0
 12
52.5201238788
 22
158.9994651053
 32
0.0
 13
52.5201238788
 23
158.9994651053
 33
0.0
  0
SOLID
  5
E7
  8
BLOCK_0_4MM
 62
     7
 10
65.2181238788
 20
158.4914651053
 30
0.0
 11
61.9161238788
 21
158.9994651053
 31
0.0
 12
61.9161238788
 22
157.9834651053
 32
0.0
 13
61.9161238788
 23
157.9834651053
 33
0.0
  0
LINE
  5
E8
  8
BLOCK_0_4MM
 62
     7
 10
49.2181238788
 20
164.4338169033
 30
0.0
 11
49.2181238788
 21
157.4914651053
 31
0.0
  0
LINE
  5
E9
  8
BLOCK_0_4MM
 62
     7
 10
65.2181238788
 20
164.4338169033
 30
0.0
 11
65.2181238788
 21
157.4914651053
 31
0.0
  0
LINE
  5
EA
  8
BLOCK_0_4MM
 62
     7
 10
49.2181238788
 20
158.4914651053
 30
0.0
 11
65.2181238788
 21
158.4914651053
 31
0.0
  0
TEXT
  5
EB
  8
BLOCK_0_4MM
 62
     7
 10
52.1932455706
 20
159.4261323524
 30
0.0
 40
2.6458333333
  1
%%c
 50
360.0
 41
0.7
 11
52.1932455706
 21
158.4914651053
 31
0.0
 73
     1
  0
TEXT
  5
EC
  8
BLOCK_0_4MM
 62
     7
 10
56.1869840132
 20
159.4261322942
 30
0.0
 40
2.6458333333
  1
16
 50
360.0
 41
0.7
 11
56.1869840132
 21
158.4914650471
 31
0.0
 73
     1
  0
ENDBLK
  5
E5
  8
0
  0
BLOCK
  8
0
  2
*D6
 70
     1
 10
0.0
 20
0.0
 30
0.0
  3
*D6
  1

  0
SOLID
  5
F1
  8
BLOCK_0_4MM
 62
     7
 10
191.7704064179
 20
230.9338169033
 30
0.0
 11
191.2624064179
 21
227.6318169033
 31
0.0
 12
192.2784064179
 22
227.6318169033
 32
0.0
 13
192.2784064179
 23
227.6318169033
 33
0.0
  0
SOLID
  5
F2
  8
BLOCK_0_4MM
 62
     7
 10
191.7704064179
 20
211.9338169033
 30
0.0
 11
192.2784064179
 21
215.2358169033
 31
0.0
 12
191.2624064179
 22
215.2358169033
 32
0.0
 13
191.2624064179
 23
215.2358169033
 33
0.0
  0
LINE
  5
F3
  8
BLOCK_0_4MM
 62
     7
 10
183.7181238788
 20
230.9338169033
 30
0.0
 11
192.7704064179
 21
230.9338169033
 31
0.0
  0
LINE
  5
F4
  8
BLOCK_0_4MM
 62
     7
 10
183.7181238788
 20
211.9338169033
 30
0.0
 11
192.7704064179
 21
211.9338169033
 31
0.0
  0
LINE
  5
F5
  8
BLOCK_0_4MM
 62
     7
 10
191.7704064179
 20
230.9338169033
 30
0.0
 11
191.7704064179
 21
211.9338169033
 31
0.0
  0
TEXT
  5
F6
  8
BLOCK_0_4MM
 62
     7
 10
190.8357391707
 20
216.4089385951
 30
0.0
 40
2.6458333333
  1
%%c
 50
90.0
 41
0.7
 11
191.7704064179
 21
216.4089385951
 31
0.0
 73
     1
  0
TEXT
  5
F7
  8
BLOCK_0_4MM
 62
     7
 10
190.8357392289
 20
220.4026770377
 30
0.0
 40
2.6458333333
  1
19
 50
90.0
 41
0.7
 11
191.7704064761
 21
220.4026770377
 31
0.0
 73
     1
  0
ENDBLK
  5
F0
  8
0
  0
BLOCK
  8
0
  2
*D7
 70
     1
 10
0.0
 20
0.0
 30
0.0
  3
*D7
  1

  0
SOLID
  5
136
  8
BLOCK_0_4MM
 62
     7
 10
53.1681238788
 20
117.3906491353
 30
0.0
 11
49.8661238788
 21
117.8986491353
 31
0.0
 12
49.8661238788
 22
116.8826491353
 32
0.0
 13
49.8661238788
 23
116.8826491353
 33
0.0
  0
SOLID
  5
137
  8
BLOCK_0_4MM
 62
     7
 10
61.2681238788
 20
117.3906491353
 30
0.0
 11
64.5701238788
 21
116.8826491353
 31
0.0
 12
64.5701238788
 22
117.8986491353
 32
0.0
 13
64.5701238788
 23
117.8986491353
 33
0.0
  0
LINE
  5
138
  8
BLOCK_0_4MM
 62
     7
 10
53.1681238788
 20
108.4418320665
 30
0.0
 11
53.1681238788
 21
118.3906491353
 31
0.0
  0
LINE
  5
139
  8
BLOCK_0_4MM
 62
     7
 10
61.2681238788
 20
108.4418320665
 30
0.0
 11
61.2681238788
 21
118.3906491353
 31
0.0
  0
LINE
  5
13A
  8
BLOCK_0_4MM
 62
     7
 10
53.1681238788
 20
117.3906491353
 30
0.0
 11
46.8181238788
 21
117.3906491353
 31
0.0
  0
LINE
  5
13B
  8
BLOCK_0_4MM
 62
     7
 10
53.1681238788
 20
117.3906491353
 30
0.0
 11
61.2681238788
 21
117.3906491353
 31
0.0
  0
LINE
  5
13C
  8
BLOCK_0_4MM
 62
     7
 10
61.2681238788
 20
117.3906491353
 30
0.0
 11
67.6181238788
 21
117.3906491353
 31
0.0
  0
INSERT
  5
144
  8
BLOCK_0_4MM
 62
     7
  2
SW_SYMBOL_MOD_BOX
 10
53.2758321608
 20
117.7575518046
 30
0.0
 41
0.0033796387
 42
0.0033796387
 43
0.0033796387
  0
TEXT
  5
145
  8
BLOCK_0_4MM
 62
     7
 10
57.0593738923
 20
118.3253163243
 30
24.0
 40
2.6458333333
  1
8
 41
0.7
 11
57.0593738923
 21
117.3906490771
 31
24.0
 73
     1
  0
ENDBLK
  5
135
  8
0
  0
BLOCK
  8
0
  2
SW_SYMBOL_MOD_BOX
 70
     0
 10
0.0
 20
0.0
 30
0.0
  3
SW_SYMBOL_MOD_BOX
  1

  0
LINE
  5
140
  8
BLOCK_0_4MM
 62
     0
 10
200.0
 20
200.0
 30
0.0
 11
800.0
 21
200.0
 31
0.0
  0
LINE
  5
141
  8
BLOCK_0_4MM
 62
     0
 10
200.0
 20
200.0
 30
0.0
 11
200.0
 21
800.0
 31
0.0
  0
LINE
  5
142
  8
BLOCK_0_4MM
 62
     0
 10
200.0
 20
800.0
 30
0.0
 11
800.0
 21
800.0
 31
0.0
  0
LINE
  5
143
  8
BLOCK_0_4MM
 62
     0
 10
800.0
 20
800.0
 30
0.0
 11
800.0
 21
200.0
 31
0.0
  0
ENDBLK
  5
13F
  8
0
  0
ENDSEC
  0
SECTION
  2
ENTITIES
  0
LINE
  5
8D
  8
BLOCK_0_4MM
 62
     7
 10
8.0
 20
292.0
 30
0.0
 11
409.0
 21
292.0
 31
0.0
  0
LINE
  5
8E
  8
BLOCK_0_4MM
 62
     7
 10
219.0
 20
44.0
 30
0.0
 11
219.0
 21
8.0
 31
0.0
  0
LINE
  5
8F
  8
BLOCK_0_4MM
 62
     7
 10
8.0
 20
8.0
 30
0.0
 11
409.0
 21
8.0
 31
0.0
  0
LINE
  5
90
  8
BLOCK_0_4MM
 62
     7
 10
412.0
 20
289.0
 30
0.0
 11
412.0
 21
11.0
 31
0.0
  0
LINE
  5
91
  8
BLOCK_0_4MM
 62
     7
 10
219.0
 20
44.0
 30
0.0
 11
412.0
 21
44.0
 31
0.0
  0
LINE
  5
92
  8
BLOCK_0_4MM
 62
     7
 10
264.0
 20
44.0
 30
0.0
 11
264.0
 21
8.0
 31
0.0
  0
LINE
  5
93
  8
BLOCK_0_4MM
 62
     7
 10
5.0
 20
289.0
 30
0.0
 11
5.0
 21
11.0
 31
0.0
  0
ARC
  5
94
  8
BLOCK_0_4MM
 62
     7
 10
409.0
 20
289.0
 30
0.0
 40
3.0
 50
0.0
 51
90.0
  0
ARC
  5
95
  8
BLOCK_0_4MM
 62
     7
 10
8.0
 20
11.0
 30
0.0
 40
3.000000000000007
 50
180.0
 51
270.0
  0
ARC
  5
96
  8
BLOCK_0_4MM
 62
     7
 10
8.0
 20
289.0
 30
0.0
 40
3.0
 50
90.0
 51
180.0
  0
ARC
  5
97
  8
BLOCK_0_4MM
 62
     7
 10
409.0
 20
11.0
 30
0.0
 40
3.0
 50
270.0
 51
0.0
  0
INSERT
  5
98
  8
BLOCK_0_4MM
 66
     1
  2
TEMPLATE_BLOCK_23-08-2011
 10
201.4643168258
 20
-143.4442864895
 30
0.0
  0
ATTRIB
  5
99
  8
0
  6
CONTINUOUS
 62
     7
 10
284.3087408324
 20
38.9085319155
 30
0.0
 40
3.7041666667
  1
Gatdeel recht hoek 90° Ø19mm rvs immer AG
 41
0.6402439024
 11
284.3087408324
 21
37.5999977694
 31
0.0
 73
     1
  2
DESCRIPTION
 70
     0
 74
     1
  0
ATTRIB
  5
9A
  8
0
  6
CONTINUOUS
 62
     7
 10
280.1896576027
 20
30.9686123186
 30
0.0
 40
3.7041666667
  1
kruk immer AG
 41
0.6461538462
 11
280.1896576027
 21
29.6600781725
 31
0.0
 73
     1
  2
ARTICLENR.
 70
     0
 74
     1
  0
ATTRIB
  5
9B
  8
0
  6
CONTINUOUS
 62
     7
 10
360.9085742088
 20
30.9686122021
 30
0.0
 40
3.7041666667
  1

 41
0.7
 11
360.9085742088
 21
29.6600780561
 31
0.0
 73
     1
  2
REVISION
 70
     0
 74
     1
  0
ATTRIB
  5
9C
  8
0
  6
CONTINUOUS
 62
     7
 10
280.1896576027
 20
24.6954977715
 30
0.0
 40
2.38125
  1

 41
0.7
 11
280.1896576027
 21
23.854297249
 31
0.0
 73
     1
  2
MATERIAL
 70
     0
 74
     1
  0
ATTRIB
  5
9D
  8
0
  6
CONTINUOUS
 62
     7
 10
280.1896576027
 20
19.6954977715
 30
0.0
 40
2.38125
  1

 41
0.7
 11
280.1896576027
 21
18.854297249
 31
0.0
 73
     1
  2
FINISH
 70
     0
 74
     1
  0
ATTRIB
  5
9E
  8
0
  6
CONTINUOUS
 62
     7
 10
280.6296497772
 20
14.2697515433
 30
0.0
 40
2.1166666667
  1
EvdG
 41
0.7
 11
280.6296497772
 21
13.5220177456
 31
0.0
 73
     1
  2
DRAWNBY
 70
     0
 74
     1
  0
ATTRIB
  5
9F
  8
0
  6
CONTINUOUS
 62
     7
 10
298.355748982
 20
14.2697515433
 30
0.0
 40
2.1166666667
  1
27-04-2012
 41
0.7
 11
298.355748982
 21
13.5220177456
 31
0.0
 73
     1
  2
DRAWNDATE
 70
     0
 74
     1
  0
ATTRIB
  5
A0
  8
0
  6
CONTINUOUS
 62
     7
 10
362.7527157511
 20
14.1107915265
 30
0.0
 40
2.1166666667
  1

 41
0.7
 11
362.7527157511
 21
13.3630577288
 31
0.0
 73
     1
  2
MODDATE
 70
     0
 74
     1
  0
ATTRIB
  5
A1
  8
0
  6
CONTINUOUS
 62
     7
 10
337.9453337568
 20
14.1053719456
 30
0.0
 40
2.1166666667
  1

 41
0.7
 11
337.9453337568
 21
13.3576381479
 31
0.0
 73
     1
  2
MODBY
 70
     0
 74
     1
  0
ATTRIB
  5
A2
  8
0
  6
CONTINUOUS
 62
     7
 10
411.7693325306
 20
14.1107915265
 30
0.0
 40
2.1166666667
  1

 41
0.7
 11
411.7693325306
 21
13.3630577288
 31
0.0
 73
     1
  2
RELDATE
 70
     0
 74
     1
  0
ATTRIB
  5
A3
  8
0
  6
CONTINUOUS
 62
     7
 10
386.9622724121
 20
14.1107915265
 30
0.0
 40
2.1166666667
  1

 41
0.7
 11
386.9622724121
 21
13.3630577288
 31
0.0
 73
     1
  2
RELBY
 70
     0
 74
     1
  0
ATTRIB
  5
A4
  8
0
  6
CONTINUOUS
 62
     7
 10
382.243329726
 20
9.0369860688
 30
0.0
 40
2.1166666667
  1
2/2
 41
0.7
 11
382.243329726
 21
8.2892522711
 31
0.0
 73
     1
  2
AUTOATTR1
 70
     0
 74
     1
  0
ATTRIB
  5
A5
  8
0
  6
CONTINUOUS
 62
     7
 10
405.8309179426
 20
9.0369860688
 30
0.0
 40
2.1166666667
  1
A3
 41
0.7
 11
405.8309179426
 21
8.2892522711
 31
0.0
 73
     1
  2
FORMAT
 70
     0
 74
     1
  0
ATTRIB
  5
A6
  8
0
  6
CONTINUOUS
 62
     7
 10
280.1896576027
 20
9.6903948772
 30
0.0
 40
2.38125
  1

 41
0.7
 11
280.1896576027
 21
8.8491943548
 31
0.0
 73
     1
  2
REMARK
 70
     0
 74
     1
  0
ATTRIB
  5
A7
  8
0
  6
CONTINUOUS
 62
     7
 10
375.8361229267
 20
20.8710259134
 30
0.0
 40
2.1166666667
  1
± 1 °
 41
0.56
 11
375.8361229267
 21
20.1232921157
 31
0.0
 73
     1
  2
ANGLETOL
 70
     0
 74
     1
  0
ATTRIB
  5
A8
  8
0
  6
CONTINUOUS
 62
     7
 10
392.5310415205
 20
20.7082069028
 30
0.0
 40
2.1166666667
  1
± 0.2 mm
 41
0.6125
 11
392.5310415205
 21
19.9604731051
 31
0.0
 73
     1
  2
DIMTOL
 70
     0
 74
     1
  0
ATTRIB
  5
A9
  8
BLOCK_0_4MM
 62
     7
 10
350.7085178148
 20
19.7059541489
 30
0.0
 40
2.5
  1
1:1
 41
0.7
 11
350.7085178148
 21
18.8228039941
 31
0.0
 73
     1
  2
AUTOATTR2
 70
     0
 74
     1
  0
ATTRIB
  5
AA
  8
BLOCK_0_4MM
 62
     7
 10
359.2295520437
 20
24.7059543235
 30
0.0
 40
2.5
  1
 g
 41
0.7
 11
359.2295520437
 21
23.8228041687
 31
0.0
 73
     1
  2
AUTOATTR3
 70
     0
 74
     1
  0
SEQEND
  5
AB
  8
BLOCK_0_4MM
  0
INSERT
  5
B5
  8
0
  6
CONTINUOUS
 62
     7
  2
SW_NOTE_0
 10
220.5
 20
25.7813523681
 30
0.0
  0
TEXT
  5
B6
  8
0
  6
CONTINUOUS
 62
     7
 10
414.6760321318
 20
4.8333996371
 30
0.0
 40
2.35
  1
No material may be reproduced or transmitted in any form or by any means, electronic or mechanical, for any purpose without the express written permission of Van Leeuwen International.
 50
90.0
 41
0.6467391304
 11
415.5061932773
 21
4.8333996371
 31
0.0
 73
     1
  0
TEXT
  5
B7
  8
0
  6
CONTINUOUS
 62
     7
 10
378.6195366537
 20
5.2506703546
 30
0.0
 40
2.35
  1
SW_00206838.slddrw
 41
0.7
 11
378.6195366537
 21
4.4205092091
 31
0.0
 73
     1
  0
TEXT
  5
B8
  8
0
  6
CONTINUOUS
 62
     7
 10
12.2470288249
 20
270.3054526816
 30
0.0
 40
9.525
  1
Concept
 41
0.7
 11
12.2470288249
 21
266.9406505918
 31
0.0
 73
     1
  0
LINE
  5
B9
  8
0
  6
CONTINUOUS
 62
     7
 10
182.7181174415
 20
230.9338169331
 30
0.0
 11
47.7181241842
 21
230.9338169331
 31
0.0
  0
LINE
  5
BA
  8
0
  6
CONTINUOUS
 62
     7
 10
66.7181235733
 20
211.9338156814
 30
0.0
 11
182.7181174415
 21
211.9338156814
 31
0.0
  0
LINE
  5
BB
  8
0
  6
CONTINUOUS
 62
     7
 10
66.7181235733
 20
173.9338169033
 30
0.0
 11
66.7181235733
 21
211.9338156814
 31
0.0
  0
LINE
  5
BC
  8
0
  6
CONTINUOUS
 62
     7
 10
47.7181241842
 20
175.4358995864
 30
0.0
 11
47.7181241842
 21
173.9338169033
 31
0.0
  0
LINE
  5
BD
  8
0
  6
CONTINUOUS
 62
     7
 10
47.7181241842
 20
230.9338169331
 30
0.0
 11
47.7181241842
 21
181.4338167356
 31
0.0
  0
LINE
  5
BE
  8
0
  6
CONTINUOUS
 62
     7
 10
47.8535533877
 20
180.9692464927
 30
0.0
 11
47.7181241842
 21
180.8338168235
 31
0.0
  0
LINE
  5
BF
  8
0
  6
CONTINUOUS
 62
     7
 10
47.7181241842
 20
176.0338168284
 30
0.0
 11
47.8536167177
 21
175.8983245278
 31
0.0
  0
LINE
  5
C0
  8
0
  6
CONTINUOUS
 62
     7
 10
49.2181234988
 20
173.9338169033
 30
0.0
 11
49.2181234988
 21
165.4338164413
 31
0.0
  0
LINE
  5
C1
  8
0
  6
CONTINUOUS
 62
     7
 10
65.2181242587
 20
165.4338164413
 30
0.0
 11
65.2181242587
 21
173.9338169033
 31
0.0
  0
LINE
  5
C2
  8
0
  6
CONTINUOUS
 62
     7
 10
49.2181234988
 20
165.4338164413
 30
0.0
 11
49.7181240464
 21
164.9338172907
 31
0.0
  0
LINE
  5
C3
  8
0
  6
CONTINUOUS
 62
     7
 10
64.7181237111
 20
164.9338172907
 30
0.0
 11
65.2181242587
 21
165.4338164413
 31
0.0
  0
LINE
  5
C4
  8
0
  6
CONTINUOUS
 62
     7
 10
182.7181174415
 20
230.9338169331
 30
0.0
 11
182.7181174415
 21
211.9338156814
 31
0.0
  0
POLYLINE
  5
C5
  8
0
  6
CONTINUOUS
 62
     7
 66
     1
 10
0.0
 20
0.0
 30
0.0
  0
VERTEX
  5
146
  8
0
  6
CONTINUOUS
 62
     7
 10
66.7181235733
 20
211.9338156814
 30
0.0
  0
VERTEX
  5
147
  8
0
  6
CONTINUOUS
 62
     7
 10
66.6809489014
 20
211.9709903532
 30
0.0
  0
VERTEX
  5
148
  8
0
  6
CONTINUOUS
 62
     7
 10
66.5697145271
 20
212.0822275216
 30
0.0
  0
VERTEX
  5
149
  8
0
  6
CONTINUOUS
 62
     7
 10
66.3852903055
 20
212.2666517431
 30
0.0
  0
VERTEX
  5
14A
  8
0
  6
CONTINUOUS
 62
     7
 10
66.1291216495
 20
212.5228176052
 30
0.0
  0
VERTEX
  5
14B
  8
0
  6
CONTINUOUS
 62
     7
 10
65.8032118338
 20
212.8487283522
 30
0.0
  0
VERTEX
  5
14C
  8
0
  6
CONTINUOUS
 62
     7
 10
65.4101126822
 20
213.2418284351
 30
0.0
  0
VERTEX
  5
14D
  8
0
  6
CONTINUOUS
 62
     7
 10
64.952899422
 20
213.699040764
 30
0.0
  0
VERTEX
  5
14E
  8
0
  6
CONTINUOUS
 62
     7
 10
64.4351511257
 20
214.2167890603
 30
0.0
  0
VERTEX
  5
14F
  8
0
  6
CONTINUOUS
 62
     7
 10
63.8609199779
 20
214.791020208
 30
0.0
  0
VERTEX
  5
150
  8
0
  6
CONTINUOUS
 62
     7
 10
63.2347000758
 20
215.4172415072
 30
0.0
  0
VERTEX
  5
151
  8
0
  6
CONTINUOUS
 62
     7
 10
62.5613920385
 20
216.0905504757
 30
0.0
  0
VERTEX
  5
152
  8
0
  6
CONTINUOUS
 62
     7
 10
61.8462657551
 20
216.8056758279
 30
0.0
  0
VERTEX
  5
153
  8
0
  6
CONTINUOUS
 62
     7
 10
61.0949182412
 20
217.5570221776
 30
0.0
  0
VERTEX
  5
154
  8
0
  6
CONTINUOUS
 62
     7
 10
60.313229402
 20
218.3387110168
 30
0.0
  0
VERTEX
  5
155
  8
0
  6
CONTINUOUS
 62
     7
 10
59.5073170955
 20
219.1446254188
 30
0.0
  0
VERTEX
  5
156
  8
0
  6
CONTINUOUS
 62
     7
 10
58.6834887037
 20
219.9684510166
 30
0.0
  0
VERTEX
  5
157
  8
0
  6
CONTINUOUS
 62
     7
 10
57.8481919476
 20
220.8037505085
 30
0.0
  0
VERTEX
  5
158
  8
0
  6
CONTINUOUS
 62
     7
 10
57.0079640567
 20
221.6439785594
 30
0.0
  0
VERTEX
  5
159
  8
0
  6
CONTINUOUS
 62
     7
 10
56.1693809688
 20
222.482560032
 30
0.0
  0
VERTEX
  5
15A
  8
0
  6
CONTINUOUS
 62
     7
 10
55.3390056122
 20
223.3129346901
 30
0.0
  0
VERTEX
  5
15B
  8
0
  6
CONTINUOUS
 62
     7
 10
54.5233368868
 20
224.1286056274
 30
0.0
  0
VERTEX
  5
15C
  8
0
  6
CONTINUOUS
 62
     7
 10
53.728758776
 20
224.9231802458
 30
0.0
  0
VERTEX
  5
15D
  8
0
  6
CONTINUOUS
 62
     7
 10
52.9614893714
 20
225.6904522115
 30
0.0
  0
VERTEX
  5
15E
  8
0
  6
CONTINUOUS
 62
     7
 10
52.2275340738
 20
226.4244051808
 30
0.0
  0
VERTEX
  5
15F
  8
0
  6
CONTINUOUS
 62
     7
 10
51.532637048
 20
227.1193022067
 30
0.0
  0
VERTEX
  5
160
  8
0
  6
CONTINUOUS
 62
     7
 10
50.8822362865
 20
227.7697043652
 30
0.0
  0
VERTEX
  5
161
  8
0
  6
CONTINUOUS
 62
     7
 10
50.2814228641
 20
228.3705191845
 30
0.0
  0
VERTEX
  5
162
  8
0
  6
CONTINUOUS
 62
     7
 10
49.7348980973
 20
228.917041623
 30
0.0
  0
VERTEX
  5
163
  8
0
  6
CONTINUOUS
 62
     7
 10
49.2469395506
 20
229.4050024981
 30
0.0
  0
VERTEX
  5
164
  8
0
  6
CONTINUOUS
 62
     7
 10
48.8213670435
 20
229.8305722112
 30
0.0
  0
VERTEX
  5
165
  8
0
  6
CONTINUOUS
 62
     7
 10
48.4615105199
 20
230.1904315287
 30
0.0
  0
VERTEX
  5
166
  8
0
  6
CONTINUOUS
 62
     7
 10
48.170185368
 20
230.4817566806
 30
0.0
  0
VERTEX
  5
167
  8
0
  6
CONTINUOUS
 62
     7
 10
47.949673328
 20
230.7022677893
 30
0.0
  0
VERTEX
  5
168
  8
0
  6
CONTINUOUS
 62
     7
 10
47.8017001408
 20
230.8502400452
 30
0.0
  0
VERTEX
  5
169
  8
0
  6
CONTINUOUS
 62
     7
 10
47.7274225088
 20
230.9245186085
 30
0.0
  0
VERTEX
  5
16A
  8
0
  6
CONTINUOUS
 62
     7
 10
47.7181241842
 20
230.9338169331
 30
0.0
  0
SEQEND
  5
16B
  8
0
  6
CONTINUOUS
 62
     7
  0
LINE
  5
C6
  8
0
  6
CONTINUOUS
 62
     7
 10
66.7181235733
 20
173.9338169033
 30
0.0
 11
47.7181241842
 21
173.9338169033
 31
0.0
  0
POLYLINE
  5
C7
  8
0
  6
CONTINUOUS
 62
     7
 66
     1
 10
0.0
 20
0.0
 30
0.0
  0
VERTEX
  5
16C
  8
0
  6
CONTINUOUS
 62
     7
 10
47.7187779727
 20
175.4358995864
 30
0.0
  0
VERTEX
  5
16D
  8
0
  6
CONTINUOUS
 62
     7
 10
47.7181623685
 20
175.4339389196
 30
0.0
  0
VERTEX
  5
16E
  8
0
  6
CONTINUOUS
 62
     7
 10
47.7327850642
 20
175.4805735005
 30
0.0
  0
VERTEX
  5
16F
  8
0
  6
CONTINUOUS
 62
     7
 10
47.7695276024
 20
175.600802239
 30
0.0
  0
VERTEX
  5
170
  8
0
  6
CONTINUOUS
 62
     7
 10
47.8265943932
 20
175.7973761456
 30
0.0
  0
VERTEX
  5
171
  8
0
  6
CONTINUOUS
 62
     7
 10
47.8972603562
 20
176.0613700067
 30
0.0
  0
VERTEX
  5
172
  8
0
  6
CONTINUOUS
 62
     7
 10
47.9766882019
 20
176.3956479886
 30
0.0
  0
VERTEX
  5
173
  8
0
  6
CONTINUOUS
 62
     7
 10
48.0557165103
 20
176.7907362124
 30
0.0
  0
VERTEX
  5
174
  8
0
  6
CONTINUOUS
 62
     7
 10
48.1263973745
 20
177.2465997534
 30
0.0
  0
VERTEX
  5
175
  8
0
  6
CONTINUOUS
 62
     7
 10
48.1762696984
 20
177.7230918566
 30
0.0
  0
VERTEX
  5
176
  8
0
  6
CONTINUOUS
 62
     7
 10
48.2021064492
 20
178.2374277869
 30
0.0
  0
VERTEX
  5
177
  8
0
  6
CONTINUOUS
 62
     7
 10
48.1997250574
 20
178.7193248207
 30
0.0
  0
VERTEX
  5
178
  8
0
  6
CONTINUOUS
 62
     7
 10
48.1711390423
 20
179.2070780108
 30
0.0
  0
VERTEX
  5
179
  8
0
  6
CONTINUOUS
 62
     7
 10
48.1221812772
 20
179.6529030586
 30
0.0
  0
VERTEX
  5
17A
  8
0
  6
CONTINUOUS
 62
     7
 10
48.0556112709
 20
180.0774846384
 30
0.0
  0
VERTEX
  5
17B
  8
0
  6
CONTINUOUS
 62
     7
 10
47.9786942708
 20
180.4628687138
 30
0.0
  0
VERTEX
  5
17C
  8
0
  6
CONTINUOUS
 62
     7
 10
47.8982112365
 20
180.8025253164
 30
0.0
  0
VERTEX
  5
17D
  8
0
  6
CONTINUOUS
 62
     7
 10
47.8245091619
 20
181.0776775861
 30
0.0
  0
VERTEX
  5
17E
  8
0
  6
CONTINUOUS
 62
     7
 10
47.7645319881
 20
181.2834481867
 30
0.0
  0
VERTEX
  5
17F
  8
0
  6
CONTINUOUS
 62
     7
 10
47.7303561749
 20
181.3948520617
 30
0.0
  0
VERTEX
  5
180
  8
0
  6
CONTINUOUS
 62
     7
 10
47.7181241842
 20
181.4338167356
 30
0.0
  0
SEQEND
  5
181
  8
0
  6
CONTINUOUS
 62
     7
  0
LINE
  5
C8
  8
0
  6
CONTINUOUS
 62
     7
 10
47.7181241842
 20
180.8338168235
 30
0.0
 11
47.7181241842
 21
176.0338168284
 31
0.0
  0
LINE
  5
C9
  8
0
  6
CONTINUOUS
 62
     7
 10
47.9377393606
 20
176.1915977737
 30
0.0
 11
47.9377393606
 21
180.6795497583
 31
0.0
  0
LINE
  5
CA
  8
0
  6
CONTINUOUS
 62
     7
 10
49.2181234988
 20
165.4338164413
 30
0.0
 11
65.2181242587
 21
165.4338164413
 31
0.0
  0
LINE
  5
CB
  8
0
  6
CONTINUOUS
 62
     7
 10
64.7181237111
 20
164.9338172907
 30
0.0
 11
49.7181240464
 21
164.9338172907
 31
0.0
  0
DIMENSION
  5
CC
  8
BLOCK_0_4MM
 62
     7
  2
*D3
 10
47.7181238788
 20
237.1482290746
 30
0.0
 11
115.2181238788
 21
237.1482290746
 31
0.0
 70
   160
  3
SLDDIMSTYLE0
 13
182.7181238788
 23
230.9338169033
 33
0.0
 14
47.7181238788
 24
230.9338169033
 34
0.0
  0
DIMENSION
  5
D7
  8
BLOCK_0_4MM
 62
     7
  2
*D4
 10
40.2875317757
 20
173.9338169033
 30
0.0
 11
40.2875317757
 21
202.4338169033
 31
0.0
 70
   160
  3
SLDDIMSTYLE0
 13
47.7181238788
 23
230.9338169033
 33
0.0
 14
47.7181238788
 24
173.9338169033
 34
0.0
 50
90.0
  0
DIMENSION
  5
E1
  8
BLOCK_0_4MM
 62
     7
  2
*D5
 10
65.2181238788
 20
158.4914651053
 30
0.0
 11
57.2181238788
 21
158.4914651053
 31
0.0
 70
   160
  1
%%c<>
  3
SLDDIMSTYLE1
 13
49.2181238788
 23
165.4338169033
 33
0.0
 14
65.2181238788
 24
165.4338169033
 34
0.0
  0
DIMENSION
  5
ED
  8
BLOCK_0_4MM
 62
     7
  2
*D6
 10
191.7704064179
 20
211.9338169033
 30
0.0
 11
191.7704064179
 21
221.4338169033
 31
0.0
 70
   160
  1
%%c<>
  3
SLDDIMSTYLE0
 13
182.7181238788
 23
230.9338169033
 33
0.0
 14
182.7181238788
 24
211.9338169033
 34
0.0
 50
90.0
  0
LINE
  5
F8
  8
0
  6
CONTINUOUS
 62
     7
 10
386.906006822
 20
182.586830313
 30
0.0
 11
293.4144963655
 21
236.5583304839
 31
0.0
  0
LINE
  5
F9
  8
0
  6
CONTINUOUS
 62
     7
 10
293.4144963655
 20
214.6196142603
 30
0.0
 11
377.4067788831
 21
166.1319016529
 31
0.0
  0
LINE
  5
FA
  8
0
  6
CONTINUOUS
 62
     7
 10
264.576537333
 20
197.9718148692
 30
0.0
 11
293.4144963655
 21
214.6196142603
 31
0.0
  0
LINE
  5
FB
  8
0
  6
CONTINUOUS
 62
     7
 10
293.4144963655
 20
236.5583304839
 30
0.0
 11
255.077309394
 21
214.4267435293
 31
0.0
  0
LINE
  5
FC
  8
0
  6
CONTINUOUS
 62
     7
 10
248.1596608786
 20
205.9951771378
 30
0.0
 11
248.1596618664
 21
205.5869732051
 31
0.0
  0
LINE
  5
FD
  8
0
  6
CONTINUOUS
 62
     7
 10
253.4621006712
 20
196.4018844867
 30
0.0
 11
253.8155959989
 21
196.1977492477
 31
0.0
  0
LINE
  5
FE
  8
0
  6
CONTINUOUS
 62
     7
 10
255.8272483552
 20
213.127670084
 30
0.0
 11
249.8168403885
 21
209.6579354201
 31
0.0
  0
LINE
  5
FF
  8
0
  6
CONTINUOUS
 62
     7
 10
257.8161904051
 20
195.8011536507
 30
0.0
 11
263.8265983718
 21
199.2708883145
 31
0.0
  0
POLYLINE
  5
100
  8
0
  6
CONTINUOUS
 62
     7
 66
     1
 10
0.0
 20
0.0
 30
0.0
  0
VERTEX
  5
182
  8
0
  6
CONTINUOUS
 62
     7
 10
388.8739063993
 20
178.2373040092
 30
0.0
  0
VERTEX
  5
183
  8
0
  6
CONTINUOUS
 62
     7
 10
388.8209357132
 20
179.1789518695
 30
0.0
  0
VERTEX
  5
184
  8
0
  6
CONTINUOUS
 62
     7
 10
388.6628639579
 20
180.044593531
 30
0.0
  0
VERTEX
  5
185
  8
0
  6
CONTINUOUS
 62
     7
 10
388.4021777973
 20
180.8205737937
 30
0.0
  0
VERTEX
  5
186
  8
0
  6
CONTINUOUS
 62
     7
 10
388.0429944518
 20
181.4946582294
 30
0.0
  0
VERTEX
  5
187
  8
0
  6
CONTINUOUS
 62
     7
 10
387.5909747698
 20
182.0562146555
 30
0.0
  0
VERTEX
  5
188
  8
0
  6
CONTINUOUS
 62
     7
 10
387.0532494715
 20
182.4963871927
 30
0.0
  0
VERTEX
  5
189
  8
0
  6
CONTINUOUS
 62
     7
 10
386.4382979757
 20
182.808234681
 30
0.0
  0
VERTEX
  5
18A
  8
0
  6
CONTINUOUS
 62
     7
 10
385.755816692
 20
182.986837156
 30
0.0
  0
VERTEX
  5
18B
  8
0
  6
CONTINUOUS
 62
     7
 10
385.0165715058
 20
183.0293798951
 30
0.0
  0
VERTEX
  5
18C
  8
0
  6
CONTINUOUS
 62
     7
 10
384.232218655
 20
182.9351910762
 30
0.0
  0
VERTEX
  5
18D
  8
0
  6
CONTINUOUS
 62
     7
 10
383.4151282396
 20
182.7057562434
 30
0.0
  0
VERTEX
  5
18E
  8
0
  6
CONTINUOUS
 62
     7
 10
382.5781892928
 20
182.3446947513
 30
0.0
  0
VERTEX
  5
18F
  8
0
  6
CONTINUOUS
 62
     7
 10
381.7345964123
 20
181.8576989474
 30
0.0
  0
VERTEX
  5
190
  8
0
  6
CONTINUOUS
 62
     7
 10
380.8976548312
 20
181.2524497793
 30
0.0
  0
VERTEX
  5
191
  8
0
  6
CONTINUOUS
 62
     7
 10
380.08056705
 20
180.5384936198
 30
0.0
  0
VERTEX
  5
192
  8
0
  6
CONTINUOUS
 62
     7
 10
379.2962141993
 20
179.7270879133
 30
0.0
  0
VERTEX
  5
193
  8
0
  6
CONTINUOUS
 62
     7
 10
378.5569690131
 20
178.8310308499
 30
0.0
  0
VERTEX
  5
194
  8
0
  6
CONTINUOUS
 62
     7
 10
377.8744877293
 20
177.8644522571
 30
0.0
  0
VERTEX
  5
195
  8
0
  6
CONTINUOUS
 62
     7
 10
377.2595335994
 20
176.8425953642
 30
0.0
  0
VERTEX
  5
196
  8
0
  6
CONTINUOUS
 62
     7
 10
376.7218083011
 20
175.7815784124
 30
0.0
  0
VERTEX
  5
197
  8
0
  6
CONTINUOUS
 62
     7
 10
376.2697886191
 20
174.6981311703
 30
0.0
  0
VERTEX
  5
198
  8
0
  6
CONTINUOUS
 62
     7
 10
375.9106052736
 20
173.6093424711
 30
0.0
  0
VERTEX
  5
199
  8
0
  6
CONTINUOUS
 62
     7
 10
375.6499217472
 20
172.5323818947
 30
0.0
  0
VERTEX
  5
19A
  8
0
  6
CONTINUOUS
 62
     7
 10
375.4918473577
 20
171.4842329485
 30
0.0
  0
VERTEX
  5
19B
  8
0
  6
CONTINUOUS
 62
     7
 10
375.4388766716
 20
170.481426436
 30
0.0
  0
VERTEX
  5
19C
  8
0
  6
CONTINUOUS
 62
     7
 10
375.4918473577
 20
169.5397785757
 30
0.0
  0
VERTEX
  5
19D
  8
0
  6
CONTINUOUS
 62
     7
 10
375.6499217472
 20
168.6741384349
 30
0.0
  0
VERTEX
  5
19E
  8
0
  6
CONTINUOUS
 62
     7
 10
375.9106052736
 20
167.8981566515
 30
0.0
  0
VERTEX
  5
19F
  8
0
  6
CONTINUOUS
 62
     7
 10
376.2697886191
 20
167.2240722158
 30
0.0
  0
VERTEX
  5
1A0
  8
0
  6
CONTINUOUS
 62
     7
 10
376.7218083011
 20
166.6625157897
 30
0.0
  0
VERTEX
  5
1A1
  8
0
  6
CONTINUOUS
 62
     7
 10
377.2595335994
 20
166.2223432524
 30
0.0
  0
VERTEX
  5
1A2
  8
0
  6
CONTINUOUS
 62
     7
 10
377.8744877293
 20
165.9104972849
 30
0.0
  0
VERTEX
  5
1A3
  8
0
  6
CONTINUOUS
 62
     7
 10
378.5569690131
 20
165.7318948098
 30
0.0
  0
VERTEX
  5
1A4
  8
0
  6
CONTINUOUS
 62
     7
 10
379.2962141993
 20
165.6893520707
 30
0.0
  0
VERTEX
  5
1A5
  8
0
  6
CONTINUOUS
 62
     7
 10
380.08056705
 20
165.7835408897
 30
0.0
  0
VERTEX
  5
1A6
  8
0
  6
CONTINUOUS
 62
     7
 10
380.8976548312
 20
166.0129742017
 30
0.0
  0
VERTEX
  5
1A7
  8
0
  6
CONTINUOUS
 62
     7
 10
381.7345964123
 20
166.3740372145
 30
0.0
  0
VERTEX
  5
1A8
  8
0
  6
CONTINUOUS
 62
     7
 10
382.5781892928
 20
166.8610330185
 30
0.0
  0
VERTEX
  5
1A9
  8
0
  6
CONTINUOUS
 62
     7
 10
383.4151282396
 20
167.4662806659
 30
0.0
  0
VERTEX
  5
1AA
  8
0
  6
CONTINUOUS
 62
     7
 10
384.232218655
 20
168.1802383461
 30
0.0
  0
VERTEX
  5
1AB
  8
0
  6
CONTINUOUS
 62
     7
 10
385.0165715058
 20
168.9916440525
 30
0.0
  0
VERTEX
  5
1AC
  8
0
  6
CONTINUOUS
 62
     7
 10
385.755816692
 20
169.887701116
 30
0.0
  0
VERTEX
  5
1AD
  8
0
  6
CONTINUOUS
 62
     7
 10
386.4382979757
 20
170.8542797088
 30
0.0
  0
VERTEX
  5
1AE
  8
0
  6
CONTINUOUS
 62
     7
 10
387.0532494715
 20
171.876135081
 30
0.0
  0
VERTEX
  5
1AF
  8
0
  6
CONTINUOUS
 62
     7
 10
387.5909747698
 20
172.9371520327
 30
0.0
  0
VERTEX
  5
1B0
  8
0
  6
CONTINUOUS
 62
     7
 10
388.0429944518
 20
174.0205992748
 30
0.0
  0
VERTEX
  5
1B1
  8
0
  6
CONTINUOUS
 62
     7
 10
388.4021777973
 20
175.1093879741
 30
0.0
  0
VERTEX
  5
1B2
  8
0
  6
CONTINUOUS
 62
     7
 10
388.6628639579
 20
176.1863500712
 30
0.0
  0
VERTEX
  5
1B3
  8
0
  6
CONTINUOUS
 62
     7
 10
388.8209357132
 20
177.2344974966
 30
0.0
  0
VERTEX
  5
1B4
  8
0
  6
CONTINUOUS
 62
     7
 10
388.8739063993
 20
178.2373040092
 30
0.0
  0
SEQEND
  5
1B5
  8
0
  6
CONTINUOUS
 62
     7
  0
POLYLINE
  5
101
  8
0
  6
CONTINUOUS
 62
     7
 66
     1
 10
0.0
 20
0.0
 30
0.0
  0
VERTEX
  5
1B6
  8
0
  6
CONTINUOUS
 62
     7
 10
293.4144943898
 20
217.8330944186
 30
0.0
  0
VERTEX
  5
1B7
  8
0
  6
CONTINUOUS
 62
     7
 10
293.4144950484
 20
218.6864234554
 30
0.0
  0
VERTEX
  5
1B8
  8
0
  6
CONTINUOUS
 62
     7
 10
293.4144957069
 20
219.6153789577
 30
0.0
  0
VERTEX
  5
1B9
  8
0
  6
CONTINUOUS
 62
     7
 10
293.4144957069
 20
220.6097819758
 30
0.0
  0
VERTEX
  5
1BA
  8
0
  6
CONTINUOUS
 62
     7
 10
293.4144950484
 20
221.658737352
 30
0.0
  0
VERTEX
  5
1BB
  8
0
  6
CONTINUOUS
 62
     7
 10
293.4144957069
 20
222.7507542492
 30
0.0
  0
VERTEX
  5
1BC
  8
0
  6
CONTINUOUS
 62
     7
 10
293.4144950484
 20
223.8738666801
 30
0.0
  0
VERTEX
  5
1BD
  8
0
  6
CONTINUOUS
 62
     7
 10
293.4144950484
 20
225.0157700016
 30
0.0
  0
VERTEX
  5
1BE
  8
0
  6
CONTINUOUS
 62
     7
 10
293.4144966948
 20
226.1639545582
 30
0.0
  0
VERTEX
  5
1BF
  8
0
  6
CONTINUOUS
 62
     7
 10
293.4144947191
 20
227.3058372329
 30
0.0
  0
VERTEX
  5
1C0
  8
0
  6
CONTINUOUS
 62
     7
 10
293.4144960362
 20
228.4289120054
 30
0.0
  0
VERTEX
  5
1C1
  8
0
  6
CONTINUOUS
 62
     7
 10
293.4144953777
 20
229.520870476
 30
0.0
  0
VERTEX
  5
1C2
  8
0
  6
CONTINUOUS
 62
     7
 10
293.4144966948
 20
230.5697510906
 30
0.0
  0
VERTEX
  5
1C3
  8
0
  6
CONTINUOUS
 62
     7
 10
293.4144957069
 20
231.5640602325
 30
0.0
  0
VERTEX
  5
1C4
  8
0
  6
CONTINUOUS
 62
     7
 10
293.4144947191
 20
232.4929050965
 30
0.0
  0
VERTEX
  5
1C5
  8
0
  6
CONTINUOUS
 62
     7
 10
293.4144950484
 20
233.3461090752
 30
0.0
  0
VERTEX
  5
1C6
  8
0
  6
CONTINUOUS
 62
     7
 10
293.4144953777
 20
234.1143252421
 30
0.0
  0
VERTEX
  5
1C7
  8
0
  6
CONTINUOUS
 62
     7
 10
293.4144943898
 20
234.7891344355
 30
0.0
  0
VERTEX
  5
1C8
  8
0
  6
CONTINUOUS
 62
     7
 10
293.4144960362
 20
235.3631463836
 30
0.0
  0
VERTEX
  5
1C9
  8
0
  6
CONTINUOUS
 62
     7
 10
293.4144947191
 20
235.8300690826
 30
0.0
  0
VERTEX
  5
1CA
  8
0
  6
CONTINUOUS
 62
     7
 10
293.4144966948
 20
236.1847891985
 30
0.0
  0
VERTEX
  5
1CB
  8
0
  6
CONTINUOUS
 62
     7
 10
293.4144953777
 20
236.4234182521
 30
0.0
  0
VERTEX
  5
1CC
  8
0
  6
CONTINUOUS
 62
     7
 10
293.4144960362
 20
236.5433437447
 30
0.0
  0
VERTEX
  5
1CD
  8
0
  6
CONTINUOUS
 62
     7
 10
293.4144963655
 20
236.5583304839
 30
0.0
  0
SEQEND
  5
1CE
  8
0
  6
CONTINUOUS
 62
     7
  0
POLYLINE
  5
102
  8
0
  6
CONTINUOUS
 62
     7
 66
     1
 10
0.0
 20
0.0
 30
0.0
  0
VERTEX
  5
1CF
  8
0
  6
CONTINUOUS
 62
     7
 10
293.4144963655
 20
214.6196142603
 30
0.0
  0
VERTEX
  5
1D0
  8
0
  6
CONTINUOUS
 62
     7
 10
293.4144950484
 20
214.6346933551
 30
0.0
  0
VERTEX
  5
1D1
  8
0
  6
CONTINUOUS
 62
     7
 10
293.4144950484
 20
214.7548040573
 30
0.0
  0
VERTEX
  5
1D2
  8
0
  6
CONTINUOUS
 62
     7
 10
293.4144957069
 20
214.9936167857
 30
0.0
  0
VERTEX
  5
1D3
  8
0
  6
CONTINUOUS
 62
     7
 10
293.4144950484
 20
215.3485128596
 30
0.0
  0
VERTEX
  5
1D4
  8
0
  6
CONTINUOUS
 62
     7
 10
293.4144957069
 20
215.8156071778
 30
0.0
  0
VERTEX
  5
1D5
  8
0
  6
CONTINUOUS
 62
     7
 10
293.4144957069
 20
216.3897797863
 30
0.0
  0
VERTEX
  5
1D6
  8
0
  6
CONTINUOUS
 62
     7
 10
293.4144950484
 20
217.0647401422
 30
0.0
  0
VERTEX
  5
1D7
  8
0
  6
CONTINUOUS
 62
     7
 10
293.4144943898
 20
217.8330944186
 30
0.0
  0
SEQEND
  5
1D8
  8
0
  6
CONTINUOUS
 62
     7
  0
POLYLINE
  5
103
  8
0
  6
CONTINUOUS
 62
     7
 66
     1
 10
0.0
 20
0.0
 30
0.0
  0
VERTEX
  5
1D9
  8
0
  6
CONTINUOUS
 62
     7
 10
266.5444375688
 20
202.3213407928
 30
0.0
  0
VERTEX
  5
1DA
  8
0
  6
CONTINUOUS
 62
     7
 10
266.4914681998
 20
203.324146545
 30
0.0
  0
VERTEX
  5
1DB
  8
0
  6
CONTINUOUS
 62
     7
 10
266.3333944688
 20
204.372295111
 30
0.0
  0
VERTEX
  5
1DC
  8
0
  6
CONTINUOUS
 62
     7
 10
266.0727102839
 20
205.4492560676
 30
0.0
  0
VERTEX
  5
1DD
  8
0
  6
CONTINUOUS
 62
     7
 10
265.7135262798
 20
206.538045147
 30
0.0
  0
VERTEX
  5
1DE
  8
0
  6
CONTINUOUS
 62
     7
 10
265.2615065979
 20
207.6214923891
 30
0.0
  0
VERTEX
  5
1DF
  8
0
  6
CONTINUOUS
 62
     7
 10
264.723780641
 20
208.682509721
 30
0.0
  0
VERTEX
  5
1E0
  8
0
  6
CONTINUOUS
 62
     7
 10
264.1088281574
 20
209.7043656635
 30
0.0
  0
VERTEX
  5
1E1
  8
0
  6
CONTINUOUS
 62
     7
 10
263.4263475322
 20
210.6709438761
 30
0.0
  0
VERTEX
  5
1E2
  8
0
  6
CONTINUOUS
 62
     7
 10
262.6871020168
 20
211.5670011296
 30
0.0
  0
VERTEX
  5
1E3
  8
0
  6
CONTINUOUS
 62
     7
 10
261.9027494953
 20
212.378406646
 30
0.0
  0
VERTEX
  5
1E4
  8
0
  6
CONTINUOUS
 62
     7
 10
261.0856600677
 20
213.0923637559
 30
0.0
  0
VERTEX
  5
1E5
  8
0
  6
CONTINUOUS
 62
     7
 10
260.248719598
 20
213.6976122825
 30
0.0
  0
VERTEX
  5
1E6
  8
0
  6
CONTINUOUS
 62
     7
 10
259.405127129
 20
214.1846078488
 30
0.0
  0
VERTEX
  5
1E7
  8
0
  6
CONTINUOUS
 62
     7
 10
258.5681866593
 20
214.5456702201
 30
0.0
  0
VERTEX
  5
1E8
  8
0
  6
CONTINUOUS
 62
     7
 10
257.7510972317
 20
214.7751044826
 30
0.0
  0
VERTEX
  5
1E9
  8
0
  6
CONTINUOUS
 62
     7
 10
256.9667447102
 20
214.8692931114
 30
0.0
  0
VERTEX
  5
1EA
  8
0
  6
CONTINUOUS
 62
     7
 10
256.2274991948
 20
214.8267505624
 30
0.0
  0
VERTEX
  5
1EB
  8
0
  6
CONTINUOUS
 62
     7
 10
255.5450185696
 20
214.6481477072
 30
0.0
  0
VERTEX
  5
1EC
  8
0
  6
CONTINUOUS
 62
     7
 10
254.930066086
 20
214.3363007892
 30
0.0
  0
VERTEX
  5
1ED
  8
0
  6
CONTINUOUS
 62
     7
 10
254.3923401291
 20
213.8961286321
 30
0.0
  0
VERTEX
  5
1EE
  8
0
  6
CONTINUOUS
 62
     7
 10
253.9403204472
 20
213.334572206
 30
0.0
  0
VERTEX
  5
1EF
  8
0
  6
CONTINUOUS
 62
     7
 10
253.5811364431
 20
212.6604881505
 30
0.0
  0
VERTEX
  5
1F0
  8
0
  6
CONTINUOUS
 62
     7
 10
253.3204522582
 20
211.8845067473
 30
0.0
  0
VERTEX
  5
1F1
  8
0
  6
CONTINUOUS
 62
     7
 10
253.2653024483
 20
211.648690395
 30
0.0
  0
SEQEND
  5
1F2
  8
0
  6
CONTINUOUS
 62
     7
  0
POLYLINE
  5
104
  8
0
  6
CONTINUOUS
 62
     7
 66
     1
 10
0.0
 20
0.0
 30
0.0
  0
VERTEX
  5
1F3
  8
0
  6
CONTINUOUS
 62
     7
 10
261.264652465
 20
197.7919082453
 30
0.0
  0
VERTEX
  5
1F4
  8
0
  6
CONTINUOUS
 62
     7
 10
261.9027494953
 20
197.6234539159
 30
0.0
  0
VERTEX
  5
1F5
  8
0
  6
CONTINUOUS
 62
     7
 10
262.6871020168
 20
197.529265287
 30
0.0
  0
VERTEX
  5
1F6
  8
0
  6
CONTINUOUS
 62
     7
 10
263.4263475322
 20
197.571807836
 30
0.0
  0
VERTEX
  5
1F7
  8
0
  6
CONTINUOUS
 62
     7
 10
264.1088281574
 20
197.7504106913
 30
0.0
  0
VERTEX
  5
1F8
  8
0
  6
CONTINUOUS
 62
     7
 10
264.723780641
 20
198.0622576093
 30
0.0
  0
VERTEX
  5
1F9
  8
0
  6
CONTINUOUS
 62
     7
 10
265.2615065979
 20
198.5024297664
 30
0.0
  0
VERTEX
  5
1FA
  8
0
  6
CONTINUOUS
 62
     7
 10
265.7135262798
 20
199.0639861925
 30
0.0
  0
VERTEX
  5
1FB
  8
0
  6
CONTINUOUS
 62
     7
 10
266.0727102839
 20
199.738070248
 30
0.0
  0
VERTEX
  5
1FC
  8
0
  6
CONTINUOUS
 62
     7
 10
266.3333944688
 20
200.5140516512
 30
0.0
  0
VERTEX
  5
1FD
  8
0
  6
CONTINUOUS
 62
     7
 10
266.4914681998
 20
201.3796921722
 30
0.0
  0
VERTEX
  5
1FE
  8
0
  6
CONTINUOUS
 62
     7
 10
266.5444375688
 20
202.3213407928
 30
0.0
  0
SEQEND
  5
1FF
  8
0
  6
CONTINUOUS
 62
     7
  0
POLYLINE
  5
105
  8
0
  6
CONTINUOUS
 62
     7
 66
     1
 10
0.0
 20
0.0
 30
0.0
  0
VERTEX
  5
200
  8
0
  6
CONTINUOUS
 62
     7
 10
265.8373313302
 20
202.7295445354
 30
0.0
  0
VERTEX
  5
201
  8
0
  6
CONTINUOUS
 62
     7
 10
265.7837027582
 20
203.6855946859
 30
0.0
  0
VERTEX
  5
202
  8
0
  6
CONTINUOUS
 62
     7
 10
265.6237765415
 20
204.6865008418
 30
0.0
  0
VERTEX
  5
203
  8
0
  6
CONTINUOUS
 62
     7
 10
265.3604041779
 20
205.7144033246
 30
0.0
  0
VERTEX
  5
204
  8
0
  6
CONTINUOUS
 62
     7
 10
264.9982876751
 20
206.750957834
 30
0.0
  0
VERTEX
  5
205
  8
0
  6
CONTINUOUS
 62
     7
 10
264.5438876841
 20
207.777667667
 30
0.0
  0
VERTEX
  5
206
  8
0
  6
CONTINUOUS
 62
     7
 10
264.0053131926
 20
208.776211562
 30
0.0
  0
VERTEX
  5
207
  8
0
  6
CONTINUOUS
 62
     7
 10
263.3921753284
 20
209.7287699234
 30
0.0
  0
VERTEX
  5
208
  8
0
  6
CONTINUOUS
 62
     7
 10
262.7154154793
 20
210.6183442005
 30
0.0
  0
VERTEX
  5
209
  8
0
  6
CONTINUOUS
 62
     7
 10
261.9871105284
 20
211.4290601981
 30
0.0
  0
VERTEX
  5
20A
  8
0
  6
CONTINUOUS
 62
     7
 10
261.2202570162
 20
212.1464504737
 30
0.0
  0
VERTEX
  5
20B
  8
0
  6
CONTINUOUS
 62
     7
 10
260.4285392918
 20
212.7577136571
 30
0.0
  0
VERTEX
  5
20C
  8
0
  6
CONTINUOUS
 62
     7
 10
259.6260857278
 20
213.2519414973
 30
0.0
  0
VERTEX
  5
20D
  8
0
  6
CONTINUOUS
 62
     7
 10
258.8272161688
 20
213.6203137069
 30
0.0
  0
VERTEX
  5
20E
  8
0
  6
CONTINUOUS
 62
     7
 10
258.046186416
 20
213.8562583963
 30
0.0
  0
VERTEX
  5
20F
  8
0
  6
CONTINUOUS
 62
     7
 10
257.2969338228
 20
213.9555635762
 30
0.0
  0
VERTEX
  5
210
  8
0
  6
CONTINUOUS
 62
     7
 10
256.5928290655
 20
213.9164577194
 30
0.0
  0
VERTEX
  5
211
  8
0
  6
CONTINUOUS
 62
     7
 10
255.9464366793
 20
213.7396384941
 30
0.0
  0
VERTEX
  5
212
  8
0
  6
CONTINUOUS
 62
     7
 10
255.3692918945
 20
213.4282616677
 30
0.0
  0
VERTEX
  5
213
  8
0
  6
CONTINUOUS
 62
     7
 10
254.8716933594
 20
212.987883198
 30
0.0
  0
VERTEX
  5
214
  8
0
  6
CONTINUOUS
 62
     7
 10
254.4625212173
 20
212.4263621615
 30
0.0
  0
VERTEX
  5
215
  8
0
  6
CONTINUOUS
 62
     7
 10
254.3909911007
 20
212.2985362765
 30
0.0
  0
SEQEND
  5
216
  8
0
  6
CONTINUOUS
 62
     7
  0
POLYLINE
  5
106
  8
0
  6
CONTINUOUS
 62
     7
 66
     1
 10
0.0
 20
0.0
 30
0.0
  0
VERTEX
  5
217
  8
0
  6
CONTINUOUS
 62
     7
 10
262.3903409527
 20
198.441754412
 30
0.0
  0
VERTEX
  5
218
  8
0
  6
CONTINUOUS
 62
     7
 10
262.7154154793
 20
198.4452321881
 30
0.0
  0
VERTEX
  5
219
  8
0
  6
CONTINUOUS
 62
     7
 10
263.3921753284
 20
198.5534361754
 30
0.0
  0
VERTEX
  5
21A
  8
0
  6
CONTINUOUS
 62
     7
 10
264.0053131926
 20
198.7980806272
 30
0.0
  0
VERTEX
  5
21B
  8
0
  6
CONTINUOUS
 62
     7
 10
264.5438876841
 20
199.1747996502
 30
0.0
  0
VERTEX
  5
21C
  8
0
  6
CONTINUOUS
 62
     7
 10
264.9982876751
 20
199.6768704208
 30
0.0
  0
VERTEX
  5
21D
  8
0
  6
CONTINUOUS
 62
     7
 10
265.3604041779
 20
200.2953341154
 30
0.0
  0
VERTEX
  5
21E
  8
0
  6
CONTINUOUS
 62
     7
 10
265.6237765415
 20
201.0191533398
 30
0.0
  0
VERTEX
  5
21F
  8
0
  6
CONTINUOUS
 62
     7
 10
265.7837027582
 20
201.8354126163
 30
0.0
  0
VERTEX
  5
220
  8
0
  6
CONTINUOUS
 62
     7
 10
265.8373313302
 20
202.7295445354
 30
0.0
  0
SEQEND
  5
221
  8
0
  6
CONTINUOUS
 62
     7
  0
ARC
  5
107
  8
0
  6
CONTINUOUS
 62
     7
 10
256.0179622958
 20
198.916114024
 30
0.0
 40
3.498560327259341
 50
230.9862811975
 51
9.0083320288
  0
POLYLINE
  5
108
  8
0
  6
CONTINUOUS
 62
     7
 66
     1
 10
0.0
 20
0.0
 30
0.0
  0
VERTEX
  5
222
  8
0
  6
CONTINUOUS
 62
     7
 10
248.1596608786
 20
205.9951771378
 30
0.0
  0
VERTEX
  5
223
  8
0
  6
CONTINUOUS
 62
     7
 10
248.2123497076
 20
206.8542455458
 30
0.0
  0
VERTEX
  5
224
  8
0
  6
CONTINUOUS
 62
     7
 10
248.3694326584
 20
207.6364789743
 30
0.0
  0
VERTEX
  5
225
  8
0
  6
CONTINUOUS
 62
     7
 10
248.6279848054
 20
208.327305444
 30
0.0
  0
VERTEX
  5
226
  8
0
  6
CONTINUOUS
 62
     7
 10
248.9831892251
 20
208.9138562352
 30
0.0
  0
VERTEX
  5
227
  8
0
  6
CONTINUOUS
 62
     7
 10
249.4284298498
 20
209.3852047763
 30
0.0
  0
VERTEX
  5
228
  8
0
  6
CONTINUOUS
 62
     7
 10
249.9554116531
 20
209.7325713154
 30
0.0
  0
VERTEX
  5
229
  8
0
  6
CONTINUOUS
 62
     7
 10
250.554319029
 20
209.9494845329
 30
0.0
  0
VERTEX
  5
22A
  8
0
  6
CONTINUOUS
 62
     7
 10
251.2139945872
 20
210.0319039931
 30
0.0
  0
VERTEX
  5
22B
  8
0
  6
CONTINUOUS
 62
     7
 10
251.9221502164
 20
209.9782941189
 30
0.0
  0
VERTEX
  5
22C
  8
0
  6
CONTINUOUS
 62
     7
 10
252.6655943646
 20
209.7896538239
 30
0.0
  0
VERTEX
  5
22D
  8
0
  6
CONTINUOUS
 62
     7
 10
253.4304780056
 20
209.4694969533
 30
0.0
  0
VERTEX
  5
22E
  8
0
  6
CONTINUOUS
 62
     7
 10
254.2025527879
 20
209.0237876686
 30
0.0
  0
VERTEX
  5
22F
  8
0
  6
CONTINUOUS
 62
     7
 10
254.9674364289
 20
208.4608286851
 30
0.0
  0
VERTEX
  5
230
  8
0
  6
CONTINUOUS
 62
     7
 10
255.7108805772
 20
207.7911066372
 30
0.0
  0
VERTEX
  5
231
  8
0
  6
CONTINUOUS
 62
     7
 10
256.4190362064
 20
207.0270974254
 30
0.0
  0
VERTEX
  5
232
  8
0
  6
CONTINUOUS
 62
     7
 10
257.0787117646
 20
206.1830327778
 30
0.0
  0
VERTEX
  5
233
  8
0
  6
CONTINUOUS
 62
     7
 10
257.6776191404
 20
205.2746358228
 30
0.0
  0
VERTEX
  5
234
  8
0
  6
CONTINUOUS
 62
     7
 10
258.2046009437
 20
204.3188290447
 30
0.0
  0
VERTEX
  5
235
  8
0
  6
CONTINUOUS
 62
     7
 10
258.6498415685
 20
203.3334166203
 30
0.0
  0
VERTEX
  5
236
  8
0
  6
CONTINUOUS
 62
     7
 10
259.0050459881
 20
202.3367555357
 30
0.0
  0
VERTEX
  5
237
  8
0
  6
CONTINUOUS
 62
     7
 10
259.2635981352
 20
201.3474111111
 30
0.0
  0
VERTEX
  5
238
  8
0
  6
CONTINUOUS
 62
     7
 10
259.420681086
 20
200.3838135681
 30
0.0
  0
VERTEX
  5
239
  8
0
  6
CONTINUOUS
 62
     7
 10
259.473369915
 20
199.463911933
 30
0.0
  0
SEQEND
  5
23A
  8
0
  6
CONTINUOUS
 62
     7
  0
POLYLINE
  5
109
  8
0
  6
CONTINUOUS
 62
     7
 66
     1
 10
0.0
 20
0.0
 30
0.0
  0
VERTEX
  5
23B
  8
0
  6
CONTINUOUS
 62
     7
 10
258.7662633471
 20
199.4639125033
 30
0.0
  0
VERTEX
  5
23C
  8
0
  6
CONTINUOUS
 62
     7
 10
258.7122834416
 20
200.3666185254
 30
0.0
  0
VERTEX
  5
23D
  8
0
  6
CONTINUOUS
 62
     7
 10
258.5514425066
 20
201.3132719371
 30
0.0
  0
VERTEX
  5
23E
  8
0
  6
CONTINUOUS
 62
     7
 10
258.2870148254
 20
202.2846015852
 30
0.0
  0
VERTEX
  5
23F
  8
0
  6
CONTINUOUS
 62
     7
 10
257.9243833409
 20
203.2608342286
 30
0.0
  0
VERTEX
  5
240
  8
0
  6
CONTINUOUS
 62
     7
 10
257.4709300075
 20
204.2220962425
 30
0.0
  0
VERTEX
  5
241
  8
0
  6
CONTINUOUS
 62
     7
 10
256.9358859731
 20
205.1488196917
 30
0.0
  0
VERTEX
  5
242
  8
0
  6
CONTINUOUS
 62
     7
 10
256.3301435638
 20
206.0221385138
 30
0.0
  0
VERTEX
  5
243
  8
0
  6
CONTINUOUS
 62
     7
 10
255.6660333669
 20
206.8242746238
 30
0.0
  0
VERTEX
  5
244
  8
0
  6
CONTINUOUS
 62
     7
 10
254.9570751366
 20
207.5388988249
 30
0.0
  0
VERTEX
  5
245
  8
0
  6
CONTINUOUS
 62
     7
 10
254.2177010403
 20
208.1514635804
 30
0.0
  0
VERTEX
  5
246
  8
0
  6
CONTINUOUS
 62
     7
 10
253.4629626068
 20
208.6494988065
 30
0.0
  0
VERTEX
  5
247
  8
0
  6
CONTINUOUS
 62
     7
 10
252.7082241732
 20
209.0228660275
 30
0.0
  0
VERTEX
  5
248
  8
0
  6
CONTINUOUS
 62
     7
 10
251.968850077
 20
209.2639644327
 30
0.0
  0
VERTEX
  5
249
  8
0
  6
CONTINUOUS
 62
     7
 10
251.2598918466
 20
209.3678859811
 30
0.0
  0
VERTEX
  5
24A
  8
0
  6
CONTINUOUS
 62
     7
 10
250.5957816497
 20
209.3325151835
 30
0.0
  0
VERTEX
  5
24B
  8
0
  6
CONTINUOUS
 62
     7
 10
249.9900392404
 20
209.1585716605
 30
0.0
  0
VERTEX
  5
24C
  8
0
  6
CONTINUOUS
 62
     7
 10
249.454995206
 20
208.8495969043
 30
0.0
  0
VERTEX
  5
24D
  8
0
  6
CONTINUOUS
 62
     7
 10
249.0015418727
 20
208.4118809651
 30
0.0
  0
VERTEX
  5
24E
  8
0
  6
CONTINUOUS
 62
     7
 10
248.6389103881
 20
207.8543337218
 30
0.0
  0
VERTEX
  5
24F
  8
0
  6
CONTINUOUS
 62
     7
 10
248.3744827069
 20
207.1883057759
 30
0.0
  0
VERTEX
  5
250
  8
0
  6
CONTINUOUS
 62
     7
 10
248.2136417719
 20
206.4273553549
 30
0.0
  0
VERTEX
  5
251
  8
0
  6
CONTINUOUS
 62
     7
 10
248.1596618664
 20
205.5869732051
 30
0.0
  0
VERTEX
  5
252
  8
0
  6
CONTINUOUS
 62
     7
 10
248.2136417719
 20
204.684267183
 30
0.0
  0
VERTEX
  5
253
  8
0
  6
CONTINUOUS
 62
     7
 10
248.3744827069
 20
203.7376137713
 30
0.0
  0
VERTEX
  5
254
  8
0
  6
CONTINUOUS
 62
     7
 10
248.6389103881
 20
202.7662841231
 30
0.0
  0
VERTEX
  5
255
  8
0
  6
CONTINUOUS
 62
     7
 10
249.0015418727
 20
201.7900514798
 30
0.0
  0
VERTEX
  5
256
  8
0
  6
CONTINUOUS
 62
     7
 10
249.454995206
 20
200.8287894658
 30
0.0
  0
VERTEX
  5
257
  8
0
  6
CONTINUOUS
 62
     7
 10
249.9900392404
 20
199.9020660167
 30
0.0
  0
VERTEX
  5
258
  8
0
  6
CONTINUOUS
 62
     7
 10
250.5957816497
 20
199.0287471945
 30
0.0
  0
VERTEX
  5
259
  8
0
  6
CONTINUOUS
 62
     7
 10
251.2598918466
 20
198.2266110846
 30
0.0
  0
VERTEX
  5
25A
  8
0
  6
CONTINUOUS
 62
     7
 10
251.968850077
 20
197.5119868835
 30
0.0
  0
VERTEX
  5
25B
  8
0
  6
CONTINUOUS
 62
     7
 10
252.7082241732
 20
196.899422128
 30
0.0
  0
VERTEX
  5
25C
  8
0
  6
CONTINUOUS
 62
     7
 10
253.4629626068
 20
196.4013869019
 30
0.0
  0
VERTEX
  5
25D
  8
0
  6
CONTINUOUS
 62
     7
 10
254.2177010403
 20
196.0280196809
 30
0.0
  0
VERTEX
  5
25E
  8
0
  6
CONTINUOUS
 62
     7
 10
254.9570751366
 20
195.7869212757
 30
0.0
  0
VERTEX
  5
25F
  8
0
  6
CONTINUOUS
 62
     7
 10
255.6660333669
 20
195.6829997272
 30
0.0
  0
VERTEX
  5
260
  8
0
  6
CONTINUOUS
 62
     7
 10
256.3301435638
 20
195.7183705249
 30
0.0
  0
VERTEX
  5
261
  8
0
  6
CONTINUOUS
 62
     7
 10
256.9358859731
 20
195.8923140479
 30
0.0
  0
VERTEX
  5
262
  8
0
  6
CONTINUOUS
 62
     7
 10
257.4709300075
 20
196.201288804
 30
0.0
  0
VERTEX
  5
263
  8
0
  6
CONTINUOUS
 62
     7
 10
257.9243833409
 20
196.6390047433
 30
0.0
  0
VERTEX
  5
264
  8
0
  6
CONTINUOUS
 62
     7
 10
258.2870148254
 20
197.1965519866
 30
0.0
  0
VERTEX
  5
265
  8
0
  6
CONTINUOUS
 62
     7
 10
258.5514425066
 20
197.8625799325
 30
0.0
  0
VERTEX
  5
266
  8
0
  6
CONTINUOUS
 62
     7
 10
258.7122834416
 20
198.6235303535
 30
0.0
  0
VERTEX
  5
267
  8
0
  6
CONTINUOUS
 62
     7
 10
258.7662633471
 20
199.4639125033
 30
0.0
  0
SEQEND
  5
268
  8
0
  6
CONTINUOUS
 62
     7
  0
POLYLINE
  5
10A
  8
0
  6
CONTINUOUS
 62
     7
 66
     1
 10
0.0
 20
0.0
 30
0.0
  0
VERTEX
  5
269
  8
0
  6
CONTINUOUS
 62
     7
 10
255.8272483552
 20
213.127670084
 30
0.0
  0
VERTEX
  5
26A
  8
0
  6
CONTINUOUS
 62
     7
 10
255.9658196198
 20
213.2023059792
 30
0.0
  0
VERTEX
  5
26B
  8
0
  6
CONTINUOUS
 62
     7
 10
256.5647269957
 20
213.4192191967
 30
0.0
  0
VERTEX
  5
26C
  8
0
  6
CONTINUOUS
 62
     7
 10
257.2244025539
 20
213.5016386569
 30
0.0
  0
VERTEX
  5
26D
  8
0
  6
CONTINUOUS
 62
     7
 10
257.9325581831
 20
213.4480287827
 30
0.0
  0
VERTEX
  5
26E
  8
0
  6
CONTINUOUS
 62
     7
 10
258.6760023314
 20
213.2593884878
 30
0.0
  0
VERTEX
  5
26F
  8
0
  6
CONTINUOUS
 62
     7
 10
259.4408859723
 20
212.9392316171
 30
0.0
  0
VERTEX
  5
270
  8
0
  6
CONTINUOUS
 62
     7
 10
260.2129607547
 20
212.4935223324
 30
0.0
  0
VERTEX
  5
271
  8
0
  6
CONTINUOUS
 62
     7
 10
260.9778443956
 20
211.9305633489
 30
0.0
  0
VERTEX
  5
272
  8
0
  6
CONTINUOUS
 62
     7
 10
261.7212885439
 20
211.2608413011
 30
0.0
  0
VERTEX
  5
273
  8
0
  6
CONTINUOUS
 62
     7
 10
262.4294441731
 20
210.4968320892
 30
0.0
  0
VERTEX
  5
274
  8
0
  6
CONTINUOUS
 62
     7
 10
263.0891197313
 20
209.6527674416
 30
0.0
  0
VERTEX
  5
275
  8
0
  6
CONTINUOUS
 62
     7
 10
263.6880271072
 20
208.7443704866
 30
0.0
  0
VERTEX
  5
276
  8
0
  6
CONTINUOUS
 62
     7
 10
264.2150089104
 20
207.7885637085
 30
0.0
  0
VERTEX
  5
277
  8
0
  6
CONTINUOUS
 62
     7
 10
264.6602495352
 20
206.8031512841
 30
0.0
  0
VERTEX
  5
278
  8
0
  6
CONTINUOUS
 62
     7
 10
265.0154539548
 20
205.8064901995
 30
0.0
  0
VERTEX
  5
279
  8
0
  6
CONTINUOUS
 62
     7
 10
265.2740061019
 20
204.8171457749
 30
0.0
  0
VERTEX
  5
27A
  8
0
  6
CONTINUOUS
 62
     7
 10
265.4310890527
 20
203.8535482319
 30
0.0
  0
VERTEX
  5
27B
  8
0
  6
CONTINUOUS
 62
     7
 10
265.4837778817
 20
202.9336465968
 30
0.0
  0
VERTEX
  5
27C
  8
0
  6
CONTINUOUS
 62
     7
 10
265.4310890527
 20
202.0745781888
 30
0.0
  0
VERTEX
  5
27D
  8
0
  6
CONTINUOUS
 62
     7
 10
265.2740061019
 20
201.2923447604
 30
0.0
  0
VERTEX
  5
27E
  8
0
  6
CONTINUOUS
 62
     7
 10
265.0154539548
 20
200.6015182906
 30
0.0
  0
VERTEX
  5
27F
  8
0
  6
CONTINUOUS
 62
     7
 10
264.6602495352
 20
200.0149674995
 30
0.0
  0
VERTEX
  5
280
  8
0
  6
CONTINUOUS
 62
     7
 10
264.2150089104
 20
199.5436189583
 30
0.0
  0
VERTEX
  5
281
  8
0
  6
CONTINUOUS
 62
     7
 10
263.8265983718
 20
199.2708883145
 30
0.0
  0
SEQEND
  5
282
  8
0
  6
CONTINUOUS
 62
     7
  0
POLYLINE
  5
10B
  8
0
  6
CONTINUOUS
 62
     7
 66
     1
 10
0.0
 20
0.0
 30
0.0
  0
VERTEX
  5
283
  8
0
  6
CONTINUOUS
 62
     7
 10
249.397098607
 20
204.8726161802
 30
0.0
  0
VERTEX
  5
284
  8
0
  6
CONTINUOUS
 62
     7
 10
249.4497505575
 20
205.5953694252
 30
0.0
  0
VERTEX
  5
285
  8
0
  6
CONTINUOUS
 62
     7
 10
249.6063425634
 20
206.2386131951
 30
0.0
  0
VERTEX
  5
286
  8
0
  6
CONTINUOUS
 62
     7
 10
249.8628189782
 20
206.7856877439
 30
0.0
  0
VERTEX
  5
287
  8
0
  6
CONTINUOUS
 62
     7
 10
250.2125370635
 20
207.2224243591
 30
0.0
  0
VERTEX
  5
288
  8
0
  6
CONTINUOUS
 62
     7
 10
250.6464395275
 20
207.5375115413
 30
0.0
  0
VERTEX
  5
289
  8
0
  6
CONTINUOUS
 62
     7
 10
251.1532886373
 20
207.7227886591
 30
0.0
  0
VERTEX
  5
28A
  8
0
  6
CONTINUOUS
 62
     7
 10
251.7199569668
 20
207.773457481
 30
0.0
  0
VERTEX
  5
28B
  8
0
  6
CONTINUOUS
 62
     7
 10
252.3317682754
 20
207.6882051639
 30
0.0
  0
VERTEX
  5
28C
  8
0
  6
CONTINUOUS
 62
     7
 10
252.9728768709
 20
207.4692403876
 30
0.0
  0
VERTEX
  5
28D
  8
0
  6
CONTINUOUS
 62
     7
 10
253.6266784384
 20
207.1222337561
 30
0.0
  0
VERTEX
  5
28E
  8
0
  6
CONTINUOUS
 62
     7
 10
254.2762398848
 20
206.6561723162
 30
0.0
  0
VERTEX
  5
28F
  8
0
  6
CONTINUOUS
 62
     7
 10
254.9047378057
 20
206.0831277289
 30
0.0
  0
VERTEX
  5
290
  8
0
  6
CONTINUOUS
 62
     7
 10
255.4958946066
 20
205.4179406231
 30
0.0
  0
VERTEX
  5
291
  8
0
  6
CONTINUOUS
 62
     7
 10
256.0343994571
 20
204.6778391797
 30
0.0
  0
VERTEX
  5
292
  8
0
  6
CONTINUOUS
 62
     7
 10
256.5063055368
 20
203.8819919336
 30
0.0
  0
VERTEX
  5
293
  8
0
  6
CONTINUOUS
 62
     7
 10
256.8993904243
 20
203.0510109402
 30
0.0
  0
VERTEX
  5
294
  8
0
  6
CONTINUOUS
 62
     7
 10
257.2034740094
 20
202.2064178649
 30
0.0
  0
VERTEX
  5
295
  8
0
  6
CONTINUOUS
 62
     7
 10
257.4106800998
 20
201.3700873493
 30
0.0
  0
VERTEX
  5
296
  8
0
  6
CONTINUOUS
 62
     7
 10
257.5156422162
 20
200.5636800811
 30
0.0
  0
VERTEX
  5
297
  8
0
  6
CONTINUOUS
 62
     7
 10
257.5156422162
 20
199.8080813482
 30
0.0
  0
VERTEX
  5
298
  8
0
  6
CONTINUOUS
 62
     7
 10
257.4106800998
 20
199.1228607601
 30
0.0
  0
VERTEX
  5
299
  8
0
  6
CONTINUOUS
 62
     7
 10
257.2034740094
 20
198.5257653041
 30
0.0
  0
VERTEX
  5
29A
  8
0
  6
CONTINUOUS
 62
     7
 10
256.8993904243
 20
198.0322596631
 30
0.0
  0
VERTEX
  5
29B
  8
0
  6
CONTINUOUS
 62
     7
 10
256.5063055368
 20
197.6551248205
 30
0.0
  0
VERTEX
  5
29C
  8
0
  6
CONTINUOUS
 62
     7
 10
256.0343994571
 20
197.4041287366
 30
0.0
  0
VERTEX
  5
29D
  8
0
  6
CONTINUOUS
 62
     7
 10
255.4958946066
 20
197.2857717592
 30
0.0
  0
VERTEX
  5
29E
  8
0
  6
CONTINUOUS
 62
     7
 10
254.9047378057
 20
197.3031197676
 30
0.0
  0
VERTEX
  5
29F
  8
0
  6
CONTINUOUS
 62
     7
 10
254.2762398848
 20
197.4557234339
 30
0.0
  0
VERTEX
  5
2A0
  8
0
  6
CONTINUOUS
 62
     7
 10
253.6266784384
 20
197.7396296765
 30
0.0
  0
VERTEX
  5
2A1
  8
0
  6
CONTINUOUS
 62
     7
 10
252.9728768709
 20
198.1474862672
 30
0.0
  0
VERTEX
  5
2A2
  8
0
  6
CONTINUOUS
 62
     7
 10
252.3317682754
 20
198.6687297195
 30
0.0
  0
VERTEX
  5
2A3
  8
0
  6
CONTINUOUS
 62
     7
 10
251.7199569668
 20
199.2898597035
 30
0.0
  0
VERTEX
  5
2A4
  8
0
  6
CONTINUOUS
 62
     7
 10
251.1532886373
 20
199.9947898522
 30
0.0
  0
VERTEX
  5
2A5
  8
0
  6
CONTINUOUS
 62
     7
 10
250.6464395275
 20
200.7652624961
 30
0.0
  0
VERTEX
  5
2A6
  8
0
  6
CONTINUOUS
 62
     7
 10
250.2125370635
 20
201.5813227996
 30
0.0
  0
VERTEX
  5
2A7
  8
0
  6
CONTINUOUS
 62
     7
 10
249.8628189782
 20
202.4218353216
 30
0.0
  0
VERTEX
  5
2A8
  8
0
  6
CONTINUOUS
 62
     7
 10
249.6063425634
 20
203.2650312358
 30
0.0
  0
VERTEX
  5
2A9
  8
0
  6
CONTINUOUS
 62
     7
 10
249.4497505575
 20
204.0890722872
 30
0.0
  0
VERTEX
  5
2AA
  8
0
  6
CONTINUOUS
 62
     7
 10
249.397098607
 20
204.8726161802
 30
0.0
  0
SEQEND
  5
2AB
  8
0
  6
CONTINUOUS
 62
     7
  0
ARC
  5
10C
  8
0
  6
CONTINUOUS
 62
     7
 10
254.8224484481
 20
200.7949392411
 30
0.0
 40
2.695432034868277
 50
325.1274760898
 51
356.1884664131
  0
ARC
  5
10D
  8
0
  6
CONTINUOUS
 62
     7
 10
252.644365881
 20
204.5685943321
 30
0.0
 40
2.694950267883808
 50
63.8041692272
 51
94.8806990952
  0
LINE
  5
10E
  8
0
  6
CONTINUOUS
 62
     7
 10
252.415076049
 20
207.2537727469
 30
0.0
 11
250.6150437473
 21
207.4948176042
 31
0.0
  0
POLYLINE
  5
10F
  8
0
  6
CONTINUOUS
 62
     7
 66
     1
 10
0.0
 20
0.0
 30
0.0
  0
VERTEX
  5
2AC
  8
0
  6
CONTINUOUS
 62
     7
 10
250.6150437473
 20
207.4948176042
 30
0.0
  0
VERTEX
  5
2AD
  8
0
  6
CONTINUOUS
 62
     7
 10
251.2088533302
 20
206.7650264477
 30
0.0
  0
VERTEX
  5
2AE
  8
0
  6
CONTINUOUS
 62
     7
 10
251.3062863072
 20
206.6134739713
 30
0.0
  0
SEQEND
  5
2AF
  8
0
  6
CONTINUOUS
 62
     7
  0
ARC
  5
110
  8
0
  6
CONTINUOUS
 62
     7
 10
255.1251229899
 20
204.5868730662
 30
0.0
 40
4.323265529422494
 50
152.045760055
 51
207.954239945
  0
LINE
  5
111
  8
0
  6
CONTINUOUS
 62
     7
 10
251.3062863072
 20
202.560272161
 30
0.0
 11
250.6150437473
 21
200.8808368564
 31
0.0
  0
POLYLINE
  5
112
  8
0
  6
CONTINUOUS
 62
     7
 66
     1
 10
0.0
 20
0.0
 30
0.0
  0
VERTEX
  5
2B0
  8
0
  6
CONTINUOUS
 62
     7
 10
250.6150437473
 20
200.8808368564
 30
0.0
  0
VERTEX
  5
2B1
  8
0
  6
CONTINUOUS
 62
     7
 10
252.1376933156
 20
200.6874279218
 30
0.0
  0
VERTEX
  5
2B2
  8
0
  6
CONTINUOUS
 62
     7
 10
252.415076049
 20
200.6397919991
 30
0.0
  0
SEQEND
  5
2B3
  8
0
  6
CONTINUOUS
 62
     7
  0
ARC
  5
113
  8
0
  6
CONTINUOUS
 62
     7
 10
256.0788221357
 20
202.9330721581
 30
0.0
 40
4.322287505024923
 50
212.0440392902
 51
267.9613372425
  0
LINE
  5
114
  8
0
  6
CONTINUOUS
 62
     7
 10
255.9250616417
 20
198.6135204468
 30
0.0
 11
256.3426088235
 21
197.5743839177
 31
0.0
  0
POLYLINE
  5
115
  8
0
  6
CONTINUOUS
 62
     7
 66
     1
 10
0.0
 20
0.0
 30
0.0
  0
VERTEX
  5
2B4
  8
0
  6
CONTINUOUS
 62
     7
 10
256.3426088235
 20
197.5743839177
 30
0.0
  0
VERTEX
  5
2B5
  8
0
  6
CONTINUOUS
 62
     7
 10
256.9364184064
 20
198.9897730252
 30
0.0
  0
VERTEX
  5
2B6
  8
0
  6
CONTINUOUS
 62
     7
 10
257.0338513834
 20
199.2538192224
 30
0.0
  0
SEQEND
  5
2B7
  8
0
  6
CONTINUOUS
 62
     7
  0
POLYLINE
  5
116
  8
0
  6
CONTINUOUS
 62
     7
 66
     1
 10
0.0
 20
0.0
 30
0.0
  0
VERTEX
  5
2B8
  8
0
  6
CONTINUOUS
 62
     7
 10
254.3909911007
 20
212.2985362765
 30
0.0
  0
VERTEX
  5
2B9
  8
0
  6
CONTINUOUS
 62
     7
 10
254.6555590519
 20
212.7216879777
 30
0.0
  0
VERTEX
  5
2BA
  8
0
  6
CONTINUOUS
 62
     7
 10
255.1099590429
 20
213.2237587483
 30
0.0
  0
VERTEX
  5
2BB
  8
0
  6
CONTINUOUS
 62
     7
 10
255.6485335344
 20
213.6004777712
 30
0.0
  0
VERTEX
  5
2BC
  8
0
  6
CONTINUOUS
 62
     7
 10
256.2616713986
 20
213.8451222231
 30
0.0
  0
VERTEX
  5
2BD
  8
0
  6
CONTINUOUS
 62
     7
 10
256.9384312477
 20
213.9533262103
 30
0.0
  0
VERTEX
  5
2BE
  8
0
  6
CONTINUOUS
 62
     7
 10
257.6667361985
 20
213.9231592103
 30
0.0
  0
VERTEX
  5
2BF
  8
0
  6
CONTINUOUS
 62
     7
 10
258.4335897108
 20
213.7551592668
 30
0.0
  0
VERTEX
  5
2C0
  8
0
  6
CONTINUOUS
 62
     7
 10
259.2253074352
 20
213.4523246227
 30
0.0
  0
VERTEX
  5
2C1
  8
0
  6
CONTINUOUS
 62
     7
 10
260.0277609992
 20
213.0200592989
 30
0.0
  0
VERTEX
  5
2C2
  8
0
  6
CONTINUOUS
 62
     7
 10
260.8266305582
 20
212.4660763486
 30
0.0
  0
VERTEX
  5
2C3
  8
0
  6
CONTINUOUS
 62
     7
 10
261.607660311
 20
211.8002632798
 30
0.0
  0
VERTEX
  5
2C4
  8
0
  6
CONTINUOUS
 62
     7
 10
262.3569129042
 20
211.0344998291
 30
0.0
  0
VERTEX
  5
2C5
  8
0
  6
CONTINUOUS
 62
     7
 10
263.0610176615
 20
210.1824519235
 30
0.0
  0
VERTEX
  5
2C6
  8
0
  6
CONTINUOUS
 62
     7
 10
263.7074100477
 20
209.2593239347
 30
0.0
  0
VERTEX
  5
2C7
  8
0
  6
CONTINUOUS
 62
     7
 10
264.2845548325
 20
208.2815899236
 30
0.0
  0
VERTEX
  5
2C8
  8
0
  6
CONTINUOUS
 62
     7
 10
264.7821533676
 20
207.2666964142
 30
0.0
  0
VERTEX
  5
2C9
  8
0
  6
CONTINUOUS
 62
     7
 10
265.1913255097
 20
206.2327552782
 30
0.0
  0
VERTEX
  5
2CA
  8
0
  6
CONTINUOUS
 62
     7
 10
265.5047696464
 20
205.1982165615
 30
0.0
  0
VERTEX
  5
2CB
  8
0
  6
CONTINUOUS
 62
     7
 10
265.7168927593
 20
204.1815418771
 30
0.0
  0
VERTEX
  5
2CC
  8
0
  6
CONTINUOUS
 62
     7
 10
265.8239088761
 20
203.2008738983
 30
0.0
  0
VERTEX
  5
2CD
  8
0
  6
CONTINUOUS
 62
     7
 10
265.8239088761
 20
202.2737124082
 30
0.0
  0
VERTEX
  5
2CE
  8
0
  6
CONTINUOUS
 62
     7
 10
265.7168927593
 20
201.4166026079
 30
0.0
  0
VERTEX
  5
2CF
  8
0
  6
CONTINUOUS
 62
     7
 10
265.5047696464
 20
200.6448400565
 30
0.0
  0
VERTEX
  5
2D0
  8
0
  6
CONTINUOUS
 62
     7
 10
265.1913255097
 20
199.972196237
 30
0.0
  0
VERTEX
  5
2D1
  8
0
  6
CONTINUOUS
 62
     7
 10
264.7821533676
 20
199.4106752005
 30
0.0
  0
VERTEX
  5
2D2
  8
0
  6
CONTINUOUS
 62
     7
 10
264.2845548325
 20
198.9702967308
 30
0.0
  0
VERTEX
  5
2D3
  8
0
  6
CONTINUOUS
 62
     7
 10
263.7074100477
 20
198.6589199044
 30
0.0
  0
VERTEX
  5
2D4
  8
0
  6
CONTINUOUS
 62
     7
 10
263.0610176615
 20
198.4821006791
 30
0.0
  0
VERTEX
  5
2D5
  8
0
  6
CONTINUOUS
 62
     7
 10
262.3903409527
 20
198.441754412
 30
0.0
  0
SEQEND
  5
2D6
  8
0
  6
CONTINUOUS
 62
     7
  0
LINE
  5
117
  8
0
  6
CONTINUOUS
 62
     7
 10
257.0337539188
 20
199.2535548749
 30
0.0
 11
255.9250616417
 21
198.6135204468
 31
0.0
  0
LINE
  5
118
  8
0
  6
CONTINUOUS
 62
     7
 10
251.3062863072
 20
206.6134739713
 30
0.0
 11
252.4155416399
 21
207.2538334445
 31
0.0
  0
LINE
  5
119
  8
0
  6
CONTINUOUS
 62
     7
 10
252.415076049
 20
200.6397919991
 30
0.0
 11
256.8387329598
 21
203.1935147762
 31
0.0
  0
LINE
  5
11A
  8
0
  6
CONTINUOUS
 62
     7
 10
255.7301071134
 20
205.1140895529
 30
0.0
 11
251.3062863072
 21
202.560272161
 31
0.0
  0
LINE
  5
11B
  8
0
  6
CONTINUOUS
 62
     7
 10
256.3384285888
 20
204.1848765969
 30
0.0
 11
250.6150437473
 21
200.8808368564
 31
0.0
  0
LINE
  5
11C
  8
0
  6
CONTINUOUS
 62
     7
 10
182.7181174415
 20
112.891831761
 30
0.0
 11
57.2181238788
 21
112.891831761
 31
0.0
  0
LINE
  5
11D
  8
0
  6
CONTINUOUS
 62
     7
 10
57.2181238788
 20
93.891832372
 30
0.0
 11
182.7181174415
 21
93.891832372
 31
0.0
  0
CIRCLE
  5
11E
  8
0
  6
CONTINUOUS
 62
     7
 10
57.2181238788
 20
103.3918320665
 30
0.0
 40
8.499999999999993
  0
CIRCLE
  5
11F
  8
0
  6
CONTINUOUS
 62
     7
 10
57.2181238788
 20
103.3918320665
 30
0.0
 40
9.499999999999993
  0
LINE
  5
120
  8
0
  6
CONTINUOUS
 62
     7
 10
182.7181174415
 20
112.891831761
 30
0.0
 11
182.7181174415
 21
93.891832372
 31
0.0
  0
CIRCLE
  5
121
  8
0
  6
CONTINUOUS
 62
   254
 10
57.2181238788
 20
103.3918320665
 30
0.0
 40
7.999999999999993
  0
CIRCLE
  5
122
  8
0
  6
CONTINUOUS
 62
     7
 10
57.2181238788
 20
103.3918320665
 30
0.0
 40
7.499999999999993
  0
CIRCLE
  5
123
  8
0
  6
CONTINUOUS
 62
   254
 10
57.2181238788
 20
103.3918320665
 30
0.0
 40
5.750000000000007
  0
ARC
  5
124
  8
0
  6
CONTINUOUS
 62
     7
 10
57.2181238788
 20
103.3918320665
 30
0.0
 40
4.750000000000006
 50
328.4990585601
 51
31.5009414399
  0
LINE
  5
125
  8
0
  6
CONTINUOUS
 62
     7
 10
61.2681239838
 20
105.873766681
 30
0.0
 11
61.2681239838
 21
107.4418321715
 31
0.0
  0
LINE
  5
126
  8
0
  6
CONTINUOUS
 62
     7
 10
61.2681239838
 20
107.4418321715
 30
0.0
 11
59.7000584932
 21
107.4418321715
 31
0.0
  0
ARC
  5
127
  8
0
  6
CONTINUOUS
 62
     7
 10
57.2181238788
 20
103.3918320665
 30
0.0
 40
4.750000000000003
 50
58.4990585601
 51
121.5009414399
  0
LINE
  5
128
  8
0
  6
CONTINUOUS
 62
     7
 10
54.7361892643
 20
107.4418321715
 30
0.0
 11
53.1681237737
 21
107.4418321715
 31
0.0
  0
LINE
  5
129
  8
0
  6
CONTINUOUS
 62
     7
 10
53.1681237737
 20
107.4418321715
 30
0.0
 11
53.1681237737
 21
105.873766681
 31
0.0
  0
ARC
  5
12A
  8
0
  6
CONTINUOUS
 62
     7
 10
57.2181238788
 20
103.3918320665
 30
0.0
 40
4.750000000000012
 50
148.4990585601
 51
211.5009414399
  0
LINE
  5
12B
  8
0
  6
CONTINUOUS
 62
     7
 10
53.1681237737
 20
100.909897452
 30
0.0
 11
53.1681237737
 21
99.3418319614
 31
0.0
  0
LINE
  5
12C
  8
0
  6
CONTINUOUS
 62
     7
 10
53.1681237737
 20
99.3418319614
 30
0.0
 11
54.7361892643
 21
99.3418319614
 31
0.0
  0
ARC
  5
12D
  8
0
  6
CONTINUOUS
 62
     7
 10
57.2181238788
 20
103.3918320665
 30
0.0
 40
4.749999999999998
 50
238.4990585601
 51
301.5009414399
  0
LINE
  5
12E
  8
0
  6
CONTINUOUS
 62
     7
 10
59.7000584932
 20
99.3418319614
 30
0.0
 11
61.2681239838
 21
99.3418319614
 31
0.0
  0
LINE
  5
12F
  8
0
  6
CONTINUOUS
 62
     7
 10
61.2681239838
 20
99.3418319614
 30
0.0
 11
61.2681239838
 21
100.909897452
 31
0.0
  0
CIRCLE
  5
130
  8
0
  6
CONTINUOUS
 62
   254
 10
57.2181238788
 20
103.3918320665
 30
0.0
 40
8.500000000000014
  0
DIMENSION
  5
131
  8
BLOCK_0_4MM
 62
     7
  2
*D7
 10
61.2681238788
 20
117.3906491353
 30
0.0
 11
57.2181238788
 21
117.3906491353
 31
0.0
 70
   160
  1
{\fGDT;o}<>
  3
SLDDIMSTYLE2
 13
53.1681238788
 23
107.4418320665
 33
0.0
 14
61.2681238788
 24
107.4418320665
 34
0.0
  0
ENDSEC
  0
EOF
