  0
SECTION
  2
HEADER
  9
$ACADVER
  1
AC1015
  9
$ACADMAINTVER
 70
     6
  9
$DWGCODEPAGE
  3
ANSI_1252
  9
$INSBASE
 10
0.0
 20
0.0
 30
0.0
  9
$EXTMIN
 10
0.0
 20
0.0
 30
0.0
  9
$EXTMAX
 10
210.0
 20
297.0
 30
0.0
  9
$LIMMIN
 10
0.0
 20
0.0
  9
$LIMMAX
 10
210.0
 20
297.0
  9
$ORTHOMODE
 70
     0
  9
$REGENMODE
 70
     1
  9
$FILLMODE
 70
     1
  9
$QTEXTMODE
 70
     0
  9
$MIRRTEXT
 70
     1
  9
$LTSCALE
 40
1.0
  9
$ATTMODE
 70
     1
  9
$TEXTSIZE
 40
2.5
  9
$TRACEWID
 40
1.0
  9
$TEXTSTYLE
  7
Standard
  9
$CLAYER
  8
0
  9
$CELTYPE
  6
ByLayer
  9
$CECOLOR
 62
   256
  9
$CELTSCALE
 40
1.0
  9
$DISPSILH
 70
     0
  9
$DIMSCALE
 40
1.0
  9
$DIMASZ
 40
2.5
  9
$DIMEXO
 40
0.625
  9
$DIMDLI
 40
3.75
  9
$DIMRND
 40
0.0
  9
$DIMDLE
 40
0.0
  9
$DIMEXE
 40
1.25
  9
$DIMTP
 40
0.0
  9
$DIMTM
 40
0.0
  9
$DIMTXT
 40
2.5
  9
$DIMCEN
 40
2.5
  9
$DIMTSZ
 40
0.0
  9
$DIMTOL
 70
     0
  9
$DIMLIM
 70
     0
  9
$DIMTIH
 70
     0
  9
$DIMTOH
 70
     0
  9
$DIMSE1
 70
     0
  9
$DIMSE2
 70
     0
  9
$DIMTAD
 70
     1
  9
$DIMZIN
 70
     8
  9
$DIMBLK
  1

  9
$DIMASO
 70
     1
  9
$DIMSHO
 70
     1
  9
$DIMPOST
  1

  9
$DIMAPOST
  1

  9
$DIMALT
 70
     0
  9
$DIMALTD
 70
     3
  9
$DIMALTF
 40
0.0393700787
  9
$DIMLFAC
 40
1.0
  9
$DIMTOFL
 70
     1
  9
$DIMTVP
 40
0.0
  9
$DIMTIX
 70
     0
  9
$DIMSOXD
 70
     0
  9
$DIMSAH
 70
     0
  9
$DIMBLK1
  1

  9
$DIMBLK2
  1

  9
$DIMSTYLE
  2
ISO-25
  9
$DIMCLRD
 70
     0
  9
$DIMCLRE
 70
     0
  9
$DIMCLRT
 70
     0
  9
$DIMTFAC
 40
1.0
  9
$DIMGAP
 40
0.625
  9
$DIMJUST
 70
     0
  9
$DIMSD1
 70
     0
  9
$DIMSD2
 70
     0
  9
$DIMTOLJ
 70
     0
  9
$DIMTZIN
 70
     8
  9
$DIMALTZ
 70
     0
  9
$DIMALTTZ
 70
     0
  9
$DIMUPT
 70
     0
  9
$DIMDEC
 70
     2
  9
$DIMTDEC
 70
     2
  9
$DIMALTU
 70
     2
  9
$DIMALTTD
 70
     3
  9
$DIMTXSTY
  7
Standard
  9
$DIMAUNIT
 70
     0
  9
$DIMADEC
 70
     0
  9
$DIMALTRND
 40
0.0
  9
$DIMAZIN
 70
     0
  9
$DIMDSEP
 70
    44
  9
$DIMATFIT
 70
     3
  9
$DIMFRAC
 70
     0
  9
$DIMLDRBLK
  1

  9
$DIMLUNIT
 70
     2
  9
$DIMLWD
 70
    -2
  9
$DIMLWE
 70
    -2
  9
$DIMTMOVE
 70
     0
  9
$LUNITS
 70
     2
  9
$LUPREC
 70
     4
  9
$SKETCHINC
 40
1.0
  9
$FILLETRAD
 40
10.0
  9
$AUNITS
 70
     0
  9
$AUPREC
 70
     0
  9
$MENU
  1
.
  9
$ELEVATION
 40
0.0
  9
$PELEVATION
 40
0.0
  9
$THICKNESS
 40
0.0
  9
$LIMCHECK
 70
     0
  9
$CHAMFERA
 40
10.0
  9
$CHAMFERB
 40
10.0
  9
$CHAMFERC
 40
20.0
  9
$CHAMFERD
 40
0.0
  9
$SKPOLY
 70
     0
  9
$TDCREATE
 40
2456093.443811192
  9
$TDUCREATE
 40
2456093.360477859
  9
$TDUPDATE
 40
2456093.443811204
  9
$TDUUPDATE
 40
2456093.36047787
  9
$TDINDWG
 40
0.0000000116
  9
$TDUSRTIMER
 40
0.0000000116
  9
$USRTIMER
 70
     1
  9
$ANGBASE
 50
0.0
  9
$ANGDIR
 70
     0
  9
$PDMODE
 70
     0
  9
$PDSIZE
 40
0.0
  9
$PLINEWID
 40
0.0
  9
$SPLFRAME
 70
     0
  9
$SPLINETYPE
 70
     6
  9
$SPLINESEGS
 70
     8
  9
$HANDSEED
  5
FF
  9
$SURFTAB1
 70
     6
  9
$SURFTAB2
 70
     6
  9
$SURFTYPE
 70
     6
  9
$SURFU
 70
     6
  9
$SURFV
 70
     6
  9
$UCSBASE
  2

  9
$UCSNAME
  2

  9
$UCSORG
 10
0.0
 20
0.0
 30
0.0
  9
$UCSXDIR
 10
1.0
 20
0.0
 30
0.0
  9
$UCSYDIR
 10
0.0
 20
1.0
 30
0.0
  9
$UCSORTHOREF
  2

  9
$UCSORTHOVIEW
 70
     0
  9
$UCSORGTOP
 10
0.0
 20
0.0
 30
0.0
  9
$UCSORGBOTTOM
 10
0.0
 20
0.0
 30
0.0
  9
$UCSORGLEFT
 10
0.0
 20
0.0
 30
0.0
  9
$UCSORGRIGHT
 10
0.0
 20
0.0
 30
0.0
  9
$UCSORGFRONT
 10
0.0
 20
0.0
 30
0.0
  9
$UCSORGBACK
 10
0.0
 20
0.0
 30
0.0
  9
$PUCSBASE
  2

  9
$PUCSNAME
  2

  9
$PUCSORG
 10
0.0
 20
0.0
 30
0.0
  9
$PUCSXDIR
 10
1.0
 20
0.0
 30
0.0
  9
$PUCSYDIR
 10
0.0
 20
1.0
 30
0.0
  9
$PUCSORTHOREF
  2

  9
$PUCSORTHOVIEW
 70
     0
  9
$PUCSORGTOP
 10
0.0
 20
0.0
 30
0.0
  9
$PUCSORGBOTTOM
 10
0.0
 20
0.0
 30
0.0
  9
$PUCSORGLEFT
 10
0.0
 20
0.0
 30
0.0
  9
$PUCSORGRIGHT
 10
0.0
 20
0.0
 30
0.0
  9
$PUCSORGFRONT
 10
0.0
 20
0.0
 30
0.0
  9
$PUCSORGBACK
 10
0.0
 20
0.0
 30
0.0
  9
$USERI1
 70
     0
  9
$USERI2
 70
     0
  9
$USERI3
 70
     0
  9
$USERI4
 70
     0
  9
$USERI5
 70
     0
  9
$USERR1
 40
0.0
  9
$USERR2
 40
0.0
  9
$USERR3
 40
0.0
  9
$USERR4
 40
0.0
  9
$USERR5
 40
0.0
  9
$WORLDVIEW
 70
     1
  9
$SHADEDGE
 70
     3
  9
$SHADEDIF
 70
    70
  9
$TILEMODE
 70
     1
  9
$MAXACTVP
 70
    64
  9
$PINSBASE
 10
0.0
 20
0.0
 30
0.0
  9
$PLIMCHECK
 70
     0
  9
$PEXTMIN
 10
0.0
 20
0.0
 30
0.0
  9
$PEXTMAX
 10
210.0
 20
297.0
 30
0.0
  9
$PLIMMIN
 10
0.0
 20
0.0
  9
$PLIMMAX
 10
210.0
 20
297.0
  9
$UNITMODE
 70
     0
  9
$VISRETAIN
 70
     1
  9
$PLINEGEN
 70
     0
  9
$PSLTSCALE
 70
     1
  9
$TREEDEPTH
 70
  3020
  9
$CMLSTYLE
  2
Standard
  9
$CMLJUST
 70
     0
  9
$CMLSCALE
 40
20.0
  9
$PROXYGRAPHICS
 70
     1
  9
$MEASUREMENT
 70
     1
  9
$CELWEIGHT
370
    -1
  9
$ENDCAPS
280
     0
  9
$JOINSTYLE
280
     0
  9
$LWDISPLAY
290
     0
  9
$INSUNITS
 70
     4
  9
$HYPERLINKBASE
  1

  9
$STYLESHEET
  1

  9
$XEDIT
290
     1
  9
$CEPSNTYPE
380
     0
  9
$PSTYLEMODE
290
     1
  9
$FINGERPRINTGUID
  2
{B973A94E-0646-4FA1-9ABD-3CF86D9EB6A0}
  9
$VERSIONGUID
  2
{FAEB1C32-E019-11D5-929B-00C0DF256EC4}
  9
$EXTNAMES
290
     1
  9
$PSVPSCALE
 40
0.0
  9
$OLESTARTUP
290
     0
  0
ENDSEC
  0
SECTION
  2
CLASSES
  0
CLASS
  1
ACDBDICTIONARYWDFLT
  2
AcDbDictionaryWithDefault
  3
ObjectDBX Classes
 90
        0
280
     0
281
     0
  0
CLASS
  1
VISUALSTYLE
  2
AcDbVisualStyle
  3
ObjectDBX Classes
 90
     4095
280
     0
281
     0
  0
CLASS
  1
SCALE
  2
AcDbScale
  3
ObjectDBX Classes
 90
     1153
280
     0
281
     0
  0
CLASS
  1
DICTIONARYVAR
  2
AcDbDictionaryVar
  3
ObjectDBX Classes
 90
        0
280
     0
281
     0
  0
CLASS
  1
ACDBPLACEHOLDER
  2
AcDbPlaceHolder
  3
ObjectDBX Classes
 90
        0
280
     0
281
     0
  0
CLASS
  1
LAYOUT
  2
AcDbLayout
  3
ObjectDBX Classes
 90
        0
280
     0
281
     0
  0
ENDSEC
  0
SECTION
  2
TABLES
  0
TABLE
  2
VPORT
  5
8
330
0
100
AcDbSymbolTable
 70
     1
  0
VPORT
  5
29
330
8
100
AcDbSymbolTableRecord
100
AcDbViewportTableRecord
  2
*Active
 70
     0
 10
0.0
 20
0.0
 11
1.0
 21
1.0
 12
344.1869158879
 22
148.5
 13
0.0
 23
0.0
 14
10.0
 24
10.0
 15
10.0
 25
10.0
 16
0.0
 26
0.0
 36
1.0
 17
0.0
 27
0.0
 37
0.0
 40
297.0
 41
1.9729729729
 42
50.0
 43
0.0
 44
0.0
 50
0.0
 51
0.0
 71
     0
 72
   100
 73
     1
 74
     3
 75
     0
 76
     0
 77
     0
 78
     0
281
     0
 65
     1
110
0.0
120
0.0
130
0.0
111
1.0
121
0.0
131
0.0
112
0.0
122
1.0
132
0.0
 79
     0
146
0.0
  0
ENDTAB
  0
TABLE
  2
LTYPE
  5
5
330
0
100
AcDbSymbolTable
 70
     2
  0
LTYPE
  5
14
330
5
100
AcDbSymbolTableRecord
100
AcDbLinetypeTableRecord
  2
ByBlock
 70
     0
  3

 72
    65
 73
     0
 40
0.0
  0
LTYPE
  5
15
330
5
100
AcDbSymbolTableRecord
100
AcDbLinetypeTableRecord
  2
ByLayer
 70
     0
  3

 72
    65
 73
     0
 40
0.0
  0
LTYPE
  5
16
330
5
100
AcDbSymbolTableRecord
100
AcDbLinetypeTableRecord
  2
Continuous
 70
     0
  3
Solid line
 72
    65
 73
     0
 40
0.0
  0
LTYPE
  5
3E
330
5
100
AcDbSymbolTableRecord
100
AcDbLinetypeTableRecord
  2
CENTER2
 70
     0
  3
Center (.5x) ___ _ ___ _ ___ _ ___ _ ___ _ ___
 72
    65
 73
     4
 40
28.575
 49
19.05
 74
     4
 75
     0
340
0
 46
0.0
 50
0.0
 44
0.0
 45
0.0
 49
-3.175
 74
     4
 75
     0
340
0
 46
0.0
 50
0.0
 44
0.0
 45
0.0
 49
3.175
 74
     4
 75
     0
340
0
 46
0.0
 50
0.0
 44
0.0
 45
0.0
 49
-3.175
 74
     4
 75
     0
340
0
 46
0.0
 50
0.0
 44
0.0
 45
0.0
  0
ENDTAB
  0
TABLE
  2
LAYER
  5
2
330
0
100
AcDbSymbolTable
 70
     4
  0
LAYER
  5
10
330
2
100
AcDbSymbolTableRecord
100
AcDbLayerTableRecord
  2
0
 70
     0
 62
     7
  6
Continuous
370
    -3
390
F
  0
LAYER
  5
3B
330
2
100
AcDbSymbolTableRecord
100
AcDbLayerTableRecord
  2
Default
 70
     0
 62
     7
  6
Continuous
370
    -3
390
F
  0
LAYER
  5
6D
330
2
100
AcDbSymbolTableRecord
100
AcDbLayerTableRecord
  2
MEGA_031071
 70
     0
 62
     7
  6
Continuous
370
    -3
390
F
  0
LAYER
  5
77
330
2
100
AcDbSymbolTableRecord
100
AcDbLayerTableRecord
  2
DV1_Standard
 70
     0
 62
     7
  6
Continuous
370
    -3
390
F
  0
ENDTAB
  0
TABLE
  2
STYLE
  5
3
330
0
100
AcDbSymbolTable
 70
     2
  0
STYLE
  5
11
330
3
100
AcDbSymbolTableRecord
100
AcDbTextStyleTableRecord
  2
Standard
 70
     0
 40
0.0
 41
1.0
 50
0.0
 71
     0
 42
2.5
  3
txt
  4

  0
STYLE
  5
69
330
3
100
AcDbSymbolTableRecord
100
AcDbTextStyleTableRecord
  2
SEACAD_seiso_ttf
 70
     0
 40
0.0
 41
1.0
 50
0.0
 71
     0
 42
0.2
  3
seiso.ttf
  4

  0
ENDTAB
  0
TABLE
  2
VIEW
  5
6
330
0
100
AcDbSymbolTable
 70
     0
  0
ENDTAB
  0
TABLE
  2
UCS
  5
7
330
0
100
AcDbSymbolTable
 70
     0
  0
ENDTAB
  0
TABLE
  2
APPID
  5
9
330
0
100
AcDbSymbolTable
 70
     1
  0
APPID
  5
12
330
9
100
AcDbSymbolTableRecord
100
AcDbRegAppTableRecord
  2
ACAD
 70
     0
  0
ENDTAB
  0
TABLE
  2
DIMSTYLE
  5
A
330
0
100
AcDbSymbolTable
 70
     3
100
AcDbDimStyleTable
  0
DIMSTYLE
105
27
330
A
100
AcDbSymbolTableRecord
100
AcDbDimStyleTableRecord
  2
ISO-25
 70
     0
 41
2.5
 42
0.625
 43
3.75
 44
1.25
 73
     0
 74
     0
 77
     1
 78
     8
140
2.5
141
2.5
143
0.0393700787
147
0.625
171
     3
172
     1
271
     2
272
     2
274
     3
278
    44
283
     0
284
     8
340
11
  0
DIMSTYLE
105
9C
330
A
100
AcDbSymbolTableRecord
100
AcDbDimStyleTableRecord
  2
Standard
 70
     0
340
11
  0
DIMSTYLE
105
AE
102
{ACAD_REACTORS
330
AF
330
B9
330
C3
330
CD
330
D8
330
E3
330
EE
102
}
330
A
100
AcDbSymbolTableRecord
100
AcDbDimStyleTableRecord
  2
DIN
 70
     0
 41
3.0
 42
0.0
 44
1.5
 73
     0
 74
     0
 77
     1
 78
     8
140
3.0
141
1.5
147
1.5
172
     1
173
     1
271
     2
272
     2
278
    44
284
     8
340
69
343
A9
344
A9
  0
ENDTAB
  0
TABLE
  2
BLOCK_RECORD
  5
1
330
0
100
AcDbSymbolTable
 70
    15
  0
BLOCK_RECORD
  5
1F
330
1
100
AcDbSymbolTableRecord
100
AcDbBlockTableRecord
  2
*Model_Space
340
22
  0
BLOCK_RECORD
  5
1B
330
1
100
AcDbSymbolTableRecord
100
AcDbBlockTableRecord
  2
*Paper_Space
340
1E
  0
BLOCK_RECORD
  5
3C
330
1
100
AcDbSymbolTableRecord
100
AcDbBlockTableRecord
  2
SEANNOT_GROUP
340
0
102
{BLKREFS
331
3D
102
}
  0
BLOCK_RECORD
  5
42
330
1
100
AcDbSymbolTableRecord
100
AcDbBlockTableRecord
  2
SEANNOT_GROUP1
340
0
102
{BLKREFS
331
43
102
}
  0
BLOCK_RECORD
  5
6B
330
1
100
AcDbSymbolTableRecord
100
AcDbBlockTableRecord
  2
SE
340
0
102
{BLKREFS
331
6C
102
}
  0
BLOCK_RECORD
  5
8C
330
1
100
AcDbSymbolTableRecord
100
AcDbBlockTableRecord
  2
SE1
340
0
102
{BLKREFS
331
8D
102
}
  0
BLOCK_RECORD
  5
9D
330
1
100
AcDbSymbolTableRecord
100
AcDbBlockTableRecord
  2
_OBLIQUE
340
0
  0
BLOCK_RECORD
  5
A1
330
1
100
AcDbSymbolTableRecord
100
AcDbBlockTableRecord
  2
_DOT
340
0
  0
BLOCK_RECORD
  5
A9
330
1
100
AcDbSymbolTableRecord
100
AcDbBlockTableRecord
  2
_SE_FILLED
340
0
  0
BLOCK_RECORD
  5
B0
330
1
100
AcDbSymbolTableRecord
100
AcDbBlockTableRecord
  2
DMBLK99
340
0
  0
BLOCK_RECORD
  5
BA
330
1
100
AcDbSymbolTableRecord
100
AcDbBlockTableRecord
  2
DMBLK100
340
0
  0
BLOCK_RECORD
  5
C4
330
1
100
AcDbSymbolTableRecord
100
AcDbBlockTableRecord
  2
DMBLK101
340
0
  0
BLOCK_RECORD
  5
CE
330
1
100
AcDbSymbolTableRecord
100
AcDbBlockTableRecord
  2
DMBLK102
340
0
  0
BLOCK_RECORD
  5
D9
330
1
100
AcDbSymbolTableRecord
100
AcDbBlockTableRecord
  2
DMBLK103
340
0
  0
BLOCK_RECORD
  5
E4
330
1
100
AcDbSymbolTableRecord
100
AcDbBlockTableRecord
  2
DMBLK104
340
0
  0
BLOCK_RECORD
  5
EF
330
1
100
AcDbSymbolTableRecord
100
AcDbBlockTableRecord
  2
DMBLK105
340
0
  0
ENDTAB
  0
ENDSEC
  0
SECTION
  2
BLOCKS
  0
BLOCK
  5
20
330
1F
100
AcDbEntity
  8
0
100
AcDbBlockBegin
  2
*Model_Space
 70
     0
 10
0.0
 20
0.0
 30
0.0
  3
*Model_Space
  1

  0
ENDBLK
  5
21
330
1F
100
AcDbEntity
  8
0
100
AcDbBlockEnd
  0
BLOCK
  5
1C
330
1B
100
AcDbEntity
 67
     1
  8
0
100
AcDbBlockBegin
  2
*Paper_Space
 70
     0
 10
0.0
 20
0.0
 30
0.0
  3
*Paper_Space
  1

  0
ENDBLK
  5
1D
330
1B
100
AcDbEntity
 67
     1
  8
0
100
AcDbBlockEnd
  0
BLOCK
  5
40
330
3C
100
AcDbEntity
  8
0
100
AcDbBlockBegin
  2
SEANNOT_GROUP
 70
     0
 10
0.0
 20
0.0
 30
0.0
  3
SEANNOT_GROUP
  1

  0
LINE
  5
3F
330
3C
100
AcDbEntity
  8
Default
  6
CENTER2
 62
     7
100
AcDbLine
 10
133.6660374394
 20
220.5801241708
 30
0.0
 11
133.6660374394
 21
145.9253481077
 31
0.0
  0
ENDBLK
  5
41
330
3C
100
AcDbEntity
  8
0
100
AcDbBlockEnd
  0
BLOCK
  5
45
330
42
100
AcDbEntity
  8
0
100
AcDbBlockBegin
  2
SEANNOT_GROUP1
 70
     0
 10
0.0
 20
0.0
 30
0.0
  3
SEANNOT_GROUP1
  1

  0
LINE
  5
44
330
42
100
AcDbEntity
  8
Default
  6
CENTER2
 62
     7
100
AcDbLine
 10
116.9845664818
 20
183.2478650198
 30
0.0
 11
150.0283368432
 21
183.2478650198
 31
0.0
  0
ENDBLK
  5
46
330
42
100
AcDbEntity
  8
0
100
AcDbBlockEnd
  0
BLOCK
  5
8A
330
6B
100
AcDbEntity
  8
0
100
AcDbBlockBegin
  2
SE
 70
     0
 10
0.0
 20
0.0
 30
0.0
  3
SE
  1

  0
CIRCLE
  5
6E
330
6B
100
AcDbEntity
  8
MEGA_031071
  6
Continuous
 62
     7
100
AcDbCircle
 10
133.6660374394
 20
208.2478650198
 30
0.0
 40
4.0
  0
CIRCLE
  5
6F
330
6B
100
AcDbEntity
  8
MEGA_031071
  6
Continuous
 62
     7
100
AcDbCircle
 10
133.6660374394
 20
208.2478650198
 30
0.0
 40
2.5
  0
CIRCLE
  5
70
330
6B
100
AcDbEntity
  8
MEGA_031071
  6
Continuous
 62
     7
100
AcDbCircle
 10
133.6660374394
 20
158.2478650198
 30
0.0
 40
4.0
  0
CIRCLE
  5
71
330
6B
100
AcDbEntity
  8
MEGA_031071
  6
Continuous
 62
     7
100
AcDbCircle
 10
133.6660374394
 20
158.2478650198
 30
0.0
 40
2.5
  0
ARC
  5
72
330
6B
100
AcDbEntity
  8
MEGA_031071
  6
Continuous
 62
     7
100
AcDbCircle
 10
133.6660374394
 20
204.7478650198
 30
0.0
 40
14.00000000000003
100
AcDbArc
 50
0.0
 51
180.0
  0
LINE
  5
73
330
6B
100
AcDbEntity
  8
MEGA_031071
  6
Continuous
 62
     7
100
AcDbLine
 10
119.6660374394
 20
161.7478650198
 30
0.0
 11
119.6660374394
 21
204.7478650198
 31
0.0
  0
LINE
  5
74
330
6B
100
AcDbEntity
  8
MEGA_031071
  6
Continuous
 62
     7
100
AcDbLine
 10
147.6660374394
 20
204.7478650198
 30
0.0
 11
147.6660374394
 21
161.7478650198
 31
0.0
  0
ARC
  5
75
330
6B
100
AcDbEntity
  8
MEGA_031071
  6
Continuous
 62
     7
100
AcDbCircle
 10
133.6660374394
 20
161.7478650198
 30
0.0
 40
13.99999999999998
100
AcDbArc
 50
180.0
 51
0.0
  0
CIRCLE
  5
76
330
6B
100
AcDbEntity
  8
MEGA_031071
  6
Continuous
 62
     7
100
AcDbCircle
 10
133.6660374394
 20
190.7478650198
 30
0.0
 40
11.15
  0
LINE
  5
78
330
6B
100
AcDbEntity
  8
DV1_Standard
  6
CENTER2
 62
     7
100
AcDbLine
 10
139.6660374915
 20
208.2478650198
 30
0.0
 11
127.6660373872
 21
208.2478650198
 31
0.0
  0
LINE
  5
79
330
6B
100
AcDbEntity
  8
DV1_Standard
  6
CENTER2
 62
     7
100
AcDbLine
 10
133.6660374394
 20
214.247865072
 30
0.0
 11
133.6660374394
 21
202.2478649677
 31
0.0
  0
LINE
  5
7A
330
6B
100
AcDbEntity
  8
DV1_Standard
  6
CENTER2
 62
     7
100
AcDbLine
 10
141.1660377374
 20
208.2478650198
 30
0.0
 11
137.9160374394
 21
208.2478650198
 31
0.0
  0
LINE
  5
7B
330
6B
100
AcDbEntity
  8
DV1_Standard
  6
CENTER2
 62
     7
100
AcDbLine
 10
133.6660374394
 20
215.7478653179
 30
0.0
 11
133.6660374394
 21
212.4978650198
 31
0.0
  0
LINE
  5
7C
330
6B
100
AcDbEntity
  8
DV1_Standard
  6
CENTER2
 62
     7
100
AcDbLine
 10
126.1660371413
 20
208.2478650198
 30
0.0
 11
129.4160374394
 21
208.2478650198
 31
0.0
  0
LINE
  5
7D
330
6B
100
AcDbEntity
  8
DV1_Standard
  6
CENTER2
 62
     7
100
AcDbLine
 10
133.6660374394
 20
200.7478647218
 30
0.0
 11
133.6660374394
 21
203.9978650198
 31
0.0
  0
LINE
  5
7E
330
6B
100
AcDbEntity
  8
DV1_Standard
  6
CENTER2
 62
     7
100
AcDbLine
 10
139.6660374915
 20
190.7478650198
 30
0.0
 11
127.6660373872
 21
190.7478650198
 31
0.0
  0
LINE
  5
7F
330
6B
100
AcDbEntity
  8
DV1_Standard
  6
CENTER2
 62
     7
100
AcDbLine
 10
133.6660374394
 20
196.747865072
 30
0.0
 11
133.6660374394
 21
184.7478649677
 31
0.0
  0
LINE
  5
80
330
6B
100
AcDbEntity
  8
DV1_Standard
  6
CENTER2
 62
     7
100
AcDbLine
 10
141.1660377374
 20
190.7478650198
 30
0.0
 11
146.5660374394
 21
190.7478650198
 31
0.0
  0
LINE
  5
81
330
6B
100
AcDbEntity
  8
DV1_Standard
  6
CENTER2
 62
     7
100
AcDbLine
 10
133.6660374394
 20
198.2478653179
 30
0.0
 11
133.6660374394
 21
203.6478650198
 31
0.0
  0
LINE
  5
82
330
6B
100
AcDbEntity
  8
DV1_Standard
  6
CENTER2
 62
     7
100
AcDbLine
 10
126.1660371413
 20
190.7478650198
 30
0.0
 11
120.7660374394
 21
190.7478650198
 31
0.0
  0
LINE
  5
83
330
6B
100
AcDbEntity
  8
DV1_Standard
  6
CENTER2
 62
     7
100
AcDbLine
 10
133.6660374394
 20
183.2478647218
 30
0.0
 11
133.6660374394
 21
177.8478650198
 31
0.0
  0
LINE
  5
84
330
6B
100
AcDbEntity
  8
DV1_Standard
  6
CENTER2
 62
     7
100
AcDbLine
 10
139.6660374915
 20
158.2478650198
 30
0.0
 11
127.6660373872
 21
158.2478650198
 31
0.0
  0
LINE
  5
85
330
6B
100
AcDbEntity
  8
DV1_Standard
  6
CENTER2
 62
     7
100
AcDbLine
 10
133.6660374394
 20
164.247865072
 30
0.0
 11
133.6660374394
 21
152.2478649677
 31
0.0
  0
LINE
  5
86
330
6B
100
AcDbEntity
  8
DV1_Standard
  6
CENTER2
 62
     7
100
AcDbLine
 10
141.1660377374
 20
158.2478650198
 30
0.0
 11
139.4160374394
 21
158.2478650198
 31
0.0
  0
LINE
  5
87
330
6B
100
AcDbEntity
  8
DV1_Standard
  6
CENTER2
 62
     7
100
AcDbLine
 10
133.6660374394
 20
165.7478653179
 30
0.0
 11
133.6660374394
 21
163.9978650198
 31
0.0
  0
LINE
  5
88
330
6B
100
AcDbEntity
  8
DV1_Standard
  6
CENTER2
 62
     7
100
AcDbLine
 10
126.1660371413
 20
158.2478650198
 30
0.0
 11
127.9160374394
 21
158.2478650198
 31
0.0
  0
LINE
  5
89
330
6B
100
AcDbEntity
  8
DV1_Standard
  6
CENTER2
 62
     7
100
AcDbLine
 10
133.6660374394
 20
150.7478647218
 30
0.0
 11
133.6660374394
 21
152.4978650198
 31
0.0
  0
ENDBLK
  5
8B
330
6B
100
AcDbEntity
  8
0
100
AcDbBlockEnd
  0
BLOCK
  5
9A
330
8C
100
AcDbEntity
  8
0
100
AcDbBlockBegin
  2
SE1
 70
     0
 10
0.0
 20
0.0
 30
0.0
  3
SE1
  1

  0
LINE
  5
8E
330
8C
100
AcDbEntity
  8
MEGA_031071
  6
Continuous
 62
     7
100
AcDbLine
 10
74.3168099342
 20
148.2478650198
 30
0.0
 11
74.3168099342
 21
161.7478650198
 31
0.0
  0
LINE
  5
8F
330
8C
100
AcDbEntity
  8
MEGA_031071
  6
Continuous
 62
     7
100
AcDbLine
 10
74.3168099342
 20
161.7478650198
 30
0.0
 11
74.3168099342
 21
204.7478650198
 31
0.0
  0
LINE
  5
90
330
8C
100
AcDbEntity
  8
MEGA_031071
  6
Continuous
 62
     7
100
AcDbLine
 10
74.3168099342
 20
218.2478650198
 30
0.0
 11
74.3168099342
 21
204.7478650198
 31
0.0
  0
LINE
  5
91
330
8C
100
AcDbEntity
  8
MEGA_031071
  6
Continuous
 62
     7
100
AcDbLine
 10
76.3168099342
 20
148.2478650198
 30
0.0
 11
76.3168099342
 21
161.7478650198
 31
0.0
  0
LINE
  5
92
330
8C
100
AcDbEntity
  8
MEGA_031071
  6
Continuous
 62
     7
100
AcDbLine
 10
76.3168099342
 20
204.7478650198
 30
0.0
 11
76.3168099342
 21
161.7478650198
 31
0.0
  0
LINE
  5
93
330
8C
100
AcDbEntity
  8
MEGA_031071
  6
Continuous
 62
     7
100
AcDbLine
 10
76.3168099342
 20
204.7478650198
 30
0.0
 11
76.3168099342
 21
218.2478650198
 31
0.0
  0
LINE
  5
94
330
8C
100
AcDbEntity
  8
MEGA_031071
  6
Continuous
 62
     7
100
AcDbLine
 10
75.8168099342
 20
218.7478650198
 30
0.0
 11
74.8168099342
 21
218.7478650198
 31
0.0
  0
LINE
  5
95
330
8C
100
AcDbEntity
  8
MEGA_031071
  6
Continuous
 62
     7
100
AcDbLine
 10
74.8168099342
 20
147.7478650198
 30
0.0
 11
75.8168099342
 21
147.7478650198
 31
0.0
  0
ARC
  5
96
330
8C
100
AcDbEntity
  8
MEGA_031071
  6
Continuous
 62
     7
100
AcDbCircle
 10
74.8168099342
 20
148.2478650198
 30
0.0
 40
0.5000000000000002
100
AcDbArc
 50
180.0
 51
270.0
  0
ARC
  5
97
330
8C
100
AcDbEntity
  8
MEGA_031071
  6
Continuous
 62
     7
100
AcDbCircle
 10
74.8168099342
 20
218.2478650198
 30
0.0
 40
0.5000000000000004
100
AcDbArc
 50
90.0
 51
180.0
  0
ARC
  5
98
330
8C
100
AcDbEntity
  8
MEGA_031071
  6
Continuous
 62
     7
100
AcDbCircle
 10
75.8168099342
 20
148.2478650198
 30
0.0
 40
0.5000000000000004
100
AcDbArc
 50
270.0
 51
0.0
  0
ARC
  5
99
330
8C
100
AcDbEntity
  8
MEGA_031071
  6
Continuous
 62
     7
100
AcDbCircle
 10
75.8168099342
 20
218.2478650198
 30
0.0
 40
0.4999999999999996
100
AcDbArc
 50
0.0
 51
90.0
  0
ENDBLK
  5
9B
330
8C
100
AcDbEntity
  8
0
100
AcDbBlockEnd
  0
BLOCK
  5
9E
330
9D
100
AcDbEntity
  8
0
100
AcDbBlockBegin
  2
_OBLIQUE
 70
     0
 10
0.0
 20
0.0
 30
0.0
  3
_OBLIQUE
  1

  0
LINE
  5
A0
330
9D
100
AcDbEntity
  8
0
  6
ByBlock
 62
     0
370
    -2
100
AcDbLine
 10
-0.5
 20
-0.5
 30
0.0
 11
0.5
 21
0.5
 31
0.0
  0
ENDBLK
  5
9F
330
9D
100
AcDbEntity
  8
0
100
AcDbBlockEnd
  0
BLOCK
  5
A2
330
A1
100
AcDbEntity
  8
0
100
AcDbBlockBegin
  2
_DOT
 70
     0
 10
0.0
 20
0.0
 30
0.0
  3
_DOT
  1

  0
POLYLINE
  5
A4
330
A1
100
AcDbEntity
  8
0
  6
ByBlock
 62
     0
100
AcDb2dPolyline
 66
     1
 10
0.0
 20
0.0
 30
0.0
 70
     1
 40
0.5
 41
0.5
  0
VERTEX
  5
A6
330
A4
100
AcDbEntity
  8
0
  6
ByBlock
 62
     0
100
AcDbVertex
100
AcDb2dVertex
 10
-0.25
 20
0.0
 30
0.0
 42
1.0
  0
VERTEX
  5
A7
330
A4
100
AcDbEntity
  8
0
  6
ByBlock
 62
     0
100
AcDbVertex
100
AcDb2dVertex
 10
0.25
 20
0.0
 30
0.0
 42
1.0
  0
SEQEND
  5
A8
330
A4
100
AcDbEntity
  8
0
  6
ByBlock
 62
     0
  0
LINE
  5
A5
330
A1
100
AcDbEntity
  8
0
  6
ByBlock
 62
     0
370
    -2
100
AcDbLine
 10
-0.5
 20
0.0
 30
0.0
 11
-1.0
 21
0.0
 31
0.0
  0
ENDBLK
  5
A3
330
A1
100
AcDbEntity
  8
0
100
AcDbBlockEnd
  0
BLOCK
  5
AC
330
A9
100
AcDbEntity
  8
0
100
AcDbBlockBegin
  2
_SE_FILLED
 70
     0
 10
0.0
 20
0.0
 30
0.0
  3
_SE_FILLED
  1

  0
SOLID
  5
AA
330
A9
100
AcDbEntity
  8
0
 62
     0
100
AcDbTrace
 10
0.0
 20
0.0
 30
0.0
 11
-1.0
 21
-0.1665
 31
0.0
 12
-1.0
 22
0.1665
 32
0.0
 13
0.0
 23
0.0
 33
0.0
  0
LINE
  5
AB
330
A9
100
AcDbEntity
  8
0
 62
     0
100
AcDbLine
 10
0.0
 20
0.0
 30
0.0
 11
-1.0
 21
0.0
 31
0.0
  0
ENDBLK
  5
AD
330
A9
100
AcDbEntity
  8
0
100
AcDbBlockEnd
  0
BLOCK
  5
B7
330
B0
100
AcDbEntity
  8
0
100
AcDbBlockBegin
  2
DMBLK99
 70
     0
 10
0.0
 20
0.0
 30
0.0
  3
DMBLK99
  1

  0
HATCH
  5
B1
330
B0
100
AcDbEntity
  8
Default
  6
Continuous
 62
     7
100
AcDbHatch
 10
0.0
 20
0.0
 30
0.0
210
0.0
220
0.0
230
1.0
  2
SOLID
 70
     1
 71
     0
 91
        1
 92
        1
 93
        3
 72
     1
 10
71.3168099080887
 20
131.0141422542119
 11
74.31680993416573
 21
131.5141422585581
 72
     1
 10
74.31680993416573
 20
131.5141422585581
 11
71.3168099080887
 21
132.0141422629042
 72
     1
 10
71.3168099080887
 20
132.0141422629042
 11
71.3168099080887
 21
131.0141422542119
 97
        0
 75
     0
 76
     1
 98
        0
  0
HATCH
  5
B2
330
B0
100
AcDbEntity
  8
Default
  6
Continuous
 62
     7
100
AcDbHatch
 10
0.0
 20
0.0
 30
0.0
210
0.0
220
0.0
230
1.0
  2
SOLID
 70
     1
 71
     0
 91
        1
 92
        1
 93
        3
 72
     1
 10
79.31680996024276
 20
131.0141422542119
 11
79.31680996024276
 21
132.0141422629042
 72
     1
 10
79.31680996024276
 20
132.0141422629042
 11
76.31680993416573
 21
131.5141422585581
 72
     1
 10
76.31680993416573
 20
131.5141422585581
 11
79.31680996024276
 21
131.0141422542119
 97
        0
 75
     0
 76
     1
 98
        0
  0
LINE
  5
B3
330
B0
100
AcDbEntity
  8
Default
  6
Continuous
 62
     7
100
AcDbLine
 10
74.3168099342
 20
148.2478650198
 30
0.0
 11
74.3168099342
 21
130.0141422455
 31
0.0
  0
LINE
  5
B4
330
B0
100
AcDbEntity
  8
Default
  6
Continuous
 62
     7
100
AcDbLine
 10
76.3168099342
 20
154.9978650198
 30
0.0
 11
76.3168099342
 21
130.0141422455
 31
0.0
  0
LINE
  5
B5
330
B0
100
AcDbEntity
  8
Default
  6
Continuous
 62
     7
100
AcDbLine
 10
68.316809882
 20
131.5141422586
 30
0.0
 11
84.3818896008
 21
131.5141422586
 31
0.0
  0
TEXT
  5
B6
330
B0
100
AcDbEntity
  8
Default
  6
Continuous
 62
     7
100
AcDbText
 10
81.4909804312
 20
132.2641422586
 30
0.0
 40
3.0
  1
2
  7
SEACAD_seiso_ttf
 11
81.4909804312
 21
135.2641422586
 31
0.0
100
AcDbText
 73
     3
  0
ENDBLK
  5
B8
330
B0
100
AcDbEntity
  8
0
100
AcDbBlockEnd
  0
BLOCK
  5
C1
330
BA
100
AcDbEntity
  8
0
100
AcDbBlockBegin
  2
DMBLK100
 70
     0
 10
0.0
 20
0.0
 30
0.0
  3
DMBLK100
  1

  0
HATCH
  5
BB
330
BA
100
AcDbEntity
  8
Default
  6
Continuous
 62
     7
100
AcDbHatch
 10
0.0
 20
0.0
 30
0.0
210
0.0
220
0.0
230
1.0
  2
SOLID
 70
     1
 71
     0
 91
        1
 92
        1
 93
        3
 72
     1
 10
122.666037465435
 20
131.2672744484926
 11
122.666037465435
 21
132.2672744571849
 72
     1
 10
122.666037465435
 20
132.2672744571849
 11
119.6660374393579
 21
131.7672744528387
 72
     1
 10
119.6660374393579
 20
131.7672744528387
 11
122.666037465435
 21
131.2672744484926
 97
        0
 75
     0
 76
     1
 98
        0
  0
HATCH
  5
BC
330
BA
100
AcDbEntity
  8
Default
  6
Continuous
 62
     7
100
AcDbHatch
 10
0.0
 20
0.0
 30
0.0
210
0.0
220
0.0
230
1.0
  2
SOLID
 70
     1
 71
     0
 91
        1
 92
        1
 93
        3
 72
     1
 10
144.6660382775483
 20
131.2672744484926
 11
147.6660383036253
 21
131.7672744528387
 72
     1
 10
147.6660383036253
 20
131.7672744528387
 11
144.6660382775483
 21
132.2672744571849
 72
     1
 10
144.6660382775483
 20
132.2672744571849
 11
144.6660382775483
 21
131.2672744484926
 97
        0
 75
     0
 76
     1
 98
        0
  0
LINE
  5
BD
330
BA
100
AcDbEntity
  8
Default
  6
Continuous
 62
     7
100
AcDbLine
 10
119.6660374394
 20
161.7478650198
 30
0.0
 11
119.6660374394
 21
130.2672744398
 31
0.0
  0
LINE
  5
BE
330
BA
100
AcDbEntity
  8
Default
  6
Continuous
 62
     7
100
AcDbLine
 10
147.6660374394
 20
161.7478650198
 30
0.0
 11
147.6660374394
 21
130.2672744398
 31
0.0
  0
LINE
  5
BF
330
BA
100
AcDbEntity
  8
Default
  6
Continuous
 62
     7
100
AcDbLine
 10
119.6660374394
 20
131.7672744528
 30
0.0
 11
147.6660383036
 21
131.7672744528
 31
0.0
  0
TEXT
  5
C0
330
BA
100
AcDbEntity
  8
Default
  6
Continuous
 62
     7
100
AcDbText
 10
131.7910378715
 20
132.5172744528
 30
0.0
 40
3.0
  1
28
  7
SEACAD_seiso_ttf
 11
131.7910378715
 21
135.5172744528
 31
0.0
100
AcDbText
 73
     3
  0
ENDBLK
  5
C2
330
BA
100
AcDbEntity
  8
0
100
AcDbBlockEnd
  0
BLOCK
  5
CB
330
C4
100
AcDbEntity
  8
0
100
AcDbBlockBegin
  2
DMBLK101
 70
     0
 10
0.0
 20
0.0
 30
0.0
  3
DMBLK101
  1

  0
HATCH
  5
C5
330
C4
100
AcDbEntity
  8
Default
  6
Continuous
 62
     7
100
AcDbHatch
 10
0.0
 20
0.0
 30
0.0
210
0.0
220
0.0
230
1.0
  2
SOLID
 70
     1
 71
     0
 91
        1
 92
        1
 93
        3
 72
     1
 10
100.4537231571244
 20
215.7478649937545
 11
101.4537231658168
 21
215.7478649937545
 72
     1
 10
101.4537231658168
 20
215.7478649937545
 11
100.9537231614706
 21
218.7478650198315
 72
     1
 10
100.9537231614706
 20
218.7478650198315
 11
100.4537231571244
 21
215.7478649937545
 97
        0
 75
     0
 76
     1
 98
        0
  0
HATCH
  5
C6
330
C4
100
AcDbEntity
  8
Default
  6
Continuous
 62
     7
100
AcDbHatch
 10
0.0
 20
0.0
 30
0.0
210
0.0
220
0.0
230
1.0
  2
SOLID
 70
     1
 71
     0
 91
        1
 92
        1
 93
        3
 72
     1
 10
100.4537231571244
 20
150.7478627213274
 11
100.9537231614706
 21
147.7478626952504
 72
     1
 10
100.9537231614706
 20
147.7478626952504
 11
101.4537231658168
 21
150.7478627213274
 72
     1
 10
101.4537231658168
 20
150.7478627213274
 11
100.4537231571244
 21
150.7478627213274
 97
        0
 75
     0
 76
     1
 98
        0
  0
LINE
  5
C7
330
C4
100
AcDbEntity
  8
Default
  6
Continuous
 62
     7
100
AcDbLine
 10
133.6660374394
 20
218.7478650198
 30
0.0
 11
99.4537231484
 21
218.7478650198
 31
0.0
  0
LINE
  5
C8
330
C4
100
AcDbEntity
  8
Default
  6
Continuous
 62
     7
100
AcDbLine
 10
133.6660374394
 20
147.7478650198
 30
0.0
 11
99.4537231484
 21
147.7478650198
 31
0.0
  0
LINE
  5
C9
330
C4
100
AcDbEntity
  8
Default
  6
Continuous
 62
     7
100
AcDbLine
 10
100.9537231615
 20
218.7478650198
 30
0.0
 11
100.9537231615
 21
147.7478626953
 31
0.0
  0
TEXT
  5
CA
330
C4
100
AcDbEntity
  8
Default
  6
Continuous
 62
     7
100
AcDbText
 10
100.2037231615
 20
181.6796820394
 30
0.0
 40
3.0
  1
71
 50
90.0
  7
SEACAD_seiso_ttf
 11
97.2037231615
 21
181.6796820394
 31
0.0
100
AcDbText
 73
     3
  0
ENDBLK
  5
CC
330
C4
100
AcDbEntity
  8
0
100
AcDbBlockEnd
  0
BLOCK
  5
D6
330
CE
100
AcDbEntity
  8
0
100
AcDbBlockBegin
  2
DMBLK102
 70
     0
 10
0.0
 20
0.0
 30
0.0
  3
DMBLK102
  1

  0
HATCH
  5
CF
330
CE
100
AcDbEntity
  8
Default
  6
Continuous
 62
     7
100
AcDbHatch
 10
0.0
 20
0.0
 30
0.0
210
0.0
220
0.0
230
1.0
  2
SOLID
 70
     1
 71
     0
 91
        1
 92
        1
 93
        3
 72
     1
 10
109.6569261796044
 20
161.2478650459085
 11
110.1569261839506
 21
158.2478650198315
 72
     1
 10
110.1569261839506
 20
158.2478650198315
 11
110.6569261882968
 21
161.2478650459085
 72
     1
 10
110.6569261882968
 20
161.2478650459085
 11
109.6569261796044
 21
161.2478650459085
 97
        0
 75
     0
 76
     1
 98
        0
  0
HATCH
  5
D0
330
CE
100
AcDbEntity
  8
Default
  6
Continuous
 62
     7
100
AcDbHatch
 10
0.0
 20
0.0
 30
0.0
210
0.0
220
0.0
230
1.0
  2
SOLID
 70
     1
 71
     0
 91
        1
 92
        1
 93
        3
 72
     1
 10
109.6569261796044
 20
205.2478657388125
 11
110.6569261882968
 21
205.2478657388125
 72
     1
 10
110.6569261882968
 20
205.2478657388125
 11
110.1569261839506
 21
208.2478657648896
 72
     1
 10
110.1569261839506
 20
208.2478657648896
 11
109.6569261796044
 21
205.2478657388125
 97
        0
 75
     0
 76
     1
 98
        0
  0
LINE
  5
D1
330
CE
100
AcDbEntity
  8
Default
  6
Continuous
 62
     7
100
AcDbLine
 10
133.6660374394
 20
158.2478650198
 30
0.0
 11
108.6569261709
 21
158.2478650198
 31
0.0
  0
LINE
  5
D2
330
CE
100
AcDbEntity
  8
Default
  6
Continuous
 62
     7
100
AcDbLine
 10
133.6660374394
 20
208.2478650198
 30
0.0
 11
108.6569261709
 21
208.2478650198
 31
0.0
  0
LINE
  5
D3
330
CE
100
AcDbEntity
  8
Default
  6
Continuous
 62
     7
100
AcDbLine
 10
110.156926184
 20
158.2478650198
 30
0.0
 11
110.156926184
 21
208.2478657649
 31
0.0
  0
TEXT
  5
D4
330
CE
100
AcDbEntity
  8
Default
  6
Continuous
 62
     7
100
AcDbText
 10
109.406926184
 20
180.7455926651
 30
0.0
 40
3.0
  1
50
 50
90.0
  7
SEACAD_seiso_ttf
 11
106.406926184
 21
180.7455926651
 31
0.0
100
AcDbText
 73
     3
  0
TEXT
  5
D5
330
CE
100
AcDbEntity
  8
Default
  6
Continuous
 62
     7
100
AcDbText
 10
109.406926184
 20
184.5228653924
 30
0.0
 40
3.0
  1
 
 50
90.0
  7
SEACAD_seiso_ttf
 11
106.406926184
 21
184.5228653924
 31
0.0
100
AcDbText
 73
     3
  0
ENDBLK
  5
D7
330
CE
100
AcDbEntity
  8
0
100
AcDbBlockEnd
  0
BLOCK
  5
E1
330
D9
100
AcDbEntity
  8
0
100
AcDbBlockBegin
  2
DMBLK103
 70
     0
 10
0.0
 20
0.0
 30
0.0
  3
DMBLK103
  1

  0
HATCH
  5
DA
330
D9
100
AcDbEntity
  8
Default
  6
Continuous
 62
     7
100
AcDbHatch
 10
0.0
 20
0.0
 30
0.0
210
0.0
220
0.0
230
1.0
  2
SOLID
 70
     1
 71
     0
 91
        1
 92
        1
 93
        3
 72
     1
 10
157.2325301949448
 20
187.7478649937545
 11
156.7325301905987
 21
190.7478650198315
 72
     1
 10
156.7325301905987
 20
190.7478650198315
 11
156.2325301862525
 21
187.7478649937545
 72
     1
 10
156.2325301862525
 20
187.7478649937545
 11
157.2325301949448
 21
187.7478649937545
 97
        0
 75
     0
 76
     1
 98
        0
  0
HATCH
  5
DB
330
D9
100
AcDbEntity
  8
Default
  6
Continuous
 62
     7
100
AcDbHatch
 10
0.0
 20
0.0
 30
0.0
210
0.0
220
0.0
230
1.0
  2
SOLID
 70
     1
 71
     0
 91
        1
 92
        1
 93
        3
 72
     1
 10
157.2325301949448
 20
150.7478635855947
 11
156.2325301862525
 21
150.7478635855947
 72
     1
 10
156.2325301862525
 20
150.7478635855947
 11
156.7325301905987
 21
147.7478635595177
 72
     1
 10
156.7325301905987
 20
147.7478635595177
 11
157.2325301949448
 21
150.7478635855947
 97
        0
 75
     0
 76
     1
 98
        0
  0
LINE
  5
DC
330
D9
100
AcDbEntity
  8
Default
  6
Continuous
 62
     7
100
AcDbLine
 10
133.6660374394
 20
190.7478650198
 30
0.0
 11
158.2325302036
 21
190.7478650198
 31
0.0
  0
LINE
  5
DD
330
D9
100
AcDbEntity
  8
Default
  6
Continuous
 62
     7
100
AcDbLine
 10
133.6660374394
 20
147.7478650198
 30
0.0
 11
158.2325302036
 21
147.7478650198
 31
0.0
  0
LINE
  5
DE
330
D9
100
AcDbEntity
  8
Default
  6
Continuous
 62
     7
100
AcDbLine
 10
156.7325301906
 20
190.7478650198
 30
0.0
 11
156.7325301906
 21
147.7478635595
 31
0.0
  0
TEXT
  5
DF
330
D9
100
AcDbEntity
  8
Default
  6
Continuous
 62
     7
100
AcDbText
 10
155.9825301906
 20
166.8137733806
 30
0.0
 40
3.0
  1
43
 50
90.0
  7
SEACAD_seiso_ttf
 11
152.9825301906
 21
166.8137733806
 31
0.0
100
AcDbText
 73
     3
  0
TEXT
  5
E0
330
D9
100
AcDbEntity
  8
Default
  6
Continuous
 62
     7
100
AcDbText
 10
155.9825301906
 20
170.4546824715
 30
0.0
 40
3.0
  1
 
 50
90.0
  7
SEACAD_seiso_ttf
 11
152.9825301906
 21
170.4546824715
 31
0.0
100
AcDbText
 73
     3
  0
ENDBLK
  5
E2
330
D9
100
AcDbEntity
  8
0
100
AcDbBlockEnd
  0
BLOCK
  5
EC
330
E4
100
AcDbEntity
  8
0
100
AcDbBlockBegin
  2
DMBLK104
 70
     0
 10
0.0
 20
0.0
 30
0.0
  3
DMBLK104
  1

  0
HATCH
  5
E5
330
E4
100
AcDbEntity
  8
Default
  6
Continuous
 62
     7
100
AcDbHatch
 10
0.0
 20
0.0
 30
0.0
210
0.0
220
0.0
230
1.0
  2
SOLID
 70
     1
 71
     0
 91
        1
 92
        1
 93
        3
 72
     1
 10
139.166037465435
 20
228.5311420887395
 11
136.166037439358
 21
228.0311420843933
 72
     1
 10
136.166037439358
 20
228.0311420843933
 11
139.166037465435
 21
227.5311420800472
 72
     1
 10
139.166037465435
 20
227.5311420800472
 11
139.166037465435
 21
228.5311420887395
 97
        0
 75
     0
 76
     1
 98
        0
  0
HATCH
  5
E6
330
E4
100
AcDbEntity
  8
Default
  6
Continuous
 62
     7
100
AcDbHatch
 10
0.0
 20
0.0
 30
0.0
210
0.0
220
0.0
230
1.0
  2
SOLID
 70
     1
 71
     0
 91
        1
 92
        1
 93
        3
 72
     1
 10
128.1660374132809
 20
228.5311420887395
 11
128.1660374132809
 21
227.5311420800472
 72
     1
 10
128.1660374132809
 20
227.5311420800472
 11
131.166037439358
 21
228.0311420843933
 72
     1
 10
131.166037439358
 20
228.0311420843933
 11
128.1660374132809
 21
228.5311420887395
 97
        0
 75
     0
 76
     1
 98
        0
  0
LINE
  5
E7
330
E4
100
AcDbEntity
  8
Default
  6
Continuous
 62
     7
100
AcDbLine
 10
136.1660374394
 20
208.2478650198
 30
0.0
 11
136.1660374394
 21
229.5311420974
 31
0.0
  0
LINE
  5
E8
330
E4
100
AcDbEntity
  8
Default
  6
Continuous
 62
     7
100
AcDbLine
 10
131.1660374394
 20
208.2478650198
 30
0.0
 11
131.1660374394
 21
229.5311420974
 31
0.0
  0
LINE
  5
E9
330
E4
100
AcDbEntity
  8
Default
  6
Continuous
 62
     7
100
AcDbLine
 10
142.1660374915
 20
228.0311420844
 30
0.0
 11
125.166037499
 21
228.0311420844
 31
0.0
  0
TEXT
  5
EA
330
E4
100
AcDbEntity
  8
Default
  6
Continuous
 62
     7
100
AcDbText
 10
132.0501284043
 20
228.7811420844
 30
0.0
 40
3.0
  1
5
  7
SEACAD_seiso_ttf
 11
132.0501284043
 21
231.7811420844
 31
0.0
100
AcDbText
 73
     3
  0
TEXT
  5
EB
330
E4
100
AcDbEntity
  8
Default
  6
Continuous
 62
     7
100
AcDbText
 10
134.0546738589
 20
228.7811420844
 30
0.0
 40
3.0
  1
 
  7
SEACAD_seiso_ttf
 11
134.0546738589
 21
231.7811420844
 31
0.0
100
AcDbText
 73
     3
  0
ENDBLK
  5
ED
330
E4
100
AcDbEntity
  8
0
100
AcDbBlockEnd
  0
BLOCK
  5
F7
330
EF
100
AcDbEntity
  8
0
100
AcDbBlockBegin
  2
DMBLK105
 70
     0
 10
0.0
 20
0.0
 30
0.0
  3
DMBLK105
  1

  0
HATCH
  5
F0
330
EF
100
AcDbEntity
  8
Default
  6
Continuous
 62
     7
100
AcDbHatch
 10
0.0
 20
0.0
 30
0.0
210
0.0
220
0.0
230
1.0
  2
SOLID
 70
     1
 71
     0
 91
        1
 92
        1
 93
        3
 72
     1
 10
141.8160374132809
 20
237.0072039097234
 11
141.8160374132809
 21
236.0072039010311
 72
     1
 10
141.8160374132809
 20
236.0072039010311
 11
144.816037439358
 21
236.5072039053772
 72
     1
 10
144.816037439358
 20
236.5072039053772
 11
141.8160374132809
 21
237.0072039097234
 97
        0
 75
     0
 76
     1
 98
        0
  0
HATCH
  5
F1
330
EF
100
AcDbEntity
  8
Default
  6
Continuous
 62
     7
100
AcDbHatch
 10
0.0
 20
0.0
 30
0.0
210
0.0
220
0.0
230
1.0
  2
SOLID
 70
     1
 71
     0
 91
        1
 92
        1
 93
        3
 72
     1
 10
125.516038094264
 20
237.0072039097234
 11
122.5160380681869
 21
236.5072039053772
 72
     1
 10
122.5160380681869
 20
236.5072039053772
 11
125.516038094264
 21
236.0072039010311
 72
     1
 10
125.516038094264
 20
236.0072039010311
 11
125.516038094264
 21
237.0072039097234
 97
        0
 75
     0
 76
     1
 98
        0
  0
LINE
  5
F2
330
EF
100
AcDbEntity
  8
Default
  6
Continuous
 62
     7
100
AcDbLine
 10
144.8160374394
 20
190.7478650198
 30
0.0
 11
144.8160374394
 21
238.0072039184
 31
0.0
  0
LINE
  5
F3
330
EF
100
AcDbEntity
  8
Default
  6
Continuous
 62
     7
100
AcDbLine
 10
122.5160374394
 20
190.7478650198
 30
0.0
 11
122.5160374394
 21
238.0072039184
 31
0.0
  0
LINE
  5
F4
330
EF
100
AcDbEntity
  8
Default
  6
Continuous
 62
     7
100
AcDbLine
 10
144.8160374394
 20
236.5072039054
 30
0.0
 11
122.5160380682
 21
236.5072039054
 31
0.0
  0
TEXT
  5
F5
330
EF
100
AcDbEntity
  8
Default
  6
Continuous
 62
     7
100
AcDbText
 10
130.0046741174
 20
237.2572039054
 30
0.0
 40
3.0
  1
22,3
  7
SEACAD_seiso_ttf
 11
130.0046741174
 21
240.2572039054
 31
0.0
100
AcDbText
 73
     3
  0
TEXT
  5
F6
330
EF
100
AcDbEntity
  8
Default
  6
Continuous
 62
     7
100
AcDbText
 10
136.1001286629
 20
237.2572039054
 30
0.0
 40
3.0
  1
 
  7
SEACAD_seiso_ttf
 11
136.1001286629
 21
240.2572039054
 31
0.0
100
AcDbText
 73
     3
  0
ENDBLK
  5
F8
330
EF
100
AcDbEntity
  8
0
100
AcDbBlockEnd
  0
ENDSEC
  0
SECTION
  2
ENTITIES
  0
INSERT
  5
3D
330
1F
100
AcDbEntity
  8
Default
100
AcDbBlockReference
  2
SEANNOT_GROUP
 10
0.0
 20
0.0
 30
0.0
  0
INSERT
  5
43
330
1F
100
AcDbEntity
  8
Default
100
AcDbBlockReference
  2
SEANNOT_GROUP1
 10
0.0
 20
0.0
 30
0.0
  0
TEXT
  5
6A
330
1F
100
AcDbEntity
  8
Default
  6
Continuous
 62
     7
100
AcDbText
 10
86.0500511639
 20
86.5301165758
 30
0.0
 40
7.5
  1
34.176
  7
SEACAD_seiso_ttf
 11
86.0500511639
 21
94.0301165758
 31
0.0
100
AcDbText
 73
     3
  0
INSERT
  5
6C
330
1F
100
AcDbEntity
  8
0
100
AcDbBlockReference
  2
SE
 10
0.0
 20
0.0
 30
0.0
  0
INSERT
  5
8D
330
1F
100
AcDbEntity
  8
0
100
AcDbBlockReference
  2
SE1
 10
0.0
 20
0.0
 30
0.0
  0
DIMENSION
  5
AF
330
1F
100
AcDbEntity
  8
Default
  6
Continuous
 62
     7
100
AcDbDimension
  2
DMBLK99
 10
76.3168099342
 20
131.5141422586
 30
0.0
 11
80.4409804312
 21
131.5141422586
 31
0.0
 70
   160
  1
\A1;<>
 71
     5
 42
-1.0
  3
DIN
100
AcDbAlignedDimension
 13
74.3168099342
 23
148.2478650198
 33
0.0
 14
76.3168099342
 24
154.9978650198
 34
0.0
100
AcDbRotatedDimension
  0
DIMENSION
  5
B9
330
1F
100
AcDbEntity
  8
Default
  6
Continuous
 62
     7
100
AcDbDimension
  2
DMBLK100
 10
119.6660374394
 20
131.7672744528
 30
0.0
 11
133.6660378715
 21
131.7672744528
 31
0.0
 70
   161
  1
\A1;<>
 71
     5
 42
-1.0
  3
DIN
100
AcDbAlignedDimension
 13
119.6660374394
 23
161.7478650198
 33
0.0
 14
147.6660374394
 24
161.7478650198
 34
0.0
  0
DIMENSION
  5
C3
330
1F
100
AcDbEntity
  8
Default
  6
Continuous
 62
     7
100
AcDbDimension
  2
DMBLK101
 10
100.9537231615
 20
218.7478650198
 30
0.0
 11
100.9537231615
 21
183.2478638575
 31
0.0
 70
   161
  1
\A1;<>
 71
     5
 42
-1.0
  3
DIN
100
AcDbAlignedDimension
 13
133.6660374394
 23
218.7478650198
 33
0.0
 14
133.6660374394
 24
147.7478650198
 34
0.0
  0
DIMENSION
  5
CD
330
1F
100
AcDbEntity
  8
Default
  6
Continuous
 62
     7
100
AcDbDimension
  2
DMBLK102
 10
110.156926184
 20
158.2478650198
 30
0.0
 11
110.156926184
 21
183.2478653924
 31
0.0
 70
   161
  1
\A1;<>  
 71
     5
 42
-1.0
  3
DIN
100
AcDbAlignedDimension
 13
133.6660374394
 23
158.2478650198
 33
0.0
 14
133.6660374394
 24
208.2478650198
 34
0.0
  0
DIMENSION
  5
D8
330
1F
100
AcDbEntity
  8
Default
  6
Continuous
 62
     7
100
AcDbDimension
  2
DMBLK103
 10
156.7325301906
 20
190.7478650198
 30
0.0
 11
156.7325301906
 21
169.2478642897
 31
0.0
 70
   161
  1
\A1;<>  
 71
     5
 42
-1.0
  3
DIN
100
AcDbAlignedDimension
 13
133.6660374394
 23
190.7478650198
 33
0.0
 14
133.6660374394
 24
147.7478650198
 34
0.0
  0
DIMENSION
  5
E3
330
1F
100
AcDbEntity
  8
Default
  6
Continuous
 62
     7
100
AcDbDimension
  2
DMBLK104
 10
131.1660357098
 20
228.0311418658
 30
0.0
 11
133.6660374952
 21
228.0311420844
 31
0.0
 70
   161
  1
\A1;<>  
 71
     5
 42
-1.0
  3
DIN
100
AcDbAlignedDimension
 13
136.1660374394
 23
208.2478652384
 33
0.0
 14
131.1660374394
 24
208.2478648013
 34
0.0
1001
ACAD
1000
DSTYLE
1002
{
1070
    73
1070
     1
1070
    74
1070
     1
1070
    77
1070
     0
1070
     0
1002
}
  0
DIMENSION
  5
EE
330
1F
100
AcDbEntity
  8
Default
  6
Continuous
 62
     7
100
AcDbDimension
  2
DMBLK105
 10
122.5160334389
 20
236.5072029306
 30
0.0
 11
133.6660377538
 21
236.5072039054
 31
0.0
 70
   161
  1
\A1;<>  
 71
     5
 42
-1.0
  3
DIN
100
AcDbAlignedDimension
 13
144.8160374394
 23
190.7478659946
 33
0.0
 14
122.5160374394
 24
190.7478640451
 34
0.0
1001
ACAD
1000
DSTYLE
1002
{
1070
    73
1070
     1
1070
    74
1070
     1
1070
    77
1070
     0
1070
     0
1002
}
  0
ENDSEC
  0
SECTION
  2
OBJECTS
  0
DICTIONARY
  5
C
330
0
100
AcDbDictionary
281
     1
  3
ACAD_GROUP
350
D
  3
ACAD_LAYOUT
350
1A
  3
ACAD_MLEADERSTYLE
350
FB
  3
ACAD_MLINESTYLE
350
17
  3
ACAD_PLOTSETTINGS
350
19
  3
ACAD_PLOTSTYLENAME
350
E
  3
ACAD_SCALELIST
350
47
  3
ACAD_VISUALSTYLE
350
2A
  3
AcDbVariableDictionary
350
F9
  0
DICTIONARY
  5
D
102
{ACAD_REACTORS
330
C
102
}
330
C
100
AcDbDictionary
281
     1
  0
DICTIONARY
  5
1A
102
{ACAD_REACTORS
330
C
102
}
330
C
100
AcDbDictionary
281
     1
  3
Layout1
350
1E
  3
Model
350
22
  0
DICTIONARY
  5
FB
102
{ACAD_REACTORS
330
C
102
}
330
C
100
AcDbDictionary
281
     1
  0
DICTIONARY
  5
17
102
{ACAD_REACTORS
330
C
102
}
330
C
100
AcDbDictionary
281
     1
  3
Standard
350
18
  0
DICTIONARY
  5
19
102
{ACAD_REACTORS
330
C
102
}
330
C
100
AcDbDictionary
281
     1
  0
ACDBDICTIONARYWDFLT
  5
E
102
{ACAD_REACTORS
330
C
102
}
330
C
100
AcDbDictionary
281
     1
  3
Normal
350
F
100
AcDbDictionaryWithDefault
340
F
  0
DICTIONARY
  5
47
102
{ACAD_REACTORS
330
C
102
}
330
C
100
AcDbDictionary
281
     1
  3
A0
350
48
  3
A1
350
49
  3
A2
350
4A
  3
A3
350
4B
  3
A4
350
4C
  3
A5
350
4D
  3
A6
350
4E
  3
A7
350
4F
  3
A8
350
50
  3
A9
350
51
  3
B0
350
52
  3
B1
350
53
  3
B2
350
54
  3
B3
350
55
  3
B4
350
56
  3
B5
350
57
  3
B6
350
58
  3
B7
350
59
  3
B8
350
5A
  3
B9
350
5B
  3
C0
350
5C
  3
C1
350
5D
  3
C2
350
5E
  3
C3
350
5F
  3
C4
350
60
  3
C5
350
61
  3
C6
350
62
  3
C7
350
63
  3
C8
350
64
  3
C9
350
65
  3
D0
350
66
  3
D1
350
67
  3
D2
350
68
  0
DICTIONARY
  5
2A
102
{ACAD_REACTORS
330
C
102
}
330
C
100
AcDbDictionary
281
     1
  3
2dWireframe
350
2F
  3
3D Hidden
350
31
  3
3dWireframe
350
30
  3
Basic
350
32
  3
Brighten
350
36
  3
ColorChange
350
3A
  3
Conceptual
350
34
  3
Dim
350
35
  3
Facepattern
350
39
  3
Flat
350
2B
  3
FlatWithEdges
350
2C
  3
Gouraud
350
2D
  3
GouraudWithEdges
350
2E
  3
Linepattern
350
38
  3
Realistic
350
33
  3
Thicken
350
37
  0
DICTIONARY
  5
F9
102
{ACAD_REACTORS
330
C
102
}
330
C
100
AcDbDictionary
281
     1
  3
CANNOSCALE
350
FE
  3
PSOLHEIGHT
350
FD
  3
PSOLWIDTH
350
FC
  0
LAYOUT
  5
1E
102
{ACAD_REACTORS
330
1A
102
}
330
1A
100
AcDbPlotSettings
  1

  2
none_device
  4

  6

 40
0.0
 41
0.0
 42
0.0
 43
0.0
 44
0.0
 45
0.0
 46
0.0
 47
0.0
 48
0.0
 49
0.0
140
0.0
141
0.0
142
1.0
143
1.0
 70
   688
 72
     0
 73
     0
 74
     5
  7

 75
    16
147
1.0
148
0.0
149
0.0
100
AcDbLayout
  1
Layout1
 70
     1
 71
     1
 10
0.0
 20
0.0
 11
210.0
 21
297.0
 12
0.0
 22
0.0
 32
0.0
 14
0.0
 24
0.0
 34
0.0
 15
210.0
 25
297.0
 35
0.0
146
0.0
 13
0.0
 23
0.0
 33
0.0
 16
1.0
 26
0.0
 36
0.0
 17
0.0
 27
1.0
 37
0.0
 76
     0
330
1B
  0
LAYOUT
  5
22
102
{ACAD_REACTORS
330
1A
102
}
330
1A
100
AcDbPlotSettings
  1

  2
none_device
  4

  6

 40
0.0
 41
0.0
 42
0.0
 43
0.0
 44
0.0
 45
0.0
 46
0.0
 47
0.0
 48
0.0
 49
0.0
140
0.0
141
0.0
142
1.0
143
1.0
 70
  1712
 72
     0
 73
     0
 74
     0
  7

 75
     0
147
1.0
148
0.0
149
0.0
100
AcDbLayout
  1
Model
 70
     1
 71
     0
 10
0.0
 20
0.0
 11
210.0
 21
297.0
 12
0.0
 22
0.0
 32
0.0
 14
0.0
 24
0.0
 34
0.0
 15
210.0
 25
297.0
 35
0.0
146
0.0
 13
0.0
 23
0.0
 33
0.0
 16
1.0
 26
0.0
 36
0.0
 17
0.0
 27
1.0
 37
0.0
 76
     0
330
1F
331
29
  0
MLINESTYLE
  5
18
102
{ACAD_REACTORS
330
17
102
}
330
17
100
AcDbMlineStyle
  2
Standard
 70
     0
  3

 62
   256
 51
90.0
 52
90.0
 71
     2
 49
0.5
 62
   256
  6
BYLAYER
 49
-0.5
 62
   256
  6
BYLAYER
  0
ACDBPLACEHOLDER
  5
F
102
{ACAD_REACTORS
330
E
102
}
330
E
  0
SCALE
  5
48
102
{ACAD_REACTORS
330
47
102
}
330
47
100
AcDbScale
 70
     0
300
1:1
140
1.0
141
1.0
290
     1
  0
SCALE
  5
49
102
{ACAD_REACTORS
330
47
102
}
330
47
100
AcDbScale
 70
     0
300
1:2
140
1.0
141
2.0
290
     0
  0
SCALE
  5
4A
102
{ACAD_REACTORS
330
47
102
}
330
47
100
AcDbScale
 70
     0
300
1:4
140
1.0
141
4.0
290
     0
  0
SCALE
  5
4B
102
{ACAD_REACTORS
330
47
102
}
330
47
100
AcDbScale
 70
     0
300
1:5
140
1.0
141
5.0
290
     0
  0
SCALE
  5
4C
102
{ACAD_REACTORS
330
47
102
}
330
47
100
AcDbScale
 70
     0
300
1:8
140
1.0
141
8.0
290
     0
  0
SCALE
  5
4D
102
{ACAD_REACTORS
330
47
102
}
330
47
100
AcDbScale
 70
     0
300
1:10
140
1.0
141
10.0
290
     0
  0
SCALE
  5
4E
102
{ACAD_REACTORS
330
47
102
}
330
47
100
AcDbScale
 70
     0
300
1:16
140
1.0
141
16.0
290
     0
  0
SCALE
  5
4F
102
{ACAD_REACTORS
330
47
102
}
330
47
100
AcDbScale
 70
     0
300
1:20
140
1.0
141
20.0
290
     0
  0
SCALE
  5
50
102
{ACAD_REACTORS
330
47
102
}
330
47
100
AcDbScale
 70
     0
300
1:30
140
1.0
141
30.0
290
     0
  0
SCALE
  5
51
102
{ACAD_REACTORS
330
47
102
}
330
47
100
AcDbScale
 70
     0
300
1:40
140
1.0
141
40.0
290
     0
  0
SCALE
  5
52
102
{ACAD_REACTORS
330
47
102
}
330
47
100
AcDbScale
 70
     0
300
1:50
140
1.0
141
50.0
290
     0
  0
SCALE
  5
53
102
{ACAD_REACTORS
330
47
102
}
330
47
100
AcDbScale
 70
     0
300
1:100
140
1.0
141
100.0
290
     0
  0
SCALE
  5
54
102
{ACAD_REACTORS
330
47
102
}
330
47
100
AcDbScale
 70
     0
300
2:1
140
2.0
141
1.0
290
     0
  0
SCALE
  5
55
102
{ACAD_REACTORS
330
47
102
}
330
47
100
AcDbScale
 70
     0
300
4:1
140
4.0
141
1.0
290
     0
  0
SCALE
  5
56
102
{ACAD_REACTORS
330
47
102
}
330
47
100
AcDbScale
 70
     0
300
8:1
140
8.0
141
1.0
290
     0
  0
SCALE
  5
57
102
{ACAD_REACTORS
330
47
102
}
330
47
100
AcDbScale
 70
     0
300
10:1
140
10.0
141
1.0
290
     0
  0
SCALE
  5
58
102
{ACAD_REACTORS
330
47
102
}
330
47
100
AcDbScale
 70
     0
300
100:1
140
100.0
141
1.0
290
     0
  0
SCALE
  5
59
102
{ACAD_REACTORS
330
47
102
}
330
47
100
AcDbScale
 70
     0
300
1/128" = 1'-0"
140
0.0078125
141
12.0
290
     0
  0
SCALE
  5
5A
102
{ACAD_REACTORS
330
47
102
}
330
47
100
AcDbScale
 70
     0
300
1/64" = 1'-0"
140
0.015625
141
12.0
290
     0
  0
SCALE
  5
5B
102
{ACAD_REACTORS
330
47
102
}
330
47
100
AcDbScale
 70
     0
300
1/32" = 1'-0"
140
0.03125
141
12.0
290
     0
  0
SCALE
  5
5C
102
{ACAD_REACTORS
330
47
102
}
330
47
100
AcDbScale
 70
     0
300
1/16" = 1'-0"
140
0.0625
141
12.0
290
     0
  0
SCALE
  5
5D
102
{ACAD_REACTORS
330
47
102
}
330
47
100
AcDbScale
 70
     0
300
3/32" = 1'-0"
140
0.09375
141
12.0
290
     0
  0
SCALE
  5
5E
102
{ACAD_REACTORS
330
47
102
}
330
47
100
AcDbScale
 70
     0
300
1/8" = 1'-0"
140
0.125
141
12.0
290
     0
  0
SCALE
  5
5F
102
{ACAD_REACTORS
330
47
102
}
330
47
100
AcDbScale
 70
     0
300
3/16" = 1'-0"
140
0.1875
141
12.0
290
     0
  0
SCALE
  5
60
102
{ACAD_REACTORS
330
47
102
}
330
47
100
AcDbScale
 70
     0
300
1/4" = 1'-0"
140
0.25
141
12.0
290
     0
  0
SCALE
  5
61
102
{ACAD_REACTORS
330
47
102
}
330
47
100
AcDbScale
 70
     0
300
3/8" = 1'-0"
140
0.375
141
12.0
290
     0
  0
SCALE
  5
62
102
{ACAD_REACTORS
330
47
102
}
330
47
100
AcDbScale
 70
     0
300
1/2" = 1'-0"
140
0.5
141
12.0
290
     0
  0
SCALE
  5
63
102
{ACAD_REACTORS
330
47
102
}
330
47
100
AcDbScale
 70
     0
300
3/4" = 1'-0"
140
0.75
141
12.0
290
     0
  0
SCALE
  5
64
102
{ACAD_REACTORS
330
47
102
}
330
47
100
AcDbScale
 70
     0
300
1" = 1'-0"
140
1.0
141
12.0
290
     0
  0
SCALE
  5
65
102
{ACAD_REACTORS
330
47
102
}
330
47
100
AcDbScale
 70
     0
300
1-1/2" = 1'-0"
140
1.5
141
12.0
290
     0
  0
SCALE
  5
66
102
{ACAD_REACTORS
330
47
102
}
330
47
100
AcDbScale
 70
     0
300
3" = 1'-0"
140
3.0
141
12.0
290
     0
  0
SCALE
  5
67
102
{ACAD_REACTORS
330
47
102
}
330
47
100
AcDbScale
 70
     0
300
6" = 1'-0"
140
6.0
141
12.0
290
     0
  0
SCALE
  5
68
102
{ACAD_REACTORS
330
47
102
}
330
47
100
AcDbScale
 70
     0
300
1'-0" = 1'-0"
140
12.0
141
12.0
290
     0
  0
VISUALSTYLE
  5
2F
102
{ACAD_REACTORS
330
2A
102
}
330
2A
100
AcDbVisualStyle
  2
2dWireframe
 70
     4
 71
     0
 72
     2
 73
     0
 90
        0
 40
-0.6
 41
-30.0
 62
     5
 63
     7
 74
     1
 91
        4
 64
     7
 65
   257
 75
     1
175
     1
 42
1.0
 92
        0
 66
   257
 43
1.0
 76
     1
 77
     6
 78
     2
 67
     7
 79
     5
170
     0
171
     0
290
     0
174
     0
 93
        1
 44
0.0
173
     0
291
     0
 45
0.0
1001
ACAD
1000
AcDbSavedByObjectVersion
1070
     0
  0
VISUALSTYLE
  5
31
102
{ACAD_REACTORS
330
2A
102
}
330
2A
100
AcDbVisualStyle
  2
3D Hidden
 70
     6
 71
     1
 72
     2
 73
     2
 90
        0
 40
-0.6
 41
-30.0
 62
     5
 63
     7
 74
     2
 91
        2
 64
     7
 65
   257
 75
     2
175
     1
 42
40.0
 92
        0
 66
   257
 43
1.0
 76
     1
 77
     6
 78
     2
 67
     7
 79
     3
170
     0
171
     0
290
     0
174
     0
 93
        1
 44
0.0
173
     0
291
     0
 45
0.0
1001
ACAD
1000
AcDbSavedByObjectVersion
1070
     0
  0
VISUALSTYLE
  5
30
102
{ACAD_REACTORS
330
2A
102
}
330
2A
100
AcDbVisualStyle
  2
3dWireframe
 70
     5
 71
     0
 72
     2
 73
     0
 90
        0
 40
-0.6
 41
-30.0
 62
     5
 63
     7
 74
     1
 91
        4
 64
     7
 65
   257
 75
     1
175
     1
 42
1.0
 92
        0
 66
   257
 43
1.0
 76
     1
 77
     6
 78
     2
 67
     7
 79
     5
170
     0
171
     0
290
     0
174
     0
 93
        1
 44
0.0
173
     0
291
     0
 45
0.0
1001
ACAD
1000
AcDbSavedByObjectVersion
1070
     0
  0
VISUALSTYLE
  5
32
102
{ACAD_REACTORS
330
2A
102
}
330
2A
100
AcDbVisualStyle
  2
Basic
 70
     7
 71
     1
 72
     0
 73
     1
 90
        0
 40
-0.6
 41
-30.0
 62
     5
 63
     7
 74
     0
 91
        4
 64
     7
 65
   257
 75
     1
175
     1
 42
1.0
 92
        8
 66
     7
 43
1.0
 76
     1
 77
     6
 78
     2
 67
     7
 79
     5
170
     0
171
     0
290
     0
174
     0
 93
        1
 44
0.0
173
     0
291
     1
 45
0.0
1001
ACAD
1000
AcDbSavedByObjectVersion
1070
     0
  0
VISUALSTYLE
  5
36
102
{ACAD_REACTORS
330
2A
102
}
330
2A
100
AcDbVisualStyle
  2
Brighten
 70
    12
 71
     2
 72
     2
 73
     0
 90
        0
 40
-0.6
 41
-30.0
 62
     5
 63
     7
 74
     1
 91
        4
 64
     7
 65
   257
 75
     1
175
     1
 42
1.0
 92
        8
 66
     7
 43
1.0
 76
     1
 77
     6
 78
     2
 67
     7
 79
     5
170
     0
171
     0
290
     0
174
     0
 93
        1
 44
50.0
173
     0
291
     1
 45
0.0
1001
ACAD
1000
AcDbSavedByObjectVersion
1070
     0
  0
VISUALSTYLE
  5
3A
102
{ACAD_REACTORS
330
2A
102
}
330
2A
100
AcDbVisualStyle
  2
ColorChange
 70
    16
 71
     2
 72
     2
 73
     3
 90
        0
 40
-0.6
 41
-30.0
 62
     5
 63
     8
 74
     1
 91
        4
 64
     7
 65
   257
 75
     1
175
     1
 42
1.0
 92
        8
 66
     8
 43
1.0
 76
     1
 77
     6
 78
     2
 67
     7
 79
     5
170
     0
171
     0
290
     0
174
     0
 93
        1
 44
0.0
173
     0
291
     1
 45
0.0
1001
ACAD
1000
AcDbSavedByObjectVersion
1070
     0
  0
VISUALSTYLE
  5
34
102
{ACAD_REACTORS
330
2A
102
}
330
2A
100
AcDbVisualStyle
  2
Conceptual
 70
     9
 71
     3
 72
     2
 73
     0
 90
        0
 40
-0.6
 41
-30.0
 62
     5
 63
     7
 74
     2
 91
        2
 64
     7
 65
   257
 75
     1
175
     1
 42
40.0
 92
        8
 66
     7
 43
1.0
 76
     1
 77
     6
 78
     2
 67
     7
 79
     3
170
     0
171
     0
290
     0
174
     0
 93
        1
 44
0.0
173
     0
291
     0
 45
0.0
1001
ACAD
1000
AcDbSavedByObjectVersion
1070
     0
  0
VISUALSTYLE
  5
35
102
{ACAD_REACTORS
330
2A
102
}
330
2A
100
AcDbVisualStyle
  2
Dim
 70
    11
 71
     2
 72
     2
 73
     0
 90
        0
 40
-0.6
 41
-30.0
 62
     5
 63
     7
 74
     1
 91
        4
 64
     7
 65
   257
 75
     1
175
     1
 42
1.0
 92
        8
 66
     7
 43
1.0
 76
     1
 77
     6
 78
     2
 67
     7
 79
     5
170
     0
171
     0
290
     0
174
     0
 93
        1
 44
-50.0
173
     0
291
     1
 45
0.0
1001
ACAD
1000
AcDbSavedByObjectVersion
1070
     0
  0
VISUALSTYLE
  5
39
102
{ACAD_REACTORS
330
2A
102
}
330
2A
100
AcDbVisualStyle
  2
Facepattern
 70
    15
 71
     2
 72
     2
 73
     0
 90
        0
 40
-0.6
 41
-30.0
 62
     5
 63
     7
 74
     1
 91
        4
 64
     7
 65
   257
 75
     1
175
     1
 42
1.0
 92
        8
 66
     7
 43
1.0
 76
     1
 77
     6
 78
     2
 67
     7
 79
     5
170
     0
171
     0
290
     0
174
     0
 93
        1
 44
0.0
173
     0
291
     1
 45
0.0
1001
ACAD
1000
AcDbSavedByObjectVersion
1070
     0
  0
VISUALSTYLE
  5
2B
102
{ACAD_REACTORS
330
2A
102
}
330
2A
100
AcDbVisualStyle
  2
Flat
 70
     0
 71
     2
 72
     1
 73
     1
 90
        2
 40
-0.6
 41
30.0
 62
     5
 63
     7
 74
     0
 91
        4
 64
     7
 65
   257
 75
     1
175
     1
 42
1.0
 92
        8
 66
     7
 43
1.0
 76
     1
 77
     6
 78
     2
 67
     7
 79
     5
170
     0
171
     0
290
     0
174
     0
 93
       13
 44
0.0
173
     0
291
     1
 45
0.0
1001
ACAD
1000
AcDbSavedByObjectVersion
1070
     0
  0
VISUALSTYLE
  5
2C
102
{ACAD_REACTORS
330
2A
102
}
330
2A
100
AcDbVisualStyle
  2
FlatWithEdges
 70
     1
 71
     2
 72
     1
 73
     1
 90
        2
 40
-0.6
 41
30.0
 62
     5
 63
     7
 74
     1
 91
        4
 64
     7
 65
   257
 75
     1
175
     1
 42
1.0
 92
        0
 66
   257
 43
1.0
 76
     1
 77
     6
 78
     2
 67
     7
 79
     5
170
     0
171
     0
290
     0
174
     0
 93
       13
 44
0.0
173
     0
291
     1
 45
0.0
1001
ACAD
1000
AcDbSavedByObjectVersion
1070
     0
  0
VISUALSTYLE
  5
2D
102
{ACAD_REACTORS
330
2A
102
}
330
2A
100
AcDbVisualStyle
  2
Gouraud
 70
     2
 71
     2
 72
     2
 73
     1
 90
        2
 40
-0.6
 41
30.0
 62
     5
 63
     7
 74
     0
 91
        4
 64
     7
 65
   257
 75
     1
175
     1
 42
1.0
 92
        0
 66
     7
 43
1.0
 76
     1
 77
     6
 78
     2
 67
     7
 79
     5
170
     0
171
     0
290
     0
174
     0
 93
       13
 44
0.0
173
     0
291
     1
 45
0.0
1001
ACAD
1000
AcDbSavedByObjectVersion
1070
     0
  0
VISUALSTYLE
  5
2E
102
{ACAD_REACTORS
330
2A
102
}
330
2A
100
AcDbVisualStyle
  2
GouraudWithEdges
 70
     3
 71
     2
 72
     2
 73
     1
 90
        2
 40
-0.6
 41
30.0
 62
     5
 63
     7
 74
     1
 91
        4
 64
     7
 65
   257
 75
     1
175
     1
 42
1.0
 92
        0
 66
   257
 43
1.0
 76
     1
 77
     6
 78
     2
 67
     7
 79
     5
170
     0
171
     0
290
     0
174
     0
 93
       13
 44
0.0
173
     0
291
     1
 45
0.0
1001
ACAD
1000
AcDbSavedByObjectVersion
1070
     0
  0
VISUALSTYLE
  5
38
102
{ACAD_REACTORS
330
2A
102
}
330
2A
100
AcDbVisualStyle
  2
Linepattern
 70
    14
 71
     2
 72
     2
 73
     0
 90
        0
 40
-0.6
 41
-30.0
 62
     5
 63
     7
 74
     1
 91
        4
 64
     7
 65
   257
 75
     7
175
     7
 42
1.0
 92
        8
 66
     7
 43
1.0
 76
     1
 77
     6
 78
     2
 67
     7
 79
     5
170
     0
171
     0
290
     0
174
     0
 93
        1
 44
0.0
173
     0
291
     1
 45
0.0
1001
ACAD
1000
AcDbSavedByObjectVersion
1070
     0
  0
VISUALSTYLE
  5
33
102
{ACAD_REACTORS
330
2A
102
}
330
2A
100
AcDbVisualStyle
  2
Realistic
 70
     8
 71
     2
 72
     2
 73
     0
 90
        0
 40
-0.6
 41
-30.0
 62
     5
 63
     7
 74
     1
 91
        0
 64
     7
 65
   257
 75
     1
175
     1
 42
1.0
 92
        8
 66
     8
 43
1.0
 76
     1
 77
     6
 78
     2
 67
     7
 79
     5
170
     0
171
     0
290
     0
174
     0
 93
       13
 44
0.0
173
     0
291
     0
 45
0.0
1001
ACAD
1000
AcDbSavedByObjectVersion
1070
     0
  0
VISUALSTYLE
  5
37
102
{ACAD_REACTORS
330
2A
102
}
330
2A
100
AcDbVisualStyle
  2
Thicken
 70
    13
 71
     2
 72
     2
 73
     0
 90
        0
 40
-0.6
 41
-30.0
 62
     5
 63
     7
 74
     1
 91
        4
 64
     7
 65
   257
 75
     1
175
     1
 42
1.0
 92
       12
 66
     7
 43
1.0
 76
     1
 77
     6
 78
     2
 67
     7
 79
     5
170
     0
171
     0
290
     0
174
     0
 93
        1
 44
0.0
173
     0
291
     1
 45
0.0
1001
ACAD
1000
AcDbSavedByObjectVersion
1070
     0
  0
DICTIONARYVAR
  5
FE
102
{ACAD_REACTORS
330
F9
102
}
330
F9
100
DictionaryVariables
280
     0
  1
1:1
  0
DICTIONARYVAR
  5
FD
102
{ACAD_REACTORS
330
F9
102
}
330
F9
100
DictionaryVariables
280
     0
  1
80.000000
  0
DICTIONARYVAR
  5
FC
102
{ACAD_REACTORS
330
F9
102
}
330
F9
100
DictionaryVariables
280
     0
  1
5.000000
  0
ENDSEC
  0
EOF
