  0
SECTION
  2
HEADER
  9
$ACADVER
  1
AC1014
  9
$ACADMAINTVER
 70
     9
  9
$DWGCODEPAGE
  3
ANSI_1252
  9
$INSBASE
 10
0.0
 20
0.0
 30
0.0
  9
$EXTMIN
 10
0.0
 20
0.0
 30
0.0
  9
$EXTMAX
 10
841.0
 20
594.0
 30
0.0
  9
$LIMMIN
 10
0.0
 20
0.0
  9
$LIMMAX
 10
841.0
 20
594.0
  9
$ORTHOMODE
 70
     0
  9
$REGENMODE
 70
     1
  9
$FILLMODE
 70
     1
  9
$QTEXTMODE
 70
     0
  9
$MIRRTEXT
 70
     1
  9
$DRAGMODE
 70
     2
  9
$LTSCALE
 40
1.0
  9
$OSMODE
 70
    37
  9
$ATTMODE
 70
     1
  9
$TEXTSIZE
 40
3.5
  9
$TRACEWID
 40
1.0
  9
$TEXTSTYLE
  7
STANDARD
  9
$CLAYER
  8
0
  9
$CELTYPE
  6
BYLAYER
  9
$CECOLOR
 62
   256
  9
$CELTSCALE
 40
1.0
  9
$DELOBJ
 70
     1
  9
$DISPSILH
 70
     0
  9
$DIMSCALE
 40
1.0
  9
$DIMASZ
 40
3.302
  9
$DIMEXO
 40
1.0
  9
$DIMDLI
 40
3.75
  9
$DIMRND
 40
0.0
  9
$DIMDLE
 40
0.0
  9
$DIMEXE
 40
1.0
  9
$DIMTP
 40
0.0
  9
$DIMTM
 40
0.0
  9
$DIMTXT
 40
3.5
  9
$DIMCEN
 40
2.5
  9
$DIMTSZ
 40
0.0
  9
$DIMTOL
 70
     0
  9
$DIMLIM
 70
     0
  9
$DIMTIH
 70
     1
  9
$DIMTOH
 70
     1
  9
$DIMSE1
 70
     0
  9
$DIMSE2
 70
     0
  9
$DIMTAD
 70
     1
  9
$DIMZIN
 70
     0
  9
$DIMBLK
  1

  9
$DIMASO
 70
     1
  9
$DIMSHO
 70
     1
  9
$DIMPOST
  1

  9
$DIMAPOST
  1

  9
$DIMALT
 70
     0
  9
$DIMALTD
 70
     3
  9
$DIMALTF
 40
0.0393700787
  9
$DIMLFAC
 40
1.0
  9
$DIMTOFL
 70
     1
  9
$DIMTVP
 40
0.0
  9
$DIMTIX
 70
     0
  9
$DIMSOXD
 70
     0
  9
$DIMSAH
 70
     0
  9
$DIMBLK1
  1

  9
$DIMBLK2
  1

  9
$DIMSTYLE
  2
ISO-25
  9
$DIMCLRD
 70
     0
  9
$DIMCLRE
 70
     0
  9
$DIMCLRT
 70
     0
  9
$DIMTFAC
 40
1.0
  9
$DIMGAP
 40
1.524
  9
$DIMJUST
 70
     0
  9
$DIMSD1
 70
     0
  9
$DIMSD2
 70
     0
  9
$DIMTOLJ
 70
     0
  9
$DIMTZIN
 70
     0
  9
$DIMALTZ
 70
     0
  9
$DIMALTTZ
 70
     0
  9
$DIMFIT
 70
     3
  9
$DIMUPT
 70
     0
  9
$DIMUNIT
 70
     2
  9
$DIMDEC
 70
     2
  9
$DIMTDEC
 70
     1
  9
$DIMALTU
 70
     2
  9
$DIMALTTD
 70
     3
  9
$DIMTXSTY
  7
STANDARD
  9
$DIMAUNIT
 70
     0
  9
$LUNITS
 70
     2
  9
$LUPREC
 70
     2
  9
$SKETCHINC
 40
1.0
  9
$FILLETRAD
 40
10.0
  9
$AUNITS
 70
     0
  9
$AUPREC
 70
     2
  9
$MENU
  1
.
  9
$ELEVATION
 40
0.0
  9
$PELEVATION
 40
0.0
  9
$THICKNESS
 40
0.0
  9
$LIMCHECK
 70
     0
  9
$CHAMFERA
 40
0.0
  9
$CHAMFERB
 40
0.0
  9
$CHAMFERC
 40
0.0
  9
$CHAMFERD
 40
0.0
  9
$SKPOLY
 70
     0
  9
$TDCREATE
 40
2457926.402033102
  9
$TDUPDATE
 40
2457926.402035798
  9
$TDINDWG
 40
0.0000000116
  9
$TDUSRTIMER
 40
0.0000000116
  9
$USRTIMER
 70
     1
  9
$ANGBASE
 50
0.0
  9
$ANGDIR
 70
     0
  9
$PDMODE
 70
     0
  9
$PDSIZE
 40
-1.0
  9
$PLINEWID
 40
0.0
  9
$COORDS
 70
     1
  9
$SPLFRAME
 70
     0
  9
$SPLINETYPE
 70
     6
  9
$SPLINESEGS
 70
     8
  9
$ATTDIA
 70
     0
  9
$ATTREQ
 70
     1
  9
$HANDLING
 70
     1
  9
$HANDSEED
  5
2BC
  9
$SURFTAB1
 70
     6
  9
$SURFTAB2
 70
     6
  9
$SURFTYPE
 70
     6
  9
$SURFU
 70
     6
  9
$SURFV
 70
     6
  9
$UCSNAME
  2

  9
$UCSORG
 10
0.0
 20
0.0
 30
0.0
  9
$UCSXDIR
 10
1.0
 20
0.0
 30
0.0
  9
$UCSYDIR
 10
0.0
 20
1.0
 30
0.0
  9
$PUCSNAME
  2

  9
$PUCSORG
 10
0.0
 20
0.0
 30
0.0
  9
$PUCSXDIR
 10
1.0
 20
0.0
 30
0.0
  9
$PUCSYDIR
 10
0.0
 20
1.0
 30
0.0
  9
$USERI1
 70
     0
  9
$USERI2
 70
     0
  9
$USERI3
 70
     0
  9
$USERI4
 70
     0
  9
$USERI5
 70
     0
  9
$USERR1
 40
0.0
  9
$USERR2
 40
0.0
  9
$USERR3
 40
0.0
  9
$USERR4
 40
0.0
  9
$USERR5
 40
0.0
  9
$WORLDVIEW
 70
     1
  9
$SHADEDGE
 70
     3
  9
$SHADEDIF
 70
    70
  9
$TILEMODE
 70
     1
  9
$MAXACTVP
 70
    64
  9
$PINSBASE
 10
0.0
 20
0.0
 30
0.0
  9
$PLIMCHECK
 70
     0
  9
$PEXTMIN
 10
1.0000000000E+20
 20
1.0000000000E+20
 30
1.0000000000E+20
  9
$PEXTMAX
 10
-1.0000000000E+20
 20
-1.0000000000E+20
 30
-1.0000000000E+20
  9
$PLIMMIN
 10
0.0
 20
0.0
  9
$PLIMMAX
 10
420.0
 20
297.0
  9
$UNITMODE
 70
     0
  9
$VISRETAIN
 70
     1
  9
$PLINEGEN
 70
     0
  9
$PSLTSCALE
 70
     1
  9
$TREEDEPTH
 70
  3020
  9
$PICKSTYLE
 70
     1
  9
$CMLSTYLE
  2
STANDARD
  9
$CMLJUST
 70
     0
  9
$CMLSCALE
 40
20.0
  9
$PROXYGRAPHICS
 70
     1
  9
$MEASUREMENT
 70
     1
  0
ENDSEC
  0
SECTION
  2
CLASSES
  0
CLASS
  1
ACDBDICTIONARYWDFLT
  2
AcDbDictionaryWithDefault
  3
ObjectDBX Classes
 90
        0
280
     0
281
     0
  0
CLASS
  1
VISUALSTYLE
  2
AcDbVisualStyle
  3
ObjectDBX Classes
 90
     4095
280
     0
281
     0
  0
CLASS
  1
MATERIAL
  2
AcDbMaterial
  3
ObjectDBX Classes
 90
     1153
280
     0
281
     0
  0
CLASS
  1
SCALE
  2
AcDbScale
  3
ObjectDBX Classes
 90
     1153
280
     0
281
     0
  0
CLASS
  1
TABLESTYLE
  2
AcDbTableStyle
  3
ObjectDBX Classes
 90
     4095
280
     0
281
     0
  0
CLASS
  1
MLEADERSTYLE
  2
AcDbMLeaderStyle
  3
ACDB_MLEADERSTYLE_CLASS
 90
     4095
280
     0
281
     0
  0
CLASS
  1
SUN
  2
AcDbSun
  3
SCENEOE
 90
     1153
280
     0
281
     0
  0
CLASS
  1
XRECORD
  2
AcDbXrecord
  3
ObjectDBX Classes
 90
        0
280
     0
281
     0
  0
CLASS
  1
LWPOLYLINE
  2
AcDbPolyline
  3
ObjectDBX Classes
 90
        0
280
     0
281
     1
  0
CLASS
  1
HATCH
  2
AcDbHatch
  3
ObjectDBX Classes
 90
        0
280
     0
281
     1
  0
ENDSEC
  0
SECTION
  2
TABLES
  0
TABLE
  2
VPORT
  5
8
330
0
100
AcDbSymbolTable
 70
     1
  0
VPORT
  5
29
330
8
100
AcDbSymbolTableRecord
100
AcDbViewportTableRecord
  2
*ACTIVE
 70
     0
 10
0.0
 20
0.0
 11
1.0
 21
1.0
 12
420.5
 22
297.0
 13
0.0
 23
0.0
 14
10.0
 24
10.0
 15
10.0
 25
10.0
 16
0.0
 26
0.0
 36
1.0
 17
0.0
 27
0.0
 37
0.0
 40
594.0
 41
1.4158249158
 42
50.0
 43
0.0
 44
0.0
 50
0.0
 51
0.0
 71
     0
 72
  2000
 73
     1
 74
     3
 75
     0
 76
     0
 77
     0
 78
     0
  0
ENDTAB
  0
TABLE
  2
LTYPE
  5
5
330
0
100
AcDbSymbolTable
 70
     6
  0
LTYPE
  5
14
330
5
100
AcDbSymbolTableRecord
100
AcDbLinetypeTableRecord
  2
BYBLOCK
 70
     0
  3

 72
    65
 73
     0
 40
0.0
  0
LTYPE
  5
15
330
5
100
AcDbSymbolTableRecord
100
AcDbLinetypeTableRecord
  2
BYLAYER
 70
     0
  3

 72
    65
 73
     0
 40
0.0
  0
LTYPE
  5
16
330
5
100
AcDbSymbolTableRecord
100
AcDbLinetypeTableRecord
  2
CONTINUOUS
 70
     0
  3
Solid line
 72
    65
 73
     0
 40
0.0
  0
LTYPE
  5
6E
330
5
100
AcDbSymbolTableRecord
100
AcDbLinetypeTableRecord
  2
HIDDEN
 70
     0
  3
Hidden __ __ __ __ __ __ __ __ __ __ __ __ __ __
 72
    65
 73
     2
 40
1.905
 49
1.27
 74
     0
 49
-0.635
 74
     0
  0
LTYPE
  5
6F
330
5
100
AcDbSymbolTableRecord
100
AcDbLinetypeTableRecord
  2
PHANTOM
 70
     0
  3
Phantom ______  __  __  ______  __  __  ______
 72
    65
 73
     6
 40
12.7
 49
6.35
 74
     0
 49
-1.27
 74
     0
 49
1.27
 74
     0
 49
-1.27
 74
     0
 49
1.27
 74
     0
 49
-1.27
 74
     0
  0
LTYPE
  5
70
330
5
100
AcDbSymbolTableRecord
100
AcDbLinetypeTableRecord
  2
CENTER
 70
     0
  3
Center ____ _ ____ _ ____ _ ____ _ ____ _ ____
 72
    65
 73
     4
 40
10.16
 49
6.35
 74
     0
 49
-1.27
 74
     0
 49
1.27
 74
     0
 49
-1.27
 74
     0
  0
LTYPE
  5
71
330
5
100
AcDbSymbolTableRecord
100
AcDbLinetypeTableRecord
  2
CENTERX2
 70
     0
  3
Center (2x) ________  __  ________  __  _____
 72
    65
 73
     4
 40
20.32
 49
12.7
 74
     0
 49
-2.54
 74
     0
 49
2.54
 74
     0
 49
-2.54
 74
     0
  0
LTYPE
  5
72
330
5
100
AcDbSymbolTableRecord
100
AcDbLinetypeTableRecord
  2
DOT2
 70
     0
  3
Dot (.5x) ........................................
 72
    65
 73
     2
 40
0.635
 49
0.0
 74
     0
 49
-0.635
 74
     0
  0
ENDTAB
  0
TABLE
  2
LAYER
  5
2
330
0
100
AcDbSymbolTable
 70
     2
  0
LAYER
  5
10
330
2
100
AcDbSymbolTableRecord
100
AcDbLayerTableRecord
  2
0
 70
     0
 62
     7
  6
CONTINUOUS
  0
LAYER
  5
73
330
2
100
AcDbSymbolTableRecord
100
AcDbLayerTableRecord
  2
SLD-DEFPOINTS
 70
     0
 62
     7
  6
CONTINUOUS
  0
ENDTAB
  0
TABLE
  2
STYLE
  5
3
330
0
100
AcDbSymbolTable
 70
     5
  0
STYLE
  5
11
330
3
100
AcDbSymbolTableRecord
100
AcDbTextStyleTableRecord
  2
STANDARD
 70
     0
 40
0.0
 41
1.0
 50
0.0
 71
     0
 42
3.5
  3
txt
  4

  0
STYLE
  5
D5
330
3
100
AcDbSymbolTableRecord
100
AcDbTextStyleTableRecord
  2
SLDTEXTSTYLE0
 70
     0
 40
0.0
 41
0.605
 50
0.0
 71
     0
 42
3.5
  3
TXT
  4

  0
STYLE
  5
F7
330
3
100
AcDbSymbolTableRecord
100
AcDbTextStyleTableRecord
  2
SLDTEXTSTYLE1
 70
     0
 40
0.0
 41
0.75
 50
0.0
 71
     0
 42
3.5
  3
TXT
  4

  0
STYLE
  5
114
330
3
100
AcDbSymbolTableRecord
100
AcDbTextStyleTableRecord
  2
SLDTEXTSTYLE2
 70
     0
 40
0.0
 41
0.638185654
 50
0.0
 71
     0
 42
3.5
  3
TXT
  4

  0
STYLE
  5
12F
330
3
100
AcDbSymbolTableRecord
100
AcDbTextStyleTableRecord
  2
SLDTEXTSTYLE3
 70
     0
 40
0.0
 41
0.7
 50
0.0
 71
     0
 42
3.5
  3
TXT
  4

  0
ENDTAB
  0
TABLE
  2
VIEW
  5
6
330
0
100
AcDbSymbolTable
 70
     0
  0
ENDTAB
  0
TABLE
  2
UCS
  5
7
330
0
100
AcDbSymbolTable
 70
     0
  0
ENDTAB
  0
TABLE
  2
APPID
  5
9
330
0
100
AcDbSymbolTable
 70
     1
  0
APPID
  5
12
330
9
100
AcDbSymbolTableRecord
100
AcDbRegAppTableRecord
  2
ACAD
 70
     0
  0
ENDTAB
  0
TABLE
  2
DIMSTYLE
  5
A
330
0
100
AcDbSymbolTable
 70
     4
  0
DIMSTYLE
105
27
330
A
100
AcDbSymbolTableRecord
100
AcDbDimStyleTableRecord
  2
ISO-25
 70
     0
  3

  4

  5

  6

  7

 40
1.0
 41
2.5
 42
0.625
 43
3.75
 44
1.25
 45
0.0
 46
0.0
 47
0.0
 48
0.0
140
2.5
141
2.5
142
0.0
143
0.0393700787
144
1.0
145
0.0
146
1.0
147
0.625
 71
     0
 72
     0
 73
     0
 74
     0
 75
     0
 76
     0
 77
     1
 78
     8
170
     0
171
     3
172
     1
173
     0
174
     0
175
     0
176
     0
177
     0
178
     0
270
     2
271
     2
272
     2
273
     2
274
     3
340
11
275
     0
280
     0
281
     0
282
     0
283
     0
284
     8
285
     0
286
     0
287
     3
288
     0
  0
DIMSTYLE
105
17D
102
{ACAD_REACTORS
330
17C
330
1F7
102
}
330
A
100
AcDbSymbolTableRecord
100
AcDbDimStyleTableRecord
  2
SLDDIMSTYLE0
 70
     0
  3

  4

  5

  6

  7

 40
1.0
 41
3.302
 42
0.0625
 43
0.38
 44
0.0
 45
0.000000001
 46
0.0
 47
0.0
 48
0.0
140
3.5
141
0.09
142
0.0
143
25.4
144
1.0
145
0.0
146
1.0
147
0.875
 71
     0
 72
     0
 73
     0
 74
     0
 75
     0
 76
     0
 77
     1
 78
    12
170
     0
171
     2
172
     1
173
     1
174
     0
175
     0
176
     0
177
     0
178
     0
270
     2
271
     2
272
     1
273
     2
274
     2
340
D5
275
     0
280
     0
281
     0
282
     0
283
     1
284
    12
285
     0
286
     0
288
     0
  0
DIMSTYLE
105
1E1
102
{ACAD_REACTORS
330
1E0
330
203
330
218
102
}
330
A
100
AcDbSymbolTableRecord
100
AcDbDimStyleTableRecord
  2
SLDDIMSTYLE1
 70
     0
  3

  4

  5

  6

  7

 40
1.0
 41
3.302
 42
0.0625
 43
0.38
 44
0.0
 45
0.000000001
 46
0.0
 47
0.0
 48
0.0
140
3.5
141
0.09
142
0.0
143
25.4
144
1.0
145
0.0
146
1.0
147
0.875
 71
     0
 72
     0
 73
     0
 74
     0
 75
     0
 76
     0
 77
     1
 78
    12
170
     0
171
     2
172
     0
173
     1
174
     0
175
     0
176
     0
177
     0
178
     0
270
     2
271
     2
272
     1
273
     2
274
     2
340
D5
275
     0
280
     0
281
     0
282
     0
283
     1
284
    12
285
     0
286
     0
287
     3
288
     0
  0
DIMSTYLE
105
1EC
102
{ACAD_REACTORS
330
1EB
330
20D
102
}
330
A
100
AcDbSymbolTableRecord
100
AcDbDimStyleTableRecord
  2
SLDDIMSTYLE2
 70
     0
  3

  4

  5

  6

  7

 40
1.0
 41
3.302
 42
0.0625
 43
0.38
 44
0.0
 45
0.000000001
 46
0.0
 47
0.0
 48
0.0
140
3.5
141
0.0
142
0.0
143
25.4
144
1.0
145
0.0
146
1.0
147
0.875
 71
     0
 72
     0
 73
     0
 74
     0
 75
     0
 76
     0
 77
     1
 78
    12
170
     0
171
     2
172
     1
173
     1
174
     0
175
     0
176
     0
177
     0
178
     0
270
     2
271
     2
272
     1
273
     2
274
     2
340
D5
275
     0
280
     0
281
     0
282
     0
283
     1
284
    12
285
     0
286
     0
287
     3
288
     0
  0
ENDTAB
  0
TABLE
  2
BLOCK_RECORD
  5
1
330
0
100
AcDbSymbolTable
 70
    10
  0
BLOCK_RECORD
  5
1F
330
1
100
AcDbSymbolTableRecord
100
AcDbBlockTableRecord
  2
*MODEL_SPACE
  0
BLOCK_RECORD
  5
1B
330
1
100
AcDbSymbolTableRecord
100
AcDbBlockTableRecord
  2
*PAPER_SPACE
  0
BLOCK_RECORD
  5
23
330
1
100
AcDbSymbolTableRecord
100
AcDbBlockTableRecord
  2
*PAPER_SPACE0
  0
BLOCK_RECORD
  5
116
330
1
100
AcDbSymbolTableRecord
100
AcDbBlockTableRecord
  2
SW_NOTE_0
  0
BLOCK_RECORD
  5
12C
330
1
100
AcDbSymbolTableRecord
100
AcDbBlockTableRecord
  2
SW_NOTE_1
  0
BLOCK_RECORD
  5
17E
330
1
100
AcDbSymbolTableRecord
100
AcDbBlockTableRecord
  2
_D
  0
BLOCK_RECORD
  5
1E2
330
1
100
AcDbSymbolTableRecord
100
AcDbBlockTableRecord
  2
_D_1
  0
BLOCK_RECORD
  5
1ED
330
1
100
AcDbSymbolTableRecord
100
AcDbBlockTableRecord
  2
_D_2
  0
BLOCK_RECORD
  5
1F8
330
1
100
AcDbSymbolTableRecord
100
AcDbBlockTableRecord
  2
_D_3
  0
BLOCK_RECORD
  5
204
330
1
100
AcDbSymbolTableRecord
100
AcDbBlockTableRecord
  2
_D_4
  0
BLOCK_RECORD
  5
20E
330
1
100
AcDbSymbolTableRecord
100
AcDbBlockTableRecord
  2
_D_5
  0
BLOCK_RECORD
  5
219
330
1
100
AcDbSymbolTableRecord
100
AcDbBlockTableRecord
  2
_D_6
  0
ENDTAB
  0
ENDSEC
  0
SECTION
  2
BLOCKS
  0
BLOCK
  5
20
330
1F
100
AcDbEntity
  8
0
100
AcDbBlockBegin
  2
*MODEL_SPACE
 70
     0
 10
0.0
 20
0.0
 30
0.0
  3
*MODEL_SPACE
  1

  0
ENDBLK
  5
21
330
1F
100
AcDbEntity
  8
0
100
AcDbBlockEnd
  0
BLOCK
  5
1C
330
1B
100
AcDbEntity
 67
     1
  8
0
100
AcDbBlockBegin
  2
*PAPER_SPACE
 70
     0
 10
0.0
 20
0.0
 30
0.0
  3
*PAPER_SPACE
  1

  0
ENDBLK
  5
1D
330
1B
100
AcDbEntity
 67
     1
  8
0
100
AcDbBlockEnd
  0
BLOCK
  5
24
330
23
100
AcDbEntity
  8
0
100
AcDbBlockBegin
  2
*PAPER_SPACE0
 70
     0
 10
0.0
 20
0.0
 30
0.0
  3
*PAPER_SPACE0
  1

  0
ENDBLK
  5
25
330
23
100
AcDbEntity
  8
0
100
AcDbBlockEnd
  0
BLOCK
  5
117
330
116
100
AcDbEntity
  8
0
100
AcDbBlockBegin
  2
SW_NOTE_0
 70
     0
 10
0.0
 20
0.0
 30
0.0
  3
SW_NOTE_0
  1

  0
MTEXT
  5
119
330
116
100
AcDbEntity
  8
0
  6
CONTINUOUS
 62
     0
100
AcDbMText
 10
0.0
 20
2.5781354795
 30
0.0
 40
2.0
 41
0.0
 71
     1
 72
     1
  1
For this document and the therein represented items we reserve all rights.
  7
SLDTEXTSTYLE1
  0
MTEXT
  5
11A
330
116
100
AcDbEntity
  8
0
  6
CONTINUOUS
 62
     0
100
AcDbMText
 10
0.0
 20
-0.4218645465
 30
0.0
 40
2.0
 41
0.0
 71
     1
 72
     1
  1
Without our explicit consent the reproduction, the disclosure to third party
  7
SLDTEXTSTYLE1
  0
MTEXT
  5
11B
330
116
100
AcDbEntity
  8
0
  6
CONTINUOUS
 62
     0
100
AcDbMText
 10
0.0
 20
-3.4218645726
 30
0.0
 40
2.0
 41
0.0
 71
     1
 72
     1
  1
or the utilization of its content is prohibited.
  7
SLDTEXTSTYLE1
  0
ENDBLK
  5
118
330
116
100
AcDbEntity
  8
0
100
AcDbBlockEnd
  0
BLOCK
  5
12D
330
12C
100
AcDbEntity
  8
0
100
AcDbBlockBegin
  2
SW_NOTE_1
 70
     0
 10
0.0
 20
0.0
 30
0.0
  3
SW_NOTE_1
  1

  0
MTEXT
  5
130
330
12C
100
AcDbEntity
  8
0
  6
CONTINUOUS
 62
     0
100
AcDbMText
 10
20.8938151042
 20
4.7749217527
 30
0.0
 40
3.7041666667
 41
0.0
 71
     2
 72
     1
  1
zangerl mechanik
  7
SLDTEXTSTYLE3
  0
MTEXT
  5
131
330
12C
100
AcDbEntity
  8
0
  6
CONTINUOUS
 62
     0
100
AcDbMText
 10
21.0645412713
 20
-1.105407512
 30
0.0
 40
2.38125
 41
0.0
 71
     2
 72
     1
  1
Degersheimerstrasse 3808
  7
SLDTEXTSTYLE3
  0
MTEXT
  5
132
330
12C
100
AcDbEntity
  8
0
  6
CONTINUOUS
 62
     0
100
AcDbMText
 10
21.5289396435
 20
-5.2804074047
 30
0.0
 40
2.38125
 41
0.0
 71
     2
 72
     1
  1
CH-9112 Schachen b. Herisau
  7
SLDTEXTSTYLE3
  0
ENDBLK
  5
12E
330
12C
100
AcDbEntity
  8
0
100
AcDbBlockEnd
  0
BLOCK
  5
17F
330
17E
100
AcDbEntity
  8
0
100
AcDbBlockBegin
  2
_D
 70
     0
 10
0.0
 20
0.0
 30
0.0
  3
_D
  1

  0
SOLID
  5
181
330
17E
100
AcDbEntity
  8
0
  6
CONTINUOUS
 62
   161
100
AcDbTrace
 10
124.4264131305
 20
304.8790552442
 30
0.0
 11
127.7284131305
 21
304.3710552442
 31
0.0
 12
127.7284131305
 22
305.3870552442
 32
0.0
 13
127.7284131305
 23
305.3870552442
 33
0.0
  0
SOLID
  5
182
330
17E
100
AcDbEntity
  8
0
  6
CONTINUOUS
 62
   161
100
AcDbTrace
 10
121.9264131305
 20
304.8790552442
 30
0.0
 11
118.6244131305
 21
305.3870552442
 31
0.0
 12
118.6244131305
 22
304.3710552442
 32
0.0
 13
118.6244131305
 23
304.3710552442
 33
0.0
  0
LINE
  5
183
330
17E
100
AcDbEntity
  8
0
  6
CONTINUOUS
 62
   161
100
AcDbLine
 10
124.4264131305
 20
316.8790552442
 30
0.0
 11
124.4264131305
 21
303.8790552442
 31
0.0
  0
LINE
  5
184
330
17E
100
AcDbEntity
  8
0
  6
CONTINUOUS
 62
   161
100
AcDbLine
 10
121.9264131305
 20
381.8790552442
 30
0.0
 11
121.9264131305
 21
303.8790552442
 31
0.0
  0
LINE
  5
185
330
17E
100
AcDbEntity
  8
0
  6
CONTINUOUS
 62
   161
100
AcDbLine
 10
124.4264131305
 20
304.8790552442
 30
0.0
 11
130.7764131305
 21
304.8790552442
 31
0.0
  0
LINE
  5
186
330
17E
100
AcDbEntity
  8
0
  6
CONTINUOUS
 62
   161
100
AcDbLine
 10
124.4264131305
 20
304.8790552442
 30
0.0
 11
121.9264131305
 21
304.8790552442
 31
0.0
  0
LINE
  5
187
330
17E
100
AcDbEntity
  8
0
  6
CONTINUOUS
 62
   161
100
AcDbLine
 10
121.9264131305
 20
304.8790552442
 30
0.0
 11
97.247593802
 21
304.8790552442
 31
0.0
  0
MTEXT
  5
188
330
17E
100
AcDbEntity
  8
0
  6
CONTINUOUS
 62
   161
100
AcDbMText
 10
97.247593802
 20
309.3907925662
 30
0.0
 40
3.5
 41
0.0
 71
     1
 72
     1
  1
2,50
  7
SLDTEXTSTYLE0
  0
ENDBLK
  5
180
330
17E
100
AcDbEntity
  8
0
100
AcDbBlockEnd
  0
BLOCK
  5
1E3
330
1E2
100
AcDbEntity
  8
0
100
AcDbBlockBegin
  2
_D_1
 70
     0
 10
0.0
 20
0.0
 30
0.0
  3
_D_1
  1

  0
SOLID
  5
1E5
330
1E2
100
AcDbEntity
  8
0
  6
CONTINUOUS
 62
   161
100
AcDbTrace
 10
639.5241152922
 20
421.651046083
 30
0.0
 11
642.8261152922
 21
421.143046083
 31
0.0
 12
642.8261152922
 22
422.159046083
 32
0.0
 13
642.8261152922
 23
422.159046083
 33
0.0
  0
SOLID
  5
1E6
330
1E2
100
AcDbEntity
  8
0
  6
CONTINUOUS
 62
   161
100
AcDbTrace
 10
671.5241152922
 20
421.651046083
 30
0.0
 11
668.2221152922
 21
422.159046083
 31
0.0
 12
668.2221152922
 22
421.143046083
 32
0.0
 13
668.2221152922
 23
421.143046083
 33
0.0
  0
LINE
  5
1E7
330
1E2
100
AcDbEntity
  8
0
  6
CONTINUOUS
 62
   161
100
AcDbLine
 10
639.5241152922
 20
388.8790552442
 30
0.0
 11
639.5241152922
 21
422.651046083
 31
0.0
  0
LINE
  5
1E8
330
1E2
100
AcDbEntity
  8
0
  6
CONTINUOUS
 62
   161
100
AcDbLine
 10
671.5241152922
 20
388.8790552442
 30
0.0
 11
671.5241152922
 21
422.651046083
 31
0.0
  0
LINE
  5
1E9
330
1E2
100
AcDbEntity
  8
0
  6
CONTINUOUS
 62
   161
100
AcDbLine
 10
639.5241152922
 20
421.651046083
 30
0.0
 11
671.5241152922
 21
421.651046083
 31
0.0
  0
MTEXT
  5
1EA
330
1E2
100
AcDbEntity
  8
0
  6
CONTINUOUS
 62
   161
100
AcDbMText
 10
657.180362244
 20
426.162783405
 30
0.0
 40
3.5
 41
0.0
 71
     1
 72
     1
  1
32
  7
SLDTEXTSTYLE0
  0
ENDBLK
  5
1E4
330
1E2
100
AcDbEntity
  8
0
100
AcDbBlockEnd
  0
BLOCK
  5
1EE
330
1ED
100
AcDbEntity
  8
0
100
AcDbBlockBegin
  2
_D_2
 70
     0
 10
0.0
 20
0.0
 30
0.0
  3
_D_2
  1

  0
SOLID
  5
1F0
330
1ED
100
AcDbEntity
  8
0
  6
CONTINUOUS
 62
   161
100
AcDbTrace
 10
668.7888502284
 20
386.1238273301
 30
0.0
 11
665.7354652987
 21
384.7680587394
 31
0.0
 12
666.2841765482
 22
383.9129727994
 32
0.0
 13
666.2841765482
 23
383.9129727994
 33
0.0
  0
SOLID
  5
1F1
330
1ED
100
AcDbEntity
  8
0
  6
CONTINUOUS
 62
   161
100
AcDbTrace
 10
674.2593803561
 20
389.6342831583
 30
0.0
 11
677.3127652857
 21
390.990051749
 31
0.0
 12
676.7640540363
 22
391.845137689
 32
0.0
 13
676.7640540363
 23
391.845137689
 33
0.0
  0
LINE
  5
1F2
330
1ED
100
AcDbEntity
  8
0
  6
CONTINUOUS
 62
   161
100
AcDbLine
 10
674.2593803561
 20
389.6342831583
 30
0.0
 11
702.6290338086
 21
407.839176099
 31
0.0
  0
LINE
  5
1F3
330
1ED
100
AcDbEntity
  8
0
  6
CONTINUOUS
 62
   161
100
AcDbLine
 10
668.7888502284
 20
386.1238273301
 30
0.0
 11
663.4445631036
 21
382.6943820211
 31
0.0
  0
LINE
  5
1F4
330
1ED
100
AcDbEntity
  8
0
  6
CONTINUOUS
 62
   161
100
AcDbLine
 10
674.2593803561
 20
389.6342831583
 30
0.0
 11
668.7888502284
 21
386.1238273301
 31
0.0
  0
MTEXT
  5
1F5
330
1ED
100
AcDbEntity
  8
0
  6
CONTINUOUS
 62
   161
100
AcDbMText
 10
688.028460783
 20
403.8166333409
 30
0.0
 40
3.5
 41
0.0
 71
     1
 72
     1
  1
%%c
  7
SLDTEXTSTYLE0
 11
0.8416200196539692
 21
0.5400701274072215
 31
0.0
  0
MTEXT
  5
1F6
330
1ED
100
AcDbEntity
  8
0
  6
CONTINUOUS
 62
   161
100
AcDbMText
 10
692.317956234
 20
406.5807675221
 30
0.0
 40
3.5
 41
0.0
 71
     1
 72
     1
  1
6,50
  7
SLDTEXTSTYLE0
 11
0.8416200196539692
 21
0.5400701274072215
 31
0.0
  0
ENDBLK
  5
1EF
330
1ED
100
AcDbEntity
  8
0
100
AcDbBlockEnd
  0
BLOCK
  5
1F9
330
1F8
100
AcDbEntity
  8
0
100
AcDbBlockBegin
  2
_D_3
 70
     0
 10
0.0
 20
0.0
 30
0.0
  3
_D_3
  1

  0
SOLID
  5
1FB
330
1F8
100
AcDbEntity
  8
0
  6
CONTINUOUS
 62
   161
100
AcDbTrace
 10
463.1389348185
 20
343.8790552442
 30
0.0
 11
463.6469348185
 21
347.1810552442
 31
0.0
 12
462.6309348185
 22
347.1810552442
 32
0.0
 13
462.6309348185
 23
347.1810552442
 33
0.0
  0
SOLID
  5
1FC
330
1F8
100
AcDbEntity
  8
0
  6
CONTINUOUS
 62
   161
100
AcDbTrace
 10
463.1389348185
 20
326.8790552442
 30
0.0
 11
462.6309348185
 21
323.5770552442
 31
0.0
 12
463.6469348185
 22
323.5770552442
 32
0.0
 13
463.6469348185
 23
323.5770552442
 33
0.0
  0
LINE
  5
1FD
330
1F8
100
AcDbEntity
  8
0
  6
CONTINUOUS
 62
   161
100
AcDbLine
 10
420.4288169383
 20
343.8790552442
 30
0.0
 11
464.1389348185
 21
343.8790552442
 31
0.0
  0
LINE
  5
1FE
330
1F8
100
AcDbEntity
  8
0
  6
CONTINUOUS
 62
   161
100
AcDbLine
 10
420.4288169383
 20
326.8790552442
 30
0.0
 11
464.1389348185
 21
326.8790552442
 31
0.0
  0
LINE
  5
1FF
330
1F8
100
AcDbEntity
  8
0
  6
CONTINUOUS
 62
   161
100
AcDbLine
 10
463.1389348185
 20
343.8790552442
 30
0.0
 11
463.1389348185
 21
350.2290552442
 31
0.0
  0
LINE
  5
200
330
1F8
100
AcDbEntity
  8
0
  6
CONTINUOUS
 62
   161
100
AcDbLine
 10
463.1389348185
 20
343.8790552442
 30
0.0
 11
463.1389348185
 21
326.8790552442
 31
0.0
  0
LINE
  5
201
330
1F8
100
AcDbEntity
  8
0
  6
CONTINUOUS
 62
   161
100
AcDbLine
 10
463.1389348185
 20
326.8790552442
 30
0.0
 11
463.1389348185
 21
320.5290552442
 31
0.0
  0
MTEXT
  5
202
330
1F8
100
AcDbEntity
  8
0
  6
CONTINUOUS
 62
   161
100
AcDbMText
 10
458.6271974965
 20
332.8649749843
 30
0.0
 40
3.5
 41
0.0
 71
     1
 72
     1
  1
17
  7
SLDTEXTSTYLE0
 11
-7.044195017643634E-15
 21
1.0
 31
0.0
  0
ENDBLK
  5
1FA
330
1F8
100
AcDbEntity
  8
0
100
AcDbBlockEnd
  0
BLOCK
  5
205
330
204
100
AcDbEntity
  8
0
100
AcDbBlockBegin
  2
_D_4
 70
     0
 10
0.0
 20
0.0
 30
0.0
  3
_D_4
  1

  0
SOLID
  5
207
330
204
100
AcDbEntity
  8
0
  6
CONTINUOUS
 62
   161
100
AcDbTrace
 10
659.8539732889
 20
387.8790552442
 30
0.0
 11
659.3459732889
 21
384.5770552442
 31
0.0
 12
660.3619732889
 22
384.5770552442
 32
0.0
 13
660.3619732889
 23
384.5770552442
 33
0.0
  0
SOLID
  5
208
330
204
100
AcDbEntity
  8
0
  6
CONTINUOUS
 62
   161
100
AcDbTrace
 10
659.8539732889
 20
343.8790552442
 30
0.0
 11
660.3619732889
 21
347.1810552442
 31
0.0
 12
659.3459732889
 22
347.1810552442
 32
0.0
 13
659.3459732889
 23
347.1810552442
 33
0.0
  0
LINE
  5
209
330
204
100
AcDbEntity
  8
0
  6
CONTINUOUS
 62
   161
100
AcDbLine
 10
640.5241152922
 20
387.8790552442
 30
0.0
 11
660.8539732889
 21
387.8790552442
 31
0.0
  0
LINE
  5
20A
330
204
100
AcDbEntity
  8
0
  6
CONTINUOUS
 62
   161
100
AcDbLine
 10
420.4288169383
 20
343.8790552442
 30
0.0
 11
660.8539732889
 21
343.8790552442
 31
0.0
  0
LINE
  5
20B
330
204
100
AcDbEntity
  8
0
  6
CONTINUOUS
 62
   161
100
AcDbLine
 10
659.8539732889
 20
387.8790552442
 30
0.0
 11
659.8539732889
 21
343.8790552442
 31
0.0
  0
MTEXT
  5
20C
330
204
100
AcDbEntity
  8
0
  6
CONTINUOUS
 62
   161
100
AcDbMText
 10
655.3422359668
 20
359.954317768
 30
0.0
 40
3.5
 41
0.0
 71
     1
 72
     1
  1
44
  7
SLDTEXTSTYLE0
 11
-7.044195017643634E-15
 21
1.0
 31
0.0
  0
ENDBLK
  5
206
330
204
100
AcDbEntity
  8
0
100
AcDbBlockEnd
  0
BLOCK
  5
20F
330
20E
100
AcDbEntity
  8
0
100
AcDbBlockBegin
  2
_D_5
 70
     0
 10
0.0
 20
0.0
 30
0.0
  3
_D_5
  1

  0
SOLID
  5
211
330
20E
100
AcDbEntity
  8
0
  6
CONTINUOUS
 62
   161
100
AcDbTrace
 10
391.2867007707
 20
328.5290552442
 30
0.0
 11
394.400316654
 21
329.7401143391
 31
0.0
 12
393.892316654
 22
330.6199961493
 32
0.0
 13
393.892316654
 23
330.6199961493
 33
0.0
  0
SOLID
  5
212
330
20E
100
AcDbEntity
  8
0
  6
CONTINUOUS
 62
   161
100
AcDbTrace
 10
385.5709331058
 20
325.2290552442
 30
0.0
 11
382.4573172225
 21
324.0179961493
 31
0.0
 12
382.9653172225
 22
323.1381143391
 32
0.0
 13
382.9653172225
 23
323.1381143391
 33
0.0
  0
LINE
  5
213
330
20E
100
AcDbEntity
  8
0
  6
CONTINUOUS
 62
   161
100
AcDbLine
 10
385.5709331058
 20
325.2290552442
 30
0.0
 11
348.8433671152
 21
304.0243851329
 31
0.0
  0
LINE
  5
214
330
20E
100
AcDbEntity
  8
0
  6
CONTINUOUS
 62
   161
100
AcDbLine
 10
391.2867007707
 20
328.5290552442
 30
0.0
 11
396.7859620848
 21
331.7040552442
 31
0.0
  0
LINE
  5
215
330
20E
100
AcDbEntity
  8
0
  6
CONTINUOUS
 62
   161
100
AcDbLine
 10
385.5709331058
 20
325.2290552442
 30
0.0
 11
391.2867007707
 21
328.5290552442
 31
0.0
  0
MTEXT
  5
216
330
20E
100
AcDbEntity
  8
0
  6
CONTINUOUS
 62
   161
100
AcDbMText
 10
346.5910582571
 20
307.9254985096
 30
0.0
 40
3.5
 41
0.0
 71
     1
 72
     1
  1
%%c
  7
SLDTEXTSTYLE0
 11
0.8660254037844378
 21
0.5000000000000014
 31
0.0
  0
MTEXT
  5
217
330
20E
100
AcDbEntity
  8
0
  6
CONTINUOUS
 62
   161
100
AcDbMText
 10
351.0054827749
 20
310.4853940489
 30
0.0
 40
3.5
 41
0.0
 71
     1
 72
     1
  1
6,60
  7
SLDTEXTSTYLE0
 11
0.8660254037844378
 21
0.5000000000000014
 31
0.0
  0
ENDBLK
  5
210
330
20E
100
AcDbEntity
  8
0
100
AcDbBlockEnd
  0
BLOCK
  5
21A
330
219
100
AcDbEntity
  8
0
100
AcDbBlockBegin
  2
_D_6
 70
     0
 10
0.0
 20
0.0
 30
0.0
  3
_D_6
  1

  0
SOLID
  5
21C
330
219
100
AcDbEntity
  8
0
  6
CONTINUOUS
 62
   161
100
AcDbTrace
 10
388.4288169383
 20
296.3364272214
 30
0.0
 11
391.7308169383
 21
295.8284272214
 31
0.0
 12
391.7308169383
 22
296.8444272214
 32
0.0
 13
391.7308169383
 23
296.8444272214
 33
0.0
  0
SOLID
  5
21D
330
219
100
AcDbEntity
  8
0
  6
CONTINUOUS
 62
   161
100
AcDbTrace
 10
419.4288169383
 20
296.3364272214
 30
0.0
 11
416.1268169383
 21
296.8444272214
 31
0.0
 12
416.1268169383
 22
295.8284272214
 32
0.0
 13
416.1268169383
 23
295.8284272214
 33
0.0
  0
LINE
  5
21E
330
219
100
AcDbEntity
  8
0
  6
CONTINUOUS
 62
   161
100
AcDbLine
 10
388.4288169383
 20
342.8790552442
 30
0.0
 11
388.4288169383
 21
295.3364272214
 31
0.0
  0
LINE
  5
21F
330
219
100
AcDbEntity
  8
0
  6
CONTINUOUS
 62
   161
100
AcDbLine
 10
419.4288169383
 20
342.8790552442
 30
0.0
 11
419.4288169383
 21
295.3364272214
 31
0.0
  0
LINE
  5
220
330
219
100
AcDbEntity
  8
0
  6
CONTINUOUS
 62
   161
100
AcDbLine
 10
388.4288169383
 20
296.3364272214
 30
0.0
 11
419.4288169383
 21
296.3364272214
 31
0.0
  0
MTEXT
  5
221
330
219
100
AcDbEntity
  8
0
  6
CONTINUOUS
 62
   161
100
AcDbMText
 10
403.9482887887
 20
300.8481645434
 30
0.0
 40
3.5
 41
0.0
 71
     1
 72
     1
  1
31
  7
SLDTEXTSTYLE0
  0
ENDBLK
  5
21B
330
219
100
AcDbEntity
  8
0
100
AcDbBlockEnd
  0
ENDSEC
  0
SECTION
  2
ENTITIES
  0
LINE
  5
74
330
1F
100
AcDbEntity
  8
0
  6
CONTINUOUS
 62
     7
100
AcDbLine
 10
20.0000000001
 20
584.0
 30
0.0
 11
831.0
 21
584.0
 31
0.0
  0
LINE
  5
75
330
1F
100
AcDbEntity
  8
0
  6
CONTINUOUS
 62
     7
100
AcDbLine
 10
831.0
 20
584.0
 30
0.0
 11
831.0
 21
10.0
 31
0.0
  0
LINE
  5
76
330
1F
100
AcDbEntity
  8
0
  6
CONTINUOUS
 62
     7
100
AcDbLine
 10
831.0
 20
10.0
 30
0.0
 11
20.0000000001
 21
10.0
 31
0.0
  0
LINE
  5
77
330
1F
100
AcDbEntity
  8
0
  6
CONTINUOUS
 62
     7
100
AcDbLine
 10
20.0000000001
 20
10.0
 30
0.0
 11
20.0000000001
 21
584.0
 31
0.0
  0
LINE
  5
78
330
1F
100
AcDbEntity
  8
0
  6
CONTINUOUS
 62
     7
100
AcDbLine
 10
15.0
 20
589.0000000001
 30
0.0
 11
836.0000000001
 21
589.0000000001
 31
0.0
  0
LINE
  5
79
330
1F
100
AcDbEntity
  8
0
  6
CONTINUOUS
 62
     7
100
AcDbLine
 10
836.0000000001
 20
589.0000000001
 30
0.0
 11
836.0000000001
 21
4.9999999999
 31
0.0
  0
LINE
  5
7A
330
1F
100
AcDbEntity
  8
0
  6
CONTINUOUS
 62
     7
100
AcDbLine
 10
791.0
 20
10.0
 30
0.0
 11
791.0
 21
14.25
 31
0.0
  0
LINE
  5
7B
330
1F
100
AcDbEntity
  8
0
  6
CONTINUOUS
 62
     7
100
AcDbLine
 10
651.0
 20
52.5
 30
0.0
 11
751.0
 21
52.5
 31
0.0
  0
LINE
  5
7C
330
1F
100
AcDbEntity
  8
0
  6
CONTINUOUS
 62
     7
100
AcDbLine
 10
836.0000000001
 20
4.9999999999
 30
0.0
 11
15.0
 21
4.9999999999
 31
0.0
  0
LINE
  5
7D
330
1F
100
AcDbEntity
  8
0
  6
CONTINUOUS
 62
     7
100
AcDbLine
 10
791.0
 20
48.25
 30
0.0
 11
791.0
 21
52.5
 31
0.0
  0
LINE
  5
7E
330
1F
100
AcDbEntity
  8
0
  6
CONTINUOUS
 62
     7
100
AcDbLine
 10
425.5000000001
 20
584.0
 30
0.0
 11
425.5000000001
 21
589.0000000001
 31
0.0
  0
LINE
  5
7F
330
1F
100
AcDbEntity
  8
0
  6
CONTINUOUS
 62
     7
100
AcDbLine
 10
15.0
 20
297.0
 30
0.0
 11
20.0000000001
 21
297.0
 31
0.0
  0
LINE
  5
80
330
1F
100
AcDbEntity
  8
0
  6
CONTINUOUS
 62
     7
100
AcDbLine
 10
425.5000000001
 20
10.0
 30
0.0
 11
425.5000000001
 21
4.9999999999
 31
0.0
  0
LINE
  5
81
330
1F
100
AcDbEntity
  8
0
  6
CONTINUOUS
 62
     7
100
AcDbLine
 10
651.0
 20
48.25
 30
0.0
 11
751.0
 21
48.25
 31
0.0
  0
LINE
  5
82
330
1F
100
AcDbEntity
  8
0
  6
CONTINUOUS
 62
     7
100
AcDbLine
 10
751.0
 20
52.5
 30
0.0
 11
831.0
 21
52.5
 31
0.0
  0
LINE
  5
83
330
1F
100
AcDbEntity
  8
0
  6
CONTINUOUS
 62
     7
100
AcDbLine
 10
651.0
 20
63.125
 30
0.0
 11
831.0
 21
63.125
 31
0.0
  0
LINE
  5
84
330
1F
100
AcDbEntity
  8
0
  6
CONTINUOUS
 62
     7
100
AcDbLine
 10
710.5
 20
18.5
 30
0.0
 11
751.0
 21
18.5
 31
0.0
  0
LINE
  5
85
330
1F
100
AcDbEntity
  8
0
  6
CONTINUOUS
 62
     7
100
AcDbLine
 10
710.5
 20
22.75
 30
0.0
 11
751.0
 21
22.75
 31
0.0
  0
LINE
  5
86
330
1F
100
AcDbEntity
  8
0
  6
CONTINUOUS
 62
     7
100
AcDbLine
 10
710.5
 20
14.25
 30
0.0
 11
750.3400914173
 21
14.25
 31
0.0
  0
LINE
  5
87
330
1F
100
AcDbEntity
  8
0
  6
CONTINUOUS
 62
     7
100
AcDbLine
 10
651.0
 20
35.5
 30
0.0
 11
751.0
 21
35.5
 31
0.0
  0
LINE
  5
88
330
1F
100
AcDbEntity
  8
0
  6
CONTINUOUS
 62
     7
100
AcDbLine
 10
651.0
 20
39.75
 30
0.0
 11
751.0
 21
39.75
 31
0.0
  0
LINE
  5
89
330
1F
100
AcDbEntity
  8
0
  6
CONTINUOUS
 62
     7
100
AcDbLine
 10
651.0
 20
10.0
 30
0.0
 11
651.0
 21
63.125
 31
0.0
  0
LINE
  5
8A
330
1F
100
AcDbEntity
  8
0
  6
CONTINUOUS
 62
     7
100
AcDbLine
 10
651.0
 20
27.0
 30
0.0
 11
831.0
 21
27.0
 31
0.0
  0
LINE
  5
8B
330
1F
100
AcDbEntity
  8
0
  6
CONTINUOUS
 62
     7
100
AcDbLine
 10
651.0
 20
31.25
 30
0.0
 11
751.0
 21
31.25
 31
0.0
  0
LINE
  5
8C
330
1F
100
AcDbEntity
  8
0
  6
CONTINUOUS
 62
     7
100
AcDbLine
 10
651.0
 20
44.0
 30
0.0
 11
751.0
 21
44.0
 31
0.0
  0
LINE
  5
8D
330
1F
100
AcDbEntity
  8
0
  6
CONTINUOUS
 62
     7
100
AcDbLine
 10
651.0
 20
63.125
 30
0.0
 11
651.0
 21
10.0
 31
0.0
  0
LINE
  5
8E
330
1F
100
AcDbEntity
  8
0
  6
CONTINUOUS
 62
     7
100
AcDbLine
 10
724.9001596271
 20
10.0
 30
0.0
 11
724.9001596271
 21
52.5
 31
0.0
  0
LINE
  5
8F
330
1F
100
AcDbEntity
  8
0
  6
CONTINUOUS
 62
     7
100
AcDbLine
 10
740.0
 20
10.0
 30
0.0
 11
740.0
 21
52.5
 31
0.0
  0
LINE
  5
90
330
1F
100
AcDbEntity
  8
0
  6
CONTINUOUS
 62
     7
100
AcDbLine
 10
697.0
 20
10.0
 30
0.0
 11
697.0
 21
27.0
 31
0.0
  0
LINE
  5
91
330
1F
100
AcDbEntity
  8
0
  6
CONTINUOUS
 62
     7
100
AcDbLine
 10
710.5
 20
10.0
 30
0.0
 11
710.5
 21
27.0
 31
0.0
  0
LINE
  5
92
330
1F
100
AcDbEntity
  8
0
  6
CONTINUOUS
 62
     7
100
AcDbLine
 10
659.0
 20
27.0
 30
0.0
 11
659.0
 21
52.5
 31
0.0
  0
LINE
  5
93
330
1F
100
AcDbEntity
  8
0
  6
CONTINUOUS
 62
     7
100
AcDbLine
 10
819.1
 20
14.25
 30
0.0
 11
819.1
 21
27.0
 31
0.0
  0
LINE
  5
94
330
1F
100
AcDbEntity
  8
0
  6
CONTINUOUS
 62
     7
100
AcDbLine
 10
751.0
 20
10.0
 30
0.0
 11
751.0
 21
48.25
 31
0.0
  0
LINE
  5
95
330
1F
100
AcDbEntity
  8
0
  6
CONTINUOUS
 62
     7
100
AcDbLine
 10
750.3400914173
 20
14.25
 30
0.0
 11
831.0
 21
14.25
 31
0.0
  0
LINE
  5
96
330
1F
100
AcDbEntity
  8
0
  6
CONTINUOUS
 62
     7
100
AcDbLine
 10
651.0
 20
10.0
 30
0.0
 11
831.0
 21
10.0
 31
0.0
  0
LINE
  5
97
330
1F
100
AcDbEntity
  8
0
  6
CONTINUOUS
 62
     7
100
AcDbLine
 10
831.0
 20
10.0
 30
0.0
 11
831.0
 21
63.125
 31
0.0
  0
LINE
  5
98
330
1F
100
AcDbEntity
  8
0
  6
CONTINUOUS
 62
     7
100
AcDbLine
 10
819.1
 20
22.75
 30
0.0
 11
831.0
 21
22.75
 31
0.0
  0
LINE
  5
99
330
1F
100
AcDbEntity
  8
0
  6
CONTINUOUS
 62
     7
100
AcDbLine
 10
751.0
 20
48.25
 30
0.0
 11
831.0
 21
48.25
 31
0.0
  0
LINE
  5
9A
330
1F
100
AcDbEntity
  8
0
  6
CONTINUOUS
 62
     7
100
AcDbLine
 10
836.0000000001
 20
297.0
 30
0.0
 11
831.0
 21
297.0
 31
0.0
  0
LINE
  5
9B
330
1F
100
AcDbEntity
  8
0
  6
CONTINUOUS
 62
     7
100
AcDbLine
 10
75.5
 20
589.0000000001
 30
0.0
 11
75.5
 21
584.0
 31
0.0
  0
LINE
  5
9C
330
1F
100
AcDbEntity
  8
0
  6
CONTINUOUS
 62
     7
100
AcDbLine
 10
75.5
 20
4.9999999999
 30
0.0
 11
75.5
 21
10.0
 31
0.0
  0
LINE
  5
9D
330
1F
100
AcDbEntity
  8
0
  6
CONTINUOUS
 62
     7
100
AcDbLine
 10
125.5
 20
589.0000000001
 30
0.0
 11
125.5
 21
584.0
 31
0.0
  0
LINE
  5
9E
330
1F
100
AcDbEntity
  8
0
  6
CONTINUOUS
 62
     7
100
AcDbLine
 10
125.5
 20
4.9999999999
 30
0.0
 11
125.5
 21
10.0
 31
0.0
  0
LINE
  5
9F
330
1F
100
AcDbEntity
  8
0
  6
CONTINUOUS
 62
     7
100
AcDbLine
 10
175.5
 20
589.0000000001
 30
0.0
 11
175.5
 21
584.0
 31
0.0
  0
LINE
  5
A0
330
1F
100
AcDbEntity
  8
0
  6
CONTINUOUS
 62
     7
100
AcDbLine
 10
175.5
 20
4.9999999999
 30
0.0
 11
175.5
 21
10.0
 31
0.0
  0
LINE
  5
A1
330
1F
100
AcDbEntity
  8
0
  6
CONTINUOUS
 62
     7
100
AcDbLine
 10
225.5
 20
589.0000000001
 30
0.0
 11
225.5
 21
584.0
 31
0.0
  0
LINE
  5
A2
330
1F
100
AcDbEntity
  8
0
  6
CONTINUOUS
 62
     7
100
AcDbLine
 10
225.5
 20
4.9999999999
 30
0.0
 11
225.5
 21
10.0
 31
0.0
  0
LINE
  5
A3
330
1F
100
AcDbEntity
  8
0
  6
CONTINUOUS
 62
     7
100
AcDbLine
 10
275.5
 20
589.0000000001
 30
0.0
 11
275.5
 21
584.0
 31
0.0
  0
LINE
  5
A4
330
1F
100
AcDbEntity
  8
0
  6
CONTINUOUS
 62
     7
100
AcDbLine
 10
275.5
 20
4.9999999999
 30
0.0
 11
275.5
 21
10.0
 31
0.0
  0
LINE
  5
A5
330
1F
100
AcDbEntity
  8
0
  6
CONTINUOUS
 62
     7
100
AcDbLine
 10
325.5000000001
 20
589.0000000001
 30
0.0
 11
325.5000000001
 21
584.0
 31
0.0
  0
LINE
  5
A6
330
1F
100
AcDbEntity
  8
0
  6
CONTINUOUS
 62
     7
100
AcDbLine
 10
325.5000000001
 20
4.9999999999
 30
0.0
 11
325.5000000001
 21
10.0
 31
0.0
  0
LINE
  5
A7
330
1F
100
AcDbEntity
  8
0
  6
CONTINUOUS
 62
     7
100
AcDbLine
 10
375.5
 20
589.0000000001
 30
0.0
 11
375.5
 21
584.0
 31
0.0
  0
LINE
  5
A8
330
1F
100
AcDbEntity
  8
0
  6
CONTINUOUS
 62
     7
100
AcDbLine
 10
375.5
 20
4.9999999999
 30
0.0
 11
375.5
 21
10.0
 31
0.0
  0
LINE
  5
A9
330
1F
100
AcDbEntity
  8
0
  6
CONTINUOUS
 62
     7
100
AcDbLine
 10
475.5
 20
589.0000000001
 30
0.0
 11
475.5
 21
584.0
 31
0.0
  0
LINE
  5
AA
330
1F
100
AcDbEntity
  8
0
  6
CONTINUOUS
 62
     7
100
AcDbLine
 10
475.5
 20
4.9999999999
 30
0.0
 11
475.5
 21
10.0
 31
0.0
  0
LINE
  5
AB
330
1F
100
AcDbEntity
  8
0
  6
CONTINUOUS
 62
     7
100
AcDbLine
 10
525.5
 20
589.0000000001
 30
0.0
 11
525.5
 21
584.0
 31
0.0
  0
LINE
  5
AC
330
1F
100
AcDbEntity
  8
0
  6
CONTINUOUS
 62
     7
100
AcDbLine
 10
525.5
 20
4.9999999999
 30
0.0
 11
525.5
 21
10.0
 31
0.0
  0
LINE
  5
AD
330
1F
100
AcDbEntity
  8
0
  6
CONTINUOUS
 62
     7
100
AcDbLine
 10
575.5
 20
589.0000000001
 30
0.0
 11
575.5
 21
584.0
 31
0.0
  0
LINE
  5
AE
330
1F
100
AcDbEntity
  8
0
  6
CONTINUOUS
 62
     7
100
AcDbLine
 10
575.5
 20
4.9999999999
 30
0.0
 11
575.5
 21
10.0
 31
0.0
  0
LINE
  5
AF
330
1F
100
AcDbEntity
  8
0
  6
CONTINUOUS
 62
     7
100
AcDbLine
 10
625.5
 20
589.0000000001
 30
0.0
 11
625.5
 21
584.0
 31
0.0
  0
LINE
  5
B0
330
1F
100
AcDbEntity
  8
0
  6
CONTINUOUS
 62
     7
100
AcDbLine
 10
625.5
 20
4.9999999999
 30
0.0
 11
625.5
 21
10.0
 31
0.0
  0
LINE
  5
B1
330
1F
100
AcDbEntity
  8
0
  6
CONTINUOUS
 62
     7
100
AcDbLine
 10
675.5
 20
589.0000000001
 30
0.0
 11
675.5
 21
584.0
 31
0.0
  0
LINE
  5
B2
330
1F
100
AcDbEntity
  8
0
  6
CONTINUOUS
 62
     7
100
AcDbLine
 10
675.5
 20
4.9999999999
 30
0.0
 11
675.5
 21
10.0
 31
0.0
  0
LINE
  5
B3
330
1F
100
AcDbEntity
  8
0
  6
CONTINUOUS
 62
     7
100
AcDbLine
 10
725.5
 20
589.0000000001
 30
0.0
 11
725.5
 21
584.0
 31
0.0
  0
LINE
  5
B4
330
1F
100
AcDbEntity
  8
0
  6
CONTINUOUS
 62
     7
100
AcDbLine
 10
725.5
 20
4.9999999999
 30
0.0
 11
725.5
 21
10.0
 31
0.0
  0
LINE
  5
B5
330
1F
100
AcDbEntity
  8
0
  6
CONTINUOUS
 62
     7
100
AcDbLine
 10
775.5
 20
589.0000000001
 30
0.0
 11
775.5
 21
584.0
 31
0.0
  0
LINE
  5
B6
330
1F
100
AcDbEntity
  8
0
  6
CONTINUOUS
 62
     7
100
AcDbLine
 10
775.5
 20
4.9999999999
 30
0.0
 11
775.5
 21
10.0
 31
0.0
  0
LINE
  5
B7
330
1F
100
AcDbEntity
  8
0
  6
CONTINUOUS
 62
     7
100
AcDbLine
 10
15.0
 20
547.0
 30
0.0
 11
20.0000000001
 21
547.0
 31
0.0
  0
LINE
  5
B8
330
1F
100
AcDbEntity
  8
0
  6
CONTINUOUS
 62
     7
100
AcDbLine
 10
831.0
 20
547.0
 30
0.0
 11
836.0000000001
 21
547.0
 31
0.0
  0
LINE
  5
B9
330
1F
100
AcDbEntity
  8
0
  6
CONTINUOUS
 62
     7
100
AcDbLine
 10
751.0
 20
48.25
 30
0.0
 11
751.0
 21
63.125
 31
0.0
  0
LINE
  5
BA
330
1F
100
AcDbEntity
  8
0
  6
CONTINUOUS
 62
     7
100
AcDbLine
 10
751.0
 20
57.8125
 30
0.0
 11
831.0
 21
57.8125
 31
0.0
  0
LINE
  5
BB
330
1F
100
AcDbEntity
  8
0
  6
CONTINUOUS
 62
     7
100
AcDbLine
 10
15.0
 20
497.0
 30
0.0
 11
20.0000000001
 21
497.0
 31
0.0
  0
LINE
  5
BC
330
1F
100
AcDbEntity
  8
0
  6
CONTINUOUS
 62
     7
100
AcDbLine
 10
836.0000000001
 20
497.0
 30
0.0
 11
831.0
 21
497.0
 31
0.0
  0
LINE
  5
BD
330
1F
100
AcDbEntity
  8
0
  6
CONTINUOUS
 62
     7
100
AcDbLine
 10
15.0
 20
447.0
 30
0.0
 11
20.0000000001
 21
447.0
 31
0.0
  0
LINE
  5
BE
330
1F
100
AcDbEntity
  8
0
  6
CONTINUOUS
 62
     7
100
AcDbLine
 10
836.0000000001
 20
447.0
 30
0.0
 11
831.0
 21
447.0
 31
0.0
  0
LINE
  5
BF
330
1F
100
AcDbEntity
  8
0
  6
CONTINUOUS
 62
     7
100
AcDbLine
 10
15.0
 20
397.0
 30
0.0
 11
20.0000000001
 21
397.0
 31
0.0
  0
LINE
  5
C0
330
1F
100
AcDbEntity
  8
0
  6
CONTINUOUS
 62
     7
100
AcDbLine
 10
836.0000000001
 20
397.0
 30
0.0
 11
831.0
 21
397.0
 31
0.0
  0
LINE
  5
C1
330
1F
100
AcDbEntity
  8
0
  6
CONTINUOUS
 62
     7
100
AcDbLine
 10
15.0
 20
347.0
 30
0.0
 11
20.0000000001
 21
347.0
 31
0.0
  0
LINE
  5
C2
330
1F
100
AcDbEntity
  8
0
  6
CONTINUOUS
 62
     7
100
AcDbLine
 10
836.0000000001
 20
347.0
 30
0.0
 11
831.0
 21
347.0
 31
0.0
  0
LINE
  5
C3
330
1F
100
AcDbEntity
  8
0
  6
CONTINUOUS
 62
     7
100
AcDbLine
 10
20.0000000001
 20
247.0
 30
0.0
 11
15.0
 21
247.0
 31
0.0
  0
LINE
  5
C4
330
1F
100
AcDbEntity
  8
0
  6
CONTINUOUS
 62
     7
100
AcDbLine
 10
831.0
 20
247.0
 30
0.0
 11
836.0000000001
 21
247.0
 31
0.0
  0
LINE
  5
C5
330
1F
100
AcDbEntity
  8
0
  6
CONTINUOUS
 62
     7
100
AcDbLine
 10
20.0000000001
 20
197.0
 30
0.0
 11
15.0
 21
197.0
 31
0.0
  0
LINE
  5
C6
330
1F
100
AcDbEntity
  8
0
  6
CONTINUOUS
 62
     7
100
AcDbLine
 10
831.0
 20
197.0
 30
0.0
 11
836.0000000001
 21
197.0
 31
0.0
  0
LINE
  5
C7
330
1F
100
AcDbEntity
  8
0
  6
CONTINUOUS
 62
     7
100
AcDbLine
 10
20.0000000001
 20
147.0
 30
0.0
 11
15.0
 21
147.0
 31
0.0
  0
LINE
  5
C8
330
1F
100
AcDbEntity
  8
0
  6
CONTINUOUS
 62
     7
100
AcDbLine
 10
831.0
 20
147.0
 30
0.0
 11
836.0000000001
 21
147.0
 31
0.0
  0
LINE
  5
C9
330
1F
100
AcDbEntity
  8
0
  6
CONTINUOUS
 62
     7
100
AcDbLine
 10
20.0000000001
 20
97.0
 30
0.0
 11
15.0
 21
97.0
 31
0.0
  0
LINE
  5
CA
330
1F
100
AcDbEntity
  8
0
  6
CONTINUOUS
 62
     7
100
AcDbLine
 10
831.0
 20
97.0
 30
0.0
 11
836.0000000001
 21
97.0
 31
0.0
  0
LINE
  5
CB
330
1F
100
AcDbEntity
  8
0
  6
CONTINUOUS
 62
     7
100
AcDbLine
 10
20.0000000001
 20
47.0
 30
0.0
 11
15.0
 21
47.0
 31
0.0
  0
LINE
  5
CC
330
1F
100
AcDbEntity
  8
0
  6
CONTINUOUS
 62
     7
100
AcDbLine
 10
831.0
 20
47.0
 30
0.0
 11
836.0000000001
 21
47.0
 31
0.0
  0
LINE
  5
CD
330
1F
100
AcDbEntity
  8
0
  6
CONTINUOUS
 62
     7
100
AcDbLine
 10
651.0
 20
63.125
 30
0.0
 11
651.0
 21
10.0
 31
0.0
  0
LINE
  5
CE
330
1F
100
AcDbEntity
  8
0
  6
CONTINUOUS
 62
     7
100
AcDbLine
 10
651.0
 20
63.125
 30
0.0
 11
651.0
 21
10.0
 31
0.0
  0
LINE
  5
CF
330
1F
100
AcDbEntity
  8
0
  6
CONTINUOUS
 62
     7
100
AcDbLine
 10
830.9739852338
 20
86.2614269863
 30
0.0
 11
830.953940193
 21
86.2614269863
 31
0.0
  0
LINE
  5
D0
330
1F
100
AcDbEntity
  8
0
  6
CONTINUOUS
 62
     7
100
AcDbLine
 10
651.0
 20
10.0
 30
0.0
 11
831.0
 21
10.0
 31
0.0
  0
LINE
  5
D1
330
1F
100
AcDbEntity
  8
0
  6
CONTINUOUS
 62
     7
100
AcDbLine
 10
831.0
 20
67.5
 30
0.0
 11
831.0
 21
10.0
 31
0.0
  0
LINE
  5
D2
330
1F
100
AcDbEntity
  8
0
  6
CONTINUOUS
 62
     2
100
AcDbLine
 10
-545.1756809887
 20
-6854.6321401319
 30
0.0
 11
-322.9256809887
 21
-6854.6321401319
 31
0.0
  0
LINE
  5
D3
330
1F
100
AcDbEntity
  8
0
  6
CONTINUOUS
 62
     2
100
AcDbLine
 10
-545.1756809887
 20
7978.9678598681
 30
0.0
 11
-322.9256809887
 21
7978.9678598681
 31
0.0
  0
LINE
  5
D4
330
1F
100
AcDbEntity
  8
0
  6
CONTINUOUS
 62
     7
100
AcDbLine
 10
15.0
 20
589.0000000001
 30
0.0
 11
15.0
 21
4.9999999999
 31
0.0
  0
MTEXT
  5
D6
330
1F
100
AcDbEntity
  8
0
  6
CONTINUOUS
 62
     7
100
AcDbMText
 10
756.6804260185
 20
22.3413864308
 30
0.0
 40
3.5
 41
0.0
 71
     1
 72
     1
  1
4.52110.0000
  7
SLDTEXTSTYLE0
  0
MTEXT
  5
D7
330
1F
100
AcDbEntity
  8
0
  6
CONTINUOUS
 62
     7
100
AcDbMText
 10
757.8266698863
 20
43.2284969105
 30
0.0
 40
3.5
 41
0.0
 71
     1
 72
     1
  1
Oeffnungsbegrenzer
  7
SLDTEXTSTYLE0
  0
MTEXT
  5
D8
330
1F
100
AcDbEntity
  8
0
  6
CONTINUOUS
 62
     7
100
AcDbMText
 10
725.4771207286
 20
25.8417628434
 30
0.0
 40
2.1166666667
 41
0.0
 71
     1
 72
     1
  1
19.06.2017
  7
SLDTEXTSTYLE0
  0
MTEXT
  5
D9
330
1F
100
AcDbEntity
  8
0
  6
CONTINUOUS
 62
     7
100
AcDbMText
 10
741.9066161669
 20
25.8417628434
 30
0.0
 40
2.1166666667
 41
0.0
 71
     1
 72
     1
  1
U/Z
  7
SLDTEXTSTYLE0
  0
MTEXT
  5
DA
330
1F
100
AcDbEntity
  8
0
  6
CONTINUOUS
 62
     7
100
AcDbMText
 10
819.723838747
 20
19.346380926
 30
0.0
 40
2.1166666667
 41
0.0
 71
     1
 72
     1
  1
REV01
  7
SLDTEXTSTYLE0
  0
MTEXT
  5
DB
330
1F
100
AcDbEntity
  8
0
  6
CONTINUOUS
 62
     7
100
AcDbMText
 10
150.4756944776
 20
588.5024167549
 30
0.0
 40
3.5
 41
0.0
 71
     2
 72
     1
  1
3
  7
SLDTEXTSTYLE0
  0
MTEXT
  5
DC
330
1F
100
AcDbEntity
  8
0
  6
CONTINUOUS
 62
     7
100
AcDbMText
 10
300.4756944776
 20
588.5024167549
 30
0.0
 40
3.5
 41
0.0
 71
     2
 72
     1
  1
6
  7
SLDTEXTSTYLE0
  0
MTEXT
  5
DD
330
1F
100
AcDbEntity
  8
0
  6
CONTINUOUS
 62
     7
100
AcDbMText
 10
400.4756944776
 20
588.5024167549
 30
0.0
 40
3.5
 41
0.0
 71
     2
 72
     1
  1
8
  7
SLDTEXTSTYLE0
  0
MTEXT
  5
DE
330
1F
100
AcDbEntity
  8
0
  6
CONTINUOUS
 62
     7
100
AcDbMText
 10
500.4513889551
 20
588.5024167549
 30
0.0
 40
3.5
 41
0.0
 71
     2
 72
     1
  1
10
  7
SLDTEXTSTYLE0
  0
MTEXT
  5
DF
330
1F
100
AcDbEntity
  8
0
  6
CONTINUOUS
 62
     7
100
AcDbMText
 10
600.4513889551
 20
588.5024167549
 30
0.0
 40
3.5
 41
0.0
 71
     2
 72
     1
  1
12
  7
SLDTEXTSTYLE0
  0
MTEXT
  5
E0
330
1F
100
AcDbEntity
  8
0
  6
CONTINUOUS
 62
     7
100
AcDbMText
 10
700.4513889551
 20
588.5024167549
 30
0.0
 40
3.5
 41
0.0
 71
     2
 72
     1
  1
14
  7
SLDTEXTSTYLE0
  0
MTEXT
  5
E1
330
1F
100
AcDbEntity
  8
0
  6
CONTINUOUS
 62
     7
100
AcDbMText
 10
750.4513889551
 20
588.5024167549
 30
0.0
 40
3.5
 41
0.0
 71
     2
 72
     1
  1
15
  7
SLDTEXTSTYLE0
  0
MTEXT
  5
E2
330
1F
100
AcDbEntity
  8
0
  6
CONTINUOUS
 62
     7
100
AcDbMText
 10
37.7256944776
 20
588.5024167549
 30
0.0
 40
3.5
 41
0.0
 71
     2
 72
     1
  1
1
  7
SLDTEXTSTYLE0
  0
MTEXT
  5
E3
330
1F
100
AcDbEntity
  8
0
  6
CONTINUOUS
 62
     7
100
AcDbMText
 10
200.4756944776
 20
588.5024167549
 30
0.0
 40
3.5
 41
0.0
 71
     2
 72
     1
  1
4
  7
SLDTEXTSTYLE0
  0
MTEXT
  5
E4
330
1F
100
AcDbEntity
  8
0
  6
CONTINUOUS
 62
     7
100
AcDbMText
 10
100.4756944776
 20
588.5024167549
 30
0.0
 40
3.5
 41
0.0
 71
     2
 72
     1
  1
2
  7
SLDTEXTSTYLE0
  0
MTEXT
  5
E5
330
1F
100
AcDbEntity
  8
0
  6
CONTINUOUS
 62
     7
100
AcDbMText
 10
250.4756944776
 20
588.5024167549
 30
0.0
 40
3.5
 41
0.0
 71
     2
 72
     1
  1
5
  7
SLDTEXTSTYLE0
  0
MTEXT
  5
E6
330
1F
100
AcDbEntity
  8
0
  6
CONTINUOUS
 62
     7
100
AcDbMText
 10
350.4756944776
 20
588.5024167549
 30
0.0
 40
3.5
 41
0.0
 71
     2
 72
     1
  1
7
  7
SLDTEXTSTYLE0
  0
MTEXT
  5
E7
330
1F
100
AcDbEntity
  8
0
  6
CONTINUOUS
 62
     7
100
AcDbMText
 10
450.4756944776
 20
588.5024167549
 30
0.0
 40
3.5
 41
0.0
 71
     2
 72
     1
  1
9
  7
SLDTEXTSTYLE0
  0
MTEXT
  5
E8
330
1F
100
AcDbEntity
  8
0
  6
CONTINUOUS
 62
     7
100
AcDbMText
 10
550.4513889551
 20
588.5024167549
 30
0.0
 40
3.5
 41
0.0
 71
     2
 72
     1
  1
11
  7
SLDTEXTSTYLE0
  0
MTEXT
  5
E9
330
1F
100
AcDbEntity
  8
0
  6
CONTINUOUS
 62
     7
100
AcDbMText
 10
650.4513889551
 20
588.5024167549
 30
0.0
 40
3.5
 41
0.0
 71
     2
 72
     1
  1
13
  7
SLDTEXTSTYLE0
  0
MTEXT
  5
EA
330
1F
100
AcDbEntity
  8
0
  6
CONTINUOUS
 62
     7
100
AcDbMText
 10
808.2013889551
 20
588.5024167549
 30
0.0
 40
3.5
 41
0.0
 71
     2
 72
     1
  1
16
  7
SLDTEXTSTYLE0
  0
MTEXT
  5
EB
330
1F
100
AcDbEntity
  8
0
  6
CONTINUOUS
 62
     7
100
AcDbMText
 10
17.4112847354
 20
25.7524167548
 30
0.0
 40
3.5
 41
0.0
 71
     2
 72
     1
  1
M
  7
SLDTEXTSTYLE0
  0
MTEXT
  5
EC
330
1F
100
AcDbEntity
  8
0
  6
CONTINUOUS
 62
     7
100
AcDbMText
 10
17.4817708032
 20
572.7887052048
 30
0.0
 40
3.5
 41
0.0
 71
     2
 72
     1
  1
A
  7
SLDTEXTSTYLE0
  0
MTEXT
  5
ED
330
1F
100
AcDbEntity
  8
0
  6
CONTINUOUS
 62
     7
100
AcDbMText
 10
17.4756944776
 20
74.2524167548
 30
0.0
 40
3.5
 41
0.0
 71
     2
 72
     1
  1
L
  7
SLDTEXTSTYLE0
  0
MTEXT
  5
EE
330
1F
100
AcDbEntity
  8
0
  6
CONTINUOUS
 62
     7
100
AcDbMText
 10
17.4817708032
 20
524.2524167548
 30
0.0
 40
3.5
 41
0.0
 71
     2
 72
     1
  1
B
  7
SLDTEXTSTYLE0
  0
MTEXT
  5
EF
330
1F
100
AcDbEntity
  8
0
  6
CONTINUOUS
 62
     7
100
AcDbMText
 10
17.4598957933
 20
474.2524167548
 30
0.0
 40
3.5
 41
0.0
 71
     2
 72
     1
  1
C
  7
SLDTEXTSTYLE0
  0
MTEXT
  5
F0
330
1F
100
AcDbEntity
  8
0
  6
CONTINUOUS
 62
     7
100
AcDbMText
 10
17.4598957933
 20
424.2524167548
 30
0.0
 40
3.5
 41
0.0
 71
     2
 72
     1
  1
D
  7
SLDTEXTSTYLE0
  0
MTEXT
  5
F1
330
1F
100
AcDbEntity
  8
0
  6
CONTINUOUS
 62
     7
100
AcDbMText
 10
17.4817708032
 20
374.2524167548
 30
0.0
 40
3.5
 41
0.0
 71
     2
 72
     1
  1
E
  7
SLDTEXTSTYLE0
  0
MTEXT
  5
F2
330
1F
100
AcDbEntity
  8
0
  6
CONTINUOUS
 62
     7
100
AcDbMText
 10
17.4538194677
 20
324.2524167548
 30
0.0
 40
3.5
 41
0.0
 71
     2
 72
     1
  1
F
  7
SLDTEXTSTYLE0
  0
MTEXT
  5
F3
330
1F
100
AcDbEntity
  8
0
  6
CONTINUOUS
 62
     7
100
AcDbMText
 10
17.4355902644
 20
274.2524167548
 30
0.0
 40
3.5
 41
0.0
 71
     2
 72
     1
  1
G
  7
SLDTEXTSTYLE0
  0
MTEXT
  5
F4
330
1F
100
AcDbEntity
  8
0
  6
CONTINUOUS
 62
     7
100
AcDbMText
 10
17.4598957933
 20
224.2524167548
 30
0.0
 40
3.5
 41
0.0
 71
     2
 72
     1
  1
H
  7
SLDTEXTSTYLE0
  0
MTEXT
  5
F5
330
1F
100
AcDbEntity
  8
0
  6
CONTINUOUS
 62
     7
100
AcDbMText
 10
17.5000000065
 20
174.2524167548
 30
0.0
 40
3.5
 41
0.0
 71
     2
 72
     1
  1
J
  7
SLDTEXTSTYLE0
  0
MTEXT
  5
F6
330
1F
100
AcDbEntity
  8
0
  6
CONTINUOUS
 62
     7
100
AcDbMText
 10
17.4817708032
 20
124.2524167548
 30
0.0
 40
3.5
 41
0.0
 71
     2
 72
     1
  1
K
  7
SLDTEXTSTYLE0
  0
MTEXT
  5
F8
330
1F
100
AcDbEntity
  8
0
  6
CONTINUOUS
 62
     7
100
AcDbMText
 10
808.1795138065
 20
9.4975557166
 30
0.0
 40
3.5
 41
0.0
 71
     2
 72
     1
  1
14
  7
SLDTEXTSTYLE1
  0
MTEXT
  5
F9
330
1F
100
AcDbEntity
  8
0
  6
CONTINUOUS
 62
     7
100
AcDbMText
 10
37.8141332213
 20
9.3207731785
 30
0.0
 40
3.5
 41
0.0
 71
     2
 72
     1
  1
1
  7
SLDTEXTSTYLE0
  0
MTEXT
  5
FA
330
1F
100
AcDbEntity
  8
0
  6
CONTINUOUS
 62
     7
100
AcDbMText
 10
100.4756944776
 20
9.1824483365
 30
0.0
 40
3.5
 41
0.0
 71
     2
 72
     1
  1
2
  7
SLDTEXTSTYLE0
  0
MTEXT
  5
FB
330
1F
100
AcDbEntity
  8
0
  6
CONTINUOUS
 62
     7
100
AcDbMText
 10
150.0838059341
 20
9.1824483365
 30
0.0
 40
3.5
 41
0.0
 71
     2
 72
     1
  1
3
  7
SLDTEXTSTYLE0
  0
MTEXT
  5
FC
330
1F
100
AcDbEntity
  8
0
  6
CONTINUOUS
 62
     7
100
AcDbMText
 10
200.6177492769
 20
9.1824483365
 30
0.0
 40
3.5
 41
0.0
 71
     2
 72
     1
  1
4
  7
SLDTEXTSTYLE0
  0
MTEXT
  5
FD
330
1F
100
AcDbEntity
  8
0
  6
CONTINUOUS
 62
     7
100
AcDbMText
 10
251.8183753352
 20
9.1824483365
 30
0.0
 40
3.5
 41
0.0
 71
     2
 72
     1
  1
5
  7
SLDTEXTSTYLE0
  0
MTEXT
  5
FE
330
1F
100
AcDbEntity
  8
0
  6
CONTINUOUS
 62
     7
100
AcDbMText
 10
301.0583188652
 20
9.1824483365
 30
0.0
 40
3.5
 41
0.0
 71
     2
 72
     1
  1
6
  7
SLDTEXTSTYLE0
  0
MTEXT
  5
FF
330
1F
100
AcDbEntity
  8
0
  6
CONTINUOUS
 62
     7
100
AcDbMText
 10
351.4376189008
 20
9.1824483365
 30
0.0
 40
3.5
 41
0.0
 71
     2
 72
     1
  1
7
  7
SLDTEXTSTYLE0
  0
MTEXT
  5
100
330
1F
100
AcDbEntity
  8
0
  6
CONTINUOUS
 62
     7
100
AcDbMText
 10
402.4303534682
 20
9.1824483365
 30
0.0
 40
3.5
 41
0.0
 71
     2
 72
     1
  1
8
  7
SLDTEXTSTYLE0
  0
MTEXT
  5
101
330
1F
100
AcDbEntity
  8
0
  6
CONTINUOUS
 62
     7
100
AcDbMText
 10
453.2048768896
 20
9.1824483365
 30
0.0
 40
3.5
 41
0.0
 71
     2
 72
     1
  1
9
  7
SLDTEXTSTYLE0
  0
MTEXT
  5
102
330
1F
100
AcDbEntity
  8
0
  6
CONTINUOUS
 62
     7
100
AcDbMText
 10
501.7353585173
 20
9.1824483365
 30
0.0
 40
3.5
 41
0.0
 71
     2
 72
     1
  1
10
  7
SLDTEXTSTYLE0
  0
MTEXT
  5
103
330
1F
100
AcDbEntity
  8
0
  6
CONTINUOUS
 62
     7
100
AcDbMText
 10
551.9936871173
 20
9.1824483365
 30
0.0
 40
3.5
 41
0.0
 71
     2
 72
     1
  1
11
  7
SLDTEXTSTYLE0
  0
MTEXT
  5
104
330
1F
100
AcDbEntity
  8
0
  6
CONTINUOUS
 62
     7
100
AcDbMText
 10
602.2910664722
 20
9.1824483365
 30
0.0
 40
3.5
 41
0.0
 71
     2
 72
     1
  1
12
  7
SLDTEXTSTYLE0
  0
MTEXT
  5
105
330
1F
100
AcDbEntity
  8
0
  6
CONTINUOUS
 62
     7
100
AcDbMText
 10
652.4685011168
 20
9.1824483365
 30
0.0
 40
3.5
 41
0.0
 71
     2
 72
     1
  1
13
  7
SLDTEXTSTYLE0
  0
MTEXT
  5
106
330
1F
100
AcDbEntity
  8
0
  6
CONTINUOUS
 62
     7
100
AcDbMText
 10
701.7366710413
 20
9.1824483365
 30
0.0
 40
3.5
 41
0.0
 71
     2
 72
     1
  1
14
  7
SLDTEXTSTYLE0
  0
MTEXT
  5
107
330
1F
100
AcDbEntity
  8
0
  6
CONTINUOUS
 62
     7
100
AcDbMText
 10
751.0855078757
 20
9.1824483365
 30
0.0
 40
3.5
 41
0.0
 71
     2
 72
     1
  1
15
  7
SLDTEXTSTYLE0
  0
MTEXT
  5
108
330
1F
100
AcDbEntity
  8
0
  6
CONTINUOUS
 62
     7
100
AcDbMText
 10
833.5650213544
 20
567.1242582934
 30
0.0
 40
3.5
 41
0.0
 71
     2
 72
     1
  1
A
  7
SLDTEXTSTYLE0
  0
MTEXT
  5
109
330
1F
100
AcDbEntity
  8
0
  6
CONTINUOUS
 62
     7
100
AcDbMText
 10
833.6108423877
 20
522.5746169248
 30
0.0
 40
3.5
 41
0.0
 71
     2
 72
     1
  1
B
  7
SLDTEXTSTYLE0
  0
MTEXT
  5
10A
330
1F
100
AcDbEntity
  8
0
  6
CONTINUOUS
 62
     7
100
AcDbMText
 10
833.5889673778
 20
474.563157088
 30
0.0
 40
3.5
 41
0.0
 71
     2
 72
     1
  1
C
  7
SLDTEXTSTYLE0
  0
MTEXT
  5
10B
330
1F
100
AcDbEntity
  8
0
  6
CONTINUOUS
 62
     7
100
AcDbMText
 10
831.8936548778
 20
426.2175188682
 30
0.0
 40
3.5
 41
0.0
 71
     1
 72
     1
  1
D
  7
SLDTEXTSTYLE0
  0
MTEXT
  5
10C
330
1F
100
AcDbEntity
  8
0
  6
CONTINUOUS
 62
     7
100
AcDbMText
 10
832.0249048877
 20
374.5228774711
 30
0.0
 40
3.5
 41
0.0
 71
     1
 72
     1
  1
E
  7
SLDTEXTSTYLE0
  0
MTEXT
  5
10D
330
1F
100
AcDbEntity
  8
0
  6
CONTINUOUS
 62
     7
100
AcDbMText
 10
832.1610160522
 20
326.4146343227
 30
0.0
 40
3.5
 41
0.0
 71
     1
 72
     1
  1
F
  7
SLDTEXTSTYLE0
  0
MTEXT
  5
10E
330
1F
100
AcDbEntity
  8
0
  6
CONTINUOUS
 62
     7
100
AcDbMText
 10
832.9606688232
 20
177.1064531492
 30
0.0
 40
3.5
 41
0.0
 71
     1
 72
     1
  1
J
  7
SLDTEXTSTYLE0
  0
MTEXT
  5
10F
330
1F
100
AcDbEntity
  8
0
  6
CONTINUOUS
 62
     7
100
AcDbMText
 10
831.7599743489
 20
275.4567836717
 30
0.0
 40
3.5
 41
0.0
 71
     1
 72
     1
  1
G
  7
SLDTEXTSTYLE0
  0
MTEXT
  5
110
330
1F
100
AcDbEntity
  8
0
  6
CONTINUOUS
 62
     7
100
AcDbMText
 10
831.8936548778
 20
227.2181004925
 30
0.0
 40
3.5
 41
0.0
 71
     1
 72
     1
  1
H
  7
SLDTEXTSTYLE0
  0
MTEXT
  5
111
330
1F
100
AcDbEntity
  8
0
  6
CONTINUOUS
 62
     7
100
AcDbMText
 10
832.2772084992
 20
126.4309974827
 30
0.0
 40
3.5
 41
0.0
 71
     1
 72
     1
  1
K
  7
SLDTEXTSTYLE0
  0
MTEXT
  5
112
330
1F
100
AcDbEntity
  8
0
  6
CONTINUOUS
 62
     7
100
AcDbMText
 10
831.9180912457
 20
27.3195653356
 30
0.0
 40
3.5
 41
0.0
 71
     1
 72
     1
  1
M
  7
SLDTEXTSTYLE0
  0
MTEXT
  5
113
330
1F
100
AcDbEntity
  8
0
  6
CONTINUOUS
 62
     7
100
AcDbMText
 10
831.9180912457
 20
76.4931921395
 30
0.0
 40
3.5
 41
0.0
 71
     1
 72
     1
  1
L
  7
SLDTEXTSTYLE0
  0
MTEXT
  5
115
330
1F
100
AcDbEntity
  8
0
  6
CONTINUOUS
 62
     7
100
AcDbMText
 10
752.5283871735
 20
56.590923006
 30
0.0
 40
2.5
 41
0.0
 71
     1
 72
     1
  1
Material:
  7
SLDTEXTSTYLE2
  0
INSERT
  5
11C
330
1F
100
AcDbEntity
  8
0
  6
CONTINUOUS
 62
     7
100
AcDbBlockReference
  2
SW_NOTE_0
 10
653.5181727062
 20
59.1833628592
 30
0.0
  0
MTEXT
  5
11D
330
1F
100
AcDbEntity
  8
0
  6
CONTINUOUS
 62
     7
100
AcDbMText
 10
752.5283871735
 20
61.9676257859
 30
0.0
 40
2.5
 41
0.0
 71
     1
 72
     1
  1
Allgemeintoleranz:
  7
SLDTEXTSTYLE2
  0
MTEXT
  5
11E
330
1F
100
AcDbEntity
  8
0
  6
CONTINUOUS
 62
     7
100
AcDbMText
 10
697.5812092288
 20
24.9450264733
 30
0.0
 40
2.0
 41
0.0
 71
     1
 72
     1
  1
Massstab
  7
SLDTEXTSTYLE2
  0
MTEXT
  5
11F
330
1F
100
AcDbEntity
  8
0
  6
CONTINUOUS
 62
     7
100
AcDbMText
 10
710.8810017621
 20
21.547887856
 30
0.0
 40
2.0
 41
0.0
 71
     1
 72
     1
  1
Gesehen
  7
SLDTEXTSTYLE2
  0
MTEXT
  5
120
330
1F
100
AcDbEntity
  8
0
  6
CONTINUOUS
 62
     7
100
AcDbMText
 10
710.8810017621
 20
17.3883203952
 30
0.0
 40
2.0
 41
0.0
 71
     1
 72
     1
  1
Geprüft
  7
SLDTEXTSTYLE2
  0
MTEXT
  5
121
330
1F
100
AcDbEntity
  8
0
  6
CONTINUOUS
 62
     7
100
AcDbMText
 10
710.8810017621
 20
25.8479029226
 30
0.0
 40
2.0
 41
0.0
 71
     1
 72
     1
  1
Bearbeiter
  7
SLDTEXTSTYLE2
  0
MTEXT
  5
122
330
1F
100
AcDbEntity
  8
0
  6
CONTINUOUS
 62
     7
100
AcDbMText
 10
728.19133795
 20
30.2026129717
 30
0.0
 40
2.0
 41
0.0
 71
     1
 72
     1
  1
Datum
  7
SLDTEXTSTYLE2
  0
MTEXT
  5
123
330
1F
100
AcDbEntity
  8
0
  6
CONTINUOUS
 62
     7
100
AcDbMText
 10
741.6439512504
 20
30.2026129717
 30
0.0
 40
2.0
 41
0.0
 71
     1
 72
     1
  1
Name
  7
SLDTEXTSTYLE2
  0
MTEXT
  5
124
330
1F
100
AcDbEntity
  8
0
  6
CONTINUOUS
 62
     7
100
AcDbMText
 10
654.9927206779
 20
30.1366493169
 30
0.0
 40
2.0
 41
0.0
 71
     2
 72
     1
  1
Index
  7
SLDTEXTSTYLE2
  0
MTEXT
  5
125
330
1F
100
AcDbEntity
  8
0
  6
CONTINUOUS
 62
     7
100
AcDbMText
 10
659.8154479025
 20
30.1366493169
 30
0.0
 40
2.0
 41
0.0
 71
     1
 72
     1
  1
Aenderung
  7
SLDTEXTSTYLE2
  0
MTEXT
  5
126
330
1F
100
AcDbEntity
  8
0
  6
CONTINUOUS
 62
     7
100
AcDbMText
 10
810.7185481788
 20
13.4839051885
 30
0.0
 40
2.5
 41
0.0
 71
     2
 72
     1
  1
Blatt 1 von 1
  7
SLDTEXTSTYLE2
  0
MTEXT
  5
127
330
1F
100
AcDbEntity
  8
0
  6
CONTINUOUS
 62
     7
100
AcDbMText
 10
698.7423202819
 20
17.9832858355
 30
0.0
 40
5.0
 41
0.0
 71
     1
 72
     1
  1
1:1
  7
SLDTEXTSTYLE2
  0
MTEXT
  5
128
330
1F
100
AcDbEntity
  8
0
  6
CONTINUOUS
 62
     7
100
AcDbMText
 10
771.1548295116
 20
13.3923169483
 30
0.0
 40
2.5
 41
0.0
 71
     2
 72
     1
  1
Format A1
  7
SLDTEXTSTYLE2
  0
MTEXT
  5
129
330
1F
100
AcDbEntity
  8
0
  6
CONTINUOUS
 62
     7
100
AcDbMText
 10
752.5562745601
 20
51.4679080361
 30
0.0
 40
2.5
 41
0.0
 71
     1
 72
     1
  1
Masse:  (g)
  7
SLDTEXTSTYLE2
  0
MTEXT
  5
12A
330
1F
100
AcDbEntity
  8
0
  6
CONTINUOUS
 62
     7
100
AcDbMText
 10
791.7631013381
 20
51.4407341439
 30
0.0
 40
2.5
 41
0.0
 71
     1
 72
     1
  1
Vol:  (mm3)
  7
SLDTEXTSTYLE2
  0
MTEXT
  5
12B
330
1F
100
AcDbEntity
  8
0
  6
CONTINUOUS
 62
     7
100
AcDbMText
 10
824.9889281371
 20
25.9730050844
 30
0.0
 40
2.5
 41
0.0
 71
     2
 72
     1
  1
Index
  7
SLDTEXTSTYLE2
  0
INSERT
  5
133
330
1F
100
AcDbEntity
  8
0
  6
CONTINUOUS
 62
     7
100
AcDbBlockReference
  2
SW_NOTE_1
 10
653.1819274973
 20
20.5260723864
 30
0.0
  0
LINE
  5
134
330
1F
100
AcDbEntity
  8
0
  6
CONTINUOUS
 62
     7
100
AcDbLine
 10
149.426412907
 20
369.2290553127
 30
0.0
 11
149.426412907
 21
377.8790550542
 31
0.0
  0
LINE
  5
135
330
1F
100
AcDbEntity
  8
0
  6
CONTINUOUS
 62
     7
100
AcDbLine
 10
149.426412907
 20
380.8790551967
 30
0.0
 11
149.426412907
 21
381.8790552442
 31
0.0
  0
LINE
  5
136
330
1F
100
AcDbEntity
  8
0
  6
CONTINUOUS
 62
     7
100
AcDbLine
 10
149.426412907
 20
393.8790553485
 30
0.0
 11
149.426412907
 21
394.8790555124
 31
0.0
  0
LINE
  5
137
330
1F
100
AcDbEntity
  8
0
  6
CONTINUOUS
 62
     7
100
AcDbLine
 10
149.426412907
 20
397.8790560042
 30
0.0
 11
149.426412907
 21
402.3790558104
 31
0.0
  0
LINE
  5
138
330
1F
100
AcDbEntity
  8
0
  6
CONTINUOUS
 62
     7
100
AcDbLine
 10
129.426413354
 20
402.3790558104
 30
0.0
 11
129.426413354
 21
397.8790560042
 31
0.0
  0
LINE
  5
139
330
1F
100
AcDbEntity
  8
0
  6
CONTINUOUS
 62
     7
100
AcDbLine
 10
129.426413354
 20
394.8790555124
 30
0.0
 11
129.426413354
 21
393.8790553485
 31
0.0
  0
LINE
  5
13A
330
1F
100
AcDbEntity
  8
0
  6
CONTINUOUS
 62
     7
100
AcDbLine
 10
129.426413354
 20
381.8790552442
 30
0.0
 11
129.426413354
 21
380.8790551967
 31
0.0
  0
LINE
  5
13B
330
1F
100
AcDbEntity
  8
0
  6
CONTINUOUS
 62
     7
100
AcDbLine
 10
129.426413354
 20
377.8790550542
 30
0.0
 11
129.426413354
 21
369.2290553127
 31
0.0
  0
LINE
  5
13C
330
1F
100
AcDbEntity
  8
0
  6
CONTINUOUS
 62
     7
100
AcDbLine
 10
149.426412907
 20
402.3790558104
 30
0.0
 11
148.926412825
 21
402.8790549611
 31
0.0
  0
LINE
  5
13D
330
1F
100
AcDbEntity
  8
0
  6
CONTINUOUS
 62
     7
100
AcDbLine
 10
129.926413436
 20
402.8790549611
 30
0.0
 11
129.426413354
 21
402.3790558104
 31
0.0
  0
LINE
  5
13E
330
1F
100
AcDbEntity
  8
0
  6
CONTINUOUS
 62
     7
100
AcDbLine
 10
129.426413354
 20
313.379057986
 30
0.0
 11
129.926413436
 21
312.8790569727
 31
0.0
  0
LINE
  5
13F
330
1F
100
AcDbEntity
  8
0
  6
CONTINUOUS
 62
     7
100
AcDbLine
 10
148.926412825
 20
312.8790569727
 30
0.0
 11
149.426412907
 21
313.379057986
 31
0.0
  0
LINE
  5
140
330
1F
100
AcDbEntity
  8
0
  6
CONTINUOUS
 62
     7
100
AcDbLine
 10
149.426412907
 20
316.8790576284
 30
0.0
 11
149.426412907
 21
317.8790522044
 31
0.0
  0
LINE
  5
141
330
1F
100
AcDbEntity
  8
0
  6
CONTINUOUS
 62
     7
100
AcDbLine
 10
129.426413354
 20
317.8790522044
 30
0.0
 11
129.426413354
 21
316.8790576284
 31
0.0
  0
LINE
  5
142
330
1F
100
AcDbEntity
  8
0
  6
CONTINUOUS
 62
     7
100
AcDbLine
 10
149.426412907
 20
313.379057986
 30
0.0
 11
149.426412907
 21
315.6290588205
 31
0.0
  0
LINE
  5
143
330
1F
100
AcDbEntity
  8
0
  6
CONTINUOUS
 62
     7
100
AcDbLine
 10
129.426413354
 20
315.6290588205
 30
0.0
 11
129.426413354
 21
313.379057986
 31
0.0
  0
LINE
  5
144
330
1F
100
AcDbEntity
  8
0
  6
CONTINUOUS
 62
     7
100
AcDbLine
 10
149.426412907
 20
354.2290547167
 30
0.0
 11
149.426412907
 21
367.9790555735
 31
0.0
  0
LINE
  5
145
330
1F
100
AcDbEntity
  8
0
  6
CONTINUOUS
 62
     7
100
AcDbLine
 10
129.426413354
 20
367.9790555735
 30
0.0
 11
129.426413354
 21
354.2290547167
 31
0.0
  0
LINE
  5
146
330
1F
100
AcDbEntity
  8
0
  6
CONTINUOUS
 62
     7
100
AcDbLine
 10
149.426412907
 20
352.8790560787
 30
0.0
 11
149.426412907
 21
352.9790559088
 31
0.0
  0
LINE
  5
147
330
1F
100
AcDbEntity
  8
0
  6
CONTINUOUS
 62
     7
100
AcDbLine
 10
129.426413354
 20
352.9790559088
 30
0.0
 11
129.426413354
 21
352.8790560787
 31
0.0
  0
LINE
  5
148
330
1F
100
AcDbEntity
  8
0
  6
CONTINUOUS
 62
     7
100
AcDbLine
 10
148.8264129949
 20
315.6290588205
 30
0.0
 11
148.8264129949
 21
316.8790576284
 31
0.0
  0
LINE
  5
149
330
1F
100
AcDbEntity
  8
0
  6
CONTINUOUS
 62
     7
100
AcDbLine
 10
130.0264132661
 20
316.8790576284
 30
0.0
 11
130.0264132661
 21
315.6290588205
 31
0.0
  0
LINE
  5
14A
330
1F
100
AcDbEntity
  8
0
  6
CONTINUOUS
 62
     7
100
AcDbLine
 10
148.8264129949
 20
352.9790559088
 30
0.0
 11
148.8264129949
 21
354.2290547167
 31
0.0
  0
LINE
  5
14B
330
1F
100
AcDbEntity
  8
0
  6
CONTINUOUS
 62
     7
100
AcDbLine
 10
130.0264132661
 20
354.2290547167
 30
0.0
 11
130.0264132661
 21
352.9790559088
 31
0.0
  0
LINE
  5
14C
330
1F
100
AcDbEntity
  8
0
  6
CONTINUOUS
 62
     7
100
AcDbLine
 10
148.8264129949
 20
367.9790555735
 30
0.0
 11
148.8264129949
 21
369.2290553127
 31
0.0
  0
LINE
  5
14D
330
1F
100
AcDbEntity
  8
0
  6
CONTINUOUS
 62
     7
100
AcDbLine
 10
130.0264132661
 20
369.2290553127
 30
0.0
 11
130.0264132661
 21
367.9790555735
 31
0.0
  0
LINE
  5
14E
330
1F
100
AcDbEntity
  8
0
  6
CONTINUOUS
 62
     7
100
AcDbLine
 10
150.4264130709
 20
392.1290555273
 30
0.0
 11
150.4264130709
 21
393.8790553485
 31
0.0
  0
LINE
  5
14F
330
1F
100
AcDbEntity
  8
0
  6
CONTINUOUS
 62
     7
100
AcDbLine
 10
150.4264130709
 20
381.8790552442
 30
0.0
 11
150.4264130709
 21
383.6342251862
 31
0.0
  0
LINE
  5
150
330
1F
100
AcDbEntity
  8
0
  6
CONTINUOUS
 62
     7
100
AcDbLine
 10
128.4264131901
 20
393.8790553485
 30
0.0
 11
128.4264131901
 21
381.8790552442
 31
0.0
  0
LINE
  5
151
330
1F
100
AcDbEntity
  8
0
  6
CONTINUOUS
 62
     7
100
AcDbLine
 10
151.9264133168
 20
380.8790551967
 30
0.0
 11
151.9264133168
 21
377.8790550542
 31
0.0
  0
LINE
  5
152
330
1F
100
AcDbEntity
  8
0
  6
CONTINUOUS
 62
     7
100
AcDbLine
 10
148.926412825
 20
377.8790550542
 30
0.0
 11
148.926412825
 21
380.8790551967
 31
0.0
  0
LINE
  5
153
330
1F
100
AcDbEntity
  8
0
  6
CONTINUOUS
 62
     7
100
AcDbLine
 10
148.926412825
 20
380.8790551967
 30
0.0
 11
151.9264133168
 21
380.8790551967
 31
0.0
  0
LINE
  5
154
330
1F
100
AcDbEntity
  8
0
  6
CONTINUOUS
 62
     7
100
AcDbLine
 10
151.9264133168
 20
377.8790550542
 30
0.0
 11
148.926412825
 21
377.8790550542
 31
0.0
  0
LINE
  5
155
330
1F
100
AcDbEntity
  8
0
  6
CONTINUOUS
 62
     7
100
AcDbLine
 10
126.9264129442
 20
380.8790551967
 30
0.0
 11
126.9264129442
 21
377.8790550542
 31
0.0
  0
LINE
  5
156
330
1F
100
AcDbEntity
  8
0
  6
CONTINUOUS
 62
     7
100
AcDbLine
 10
121.926413056
 20
382.8790552917
 30
0.0
 11
124.9264135477
 21
382.8790552917
 31
0.0
  0
ARC
  5
157
330
1F
100
AcDbEntity
  8
0
  6
CONTINUOUS
 62
     7
100
AcDbCircle
 10
126.9264131305
 20
382.8790552442
 30
0.0
 40
2.0
100
AcDbArc
 50
180.0
 51
270.0
  0
ARC
  5
158
330
1F
100
AcDbEntity
  8
0
  6
CONTINUOUS
 62
     7
100
AcDbCircle
 10
126.9264131305
 20
382.8790552442
 30
0.0
 40
5.0
100
AcDbArc
 50
180.0
 51
270.0
  0
LINE
  5
159
330
1F
100
AcDbEntity
  8
0
  6
CONTINUOUS
 62
     7
100
AcDbLine
 10
148.926412825
 20
380.8790551967
 30
0.0
 11
126.9264129442
 21
380.8790551967
 31
0.0
  0
LINE
  5
15A
330
1F
100
AcDbEntity
  8
0
  6
CONTINUOUS
 62
     7
100
AcDbLine
 10
148.926412825
 20
377.8790550542
 30
0.0
 11
126.9264129442
 21
377.8790550542
 31
0.0
  0
LINE
  5
15B
330
1F
100
AcDbEntity
  8
0
  6
CONTINUOUS
 62
     7
100
AcDbLine
 10
124.9264135477
 20
392.8790551846
 30
0.0
 11
121.926413056
 21
392.8790551846
 31
0.0
  0
LINE
  5
15C
330
1F
100
AcDbEntity
  8
0
  6
CONTINUOUS
 62
     7
100
AcDbLine
 10
124.9264135477
 20
382.8790552917
 30
0.0
 11
124.9264135477
 21
392.8790551846
 31
0.0
  0
LINE
  5
15D
330
1F
100
AcDbEntity
  8
0
  6
CONTINUOUS
 62
     7
100
AcDbLine
 10
121.926413056
 20
382.8790552917
 30
0.0
 11
121.926413056
 21
392.8790551846
 31
0.0
  0
LINE
  5
15E
330
1F
100
AcDbEntity
  8
0
  6
CONTINUOUS
 62
     7
100
AcDbLine
 10
126.9264129442
 20
397.8790560042
 30
0.0
 11
126.9264129442
 21
394.8790555124
 31
0.0
  0
LINE
  5
15F
330
1F
100
AcDbEntity
  8
0
  6
CONTINUOUS
 62
     7
100
AcDbLine
 10
148.926412825
 20
394.8790555124
 30
0.0
 11
148.926412825
 21
397.8790560042
 31
0.0
  0
LINE
  5
160
330
1F
100
AcDbEntity
  8
0
  6
CONTINUOUS
 62
     7
100
AcDbLine
 10
126.9264129442
 20
397.8790560042
 30
0.0
 11
148.926412825
 21
397.8790560042
 31
0.0
  0
LINE
  5
161
330
1F
100
AcDbEntity
  8
0
  6
CONTINUOUS
 62
     7
100
AcDbLine
 10
126.9264129442
 20
394.8790555124
 30
0.0
 11
148.926412825
 21
394.8790555124
 31
0.0
  0
LINE
  5
162
330
1F
100
AcDbEntity
  8
0
  6
CONTINUOUS
 62
     7
100
AcDbLine
 10
151.9264133168
 20
397.8790560042
 30
0.0
 11
151.9264133168
 21
394.8790555124
 31
0.0
  0
LINE
  5
163
330
1F
100
AcDbEntity
  8
0
  6
CONTINUOUS
 62
     7
100
AcDbLine
 10
148.926412825
 20
397.8790560042
 30
0.0
 11
151.9264133168
 21
397.8790560042
 31
0.0
  0
LINE
  5
164
330
1F
100
AcDbEntity
  8
0
  6
CONTINUOUS
 62
     7
100
AcDbLine
 10
151.9264133168
 20
394.8790555124
 30
0.0
 11
148.926412825
 21
394.8790555124
 31
0.0
  0
ARC
  5
165
330
1F
100
AcDbEntity
  8
0
  6
CONTINUOUS
 62
     7
100
AcDbCircle
 10
126.9264131305
 20
392.8790552442
 30
0.0
 40
2.0
100
AcDbArc
 50
90.0
 51
180.0
  0
ARC
  5
166
330
1F
100
AcDbEntity
  8
0
  6
CONTINUOUS
 62
     7
100
AcDbCircle
 10
126.9264131305
 20
392.8790552442
 30
0.0
 40
5.0
100
AcDbArc
 50
90.0
 51
180.0
  0
LINE
  5
167
330
1F
100
AcDbEntity
  8
0
  6
CONTINUOUS
 62
     7
100
AcDbLine
 10
139.4264131305
 20
402.3790558104
 30
0.0
 11
129.426413354
 21
402.3790558104
 31
0.0
  0
LINE
  5
168
330
1F
100
AcDbEntity
  8
0
  6
CONTINUOUS
 62
     7
100
AcDbLine
 10
149.426412907
 20
402.3790558104
 30
0.0
 11
139.4264131305
 21
402.3790558104
 31
0.0
  0
LINE
  5
169
330
1F
100
AcDbEntity
  8
0
  6
CONTINUOUS
 62
     7
100
AcDbLine
 10
149.426412907
 20
369.2290553127
 30
0.0
 11
129.426413354
 21
369.2290553127
 31
0.0
  0
LINE
  5
16A
330
1F
100
AcDbEntity
  8
0
  6
CONTINUOUS
 62
     7
100
AcDbLine
 10
139.4264131305
 20
402.8790549611
 30
0.0
 11
148.926412825
 21
402.8790549611
 31
0.0
  0
LINE
  5
16B
330
1F
100
AcDbEntity
  8
0
  6
CONTINUOUS
 62
     7
100
AcDbLine
 10
129.926413436
 20
402.8790549611
 30
0.0
 11
139.4264131305
 21
402.8790549611
 31
0.0
  0
LINE
  5
16C
330
1F
100
AcDbEntity
  8
0
  6
CONTINUOUS
 62
     7
100
AcDbLine
 10
139.4264131305
 20
313.379057986
 30
0.0
 11
149.426412907
 21
313.379057986
 31
0.0
  0
LINE
  5
16D
330
1F
100
AcDbEntity
  8
0
  6
CONTINUOUS
 62
     7
100
AcDbLine
 10
129.426413354
 20
313.379057986
 30
0.0
 11
139.4264131305
 21
313.379057986
 31
0.0
  0
LINE
  5
16E
330
1F
100
AcDbEntity
  8
0
  6
CONTINUOUS
 62
     7
100
AcDbLine
 10
139.4264131305
 20
312.8790569727
 30
0.0
 11
129.926413436
 21
312.8790569727
 31
0.0
  0
LINE
  5
16F
330
1F
100
AcDbEntity
  8
0
  6
CONTINUOUS
 62
     7
100
AcDbLine
 10
148.926412825
 20
312.8790569727
 30
0.0
 11
139.4264131305
 21
312.8790569727
 31
0.0
  0
LINE
  5
170
330
1F
100
AcDbEntity
  8
0
  6
CONTINUOUS
 62
     7
100
AcDbLine
 10
149.426412907
 20
316.8790576284
 30
0.0
 11
129.426413354
 21
316.8790576284
 31
0.0
  0
LINE
  5
171
330
1F
100
AcDbEntity
  8
0
  6
CONTINUOUS
 62
     7
100
AcDbLine
 10
149.426412907
 20
315.6290588205
 30
0.0
 11
129.426413354
 21
315.6290588205
 31
0.0
  0
LINE
  5
172
330
1F
100
AcDbEntity
  8
0
  6
CONTINUOUS
 62
     7
100
AcDbLine
 10
149.426412907
 20
367.9790555735
 30
0.0
 11
129.426413354
 21
367.9790555735
 31
0.0
  0
LINE
  5
173
330
1F
100
AcDbEntity
  8
0
  6
CONTINUOUS
 62
     7
100
AcDbLine
 10
149.426412907
 20
354.2290547167
 30
0.0
 11
129.426413354
 21
354.2290547167
 31
0.0
  0
LINE
  5
174
330
1F
100
AcDbEntity
  8
0
  6
CONTINUOUS
 62
     7
100
AcDbLine
 10
149.426412907
 20
352.9790559088
 30
0.0
 11
129.426413354
 21
352.9790559088
 31
0.0
  0
LINE
  5
175
330
1F
100
AcDbEntity
  8
0
  6
CONTINUOUS
 62
     7
100
AcDbLine
 10
124.4264134658
 20
352.8790560787
 30
0.0
 11
124.4264134658
 21
317.8790522044
 31
0.0
  0
LINE
  5
176
330
1F
100
AcDbEntity
  8
0
  6
CONTINUOUS
 62
     7
100
AcDbLine
 10
124.4264134658
 20
317.8790522044
 30
0.0
 11
154.4264127952
 21
317.8790522044
 31
0.0
  0
LINE
  5
177
330
1F
100
AcDbEntity
  8
0
  6
CONTINUOUS
 62
     7
100
AcDbLine
 10
124.4264134658
 20
352.8790560787
 30
0.0
 11
154.4264127952
 21
352.8790560787
 31
0.0
  0
LINE
  5
178
330
1F
100
AcDbEntity
  8
0
  6
CONTINUOUS
 62
     7
100
AcDbLine
 10
154.4264127952
 20
352.8790560787
 30
0.0
 11
154.4264127952
 21
317.8790522044
 31
0.0
  0
LINE
  5
179
330
1F
100
AcDbEntity
  8
0
  6
CONTINUOUS
 62
     7
100
AcDbLine
 10
128.4264131901
 20
381.8790552442
 30
0.0
 11
150.4264130709
 21
381.8790552442
 31
0.0
  0
LINE
  5
17A
330
1F
100
AcDbEntity
  8
0
  6
CONTINUOUS
 62
     7
100
AcDbLine
 10
128.4264131901
 20
393.8790553485
 30
0.0
 11
150.4264130709
 21
393.8790553485
 31
0.0
  0
ARC
  5
17B
330
1F
100
AcDbEntity
  8
0
  6
CONTINUOUS
 62
     7
100
AcDbCircle
 10
160.882465413
 20
387.8791926897
 30
0.0
 40
11.2867340147622
100
AcDbArc
 50
157.8807147791
 51
202.0924629268
  0
DIMENSION
  5
17C
330
1F
100
AcDbEntity
  8
0
  6
CONTINUOUS
 62
   161
100
AcDbDimension
  2
_D
 10
121.9264131305
 20
304.8790552442
 30
0.0
 11
101.9264131305
 21
304.8790552442
 31
0.0
 70
   160
  1
<>
  3
SLDDIMSTYLE0
100
AcDbAlignedDimension
 13
124.4264131305
 23
317.8790552442
 33
0.0
 14
121.9264131305
 24
382.8790552442
 34
0.0
100
AcDbRotatedDimension
  0
SPLINE
  5
189
330
1F
100
AcDbEntity
  8
0
  6
CONTINUOUS
 62
     7
100
AcDbSpline
210
0.0
220
0.0
230
1.0
 70
     8
 71
     3
 72
    13
 73
     9
 74
     0
 42
0.000000001
 43
0.00000001
 40
0.0
 40
0.0
 40
0.0
 40
0.0
 40
0.152112601091734
 40
0.2862577476491434
 40
0.5048826295667219
 40
0.7043508489731958
 40
0.9306169029105236
 40
1.0
 40
1.0
 40
1.0
 40
1.0
 10
312.3200342337316
 20
380.6293842618344
 30
0.0
 10
312.4870611265607
 20
380.6526479907193
 30
0.0
 10
312.8013857899676
 20
380.6964275499716
 30
0.0
 10
313.2283542276508
 20
381.0291686965478
 30
0.0
 10
313.4972879608812
 20
381.4800087876937
 30
0.0
 10
313.659212765847
 20
381.9493889722485
 30
0.0
 10
313.7905155591952
 20
382.4064893788105
 30
0.0
 10
313.8599556641049
 20
382.7512830943023
 30
0.0
 10
313.8762519041722
 20
382.8321994634335
 30
0.0
  0
SPLINE
  5
18A
330
1F
100
AcDbEntity
  8
0
  6
CONTINUOUS
 62
     7
100
AcDbSpline
210
0.0
220
0.0
230
1.0
 70
     8
 71
     3
 72
    13
 73
     9
 74
     0
 42
0.000000001
 43
0.00000001
 40
0.0
 40
0.0
 40
0.0
 40
0.0
 40
0.0872409698596976
 40
0.2742437461256363
 40
0.4592133104409042
 40
0.6955486745187169
 40
0.838897348473065
 40
1.0
 40
1.0
 40
1.0
 40
1.0
 10
315.0267705599492
 20
394.4443234478114
 30
0.0
 10
315.022201995734
 20
394.4669987324312
 30
0.0
 10
315.007840622095
 20
394.5382789464018
 30
0.0
 10
314.9452730129709
 20
394.6396795072266
 30
0.0
 10
314.8212978844036
 20
394.8202765021305
 30
0.0
 10
314.5949959182601
 20
395.0012641043687
 30
0.0
 10
314.3294442868564
 20
395.108582385142
 30
0.0
 10
314.1625837913057
 20
395.1218506287696
 30
0.0
 10
314.0742883364385
 20
395.1288716171858
 30
0.0
  0
SPLINE
  5
18B
330
1F
100
AcDbEntity
  8
0
  6
CONTINUOUS
 62
     7
100
AcDbSpline
210
0.0
220
0.0
230
1.0
 70
     8
 71
     3
 72
    22
 73
    18
 74
     0
 42
0.000000001
 43
0.00000001
 40
0.0
 40
0.0
 40
0.0
 40
0.0
 40
0.0110636261681804
 40
0.0553349413106386
 40
0.1094099302537875
 40
0.1738186894450538
 40
0.2486000817315308
 40
0.3296926446553939
 40
0.4098964320903503
 40
0.4890667539664144
 40
0.5671645188915903
 40
0.6438958253696984
 40
0.7169225393398027
 40
0.8508309029506649
 40
0.9197266315422062
 40
0.958323606817358
 40
1.0
 40
1.0
 40
1.0
 40
1.0
 10
312.9270777384465
 20
382.4043175674034
 30
0.0
 10
312.9298550896304
 20
382.4036749971556
 30
0.0
 10
312.9437460655565
 20
382.4004611695723
 30
0.0
 10
312.8539110134968
 20
382.6290727082022
 30
0.0
 10
312.7521504003242
 20
383.0558515919872
 30
0.0
 10
312.5962572845507
 20
383.80562193599
 30
0.0
 10
312.416753221282
 20
384.8730935133162
 30
0.0
 10
312.2200802185612
 20
386.2042520812302
 30
0.0
 10
312.0198817789517
 20
387.6621388391159
 30
0.0
 10
311.8217059150777
 20
389.1238175772431
 30
0.0
 10
311.6250556414756
 20
390.5098392529414
 30
0.0
 10
311.4361789519128
 20
391.7304322593046
 30
0.0
 10
311.1843317189163
 20
393.0742742170451
 30
0.0
 10
310.9688358276051
 20
393.9984665663759
 30
0.0
 10
310.5719368377483
 20
394.7081485666032
 30
0.0
 10
310.1266337836328
 20
395.0611363816204
 30
0.0
 10
309.8086030940096
 20
395.1056918007424
 30
0.0
 10
309.6434876600926
 20
395.1288241197345
 30
0.0
  0
SPLINE
  5
18C
330
1F
100
AcDbEntity
  8
0
  6
CONTINUOUS
 62
     7
100
AcDbSpline
210
0.0
220
0.0
230
1.0
 70
     8
 71
     3
 72
    20
 73
    16
 74
     0
 42
0.000000001
 43
0.00000001
 40
0.0
 40
0.0
 40
0.0
 40
0.0
 40
0.0190278784507282
 40
0.0808050967944515
 40
0.1439474077998613
 40
0.2092648022357261
 40
0.2767099664869392
 40
0.3462253470029561
 40
0.4171732455911714
 40
0.5492354755591794
 40
0.6664906635899172
 40
0.787643629036734
 40
0.8798298938558737
 40
0.9365087802021281
 40
1.0
 40
1.0
 40
1.0
 40
1.0
 10
309.0973899046605
 20
393.2796132986424
 30
0.0
 10
309.0844364844233
 20
393.285089861719
 30
0.0
 10
309.0294275994975
 20
393.3083470109933
 30
0.0
 10
309.1381779686898
 20
393.0354305148586
 30
0.0
 10
309.2755870779566
 20
392.409259695835
 30
0.0
 10
309.4365433448367
 20
391.5571060396611
 30
0.0
 10
309.6030280780511
 20
390.5125540269706
 30
0.0
 10
309.7770892830627
 20
389.3108446662412
 30
0.0
 10
310.0055585270965
 20
387.6453734053601
 30
0.0
 10
310.2744606583632
 20
385.6429472639339
 30
0.0
 10
310.5921292696105
 20
383.6423449350572
 30
0.0
 10
310.8552775623256
 20
382.2171378490177
 30
0.0
 10
311.3140054059954
 20
381.2087255373257
 30
0.0
 10
311.8133075195632
 20
380.718249841423
 30
0.0
 10
312.1450746869069
 20
380.6601053836856
 30
0.0
 10
312.3203620592778
 20
380.6293850767416
 30
0.0
  0
SPLINE
  5
18D
330
1F
100
AcDbEntity
  8
0
  6
CONTINUOUS
 62
     7
100
AcDbSpline
210
0.0
220
0.0
230
1.0
 70
     8
 71
     3
 72
    11
 73
     7
 74
     0
 42
0.000000001
 43
0.00000001
 40
0.0
 40
0.0
 40
0.0
 40
0.0
 40
0.2586774077259087
 40
0.5136661816982941
 40
0.7614718940114221
 40
1.0
 40
1.0
 40
1.0
 40
1.0
 10
314.0743479410833
 20
395.1288706858633
 30
0.0
 10
313.9342197551041
 20
395.1088676256097
 30
0.0
 10
313.6559615536128
 20
395.0691467405385
 30
0.0
 10
313.2991700891181
 20
394.7588235329325
 30
0.0
 10
313.0383679373062
 20
394.3123962061389
 30
0.0
 10
312.9867943094403
 20
393.93324588229
 30
0.0
 10
312.9614994208043
 20
393.7472871740339
 30
0.0
  0
SPLINE
  5
18E
330
1F
100
AcDbEntity
  8
0
  6
CONTINUOUS
 62
     7
100
AcDbSpline
210
0.0
220
0.0
230
1.0
 70
     8
 71
     3
 72
    13
 73
     9
 74
     0
 42
0.000000001
 43
0.00000001
 40
0.0
 40
0.0
 40
0.0
 40
0.0
 40
0.165983776317124
 40
0.3053624969435427
 40
0.5064563681252097
 40
0.6704950733463004
 40
0.9108333350352774
 40
1.0
 40
1.0
 40
1.0
 40
1.0
 10
309.6438154856389
 20
395.128823188412
 30
0.0
 10
309.4859266150428
 20
395.1082875092358
 30
0.0
 10
309.1954564206986
 20
395.0705077550406
 30
0.0
 10
308.7984523136436
 20
394.7908494130425
 30
0.0
 10
308.5253497497911
 20
394.3918235280375
 30
0.0
 10
308.3850514149258
 20
394.0388094984002
 30
0.0
 10
308.2655764853905
 20
393.6983778098561
 30
0.0
 10
308.1958918134847
 20
393.3854155399942
 30
0.0
 10
308.1770345846837
 20
393.3007254500864
 30
0.0
  0
LWPOLYLINE
  5
18F
330
1F
100
AcDbEntity
  8
0
  6
CONTINUOUS
 62
     7
100
AcDbPolyline
 90
       14
 70
   128
 43
0.0
 10
313.0900070349
 20
393.9379782652
 10
313.1033882777
 20
393.957962585
 10
313.1691322009
 20
393.7675471653
 10
313.2345184962
 20
393.3055971985
 10
313.2994279544
 20
392.6038735782
 10
313.363830773
 20
391.7012040739
 10
313.4277269522
 20
390.64464469
 10
313.4909972827
 20
389.4836547089
 10
313.5536417643
 20
388.2699923825
 10
313.6768147628
 20
385.8802763981
 10
313.7969479243
 20
383.8261375905
 10
313.9137730281
 20
382.361840556
 10
314.0269622485
 20
381.624574814
 10
314.0269622485
 20
381.624574814
  0
SPLINE
  5
190
330
1F
100
AcDbEntity
  8
0
  6
CONTINUOUS
 62
     7
100
AcDbSpline
210
0.0
220
0.0
230
1.0
 70
     8
 71
     3
 72
     9
 73
     5
 74
     0
 42
0.000000001
 43
0.00000001
 40
0.0
 40
0.0
 40
0.0
 40
0.0
 40
0.7412508868313139
 40
1.0
 40
1.0
 40
1.0
 40
1.0
 10
313.0230114142125
 20
394.1197184150097
 30
0.0
 10
312.9855023255054
 20
393.9461928556239
 30
0.0
 10
312.934899905497
 20
393.7120945732898
 30
0.0
 10
312.8843402536833
 20
393.0502951885005
 30
0.0
 10
312.8712579886144
 20
392.8790551845906
 30
0.0
  0
SPLINE
  5
191
330
1F
100
AcDbEntity
  8
0
  6
CONTINUOUS
 62
     7
100
AcDbSpline
210
0.0
220
0.0
230
1.0
 70
     8
 71
     3
 72
    11
 73
     7
 74
     0
 42
0.000000001
 43
0.00000001
 40
0.0
 40
0.0
 40
0.0
 40
0.0
 40
0.2387146677701556
 40
0.4865463893331827
 40
0.7414598976081285
 40
0.9999999999999999
 40
0.9999999999999999
 40
0.9999999999999999
 40
0.9999999999999999
 10
313.9647349993413
 20
381.9893224473218
 30
0.0
 10
313.9897306332318
 20
381.8063836331453
 30
0.0
 10
314.04067654088
 20
381.4335191571669
 30
0.0
 10
314.3007315886298
 20
380.9937573663829
 30
0.0
 10
314.6567257466947
 20
380.6880676898717
 30
0.0
 10
314.9344978471336
 20
380.6489484870505
 30
0.0
 10
315.0743648688024
 20
380.6292507334603
 30
0.0
  0
LINE
  5
192
330
1F
100
AcDbEntity
  8
0
  6
CONTINUOUS
 62
     7
100
AcDbLine
 10
275.5241200606
 20
380.6290552721
 30
0.0
 11
308.1761703173
 21
380.6290552721
 31
0.0
  0
LINE
  5
193
330
1F
100
AcDbEntity
  8
0
  6
CONTINUOUS
 62
     7
100
AcDbLine
 10
308.1761703173
 20
395.1290550877
 30
0.0
 11
275.5241200606
 21
395.1290550877
 31
0.0
  0
LINE
  5
194
330
1F
100
AcDbEntity
  8
0
  6
CONTINUOUS
 62
     7
100
AcDbLine
 10
255.5241093318
 20
377.8790550542
 30
0.0
 11
275.5241200606
 21
377.8790550542
 31
0.0
  0
LINE
  5
195
330
1F
100
AcDbEntity
  8
0
  6
CONTINUOUS
 62
     7
100
AcDbLine
 10
275.5241200606
 20
397.8790560042
 30
0.0
 11
255.5241093318
 21
397.8790560042
 31
0.0
  0
LINE
  5
196
330
1F
100
AcDbEntity
  8
0
  6
CONTINUOUS
 62
     7
100
AcDbLine
 10
413.9288172404
 20
352.8790560787
 30
0.0
 11
413.9288172404
 21
352.9790559088
 31
0.0
  0
LINE
  5
197
330
1F
100
AcDbEntity
  8
0
  6
CONTINUOUS
 62
     7
100
AcDbLine
 10
393.9288065116
 20
352.9790559088
 30
0.0
 11
393.9288065116
 21
352.8790560787
 31
0.0
  0
LINE
  5
198
330
1F
100
AcDbEntity
  8
0
  6
CONTINUOUS
 62
     7
100
AcDbLine
 10
413.9288172404
 20
354.2290547167
 30
0.0
 11
413.9288172404
 21
367.9790555735
 31
0.0
  0
LINE
  5
199
330
1F
100
AcDbEntity
  8
0
  6
CONTINUOUS
 62
     7
100
AcDbLine
 10
393.9288065116
 20
367.9790555735
 30
0.0
 11
393.9288065116
 21
354.2290547167
 31
0.0
  0
LINE
  5
19A
330
1F
100
AcDbEntity
  8
0
  6
CONTINUOUS
 62
     7
100
AcDbLine
 10
413.9288172404
 20
393.627978233
 30
0.0
 11
413.9288172404
 21
402.3790558104
 31
0.0
  0
LINE
  5
19B
330
1F
100
AcDbEntity
  8
0
  6
CONTINUOUS
 62
     7
100
AcDbLine
 10
413.9288172404
 20
369.2290553127
 30
0.0
 11
413.9288172404
 21
382.1290610477
 31
0.0
  0
LINE
  5
19C
330
1F
100
AcDbEntity
  8
0
  6
CONTINUOUS
 62
     7
100
AcDbLine
 10
393.9288065116
 20
382.1301326217
 30
0.0
 11
393.9288065116
 21
369.2290553127
 31
0.0
  0
LINE
  5
19D
330
1F
100
AcDbEntity
  8
0
  6
CONTINUOUS
 62
     7
100
AcDbLine
 10
393.9288065116
 20
402.3790558104
 30
0.0
 11
393.9288065116
 21
393.6290492539
 31
0.0
  0
LINE
  5
19E
330
1F
100
AcDbEntity
  8
0
  6
CONTINUOUS
 62
     7
100
AcDbLine
 10
413.9288172404
 20
402.3790558104
 30
0.0
 11
413.4288236777
 21
402.8790549611
 31
0.0
  0
LINE
  5
19F
330
1F
100
AcDbEntity
  8
0
  6
CONTINUOUS
 62
     7
100
AcDbLine
 10
394.4288298766
 20
402.8790549611
 30
0.0
 11
393.9288065116
 21
402.3790558104
 31
0.0
  0
LINE
  5
1A0
330
1F
100
AcDbEntity
  8
0
  6
CONTINUOUS
 62
     7
100
AcDbLine
 10
413.9288172404
 20
316.8790576284
 30
0.0
 11
413.9288172404
 21
317.8790522044
 31
0.0
  0
LINE
  5
1A1
330
1F
100
AcDbEntity
  8
0
  6
CONTINUOUS
 62
     7
100
AcDbLine
 10
393.9288065116
 20
317.8790522044
 30
0.0
 11
393.9288065116
 21
316.8790576284
 31
0.0
  0
LINE
  5
1A2
330
1F
100
AcDbEntity
  8
0
  6
CONTINUOUS
 62
     7
100
AcDbLine
 10
413.9288172404
 20
313.379057986
 30
0.0
 11
413.9288172404
 21
315.6290588205
 31
0.0
  0
LINE
  5
1A3
330
1F
100
AcDbEntity
  8
0
  6
CONTINUOUS
 62
     7
100
AcDbLine
 10
393.9288065116
 20
315.6290588205
 30
0.0
 11
393.9288065116
 21
313.379057986
 31
0.0
  0
LINE
  5
1A4
330
1F
100
AcDbEntity
  8
0
  6
CONTINUOUS
 62
     7
100
AcDbLine
 10
393.9288065116
 20
313.379057986
 30
0.0
 11
394.4288298766
 21
312.8790569727
 31
0.0
  0
LINE
  5
1A5
330
1F
100
AcDbEntity
  8
0
  6
CONTINUOUS
 62
     7
100
AcDbLine
 10
413.4288236777
 20
312.8790569727
 30
0.0
 11
413.9288172404
 21
313.379057986
 31
0.0
  0
LINE
  5
1A6
330
1F
100
AcDbEntity
  8
0
  6
CONTINUOUS
 62
     7
100
AcDbLine
 10
413.3288219849
 20
352.9790559088
 30
0.0
 11
413.3288219849
 21
354.2290547167
 31
0.0
  0
LINE
  5
1A7
330
1F
100
AcDbEntity
  8
0
  6
CONTINUOUS
 62
     7
100
AcDbLine
 10
394.5288166682
 20
354.2290547167
 30
0.0
 11
394.5288166682
 21
352.9790559088
 31
0.0
  0
LINE
  5
1A8
330
1F
100
AcDbEntity
  8
0
  6
CONTINUOUS
 62
     7
100
AcDbLine
 10
413.3288219849
 20
315.6290588205
 30
0.0
 11
413.3288219849
 21
316.8790576284
 31
0.0
  0
LINE
  5
1A9
330
1F
100
AcDbEntity
  8
0
  6
CONTINUOUS
 62
     7
100
AcDbLine
 10
394.5288166682
 20
316.8790576284
 30
0.0
 11
394.5288166682
 21
315.6290588205
 31
0.0
  0
LINE
  5
1AA
330
1F
100
AcDbEntity
  8
0
  6
CONTINUOUS
 62
     7
100
AcDbLine
 10
413.3288219849
 20
367.9790555735
 30
0.0
 11
413.3288219849
 21
369.2290553127
 31
0.0
  0
LINE
  5
1AB
330
1F
100
AcDbEntity
  8
0
  6
CONTINUOUS
 62
     7
100
AcDbLine
 10
394.5288166682
 20
369.2290553127
 30
0.0
 11
394.5288166682
 21
367.9790555735
 31
0.0
  0
LINE
  5
1AC
330
1F
100
AcDbEntity
  8
0
  6
CONTINUOUS
 62
     7
100
AcDbLine
 10
308.1711635272
 20
382.8790552917
 30
0.0
 11
310.7739791552
 21
382.8790552917
 31
0.0
  0
LINE
  5
1AD
330
1F
100
AcDbEntity
  8
0
  6
CONTINUOUS
 62
     7
100
AcDbLine
 10
312.7999708335
 20
382.8790552917
 30
0.0
 11
313.8724968116
 21
382.8790552917
 31
0.0
  0
LINE
  5
1AE
330
1F
100
AcDbEntity
  8
0
  6
CONTINUOUS
 62
     7
100
AcDbLine
 10
315.0241181533
 20
382.8790552917
 30
0.0
 11
394.3726524989
 21
382.8790552917
 31
0.0
  0
LINE
  5
1AF
330
1F
100
AcDbEntity
  8
0
  6
CONTINUOUS
 62
     7
100
AcDbLine
 10
413.4861931483
 20
382.8790552917
 30
0.0
 11
629.5241147558
 21
382.8790552917
 31
0.0
  0
LINE
  5
1B0
330
1F
100
AcDbEntity
  8
0
  6
CONTINUOUS
 62
     7
100
AcDbLine
 10
629.5241147558
 20
392.8790551846
 30
0.0
 11
413.4849861542
 21
392.8790551846
 31
0.0
  0
LINE
  5
1B1
330
1F
100
AcDbEntity
  8
0
  6
CONTINUOUS
 62
     7
100
AcDbLine
 10
394.3714306037
 20
392.8790551846
 30
0.0
 11
315.0241181533
 21
392.8790551846
 31
0.0
  0
LINE
  5
1B2
330
1F
100
AcDbEntity
  8
0
  6
CONTINUOUS
 62
     7
100
AcDbLine
 10
313.273976771
 20
392.8790551846
 30
0.0
 11
311.2051293532
 21
392.8790551846
 31
0.0
  0
LINE
  5
1B3
330
1F
100
AcDbEntity
  8
0
  6
CONTINUOUS
 62
     7
100
AcDbLine
 10
309.1629252116
 20
392.8790551846
 30
0.0
 11
308.1711635272
 21
392.8790551846
 31
0.0
  0
SPLINE
  5
1B4
330
1F
100
AcDbEntity
  8
0
  6
CONTINUOUS
 62
     7
100
AcDbSpline
210
0.0
220
0.0
230
1.0
 70
    24
 71
     3
 72
    16
 73
    12
 74
     0
 42
0.000000001
 43
0.00000001
 40
0.0
 40
0.0
 40
0.0
 40
0.0
 40
0.1219793164707362
 40
0.2439344958601265
 40
0.3658614340748325
 40
0.4877805878808906
 40
0.6097166682841362
 40
0.7316179010408044
 40
0.8535332865589801
 40
0.9754087414152951
 40
1.0
 40
1.0
 40
1.0
 40
1.0
 10
315.0241181532567
 20
380.7187891335217
 30
0.0
 10
315.0241181532567
 20
380.9249633027541
 30
0.0
 10
315.0241181532567
 20
381.3372708437881
 30
0.0
 10
315.0241181532567
 20
382.9090531714279
 30
0.0
 10
315.0241181532568
 20
384.980621326212
 30
0.0
 10
315.0241181532568
 20
387.3897029208102
 30
0.0
 10
315.0241181532566
 20
389.8323032898616
 30
0.0
 10
315.0241181532568
 20
392.0326517411549
 30
0.0
 10
315.0241181532568
 20
393.6606963670562
 30
0.0
 10
315.0241181532566
 20
394.3969485717545
 30
0.0
 10
315.0241181532567
 20
394.4368852634523
 30
0.0
 10
315.0241181532567
 20
394.4435904969451
 30
0.0
  0
SPLINE
  5
1B5
330
1F
100
AcDbEntity
  8
0
  6
CONTINUOUS
 62
     7
100
AcDbSpline
210
0.0
220
0.0
230
1.0
 70
    24
 71
     3
 72
    12
 73
     8
 74
     0
 42
0.000000001
 43
0.00000001
 40
0.0
 40
0.0
 40
0.0
 40
0.0
 40
0.2272501290540156
 40
0.4544956273066473
 40
0.6817438535881067
 40
0.9089930591602086
 40
1.0
 40
1.0
 40
1.0
 40
1.0
 10
308.1711635271733
 20
389.0162541766641
 30
0.0
 10
308.1711635271733
 20
388.0629584190266
 30
0.0
 10
308.1711635271733
 20
386.1563863295856
 30
0.0
 10
308.1711635271732
 20
383.4958697555187
 30
0.0
 10
308.1711635271735
 20
381.5815530237929
 30
0.0
 10
308.1711635271732
 20
380.6135144945063
 30
0.0
 10
308.1711635271733
 20
380.7295917156929
 30
0.0
 10
308.1711635271733
 20
380.7627845791159
 30
0.0
  0
SPLINE
  5
1B6
330
1F
100
AcDbEntity
  8
0
  6
CONTINUOUS
 62
     7
100
AcDbSpline
210
0.0
220
0.0
230
1.0
 70
    24
 71
     3
 72
    11
 73
     7
 74
     0
 42
0.000000001
 43
0.00000001
 40
0.0
 40
0.0
 40
0.0
 40
0.0
 40
0.1665585432352401
 40
0.4443719393126136
 40
0.7221836588404166
 40
1.0
 40
1.0
 40
1.0
 40
1.0
 10
308.1711635271733
 20
394.9953255479214
 30
0.0
 10
308.1711635271733
 20
395.0091372735247
 30
0.0
 10
308.1711635271733
 20
395.0459864388236
 30
0.0
 10
308.1711635271735
 20
393.866180465942
 30
0.0
 10
308.1711635271732
 20
391.7841161666962
 30
0.0
 10
308.1711635271733
 20
389.9388799561419
 30
0.0
 10
308.1711635271733
 20
389.0162541766641
 30
0.0
  0
LINE
  5
1B7
330
1F
100
AcDbEntity
  8
0
  6
CONTINUOUS
 62
     7
100
AcDbLine
 10
255.5241093318
 20
397.8790560042
 30
0.0
 11
255.5241093318
 21
377.8790550542
 31
0.0
  0
LINE
  5
1B8
330
1F
100
AcDbEntity
  8
0
  6
CONTINUOUS
 62
     7
100
AcDbLine
 10
275.5241200606
 20
397.8790560042
 30
0.0
 11
275.5241200606
 21
377.8790550542
 31
0.0
  0
LINE
  5
1B9
330
1F
100
AcDbEntity
  8
0
  6
CONTINUOUS
 62
     7
100
AcDbLine
 10
681.5241158287
 20
392.8790551846
 30
0.0
 11
629.5241147558
 21
392.8790551846
 31
0.0
  0
LINE
  5
1BA
330
1F
100
AcDbEntity
  8
0
  6
CONTINUOUS
 62
     7
100
AcDbLine
 10
681.5241158287
 20
382.8790552917
 30
0.0
 11
681.5241158287
 21
392.8790551846
 31
0.0
  0
LINE
  5
1BB
330
1F
100
AcDbEntity
  8
0
  6
CONTINUOUS
 62
     7
100
AcDbLine
 10
681.5241158287
 20
382.8790552917
 30
0.0
 11
629.5241147558
 21
382.8790552917
 31
0.0
  0
LINE
  5
1BC
330
1F
100
AcDbEntity
  8
0
  6
CONTINUOUS
 62
     7
100
AcDbLine
 10
629.5241147558
 20
382.8790552917
 30
0.0
 11
629.5241147558
 21
392.8790551846
 31
0.0
  0
CIRCLE
  5
1BD
330
1F
100
AcDbEntity
  8
0
  6
CONTINUOUS
 62
     7
100
AcDbCircle
 10
639.5241152922
 20
387.8790552442
 30
0.0
 40
3.25
  0
CIRCLE
  5
1BE
330
1F
100
AcDbEntity
  8
0
  6
CONTINUOUS
 62
     7
100
AcDbCircle
 10
671.5241152922
 20
387.8790552442
 30
0.0
 40
3.25
  0
LINE
  5
1BF
330
1F
100
AcDbEntity
  8
0
  6
CONTINUOUS
 62
     7
100
AcDbLine
 10
681.5241158287
 20
397.8790560042
 30
0.0
 11
629.5241147558
 21
397.8790560042
 31
0.0
  0
LINE
  5
1C0
330
1F
100
AcDbEntity
  8
0
  6
CONTINUOUS
 62
     7
100
AcDbLine
 10
681.5241158287
 20
392.8790551846
 30
0.0
 11
681.5241158287
 21
397.8790560042
 31
0.0
  0
LINE
  5
1C1
330
1F
100
AcDbEntity
  8
0
  6
CONTINUOUS
 62
     7
100
AcDbLine
 10
629.5241147558
 20
392.8790551846
 30
0.0
 11
629.5241147558
 21
397.8790560042
 31
0.0
  0
LINE
  5
1C2
330
1F
100
AcDbEntity
  8
0
  6
CONTINUOUS
 62
     7
100
AcDbLine
 10
681.5241158287
 20
377.8790550542
 30
0.0
 11
681.5241158287
 21
382.8790552917
 31
0.0
  0
LINE
  5
1C3
330
1F
100
AcDbEntity
  8
0
  6
CONTINUOUS
 62
     7
100
AcDbLine
 10
681.5241158287
 20
377.8790550542
 30
0.0
 11
629.5241147558
 21
377.8790550542
 31
0.0
  0
LINE
  5
1C4
330
1F
100
AcDbEntity
  8
0
  6
CONTINUOUS
 62
     7
100
AcDbLine
 10
629.5241147558
 20
377.8790550542
 30
0.0
 11
629.5241147558
 21
382.8790552917
 31
0.0
  0
LINE
  5
1C5
330
1F
100
AcDbEntity
  8
0
  6
CONTINUOUS
 62
     7
100
AcDbLine
 10
413.9288172404
 20
352.9790559088
 30
0.0
 11
393.9288065116
 21
352.9790559088
 31
0.0
  0
LINE
  5
1C6
330
1F
100
AcDbEntity
  8
0
  6
CONTINUOUS
 62
     7
100
AcDbLine
 10
413.9288172404
 20
354.2290547167
 30
0.0
 11
393.9288065116
 21
354.2290547167
 31
0.0
  0
LINE
  5
1C7
330
1F
100
AcDbEntity
  8
0
  6
CONTINUOUS
 62
     7
100
AcDbLine
 10
413.9288172404
 20
367.9790555735
 30
0.0
 11
393.9288065116
 21
367.9790555735
 31
0.0
  0
LINE
  5
1C8
330
1F
100
AcDbEntity
  8
0
  6
CONTINUOUS
 62
     7
100
AcDbLine
 10
413.9288172404
 20
402.3790558104
 30
0.0
 11
393.9288065116
 21
402.3790558104
 31
0.0
  0
LINE
  5
1C9
330
1F
100
AcDbEntity
  8
0
  6
CONTINUOUS
 62
     7
100
AcDbLine
 10
413.9288172404
 20
369.2290553127
 30
0.0
 11
393.9288065116
 21
369.2290553127
 31
0.0
  0
SPLINE
  5
1CA
330
1F
100
AcDbEntity
  8
0
  6
CONTINUOUS
 62
     7
100
AcDbSpline
210
0.0
220
0.0
230
1.0
 70
     8
 71
     3
 72
    20
 73
    16
 74
     0
 42
0.000000001
 43
0.00000001
 40
0.0
 40
0.0
 40
0.0
 40
0.0
 40
0.0631326632295948
 40
0.1279471926373096
 40
0.2539382567564991
 40
0.3776883676247925
 40
0.4402640944076394
 40
0.4995911590524111
 40
0.5589751513407295
 40
0.6218278053516549
 40
0.7459713798434346
 40
0.8716361947326626
 40
0.9362015604971559
 40
0.9994040739124944
 40
1.0
 40
1.0
 40
1.0
 40
1.0
 10
413.9288172403997
 20
382.1290610477319
 30
0.0
 10
413.9145960183513
 20
382.1518321525245
 30
0.0
 10
413.8857747181892
 20
382.1979809886805
 30
0.0
 10
413.5953627934717
 20
382.6714970689196
 30
0.0
 10
412.9809162041598
 20
383.705390183002
 30
0.0
 10
412.3009421861223
 20
385.2684262133827
 30
0.0
 10
411.9536982424278
 20
386.7204531799497
 30
0.0
 10
411.8579973955879
 20
387.8715345162609
 30
0.0
 10
411.9523481119933
 20
389.0245367053441
 30
0.0
 10
412.299974530433
 20
390.4825935422424
 30
0.0
 10
412.9755905432865
 20
392.043712318461
 30
0.0
 10
413.6030125033522
 20
393.1019769862989
 30
0.0
 10
413.86679406349
 20
393.5316921571942
 30
0.0
 10
413.9525091897266
 20
393.6665171480671
 30
0.0
 10
413.9283721465399
 20
393.6283348844337
 30
0.0
 10
413.9281466881459
 20
393.6279782329676
 30
0.0
  0
SPLINE
  5
1CB
330
1F
100
AcDbEntity
  8
0
  6
CONTINUOUS
 62
     7
100
AcDbSpline
210
0.0
220
0.0
230
1.0
 70
     8
 71
     3
 72
    20
 73
    16
 74
     0
 42
0.000000001
 43
0.00000001
 40
0.0
 40
0.0
 40
0.0
 40
0.0
 40
0.0631262638386386
 40
0.1279474997759431
 40
0.2539384906192905
 40
0.3776885594141455
 40
0.4402642325170406
 40
0.4995913294236515
 40
0.5589753166872973
 40
0.621828260724445
 40
0.7459712722654939
 40
0.8716362654675216
 40
0.9362017265432858
 40
0.999404116505718
 40
0.9999999999999999
 40
0.9999999999999999
 40
0.9999999999999999
 40
0.9999999999999999
 10
393.9288065115636
 20
393.6290492539284
 30
0.0
 10
393.9430233009803
 20
393.6062942893396
 30
0.0
 10
393.971838607797
 20
393.5601733778587
 30
0.0
 10
394.262273540944
 20
393.0866159428418
 30
0.0
 10
394.8767179394288
 20
392.0527269068702
 30
0.0
 10
395.5566996653776
 20
390.4896835746239
 30
0.0
 10
395.9039354773838
 20
389.0376564946475
 30
0.0
 10
395.9996592564893
 20
387.8865771941626
 30
0.0
 10
395.9053124733256
 20
386.7335694700113
 30
0.0
 10
395.5576307716598
 20
385.2755269395317
 30
0.0
 10
394.8820327053817
 20
383.7143931327378
 30
0.0
 10
394.2547762604198
 20
382.6561252500788
 30
0.0
 10
393.9905715364976
 20
382.226433283073
 30
0.0
 10
393.9056675368378
 20
382.0915626486726
 30
0.0
 10
393.9292715011327
 20
382.1297757071351
 30
0.0
 10
393.9294919649785
 20
382.1301326216654
 30
0.0
  0
LINE
  5
1CC
330
1F
100
AcDbEntity
  8
0
  6
CONTINUOUS
 62
     7
100
AcDbLine
 10
394.4288298766
 20
402.8790549611
 30
0.0
 11
413.4288236777
 21
402.8790549611
 31
0.0
  0
LINE
  5
1CD
330
1F
100
AcDbEntity
  8
0
  6
CONTINUOUS
 62
     7
100
AcDbLine
 10
413.9288172404
 20
316.8790576284
 30
0.0
 11
393.9288065116
 21
316.8790576284
 31
0.0
  0
LINE
  5
1CE
330
1F
100
AcDbEntity
  8
0
  6
CONTINUOUS
 62
     7
100
AcDbLine
 10
393.9288065116
 20
313.379057986
 30
0.0
 11
413.9288172404
 21
313.379057986
 31
0.0
  0
LINE
  5
1CF
330
1F
100
AcDbEntity
  8
0
  6
CONTINUOUS
 62
     7
100
AcDbLine
 10
413.9288172404
 20
315.6290588205
 30
0.0
 11
393.9288065116
 21
315.6290588205
 31
0.0
  0
LINE
  5
1D0
330
1F
100
AcDbEntity
  8
0
  6
CONTINUOUS
 62
     7
100
AcDbLine
 10
413.4288236777
 20
312.8790569727
 30
0.0
 11
394.4288298766
 21
312.8790569727
 31
0.0
  0
LINE
  5
1D1
330
1F
100
AcDbEntity
  8
0
  6
CONTINUOUS
 62
     7
100
AcDbLine
 10
378.9288208167
 20
352.8790560787
 30
0.0
 11
378.9288208167
 21
317.8790522044
 31
0.0
  0
LINE
  5
1D2
330
1F
100
AcDbEntity
  8
0
  6
CONTINUOUS
 62
     7
100
AcDbLine
 10
428.9288178364
 20
352.8790560787
 30
0.0
 11
428.9288178364
 21
317.8790522044
 31
0.0
  0
LINE
  5
1D3
330
1F
100
AcDbEntity
  8
0
  6
CONTINUOUS
 62
     7
100
AcDbLine
 10
378.9288208167
 20
317.8790522044
 30
0.0
 11
428.9288178364
 21
317.8790522044
 31
0.0
  0
CIRCLE
  5
1D4
330
1F
100
AcDbEntity
  8
0
  6
CONTINUOUS
 62
     7
100
AcDbCircle
 10
419.4288169383
 20
343.8790552442
 30
0.0
 40
6.5
  0
CIRCLE
  5
1D5
330
1F
100
AcDbEntity
  8
0
  6
CONTINUOUS
 62
     7
100
AcDbCircle
 10
388.4288169383
 20
326.8790552442
 30
0.0
 40
6.5
  0
CIRCLE
  5
1D6
330
1F
100
AcDbEntity
  8
0
  6
CONTINUOUS
 62
     7
100
AcDbCircle
 10
388.4288169383
 20
343.8790552442
 30
0.0
 40
6.5
  0
CIRCLE
  5
1D7
330
1F
100
AcDbEntity
  8
0
  6
CONTINUOUS
 62
     7
100
AcDbCircle
 10
419.4288169383
 20
326.8790552442
 30
0.0
 40
6.5
  0
LINE
  5
1D8
330
1F
100
AcDbEntity
  8
0
  6
CONTINUOUS
 62
     7
100
AcDbLine
 10
378.9288208167
 20
352.8790560787
 30
0.0
 11
428.9288178364
 21
352.8790560787
 31
0.0
  0
CIRCLE
  5
1D9
330
1F
100
AcDbEntity
  8
0
  6
CONTINUOUS
 62
     7
100
AcDbCircle
 10
388.4288169383
 20
343.8790552442
 30
0.0
 40
3.299999999999955
  0
CIRCLE
  5
1DA
330
1F
100
AcDbEntity
  8
0
  6
CONTINUOUS
 62
     7
100
AcDbCircle
 10
388.4288169383
 20
326.8790552442
 30
0.0
 40
3.300000000000068
  0
CIRCLE
  5
1DB
330
1F
100
AcDbEntity
  8
0
  6
CONTINUOUS
 62
     7
100
AcDbCircle
 10
419.4288169383
 20
343.8790552442
 30
0.0
 40
3.300000000000011
  0
CIRCLE
  5
1DC
330
1F
100
AcDbEntity
  8
0
  6
CONTINUOUS
 62
     7
100
AcDbCircle
 10
419.4288169383
 20
326.8790552442
 30
0.0
 40
3.300000000000068
  0
SPLINE
  5
1DD
330
1F
100
AcDbEntity
  8
0
  6
CONTINUOUS
 62
     8
100
AcDbSpline
210
0.0
220
0.0
230
1.0
 70
     8
 71
     3
 72
    16
 73
    12
 74
     0
 42
0.000000001
 43
0.00000001
 40
0.0
 40
0.0
 40
0.0
 40
0.0
 40
0.1156644028675826
 40
0.2313431022894131
 40
0.3470297768630003
 40
0.4627200066956554
 40
0.5784097966667251
 40
0.6940951802987412
 40
0.8097711135765278
 40
0.9254316287667733
 40
1.0
 40
1.0
 40
1.0
 40
1.0
 10
315.0241181532567
 20
380.718788900691
 30
0.0
 10
314.9874999160676
 20
380.9324435250292
 30
0.0
 10
314.9142589155378
 20
381.3597791822187
 30
0.0
 10
314.8044127376508
 20
382.9958416198911
 30
0.0
 10
314.6945594082028
 20
385.1471167575393
 30
0.0
 10
314.5847238014822
 20
387.637569709233
 30
0.0
 10
314.4748229025846
 20
390.1496818424673
 30
0.0
 10
314.3649867787533
 20
392.4042563588646
 30
0.0
 10
314.255138329783
 20
394.0904742039518
 30
0.0
 10
314.1582808791458
 20
395.0439792298442
 30
0.0
 10
314.0980695596156
 20
395.0342695448395
 30
0.0
 10
314.0744671503728
 20
395.0304634173391
 30
0.0
  0
SPLINE
  5
1DE
330
1F
100
AcDbEntity
  8
0
  6
CONTINUOUS
 62
     8
100
AcDbSpline
210
0.0
220
0.0
230
1.0
 70
     8
 71
     3
 72
    17
 73
    13
 74
     0
 42
0.000000001
 43
0.00000001
 40
0.0
 40
0.0
 40
0.0
 40
0.0
 40
0.0242084772846423
 40
0.1331457428895756
 40
0.242084601120696
 40
0.3510221984418146
 40
0.4599565224021839
 40
0.5688825450632604
 40
0.6777951300042765
 40
0.7867084336304077
 40
0.895635772885704
 40
1.0
 40
1.0
 40
1.0
 40
1.0
 10
312.321375338239
 20
380.702284467685
 30
0.0
 10
312.2997579228565
 20
380.6795767230462
 30
0.0
 10
312.1808629260082
 20
380.5546849550211
 30
0.0
 10
311.9648205193217
 20
381.1637047362769
 30
0.0
 10
311.6731541832019
 20
382.5053820484614
 30
0.0
 10
311.3814422700212
 20
384.5405561043826
 30
0.0
 10
311.0897450791381
 20
386.9449391603544
 30
0.0
 10
310.7980527651133
 20
389.4613124931839
 30
0.0
 10
310.5063123806401
 20
391.7973283026739
 30
0.0
 10
310.2146396773927
 20
393.6610312174833
 30
0.0
 10
309.9270090429781
 20
394.902715558969
 30
0.0
 10
309.7366371967993
 20
395.0431779568252
 30
0.0
 10
309.6434876600927
 20
395.1119066451666
 30
0.0
  0
LINE
  5
1DF
330
1F
100
AcDbEntity
  8
0
  6
CONTINUOUS
 62
     8
100
AcDbLine
 10
308.1711635272
 20
389.0162541767
 30
0.0
 11
275.5241200606
 21
389.0162541767
 31
0.0
  0
DIMENSION
  5
1E0
330
1F
100
AcDbEntity
  8
0
  6
CONTINUOUS
 62
   161
100
AcDbDimension
  2
_D_1
 10
671.5241152922
 20
421.651046083
 30
0.0
 11
659.8539732889
 21
421.651046083
 31
0.0
 70
   160
  1
<>
  3
SLDDIMSTYLE1
100
AcDbAlignedDimension
 13
639.5241152922
 23
387.8790552442
 33
0.0
 14
671.5241152922
 24
387.8790552442
 34
0.0
100
AcDbRotatedDimension
  0
DIMENSION
  5
1EB
330
1F
100
AcDbEntity
  8
0
  6
CONTINUOUS
 62
   161
100
AcDbDimension
  2
_D_2
 10
674.2593803561
 20
389.6342831583
 30
0.0
 11
696.6514013703
 21
404.0033147582
 31
0.0
 70
   163
  1
<>
  3
SLDDIMSTYLE2
100
AcDbDiametricDimension
 15
668.7888502284
 25
386.1238273301
 35
0.0
 40
0.0
  0
DIMENSION
  5
1F7
330
1F
100
AcDbEntity
  8
0
  6
CONTINUOUS
 62
   161
100
AcDbDimension
  2
_D_3
 10
463.1389348185
 20
326.8790552442
 30
0.0
 11
463.1389348185
 21
335.5385860292
 31
0.0
 70
   160
  1
<>
  3
SLDDIMSTYLE0
100
AcDbAlignedDimension
 13
419.4288169383
 23
343.8790552442
 33
0.0
 14
419.4288169383
 24
326.8790552442
 34
0.0
 50
90.0
100
AcDbRotatedDimension
  0
DIMENSION
  5
203
330
1F
100
AcDbEntity
  8
0
  6
CONTINUOUS
 62
   161
100
AcDbDimension
  2
_D_4
 10
659.8539732889
 20
343.8790552442
 30
0.0
 11
659.8539732889
 21
362.6279288129
 31
0.0
 70
   160
  1
<>
  3
SLDDIMSTYLE1
100
AcDbAlignedDimension
 13
639.5241152922
 23
387.8790552442
 33
0.0
 14
419.4288169383
 24
343.8790552442
 34
0.0
 50
90.0
100
AcDbRotatedDimension
  0
DIMENSION
  5
20D
330
1F
100
AcDbEntity
  8
0
  6
CONTINUOUS
 62
   161
100
AcDbDimension
  2
_D_5
 10
385.5709331058
 20
325.2290552442
 30
0.0
 11
355.0191534123
 21
307.5899812405
 31
0.0
 70
   163
  1
<>
  3
SLDDIMSTYLE2
100
AcDbDiametricDimension
 15
391.2867007707
 25
328.5290552442
 35
0.0
 40
0.0
  0
DIMENSION
  5
218
330
1F
100
AcDbEntity
  8
0
  6
CONTINUOUS
 62
   161
100
AcDbDimension
  2
_D_6
 10
419.4288169383
 20
296.3364272214
 30
0.0
 11
406.6218998336
 21
296.3364272214
 31
0.0
 70
   160
  1
<>
  3
SLDDIMSTYLE1
100
AcDbAlignedDimension
 13
388.4288169383
 23
343.8790552442
 33
0.0
 14
419.4288169383
 24
343.8790552442
 34
0.0
100
AcDbRotatedDimension
  0
SPLINE
  5
222
330
1F
100
AcDbEntity
  8
0
  6
CONTINUOUS
 62
     7
100
AcDbSpline
210
0.0
220
0.0
230
1.0
 70
     8
 71
     3
 72
     9
 73
     5
 74
     0
 42
0.000000001
 43
0.00000001
 40
0.0
 40
0.0
 40
0.0
 40
0.0
 40
0.7892620258948294
 40
1.0
 40
1.0
 40
1.0
 40
1.0
 10
490.0779929157046
 20
104.9598290119647
 30
0.0
 10
489.8215579870561
 20
105.0863715783632
 30
0.0
 10
489.496653303649
 20
105.2467018137563
 30
0.0
 10
489.1172042099245
 20
105.2153194173605
 30
0.0
 10
489.037239876637
 20
105.2087059547215
 30
0.0
  0
LINE
  5
223
330
1F
100
AcDbEntity
  8
0
  6
CONTINUOUS
 62
     7
100
AcDbLine
 10
487.9845770293
 20
104.970319002
 30
0.0
 11
487.8525382483
 21
104.9166806158
 31
0.0
  0
LINE
  5
224
330
1F
100
AcDbEntity
  8
0
  6
CONTINUOUS
 62
     7
100
AcDbLine
 10
484.8763870878
 20
100.8906064049
 30
0.0
 11
484.8769927841
 21
100.7509184384
 31
0.0
  0
SPLINE
  5
225
330
1F
100
AcDbEntity
  8
0
  6
CONTINUOUS
 62
     7
100
AcDbSpline
210
0.0
220
0.0
230
1.0
 70
     8
 71
     3
 72
     9
 73
     5
 74
     0
 42
0.000000001
 43
0.00000001
 40
0.0
 40
0.0
 40
0.0
 40
0.0
 40
0.1031996620396269
 40
1.0
 40
1.0
 40
1.0
 40
1.0
 10
485.06177609252
 20
99.69845332994727
 30
0.0
 10
485.0704046050116
 20
99.67603276455162
 30
0.0
 10
485.1540144959846
 20
99.45877851242963
 30
0.0
 10
485.3401333863106
 20
99.33692834833874
 30
0.0
 10
485.5070448700558
 20
99.22765308000153
 30
0.0
  0
SPLINE
  5
226
330
1F
100
AcDbEntity
  8
0
  6
CONTINUOUS
 62
     7
100
AcDbSpline
210
0.0
220
0.0
230
1.0
 70
     8
 71
     3
 72
    10
 73
     6
 74
     0
 42
0.000000001
 43
0.00000001
 40
0.0
 40
0.0
 40
0.0
 40
0.0
 40
0.3289957032514315
 40
0.6235850441134615
 40
1.0
 40
1.0
 40
1.0
 40
1.0
 10
488.3633725196786
 20
105.9498187496521
 30
0.0
 10
488.1571322727422
 20
106.0376890687435
 30
0.0
 10
487.766220378718
 20
106.204240231161
 30
0.0
 10
487.0428201101981
 20
106.1975079479276
 30
0.0
 10
486.5615109776734
 20
105.972976096007
 30
0.0
 10
486.2915097917421
 20
105.847019902365
 30
0.0
  0
LINE
  5
227
330
1F
100
AcDbEntity
  8
0
  6
CONTINUOUS
 62
     7
100
AcDbLine
 10
485.0246027368
 20
100.7127501697
 30
0.0
 11
484.8847424536
 21
100.7417786037
 31
0.0
  0
SPLINE
  5
228
330
1F
100
AcDbEntity
  8
0
  6
CONTINUOUS
 62
     7
100
AcDbSpline
210
0.0
220
0.0
230
1.0
 70
     8
 71
     3
 72
    11
 73
     7
 74
     0
 42
0.000000001
 43
0.00000001
 40
0.0
 40
0.0
 40
0.0
 40
0.0
 40
0.3339181777964579
 40
0.6322756217249687
 40
0.893924986048336
 40
1.0
 40
1.0
 40
1.0
 40
1.0
 10
487.8636902673998
 20
105.0835517805162
 30
0.0
 10
487.950890628991
 20
105.0177057455736
 30
0.0
 10
488.1160049189752
 20
104.8930259723544
 30
0.0
 10
488.2701558301636
 20
104.5502339794494
 30
0.0
 10
488.3477127684249
 20
104.2270704286168
 30
0.0
 10
488.3443240357234
 20
104.0033937524163
 30
0.0
 10
488.3433465104632
 20
103.9388712242664
 30
0.0
  0
SPLINE
  5
229
330
1F
100
AcDbEntity
  8
0
  6
CONTINUOUS
 62
     7
100
AcDbSpline
210
0.0
220
0.0
230
1.0
 70
     8
 71
     3
 72
    11
 73
     7
 74
     0
 42
0.000000001
 43
0.00000001
 40
0.0
 40
0.0
 40
0.0
 40
0.0
 40
0.245088692874192
 40
0.4919004266227273
 40
0.7435018376743601
 40
0.9999999999999999
 40
0.9999999999999999
 40
0.9999999999999999
 40
0.9999999999999999
 10
489.5777266990833
 20
104.0937397449478
 30
0.0
 10
489.6771656440778
 20
104.0219933864687
 30
0.0
 10
489.8767426171812
 20
103.8779962728905
 30
0.0
 10
490.0817579905285
 20
103.5205494965688
 30
0.0
 10
490.2145436270722
 20
103.0721341011379
 30
0.0
 10
490.22632137978
 20
102.7071508127865
 30
0.0
 10
490.2322670095033
 20
102.5229004263525
 30
0.0
  0
SPLINE
  5
22A
330
1F
100
AcDbEntity
  8
0
  6
CONTINUOUS
 62
     7
100
AcDbSpline
210
0.0
220
0.0
230
1.0
 70
     8
 71
     3
 72
    10
 73
     6
 74
     0
 42
0.000000001
 43
0.00000001
 40
0.0
 40
0.0
 40
0.0
 40
0.0
 40
0.0419655756456029
 40
0.5198374680830643
 40
0.9999999999999999
 40
0.9999999999999999
 40
0.9999999999999999
 40
0.9999999999999999
 10
490.9680225683245
 20
103.9148223811794
 30
0.0
 10
490.9617327933237
 20
103.93543733775
 30
0.0
 10
490.8838198691972
 20
104.1907996594491
 30
0.0
 10
490.5971068313561
 20
104.5771402572909
 30
0.0
 10
490.2515138739485
 20
104.8319432938309
 30
0.0
 10
490.0783042426208
 20
104.9596494263612
 30
0.0
  0
LINE
  5
22B
330
1F
100
AcDbEntity
  8
0
  6
CONTINUOUS
 62
     7
100
AcDbLine
 10
489.310459127
 20
104.1835765165
 30
0.0
 11
489.5781701465
 21
104.093483966
 31
0.0
  0
SPLINE
  5
22C
330
1F
100
AcDbEntity
  8
0
  6
CONTINUOUS
 62
     7
100
AcDbSpline
210
0.0
220
0.0
230
1.0
 70
     8
 71
     3
 72
     9
 73
     5
 74
     0
 42
0.000000001
 43
0.00000001
 40
0.0
 40
0.0
 40
0.0
 40
0.0
 40
0.8943258155548853
 40
1.0
 40
1.0
 40
1.0
 40
1.0
 10
484.8553067488353
 20
100.7751314442424
 30
0.0
 10
484.7848366171295
 20
100.8194095088774
 30
0.0
 10
484.7060396837523
 20
100.868919501617
 30
0.0
 10
484.6726790279523
 20
100.9967330444406
 30
0.0
 10
484.6691536678581
 20
101.0102396363395
 30
0.0
  0
SPLINE
  5
22D
330
1F
100
AcDbEntity
  8
0
  6
CONTINUOUS
 62
     7
100
AcDbSpline
210
0.0
220
0.0
230
1.0
 70
     8
 71
     3
 72
     9
 73
     5
 74
     0
 42
0.000000001
 43
0.00000001
 40
0.0
 40
0.0
 40
0.0
 40
0.0
 40
0.1770548337399556
 40
0.9999999999999999
 40
0.9999999999999999
 40
0.9999999999999999
 40
0.9999999999999999
 10
487.4510572270003
 20
105.1776270685864
 30
0.0
 10
487.479960903949
 20
105.1807040676221
 30
0.0
 10
487.64320794069
 20
105.1980828591001
 30
0.0
 10
487.7639683676551
 20
105.1353639718276
 30
0.0
 10
487.8633475773015
 20
105.0837497667135
 30
0.0
  0
SPLINE
  5
22E
330
1F
100
AcDbEntity
  8
0
  6
CONTINUOUS
 62
     7
100
AcDbSpline
210
0.0
220
0.0
230
1.0
 70
     8
 71
     3
 72
    15
 73
    11
 74
     0
 42
0.000000001
 43
0.00000001
 40
0.0
 40
0.0
 40
0.0
 40
0.0
 40
0.1110365017283459
 40
0.2147505106154681
 40
0.4030988806374834
 40
0.5154484542593841
 40
0.6520756456441081
 40
0.8131714176884765
 40
0.9034640226373754
 40
1.0
 40
1.0
 40
1.0
 40
1.0
 10
484.3859403460273
 20
99.87485187622771
 30
0.0
 10
484.5700624649037
 20
99.79750650299782
 30
0.0
 10
484.9261644532484
 20
99.64791643003696
 30
0.0
 10
485.6839658453551
 20
99.71178913401478
 30
0.0
 10
486.4388008683829
 20
100.0772222477315
 30
0.0
 10
487.1924770439134
 20
100.7507709392617
 30
0.0
 10
487.8276324556417
 20
101.565873515794
 30
0.0
 10
488.2814499766841
 20
102.4758283278687
 30
0.0
 10
488.5445067285438
 20
103.3157065550537
 30
0.0
 10
488.6014987666996
 20
103.7523978391284
 30
0.0
 10
488.6309470558061
 20
103.978040079691
 30
0.0
  0
SPLINE
  5
22F
330
1F
100
AcDbEntity
  8
0
  6
CONTINUOUS
 62
     7
100
AcDbSpline
210
0.0
220
0.0
230
1.0
 70
     8
 71
     3
 72
    18
 73
    14
 74
     0
 42
0.000000001
 43
0.00000001
 40
0.0
 40
0.0
 40
0.0
 40
0.0
 40
0.0578980768883998
 40
0.1137664275615314
 40
0.2186430124473765
 40
0.3164160781204628
 40
0.409221158205581
 40
0.4976549927224928
 40
0.6097898207739142
 40
0.6857914782394035
 40
0.7749505749317855
 40
0.8803690443719875
 40
1.0
 40
1.0
 40
1.0
 40
1.0
 10
485.5076928778517
 20
99.22727941807302
 30
0.0
 10
485.6357740350934
 20
99.17035936497865
 30
0.0
 10
485.8874462231944
 20
99.05851469853765
 30
0.0
 10
486.4307628358466
 20
99.05781162203701
 30
0.0
 10
487.0876559307688
 20
99.30033571490405
 30
0.0
 10
487.790050450979
 20
99.86695601707164
 30
0.0
 10
488.3981911314651
 20
100.6209848637986
 30
0.0
 10
488.9159806107919
 20
101.5699495879148
 30
0.0
 10
489.2476162530403
 20
102.5591467847633
 30
0.0
 10
489.3450516523433
 20
103.5686251332587
 30
0.0
 10
489.3414396539679
 20
104.4653211256288
 30
0.0
 10
489.0557332112277
 20
105.3825234973882
 30
0.0
 10
488.6037392772853
 20
105.752886336162
 30
0.0
 10
488.3634699842658
 20
105.9497624682301
 30
0.0
  0
LINE
  5
230
330
1F
100
AcDbEntity
  8
0
  6
CONTINUOUS
 62
     7
100
AcDbLine
 10
486.7357203346
 20
98.5182332672
 30
0.0
 11
499.389321149
 21
91.2134650034
 31
0.0
  0
LINE
  5
231
330
1F
100
AcDbEntity
  8
0
  6
CONTINUOUS
 62
     7
100
AcDbLine
 10
503.0140265121
 20
97.4923193555
 30
0.0
 11
490.3604256977
 21
104.7970876194
 31
0.0
  0
LINE
  5
232
330
1F
100
AcDbEntity
  8
0
  6
CONTINUOUS
 62
     7
100
AcDbLine
 10
509.663184456
 20
95.2415121567
 30
0.0
 11
502.5921128509
 21
99.3235549056
 31
0.0
  0
LINE
  5
233
330
1F
100
AcDbEntity
  8
0
  6
CONTINUOUS
 62
     7
100
AcDbLine
 10
497.5925193375
 20
90.6630664422
 30
0.0
 11
504.6635909426
 21
86.5810236934
 31
0.0
  0
LINE
  5
234
330
1F
100
AcDbEntity
  8
0
  6
CONTINUOUS
 62
     7
100
AcDbLine
 10
350.8803255122
 20
171.1009838391
 30
0.0
 11
369.2651022024
 21
160.4876781664
 31
0.0
  0
LINE
  5
235
330
1F
100
AcDbEntity
  8
0
  6
CONTINUOUS
 62
     7
100
AcDbLine
 10
378.732514539
 20
165.7139989543
 30
0.0
 11
378.732514539
 21
166.9388102303
 31
0.0
  0
LINE
  5
236
330
1F
100
AcDbEntity
  8
0
  6
CONTINUOUS
 62
     7
100
AcDbLine
 10
378.732514539
 20
172.6545960424
 30
0.0
 11
378.732514539
 21
173.879407461
 31
0.0
  0
LINE
  5
237
330
1F
100
AcDbEntity
  8
0
  6
CONTINUOUS
 62
     7
100
AcDbLine
 10
451.1582938571
 20
88.7441358493
 30
0.0
 11
451.3351021915
 21
88.6420330152
 31
0.0
  0
LINE
  5
238
330
1F
100
AcDbEntity
  8
0
  6
CONTINUOUS
 62
     7
100
AcDbLine
 10
458.0536985851
 20
88.6420384529
 30
0.0
 11
458.2305122676
 21
88.7441348702
 31
0.0
  0
LINE
  5
239
330
1F
100
AcDbEntity
  8
0
  6
CONTINUOUS
 62
     7
100
AcDbLine
 10
459.6944001238
 20
90.7848255258
 30
0.0
 11
459.6944001238
 21
91.7034342798
 31
0.0
  0
LINE
  5
23A
330
1F
100
AcDbEntity
  8
0
  6
CONTINUOUS
 62
     7
100
AcDbLine
 10
449.6943984774
 20
91.7034354203
 30
0.0
 11
449.6943984774
 21
90.7848266663
 31
0.0
  0
LINE
  5
23B
330
1F
100
AcDbEntity
  8
0
  6
CONTINUOUS
 62
     7
100
AcDbLine
 10
459.6944001238
 20
92.2137718006
 30
0.0
 11
459.6944001238
 21
93.3279929032
 31
0.0
  0
LINE
  5
23C
330
1F
100
AcDbEntity
  8
0
  6
CONTINUOUS
 62
     7
100
AcDbLine
 10
449.6943984774
 20
93.3279940437
 30
0.0
 11
449.6943984774
 21
92.2137729411
 31
0.0
  0
LINE
  5
23D
330
1F
100
AcDbEntity
  8
0
  6
CONTINUOUS
 62
     7
100
AcDbLine
 10
459.6944001238
 20
110.1481278628
 30
0.0
 11
459.6944001238
 21
113.0763887053
 31
0.0
  0
LINE
  5
23E
330
1F
100
AcDbEntity
  8
0
  6
CONTINUOUS
 62
     7
100
AcDbLine
 10
459.6944001238
 20
113.5867266063
 30
0.0
 11
459.6944001238
 21
127.1208907665
 31
0.0
  0
LINE
  5
23F
330
1F
100
AcDbEntity
  8
0
  6
CONTINUOUS
 62
     7
100
AcDbLine
 10
449.6943984774
 20
127.120891907
 30
0.0
 11
449.6943984774
 21
126.9740822644
 31
0.0
  0
LINE
  5
240
330
1F
100
AcDbEntity
  8
0
  6
CONTINUOUS
 62
     7
100
AcDbLine
 10
449.6943984774
 20
121.2007362081
 30
0.0
 11
449.6943984774
 21
114.2301694676
 31
0.0
  0
LINE
  5
241
330
1F
100
AcDbEntity
  8
0
  6
CONTINUOUS
 62
     7
100
AcDbLine
 10
458.2305100125
 20
129.161578542
 30
0.0
 11
458.0537016781
 21
129.2636806157
 31
0.0
  0
LINE
  5
242
330
1F
100
AcDbEntity
  8
0
  6
CONTINUOUS
 62
     7
100
AcDbLine
 10
451.3350947478
 20
129.2636812607
 30
0.0
 11
451.1582916019
 21
129.1615795212
 31
0.0
  0
LINE
  5
243
330
1F
100
AcDbEntity
  8
0
  6
CONTINUOUS
 62
     7
100
AcDbLine
 10
489.7997415621
 20
103.8217605918
 30
0.0
 11
489.3125134566
 21
104.1030313901
 31
0.0
  0
LINE
  5
244
330
1F
100
AcDbEntity
  8
0
  6
CONTINUOUS
 62
     7
100
AcDbLine
 10
488.1460256671
 20
104.7764304573
 30
0.0
 11
459.6943951847
 21
121.2012071235
 31
0.0
  0
LINE
  5
245
330
1F
100
AcDbEntity
  8
0
  6
CONTINUOUS
 62
     7
100
AcDbLine
 10
453.3885944448
 20
124.8414684056
 30
0.0
 11
371.242029437
 21
172.2636709746
 31
0.0
  0
LINE
  5
246
330
1F
100
AcDbEntity
  8
0
  6
CONTINUOUS
 62
     7
100
AcDbLine
 10
375.9703233573
 20
163.7607387657
 30
0.0
 11
450.5818158486
 21
120.6884409701
 31
0.0
  0
LINE
  5
247
330
1F
100
AcDbEntity
  8
0
  6
CONTINUOUS
 62
     7
100
AcDbLine
 10
459.6944017702
 20
115.4278570923
 30
0.0
 11
485.0429705309
 21
100.7944398277
 31
0.0
  0
LINE
  5
248
330
1F
100
AcDbEntity
  8
0
  6
CONTINUOUS
 62
     7
100
AcDbLine
 10
371.242029437
 20
171.6216558301
 30
0.0
 11
371.242029437
 21
175.0017028283
 31
0.0
  0
SPLINE
  5
249
330
1F
100
AcDbEntity
  8
0
  6
CONTINUOUS
 62
     7
100
AcDbSpline
210
0.0
220
0.0
230
1.0
 70
     8
 71
     3
 72
     9
 73
     5
 74
     0
 42
0.000000001
 43
0.00000001
 40
0.0
 40
0.0
 40
0.0
 40
0.0
 40
0.5578742166201941
 40
1.0
 40
1.0
 40
1.0
 40
1.0
 10
485.7249195049152
 20
99.89992377768438
 30
0.0
 10
485.4467914723126
 20
99.80577356724275
 30
0.0
 10
484.9482417556982
 20
99.63700754860137
 30
0.0
 10
484.5801716493263
 20
99.81768183466008
 30
0.0
 10
484.417438365208
 20
99.89756259492034
 30
0.0
  0
LINE
  5
24A
330
1F
100
AcDbEntity
  8
0
  6
CONTINUOUS
 62
     7
100
AcDbLine
 10
489.9941598706
 20
104.973910643
 30
0.0
 11
490.1140740754
 21
104.8829362091
 31
0.0
  0
SPLINE
  5
24B
330
1F
100
AcDbEntity
  8
0
  6
CONTINUOUS
 62
     7
100
AcDbSpline
210
0.0
220
0.0
230
1.0
 70
     8
 71
     3
 72
    15
 73
    11
 74
     0
 42
0.000000001
 43
0.00000001
 40
0.0
 40
0.0
 40
0.0
 40
0.0
 40
0.1251283277720965
 40
0.2502575798837369
 40
0.3755330587332376
 40
0.4999848795644106
 40
0.6247072273766681
 40
0.749917969649386
 40
0.8750237530644591
 40
0.9999999999999999
 40
0.9999999999999999
 40
0.9999999999999999
 40
0.9999999999999999
 10
490.3830223353597
 20
102.3787041404445
 30
0.0
 10
490.3414387851159
 20
102.3995703082962
 30
0.0
 10
490.2582713774451
 20
102.4413027981409
 30
0.0
 10
490.2198732704515
 20
102.5209648009737
 30
0.0
 10
490.2562300396474
 20
102.5982560074376
 30
0.0
 10
490.3653694030809
 20
102.6633560617527
 30
0.0
 10
490.5300808024637
 20
102.7062667183753
 30
0.0
 10
490.7251232148682
 20
102.7197794503509
 30
0.0
 10
490.9250520262172
 20
102.7038429177895
 30
0.0
 10
491.0292862408504
 20
102.6704597703256
 30
0.0
 10
491.0813763527584
 20
102.6537768424276
 30
0.0
  0
LINE
  5
24C
330
1F
100
AcDbEntity
  8
0
  6
CONTINUOUS
 62
     7
100
AcDbLine
 10
489.5150603446
 20
104.1049728722
 30
0.0
 11
489.5744290375
 21
104.0605700665
 31
0.0
  0
SPLINE
  5
24D
330
1F
100
AcDbEntity
  8
0
  6
CONTINUOUS
 62
     7
100
AcDbSpline
210
0.0
220
0.0
230
1.0
 70
     8
 71
     3
 72
    12
 73
     8
 74
     0
 42
0.000000001
 43
0.00000001
 40
0.0
 40
0.0
 40
0.0
 40
0.0
 40
0.2379816961746269
 40
0.4759163008937053
 40
0.7137958070694587
 40
0.9516601258607656
 40
1.0
 40
1.0
 40
1.0
 40
1.0
 10
485.7249195049152
 20
99.89992387274224
 30
0.0
 10
485.4470320749413
 20
99.82364194541327
 30
0.0
 10
484.8913122029349
 20
99.67109318530686
 30
0.0
 10
484.2044311548812
 20
99.91681333626873
 30
0.0
 10
483.7594842527046
 20
100.5036749737109
 30
0.0
 10
483.5644496246226
 20
101.1189749699854
 30
0.0
 10
483.6167833886139
 20
101.541322827814
 30
0.0
 10
483.6256225587836
 20
101.6126573602726
 30
0.0
  0
SPLINE
  5
24E
330
1F
100
AcDbEntity
  8
0
  6
CONTINUOUS
 62
     7
100
AcDbSpline
210
0.0
220
0.0
230
1.0
 70
     8
 71
     3
 72
    12
 73
     8
 74
     0
 42
0.000000001
 43
0.00000001
 40
0.0
 40
0.0
 40
0.0
 40
0.0
 40
0.0062996106040563
 40
0.2547412743546906
 40
0.5034012810415138
 40
0.7514914929953903
 40
1.0
 40
1.0
 40
1.0
 40
1.0
 10
484.4422399745592
 20
101.141234142432
 30
0.0
 10
484.4435546036836
 20
101.1379311472589
 30
0.0
 10
484.4967150797026
 20
101.0043658759296
 30
0.0
 10
484.6878573630154
 20
100.8349394345948
 30
0.0
 10
485.0088540318551
 20
100.6669954294857
 30
0.0
 10
485.4014941566281
 20
100.6354069139867
 30
0.0
 10
485.6909404319664
 20
100.7253557019901
 30
0.0
 10
485.8357854728341
 20
100.770367978825
 30
0.0
  0
SPLINE
  5
24F
330
1F
100
AcDbEntity
  8
0
  6
CONTINUOUS
 62
     7
100
AcDbSpline
210
0.0
220
0.0
230
1.0
 70
     8
 71
     3
 72
    13
 73
     9
 74
     0
 42
0.000000001
 43
0.00000001
 40
0.0
 40
0.0
 40
0.0
 40
0.0
 40
0.2426950847633743
 40
0.4867018855299791
 40
0.6139286874490691
 40
0.7430143846186625
 40
0.872297469478947
 40
1.0
 40
1.0
 40
1.0
 40
1.0
 10
488.6129976020604
 20
104.0450865006341
 30
0.0
 10
488.5342522344781
 20
103.6327522698813
 30
0.0
 10
488.3763358971266
 20
102.8058552283872
 30
0.0
 10
487.8024191855762
 20
101.7477030798291
 30
0.0
 10
487.235313568515
 20
101.0119930862957
 30
0.0
 10
486.749549065083
 20
100.5270632503933
 30
0.0
 10
486.2365236834967
 20
100.1368936445424
 30
0.0
 10
485.8947535612175
 20
99.9785892536182
 30
0.0
 10
485.7249195049152
 20
99.89992387274224
 30
0.0
  0
SPLINE
  5
250
330
1F
100
AcDbEntity
  8
0
  6
CONTINUOUS
 62
     7
100
AcDbSpline
210
0.0
220
0.0
230
1.0
 70
     8
 71
     3
 72
    11
 73
     7
 74
     0
 42
0.000000001
 43
0.00000001
 40
0.0
 40
0.0
 40
0.0
 40
0.0
 40
0.2540250576590621
 40
0.5101055414396864
 40
0.7576441048684244
 40
1.0
 40
1.0
 40
1.0
 40
1.0
 10
485.8357854728341
 20
100.770367978825
 30
0.0
 10
486.0872706900877
 20
100.9032520520979
 30
0.0
 10
486.592275999774
 20
101.1700954208988
 30
0.0
 10
487.279291038067
 20
101.9589574865934
 30
0.0
 10
487.7992257489799
 20
102.885380407979
 30
0.0
 10
487.9392223217098
 20
103.5019506809187
 30
0.0
 10
488.0084800855126
 20
103.8069744218464
 30
0.0
  0
SPLINE
  5
251
330
1F
100
AcDbEntity
  8
0
  6
CONTINUOUS
 62
     7
100
AcDbSpline
210
0.0
220
0.0
230
1.0
 70
     8
 71
     3
 72
     9
 73
     5
 74
     0
 42
0.000000001
 43
0.00000001
 40
0.0
 40
0.0
 40
0.0
 40
0.0
 40
0.5684176645779645
 40
1.0
 40
1.0
 40
1.0
 40
1.0
 10
491.0813763527584
 20
102.6537768424276
 30
0.0
 10
491.102367701316
 20
102.9247111660639
 30
0.0
 10
491.1392971457469
 20
103.4013577246072
 30
0.0
 10
491.0093347833528
 20
103.7563271252042
 30
0.0
 10
490.9532453234737
 20
103.9095256481171
 30
0.0
  0
LINE
  5
252
330
1F
100
AcDbEntity
  8
0
  6
CONTINUOUS
 62
     7
100
AcDbLine
 10
488.0084800855
 20
103.8069744218
 30
0.0
 11
488.6129976021
 21
104.0450865006
 31
0.0
  0
SPLINE
  5
253
330
1F
100
AcDbEntity
  8
0
  6
CONTINUOUS
 62
     7
100
AcDbSpline
210
0.0
220
0.0
230
1.0
 70
     8
 71
     3
 72
     9
 73
     5
 74
     0
 42
0.000000001
 43
0.00000001
 40
0.0
 40
0.0
 40
0.0
 40
0.0
 40
0.5240601510462054
 40
0.9999999999999999
 40
0.9999999999999999
 40
0.9999999999999999
 40
0.9999999999999999
 10
486.2909749352694
 20
99.07667115990664
 30
0.0
 10
486.340335774064
 20
98.94070504062566
 30
0.0
 10
486.4345250359191
 20
98.68125749627497
 30
0.0
 10
486.6615930010878
 20
98.60989675898895
 30
0.0
 10
486.7696636941325
 20
98.57593334046382
 30
0.0
  0
LINE
  5
254
330
1F
100
AcDbEntity
  8
0
  6
CONTINUOUS
 62
     7
100
AcDbLine
 10
490.3830223354
 20
102.3787041404
 30
0.0
 11
491.0813763528
 21
102.6537768424
 31
0.0
  0
SPLINE
  5
255
330
1F
100
AcDbEntity
  8
0
  6
CONTINUOUS
 62
     7
100
AcDbSpline
210
0.0
220
0.0
230
1.0
 70
     8
 71
     3
 72
     9
 73
     5
 74
     0
 42
0.000000001
 43
0.00000001
 40
0.0
 40
0.0
 40
0.0
 40
0.0
 40
0.1706083149520871
 40
1.0
 40
1.0
 40
1.0
 40
1.0
 10
489.4366065379232
 20
104.0313939707718
 30
0.0
 10
489.4650430746897
 20
104.0368768055981
 30
0.0
 10
489.6317203950451
 20
104.0690137786869
 30
0.0
 10
489.7449938083781
 20
103.9697929001771
 30
0.0
 10
489.8389418355333
 20
103.887499928558
 30
0.0
  0
SPLINE
  5
256
330
1F
100
AcDbEntity
  8
0
  6
CONTINUOUS
 62
     7
100
AcDbSpline
210
0.0
220
0.0
230
1.0
 70
     8
 71
     3
 72
    13
 73
     9
 74
     0
 42
0.000000001
 43
0.00000001
 40
0.0
 40
0.0
 40
0.0
 40
0.0
 40
0.1785939706502624
 40
0.3571844870833785
 40
0.535776357979379
 40
0.7143692257947274
 40
0.8929634123022899
 40
1.0
 40
1.0
 40
1.0
 40
1.0
 10
490.3830223353597
 20
102.3787041404445
 30
0.0
 10
490.3173346566252
 20
102.0687277126055
 30
0.0
 10
490.1859605696329
 20
101.4487808522356
 30
0.0
 10
489.6654909751967
 20
100.5221455812909
 30
0.0
 10
488.9931200013594
 20
99.77190607047879
 30
0.0
 10
488.2562920767232
 20
99.32171675558574
 30
0.0
 10
487.6303512060963
 20
99.19131248283348
 30
0.0
 10
487.361495042512
 20
99.36186466301407
 30
0.0
 10
487.2607445319564
 20
99.4257769758303
 30
0.0
  0
SPLINE
  5
257
330
1F
100
AcDbEntity
  8
0
  6
CONTINUOUS
 62
     7
100
AcDbSpline
210
0.0
220
0.0
230
1.0
 70
     8
 71
     3
 72
     9
 73
     5
 74
     0
 42
0.000000001
 43
0.00000001
 40
0.0
 40
0.0
 40
0.0
 40
0.0
 40
0.6647965117149679
 40
1.0
 40
1.0
 40
1.0
 40
1.0
 10
490.9565854612183
 20
103.9512002220654
 30
0.0
 10
490.8735629967945
 20
104.2044250254561
 30
0.0
 10
490.7486789714413
 20
104.5853307596595
 30
0.0
 10
490.4351265416002
 20
104.6991806395241
 30
0.0
 10
490.3300226733573
 20
104.7373435163955
 30
0.0
  0
LWPOLYLINE
  5
258
330
1F
100
AcDbEntity
  8
0
  6
CONTINUOUS
 62
     7
100
AcDbPolyline
 90
       19
 70
   128
 43
0.0
 10
504.6635909426
 20
86.5810236934
 10
504.8982445095
 20
86.4688932376
 10
505.4529225545
 20
86.3507255713
 10
506.0694212182
 20
86.3973878542
 10
506.7254587707
 20
86.6071934028
 10
507.3973241729
 20
86.9725595019
 10
508.0607345222
 20
87.4802808651
 10
508.6917124394
 20
88.1120070517
 10
509.2674527134
 20
88.844905699
 10
509.7671465726
 20
89.6524881299
 10
510.1727339276
 20
90.50556617
 10
510.4695554131
 20
91.3733072051
 10
510.6468836684
 20
92.2243491123
 10
510.6983090798
 20
93.0279326484
 10
510.6219732346
 20
93.7550145792
 10
510.4206351051
 20
94.3793160901
 10
510.1015716081
 20
94.8782731841
 10
509.676314681
 20
95.2338523979
 10
509.663184456
 20
95.2415121567
  0
ARC
  5
259
330
1F
100
AcDbEntity
  8
0
  6
CONTINUOUS
 62
     7
100
AcDbCircle
 10
501.6963871947
 20
96.5699448769
 30
0.0
 40
2.97137418627461
100
AcDbArc
 50
82.4040513375
 51
120.6263926043
  0
LWPOLYLINE
  5
25A
330
1F
100
AcDbEntity
  8
0
  6
CONTINUOUS
 62
     7
100
AcDbPolyline
 90
       24
 70
   128
 43
0.0
 10
496.5579511838
 20
92.8479799644
 10
496.57965714
 20
92.5018233946
 10
496.7191256716
 20
91.8230583938
 10
496.9805098893
 20
91.2588743003
 10
497.3543629723
 20
90.8296625771
 10
497.8271729044
 20
90.5509359864
 10
498.3818509494
 20
90.4327683202
 10
498.9983496131
 20
90.4794306031
 10
499.6543871656
 20
90.6892361517
 10
500.3262525679
 20
91.0546022508
 10
500.9896629172
 20
91.562323614
 10
501.6206408344
 20
92.1940498006
 10
502.1963811084
 20
92.9269484479
 10
502.6960749675
 20
93.7345308788
 10
503.1016623225
 20
94.5876089189
 10
503.3984838081
 20
95.455349954
 10
503.5758120634
 20
96.3063918612
 10
503.6272374747
 20
97.1099753973
 10
503.5509016295
 20
97.8370573281
 10
503.3495635
 20
98.461358839
 10
503.030500003
 20
98.960315933
 10
502.605243076
 20
99.3158951468
 10
502.0891621599
 20
99.5152449263
 10
502.0891621599
 20
99.5152449263
  0
LWPOLYLINE
  5
25B
330
1F
100
AcDbEntity
  8
0
  6
CONTINUOUS
 62
     7
100
AcDbPolyline
 90
        3
 70
   128
 43
0.0
 10
501.7896352089
 20
98.8369546768
 10
501.2369255534
 20
98.8628083798
 10
500.7953136736
 20
98.7731548355
  0
LWPOLYLINE
  5
25C
330
1F
100
AcDbEntity
  8
0
  6
CONTINUOUS
 62
     7
100
AcDbPolyline
 90
       21
 70
   128
 43
0.0
 10
497.1706083105
 20
92.4943005784
 10
497.2614535375
 20
92.19428355
 10
497.5330344938
 20
91.6968594893
 10
497.9164682469
 20
91.3435060765
 10
498.3949969795
 20
91.1496666235
 10
498.947706635
 20
91.123812873
 10
499.5504412657
 20
91.2670747452
 10
500.1768584329
 20
91.5731910168
 10
500.7995807127
 20
92.0287829139
 10
501.3913921069
 20
92.6139388912
 10
501.9264275802
 20
93.3030848222
 10
502.3813036989
 20
94.0661017741
 10
502.7361399922
 20
94.8696421776
 10
502.97542856
 20
95.6785875054
 10
503.0887113862
 20
96.4575829891
 10
503.0710370394
 20
97.1725826944
 10
502.9231786509
 20
97.7923377028
 10
502.6515976946
 20
98.289761906
 10
502.2681639415
 20
98.6431153129
 10
501.7896352089
 20
98.8369546768
 10
501.7896352089
 20
98.8369546768
  0
ARC
  5
25D
330
1F
100
AcDbEntity
  8
0
  6
CONTINUOUS
 62
     7
100
AcDbCircle
 10
378.06078405
 20
165.7139987642
 30
0.0
 40
0.654923144347243
100
AcDbArc
 50
290.7834350322
 51
69.2165649678
  0
LINE
  5
25E
330
1F
100
AcDbEntity
  8
0
  6
CONTINUOUS
 62
     7
100
AcDbLine
 10
378.2931748023
 20
165.10169258
 30
0.0
 11
370.5150002514
 21
160.6114479893
 31
0.0
  0
LINE
  5
25F
330
1F
100
AcDbEntity
  8
0
  6
CONTINUOUS
 62
     7
100
AcDbLine
 10
352.1302235613
 20
171.2247536619
 30
0.0
 11
370.5150002514
 21
160.6114479893
 31
0.0
  0
LINE
  5
260
330
1F
100
AcDbEntity
  8
0
  6
CONTINUOUS
 62
     7
100
AcDbLine
 10
359.9083981122
 20
175.7149982526
 30
0.0
 11
352.1302235613
 21
171.2247536619
 31
0.0
  0
ARC
  5
261
330
1F
100
AcDbEntity
  8
0
  6
CONTINUOUS
 62
     7
100
AcDbCircle
 10
360.9690584578
 20
173.6679305583
 30
0.0
 40
2.305533889116681
100
AcDbArc
 50
62.6096805978
 51
117.3903194022
  0
LINE
  5
262
330
1F
100
AcDbEntity
  8
0
  6
CONTINUOUS
 62
     7
100
AcDbLine
 10
362.0297188034
 20
175.7149982526
 30
0.0
 11
378.2931748023
 21
166.3263049484
 31
0.0
  0
LWPOLYLINE
  5
263
330
1F
100
AcDbEntity
  8
0
  6
CONTINUOUS
 62
     7
100
AcDbPolyline
 90
       24
 70
   128
 43
0.0
 10
363.9742624412
 20
169.48988633
 10
364.5167537496
 20
169.7273734409
 10
365.1501183556
 20
169.8715605038
 10
365.8273821559
 20
169.9117541303
 10
366.4983157793
 20
169.8449731015
 10
367.1131589857
 20
169.6761703388
 10
367.6263119408
 20
169.4178652506
 10
367.9997162566
 20
169.0892150313
 10
368.2056781094
 20
168.7145940976
 10
368.2289225079
 20
168.3217866081
 10
368.0677253827
 20
167.9399251533
 10
367.7340420741
 20
167.5973306378
 10
367.2526202732
 20
167.3194117478
 10
366.6591648638
 20
167.126780474
 10
365.9976897505
 20
167.0337233544
 10
365.3172534944
 20
167.0471420601
 10
364.6683206904
 20
167.1660413068
 10
364.0990201277
 20
167.38160303
 10
363.6515741094
 20
167.6778399254
 10
363.3591674651
 20
168.0327813533
 10
363.2434867959
 20
168.4201030897
 10
363.3131117433
 20
168.8110791595
 10
363.5628781246
 20
169.1767127638
 10
363.9742624412
 20
169.48988633
  0
LINE
  5
264
330
1F
100
AcDbEntity
  8
0
  6
CONTINUOUS
 62
     7
100
AcDbLine
 10
362.0297188034
 20
176.9398095286
 30
0.0
 11
362.0297188034
 21
175.7149982526
 31
0.0
  0
LINE
  5
265
330
1F
100
AcDbEntity
  8
0
  6
CONTINUOUS
 62
     7
100
AcDbLine
 10
359.9083981122
 20
175.7149982526
 30
0.0
 11
359.9083981122
 21
176.9398095286
 31
0.0
  0
ARC
  5
266
330
1F
100
AcDbEntity
  8
0
  6
CONTINUOUS
 62
     7
100
AcDbCircle
 10
360.9690584578
 20
174.8927418343
 30
0.0
 40
2.305533889116706
100
AcDbArc
 50
62.6096805978
 51
117.3903194022
  0
LINE
  5
267
330
1F
100
AcDbEntity
  8
0
  6
CONTINUOUS
 62
     7
100
AcDbLine
 10
378.2931748023
 20
166.3263049484
 30
0.0
 11
378.2931748023
 21
167.5511162244
 31
0.0
  0
LINE
  5
268
330
1F
100
AcDbEntity
  8
0
  6
CONTINUOUS
 62
     7
100
AcDbLine
 10
362.0297188034
 20
176.9398095286
 30
0.0
 11
378.2931748023
 21
167.5511162244
 31
0.0
  0
LINE
  5
269
330
1F
100
AcDbEntity
  8
0
  6
CONTINUOUS
 62
     7
100
AcDbLine
 10
352.1302235613
 20
172.449564938
 30
0.0
 11
352.1302235613
 21
171.2247536619
 31
0.0
  0
LINE
  5
26A
330
1F
100
AcDbEntity
  8
0
  6
CONTINUOUS
 62
     7
100
AcDbLine
 10
359.9083981122
 20
176.9398095286
 30
0.0
 11
352.1302235613
 21
172.449564938
 31
0.0
  0
ARC
  5
26B
330
1F
100
AcDbEntity
  8
0
  6
CONTINUOUS
 62
     7
100
AcDbCircle
 10
378.06078405
 20
172.6545958523
 30
0.0
 40
0.6549231443472228
100
AcDbArc
 50
290.7834350322
 51
69.2165649678
  0
LINE
  5
26C
330
1F
100
AcDbEntity
  8
0
  6
CONTINUOUS
 62
     7
100
AcDbLine
 10
374.9593448801
 20
170.1177106198
 30
0.0
 11
378.2931748023
 21
172.0422896681
 31
0.0
  0
LINE
  5
26D
330
1F
100
AcDbEntity
  8
0
  6
CONTINUOUS
 62
     7
100
AcDbLine
 10
352.1302235613
 20
178.16535075
 30
0.0
 11
359.9083981122
 21
182.6555953407
 31
0.0
  0
ARC
  5
26E
330
1F
100
AcDbEntity
  8
0
  6
CONTINUOUS
 62
     7
100
AcDbCircle
 10
360.9690584578
 20
180.6085276464
 30
0.0
 40
2.305533889116328
100
AcDbArc
 50
62.6096805978
 51
117.3903194022
  0
LINE
  5
26F
330
1F
100
AcDbEntity
  8
0
  6
CONTINUOUS
 62
     7
100
AcDbLine
 10
362.0297188034
 20
182.6555953407
 30
0.0
 11
378.2931748023
 21
173.2669020365
 31
0.0
  0
LINE
  5
270
330
1F
100
AcDbEntity
  8
0
  6
CONTINUOUS
 62
     7
100
AcDbLine
 10
368.0259273981
 20
174.8230078003
 30
0.0
 11
367.9941277244
 21
174.7833959046
 31
0.0
  0
LINE
  5
271
330
1F
100
AcDbEntity
  8
0
  6
CONTINUOUS
 62
     7
100
AcDbLine
 10
362.0297188034
 20
183.8804067593
 30
0.0
 11
362.0297188034
 21
182.6555953407
 31
0.0
  0
LINE
  5
272
330
1F
100
AcDbEntity
  8
0
  6
CONTINUOUS
 62
     7
100
AcDbLine
 10
359.9083981122
 20
182.6555953407
 30
0.0
 11
359.9083981122
 21
183.8804067593
 31
0.0
  0
ARC
  5
273
330
1F
100
AcDbEntity
  8
0
  6
CONTINUOUS
 62
     7
100
AcDbCircle
 10
360.9690584578
 20
181.833339065
 30
0.0
 40
2.305533889116429
100
AcDbArc
 50
62.6096805978
 51
117.3903194022
  0
LINE
  5
274
330
1F
100
AcDbEntity
  8
0
  6
CONTINUOUS
 62
     7
100
AcDbLine
 10
352.1302235613
 20
179.3901621686
 30
0.0
 11
352.1302235613
 21
178.16535075
 31
0.0
  0
LINE
  5
275
330
1F
100
AcDbEntity
  8
0
  6
CONTINUOUS
 62
     7
100
AcDbLine
 10
352.1302235613
 20
179.3901621686
 30
0.0
 11
359.9083981122
 21
183.8804067593
 31
0.0
  0
LINE
  5
276
330
1F
100
AcDbEntity
  8
0
  6
CONTINUOUS
 62
     7
100
AcDbLine
 10
378.2931748023
 20
173.2669020365
 30
0.0
 11
378.2931748023
 21
174.4917134551
 31
0.0
  0
LINE
  5
277
330
1F
100
AcDbEntity
  8
0
  6
CONTINUOUS
 62
     7
100
AcDbLine
 10
362.0297188034
 20
183.8804067593
 30
0.0
 11
378.2931748023
 21
174.4917134551
 31
0.0
  0
ARC
  5
278
330
1F
100
AcDbEntity
  8
0
  6
CONTINUOUS
 62
     7
100
AcDbCircle
 10
351.4401424788
 20
172.0707774553
 30
0.0
 40
1.091772943046573
100
AcDbArc
 50
170.7859506624
 51
309.2032906515
  0
ARC
  5
279
330
1F
100
AcDbEntity
  8
0
  6
CONTINUOUS
 62
     7
100
AcDbCircle
 10
369.7827006841
 20
161.633649901
 30
0.0
 40
1.257441610827489
100
AcDbArc
 50
245.6928403647
 51
305.6175938154
  0
ARC
  5
27A
330
1F
100
AcDbEntity
  8
0
  6
CONTINUOUS
 62
     7
100
AcDbCircle
 10
351.85419123
 20
172.7879744423
 30
0.0
 40
0.4367091029159971
100
AcDbArc
 50
170.7859322021
 51
309.2032813861
  0
LINE
  5
27B
330
1F
100
AcDbEntity
  8
0
  6
CONTINUOUS
 62
     7
100
AcDbLine
 10
350.3624566478
 20
172.2455956717
 30
0.0
 11
351.4231169935
 21
172.8579018559
 31
0.0
  0
LWPOLYLINE
  5
27C
330
1F
100
AcDbEntity
  8
0
  6
CONTINUOUS
 62
     7
100
AcDbPolyline
 90
        3
 70
   128
 43
0.0
 10
367.5097962681
 20
168.6736773721
 10
367.9211805846
 20
168.9868509384
 10
368.0057948693
 20
169.0817818905
  0
ARC
  5
27D
330
1F
100
AcDbEntity
  8
0
  6
CONTINUOUS
 62
     7
100
AcDbCircle
 10
365.7745862135
 20
171.6492531113
 30
0.0
 40
3.44456164309599
100
AcDbArc
 50
228.1908467792
 51
300.2486431898
  0
LINE
  5
27E
330
1F
100
AcDbEntity
  8
0
  6
CONTINUOUS
 62
     7
100
AcDbLine
 10
351.4231169935
 20
176.9406058716
 30
0.0
 11
350.3624566478
 21
176.3282996874
 31
0.0
  0
LINE
  5
27F
330
1F
100
AcDbEntity
  8
0
  6
CONTINUOUS
 62
     7
100
AcDbLine
 10
351.4231169935
 20
172.8579018559
 30
0.0
 11
351.4231169935
 21
176.9406058716
 31
0.0
  0
LINE
  5
280
330
1F
100
AcDbEntity
  8
0
  6
CONTINUOUS
 62
     7
100
AcDbLine
 10
350.3624566478
 20
172.2455956717
 30
0.0
 11
350.3624566478
 21
176.3282996874
 31
0.0
  0
LWPOLYLINE
  5
281
330
1F
100
AcDbEntity
  8
0
  6
CONTINUOUS
 62
     7
100
AcDbPolyline
 90
        7
 70
   128
 43
0.0
 10
355.0444222913
 20
174.1318957507
 10
354.9586508204
 20
174.1851125003
 10
354.5855557221
 20
174.3286015542
 10
354.2528906468
 20
174.312754232
 10
353.9967062965
 20
174.1392862887
 10
353.8447629563
 20
173.8269968805
 10
353.8127945717
 20
173.420892058
  0
ARC
  5
282
330
1F
100
AcDbEntity
  8
0
  6
CONTINUOUS
 62
     7
100
AcDbCircle
 10
352.9583334976
 20
176.8707449423
 30
0.0
 40
1.536805213417159
100
AcDbArc
 50
122.6054959296
 51
177.3945193295
  0
ARC
  5
283
330
1F
100
AcDbEntity
  8
0
  6
CONTINUOUS
 62
     7
100
AcDbCircle
 10
354.2004968701
 20
176.153647931
 30
0.0
 40
3.842011970834288
100
AcDbArc
 50
122.6054789475
 51
177.3945270688
  0
LWPOLYLINE
  5
284
330
1F
100
AcDbEntity
  8
0
  6
CONTINUOUS
 62
     7
100
AcDbPolyline
 90
        3
 70
   128
 43
0.0
 10
353.9837619456
 20
173.5195895665
 10
353.8979904747
 20
173.572806316
 10
353.8127800837
 20
173.6183435837
  0
ARC
  5
285
330
1F
100
AcDbEntity
  8
0
  6
CONTINUOUS
 62
     7
100
AcDbCircle
 10
377.9818283498
 20
166.8639501835
 30
0.0
 40
0.754409558043537
100
AcDbArc
 50
5.6948311452
 51
65.6253064582
  0
ARC
  5
286
330
1F
100
AcDbEntity
  8
0
  6
CONTINUOUS
 62
     7
100
AcDbCircle
 10
377.9818283498
 20
173.8045474142
 30
0.0
 40
0.7544095580435343
100
AcDbArc
 50
5.6948311452
 51
65.6253064582
  0
LWPOLYLINE
  5
287
330
1F
100
AcDbEntity
  8
0
  6
CONTINUOUS
 62
     7
100
AcDbPolyline
 90
       18
 70
   128
 43
0.0
 10
451.1588661322
 20
92.8258459498
 10
451.8918596731
 20
93.175229036
 10
452.7261464966
 20
93.4382154798
 10
453.6315738253
 20
93.6052998994
 10
454.5754118325
 20
93.6704466264
 10
455.5235499708
 20
93.631299797
 10
456.4417190656
 20
93.4892744976
 10
457.2967416447
 20
93.2494999772
 10
458.0576967384
 20
92.9206526577
 10
458.6971036137
 20
92.5146054274
 10
459.1918411022
 20
92.046039868
 10
459.5240241229
 20
91.5318938682
 10
459.6816594279
 20
90.9907426121
 10
459.6590397411
 20
90.4421502005
 10
459.4569833042
 20
89.9059441912
 10
459.0827977385
 20
89.401501309
 10
458.5499958012
 20
88.9470602402
 10
458.2305122676
 20
88.7441348702
  0
LWPOLYLINE
  5
288
330
1F
100
AcDbEntity
  8
0
  6
CONTINUOUS
 62
     7
100
AcDbPolyline
 90
       10
 70
   128
 43
0.0
 10
451.1582938571
 20
88.7441358493
 10
450.9946383028
 20
88.8432358131
 10
450.4249963156
 20
89.2825258382
 10
450.0096496603
 20
89.7761198666
 10
449.7636279688
 20
90.3061676026
 10
449.6958163237
 20
90.8535160992
 10
449.8086659923
 20
91.398382183
 10
450.0980960566
 20
91.9210742541
 10
450.5536512994
 20
92.4026977856
 10
451.1588661322
 20
92.8258459498
  0
LWPOLYLINE
  5
289
330
1F
100
AcDbEntity
  8
0
  6
CONTINUOUS
 62
     7
100
AcDbPolyline
 90
       33
 70
   128
 43
0.0
 10
451.3356405516
 20
92.519660633
 10
450.7449168672
 20
92.1041298569
 10
450.3059731215
 20
91.6300521465
 10
450.0356682599
 20
91.115651433
 10
449.9444007411
 20
90.580689719
 10
450.0356720465
 20
90.0457284803
 10
450.3059729569
 20
89.5313270065
 10
450.7449198718
 20
89.0572512682
 10
451.3356395638
 20
88.6417227968
 10
452.0554445161
 20
88.3007014946
 10
452.8766514932
 20
88.0473058757
 10
453.7677227986
 20
87.8912614402
 10
454.6944032519
 20
87.8385716372
 10
455.6210739916
 20
87.891265337
 10
456.5121492483
 20
88.0473029294
 10
457.3333543732
 20
88.3007058428
 10
458.0531527812
 20
88.6417233671
 10
458.6438764657
 20
89.0572541432
 10
459.0828307481
 20
89.5313257709
 10
459.353125073
 20
90.0457325671
 10
459.4444031284
 20
90.5806881983
 10
459.3531318231
 20
91.1156494371
 10
459.0828256443
 20
91.6300539523
 10
458.6438839978
 20
92.1041266492
 10
458.0531537691
 20
92.5196612033
 10
457.3333593535
 20
92.8606764228
 10
456.512147108
 20
93.114075083
 10
455.621081071
 20
93.2701164771
 10
454.6944006177
 20
93.3228062802
 10
453.7677193412
 20
93.2701186631
 10
452.8766546213
 20
93.1140749879
 10
452.0554389596
 20
92.8606781573
 10
451.3356405516
 20
92.519660633
  0
LWPOLYLINE
  5
28A
330
1F
100
AcDbEntity
  8
0
  6
CONTINUOUS
 62
     7
100
AcDbPolyline
 90
       18
 70
   128
 43
0.0
 10
459.6944001238
 20
91.7034342798
 10
459.6251706324
 20
92.1820933435
 10
459.3791436726
 20
92.7121441209
 10
458.9638075539
 20
93.2057320666
 10
458.39415503
 20
93.6450281743
 10
457.6907843852
 20
94.0141499065
 10
456.8791223522
 20
94.299752738
 10
455.9884935887
 20
94.4915209553
 10
455.0510958175
 20
94.5825188385
 10
454.1008029215
 20
94.5694607713
 10
453.1719662289
 20
94.4528160731
 10
452.2981561159
 20
94.2368003027
 10
451.5109505326
 20
93.9292233326
 10
450.8388028
 20
93.5412007059
 10
450.3060061311
 20
93.0867565958
 10
449.931815297
 20
92.5823167549
 10
449.7297588601
 20
92.0461107457
 10
449.6943984774
 20
91.7034354203
  0
LWPOLYLINE
  5
28B
330
1F
100
AcDbEntity
  8
0
  6
CONTINUOUS
 62
     7
100
AcDbPolyline
 90
       15
 70
   128
 43
0.0
 10
459.2376099455
 20
92.9087447352
 10
459.0366323691
 20
93.2520894442
 10
458.602306461
 20
93.7211746955
 10
458.0177984901
 20
94.1323329266
 10
457.3055796412
 20
94.4697591545
 10
456.4930121095
 20
94.7204901643
 10
455.6113247341
 20
94.8748897958
 10
454.6943989713
 20
94.9270247412
 10
453.777474361
 20
94.8748904611
 10
452.8957885496
 20
94.7204898316
 10
452.0832177664
 20
94.4697599861
 10
451.3709964892
 20
94.1323319762
 10
450.7864906996
 20
93.7211753846
 10
450.3521668083
 20
93.2520882562
 10
450.1511958997
 20
92.9087470162
  0
LWPOLYLINE
  5
28C
330
1F
100
AcDbEntity
  8
0
  6
CONTINUOUS
 62
     7
100
AcDbPolyline
 90
       20
 70
   128
 43
0.0
 10
459.6748243944
 20
91.9586027853
 10
459.6929822775
 20
92.1450823676
 10
459.6251706324
 20
92.6924308642
 10
459.3791436726
 20
93.2224816416
 10
458.9638075539
 20
93.7160695873
 10
458.39415503
 20
94.1553656951
 10
457.6907843852
 20
94.5244874272
 10
456.8791223522
 20
94.8100902587
 10
455.9884935887
 20
95.0018584761
 10
455.0510958175
 20
95.0928563593
 10
454.1008029215
 20
95.079798292
 10
453.1719662289
 20
94.9631535938
 10
452.2981561159
 20
94.7471378234
 10
451.5109505326
 20
94.4395608534
 10
450.8388028
 20
94.0515382266
 10
450.3060061311
 20
93.5970941165
 10
449.931815297
 20
93.0926542756
 10
449.7297588601
 20
92.5564482664
 10
449.7071391733
 20
92.0078558547
 10
449.7139756885
 20
91.9586030704
  0
LWPOLYLINE
  5
28D
330
1F
100
AcDbEntity
  8
0
  6
CONTINUOUS
 62
     7
100
AcDbPolyline
 90
       15
 70
   128
 43
0.0
 10
459.6944001238
 20
113.0763887053
 10
459.6251706324
 20
113.5550477689
 10
459.3791436726
 20
114.0850985463
 10
458.9638075539
 20
114.5786864921
 10
458.39415503
 20
115.0179825998
 10
457.6907843852
 20
115.3871043319
 10
456.8791223522
 20
115.6727071634
 10
455.9884935887
 20
115.8644753808
 10
455.0510958175
 20
115.955473264
 10
454.1008029215
 20
115.9424151968
 10
453.1719662289
 20
115.8257704986
 10
452.2981561159
 20
115.6097547281
 10
451.5109505326
 20
115.3021777581
 10
450.8388028
 20
114.9141551314
 10
450.6902905591
 20
114.8050814643
  0
ARC
  5
28E
330
1F
100
AcDbEntity
  8
0
  6
CONTINUOUS
 62
     7
100
AcDbCircle
 10
452.0979465189
 20
126.9422038599
 30
0.0
 40
2.410181031752233
100
AcDbArc
 50
112.9315189234
 51
175.7482557832
  0
LWPOLYLINE
  5
28F
330
1F
100
AcDbEntity
  8
0
  6
CONTINUOUS
 62
     7
100
AcDbPolyline
 90
       14
 70
   128
 43
0.0
 10
459.6944001238
 20
127.1208907665
 10
459.6816594279
 20
127.3268078528
 10
459.5240241229
 20
127.8679591089
 10
459.1918411022
 20
128.3821051087
 10
458.6971036137
 20
128.8506706681
 10
458.0576967384
 20
129.2567178984
 10
457.2967416447
 20
129.5855652179
 10
456.4417190656
 20
129.8253397383
 10
455.5235499708
 20
129.9673650377
 10
454.5754118325
 20
130.0065118671
 10
453.6315738253
 20
129.9413651401
 10
452.7261464966
 20
129.7742807205
 10
451.8918596731
 20
129.5112942767
 10
451.1588661322
 20
129.1619111905
  0
LWPOLYLINE
  5
290
330
1F
100
AcDbEntity
  8
0
  6
CONTINUOUS
 62
     7
100
AcDbPolyline
 90
       18
 70
   128
 43
0.0
 10
459.6748243944
 20
113.331557591
 10
459.6929822775
 20
113.5180371733
 10
459.6251706324
 20
114.0653856699
 10
459.3791436726
 20
114.5954364473
 10
458.9638075539
 20
115.089024393
 10
458.39415503
 20
115.5283205008
 10
457.6907843852
 20
115.8974422329
 10
456.8791223522
 20
116.1830450644
 10
455.9884935887
 20
116.3748132818
 10
455.0510958175
 20
116.465811165
 10
454.1008029215
 20
116.4527530977
 10
453.1719662289
 20
116.3361083995
 10
452.2981561159
 20
116.1200926291
 10
451.5109505326
 20
115.8125156591
 10
450.8388028
 20
115.4244930323
 10
450.3060061311
 20
114.9700489222
 10
449.931815297
 20
114.4656090813
 10
449.8614509688
 20
114.3266067959
  0
SPLINE
  5
291
330
1F
100
AcDbEntity
  8
0
  6
CONTINUOUS
 62
     7
100
AcDbSpline
210
0.0
220
0.0
230
1.0
 70
     8
 71
     3
 72
    12
 73
     8
 74
     0
 42
0.000000001
 43
0.00000001
 40
0.0
 40
0.0
 40
0.0
 40
0.0
 40
0.1437175288976508
 40
0.2912637201499512
 40
0.5780744370136629
 40
0.8597837650380873
 40
1.0
 40
1.0
 40
1.0
 40
1.0
 10
451.1588661322443
 20
120.8944376083745
 30
0.0
 10
451.022237190719
 20
120.819081610875
 30
0.0
 10
450.7453394866318
 20
120.6663621177437
 30
0.0
 10
450.3076408010755
 20
120.4879157261091
 30
0.0
 10
449.9446210710911
 20
120.4537088988587
 30
0.0
 10
449.7917209735971
 20
120.7110943504811
 30
0.0
 10
449.7612950610594
 20
121.0539989882368
 30
0.0
 10
449.7511837824938
 20
121.167954627513
 30
0.0
  0
SPLINE
  5
292
330
1F
100
AcDbEntity
  8
0
  6
CONTINUOUS
 62
     7
100
AcDbSpline
210
0.0
220
0.0
230
1.0
 70
     8
 71
     3
 72
    18
 73
    14
 74
     0
 42
0.000000001
 43
0.00000001
 40
0.0
 40
0.0
 40
0.0
 40
0.0
 40
0.0491687352315749
 40
0.186641218024862
 40
0.321585447984396
 40
0.3896889251687386
 40
0.4544464815061539
 40
0.5192912666423655
 40
0.5879404751832781
 40
0.7235133488526774
 40
0.8608001958516944
 40
0.93124259436203
 40
1.0
 40
1.0
 40
1.0
 40
1.0
 10
451.7498189901758
 20
125.787513231337
 30
0.0
 10
451.8622404528917
 20
125.8049391088001
 30
0.0
 10
452.2889847780125
 20
125.8710865697739
 30
0.0
 10
453.043228870569
 20
125.6397200589333
 30
0.0
 10
453.6738340296625
 20
125.0989361940442
 30
0.0
 10
453.9668352044255
 20
124.5318001578112
 30
0.0
 10
454.0451562596015
 20
124.0677051205607
 30
0.0
 10
453.9694094784362
 20
123.590162828784
 30
0.0
 10
453.67625483854
 20
122.9668090626054
 30
0.0
 10
453.0442938023179
 20
122.2392165482118
 30
0.0
 10
452.2446891306301
 20
121.6056093139551
 30
0.0
 10
451.6022839125274
 20
121.1604498498727
 30
0.0
 10
451.3054744475672
 20
120.982389892463
 30
0.0
 10
451.1588661322443
 20
120.8944376083745
 30
0.0
  0
LWPOLYLINE
  5
293
330
1F
100
AcDbEntity
  8
0
  6
CONTINUOUS
 62
     7
100
AcDbPolyline
 90
       15
 70
   128
 43
0.0
 10
459.2376099455
 20
114.2816995409
 10
459.0366323691
 20
114.6250442499
 10
458.602306461
 20
115.0941295012
 10
458.0177984901
 20
115.5052877323
 10
457.3055796412
 20
115.8427139602
 10
456.4930121095
 20
116.09344497
 10
455.6113247341
 20
116.2478446015
 10
454.6943989713
 20
116.2999795469
 10
453.777474361
 20
116.2478452668
 10
452.8957885496
 20
116.0934446373
 10
452.0832177664
 20
115.8427147918
 10
451.3709964892
 20
115.5052867819
 10
450.7864906996
 20
115.0941301903
 10
450.3521668083
 20
114.6250430619
 10
450.334053377
 20
114.5994343589
  0
SPLINE
  5
294
330
1F
100
AcDbEntity
  8
0
  6
CONTINUOUS
 62
     7
100
AcDbSpline
210
0.0
220
0.0
230
1.0
 70
     8
 71
     3
 72
    14
 73
    10
 74
     0
 42
0.000000001
 43
0.00000001
 40
0.0
 40
0.0
 40
0.0
 40
0.0
 40
0.0930003168005369
 40
0.2251343570562666
 40
0.3420386678633172
 40
0.4586006697395463
 40
0.5898590371931147
 40
0.839292648042012
 40
1.0
 40
1.0
 40
1.0
 40
1.0
 10
453.3790857206353
 20
122.6833624585281
 30
0.0
 10
453.4647268577188
 20
122.7770107131841
 30
0.0
 10
453.6720461766005
 20
123.0037135925587
 30
0.0
 10
453.8270787704513
 20
123.3960173029836
 30
0.0
 10
453.8998743672053
 20
123.819866865855
 30
0.0
 10
453.828858191407
 20
124.2438431269012
 30
0.0
 10
453.5712841485422
 20
124.7611365191268
 30
0.0
 10
453.0889978712974
 20
125.2432559543211
 30
0.0
 10
452.6257161846387
 20
125.346291081224
 30
0.0
 10
452.4441864672363
 20
125.3866637918401
 30
0.0
  0
SPLINE
  5
295
330
1F
100
AcDbEntity
  8
0
  6
CONTINUOUS
 62
     7
100
AcDbSpline
210
0.0
220
0.0
230
1.0
 70
     8
 71
     3
 72
    11
 73
     7
 74
     0
 42
0.000000001
 43
0.00000001
 40
0.0
 40
0.0
 40
0.0
 40
0.0
 40
0.2439131064105793
 40
0.622438500258155
 40
0.8195636214121194
 40
1.0
 40
1.0
 40
1.0
 40
1.0
 10
450.2484548563747
 20
120.8808861552854
 30
0.0
 10
450.2732097217813
 20
120.8021669070731
 30
0.0
 10
450.3363813222112
 20
120.6012843406552
 30
0.0
 10
450.6101657829415
 20
120.646551776377
 30
0.0
 10
450.981709975598
 20
120.7975880407808
 30
0.0
 10
451.2211921748566
 20
120.932193086561
 30
0.0
 10
451.3356405516111
 20
120.9965207444838
 30
0.0
  0
ARC
  5
296
330
1F
100
AcDbEntity
  8
0
  6
CONTINUOUS
 62
     7
100
AcDbCircle
 10
454.6943712724
 20
122.8838477703
 30
0.0
 40
7.210226619834697
100
AcDbArc
 50
62.2307451765
 51
117.7638693268
  0
LINE
  5
297
330
1F
100
AcDbEntity
  8
0
  6
CONTINUOUS
 62
     7
100
AcDbLine
 10
451.158865803
 20
115.0755870977
 30
0.0
 11
451.158865803
 21
100.786121308
 31
0.0
  0
LINE
  5
298
330
1F
100
AcDbEntity
  8
0
  6
CONTINUOUS
 62
     7
100
AcDbLine
 10
451.158865803
 20
115.0755870977
 30
0.0
 11
468.836534279
 21
104.8704863082
 31
0.0
  0
LINE
  5
299
330
1F
100
AcDbEntity
  8
0
  6
CONTINUOUS
 62
     7
100
AcDbLine
 10
468.836534279
 20
104.8704863082
 30
0.0
 11
468.836534279
 21
90.5810205184
 31
0.0
  0
LINE
  5
29A
330
1F
100
AcDbEntity
  8
0
  6
CONTINUOUS
 62
     7
100
AcDbLine
 10
451.158865803
 20
100.786121308
 30
0.0
 11
468.836534279
 21
90.5810205184
 31
0.0
  0
LWPOLYLINE
  5
29B
330
1F
100
AcDbEntity
  8
0
  6
CONTINUOUS
 62
     7
100
AcDbPolyline
 90
       28
 70
   128
 43
0.0
 10
465.4777781641
 20
93.5406657138
 10
466.0077537107
 20
93.3062510454
 10
466.5091642308
 20
93.2275323899
 10
466.9549619842
 20
93.3087673224
 10
467.321133804
 20
93.5455626771
 10
467.5879233551
 20
93.9251636374
 10
467.7409585621
 20
94.4270971937
 10
467.7719891793
 20
95.0243068231
 10
467.6793293328
 20
95.6846019733
 10
467.467983961
 20
96.3723812831
 10
467.1493537862
 20
97.0505626099
 10
466.7406031127
 20
97.6825936341
 10
466.263774742
 20
98.234393998
 10
465.7445677152
 20
98.6762228886
 10
465.2109886131
 20
98.9842515477
 10
464.6917815863
 20
99.1418863303
 10
464.2149532156
 20
99.1406202846
 10
463.8062025421
 20
98.9805227428
 10
463.4875723673
 20
98.6702239851
 10
463.2762269955
 20
98.2264588477
 10
463.183567149
 20
97.673146479
 10
463.2145977662
 20
97.0401096616
 10
463.3676329732
 20
96.3614854163
 10
463.6344225242
 20
95.6738557969
 10
464.0005943441
 20
95.014287458
 10
464.4463920975
 20
94.4183453952
 10
464.9478026175
 20
93.9181477869
 10
465.4777781641
 20
93.5406657138
  0
LWPOLYLINE
  5
29C
330
1F
100
AcDbEntity
  8
0
  6
CONTINUOUS
 62
     7
100
AcDbPolyline
 90
       28
 70
   128
 43
0.0
 10
465.4777781641
 20
100.481262992
 10
466.0077537107
 20
100.2468468027
 10
466.5091642308
 20
100.1681296681
 10
466.9549619842
 20
100.2493646006
 10
467.321133804
 20
100.4861599553
 10
467.5879233551
 20
100.8657609156
 10
467.7409585621
 20
101.3676944719
 10
467.7719891793
 20
101.9649041013
 10
467.6793293328
 20
102.6251992515
 10
467.467983961
 20
103.3129785613
 10
467.1493537862
 20
103.9911598881
 10
466.7406031127
 20
104.6231893914
 10
466.263774742
 20
105.1749912763
 10
465.7445677152
 20
105.6168201669
 10
465.2109886131
 20
105.924848826
 10
464.6917815863
 20
106.0824836086
 10
464.2149532156
 20
106.0812160419
 10
463.8062025421
 20
105.921120021
 10
463.4875723673
 20
105.6108212634
 10
463.2762269955
 20
105.1670561259
 10
463.183567149
 20
104.6137437572
 10
463.2145977662
 20
103.9807069398
 10
463.3676329732
 20
103.3020826945
 10
463.6344225242
 20
102.6144530751
 10
464.0005943441
 20
101.9548847362
 10
464.4463920975
 20
101.3589426734
 10
464.9478026175
 20
100.8587435442
 10
465.4777781641
 20
100.481262992
  0
LWPOLYLINE
  5
29D
330
1F
100
AcDbEntity
  8
0
  6
CONTINUOUS
 62
     7
100
AcDbPolyline
 90
       28
 70
   128
 43
0.0
 10
454.5176219178
 20
106.8084265156
 10
455.0476027327
 20
106.5740072849
 10
455.5490079844
 20
106.4952931916
 10
455.9948110062
 20
106.5765250828
 10
456.360982826
 20
106.8133204375
 10
456.6277723771
 20
107.1929213978
 10
456.7808075841
 20
107.6948549541
 10
456.8118329329
 20
108.2920676249
 10
456.7191783548
 20
108.9523597337
 10
456.507832983
 20
109.6401390435
 10
456.1891975399
 20
110.3183234117
 10
455.7804468663
 20
110.9503529149
 10
455.3036184957
 20
111.5021547998
 10
454.7844167372
 20
111.9439806491
 10
454.2508323667
 20
112.2520123495
 10
453.7316253399
 20
112.4096471321
 10
453.2547969693
 20
112.4083795655
 10
452.8460462957
 20
112.2482835446
 10
452.5274108526
 20
111.9379878283
 10
452.3160707491
 20
111.4942196494
 10
452.223416171
 20
110.9409042394
 10
452.2544415199
 20
110.3078704633
 10
452.4074714585
 20
109.6292492594
 10
452.6742662779
 20
108.9416165987
 10
453.0404328294
 20
108.2820513012
 10
453.4862411195
 20
107.6861031556
 10
453.9876463712
 20
107.1859070677
 10
454.5176219178
 20
106.8084265156
  0
LWPOLYLINE
  5
29E
330
1F
100
AcDbEntity
  8
0
  6
CONTINUOUS
 62
     7
100
AcDbPolyline
 90
       28
 70
   128
 43
0.0
 10
454.5176219178
 20
99.8678292374
 10
455.0476027327
 20
99.6334115276
 10
455.5490079844
 20
99.5546959134
 10
455.9948110062
 20
99.6359278046
 10
456.360982826
 20
99.8727231593
 10
456.6277723771
 20
100.2523241196
 10
456.7808075841
 20
100.7542576759
 10
456.8118329329
 20
101.3514703466
 10
456.7191783548
 20
102.0117624555
 10
456.507832983
 20
102.6995417653
 10
456.1891975399
 20
103.3777261335
 10
455.7804468663
 20
104.0097571576
 10
455.3036184957
 20
104.5615575216
 10
454.7844167372
 20
105.0033833708
 10
454.2508323667
 20
105.3114150713
 10
453.7316253399
 20
105.4690498539
 10
453.2547969693
 20
105.4677838082
 10
452.8460462957
 20
105.3076862664
 10
452.5274108526
 20
104.9973905501
 10
452.3160707491
 20
104.5536223712
 10
452.223416171
 20
104.0003069612
 10
452.2544415199
 20
103.3672731851
 10
452.4074714585
 20
102.6886519812
 10
452.6742662779
 20
102.0010193205
 10
453.0404328294
 20
101.3414540229
 10
453.4862411195
 20
100.7455058774
 10
453.9876463712
 20
100.2453113104
 10
454.5176219178
 20
99.8678292374
  0
LINE
  5
29F
330
1F
100
AcDbEntity
  8
0
  6
CONTINUOUS
 62
     7
100
AcDbLine
 10
468.836534279
 20
90.5810205184
 30
0.0
 11
458.2299327982
 21
84.4579598166
 31
0.0
  0
LINE
  5
2A0
330
1F
100
AcDbEntity
  8
0
  6
CONTINUOUS
 62
     7
100
AcDbLine
 10
458.2299327982
 20
84.4579598166
 30
0.0
 11
440.5522643222
 21
94.6630606061
 31
0.0
  0
LINE
  5
2A1
330
1F
100
AcDbEntity
  8
0
  6
CONTINUOUS
 62
     7
100
AcDbLine
 10
440.5522643222
 20
94.6630606061
 30
0.0
 11
451.158865803
 21
100.786121308
 31
0.0
  0
LWPOLYLINE
  5
2A2
330
1F
100
AcDbEntity
  8
0
  6
CONTINUOUS
 62
     7
100
AcDbPolyline
 90
       16
 70
   128
 43
0.0
 10
450.9290551724
 20
94.7957274593
 10
451.685051179
 20
95.1581280296
 10
452.5435208269
 20
95.4341685964
 10
453.4752360176
 20
95.6144457108
 10
454.4484730981
 20
95.6928172094
 10
455.4300827488
 20
95.6666183881
 10
456.3866380737
 20
95.5367408397
 10
457.28556812
 20
95.3076055571
 10
458.096261434
 20
94.9870153323
 10
458.7911049153
 20
94.5858907288
 10
459.3464383767
 20
94.1178904817
 10
459.7433553347
 20
93.5989492119
 10
459.9683394926
 20
93.0467385356
 10
460.0137220996
 20
92.4800673461
 10
459.8779534357
 20
91.9182356214
 10
459.6943961726
 20
91.5645456407
  0
LWPOLYLINE
  5
2A3
330
1F
100
AcDbEntity
  8
0
  6
CONTINUOUS
 62
     7
100
AcDbPolyline
 90
        8
 70
   128
 43
0.0
 10
449.6943997945
 20
91.5645437398
 10
449.6454432665
 20
91.6451319127
 10
449.4204643769
 20
92.1973395477
 10
449.37508177
 20
92.7640107371
 10
449.5108398971
 20
93.3258485446
 10
449.8231228553
 20
93.8637162753
 10
450.3012909524
 20
94.3593002543
 10
450.9290551724
 20
94.7957274593
  0
LINE
  5
2A4
330
1F
100
AcDbEntity
  8
0
  6
CONTINUOUS
 62
     7
100
AcDbLine
 10
440.5522643222
 20
108.9525263959
 30
0.0
 11
440.5522643222
 21
94.6630606061
 31
0.0
  0
LINE
  5
2A5
330
1F
100
AcDbEntity
  8
0
  6
CONTINUOUS
 62
     7
100
AcDbLine
 10
440.5522643222
 20
108.9525263959
 30
0.0
 11
451.158865803
 21
115.0755870977
 31
0.0
  0
LWPOLYLINE
  5
2A6
330
1F
100
AcDbEntity
  8
0
  6
CONTINUOUS
 62
     7
100
AcDbPolyline
 90
       12
 70
   128
 43
0.0
 10
455.3510034072
 20
99.5673723671
 10
455.4726602854
 20
99.9990803148
 10
455.5036856343
 20
100.5962929855
 10
455.4110310562
 20
101.2565850944
 10
455.1996856843
 20
101.9443644042
 10
454.8810502412
 20
102.6225487724
 10
454.4722995677
 20
103.2545797965
 10
453.995471197
 20
103.8063801605
 10
453.4762694386
 20
104.2482060097
 10
452.9426850681
 20
104.5562377102
 10
452.4234780413
 20
104.7138724928
 10
452.3760944468
 20
104.7206255199
  0
LWPOLYLINE
  5
2A7
330
1F
100
AcDbEntity
  8
0
  6
CONTINUOUS
 62
     7
100
AcDbPolyline
 90
        3
 70
   128
 43
0.0
 10
453.004006757
 20
101.3985351486
 10
452.9364927741
 20
101.5302425073
 10
452.7881516724
 20
101.7724466653
  0
ARC
  5
2A8
330
1F
100
AcDbEntity
  8
0
  6
CONTINUOUS
 62
     7
100
AcDbCircle
 10
451.9017637765
 20
92.7739266375
 30
0.0
 40
2.252680508482031
100
AcDbArc
 50
113.0718271155
 51
191.5118127916
  0
ARC
  5
2A9
330
1F
100
AcDbEntity
  8
0
  6
CONTINUOUS
 62
     7
100
AcDbCircle
 10
457.4498531768
 20
92.7544026583
 30
0.0
 40
2.285367800520733
100
AcDbArc
 50
349.1538955814
 51
66.2623815249
  0
LWPOLYLINE
  5
2AA
330
1F
100
AcDbEntity
  8
0
  6
CONTINUOUS
 62
     7
100
AcDbPolyline
 90
       12
 70
   128
 43
0.0
 10
455.3510034072
 20
106.5079696453
 10
455.4726602854
 20
106.939677593
 10
455.5036856343
 20
107.5368902638
 10
455.4110310562
 20
108.1971823726
 10
455.1996856843
 20
108.8849616824
 10
454.8810502412
 20
109.5631460506
 10
454.4722995677
 20
110.1951755538
 10
453.995471197
 20
110.7469774387
 10
453.4762694386
 20
111.188803288
 10
452.9426850681
 20
111.4968349884
 10
452.4234780413
 20
111.654469771
 10
452.3760944468
 20
111.6612227981
  0
LWPOLYLINE
  5
2AB
330
1F
100
AcDbEntity
  8
0
  6
CONTINUOUS
 62
     7
100
AcDbPolyline
 90
        3
 70
   128
 43
0.0
 10
453.004006757
 20
108.3391309059
 10
452.9364927741
 20
108.4708397855
 10
452.7881516724
 20
108.7130439435
  0
LWPOLYLINE
  5
2AC
330
1F
100
AcDbEntity
  8
0
  6
CONTINUOUS
 62
     7
100
AcDbPolyline
 90
       12
 70
   128
 43
0.0
 10
466.3111649219
 20
93.2402058022
 10
466.4328112634
 20
93.6719198326
 10
466.4638418806
 20
94.269129462
 10
466.3711820342
 20
94.9294246122
 10
466.1598366623
 20
95.617203922
 10
465.8412064876
 20
96.2953852488
 10
465.432455814
 20
96.927416273
 10
464.9556274434
 20
97.4792166369
 10
464.4364204166
 20
97.9210455275
 10
463.9028413144
 20
98.2290741866
 10
463.3836342876
 20
98.3867089692
 10
463.3362506932
 20
98.3934619963
  0
LWPOLYLINE
  5
2AD
330
1F
100
AcDbEntity
  8
0
  6
CONTINUOUS
 62
     7
100
AcDbPolyline
 90
        3
 70
   128
 43
0.0
 10
463.9641630034
 20
95.0713716251
 10
463.8966437521
 20
95.2030820251
 10
463.7483079187
 20
95.4452831417
  0
LWPOLYLINE
  5
2AE
330
1F
100
AcDbEntity
  8
0
  6
CONTINUOUS
 62
     7
100
AcDbPolyline
 90
       12
 70
   128
 43
0.0
 10
466.3111649219
 20
100.1808030804
 10
466.4328112634
 20
100.6125171108
 10
466.4638418806
 20
101.2097267402
 10
466.3711820342
 20
101.8700218904
 10
466.1598366623
 20
102.5578012002
 10
465.8412064876
 20
103.235982527
 10
465.432455814
 20
103.8680120303
 10
464.9556274434
 20
104.4198139152
 10
464.4364204166
 20
104.8616428058
 10
463.9028413144
 20
105.1696714649
 10
463.3836342876
 20
105.3273062475
 10
463.3362506932
 20
105.3340592746
  0
LWPOLYLINE
  5
2AF
330
1F
100
AcDbEntity
  8
0
  6
CONTINUOUS
 62
     7
100
AcDbPolyline
 90
        3
 70
   128
 43
0.0
 10
463.9641630034
 20
102.0119673824
 10
463.8966437521
 20
102.1436793033
 10
463.7483079187
 20
102.38588042
  0
ARC
  5
2B0
330
1F
100
AcDbEntity
  8
0
  6
CONTINUOUS
 62
     7
100
AcDbCircle
 10
368.5718237805
 20
174.7862751904
 30
0.0
 40
2.678881728472461
100
AcDbArc
 50
4.6125354307
 51
66.7076093061
  0
ARC
  5
2B1
330
1F
100
AcDbEntity
  8
0
  6
CONTINUOUS
 62
     7
100
AcDbCircle
 10
365.753776827
 20
169.980137337
 30
0.0
 40
8.23641398525563
100
AcDbArc
 50
61.9166304931
 51
120.091637347
  0
SPLINE
  5
2B2
330
1F
100
AcDbEntity
  8
0
  6
CONTINUOUS
 62
     7
100
AcDbSpline
210
0.0
220
0.0
230
1.0
 70
    11
 71
     3
 72
    72
 73
    68
 74
     0
 42
0.000000001
 43
0.00000001
 40
0.0
 40
0.0
 40
0.0
 40
0.0
 40
0.0312500000000002
 40
0.0312500000000002
 40
0.0625000000000004
 40
0.0625000000000004
 40
0.0937500000000006
 40
0.0937500000000006
 40
0.1250000000000008
 40
0.1250000000000008
 40
0.1562500000000011
 40
0.1562500000000011
 40
0.1875000000000013
 40
0.1875000000000013
 40
0.2031250000000013
 40
0.2031250000000013
 40
0.2187500000000014
 40
0.2187500000000014
 40
0.2500000000000014
 40
0.2500000000000014
 40
0.2812500000000014
 40
0.2812500000000014
 40
0.3125000000000015
 40
0.3125000000000015
 40
0.3437500000000014
 40
0.3437500000000014
 40
0.3750000000000013
 40
0.3750000000000013
 40
0.4062500000000012
 40
0.4062500000000012
 40
0.4375000000000011
 40
0.4375000000000011
 40
0.4687500000000009
 40
0.4687500000000009
 40
0.5000000000000008
 40
0.5000000000000008
 40
0.5312500000000008
 40
0.5312500000000008
 40
0.5625000000000007
 40
0.5625000000000007
 40
0.5937500000000006
 40
0.5937500000000006
 40
0.6250000000000004
 40
0.6250000000000004
 40
0.6562500000000003
 40
0.6562500000000003
 40
0.6875000000000002
 40
0.6875000000000002
 40
0.7187500000000001
 40
0.7187500000000001
 40
0.75
 40
0.75
 40
0.78125
 40
0.78125
 40
0.8125
 40
0.8125
 40
0.84375
 40
0.84375
 40
0.875
 40
0.875
 40
0.90625
 40
0.90625
 40
0.9375
 40
0.9375
 40
0.96875
 40
0.96875
 40
1.0
 40
1.0
 40
1.0
 40
1.0
 10
369.6311166511517
 20
176.532351882839
 30
0.0
 10
369.7314413254724
 20
176.4744356811347
 30
0.0
 10
369.8260321949945
 20
176.4038734393168
 30
0.0
 10
370.0047077438255
 20
176.2389124097091
 30
0.0
 10
370.0896236070033
 20
176.1432097674438
 30
0.0
 10
370.2438822518249
 20
175.9350301234279
 30
0.0
 10
370.3136260883411
 20
175.822624152923
 30
0.0
 10
370.4404071920231
 20
175.5820872270857
 30
0.0
 10
370.4969853434264
 20
175.4543825798897
 30
0.0
 10
370.5951335030036
 20
175.1942448433387
 30
0.0
 10
370.6374485542596
 20
175.0602735293462
 30
0.0
 10
370.7098426299177
 20
174.7868930013989
 30
0.0
 10
370.7389637718501
 20
174.651302058594
 30
0.0
 10
370.7738565266847
 20
174.4501027039255
 30
0.0
 10
370.7840060063388
 20
174.3834018019505
 30
0.0
 10
370.8014544305068
 20
174.2508387828916
 30
0.0
 10
370.8087610963059
 20
174.1847289762848
 30
0.0
 10
370.82603719143
 20
173.9925745987257
 30
0.0
 10
370.8316753299274
 20
173.8711976556131
 30
0.0
 10
370.8317591629905
 20
173.6421837363133
 30
0.0
 10
370.8259977984721
 20
173.5341842202748
 30
0.0
 10
370.8030638186396
 20
173.3422020581672
 30
0.0
 10
370.7859621786248
 20
173.256724181075
 30
0.0
 10
370.7387673245167
 20
173.1060994654863
 30
0.0
 10
370.7094196488925
 20
173.043366507088
 30
0.0
 10
370.6377336487955
 20
172.9403422515104
 30
0.0
 10
370.5948364569702
 20
172.8998607622939
 30
0.0
 10
370.4962417459337
 20
172.8429698988725
 30
0.0
 10
370.4405772562922
 20
172.8261310198607
 30
0.0
 10
370.3140483774674
 20
172.8146831495562
 30
0.0
 10
370.2429042079036
 20
172.8204129492253
 30
0.0
 10
370.0894028848673
 20
172.8534029189415
 30
0.0
 10
370.0063801450698
 20
172.8805157586148
 30
0.0
 10
369.825844574579
 20
172.9565793055147
 30
0.0
 10
369.7303572668388
 20
173.0047836276478
 30
0.0
 10
369.5327573735738
 20
173.1188145429372
 30
0.0
 10
369.4288567634086
 20
173.1857582006049
 30
0.0
 10
369.2191486734583
 20
173.33484135446
 30
0.0
 10
369.1142159140543
 20
173.4161864806267
 30
0.0
 10
368.9051457838503
 20
173.5928298491808
 30
0.0
 10
368.8009497913174
 20
173.6884023147719
 30
0.0
 10
368.6034561603611
 20
173.8866714396675
 30
0.0
 10
368.5089151736684
 20
173.9903658429605
 30
0.0
 10
368.3305739894124
 20
174.2083308941842
 30
0.0
 10
368.2494358493543
 20
174.3193609329384
 30
0.0
 10
368.1045776036938
 20
174.5471229142508
 30
0.0
 10
368.0402886484287
 20
174.6652174436555
 30
0.0
 10
367.9357779190632
 20
174.9020575395578
 30
0.0
 10
367.895539460178
 20
175.0201885302705
 30
0.0
 10
367.8407432289307
 20
175.2569283531874
 30
0.0
 10
367.8264596100017
 20
175.3765924094494
 30
0.0
 10
367.8265680224838
 20
175.6053354612982
 30
0.0
 10
367.8404298612792
 20
175.7156979505775
 30
0.0
 10
367.8957003792697
 20
175.9279506038224
 30
0.0
 10
367.9367021875614
 20
176.0275616806153
 30
0.0
 10
368.0410467415517
 20
176.2095258650599
 30
0.0
 10
368.1054047676866
 20
176.2933267354213
 30
0.0
 10
368.2513883700477
 20
176.4391487751901
 30
0.0
 10
368.3326634656175
 20
176.5013440373726
 30
0.0
 10
368.509751493412
 20
176.6034739965768
 30
0.0
 10
368.605840798021
 20
176.6431203598144
 30
0.0
 10
368.8031683562276
 20
176.6952966965574
 30
0.0
 10
368.9053322207108
 20
176.7084759680261
 30
0.0
 10
369.1156216936905
 20
176.7066762390041
 30
0.0
 10
369.2214062208101
 20
176.6914868873259
 30
0.0
 10
369.4285714339977
 20
176.6333004520714
 30
0.0
 10
369.530791976831
 20
176.5902680845433
 30
0.0
 10
369.6311166511517
 20
176.532351882839
 30
0.0
  0
ARC
  5
2B3
330
1F
100
AcDbEntity
  8
0
  6
CONTINUOUS
 62
     7
100
AcDbCircle
 10
365.7420293546
 20
172.2677095781
 30
0.0
 40
3.663195626475738
100
AcDbArc
 50
235.1870112609
 51
304.8129887391
  0
SPLINE
  5
2B4
330
1F
100
AcDbEntity
  8
0
  6
CONTINUOUS
 62
     8
100
AcDbSpline
210
0.0
220
0.0
230
1.0
 70
     8
 71
     3
 72
    18
 73
    14
 74
     0
 42
0.000000001
 43
0.00000001
 40
0.0
 40
0.0
 40
0.0
 40
0.0
 40
0.00855198128863
 40
0.1178958924137676
 40
0.2272405899830374
 40
0.3364630450667414
 40
0.445598707123251
 40
0.5547349764202396
 40
0.6638721383012383
 40
0.7729851575800938
 40
0.8821284162789192
 40
0.9912732706154815
 40
1.0
 40
1.0
 40
1.0
 40
1.0
 10
488.3562936601263
 20
105.9360743322986
 30
0.0
 10
488.3758926124282
 20
105.930625608619
 30
0.0
 10
488.6460798233252
 20
105.8555106008745
 30
0.0
 10
488.9745844996778
 20
105.3557197307277
 30
0.0
 10
489.2426647923974
 20
104.4840081567387
 30
0.0
 10
489.191327746563
 20
103.3639352305163
 30
0.0
 10
488.9300860982019
 20
102.1483589553768
 30
0.0
 10
488.3956474674345
 20
101.0004303067598
 30
0.0
 10
487.6954465432564
 20
100.0401558434529
 30
0.0
 10
486.9065842954406
 20
99.36191105812244
 30
0.0
 10
486.1655940751864
 20
99.08381311264452
 30
0.0
 10
485.6725638517666
 20
99.0638897259884
 30
0.0
 10
485.5245453689096
 20
99.22953225261912
 30
0.0
 10
485.513586686562
 20
99.24179574699869
 30
0.0
  0
SPLINE
  5
2B5
330
1F
100
AcDbEntity
  8
0
  6
CONTINUOUS
 62
     8
100
AcDbSpline
210
0.0
220
0.0
230
1.0
 70
     8
 71
     3
 72
    10
 73
     6
 74
     0
 42
0.000000001
 43
0.00000001
 40
0.0
 40
0.0
 40
0.0
 40
0.0
 40
0.2483526555435524
 40
0.6237279826690987
 40
0.9999999999999999
 40
0.9999999999999999
 40
0.9999999999999999
 40
0.9999999999999999
 10
490.1140740753887
 20
104.8829362091389
 30
0.0
 10
490.2700169726472
 20
104.783847764747
 30
0.0
 10
490.661661461029
 20
104.5349910114698
 30
0.0
 10
491.0235412794204
 20
103.7547704085566
 30
0.0
 10
491.0620826687818
 20
103.0210664592485
 30
0.0
 10
491.0813763527584
 20
102.6537768424276
 30
0.0
  0
SPLINE
  5
2B6
330
1F
100
AcDbEntity
  8
0
  6
CONTINUOUS
 62
     8
100
AcDbSpline
210
0.0
220
0.0
230
1.0
 70
     8
 71
     3
 72
     9
 73
     5
 74
     0
 42
0.000000001
 43
0.00000001
 40
0.0
 40
0.0
 40
0.0
 40
0.0
 40
0.2404635660664112
 40
1.0
 40
1.0
 40
1.0
 40
1.0
 10
484.8956297583314
 20
100.7618938614479
 30
0.0
 10
484.8668614363619
 20
100.7690559166795
 30
0.0
 10
484.7472245099029
 20
100.7988402842192
 30
0.0
 10
484.6891636289001
 20
100.9268886969173
 30
0.0
 10
484.6450642743923
 20
101.0241461316689
 30
0.0
  0
LINE
  5
2B7
330
1F
100
AcDbEntity
  8
0
  6
CONTINUOUS
 62
     8
100
AcDbLine
 10
487.3804520361
 20
105.2183868742
 30
0.0
 11
487.8741994853
 21
105.068952489
 31
0.0
  0
SPLINE
  5
2B8
330
1F
100
AcDbEntity
  8
0
  6
CONTINUOUS
 62
     8
100
AcDbSpline
210
0.0
220
0.0
230
1.0
 70
     8
 71
     3
 72
     9
 73
     5
 74
     0
 42
0.000000001
 43
0.00000001
 40
0.0
 40
0.0
 40
0.0
 40
0.0
 40
0.5472713725217653
 40
1.0
 40
1.0
 40
1.0
 40
1.0
 10
489.3103716229131
 20
104.1867765796132
 30
0.0
 10
489.3541121779573
 20
104.1843271255846
 30
0.0
 10
489.4340369780478
 20
104.1798513679413
 30
0.0
 10
489.4898102071189
 20
104.1283080209713
 30
0.0
 10
489.5150603445663
 20
104.1049728722419
 30
0.0
  0
LINE
  5
2B9
330
1F
100
AcDbEntity
  8
0
  6
CONTINUOUS
 62
     8
100
AcDbLine
 10
352.1302235613
 20
178.16535075
 30
0.0
 11
357.0807755945
 21
175.3074578932
 31
0.0
  0
LINE
  5
2BA
330
1F
100
AcDbEntity
  8
0
  6
CONTINUOUS
 62
     8
100
AcDbLine
 10
351.4231169935
 20
172.8579018559
 30
0.0
 11
352.1303391358
 21
172.4496312034
 31
0.0
  0
LINE
  5
2BB
330
1F
100
AcDbEntity
  8
0
  6
CONTINUOUS
 62
     8
100
AcDbLine
 10
351.4231169935
 20
176.9406058716
 30
0.0
 11
355.6664475428
 21
174.4909832871
 31
0.0
  0
ENDSEC
  0
SECTION
  2
OBJECTS
  0
DICTIONARY
  5
C
330
0
100
AcDbDictionary
  3
ACAD_GROUP
350
D
  3
ACAD_MLINESTYLE
350
17
  3
ACAD_SCALELIST
350
47
  0
DICTIONARY
  5
D
102
{ACAD_REACTORS
330
C
102
}
330
C
100
AcDbDictionary
  0
DICTIONARY
  5
17
102
{ACAD_REACTORS
330
C
102
}
330
C
100
AcDbDictionary
  3
STANDARD
350
18
  0
DICTIONARY
  5
47
102
{ACAD_REACTORS
330
C
102
}
330
C
100
AcDbDictionary
  0
MLINESTYLE
  5
18
102
{ACAD_REACTORS
330
17
102
}
330
17
100
AcDbMlineStyle
  2
Standard
 70
     0
  3

 62
   256
 51
90.0
 52
90.0
 71
     2
 49
0.5
 62
   256
  6
BYLAYER
 49
-0.5
 62
   256
  6
BYLAYER
  0
ENDSEC
  0
EOF
