  0
SECTION
  2
HEADER
  9
$ACADVER
  1
AC1015
  9
$ACADMAINTVER
 70
    20
  9
$DWGCODEPAGE
  3
ANSI_1252
  9
$INSBASE
 10
0.0
 20
0.0
 30
0.0
  9
$EXTMIN
 10
58.43444928810288
 20
87.50116046134053
 30
-0.0000610304997082
  9
$EXTMAX
 10
160.0442511635417
 20
268.5716406730605
 30
0.000091555062788
  9
$LIMMIN
 10
0.0
 20
0.0
  9
$LIMMAX
 10
420.0
 20
297.0
  9
$ORTHOMODE
 70
     0
  9
$REGENMODE
 70
     1
  9
$FILLMODE
 70
     1
  9
$QTEXTMODE
 70
     0
  9
$MIRRTEXT
 70
     1
  9
$LTSCALE
 40
1.0
  9
$ATTMODE
 70
     1
  9
$TEXTSIZE
 40
2.5
  9
$TRACEWID
 40
1.0
  9
$TEXTSTYLE
  7
STANDARD
  9
$CLAYER
  8
HAWA1
  9
$CELTYPE
  6
BYLAYER
  9
$CECOLOR
 62
   256
  9
$CELTSCALE
 40
1.0
  9
$DISPSILH
 70
     0
  9
$DIMSCALE
 40
1.0
  9
$DIMASZ
 40
2.5
  9
$DIMEXO
 40
0.625
  9
$DIMDLI
 40
3.75
  9
$DIMRND
 40
0.0
  9
$DIMDLE
 40
0.0
  9
$DIMEXE
 40
1.25
  9
$DIMTP
 40
0.0
  9
$DIMTM
 40
0.0
  9
$DIMTXT
 40
2.5
  9
$DIMCEN
 40
2.5
  9
$DIMTSZ
 40
0.0
  9
$DIMTOL
 70
     0
  9
$DIMLIM
 70
     0
  9
$DIMTIH
 70
     0
  9
$DIMTOH
 70
     0
  9
$DIMSE1
 70
     0
  9
$DIMSE2
 70
     0
  9
$DIMTAD
 70
     1
  9
$DIMZIN
 70
     8
  9
$DIMBLK
  1

  9
$DIMASO
 70
     1
  9
$DIMSHO
 70
     1
  9
$DIMPOST
  1

  9
$DIMAPOST
  1

  9
$DIMALT
 70
     0
  9
$DIMALTD
 70
     3
  9
$DIMALTF
 40
0.03937
  9
$DIMLFAC
 40
1.0
  9
$DIMTOFL
 70
     1
  9
$DIMTVP
 40
0.0
  9
$DIMTIX
 70
     0
  9
$DIMSOXD
 70
     0
  9
$DIMSAH
 70
     0
  9
$DIMBLK1
  1

  9
$DIMBLK2
  1

  9
$DIMSTYLE
  2
STANDARD
  9
$DIMCLRD
 70
     0
  9
$DIMCLRE
 70
     0
  9
$DIMCLRT
 70
     0
  9
$DIMTFAC
 40
1.0
  9
$DIMGAP
 40
0.625
  9
$DIMJUST
 70
     0
  9
$DIMSD1
 70
     0
  9
$DIMSD2
 70
     0
  9
$DIMTOLJ
 70
     0
  9
$DIMTZIN
 70
     8
  9
$DIMALTZ
 70
     0
  9
$DIMALTTZ
 70
     0
  9
$DIMUPT
 70
     0
  9
$DIMDEC
 70
     2
  9
$DIMTDEC
 70
     2
  9
$DIMALTU
 70
     2
  9
$DIMALTTD
 70
     3
  9
$DIMTXSTY
  7
STANDARD
  9
$DIMAUNIT
 70
     0
  9
$DIMADEC
 70
     0
  9
$DIMALTRND
 40
0.0
  9
$DIMAZIN
 70
     0
  9
$DIMDSEP
 70
    46
  9
$DIMATFIT
 70
     0
  9
$DIMFRAC
 70
     0
  9
$DIMLDRBLK
  1

  9
$DIMLUNIT
 70
     2
  9
$DIMLWD
 70
    -2
  9
$DIMLWE
 70
    -2
  9
$DIMTMOVE
 70
     0
  9
$LUNITS
 70
     2
  9
$LUPREC
 70
     4
  9
$SKETCHINC
 40
1.0
  9
$FILLETRAD
 40
2.5
  9
$AUNITS
 70
     0
  9
$AUPREC
 70
     0
  9
$MENU
  1
.
  9
$ELEVATION
 40
0.0
  9
$PELEVATION
 40
0.0
  9
$THICKNESS
 40
0.0
  9
$LIMCHECK
 70
     0
  9
$CHAMFERA
 40
2.5
  9
$CHAMFERB
 40
2.5
  9
$CHAMFERC
 40
0.0
  9
$CHAMFERD
 40
0.0
  9
$SKPOLY
 70
     0
  9
$TDCREATE
 40
2447893.000000000
  9
$TDUCREATE
 40
2447892.958333333
  9
$TDUPDATE
 40
2455231.367650544
  9
$TDUUPDATE
 40
2455231.325983878
  9
$TDINDWG
 40
0.0002012384
  9
$TDUSRTIMER
 40
0.0002012384
  9
$USRTIMER
 70
     1
  9
$ANGBASE
 50
0.0
  9
$ANGDIR
 70
     0
  9
$PDMODE
 70
     0
  9
$PDSIZE
 40
0.0
  9
$PLINEWID
 40
0.0
  9
$SPLFRAME
 70
     0
  9
$SPLINETYPE
 70
     6
  9
$SPLINESEGS
 70
     8
  9
$HANDSEED
  5
96D
  9
$SURFTAB1
 70
     6
  9
$SURFTAB2
 70
     6
  9
$SURFTYPE
 70
     6
  9
$SURFU
 70
     6
  9
$SURFV
 70
     6
  9
$UCSBASE
  2

  9
$UCSNAME
  2

  9
$UCSORG
 10
0.0
 20
0.0
 30
0.0
  9
$UCSXDIR
 10
1.0
 20
0.0
 30
0.0
  9
$UCSYDIR
 10
0.0
 20
1.0
 30
0.0
  9
$UCSORTHOREF
  2

  9
$UCSORTHOVIEW
 70
     0
  9
$UCSORGTOP
 10
0.0
 20
0.0
 30
0.0
  9
$UCSORGBOTTOM
 10
0.0
 20
0.0
 30
0.0
  9
$UCSORGLEFT
 10
0.0
 20
0.0
 30
0.0
  9
$UCSORGRIGHT
 10
0.0
 20
0.0
 30
0.0
  9
$UCSORGFRONT
 10
0.0
 20
0.0
 30
0.0
  9
$UCSORGBACK
 10
0.0
 20
0.0
 30
0.0
  9
$PUCSBASE
  2

  9
$PUCSNAME
  2

  9
$PUCSORG
 10
0.0
 20
0.0
 30
0.0
  9
$PUCSXDIR
 10
1.0
 20
0.0
 30
0.0
  9
$PUCSYDIR
 10
0.0
 20
1.0
 30
0.0
  9
$PUCSORTHOREF
  2

  9
$PUCSORTHOVIEW
 70
     0
  9
$PUCSORGTOP
 10
0.0
 20
0.0
 30
0.0
  9
$PUCSORGBOTTOM
 10
0.0
 20
0.0
 30
0.0
  9
$PUCSORGLEFT
 10
0.0
 20
0.0
 30
0.0
  9
$PUCSORGRIGHT
 10
0.0
 20
0.0
 30
0.0
  9
$PUCSORGFRONT
 10
0.0
 20
0.0
 30
0.0
  9
$PUCSORGBACK
 10
0.0
 20
0.0
 30
0.0
  9
$USERI1
 70
     0
  9
$USERI2
 70
     0
  9
$USERI3
 70
     0
  9
$USERI4
 70
     0
  9
$USERI5
 70
     0
  9
$USERR1
 40
0.0
  9
$USERR2
 40
0.0
  9
$USERR3
 40
0.0
  9
$USERR4
 40
0.0
  9
$USERR5
 40
0.0
  9
$WORLDVIEW
 70
     1
  9
$SHADEDGE
 70
     3
  9
$SHADEDIF
 70
    70
  9
$TILEMODE
 70
     1
  9
$MAXACTVP
 70
    48
  9
$PINSBASE
 10
0.0
 20
0.0
 30
0.0
  9
$PLIMCHECK
 70
     0
  9
$PEXTMIN
 10
0.0
 20
0.0
 30
0.0
  9
$PEXTMAX
 10
195.5
 20
253.664566
 30
2.0
  9
$PLIMMIN
 10
0.0
 20
0.0
  9
$PLIMMAX
 10
420.0
 20
297.0
  9
$UNITMODE
 70
     0
  9
$VISRETAIN
 70
     0
  9
$PLINEGEN
 70
     0
  9
$PSLTSCALE
 70
     1
  9
$TREEDEPTH
 70
  3020
  9
$CMLSTYLE
  2
STANDARD
  9
$CMLJUST
 70
     0
  9
$CMLSCALE
 40
20.0
  9
$PROXYGRAPHICS
 70
     1
  9
$MEASUREMENT
 70
     1
  9
$CELWEIGHT
370
    -1
  9
$ENDCAPS
280
     0
  9
$JOINSTYLE
280
     0
  9
$LWDISPLAY
290
     0
  9
$INSUNITS
 70
     0
  9
$HYPERLINKBASE
  1

  9
$STYLESHEET
  1

  9
$XEDIT
290
     1
  9
$CEPSNTYPE
380
     0
  9
$PSTYLEMODE
290
     1
  9
$FINGERPRINTGUID
  2
{8F669CA6-3519-4515-B0AD-9FF4801020B2}
  9
$VERSIONGUID
  2
{5863685B-9F13-4CE7-9840-D0330B06EC69}
  9
$EXTNAMES
290
     1
  9
$PSVPSCALE
 40
0.0
  9
$OLESTARTUP
290
     0
  0
ENDSEC
  0
SECTION
  2
CLASSES
  0
CLASS
  1
IMAGE
  2
AcDbRasterImage
  3
ISM
 90
    34943
280
     0
281
     1
  0
CLASS
  1
DICTIONARYVAR
  2
AcDbDictionaryVar
  3
ObjectDBX Classes
 90
        0
280
     0
281
     0
  0
CLASS
  1
RASTERVARIABLES
  2
AcDbRasterVariables
  3
ISM
 90
    32768
280
     0
281
     0
  0
CLASS
  1
IMAGEDEF
  2
AcDbRasterImageDef
  3
ISM
 90
    32768
280
     0
281
     0
  0
CLASS
  1
IMAGEDEF_REACTOR
  2
AcDbRasterImageDefReactor
  3
ISM
 90
    32769
280
     0
281
     0
  0
CLASS
  1
IDBUFFER
  2
AcDbIdBuffer
  3
ObjectDBX Classes
 90
    32768
280
     0
281
     0
  0
CLASS
  1
SPATIAL_FILTER
  2
AcDbSpatialFilter
  3
ObjectDBX Classes
 90
    32768
280
     0
281
     0
  0
CLASS
  1
SORTENTSTABLE
  2
AcDbSortentsTable
  3
ObjectDBX Classes
 90
    32768
280
     0
281
     0
  0
CLASS
  1
LAYER_INDEX
  2
AcDbLayerIndex
  3
ObjectDBX Classes
 90
    32768
280
     0
281
     0
  0
CLASS
  1
SPATIAL_INDEX
  2
AcDbSpatialIndex
  3
ObjectDBX Classes
 90
    32768
280
     0
281
     0
  0
CLASS
  1
OBJECT_PTR
  2
CAseDLPNTableRecord
  3
ASE-LPNTableRecord
 90
    32769
280
     0
281
     0
  0
CLASS
  1
LAYOUT
  2
AcDbLayout
  3
ObjectDBX Classes
 90
        0
280
     0
281
     0
  0
CLASS
  1
PLOTSETTINGS
  2
AcDbPlotSettings
  3
ObjectDBX Classes
 90
    32768
280
     0
281
     0
  0
CLASS
  1
ACDBDICTIONARYWDFLT
  2
AcDbDictionaryWithDefault
  3
ObjectDBX Classes
 90
        0
280
     0
281
     0
  0
CLASS
  1
ACDBPLACEHOLDER
  2
AcDbPlaceHolder
  3
ObjectDBX Classes
 90
        0
280
     0
281
     0
  0
CLASS
  1
VBA_PROJECT
  2
AcDbVbaProject
  3
acad
 90
    32768
280
     0
281
     0
  0
CLASS
  1
WIPEOUT
  2
AcDbWipeout
  3
"WipeOut|Product Desc: Object Enabler for WipeOut entity                        |Company: Autodesk, Inc.                        |WEB Address: www.autodesk.com"
 90
    34943
280
     0
281
     1
  0
CLASS
  1
WIPEOUTVARIABLES
  2
AcDbWipeoutVariables
  3
"WipeOut|Product Desc:     WipeOut Dbx Application|Company:          Autodesk, Inc.|WEB Address:      www.autodesk.com"
 90
    32768
280
     0
281
     0
  0
CLASS
  1
RTEXT
  2
RText
  3
RText|AutoCAD Express Tool|expresstools@autodesk.com
 90
    32768
280
     0
281
     1
  0
CLASS
  1
ARCALIGNEDTEXT
  2
AcDbArcAlignedText
  3
ATEXT|AutoCAD Express Tool|expresstools@autodesk.com
 90
    32768
280
     0
281
     1
  0
CLASS
  1
MATERIAL
  2
AcDbMaterial
  3
ObjectDBX Classes
 90
     1024
280
     0
281
     0
  0
CLASS
  1
VISUALSTYLE
  2
AcDbVisualStyle
  3
ObjectDBX Classes
 90
     4095
280
     0
281
     0
  0
CLASS
  1
TABLESTYLE
  2
AcDbTableStyle
  3
ObjectDBX Classes
 90
     4095
280
     0
281
     0
  0
ENDSEC
  0
SECTION
  2
TABLES
  0
TABLE
  2
VPORT
  5
7
330
0
100
AcDbSymbolTable
 70
     1
  0
VPORT
  5
15
330
7
100
AcDbSymbolTableRecord
100
AcDbViewportTableRecord
  2
*ACTIVE
 70
     0
 10
0.0
 20
0.0
 11
1.0
 21
1.0
 12
109.2393502258223
 22
178.0364005672005
 13
0.0
 23
0.0
 14
1.0
 24
1.0
 15
0.0
 25
0.0
 16
0.0
 26
0.0
 36
1.0
 17
0.0
 27
0.0
 37
0.0
 40
182.2189187754306
 41
1.606349206349206
 42
50.0
 43
0.0
 44
0.0
 50
0.0
 51
0.0
 71
     0
 72
   100
 73
     1
 74
     1
 75
     0
 76
     0
 77
     0
 78
     0
281
     0
 65
     1
110
0.0
120
0.0
130
0.0
111
1.0
121
0.0
131
0.0
112
0.0
122
1.0
132
0.0
 79
     0
146
0.0
  0
ENDTAB
  0
TABLE
  2
LTYPE
  5
4
330
0
100
AcDbSymbolTable
 70
     8
  0
LTYPE
  5
11
330
4
100
AcDbSymbolTableRecord
100
AcDbLinetypeTableRecord
  2
BYBLOCK
 70
     0
  3

 72
    65
 73
     0
 40
0.0
  0
LTYPE
  5
12
330
4
100
AcDbSymbolTableRecord
100
AcDbLinetypeTableRecord
  2
BYLAYER
 70
     0
  3

 72
    65
 73
     0
 40
0.0
  0
LTYPE
  5
13
330
4
100
AcDbSymbolTableRecord
100
AcDbLinetypeTableRecord
  2
CONTINUOUS
 70
     0
  3
Solid line
 72
    65
 73
     0
 40
0.0
  0
LTYPE
  5
1D
330
4
100
AcDbSymbolTableRecord
100
AcDbLinetypeTableRecord
  2
DASHED
 70
     0
  3
__ __ __ __ __ __ __ __ __ __ __ __ __ __ __ __
 72
    65
 73
     2
 40
15.0
 49
12.0
 74
     0
 49
-3.0
 74
     0
  0
LTYPE
  5
1E
330
4
100
AcDbSymbolTableRecord
100
AcDbLinetypeTableRecord
  2
DASHDOT
 70
     0
  3
 __ . __ . __ . __ . __ . __ . __ . 
 72
    65
 73
     4
 40
18.5
 49
12.0
 74
     0
 49
-3.0
 74
     0
 49
0.5
 74
     0
 49
-3.0
 74
     0
  0
LTYPE
  5
1F
330
4
100
AcDbSymbolTableRecord
100
AcDbLinetypeTableRecord
  2
DOT
 70
     0
  3
 . . . . . . . . . . . . . . . .
 72
    65
 73
     2
 40
3.5
 49
0.5
 74
     0
 49
-3.0
 74
     0
  0
LTYPE
  5
20
330
4
100
AcDbSymbolTableRecord
100
AcDbLinetypeTableRecord
  2
DASHSPACE
 70
     0
  3
__    __    __    __    __   
 72
    65
 73
     2
 40
30.0
 49
12.0
 74
     0
 49
-18.0
 74
     0
  0
LTYPE
  5
21
330
4
100
AcDbSymbolTableRecord
100
AcDbLinetypeTableRecord
  2
DASHDOT2
 70
     0
  3
__ . . __ . . __ . . __ 
 72
    65
 73
     6
 40
22.0
 49
12.0
 74
     0
 49
-3.0
 74
     0
 49
0.5
 74
     0
 49
-3.0
 74
     0
 49
0.5
 74
     0
 49
-3.0
 74
     0
  0
LTYPE
  5
22
330
4
100
AcDbSymbolTableRecord
100
AcDbLinetypeTableRecord
  2
PHANTOM
 70
     0
  3
____________    ____    ____   _
 72
    65
 73
     6
 40
20.0
 49
10.0
 74
     0
 49
-2.0
 74
     0
 49
2.0
 74
     0
 49
-2.0
 74
     0
 49
2.0
 74
     0
 49
-2.0
 74
     0
  0
LTYPE
  5
23
330
4
100
AcDbSymbolTableRecord
100
AcDbLinetypeTableRecord
  2
AXES
 70
     0
  3
________  __  ________  __  _____
 72
    65
 73
     4
 40
24.0
 49
15.0
 74
     0
 49
-3.0
 74
     0
 49
3.0
 74
     0
 49
-3.0
 74
     0
  0
ENDTAB
  0
TABLE
  2
LAYER
  5
2
330
0
100
AcDbSymbolTable
 70
     6
  0
LAYER
  5
935
330
2
100
AcDbSymbolTableRecord
100
AcDbLayerTableRecord
  2
0
 70
     0
 62
     7
  6
CONTINUOUS
370
    -3
390
937
  0
LAYER
  5
931
330
2
100
AcDbSymbolTableRecord
100
AcDbLayerTableRecord
  2
Hawa2
 70
     0
 62
     9
  6
CONTINUOUS
370
     0
390
937
  0
LAYER
  5
932
330
2
100
AcDbSymbolTableRecord
100
AcDbLayerTableRecord
  2
Hawa4
 70
     0
 62
     4
  6
CONTINUOUS
370
     0
390
937
  0
LAYER
  5
933
330
2
100
AcDbSymbolTableRecord
100
AcDbLayerTableRecord
  2
Hawa5
 70
     0
 62
     1
  6
CONTINUOUS
370
    -3
390
937
  0
LAYER
  5
934
330
2
100
AcDbSymbolTableRecord
100
AcDbLayerTableRecord
  2
Hawa6
 70
     0
 62
     3
  6
CONTINUOUS
370
    -3
390
937
  0
LAYER
  5
14
330
2
100
AcDbSymbolTableRecord
100
AcDbLayerTableRecord
  2
HAWA1
 70
     0
 62
     2
  6
CONTINUOUS
370
     0
390
937
  0
ENDTAB
  0
TABLE
  2
STYLE
  5
3
330
0
100
AcDbSymbolTable
 70
     2
  0
STYLE
  5
17
330
3
100
AcDbSymbolTableRecord
100
AcDbTextStyleTableRecord
  2
STANDARD
 70
     0
 40
0.0
 41
1.0
 50
0.0
 71
     0
 42
2.5
  3
isocp.shx
  4

  0
STYLE
  5
24
330
3
100
AcDbSymbolTableRecord
100
AcDbTextStyleTableRecord
  2
GDT
 70
     0
 40
0.0
 41
1.0
 50
0.0
 71
     0
 42
2.5
  3
amgdt.shx
  4

  0
ENDTAB
  0
TABLE
  2
VIEW
  5
5
330
0
100
AcDbSymbolTable
 70
     1
  0
ENDTAB
  0
TABLE
  2
UCS
  5
6
330
0
100
AcDbSymbolTable
 70
     0
  0
ENDTAB
  0
TABLE
  2
APPID
  5
8
330
0
100
AcDbSymbolTable
 70
     1
  0
APPID
  5
16
330
8
100
AcDbSymbolTableRecord
100
AcDbRegAppTableRecord
  2
ACAD
 70
     0
  0
ENDTAB
  0
TABLE
  2
DIMSTYLE
  5
9
330
0
100
AcDbSymbolTable
 70
     1
100
AcDbDimStyleTable
 71
     0
  0
DIMSTYLE
105
18
102
{ACAD_REACTORS
330
26
330
28
330
2A
330
2C
330
2E
330
30
330
32
330
34
330
36
330
38
330
3A
102
}
330
9
100
AcDbSymbolTableRecord
100
AcDbDimStyleTableRecord
  2
STANDARD
 70
     0
 41
2.5
 42
0.625
 43
3.75
 44
1.25
 73
     0
 74
     0
 77
     1
 78
     8
140
2.5
141
2.5
143
0.03937
147
0.625
171
     3
172
     1
271
     2
272
     2
274
     3
283
     0
284
     8
289
     0
340
17
  0
ENDTAB
  0
TABLE
  2
BLOCK_RECORD
  5
1
330
0
100
AcDbSymbolTable
 70
    14
  0
BLOCK_RECORD
  5
A
330
1
100
AcDbSymbolTableRecord
100
AcDbBlockTableRecord
  2
*MODEL_SPACE
340
778
  0
BLOCK_RECORD
  5
B
330
1
100
AcDbSymbolTableRecord
100
AcDbBlockTableRecord
  2
*PAPER_SPACE
340
779
  0
BLOCK_RECORD
  5
25
330
1
100
AcDbSymbolTableRecord
100
AcDbBlockTableRecord
  2
*D0
340
0
  0
BLOCK_RECORD
  5
27
330
1
100
AcDbSymbolTableRecord
100
AcDbBlockTableRecord
  2
*D1
340
0
  0
BLOCK_RECORD
  5
29
330
1
100
AcDbSymbolTableRecord
100
AcDbBlockTableRecord
  2
*D2
340
0
  0
BLOCK_RECORD
  5
2B
330
1
100
AcDbSymbolTableRecord
100
AcDbBlockTableRecord
  2
*D3
340
0
  0
BLOCK_RECORD
  5
2D
330
1
100
AcDbSymbolTableRecord
100
AcDbBlockTableRecord
  2
*D4
340
0
  0
BLOCK_RECORD
  5
2F
330
1
100
AcDbSymbolTableRecord
100
AcDbBlockTableRecord
  2
*D5
340
0
  0
BLOCK_RECORD
  5
31
330
1
100
AcDbSymbolTableRecord
100
AcDbBlockTableRecord
  2
*D6
340
0
  0
BLOCK_RECORD
  5
33
330
1
100
AcDbSymbolTableRecord
100
AcDbBlockTableRecord
  2
*D7
340
0
  0
BLOCK_RECORD
  5
35
330
1
100
AcDbSymbolTableRecord
100
AcDbBlockTableRecord
  2
*D8
340
0
  0
BLOCK_RECORD
  5
37
330
1
100
AcDbSymbolTableRecord
100
AcDbBlockTableRecord
  2
*D9
340
0
  0
BLOCK_RECORD
  5
39
330
1
100
AcDbSymbolTableRecord
100
AcDbBlockTableRecord
  2
*D10
340
0
  0
BLOCK_RECORD
  5
60
330
1
100
AcDbSymbolTableRecord
100
AcDbBlockTableRecord
  2
BLOCK0
340
0
  0
BLOCK_RECORD
  5
61
330
1
100
AcDbSymbolTableRecord
100
AcDbBlockTableRecord
  2
BLOCK1
340
0
  0
BLOCK_RECORD
  5
62
330
1
100
AcDbSymbolTableRecord
100
AcDbBlockTableRecord
  2
BLOCK2
340
0
  0
ENDTAB
  0
ENDSEC
  0
SECTION
  2
BLOCKS
  0
BLOCK
  5
D
330
A
100
AcDbEntity
  8
HAWA1
100
AcDbBlockBegin
  2
*MODEL_SPACE
 70
     0
 10
0.0
 20
0.0
 30
0.0
  3
*MODEL_SPACE
  1

  0
ENDBLK
  5
E
330
A
100
AcDbEntity
  8
HAWA1
100
AcDbBlockEnd
  0
BLOCK
  5
F
330
B
100
AcDbEntity
 67
     1
  8
HAWA1
100
AcDbBlockBegin
  2
*PAPER_SPACE
 70
     0
 10
0.0
 20
0.0
 30
0.0
  3
*PAPER_SPACE
  1

  0
ENDBLK
  5
10
330
B
100
AcDbEntity
 67
     1
  8
HAWA1
100
AcDbBlockEnd
  0
BLOCK
  5
63
330
25
100
AcDbEntity
  8
HAWA1
100
AcDbBlockBegin
  2
*D0
 70
     1
 10
0.0
 20
0.0
 30
0.0
  3
*D0
  1

  0
TEXT
  5
64
330
25
100
AcDbEntity
  8
HAWA1
 62
     2
100
AcDbText
 10
112.324503
 20
135.784408
 30
0.0
 40
3.5
  1
20
 41
1.380826645082962
 72
     5
 11
118.369425
 21
135.784408
 31
0.0
100
AcDbText
  0
TEXT
  5
65
330
25
100
AcDbEntity
  8
HAWA1
 62
     2
100
AcDbText
 10
121.369425
 20
137.884408
 30
0.0
 40
2.33345
  1
25
 41
1.337380426284689
 72
     5
 11
125.399577
 21
137.884408
 31
0.0
100
AcDbText
  0
TEXT
  5
66
330
25
100
AcDbEntity
  8
HAWA1
 62
     2
100
AcDbText
 10
121.369425
 20
134.850957
 30
0.0
 40
2.33345
  1
32
 41
1.318354036919421
 72
     5
 11
125.399577
 21
134.850957
 31
0.0
100
AcDbText
  0
TEXT
  5
67
330
25
100
AcDbEntity
  8
HAWA1
 62
     2
100
AcDbText
 10
125.399577
 20
136.659408
 30
0.0
 40
3.5
  1
"
 41
1.629628571428562
 72
     5
 11
127.966242
 21
136.659408
 31
0.0
100
AcDbText
  0
TEXT
  5
68
330
25
100
AcDbEntity
  8
HAWA1
 62
     2
100
AcDbText
 10
119.369425
 20
137.034408
 30
0.0
 40
1.0
  1
/
 41
1.818181818181818
 72
     5
 11
120.369425
 21
137.034408
 31
0.0
100
AcDbText
  0
LINE
  5
69
330
25
100
AcDbEntity
  8
HAWA1
 62
     2
 48
0.100754
100
AcDbLine
 10
121.369425
 20
137.534408
 30
0.0
 11
125.399577
 21
137.534408
 31
0.0
  0
LINE
  5
6A
330
25
100
AcDbEntity
  8
HAWA1
 62
     2
 48
0.441517
100
AcDbLine
 10
89.43616699999999
 20
150.511632
 30
0.0
 11
89.43616699999999
 21
132.850957
 31
0.0
  0
LINE
  5
6B
330
25
100
AcDbEntity
  8
HAWA1
 62
     2
 48
0.441517
100
AcDbLine
 10
109.436167
 20
150.511632
 30
0.0
 11
109.436167
 21
132.850957
 31
0.0
  0
LINE
  5
6C
330
25
100
AcDbEntity
  8
HAWA1
 62
     2
 48
0.075
100
AcDbLine
 10
88.375514
 20
132.790297
 30
0.0
 11
90.496821
 21
134.911617
 31
0.0
  0
LINE
  5
6D
330
25
100
AcDbEntity
  8
HAWA1
 62
     2
 48
0.075
100
AcDbLine
 10
110.496821
 20
134.911617
 30
0.0
 11
108.375514
 21
132.790297
 31
0.0
  0
LINE
  5
6E
330
25
100
AcDbEntity
  8
HAWA1
 62
     2
100
AcDbLine
 10
89.43616699999999
 20
133.850957
 30
0.0
 11
127.966242
 21
133.850957
 31
0.0
  0
ENDBLK
  5
6F
330
25
100
AcDbEntity
  8
HAWA1
100
AcDbBlockEnd
  0
BLOCK
  5
70
330
27
100
AcDbEntity
  8
HAWA1
100
AcDbBlockBegin
  2
*D1
 70
     1
 10
0.0
 20
0.0
 30
0.0
  3
*D1
  1

  0
TEXT
  5
71
330
27
100
AcDbEntity
  8
HAWA1
 62
     2
100
AcDbText
 10
120.389323
 20
215.479533
 30
0.0
 40
3.5
  1
30
 50
90.0
 41
1.380826645082958
 72
     5
 11
120.389323
 21
221.524455
 31
0.0
100
AcDbText
  0
TEXT
  5
72
330
27
100
AcDbEntity
  8
HAWA1
 62
     2
100
AcDbText
 10
119.139323
 20
222.524455
 30
0.0
 40
1.0
  1
/
 50
90.0
 41
1.818181818181818
 72
     5
 11
119.139323
 21
223.524455
 31
0.0
100
AcDbText
  0
TEXT
  5
73
330
27
100
AcDbEntity
  8
HAWA1
 62
     2
100
AcDbText
 10
120.389323
 20
224.524455
 30
0.0
 40
3.5
  1
1
 50
90.0
 41
2.181595918367357
 72
     5
 11
120.389323
 21
227.19691
 31
0.0
100
AcDbText
  0
TEXT
  5
74
330
27
100
AcDbEntity
  8
HAWA1
 62
     2
100
AcDbText
 10
118.289317
 20
230.071132
 30
0.0
 40
2.33345
  1
3
 50
90.0
 41
1.291054821585633
 72
     5
 11
118.289317
 21
231.852855
 31
0.0
100
AcDbText
  0
TEXT
  5
75
330
27
100
AcDbEntity
  8
HAWA1
 62
     2
100
AcDbText
 10
121.322772
 20
228.946918
 30
0.0
 40
2.33345
  1
16
 50
90.0
 41
1.570672354827857
 72
     5
 11
121.322772
 21
232.977069
 31
0.0
100
AcDbText
  0
TEXT
  5
76
330
27
100
AcDbEntity
  8
HAWA1
 62
     2
100
AcDbText
 10
119.514323
 20
232.977069
 30
0.0
 40
3.5
  1
"
 50
90.0
 41
1.629629206349205
 72
     5
 11
119.514323
 21
235.543735
 31
0.0
100
AcDbText
  0
LINE
  5
77
330
27
100
AcDbEntity
  8
HAWA1
 62
     2
 48
0.100754
100
AcDbLine
 10
118.639323
 20
228.946918
 30
0.0
 11
118.639323
 21
232.977069
 31
0.0
  0
LINE
  5
78
330
27
100
AcDbEntity
  8
HAWA1
 62
     2
 48
0.272165
100
AcDbLine
 10
112.436167
 20
210.51163
 30
0.0
 11
123.322772
 21
210.51163
 31
0.0
  0
LINE
  5
79
330
27
100
AcDbEntity
  8
HAWA1
 62
     2
 48
0.075
100
AcDbLine
 10
123.383433
 20
239.450969
 30
0.0
 11
121.26211
 21
241.572292
 31
0.0
  0
LINE
  5
7A
330
27
100
AcDbEntity
  8
HAWA1
 62
     2
 48
0.075
100
AcDbLine
 10
121.26211
 20
211.572292
 30
0.0
 11
123.383433
 21
209.450969
 31
0.0
  0
LINE
  5
7B
330
27
100
AcDbEntity
  8
HAWA1
 62
     2
100
AcDbLine
 10
122.322772
 20
210.51163
 30
0.0
 11
122.322772
 21
240.5116299999999
 31
0.0
  0
ENDBLK
  5
7C
330
27
100
AcDbEntity
  8
HAWA1
100
AcDbBlockEnd
  0
BLOCK
  5
7D
330
29
100
AcDbEntity
  8
HAWA1
100
AcDbBlockBegin
  2
*D2
 70
     1
 10
0.0
 20
0.0
 30
0.0
  3
*D2
  1

  0
TEXT
  5
7E
330
29
100
AcDbEntity
  8
HAWA1
 62
     2
100
AcDbText
 10
120.389323
 20
190.967342
 30
0.0
 40
3.5
  1
5
 50
90.0
 41
1.291056330079331
 72
     5
 11
120.389323
 21
193.639796
 31
0.0
100
AcDbText
  0
TEXT
  5
7F
330
29
100
AcDbEntity
  8
HAWA1
 62
     2
100
AcDbText
 10
118.289317
 20
197.764018
 30
0.0
 40
2.33345
  1
3
 50
90.0
 41
1.291054821585633
 72
     5
 11
118.289317
 21
199.545741
 31
0.0
100
AcDbText
  0
TEXT
  5
80
330
29
100
AcDbEntity
  8
HAWA1
 62
     2
100
AcDbText
 10
121.322772
 20
196.639804
 30
0.0
 40
2.33345
  1
16
 50
90.0
 41
1.570672354827868
 72
     5
 11
121.322772
 21
200.669955
 31
0.0
100
AcDbText
  0
TEXT
  5
81
330
29
100
AcDbEntity
  8
HAWA1
 62
     2
100
AcDbText
 10
119.514323
 20
200.669955
 30
0.0
 40
3.5
  1
"
 50
90.0
 41
1.629629206349186
 72
     5
 11
119.514323
 21
203.236621
 31
0.0
100
AcDbText
  0
TEXT
  5
82
330
29
100
AcDbEntity
  8
HAWA1
 62
     2
100
AcDbText
 10
119.139323
 20
194.639804
 30
0.0
 40
1.0
  1
/
 50
90.0
 41
1.818181818181818
 72
     5
 11
119.139323
 21
195.639804
 31
0.0
100
AcDbText
  0
LINE
  5
83
330
29
100
AcDbEntity
  8
HAWA1
 62
     2
 48
0.100754
100
AcDbLine
 10
118.639323
 20
196.639804
 30
0.0
 11
118.639323
 21
200.669955
 31
0.0
  0
LINE
  5
84
330
29
100
AcDbEntity
  8
HAWA1
 62
     2
 48
0.497165
100
AcDbLine
 10
103.436167
 20
205.51163
 30
0.0
 11
123.322772
 21
205.51163
 31
0.0
  0
LINE
  5
85
330
29
100
AcDbEntity
  8
HAWA1
 62
     2
 48
0.272165
100
AcDbLine
 10
112.436167
 20
210.51163
 30
0.0
 11
123.322772
 21
210.51163
 31
0.0
  0
LINE
  5
86
330
29
100
AcDbEntity
  8
HAWA1
 62
     2
 48
0.075
100
AcDbLine
 10
123.383433
 20
209.450969
 30
0.0
 11
121.26211
 21
211.572292
 31
0.0
  0
LINE
  5
87
330
29
100
AcDbEntity
  8
HAWA1
 62
     2
 48
0.075
100
AcDbLine
 10
121.26211
 20
206.572292
 30
0.0
 11
123.383433
 21
204.450969
 31
0.0
  0
LINE
  5
88
330
29
100
AcDbEntity
  8
HAWA1
 62
     2
 48
0.488607
100
AcDbLine
 10
122.322772
 20
190.967342
 30
0.0
 11
122.322772
 21
210.51163
 31
0.0
  0
ENDBLK
  5
89
330
29
100
AcDbEntity
  8
HAWA1
100
AcDbBlockEnd
  0
BLOCK
  5
8A
330
2B
100
AcDbEntity
  8
HAWA1
100
AcDbBlockBegin
  2
*D3
 70
     1
 10
0.0
 20
0.0
 30
0.0
  3
*D3
  1

  0
TEXT
  5
8B
330
2B
100
AcDbEntity
  8
HAWA1
 62
     2
100
AcDbText
 10
136.39477
 20
209.340045
 30
0.0
 40
3.5
  1
35
 50
90.0
 41
1.337379595812719
 72
     5
 11
136.39477
 21
215.384967
 31
0.0
100
AcDbText
  0
TEXT
  5
8C
330
2B
100
AcDbEntity
  8
HAWA1
 62
     2
100
AcDbText
 10
136.39477
 20
217.484966
 30
0.0
 40
3.5
  1
%%p3
 50
90.0
 41
1.643238826767366
 72
     5
 11
136.39477
 21
224.912364
 31
0.0
100
AcDbText
  0
TEXT
  5
8D
330
2B
100
AcDbEntity
  8
HAWA1
 62
     2
100
AcDbText
 10
135.14477
 20
225.912364
 30
0.0
 40
1.0
  1
/
 50
90.0
 41
1.818181818181818
 72
     5
 11
135.14477
 21
226.912364
 31
0.0
100
AcDbText
  0
TEXT
  5
8E
330
2B
100
AcDbEntity
  8
HAWA1
 62
     2
100
AcDbText
 10
136.39477
 20
227.912364
 30
0.0
 40
3.5
  1
1
 50
90.0
 41
2.181595918367311
 72
     5
 11
136.39477
 21
230.584819
 31
0.0
100
AcDbText
  0
TEXT
  5
8F
330
2B
100
AcDbEntity
  8
HAWA1
 62
     2
100
AcDbText
 10
134.294764
 20
232.334827
 30
0.0
 40
2.33345
  1
3
 50
90.0
 41
1.291054821585633
 72
     5
 11
134.294764
 21
234.11655
 31
0.0
100
AcDbText
  0
TEXT
  5
90
330
2B
100
AcDbEntity
  8
HAWA1
 62
     2
100
AcDbText
 10
137.328219
 20
232.334827
 30
0.0
 40
2.33345
  1
8
 50
90.0
 41
1.388286170107078
 72
     5
 11
137.328219
 21
234.11655
 31
0.0
100
AcDbText
  0
TEXT
  5
91
330
2B
100
AcDbEntity
  8
HAWA1
 62
     2
100
AcDbText
 10
135.51977
 20
234.116557
 30
0.0
 40
3.5
  1
"
 50
90.0
 41
1.629629206349223
 72
     5
 11
135.51977
 21
236.683223
 31
0.0
100
AcDbText
  0
LINE
  5
92
330
2B
100
AcDbEntity
  8
HAWA1
 62
     2
 48
0.044543
100
AcDbLine
 10
134.64477
 20
232.334827
 30
0.0
 11
134.64477
 21
234.116557
 31
0.0
  0
LINE
  5
93
330
2B
100
AcDbEntity
  8
HAWA1
 62
     2
100
AcDbLine
 10
103.436167
 20
205.51163
 30
0.0
 11
139.328219
 21
205.51163
 31
0.0
  0
LINE
  5
94
330
2B
100
AcDbEntity
  8
HAWA1
 62
     2
 48
0.075
100
AcDbLine
 10
137.267558
 20
206.572292
 30
0.0
 11
139.38888
 21
204.450969
 31
0.0
  0
LINE
  5
95
330
2B
100
AcDbEntity
  8
HAWA1
 62
     2
 48
0.075
100
AcDbLine
 10
139.38888
 20
239.450969
 30
0.0
 11
137.267558
 21
241.572292
 31
0.0
  0
LINE
  5
96
330
2B
100
AcDbEntity
  8
HAWA1
 62
     2
100
AcDbLine
 10
138.328219
 20
205.51163
 30
0.0
 11
138.328219
 21
240.5116299999999
 31
0.0
  0
ENDBLK
  5
97
330
2B
100
AcDbEntity
  8
HAWA1
100
AcDbBlockEnd
  0
BLOCK
  5
98
330
2D
100
AcDbEntity
  8
HAWA1
100
AcDbBlockBegin
  2
*D4
 70
     1
 10
0.0
 20
0.0
 30
0.0
  3
*D4
  1

  0
TEXT
  5
99
330
2D
100
AcDbEntity
  8
HAWA1
 62
     2
100
AcDbText
 10
107.10052
 20
249.268367
 30
0.0
 40
3.5
  1
4.2
 41
1.349783794361756
 72
     5
 11
115.179255
 21
249.268367
 31
0.0
100
AcDbText
  0
TEXT
  5
9A
330
2D
100
AcDbEntity
  8
HAWA1
 62
     2
100
AcDbText
 10
102.600535
 20
249.268367
 30
0.0
 40
3.5
  1
%%c
 41
1.333333333333338
 72
     5
 11
106.100535
 21
249.268367
 31
0.0
100
AcDbText
  0
TEXT
  5
9B
330
2D
100
AcDbEntity
  8
HAWA1
 62
     2
100
AcDbText
 10
119.303462
 20
251.368373
 30
0.0
 40
2.33345
  1
5
 41
1.291059893857658
 72
     5
 11
121.085192
 21
251.368373
 31
0.0
100
AcDbText
  0
TEXT
  5
9C
330
2D
100
AcDbEntity
  8
HAWA1
 62
     2
100
AcDbText
 10
118.179255
 20
248.334918
 30
0.0
 40
2.33345
  1
32
 41
1.318353709796764
 72
     5
 11
122.209406
 21
248.334918
 31
0.0
100
AcDbText
  0
TEXT
  5
9D
330
2D
100
AcDbEntity
  8
HAWA1
 62
     2
100
AcDbText
 10
122.209406
 20
250.143367
 30
0.0
 40
3.5
  1
"
 41
1.629629206349205
 72
     5
 11
124.776072
 21
250.143367
 31
0.0
100
AcDbText
  0
TEXT
  5
9E
330
2D
100
AcDbEntity
  8
HAWA1
 62
     2
100
AcDbText
 10
116.179255
 20
250.518367
 30
0.0
 40
1.0
  1
/
 41
1.818181818181818
 72
     5
 11
117.179255
 21
250.518367
 31
0.0
100
AcDbText
  0
LINE
  5
9F
330
2D
100
AcDbEntity
  8
HAWA1
 62
     2
 48
0.100754
100
AcDbLine
 10
118.179255
 20
251.018367
 30
0.0
 11
122.209406
 21
251.018367
 31
0.0
  0
LINE
  5
A0
330
2D
100
AcDbEntity
  8
HAWA1
 62
     2
 48
0.195582
100
AcDbLine
 10
96.33616100000001
 20
240.5116299999999
 30
0.0
 11
96.33616100000001
 21
248.334918
 31
0.0
  0
LINE
  5
A1
330
2D
100
AcDbEntity
  8
HAWA1
 62
     2
 48
0.195582
100
AcDbLine
 10
100.536173
 20
240.5116299999999
 30
0.0
 11
100.536173
 21
248.334918
 31
0.0
  0
LINE
  5
A2
330
2D
100
AcDbEntity
  8
HAWA1
 62
     2
 48
0.075
100
AcDbLine
 10
101.596827
 20
248.39558
 30
0.0
 11
99.475504
 21
246.274257
 31
0.0
  0
LINE
  5
A3
330
2D
100
AcDbEntity
  8
HAWA1
 62
     2
 48
0.075
100
AcDbLine
 10
95.27550699999999
 20
246.274257
 30
0.0
 11
97.39683000000001
 21
248.39558
 31
0.0
  0
LINE
  5
A4
330
2D
100
AcDbEntity
  8
HAWA1
 62
     2
100
AcDbLine
 10
91.33616100000001
 20
247.334918
 30
0.0
 11
124.776072
 21
247.334918
 31
0.0
  0
ENDBLK
  5
A5
330
2D
100
AcDbEntity
  8
HAWA1
100
AcDbBlockEnd
  0
BLOCK
  5
A6
330
2F
100
AcDbEntity
  8
HAWA1
100
AcDbBlockBegin
  2
*D5
 70
     1
 10
0.0
 20
0.0
 30
0.0
  3
*D5
  1

  0
TEXT
  5
A7
330
2F
100
AcDbEntity
  8
HAWA1
 62
     2
100
AcDbText
 10
88.40406299999999
 20
264.236919
 30
0.0
 40
3.5
  1
28
 41
1.381696457142857
 72
     5
 11
94.44898499999998
 21
264.236919
 31
0.0
100
AcDbText
  0
TEXT
  5
A8
330
2F
100
AcDbEntity
  8
HAWA1
 62
     2
100
AcDbText
 10
95.448985
 20
265.486919
 30
0.0
 40
1.0
  1
/
 41
1.818181818181818
 72
     5
 11
96.448985
 21
265.486919
 31
0.0
100
AcDbText
  0
TEXT
  5
A9
330
2F
100
AcDbEntity
  8
HAWA1
 62
     2
100
AcDbText
 10
97.44900000000001
 20
264.236919
 30
0.0
 40
3.5
  1
1
 41
2.181595918367357
 72
     5
 11
100.121455
 21
264.236919
 31
0.0
100
AcDbText
  0
TEXT
  5
AA
330
2F
100
AcDbEntity
  8
HAWA1
 62
     2
100
AcDbText
 10
102.995661
 20
266.336925
 30
0.0
 40
2.33345
  1
3
 41
1.291066415350291
 72
     5
 11
104.7774
 21
266.336925
 31
0.0
100
AcDbText
  0
TEXT
  5
AB
330
2F
100
AcDbEntity
  8
HAWA1
 62
     2
100
AcDbText
 10
101.871455
 20
263.303477
 30
0.0
 40
2.33345
  1
32
 41
1.318353709796759
 72
     5
 11
105.901606
 21
263.303477
 31
0.0
100
AcDbText
  0
TEXT
  5
AC
330
2F
100
AcDbEntity
  8
HAWA1
 62
     2
100
AcDbText
 10
105.901591
 20
265.111919
 30
0.0
 40
3.5
  1
"
 41
1.629638730158731
 72
     5
 11
108.468272
 21
265.111919
 31
0.0
100
AcDbText
  0
LINE
  5
AD
330
2F
100
AcDbEntity
  8
HAWA1
 62
     2
 48
0.100754
100
AcDbLine
 10
101.871455
 20
265.986919
 30
0.0
 11
105.901606
 21
265.986919
 31
0.0
  0
LINE
  5
AE
330
2F
100
AcDbEntity
  8
HAWA1
 62
     2
100
AcDbLine
 10
84.43616699999999
 20
240.5116299999999
 30
0.0
 11
84.43616699999999
 21
263.303477
 31
0.0
  0
LINE
  5
AF
330
2F
100
AcDbEntity
  8
HAWA1
 62
     2
 48
0.066723
100
AcDbLine
 10
112.436167
 20
240.5116299999999
 30
0.0
 11
112.436167
 21
243.180537
 31
0.0
  0
LINE
  5
B0
330
2F
100
AcDbEntity
  8
HAWA1
 62
     2
 48
0.184104
100
AcDbLine
 10
112.436167
 20
255.939326
 30
0.0
 11
112.436167
 21
263.303477
 31
0.0
  0
LINE
  5
B1
330
2F
100
AcDbEntity
  8
HAWA1
 62
     2
 48
0.075
100
AcDbLine
 10
111.375514
 20
261.242809
 30
0.0
 11
113.496821
 21
263.364131
 31
0.0
  0
LINE
  5
B2
330
2F
100
AcDbEntity
  8
HAWA1
 62
     2
 48
0.075
100
AcDbLine
 10
85.496821
 20
263.364131
 30
0.0
 11
83.375514
 21
261.242809
 31
0.0
  0
LINE
  5
B3
330
2F
100
AcDbEntity
  8
HAWA1
 62
     2
100
AcDbLine
 10
84.43616699999999
 20
262.303477
 30
0.0
 11
112.436167
 21
262.303477
 31
0.0
  0
ENDBLK
  5
B4
330
2F
100
AcDbEntity
  8
HAWA1
100
AcDbBlockEnd
  0
BLOCK
  5
B5
330
31
100
AcDbEntity
  8
HAWA1
100
AcDbBlockBegin
  2
*D6
 70
     1
 10
0.0
 20
0.0
 30
0.0
  3
*D6
  1

  0
TEXT
  5
B6
330
31
100
AcDbEntity
  8
HAWA1
 62
     2
100
AcDbText
 10
107.63209
 20
110.595722
 30
0.0
 40
3.5
  1
5
 41
1.291056813177018
 72
     5
 11
110.304545
 21
110.595722
 31
0.0
100
AcDbText
  0
TEXT
  5
B7
330
31
100
AcDbEntity
  8
HAWA1
 62
     2
100
AcDbText
 10
114.428751
 20
112.695723
 30
0.0
 40
2.33345
  1
3
 41
1.291066415350281
 72
     5
 11
116.21049
 21
112.695723
 31
0.0
100
AcDbText
  0
TEXT
  5
B8
330
31
100
AcDbEntity
  8
HAWA1
 62
     2
100
AcDbText
 10
113.304545
 20
109.662273
 30
0.0
 40
2.33345
  1
16
 41
1.570672354827862
 72
     5
 11
117.334696
 21
109.662273
 31
0.0
100
AcDbText
  0
TEXT
  5
B9
330
31
100
AcDbEntity
  8
HAWA1
 62
     2
100
AcDbText
 10
117.334696
 20
111.470722
 30
0.0
 40
3.5
  1
"
 41
1.629638730158731
 72
     5
 11
119.901377
 21
111.470722
 31
0.0
100
AcDbText
  0
TEXT
  5
BA
330
31
100
AcDbEntity
  8
HAWA1
 62
     2
100
AcDbText
 10
111.304545
 20
111.845722
 30
0.0
 40
1.0
  1
/
 41
1.818181818181818
 72
     5
 11
112.304545
 21
111.845722
 31
0.0
100
AcDbText
  0
LINE
  5
BB
330
31
100
AcDbEntity
  8
HAWA1
 62
     2
 48
0.100754
100
AcDbLine
 10
113.304545
 20
112.345722
 30
0.0
 11
117.334696
 21
112.345722
 31
0.0
  0
LINE
  5
BC
330
31
100
AcDbEntity
  8
HAWA1
 62
     2
 48
0.075
100
AcDbLine
 10
99.496821
 20
109.722933
 30
0.0
 11
97.375514
 21
107.601612
 31
0.0
  0
LINE
  5
BD
330
31
100
AcDbEntity
  8
HAWA1
 62
     2
 48
0.075
100
AcDbLine
 10
102.375514
 20
107.601612
 30
0.0
 11
104.496821
 21
109.722933
 31
0.0
  0
LINE
  5
BE
330
31
100
AcDbEntity
  8
HAWA1
 62
     2
100
AcDbLine
 10
98.436167
 20
108.662273
 30
0.0
 11
119.901362
 21
108.662273
 31
0.0
  0
ENDBLK
  5
BF
330
31
100
AcDbEntity
  8
HAWA1
100
AcDbBlockEnd
  0
BLOCK
  5
C0
330
33
100
AcDbEntity
  8
HAWA1
100
AcDbBlockBegin
  2
*D7
 70
     1
 10
0.0
 20
0.0
 30
0.0
  3
*D7
  1

  0
TEXT
  5
C1
330
33
100
AcDbEntity
  8
HAWA1
 62
     2
100
AcDbText
 10
81.04198700000001
 20
110.595722
 30
0.0
 40
3.5
  1
3
 41
1.291056813177018
 72
     5
 11
83.714442
 21
110.595722
 31
0.0
100
AcDbText
  0
TEXT
  5
C2
330
33
100
AcDbEntity
  8
HAWA1
 62
     2
100
AcDbText
 10
86.71444200000001
 20
112.695723
 30
0.0
 40
2.33345
  1
1
 41
2.181610919454032
 72
     5
 11
88.49618000000001
 21
112.695723
 31
0.0
100
AcDbText
  0
TEXT
  5
C3
330
33
100
AcDbEntity
  8
HAWA1
 62
     2
100
AcDbText
 10
86.71444200000001
 20
109.662273
 30
0.0
 40
2.33345
  1
8
 41
1.388297857834384
 72
     5
 11
88.49618000000001
 21
109.662273
 31
0.0
100
AcDbText
  0
TEXT
  5
C4
330
33
100
AcDbEntity
  8
HAWA1
 62
     2
100
AcDbText
 10
88.49616500000001
 20
111.470722
 30
0.0
 40
3.5
  1
"
 41
1.629638730158722
 72
     5
 11
91.062846
 21
111.470722
 31
0.0
100
AcDbText
  0
TEXT
  5
C5
330
33
100
AcDbEntity
  8
HAWA1
 62
     2
100
AcDbText
 10
84.714442
 20
111.845722
 30
0.0
 40
1.0
  1
/
 41
1.818181818181818
 72
     5
 11
85.714442
 21
111.845722
 31
0.0
100
AcDbText
  0
LINE
  5
C6
330
33
100
AcDbEntity
  8
HAWA1
 62
     2
 48
0.044543
100
AcDbLine
 10
86.71444200000001
 20
112.345722
 30
0.0
 11
88.49616500000001
 21
112.345722
 31
0.0
  0
LINE
  5
C7
330
33
100
AcDbEntity
  8
HAWA1
 62
     2
 48
0.4430290000000001
100
AcDbLine
 10
95.43616699999999
 20
125.383414
 30
0.0
 11
95.43616699999999
 21
107.662273
 31
0.0
  0
LINE
  5
C8
330
33
100
AcDbEntity
  8
HAWA1
 62
     2
 48
0.075
100
AcDbLine
 10
99.496821
 20
109.722933
 30
0.0
 11
97.375514
 21
107.601612
 31
0.0
  0
LINE
  5
C9
330
33
100
AcDbEntity
  8
HAWA1
 62
     2
 48
0.075
100
AcDbLine
 10
94.375514
 20
107.601612
 30
0.0
 11
96.49682099999999
 21
109.722933
 31
0.0
  0
LINE
  5
CA
330
33
100
AcDbEntity
  8
HAWA1
 62
     2
100
AcDbLine
 10
81.04198700000001
 20
108.662273
 30
0.0
 11
103.436167
 21
108.662273
 31
0.0
  0
ENDBLK
  5
CB
330
33
100
AcDbEntity
  8
HAWA1
100
AcDbBlockEnd
  0
BLOCK
  5
CC
330
35
100
AcDbEntity
  8
HAWA1
100
AcDbBlockBegin
  2
*D8
 70
     1
 10
0.0
 20
0.0
 30
0.0
  3
*D8
  1

  0
TEXT
  5
CD
330
35
100
AcDbEntity
  8
HAWA1
 62
     2
100
AcDbText
 10
105.975276
 20
97.444856
 30
0.0
 40
3.5
  1
8
 41
1.388287792207792
 72
     5
 11
108.64773
 21
97.444856
 31
0.0
100
AcDbText
  0
TEXT
  5
CE
330
35
100
AcDbEntity
  8
HAWA1
 62
     2
100
AcDbText
 10
112.771937
 20
99.54485400000001
 30
0.0
 40
2.33345
  1
5
 41
1.291065690739992
 72
     5
 11
114.553675
 21
99.54485400000001
 31
0.0
100
AcDbText
  0
TEXT
  5
CF
330
35
100
AcDbEntity
  8
HAWA1
 62
     2
100
AcDbText
 10
111.64773
 20
96.51140500000002
 30
0.0
 40
2.33345
  1
16
 41
1.57067274455826
 72
     5
 11
115.677882
 21
96.51140500000002
 31
0.0
100
AcDbText
  0
TEXT
  5
D0
330
35
100
AcDbEntity
  8
HAWA1
 62
     2
100
AcDbText
 10
115.677882
 20
98.31985600000001
 30
0.0
 40
3.5
  1
"
 41
1.629638730158713
 72
     5
 11
118.244563
 21
98.31985600000001
 31
0.0
100
AcDbText
  0
TEXT
  5
D1
330
35
100
AcDbEntity
  8
HAWA1
 62
     2
100
AcDbText
 10
109.64773
 20
98.694856
 30
0.0
 40
1.0
  1
/
 41
1.818181818181818
 72
     5
 11
110.64773
 21
98.694856
 31
0.0
100
AcDbText
  0
LINE
  5
D2
330
35
100
AcDbEntity
  8
HAWA1
 62
     2
 48
0.100754
100
AcDbLine
 10
111.64773
 20
99.19485600000001
 30
0.0
 11
115.677882
 21
99.19485600000001
 31
0.0
  0
LINE
  5
D3
330
35
100
AcDbEntity
  8
HAWA1
 62
     2
 48
0.075
100
AcDbLine
 10
104.496821
 20
96.572065
 30
0.0
 11
102.375514
 21
94.45074599999999
 31
0.0
  0
LINE
  5
D4
330
35
100
AcDbEntity
  8
HAWA1
 62
     2
 48
0.075
100
AcDbLine
 10
94.375514
 20
94.45074599999999
 30
0.0
 11
96.49682099999999
 21
96.572065
 31
0.0
  0
LINE
  5
D5
330
35
100
AcDbEntity
  8
HAWA1
 62
     2
100
AcDbLine
 10
95.43616699999999
 20
95.511405
 30
0.0
 11
118.244547
 21
95.511405
 31
0.0
  0
ENDBLK
  5
D6
330
35
100
AcDbEntity
  8
HAWA1
100
AcDbBlockEnd
  0
BLOCK
  5
D7
330
37
100
AcDbEntity
  8
HAWA1
100
AcDbBlockBegin
  2
*D9
 70
     1
 10
0.0
 20
0.0
 30
0.0
  3
*D9
  1

  0
TEXT
  5
D8
330
37
100
AcDbEntity
  8
HAWA1
 62
     2
100
AcDbText
 10
120.664942
 20
97.444856
 30
0.0
 40
3.5
  1
8
 41
1.388288311688311
 72
     5
 11
123.337397
 21
97.444856
 31
0.0
100
AcDbText
  0
TEXT
  5
D9
330
37
100
AcDbEntity
  8
HAWA1
 62
     2
100
AcDbText
 10
127.461611
 20
99.54485400000001
 30
0.0
 40
2.33345
  1
5
 41
1.291054821585633
 72
     5
 11
129.243334
 21
99.54485400000001
 31
0.0
100
AcDbText
  0
TEXT
  5
DA
330
37
100
AcDbEntity
  8
HAWA1
 62
     2
100
AcDbText
 10
126.337397
 20
96.51140500000002
 30
0.0
 40
2.33345
  1
16
 41
1.570672354827863
 72
     5
 11
130.367548
 21
96.51140500000002
 31
0.0
100
AcDbText
  0
TEXT
  5
DB
330
37
100
AcDbEntity
  8
HAWA1
 62
     2
100
AcDbText
 10
130.367548
 20
98.31985600000001
 30
0.0
 40
3.5
  1
"
 41
1.629629206349205
 72
     5
 11
132.934214
 21
98.31985600000001
 31
0.0
100
AcDbText
  0
TEXT
  5
DC
330
37
100
AcDbEntity
  8
HAWA1
 62
     2
100
AcDbText
 10
118.029322
 20
97.444856
 30
0.0
 40
3.5
  1
(
 41
1.869280000000003
 72
     5
 11
119.664942
 21
97.444856
 31
0.0
100
AcDbText
  0
TEXT
  5
DD
330
37
100
AcDbEntity
  8
HAWA1
 62
     2
100
AcDbText
 10
124.337397
 20
98.694856
 30
0.0
 40
1.0
  1
/
 41
1.818181818181818
 72
     5
 11
125.337397
 21
98.694856
 31
0.0
100
AcDbText
  0
LINE
  5
DE
330
37
100
AcDbEntity
  8
HAWA1
 62
     2
 48
0.100754
100
AcDbLine
 10
126.337397
 20
99.19485600000001
 30
0.0
 11
130.367548
 21
99.19485600000001
 31
0.0
  0
LINE
  5
DF
330
37
100
AcDbEntity
  8
HAWA1
 62
     2
 48
0.075
100
AcDbLine
 10
94.375514
 20
94.45074599999999
 30
0.0
 11
96.49682099999999
 21
96.572065
 31
0.0
  0
LINE
  5
E0
330
37
100
AcDbEntity
  8
HAWA1
 62
     2
 48
0.075
100
AcDbLine
 10
104.496821
 20
96.572065
 30
0.0
 11
102.375514
 21
94.45074599999999
 31
0.0
  0
LINE
  5
E1
330
37
100
AcDbEntity
  8
HAWA1
 62
     2
100
AcDbLine
 10
95.43616699999999
 20
95.511405
 30
0.0
 11
132.934222
 21
95.511405
 31
0.0
  0
ENDBLK
  5
E2
330
37
100
AcDbEntity
  8
HAWA1
100
AcDbBlockEnd
  0
BLOCK
  5
E3
330
39
100
AcDbEntity
  8
HAWA1
100
AcDbBlockBegin
  2
*D10
 70
     1
 10
0.0
 20
0.0
 30
0.0
  3
*D10
  1

  0
TEXT
  5
E4
330
39
100
AcDbEntity
  8
HAWA1
 62
     2
100
AcDbText
 10
136.865191
 20
97.444856
 30
0.0
 40
3.5
  1
12.7
 41
1.595984250871084
 72
     5
 11
148.316378
 21
97.444856
 31
0.0
100
AcDbText
  0
TEXT
  5
E5
330
39
100
AcDbEntity
  8
HAWA1
 62
     2
100
AcDbText
 10
151.316386
 20
99.54485400000001
 30
0.0
 40
2.33345
  1
1
 41
2.181592553025409
 72
     5
 11
153.098109
 21
99.54485400000001
 31
0.0
100
AcDbText
  0
TEXT
  5
E6
330
39
100
AcDbEntity
  8
HAWA1
 62
     2
100
AcDbText
 10
151.316386
 20
96.51140500000002
 30
0.0
 40
2.33345
  1
2
 41
1.251612261391751
 72
     5
 11
153.098109
 21
96.51140500000002
 31
0.0
100
AcDbText
  0
TEXT
  5
E7
330
39
100
AcDbEntity
  8
HAWA1
 62
     2
100
AcDbText
 10
153.098109
 20
98.31985600000001
 30
0.0
 40
3.5
  1
"
 41
1.629628571428553
 72
     5
 11
155.664774
 21
98.31985600000001
 31
0.0
100
AcDbText
  0
TEXT
  5
E8
330
39
100
AcDbEntity
  8
HAWA1
 62
     2
100
AcDbText
 10
134.3464149999999
 20
97.444856
 30
0.0
 40
3.5
  1
-
 41
0.7889787012987068
 72
     5
 11
135.865199
 21
97.444856
 31
0.0
100
AcDbText
  0
TEXT
  5
E9
330
39
100
AcDbEntity
  8
HAWA1
 62
     2
100
AcDbText
 10
149.316378
 20
98.694856
 30
0.0
 40
1.0
  1
/
 41
1.818181818181818
 72
     5
 11
150.316378
 21
98.694856
 31
0.0
100
AcDbText
  0
TEXT
  5
EA
330
39
100
AcDbEntity
  8
HAWA1
 62
     2
100
AcDbText
 10
156.664774
 20
97.444856
 30
0.0
 40
3.5
  1
)
 41
1.87221122127084
 72
     5
 11
158.300379
 21
97.444856
 31
0.0
100
AcDbText
  0
LINE
  5
EB
330
39
100
AcDbEntity
  8
HAWA1
 62
     2
 48
0.044543
100
AcDbLine
 10
151.316378
 20
99.19485600000001
 30
0.0
 11
153.098109
 21
99.19485600000001
 31
0.0
  0
LINE
  5
EC
330
39
100
AcDbEntity
  8
HAWA1
 62
     2
 48
0.075
100
AcDbLine
 10
104.496821
 20
96.572065
 30
0.0
 11
102.375514
 21
94.45074599999999
 31
0.0
  0
LINE
  5
ED
330
39
100
AcDbEntity
  8
HAWA1
 62
     2
 48
0.075
100
AcDbLine
 10
94.375514
 20
94.45074599999999
 30
0.0
 11
96.49682099999999
 21
96.572065
 31
0.0
  0
LINE
  5
EE
330
39
100
AcDbEntity
  8
HAWA1
 62
     2
100
AcDbLine
 10
95.43616699999999
 20
95.511405
 30
0.0
 11
158.300379
 21
95.511405
 31
0.0
  0
ENDBLK
  5
EF
330
39
100
AcDbEntity
  8
HAWA1
100
AcDbBlockEnd
  0
BLOCK
  5
F0
330
60
100
AcDbEntity
  8
HAWA1
100
AcDbBlockBegin
  2
BLOCK0
 70
     0
 10
0.0
 20
0.0
 30
0.0
  3
BLOCK0
  1

  0
LINE
  5
F1
330
60
100
AcDbEntity
  8
Hawa2
 62
     9
 48
0.042575
100
AcDbLine
 10
-136.893616
 20
87.966347
 30
0.0
 11
-135.689423
 21
89.17053199999999
 31
0.0
  0
LINE
  5
F2
330
60
100
AcDbEntity
  8
Hawa2
 62
     9
 48
0.192574
100
AcDbLine
 10
-141.136246
 20
87.966347
 30
0.0
 11
-135.689423
 21
93.41317700000001
 31
0.0
  0
LINE
  5
F3
330
60
100
AcDbEntity
  8
Hawa2
 62
     9
 48
0.046334
100
AcDbLine
 10
-144.689423
 20
88.65581500000001
 30
0.0
 11
-143.378891
 21
89.96634699999999
 31
0.0
  0
LINE
  5
F4
330
60
100
AcDbEntity
  8
Hawa2
 62
     9
 48
0.09541
100
AcDbLine
 10
-138.388016
 20
94.957214
 30
0.0
 11
-135.689423
 21
97.65581500000001
 31
0.0
  0
LINE
  5
F5
330
60
100
AcDbEntity
  8
Hawa2
 62
     9
 48
0.070711
100
AcDbLine
 10
-137.689423
 20
99.898453
 30
0.0
 11
-135.689423
 21
101.898453
 31
0.0
  0
LINE
  5
F6
330
60
100
AcDbEntity
  8
Hawa2
 62
     9
 48
0.070711
100
AcDbLine
 10
-137.689423
 20
104.141098
 30
0.0
 11
-135.689423
 21
106.141098
 31
0.0
  0
LINE
  5
F7
330
60
100
AcDbEntity
  8
Hawa2
 62
     9
 48
0.070711
100
AcDbLine
 10
-137.689423
 20
108.383736
 30
0.0
 11
-135.689423
 21
110.383736
 31
0.0
  0
LINE
  5
F8
330
60
100
AcDbEntity
  8
Hawa2
 62
     9
 48
0.070976
100
AcDbLine
 10
-137.696915
 20
112.618881
 30
0.0
 11
-135.689423
 21
114.626381
 31
0.0
  0
LINE
  5
F9
330
60
100
AcDbEntity
  8
Hawa2
 62
     9
 48
0.09897
100
AcDbLine
 10
-139.3913879999999
 20
115.167053
 30
0.0
 11
-136.592087
 21
117.966347
 31
0.0
  0
LINE
  5
FA
330
60
100
AcDbEntity
  8
Hawa2
 62
     9
 48
0.088388
100
AcDbLine
 10
-143.334732
 20
115.466347
 30
0.0
 11
-140.834732
 21
117.966347
 31
0.0
  0
LINE
  5
FB
330
60
100
AcDbEntity
  8
Hawa2
 62
     9
 48
0.088388
100
AcDbLine
 10
-147.577377
 20
115.466347
 30
0.0
 11
-145.077377
 21
117.966347
 31
0.0
  0
ENDBLK
  5
FC
330
60
100
AcDbEntity
  8
HAWA1
100
AcDbBlockEnd
  0
BLOCK
  5
FD
330
61
100
AcDbEntity
  8
HAWA1
100
AcDbBlockBegin
  2
BLOCK1
 70
     0
 10
0.0
 20
0.0
 30
0.0
  3
BLOCK1
  1

  0
LINE
  5
FE
330
61
100
AcDbEntity
  8
Hawa2
 62
     9
 48
0.070711
100
AcDbLine
 10
-158.106812
 20
87.966347
 30
0.0
 11
-156.106812
 21
89.96634699999999
 31
0.0
  0
LINE
  5
FF
330
61
100
AcDbEntity
  8
Hawa2
 62
     9
 48
0.138441
100
AcDbLine
 10
-162.349457
 20
87.966347
 30
0.0
 11
-158.433762
 21
91.88203399999999
 31
0.0
  0
LINE
  5
100
330
61
100
AcDbEntity
  8
Hawa2
 62
     9
 48
0.105792
100
AcDbLine
 10
-163.689423
 20
90.86901899999999
 30
0.0
 11
-160.697174
 21
93.861275
 31
0.0
  0
LINE
  5
101
330
61
100
AcDbEntity
  8
Hawa2
 62
     9
 48
0.074094
100
AcDbLine
 10
-163.689423
 20
95.11165600000001
 30
0.0
 11
-161.593735
 21
97.207336
 31
0.0
  0
LINE
  5
102
330
61
100
AcDbEntity
  8
Hawa2
 62
     9
 48
0.070711
100
AcDbLine
 10
-163.689423
 20
99.35430100000001
 30
0.0
 11
-161.689423
 21
101.354301
 31
0.0
  0
LINE
  5
103
330
61
100
AcDbEntity
  8
Hawa2
 62
     9
 48
0.070711
100
AcDbLine
 10
-163.689423
 20
103.596939
 30
0.0
 11
-161.689423
 21
105.596939
 31
0.0
  0
LINE
  5
104
330
61
100
AcDbEntity
  8
Hawa2
 62
     9
 48
0.001082
100
AcDbLine
 10
-151.820023
 20
115.466347
 30
0.0
 11
-151.789429
 21
115.496941
 31
0.0
  0
LINE
  5
105
330
61
100
AcDbEntity
  8
Hawa2
 62
     9
 48
0.070711
100
AcDbLine
 10
-163.689423
 20
107.839584
 30
0.0
 11
-161.689423
 21
109.839584
 31
0.0
  0
LINE
  5
106
330
61
100
AcDbEntity
  8
Hawa2
 62
     9
 48
0.088388
100
AcDbLine
 10
-156.062653
 20
115.466347
 30
0.0
 11
-153.562653
 21
117.966347
 31
0.0
  0
LINE
  5
107
330
61
100
AcDbEntity
  8
Hawa2
 62
     9
 48
0.208035
100
AcDbLine
 10
-163.689423
 20
112.082222
 30
0.0
 11
-157.805298
 21
117.966347
 31
0.0
  0
LINE
  5
108
330
61
100
AcDbEntity
  8
Hawa2
 62
     9
 48
0.058035
100
AcDbLine
 10
-163.689423
 20
116.32486
 30
0.0
 11
-162.047943
 21
117.966347
 31
0.0
  0
ENDBLK
  5
109
330
61
100
AcDbEntity
  8
HAWA1
100
AcDbBlockEnd
  0
BLOCK
  5
10A
330
62
100
AcDbEntity
  8
HAWA1
100
AcDbBlockBegin
  2
BLOCK2
 70
     0
 10
0.0
 20
0.0
 30
0.0
  3
BLOCK2
  1

  0
LINE
  5
10B
330
62
100
AcDbEntity
  8
Hawa4
 62
     4
 48
0.035
100
AcDbLine
 10
-160.189423
 20
91.966347
 30
0.0
 11
-158.789429
 21
91.966347
 31
0.0
  0
ARC
  5
10C
330
62
100
AcDbEntity
  8
Hawa4
 62
     4
100
AcDbCircle
 10
-158.789429
 20
91.16635100000001
 30
0.0
 40
0.8
100
AcDbArc
 50
0.00001
 51
89.99999200000001
  0
LINE
  5
10D
330
62
100
AcDbEntity
  8
Hawa4
 62
     4
 48
0.03
100
AcDbLine
 10
-157.989426
 20
89.96634699999999
 30
0.0
 11
-157.989426
 21
91.16635100000001
 31
0.0
  0
LINE
  5
10E
330
62
100
AcDbEntity
  8
Hawa4
 62
     4
 48
0.0825
100
AcDbLine
 10
-157.989426
 20
89.96634699999999
 30
0.0
 11
-154.689423
 21
89.96634699999999
 31
0.0
  0
LINE
  5
10F
330
62
100
AcDbEntity
  8
Hawa4
 62
     4
 48
0.05
100
AcDbLine
 10
-154.689423
 20
87.966347
 30
0.0
 11
-154.689423
 21
89.96634699999999
 31
0.0
  0
LINE
  5
110
330
62
100
AcDbEntity
  8
Hawa4
 62
     4
 48
0.225
100
AcDbLine
 10
-154.689423
 20
87.966347
 30
0.0
 11
-163.689423
 21
87.966347
 31
0.0
  0
LINE
  5
111
330
62
100
AcDbEntity
  8
Hawa4
 62
     4
100
AcDbLine
 10
-163.689423
 20
87.966347
 30
0.0
 11
-163.689423
 21
117.966347
 31
0.0
  0
LINE
  5
112
330
62
100
AcDbEntity
  8
Hawa4
 62
     4
 48
0.35
100
AcDbLine
 10
-149.689423
 20
117.966347
 30
0.0
 11
-163.689423
 21
117.966347
 31
0.0
  0
LINE
  5
113
330
62
100
AcDbEntity
  8
Hawa4
 62
     4
 48
0.35
100
AcDbLine
 10
-135.689423
 20
117.966347
 30
0.0
 11
-149.689423
 21
117.966347
 31
0.0
  0
LINE
  5
114
330
62
100
AcDbEntity
  8
Hawa4
 62
     4
100
AcDbLine
 10
-135.689423
 20
87.966347
 30
0.0
 11
-135.689423
 21
117.966347
 31
0.0
  0
LINE
  5
115
330
62
100
AcDbEntity
  8
Hawa4
 62
     4
 48
0.225
100
AcDbLine
 10
-135.689423
 20
87.966347
 30
0.0
 11
-144.689423
 21
87.966347
 31
0.0
  0
LINE
  5
116
330
62
100
AcDbEntity
  8
Hawa4
 62
     4
 48
0.05
100
AcDbLine
 10
-144.689423
 20
87.966347
 30
0.0
 11
-144.689423
 21
89.96634699999999
 31
0.0
  0
LINE
  5
117
330
62
100
AcDbEntity
  8
Hawa4
 62
     4
 48
0.0825
100
AcDbLine
 10
-144.689423
 20
89.96634699999999
 30
0.0
 11
-141.38942
 21
89.96634699999999
 31
0.0
  0
LINE
  5
118
330
62
100
AcDbEntity
  8
Hawa4
 62
     4
 48
0.03
100
AcDbLine
 10
-141.38942
 20
89.96634699999999
 30
0.0
 11
-141.38942
 21
91.16635100000001
 31
0.0
  0
ARC
  5
119
330
62
100
AcDbEntity
  8
Hawa4
 62
     4
100
AcDbCircle
 10
-140.589417
 20
91.16635100000001
 30
0.0
 40
0.8
100
AcDbArc
 50
90.00000300000001
 51
180.000005
  0
LINE
  5
11A
330
62
100
AcDbEntity
  8
Hawa4
 62
     4
 48
0.035
100
AcDbLine
 10
-140.589417
 20
91.966347
 30
0.0
 11
-139.189423
 21
91.966347
 31
0.0
  0
LINE
  5
11B
330
62
100
AcDbEntity
  8
Hawa4
 62
     4
 48
0.144889
100
AcDbLine
 10
-139.189423
 20
91.966347
 30
0.0
 11
-137.689423
 21
97.56442300000001
 31
0.0
  0
LINE
  5
11C
330
62
100
AcDbEntity
  8
Hawa4
 62
     4
 48
0.372548
100
AcDbLine
 10
-137.689423
 20
97.56442300000001
 30
0.0
 11
-137.689423
 21
112.466347
 31
0.0
  0
ARC
  5
11D
330
62
100
AcDbEntity
  8
Hawa4
 62
     4
100
AcDbCircle
 10
-140.689423
 20
112.466347
 30
0.0
 40
3.0
100
AcDbArc
 50
0.0
 51
90.00000300000001
  0
LINE
  5
11E
330
62
100
AcDbEntity
  8
Hawa4
 62
     4
 48
0.2175
100
AcDbLine
 10
-149.38942
 20
115.466347
 30
0.0
 11
-140.689423
 21
115.466347
 31
0.0
  0
LINE
  5
11F
330
62
100
AcDbEntity
  8
Hawa4
 62
     4
 48
0.010607
100
AcDbLine
 10
-149.38942
 20
115.466347
 30
0.0
 11
-149.689423
 21
115.76635
 31
0.0
  0
LINE
  5
120
330
62
100
AcDbEntity
  8
Hawa4
 62
     4
 48
0.010607
100
AcDbLine
 10
-149.989426
 20
115.466347
 30
0.0
 11
-149.689423
 21
115.76635
 31
0.0
  0
LINE
  5
121
330
62
100
AcDbEntity
  8
Hawa4
 62
     4
 48
0.2175
100
AcDbLine
 10
-158.689423
 20
115.466347
 30
0.0
 11
-149.989426
 21
115.466347
 31
0.0
  0
ARC
  5
122
330
62
100
AcDbEntity
  8
Hawa4
 62
     4
100
AcDbCircle
 10
-158.689423
 20
112.466347
 30
0.0
 40
3.0
100
AcDbArc
 50
90.00000300000001
 51
180.000005
  0
LINE
  5
123
330
62
100
AcDbEntity
  8
Hawa4
 62
     4
 48
0.372548
100
AcDbLine
 10
-161.689423
 20
97.56442300000001
 30
0.0
 11
-161.689423
 21
112.466347
 31
0.0
  0
LINE
  5
124
330
62
100
AcDbEntity
  8
Hawa4
 62
     4
 48
0.144889
100
AcDbLine
 10
-160.189423
 20
91.966347
 30
0.0
 11
-161.689423
 21
97.56442300000001
 31
0.0
  0
LINE
  5
125
330
62
100
AcDbEntity
  8
Hawa4
  6
DASHED
 62
     4
 48
0.0625
100
AcDbLine
 10
-151.789429
 20
115.466347
 30
0.0
 11
-151.789429
 21
117.966347
 31
0.0
  0
LINE
  5
126
330
62
100
AcDbEntity
  8
Hawa4
  6
DASHED
 62
     4
 48
0.0625
100
AcDbLine
 10
-147.589417
 20
115.466347
 30
0.0
 11
-147.589417
 21
117.966347
 31
0.0
  0
LINE
  5
12A
330
62
100
AcDbEntity
  8
Hawa4
  6
DASHED
 62
     4
 48
0.0625
100
AcDbLine
 10
-147.589417
 20
115.466347
 30
0.0
 11
-147.589417
 21
117.966347
 31
0.0
  0
LINE
  5
12B
330
62
100
AcDbEntity
  8
Hawa5
 62
     1
100
AcDbLine
 10
-189.689423
 20
117.966347
 30
0.0
 11
-109.689423
 21
117.966347
 31
0.0
  0
LINE
  5
12C
330
62
100
AcDbEntity
  8
Hawa5
 62
     1
 48
0.088765
100
AcDbLine
 10
-148.538803
 20
112.566345
 30
0.0
 11
-152.089417
 21
112.566345
 31
0.0
  0
LINE
  5
12D
330
62
100
AcDbEntity
  8
Hawa5
 62
     1
 48
0.031234
100
AcDbLine
 10
-147.289429
 20
112.566345
 30
0.0
 11
-148.538803
 21
112.566345
 31
0.0
  0
LINE
  5
12E
330
62
100
AcDbEntity
  8
Hawa5
  6
DASHED
 62
     1
 48
0.050756
100
AcDbLine
 10
-151.559189
 20
114.066345
 30
0.0
 11
-153.589417
 21
114.066345
 31
0.0
  0
LINE
  5
12F
330
62
100
AcDbEntity
  8
Hawa5
 62
     1
 48
0.144244
100
AcDbLine
 10
-147.819656
 20
114.066345
 30
0.0
 11
-153.589417
 21
114.066345
 31
0.0
  0
LINE
  5
130
330
62
100
AcDbEntity
  8
Hawa5
 62
     1
 48
0.050756
100
AcDbLine
 10
-145.789429
 20
114.066345
 30
0.0
 11
-147.819656
 21
114.066345
 31
0.0
  0
LINE
  5
131
330
62
100
AcDbEntity
  8
Hawa5
  6
DASHED
 62
     1
 48
0.144244
100
AcDbLine
 10
-145.789429
 20
114.066345
 30
0.0
 11
-151.559189
 21
114.066345
 31
0.0
  0
LINE
  5
132
330
62
100
AcDbEntity
  8
Hawa5
  6
DASHED
 62
     1
 48
0.089998
100
AcDbLine
 10
-149.989502
 20
115.466347
 30
0.0
 11
-153.589417
 21
115.466347
 31
0.0
  0
LINE
  5
133
330
62
100
AcDbEntity
  8
Hawa5
 62
     1
 48
0.015004
100
AcDbLine
 10
-149.389359
 20
115.466347
 30
0.0
 11
-149.989502
 21
115.466347
 31
0.0
  0
LINE
  5
134
330
62
100
AcDbEntity
  8
Hawa5
  6
DASHED
 62
     1
 48
0.039243
100
AcDbLine
 10
-147.819656
 20
115.466347
 30
0.0
 11
-149.389359
 21
115.466347
 31
0.0
  0
LINE
  5
135
330
62
100
AcDbEntity
  8
Hawa5
  6
DASHED
 62
     1
 48
0.050756
100
AcDbLine
 10
-145.789429
 20
115.466347
 30
0.0
 11
-147.819656
 21
115.466347
 31
0.0
  0
LINE
  5
136
330
62
100
AcDbEntity
  8
Hawa5
  6
DASHED
 62
     1
 48
0.046232
100
AcDbLine
 10
-148.439423
 20
116.216347
 30
0.0
 11
-150.288712
 21
116.216347
 31
0.0
  0
LINE
  5
137
330
62
100
AcDbEntity
  8
Hawa5
  6
DASHED
 62
     1
 48
0.046232
100
AcDbLine
 10
-149.090134
 20
116.216347
 30
0.0
 11
-150.939423
 21
116.216347
 31
0.0
  0
ARC
  5
138
330
62
100
AcDbEntity
  8
Hawa5
  6
DASHED
 62
     1
100
AcDbCircle
 10
-154.1775669999999
 20
136.000061
 30
0.0
 40
19.642349
100
AcDbArc
 50
283.208184
 51
285.011107
  0
ARC
  5
139
330
62
100
AcDbEntity
  8
Hawa5
  6
DASHED
 62
     1
100
AcDbCircle
 10
-158.163559
 20
173.762909
 30
0.0
 40
57.820766
100
AcDbArc
 50
278.427529
 51
279.252192
  0
ARC
  5
13A
330
62
100
AcDbEntity
  8
Hawa5
  6
DASHED
 62
     1
100
AcDbCircle
 10
-150.836258
 20
129.023132
 30
0.0
 40
12.484691
100
AcDbArc
 50
279.074628
 51
282.077343
  0
ARC
  5
13B
330
62
100
AcDbEntity
  8
Hawa5
  6
DASHED
 62
     1
100
AcDbCircle
 10
-148.685104
 20
119.194756
 30
0.0
 40
2.423258999999999
100
AcDbArc
 50
280.962977
 51
291.158646
  0
LWPOLYLINE
  5
13C
330
62
100
AcDbEntity
  8
Hawa5
  6
DASHED
 62
     1
100
AcDbPolyline
 90
       17
 70
     0
 43
0.0
 10
-147.810669
 20
116.935516
 10
-147.776474
 20
116.951866
 10
-147.743637
 20
116.970779
 10
-147.724075
 20
116.984581
 10
-147.715057
 20
116.992462
 10
-147.703033
 20
117.006042
 10
-147.696091
 20
117.017052
 10
-147.691254
 20
117.028954
 10
-147.689423
 20
117.041306
 10
-147.691223
 20
117.05365
 10
-147.696045
 20
117.065559
 10
-147.702972
 20
117.076576
 10
-147.714981
 20
117.090157
 10
-147.723984
 20
117.098038
 10
-147.74353
 20
117.111847
 10
-147.776352
 20
117.130768
 10
-147.810532
 20
117.147118
  0
LWPOLYLINE
  5
14F
330
62
100
AcDbEntity
  8
Hawa5
  6
DASHED
 62
     1
100
AcDbPolyline
 90
       23
 70
     0
 43
0.0
 10
-147.810532
 20
117.147118
 10
-147.853897
 20
117.164871
 10
-147.898026
 20
117.180695
 10
-147.95256
 20
117.198227
 10
-148.007553
 20
117.214256
 10
-148.137787
 20
117.247818
 10
-148.287079
 20
117.28138
 10
-148.453629
 20
117.314934
 10
-148.635391
 20
117.348495
 10
-148.830139
 20
117.382057
 10
-149.248917
 20
117.449196
 10
-149.910782
 20
117.549889
 10
-150.342911
 20
117.617004
 10
-150.548248
 20
117.650566
 10
-150.743042
 20
117.684128
 10
-150.924881
 20
117.717697
 10
-151.091507
 20
117.751266
 10
-151.240875
 20
117.784836
 10
-151.371124
 20
117.818398
 10
-151.426132
 20
117.834427
 10
-151.480667
 20
117.851952
 10
-151.524796
 20
117.867775
 10
-151.568176
 20
117.885513
  0
LWPOLYLINE
  5
168
330
62
100
AcDbEntity
  8
Hawa5
  6
DASHED
 62
     1
100
AcDbPolyline
 90
       17
 70
     0
 43
0.0
 10
-151.568176
 20
117.885513
 10
-151.602371
 20
117.901863
 10
-151.635223
 20
117.920784
 10
-151.654785
 20
117.934593
 10
-151.663803
 20
117.942474
 10
-151.675827
 20
117.956062
 10
-151.68277
 20
117.967079
 10
-151.687607
 20
117.978989
 10
-151.689423
 20
117.991341
 10
-151.687607
 20
118.003693
 10
-151.68277
 20
118.01561
 10
-151.675827
 20
118.026627
 10
-151.663803
 20
118.040215
 10
-151.654785
 20
118.048096
 10
-151.635223
 20
118.061905
 10
-151.602371
 20
118.080833
 10
-151.568176
 20
118.097183
  0
LWPOLYLINE
  5
17B
330
62
100
AcDbEntity
  8
Hawa5
  6
DASHED
 62
     1
100
AcDbPolyline
 90
       23
 70
     0
 43
0.0
 10
-151.568176
 20
118.097183
 10
-151.524796
 20
118.114929
 10
-151.480667
 20
118.130745
 10
-151.426132
 20
118.14827
 10
-151.37114
 20
118.164299
 10
-151.240906
 20
118.197853
 10
-151.091599
 20
118.231415
 10
-150.925003
 20
118.264977
 10
-150.743179
 20
118.298538
 10
-150.548386
 20
118.332108
 10
-150.129684
 20
118.399231
 10
-149.467957
 20
118.499901
 10
-149.035782
 20
118.567024
 10
-148.830414
 20
118.600594
 10
-148.635635
 20
118.634163
 10
-148.4538419999999
 20
118.667725
 10
-148.287262
 20
118.701279
 10
-148.137955
 20
118.734833
 10
-148.007736
 20
118.768394
 10
-147.952728
 20
118.784416
 10
-147.898193
 20
118.801949
 10
-147.854065
 20
118.817772
 10
-147.810669
 20
118.83551
  0
LWPOLYLINE
  5
194
330
62
100
AcDbEntity
  8
Hawa5
  6
DASHED
 62
     1
100
AcDbPolyline
 90
       17
 70
     0
 43
0.0
 10
-147.810669
 20
118.83551
 10
-147.776459
 20
118.851868
 10
-147.743607
 20
118.870796
 10
-147.724045
 20
118.884605
 10
-147.715027
 20
118.892487
 10
-147.703018
 20
118.906082
 10
-147.696075
 20
118.917099
 10
-147.691238
 20
118.929008
 10
-147.689423
 20
118.94136
 10
-147.691238
 20
118.953712
 10
-147.696075
 20
118.965622
 10
-147.703018
 20
118.976639
 10
-147.715042
 20
118.990219
 10
-147.72406
 20
118.9981
 10
-147.743622
 20
119.011909
 10
-147.776474
 20
119.03083
 10
-147.810669
 20
119.04718
  0
LWPOLYLINE
  5
1A7
330
62
100
AcDbEntity
  8
Hawa5
  6
DASHED
 62
     1
100
AcDbPolyline
 90
       23
 70
     0
 43
0.0
 10
-147.810669
 20
119.04718
 10
-147.85405
 20
119.064919
 10
-147.898163
 20
119.080734
 10
-147.952713
 20
119.098267
 10
-148.007706
 20
119.114296
 10
-148.137955
 20
119.147858
 10
-148.287323
 20
119.181427
 10
-148.453934
 20
119.214996
 10
-148.635727
 20
119.24855
 10
-148.83046
 20
119.282112
 10
-149.249084
 20
119.34922
 10
-149.910889
 20
119.449905
 10
-150.343094
 20
119.517036
 10
-150.548416
 20
119.550591
 10
-150.743149
 20
119.584152
 10
-150.924911
 20
119.617699
 10
-151.091476
 20
119.65126
 10
-151.240799
 20
119.684814
 10
-151.371063
 20
119.718376
 10
-151.426086
 20
119.734406
 10
-151.480637
 20
119.751945
 10
-151.52478
 20
119.767769
 10
-151.568161
 20
119.785507
  0
LWPOLYLINE
  5
1C0
330
62
100
AcDbEntity
  8
Hawa5
  6
DASHED
 62
     1
100
AcDbPolyline
 90
       17
 70
     0
 43
0.0
 10
-151.568161
 20
119.785507
 10
-151.602371
 20
119.801872
 10
-151.6352389999999
 20
119.820793
 10
-151.6548
 20
119.834602
 10
-151.663818
 20
119.842484
 10
-151.675827
 20
119.856071
 10
-151.68277
 20
119.867088
 10
-151.687607
 20
119.878998
 10
-151.689423
 20
119.89135
 10
-151.687607
 20
119.903702
 10
-151.68277
 20
119.915611
 10
-151.675827
 20
119.926628
 10
-151.663803
 20
119.940208
 10
-151.6548
 20
119.94809
 10
-151.635223
 20
119.961906
 10
-151.602371
 20
119.980827
 10
-151.568161
 20
119.997185
  0
LWPOLYLINE
  5
1D3
330
62
100
AcDbEntity
  8
Hawa5
  6
DASHED
 62
     1
100
AcDbPolyline
 90
       23
 70
     0
 43
0.0
 10
-151.568161
 20
119.997185
 10
-151.52478
 20
120.014931
 10
-151.480652
 20
120.030746
 10
-151.426102
 20
120.048279
 10
-151.371094
 20
120.064308
 10
-151.240845
 20
120.09787
 10
-151.091522
 20
120.131424
 10
-150.924988
 20
120.164978
 10
-150.743256
 20
120.198532
 10
-150.548553
 20
120.232079
 10
-150.129913
 20
120.299194
 10
-149.468109
 20
120.399879
 10
-149.036041
 20
120.466988
 10
-148.830765
 20
120.500534
 10
-148.636032
 20
120.534088
 10
-148.454239
 20
120.567642
 10
-148.287613
 20
120.601204
 10
-148.138245
 20
120.634766
 10
-148.00795
 20
120.668327
 10
-147.9529419999999
 20
120.684357
 10
-147.898376
 20
120.701889
 10
-147.854233
 20
120.717705
 10
-147.810837
 20
120.735443
  0
LWPOLYLINE
  5
1EC
330
62
100
AcDbEntity
  8
Hawa5
  6
DASHED
 62
     1
100
AcDbPolyline
 90
       17
 70
     0
 43
0.0
 10
-147.810837
 20
120.735443
 10
-147.776596
 20
120.751801
 10
-147.743713
 20
120.770721
 10
-147.724136
 20
120.784538
 10
-147.715103
 20
120.792419
 10
-147.703064
 20
120.806007
 10
-147.696106
 20
120.817032
 10
-147.691254
 20
120.828941
 10
-147.689423
 20
120.841301
 10
-147.691223
 20
120.853653
 10
-147.69606
 20
120.86557
 10
-147.7029879999999
 20
120.876595
 10
-147.715012
 20
120.89019
 10
-147.72403
 20
120.898071
 10
-147.743591
 20
120.911888
 10
-147.776459
 20
120.930824
 10
-147.810669
 20
120.947189
  0
LWPOLYLINE
  5
1FF
330
62
100
AcDbEntity
  8
Hawa5
  6
DASHED
 62
     1
100
AcDbPolyline
 90
       23
 70
     0
 43
0.0
 10
-147.810669
 20
120.947189
 10
-147.854065
 20
120.964928
 10
-147.898193
 20
120.980751
 10
-147.952744
 20
120.998283
 10
-148.007736
 20
121.014305
 10
-148.13797
 20
121.047867
 10
-148.287277
 20
121.081421
 10
-148.4538419999999
 20
121.114975
 10
-148.635635
 20
121.148537
 10
-148.830414
 20
121.182106
 10
-149.249176
 20
121.249237
 10
-149.910934
 20
121.349907
 10
-150.343048
 20
121.417023
 10
-150.548386
 20
121.450584
 10
-150.743179
 20
121.484154
 10
-150.925003
 20
121.517723
 10
-151.091599
 20
121.551285
 10
-151.240921
 20
121.584846
 10
-151.37114
 20
121.618401
 10
-151.426132
 20
121.634422
 10
-151.480667
 20
121.651955
 10
-151.524796
 20
121.66777
 10
-151.568176
 20
121.685509
  0
LWPOLYLINE
  5
218
330
62
100
AcDbEntity
  8
Hawa5
  6
DASHED
 62
     1
100
AcDbPolyline
 90
       17
 70
     0
 43
0.0
 10
-151.568176
 20
121.685509
 10
-151.602371
 20
121.701866
 10
-151.635223
 20
121.720787
 10
-151.654785
 20
121.734596
 10
-151.663803
 20
121.742477
 10
-151.675827
 20
121.756065
 10
-151.68277
 20
121.76709
 10
-151.687607
 20
121.778999
 10
-151.689423
 20
121.791351
 10
-151.687607
 20
121.803711
 10
-151.68277
 20
121.815613
 10
-151.675827
 20
121.826637
 10
-151.663803
 20
121.840225
 10
-151.654785
 20
121.848099
 10
-151.635223
 20
121.861916
 10
-151.602371
 20
121.880829
 10
-151.568176
 20
121.897186
  0
LWPOLYLINE
  5
22B
330
62
100
AcDbEntity
  8
Hawa5
  6
DASHED
 62
     1
100
AcDbPolyline
 90
       23
 70
     0
 43
0.0
 10
-151.568176
 20
121.897186
 10
-151.524796
 20
121.914925
 10
-151.480682
 20
121.93074
 10
-151.426147
 20
121.948273
 10
-151.37114
 20
121.964294
 10
-151.240921
 20
121.997856
 10
-151.091583
 20
122.031418
 10
-150.924973
 20
122.06498
 10
-150.743149
 20
122.098549
 10
-150.54837
 20
122.132111
 10
-150.129715
 20
122.199226
 10
-149.467987
 20
122.299896
 10
-149.035767
 20
122.367027
 10
-148.830414
 20
122.400597
 10
-148.635651
 20
122.434158
 10
-148.453888
 20
122.467712
 10
-148.287323
 20
122.501266
 10
-148.138
 20
122.534821
 10
-148.007767
 20
122.568382
 10
-147.952759
 20
122.584412
 10
-147.898209
 20
122.601944
 10
-147.854065
 20
122.617767
 10
-147.810684
 20
122.635506
  0
LWPOLYLINE
  5
244
330
62
100
AcDbEntity
  8
Hawa5
  6
DASHED
 62
     1
100
AcDbPolyline
 90
       17
 70
     0
 43
0.0
 10
-147.810684
 20
122.635506
 10
-147.776474
 20
122.651871
 10
-147.743607
 20
122.670799
 10
-147.724045
 20
122.684608
 10
-147.715027
 20
122.69249
 10
-147.703003
 20
122.706078
 10
-147.696075
 20
122.717102
 10
-147.691238
 20
122.729004
 10
-147.689423
 20
122.741356
 10
-147.691238
 20
122.753708
 10
-147.696075
 20
122.765617
 10
-147.703018
 20
122.776634
 10
-147.715042
 20
122.790222
 10
-147.72406
 20
122.798096
 10
-147.743622
 20
122.811905
 10
-147.776474
 20
122.830826
 10
-147.810669
 20
122.847183
  0
LWPOLYLINE
  5
257
330
62
100
AcDbEntity
  8
Hawa5
  6
DASHED
 62
     1
100
AcDbPolyline
 90
       23
 70
     0
 43
0.0
 10
-147.810669
 20
122.847183
 10
-147.85405
 20
122.864922
 10
-147.898178
 20
122.880745
 10
-147.952728
 20
122.898277
 10
-148.007736
 20
122.914307
 10
-148.138016
 20
122.947876
 10
-148.287369
 20
122.981438
 10
-148.453964
 20
123.014999
 10
-148.635727
 20
123.048553
 10
-148.83046
 20
123.082108
 10
-149.249084
 20
123.149216
 10
-149.91095
 20
123.249916
 10
-150.343109
 20
123.317032
 10
-150.548401
 20
123.350594
 10
-150.743118
 20
123.38414
 10
-150.924881
 20
123.417702
 10
-151.091461
 20
123.451256
 10
-151.240814
 20
123.484818
 10
-151.371094
 20
123.518387
 10
-151.426102
 20
123.534416
 10
-151.480652
 20
123.551949
 10
-151.524796
 20
123.567772
 10
-151.568176
 20
123.58551
  0
LWPOLYLINE
  5
270
330
62
100
AcDbEntity
  8
Hawa5
  6
DASHED
 62
     1
100
AcDbPolyline
 90
       17
 70
     0
 43
0.0
 10
-151.568176
 20
123.58551
 10
-151.602371
 20
123.601868
 10
-151.635223
 20
123.620789
 10
-151.654785
 20
123.634598
 10
-151.663803
 20
123.642479
 10
-151.675827
 20
123.656067
 10
-151.68277
 20
123.667084
 10
-151.687607
 20
123.678986
 10
-151.689423
 20
123.691338
 10
-151.687607
 20
123.70369
 10
-151.68277
 20
123.715599
 10
-151.675827
 20
123.726616
 10
-151.663818
 20
123.740204
 10
-151.6548
 20
123.748085
 10
-151.6352389999999
 20
123.761902
 10
-151.602386
 20
123.780823
 10
-151.568176
 20
123.797188
  0
LWPOLYLINE
  5
283
330
62
100
AcDbEntity
  8
Hawa5
  6
DASHED
 62
     1
100
AcDbPolyline
 90
       23
 70
     0
 43
0.0
 10
-151.568176
 20
123.797188
 10
-151.52478
 20
123.814934
 10
-151.480637
 20
123.83075
 10
-151.426086
 20
123.848289
 10
-151.371063
 20
123.864319
 10
-151.240829
 20
123.897873
 10
-151.091507
 20
123.931435
 10
-150.924942
 20
123.964989
 10
-150.743179
 20
123.998543
 10
-150.548431
 20
124.032097
 10
-150.129684
 20
124.099228
 10
-149.467865
 20
124.199921
 10
-149.035782
 20
124.267029
 10
-148.830475
 20
124.300583
 10
-148.635712
 20
124.334145
 10
-148.453903
 20
124.367706
 10
-148.287292
 20
124.401276
 10
-148.137939
 20
124.434845
 10
-148.007706
 20
124.468399
 10
-147.952698
 20
124.484428
 10
-147.898163
 20
124.501961
 10
-147.85405
 20
124.517776
 10
-147.810669
 20
124.535515
  0
LWPOLYLINE
  5
29C
330
62
100
AcDbEntity
  8
Hawa5
  6
DASHED
 62
     1
100
AcDbPolyline
 90
       17
 70
     0
 43
0.0
 10
-147.810669
 20
124.535515
 10
-147.776474
 20
124.551865
 10
-147.743622
 20
124.570786
 10
-147.72406
 20
124.584595
 10
-147.715042
 20
124.592476
 10
-147.703018
 20
124.606056
 10
-147.696075
 20
124.617081
 10
-147.691238
 20
124.628983
 10
-147.689423
 20
124.641342
 10
-147.691238
 20
124.653694
 10
-147.696075
 20
124.665604
 10
-147.703018
 20
124.67662
 10
-147.715042
 20
124.690216
 10
-147.72406
 20
124.698097
 10
-147.743622
 20
124.711906
 10
-147.776474
 20
124.730827
 10
-147.810669
 20
124.747185
  0
LWPOLYLINE
  5
2AF
330
62
100
AcDbEntity
  8
Hawa5
  6
DASHED
 62
     1
100
AcDbPolyline
 90
       23
 70
     0
 43
0.0
 10
-147.810669
 20
124.747185
 10
-147.85405
 20
124.764923
 10
-147.898178
 20
124.780746
 10
-147.952713
 20
124.798271
 10
-148.007721
 20
124.814301
 10
-148.137939
 20
124.847855
 10
-148.287247
 20
124.881409
 10
-148.4538419999999
 20
124.91497
 10
-148.635651
 20
124.94854
 10
-148.830444
 20
124.982109
 10
-149.249176
 20
125.049232
 10
-149.910889
 20
125.149902
 10
-150.343048
 20
125.217026
 10
-150.548416
 20
125.250595
 10
-150.74321
 20
125.284157
 10
-150.925003
 20
125.317726
 10
-151.091583
 20
125.35128
 10
-151.240891
 20
125.384842
 10
-151.371124
 20
125.418396
 10
-151.426117
 20
125.434418
 10
-151.480652
 20
125.45195
 10
-151.52478
 20
125.467766
 10
-151.568176
 20
125.485512
  0
LWPOLYLINE
  5
2C8
330
62
100
AcDbEntity
  8
Hawa5
  6
DASHED
 62
     1
100
AcDbPolyline
 90
       17
 70
     0
 43
0.0
 10
-151.568176
 20
125.485512
 10
-151.602371
 20
125.501869
 10
-151.635223
 20
125.52079
 10
-151.6548
 20
125.534607
 10
-151.663818
 20
125.542488
 10
-151.675827
 20
125.556076
 10
-151.68277
 20
125.567101
 10
-151.687607
 20
125.57901
 10
-151.689423
 20
125.591362
 10
-151.687607
 20
125.603714
 10
-151.682755
 20
125.615623
 10
-151.675827
 20
125.62664
 10
-151.663803
 20
125.640221
 10
-151.654785
 20
125.648102
 10
-151.635223
 20
125.661911
 10
-151.602371
 20
125.680832
 10
-151.568176
 20
125.697182
  0
LWPOLYLINE
  5
2DB
330
62
100
AcDbEntity
  8
Hawa5
  6
DASHED
 62
     1
100
AcDbPolyline
 90
       23
 70
     0
 43
0.0
 10
-151.568176
 20
125.697182
 10
-151.524796
 20
125.71492
 10
-151.480682
 20
125.730736
 10
-151.426147
 20
125.748268
 10
-151.37114
 20
125.764297
 10
-151.240891
 20
125.797859
 10
-151.091537
 20
125.831421
 10
-150.924927
 20
125.86499
 10
-150.743118
 20
125.898552
 10
-150.548386
 20
125.932114
 10
-150.129761
 20
125.999222
 10
-149.467957
 20
126.099899
 10
-149.035751
 20
126.16703
 10
-148.830429
 20
126.200592
 10
-148.635696
 20
126.234154
 10
-148.453934
 20
126.267708
 10
-148.287369
 20
126.301262
 10
-148.138046
 20
126.334816
 10
-148.007782
 20
126.368378
 10
-147.952759
 20
126.384407
 10
-147.898209
 20
126.401947
 10
-147.854065
 20
126.417763
 10
-147.810684
 20
126.435509
  0
LWPOLYLINE
  5
2F4
330
62
100
AcDbEntity
  8
Hawa5
  6
DASHED
 62
     1
100
AcDbPolyline
 90
       17
 70
     0
 43
0.0
 10
-147.810684
 20
126.435509
 10
-147.776459
 20
126.451866
 10
-147.743607
 20
126.470795
 10
-147.724045
 20
126.484604
 10
-147.715027
 20
126.492485
 10
-147.703018
 20
126.506073
 10
-147.696075
 20
126.51709
 10
-147.691238
 20
126.528999
 10
-147.689423
 20
126.541351
 10
-147.691238
 20
126.553703
 10
-147.696075
 20
126.5656129999999
 10
-147.703018
 20
126.57663
 10
-147.715042
 20
126.59021
 10
-147.72406
 20
126.598091
 10
-147.743622
 20
126.6119
 10
-147.776474
 20
126.630829
 10
-147.810684
 20
126.647186
  0
LWPOLYLINE
  5
307
330
62
100
AcDbEntity
  8
Hawa5
  6
DASHED
 62
     1
100
AcDbPolyline
 90
       23
 70
     0
 43
0.0
 10
-147.810684
 20
126.647186
 10
-147.854065
 20
126.664932
 10
-147.898193
 20
126.680748
 10
-147.952759
 20
126.698288
 10
-148.007782
 20
126.714317
 10
-148.138046
 20
126.747879
 10
-148.287384
 20
126.781441
 10
-148.453949
 20
126.814995
 10
-148.635712
 20
126.848549
 10
-148.830429
 20
126.882103
 10
-149.249115
 20
126.949226
 10
-149.910995
 20
127.049919
 10
-150.343094
 20
127.117035
 10
-150.548386
 20
127.150589
 10
-150.743103
 20
127.184143
 10
-150.924896
 20
127.217697
 10
-151.091492
 20
127.251266
 10
-151.24086
 20
127.284828
 10
-151.371124
 20
127.318398
 10
-151.426117
 20
127.334419
 10
-151.480667
 20
127.351959
 10
-151.524796
 20
127.367775
 10
-151.568176
 20
127.385513
  0
LWPOLYLINE
  5
320
330
62
100
AcDbEntity
  8
Hawa5
  6
DASHED
 62
     1
100
AcDbPolyline
 90
       17
 70
     0
 43
0.0
 10
-151.568176
 20
127.385513
 10
-151.602371
 20
127.401863
 10
-151.635223
 20
127.420784
 10
-151.654785
 20
127.434593
 10
-151.663803
 20
127.442474
 10
-151.675827
 20
127.456062
 10
-151.682755
 20
127.467072
 10
-151.687607
 20
127.478981
 10
-151.689423
 20
127.491333
 10
-151.687607
 20
127.503685
 10
-151.68277
 20
127.515594
 10
-151.675842
 20
127.526619
 10
-151.663818
 20
127.540207
 10
-151.6548
 20
127.548088
 10
-151.6352389999999
 20
127.561897
 10
-151.602386
 20
127.580826
 10
-151.568161
 20
127.597183
  0
LWPOLYLINE
  5
333
330
62
100
AcDbEntity
  8
Hawa5
  6
DASHED
 62
     1
100
AcDbPolyline
 90
       23
 70
     0
 43
0.0
 10
-151.568161
 20
127.597183
 10
-151.52478
 20
127.614929
 10
-151.480652
 20
127.630753
 10
-151.426102
 20
127.648285
 10
-151.371094
 20
127.664307
 10
-151.24086
 20
127.697868
 10
-151.091553
 20
127.731422
 10
-150.924988
 20
127.764977
 10
-150.74321
 20
127.798538
 10
-150.548431
 20
127.8321
 10
-150.129669
 20
127.899239
 10
-149.467896
 20
127.999908
 10
-149.035797
 20
128.067017
 10
-148.83046
 20
128.100586
 10
-148.635681
 20
128.134155
 10
-148.453857
 20
128.167725
 10
-148.287247
 20
128.201279
 10
-148.137924
 20
128.234848
 10
-148.007706
 20
128.268402
 10
-147.952713
 20
128.284424
 10
-147.898163
 20
128.301956
 10
-147.85405
 20
128.31778
 10
-147.810669
 20
128.33551
  0
LWPOLYLINE
  5
34C
330
62
100
AcDbEntity
  8
Hawa5
  6
DASHED
 62
     1
100
AcDbPolyline
 90
       17
 70
     0
 43
0.0
 10
-147.810669
 20
128.33551
 10
-147.776474
 20
128.351868
 10
-147.743622
 20
128.370789
 10
-147.72406
 20
128.384598
 10
-147.715042
 20
128.392471
 10
-147.703018
 20
128.406067
 10
-147.696075
 20
128.417084
 10
-147.691238
 20
128.428986
 10
-147.689423
 20
128.441345
 10
-147.691238
 20
128.453705
 10
-147.696075
 20
128.465607
 10
-147.703018
 20
128.476624
 10
-147.715027
 20
128.490204
 10
-147.724045
 20
128.498093
 10
-147.743607
 20
128.511902
 10
-147.776443
 20
128.530823
 10
-147.810638
 20
128.547165
  0
LWPOLYLINE
  5
35F
330
62
100
AcDbEntity
  8
Hawa5
  6
DASHED
 62
     1
100
AcDbPolyline
 90
       23
 70
     0
 43
0.0
 10
-147.810638
 20
128.547165
 10
-147.854019
 20
128.564911
 10
-147.898132
 20
128.580734
 10
-147.952667
 20
128.598251
 10
-148.00766
 20
128.614288
 10
-148.137878
 20
128.647842
 10
-148.287216
 20
128.681396
 10
-148.453812
 20
128.714966
 10
-148.635635
 20
128.748535
 10
-148.830414
 20
128.782104
 10
-149.249084
 20
128.849228
 10
-149.910828
 20
128.94989
 10
-150.343048
 20
129.017029
 10
-150.548416
 20
129.050598
 10
-150.743179
 20
129.084152
 10
-150.924957
 20
129.117722
 10
-151.091522
 20
129.151276
 10
-151.240845
 20
129.18483
 10
-151.371078
 20
129.218384
 10
-151.426086
 20
129.234406
 10
-151.480637
 20
129.251938
 10
-151.52478
 20
129.267761
 10
-151.568161
 20
129.285507
  0
LWPOLYLINE
  5
378
330
62
100
AcDbEntity
  8
Hawa5
  6
DASHED
 62
     1
100
AcDbPolyline
 90
       17
 70
     0
 43
0.0
 10
-151.568161
 20
129.285507
 10
-151.602371
 20
129.301865
 10
-151.6352389999999
 20
129.320801
 10
-151.6548
 20
129.33461
 10
-151.663818
 20
129.342484
 10
-151.675842
 20
129.356079
 10
-151.68277
 20
129.367096
 10
-151.687607
 20
129.379013
 10
-151.689423
 20
129.391357
 10
-151.687607
 20
129.403717
 10
-151.68277
 20
129.415619
 10
-151.675827
 20
129.426636
 10
-151.663803
 20
129.440216
 10
-151.654785
 20
129.448105
 10
-151.635223
 20
129.461914
 10
-151.602371
 20
129.480835
 10
-151.568176
 20
129.497177
  0
LWPOLYLINE
  5
38B
330
62
100
AcDbEntity
  8
Hawa5
  6
DASHED
 62
     1
100
AcDbPolyline
 90
       23
 70
     0
 43
0.0
 10
-151.568176
 20
129.497177
 10
-151.524796
 20
129.514923
 10
-151.480667
 20
129.530746
 10
-151.426117
 20
129.548279
 10
-151.371109
 20
129.564301
 10
-151.240845
 20
129.59787
 10
-151.091476
 20
129.631439
 10
-150.924881
 20
129.664993
 10
-150.743103
 20
129.698563
 10
-150.548386
 20
129.732117
 10
-150.129761
 20
129.799225
 10
-149.467896
 20
129.899918
 10
-149.035736
 20
129.967041
 10
-148.830429
 20
130.000595
 10
-148.635712
 20
130.034149
 10
-148.453949
 20
130.067703
 10
-148.287384
 20
130.101257
 10
-148.138031
 20
130.134811
 10
-148.007767
 20
130.168381
 10
-147.952744
 20
130.184418
 10
-147.898193
 20
130.20195
 10
-147.854065
 20
130.217773
 10
-147.810669
 20
130.235519
  0
LINE
  5
3A4
330
62
100
AcDbEntity
  8
Hawa5
  6
DASHED
 62
     1
 48
0.007767
100
AcDbLine
 10
-149.689423
 20
116.566345
 30
0.0
 11
-149.689423
 21
116.877007
 31
0.0
  0
LWPOLYLINE
  5
3A5
330
62
100
AcDbEntity
  8
Hawa5
  6
DASHED
 62
     1
100
AcDbPolyline
 90
       10
 70
     0
 43
0.0
 10
-149.090134
 20
130.328201
 10
-149.314407
 20
130.26915
 10
-149.634094
 20
130.190399
 10
-149.95752
 20
130.111649
 10
-150.189346
 20
130.052582
 10
-150.394806
 20
129.995697
 10
-150.549423
 20
129.947571
 10
-150.6386409999999
 20
129.916245
 10
-150.726578
 20
129.881088
 10
-150.768814
 20
129.861847
  0
LWPOLYLINE
  5
3B1
330
62
100
AcDbEntity
  8
Hawa5
  6
DASHED
 62
     1
100
AcDbPolyline
 90
       10
 70
     0
 43
0.0
 10
-150.768814
 20
129.861847
 10
-150.812073
 20
129.839691
 10
-150.848511
 20
129.818054
 10
-150.8775179999999
 20
129.797577
 10
-150.899551
 20
129.778595
 10
-150.915573
 20
129.761169
 10
-150.926712
 20
129.745163
 10
-150.933975
 20
129.73027
 10
-150.93808
 20
129.716049
 10
-150.939423
 20
129.702042
  0
LWPOLYLINE
  5
3BD
330
62
100
AcDbEntity
  8
Hawa5
  6
DASHED
 62
     1
100
AcDbPolyline
 90
       15
 70
     0
 43
0.0
 10
-150.939423
 20
129.702042
 10
-150.938202
 20
129.688629
 10
-150.9342649999999
 20
129.674545
 10
-150.927063
 20
129.659454
 10
-150.915787
 20
129.643097
 10
-150.899506
 20
129.625381
 10
-150.877396
 20
129.606354
 10
-150.848907
 20
129.586227
 10
-150.814209
 20
129.565506
 10
-150.774048
 20
129.544693
 10
-150.728745
 20
129.52388
 10
-150.678528
 20
129.503067
 10
-150.564316
 20
129.461441
 10
-150.433548
 20
129.41983
 10
-150.288712
 20
129.378204
  0
LWPOLYLINE
  5
3CE
330
62
100
AcDbEntity
  8
Hawa5
  6
DASHED
 62
     1
100
AcDbPolyline
 90
       10
 70
     0
 43
0.0
 10
-150.288712
 20
129.378204
 10
-150.048126
 20
129.315018
 10
-149.686615
 20
129.226334
 10
-149.364517
 20
129.147491
 10
-149.116333
 20
129.082993
 10
-148.9694669999999
 20
129.041397
 10
-148.854889
 20
129.005951
 10
-148.756088
 20
128.972076
 10
-148.657898
 20
128.933502
 10
-148.610016
 20
128.91185
  0
LWPOLYLINE
  5
3DA
330
62
100
AcDbEntity
  8
Hawa5
  6
DASHED
 62
     1
100
AcDbPolyline
 90
        8
 70
     0
 43
0.0
 10
-148.610016
 20
128.91185
 10
-148.562347
 20
128.887238
 10
-148.523117
 20
128.863297
 10
-148.492493
 20
128.840454
 10
-148.469528
 20
128.818512
 10
-148.453171
 20
128.79689
 10
-148.443008
 20
128.774918
 10
-148.439423
 20
128.752014
  0
LWPOLYLINE
  5
3E4
330
62
100
AcDbEntity
  8
Hawa5
  6
DASHED
 62
     1
100
AcDbPolyline
 90
       14
 70
     0
 43
0.0
 10
-148.439423
 20
128.752014
 10
-148.443085
 20
128.728851
 10
-148.447983
 20
128.716583
 10
-148.454453
 20
128.705063
 10
-148.473251
 20
128.681503
 10
-148.498428
 20
128.658722
 10
-148.528793
 20
128.636963
 10
-148.563293
 20
128.616257
 10
-148.601349
 20
128.596375
 10
-148.642914
 20
128.577026
 10
-148.688431
 20
128.557816
 10
-148.79483
 20
128.518188
 10
-148.928162
 20
128.475021
 10
-149.090134
 20
128.428207
  0
LWPOLYLINE
  5
3F4
330
62
100
AcDbEntity
  8
Hawa5
  6
DASHED
 62
     1
100
AcDbPolyline
 90
       14
 70
     0
 43
0.0
 10
-150.288712
 20
127.478203
 10
-150.424347
 20
127.517067
 10
-150.570953
 20
127.563705
 10
-150.647491
 20
127.591095
 10
-150.725143
 20
127.622314
 10
-150.765305
 20
127.640488
 10
-150.804382
 20
127.660149
 10
-150.839706
 20
127.680405
 10
-150.869888
 20
127.700668
 10
-150.894775
 20
127.72094
 10
-150.914246
 20
127.741203
 10
-150.928207
 20
127.761475
 10
-150.936615
 20
127.781738
 10
-150.939423
 20
127.80201
  0
LWPOLYLINE
  5
404
330
62
100
AcDbEntity
  8
Hawa5
  6
DASHED
 62
     1
100
AcDbPolyline
 90
       10
 70
     0
 43
0.0
 10
-150.939423
 20
127.80201
 10
-150.938446
 20
127.813881
 10
-150.935669
 20
127.825439
 10
-150.930817
 20
127.837517
 10
-150.924438
 20
127.848877
 10
-150.905807
 20
127.872299
 10
-150.880173
 20
127.895485
 10
-150.848312
 20
127.918175
 10
-150.811005
 20
127.940285
 10
-150.768814
 20
127.961853
  0
LWPOLYLINE
  5
410
330
62
100
AcDbEntity
  8
Hawa5
  6
DASHED
 62
     1
100
AcDbPolyline
 90
       10
 70
     0
 43
0.0
 10
-150.768814
 20
127.961853
 10
-150.689011
 20
127.996765
 10
-150.596252
 20
128.031555
 10
-150.488724
 20
128.067215
 10
-150.364868
 20
128.104385
 10
-150.152695
 20
128.162201
 10
-149.861038
 20
128.235367
 10
-149.448105
 20
128.335754
 10
-149.23381
 20
128.389832
 10
-149.090134
 20
128.428207
  0
LWPOLYLINE
  5
41C
330
62
100
AcDbEntity
  8
Hawa5
  6
DASHED
 62
     1
100
AcDbPolyline
 90
       10
 70
     0
 43
0.0
 10
-150.288712
 20
127.478203
 10
-150.067474
 20
127.419922
 10
-149.772247
 20
127.347061
 10
-149.413147
 20
127.259621
 10
-149.184723
 20
127.201324
 10
-149.025253
 20
127.157616
 10
-148.879639
 20
127.113899
 10
-148.7509
 20
127.070183
 10
-148.675797
 20
127.041039
 10
-148.610107
 20
127.011887
  0
LWPOLYLINE
  5
428
330
62
100
AcDbEntity
  8
Hawa5
  6
DASHED
 62
     1
100
AcDbPolyline
 90
       10
 70
     0
 43
0.0
 10
-148.610107
 20
127.011887
 10
-148.549576
 20
126.979912
 10
-148.524063
 20
126.963921
 10
-148.501785
 20
126.947937
 10
-148.482849
 20
126.931946
 10
-148.46727
 20
126.915962
 10
-148.455109
 20
126.899971
 10
-148.446411
 20
126.883987
 10
-148.441177
 20
126.868004
 10
-148.439423
 20
126.85202
  0
LWPOLYLINE
  5
434
330
62
100
AcDbEntity
  8
Hawa5
  6
DASHED
 62
     1
100
AcDbPolyline
 90
       15
 70
     0
 43
0.0
 10
-148.439423
 20
126.85202
 10
-148.440903
 20
126.837303
 10
-148.445343
 20
126.822586
 10
-148.452713
 20
126.807861
 10
-148.463028
 20
126.793144
 10
-148.476242
 20
126.778427
 10
-148.49234
 20
126.76371
 10
-148.511261
 20
126.748985
 10
-148.557449
 20
126.719543
 10
-148.614349
 20
126.690102
 10
-148.681427
 20
126.660667
 10
-148.758041
 20
126.631226
 10
-148.889252
 20
126.587074
 10
-149.037476
 20
126.542923
 10
-149.090134
 20
126.528206
  0
LWPOLYLINE
  5
445
330
62
100
AcDbEntity
  8
Hawa5
  6
DASHED
 62
     1
100
AcDbPolyline
 90
       10
 70
     0
 43
0.0
 10
-149.090134
 20
126.528206
 10
-149.311386
 20
126.469917
 10
-149.606644
 20
126.397049
 10
-149.965698
 20
126.309616
 10
-150.194092
 20
126.251335
 10
-150.353577
 20
126.207619
 10
-150.499222
 20
126.163902
 10
-150.62796
 20
126.120178
 10
-150.703064
 20
126.091034
 10
-150.768753
 20
126.061882
  0
LWPOLYLINE
  5
451
330
62
100
AcDbEntity
  8
Hawa5
  6
DASHED
 62
     1
100
AcDbPolyline
 90
       10
 70
     0
 43
0.0
 10
-150.768753
 20
126.061882
 10
-150.829269
 20
126.029915
 10
-150.854782
 20
126.013924
 10
-150.877045
 20
125.99794
 10
-150.895996
 20
125.981956
 10
-150.91156
 20
125.965965
 10
-150.923721
 20
125.949982
 10
-150.932434
 20
125.933998
 10
-150.937668
 20
125.918007
 10
-150.939423
 20
125.902016
  0
LWPOLYLINE
  5
45D
330
62
100
AcDbEntity
  8
Hawa5
  6
DASHED
 62
     1
100
AcDbPolyline
 90
       15
 70
     0
 43
0.0
 10
-150.939423
 20
125.902016
 10
-150.937943
 20
125.887299
 10
-150.933502
 20
125.872581
 10
-150.926117
 20
125.857857
 10
-150.915802
 20
125.84314
 10
-150.902588
 20
125.828415
 10
-150.88649
 20
125.813698
 10
-150.867569
 20
125.798981
 10
-150.821396
 20
125.769539
 10
-150.764496
 20
125.740105
 10
-150.697433
 20
125.71067
 10
-150.620819
 20
125.681236
 10
-150.489624
 20
125.637085
 10
-150.34137
 20
125.592926
 10
-150.288712
 20
125.578209
  0
LWPOLYLINE
  5
46E
330
62
100
AcDbEntity
  8
Hawa5
  6
DASHED
 62
     1
100
AcDbPolyline
 90
       14
 70
     0
 43
0.0
 10
-149.090134
 20
124.628204
 10
-148.956192
 20
124.666557
 10
-148.850586
 20
124.699471
 10
-148.766006
 20
124.728355
 10
-148.687469
 20
124.758209
 10
-148.607788
 20
124.793243
 10
-148.569687
 20
124.812729
 10
-148.535583
 20
124.832619
 10
-148.50647
 20
124.852516
 10
-148.482483
 20
124.872414
 10
-148.463699
 20
124.892311
 10
-148.450241
 20
124.912209
 10
-148.442123
 20
124.932106
 10
-148.439423
 20
124.952011
  0
LWPOLYLINE
  5
47E
330
62
100
AcDbEntity
  8
Hawa5
  6
DASHED
 62
     1
100
AcDbPolyline
 90
        9
 70
     0
 43
0.0
 10
-148.439423
 20
124.952011
 10
-148.442307
 20
124.972565
 10
-148.450958
 20
124.993126
 10
-148.465332
 20
125.013687
 10
-148.485245
 20
125.034142
 10
-148.510223
 20
125.054268
 10
-148.539673
 20
125.073944
 10
-148.573074
 20
125.093124
 10
-148.610031
 20
125.111855
  0
LWPOLYLINE
  5
489
330
62
100
AcDbEntity
  8
Hawa5
  6
DASHED
 62
     1
100
AcDbPolyline
 90
       10
 70
     0
 43
0.0
 10
-148.610031
 20
125.111855
 10
-148.688202
 20
125.146103
 10
-148.778778
 20
125.180206
 10
-148.883789
 20
125.215218
 10
-149.005096
 20
125.251823
 10
-149.214279
 20
125.309097
 10
-149.442047
 20
125.366768
 10
-149.837311
 20
125.462868
 10
-150.14476
 20
125.539757
 10
-150.288712
 20
125.578209
  0
LWPOLYLINE
  5
495
330
62
100
AcDbEntity
  8
Hawa5
  6
DASHED
 62
     1
100
AcDbPolyline
 90
       14
 70
     0
 43
0.0
 10
-150.288712
 20
123.678207
 10
-150.442749
 20
123.722603
 10
-150.566483
 20
123.762177
 10
-150.67099
 20
123.800102
 10
-150.720245
 20
123.820213
 10
-150.767776
 20
123.841667
 10
-150.811966
 20
123.864265
 10
-150.850296
 20
123.887131
 10
-150.881165
 20
123.909332
 10
-150.904495
 20
123.930359
 10
-150.92099
 20
123.950005
 10
-150.931671
 20
123.968315
 10
-150.937561
 20
123.985535
 10
-150.939423
 20
124.002022
  0
LWPOLYLINE
  5
4A5
330
62
100
AcDbEntity
  8
Hawa5
  6
DASHED
 62
     1
100
AcDbPolyline
 90
        9
 70
     0
 43
0.0
 10
-150.939423
 20
124.002022
 10
-150.9375
 20
124.018814
 10
-150.931595
 20
124.035858
 10
-150.921219
 20
124.053688
 10
-150.905426
 20
124.072693
 10
-150.883087
 20
124.093147
 10
-150.853088
 20
124.115059
 10
-150.814835
 20
124.138168
 10
-150.768814
 20
124.161858
  0
LWPOLYLINE
  5
4B0
330
62
100
AcDbEntity
  8
Hawa5
  6
DASHED
 62
     1
100
AcDbPolyline
 90
       11
 70
     0
 43
0.0
 10
-150.768814
 20
124.161858
 10
-150.720428
 20
124.183731
 10
-150.668716
 20
124.204803
 10
-150.561081
 20
124.24366
 10
-150.451874
 20
124.278633
 10
-150.276566
 20
124.329147
 10
-150.0609889999999
 20
124.385742
 10
-149.797668
 20
124.45079
 10
-149.432938
 20
124.539497
 10
-149.172134
 20
124.606026
 10
-149.090134
 20
124.628204
  0
LWPOLYLINE
  5
4BD
330
62
100
AcDbEntity
  8
Hawa5
  6
DASHED
 62
     1
100
AcDbPolyline
 90
       11
 70
     0
 43
0.0
 10
-150.288712
 20
123.678207
 10
-150.05278
 20
123.616196
 10
-149.759796
 20
123.544044
 10
-149.41188
 20
123.459305
 10
-149.183365
 20
123.40097
 10
-149.011154
 20
123.353569
 10
-148.862045
 20
123.308273
 10
-148.760376
 20
123.273636
 10
-148.708694
 20
123.254242
 10
-148.657959
 20
123.233528
 10
-148.610031
 20
123.211853
  0
LWPOLYLINE
  5
4CA
330
62
100
AcDbEntity
  8
Hawa5
  6
DASHED
 62
     1
100
AcDbPolyline
 90
        9
 70
     0
 43
0.0
 10
-148.610031
 20
123.211853
 10
-148.564148
 20
123.18824
 10
-148.525955
 20
123.165192
 10
-148.495972
 20
123.143311
 10
-148.473587
 20
123.122871
 10
-148.457733
 20
123.103836
 10
-148.447296
 20
123.085976
 10
-148.44136
 20
123.068863
 10
-148.439423
 20
123.052017
  0
LWPOLYLINE
  5
4D5
330
62
100
AcDbEntity
  8
Hawa5
  6
DASHED
 62
     1
100
AcDbPolyline
 90
       14
 70
     0
 43
0.0
 10
-148.439423
 20
123.052017
 10
-148.44133
 20
123.035316
 10
-148.447372
 20
123.017891
 10
-148.458313
 20
122.999367
 10
-148.475189
 20
122.9795
 10
-148.499008
 20
122.958267
 10
-148.530472
 20
122.935875
 10
-148.569443
 20
122.912857
 10
-148.615036
 20
122.889778
 10
-148.666885
 20
122.866692
 10
-148.724686
 20
122.843613
 10
-148.788116
 20
122.820534
 10
-148.930298
 20
122.774368
 10
-149.090134
 20
122.728203
  0
LWPOLYLINE
  5
4E5
330
62
100
AcDbEntity
  8
Hawa5
  6
DASHED
 62
     1
100
AcDbPolyline
 90
       10
 70
     0
 43
0.0
 10
-149.090134
 20
122.728203
 10
-149.299713
 20
122.672882
 10
-149.604507
 20
122.597565
 10
-149.988098
 20
122.504051
 10
-150.202103
 20
122.449211
 10
-150.396652
 20
122.395157
 10
-150.521759
 20
122.356667
 10
-150.635498
 20
122.317398
 10
-150.729568
 20
122.279778
 10
-150.768845
 20
122.261841
  0
LWPOLYLINE
  5
4F1
330
62
100
AcDbEntity
  8
Hawa5
  6
DASHED
 62
     1
100
AcDbPolyline
 90
        9
 70
     0
 43
0.0
 10
-150.768845
 20
122.261841
 10
-150.808029
 20
122.241905
 10
-150.841537
 20
122.222481
 10
-150.869934
 20
122.203316
 10
-150.893631
 20
122.184105
 10
-150.912766
 20
122.164574
 10
-150.927124
 20
122.14447
 10
-150.936234
 20
122.123634
 10
-150.939423
 20
122.102013
  0
LWPOLYLINE
  5
4FC
330
62
100
AcDbEntity
  8
Hawa5
  6
DASHED
 62
     1
100
AcDbPolyline
 90
       14
 70
     0
 43
0.0
 10
-150.939423
 20
122.102013
 10
-150.936752
 20
122.082253
 10
-150.928589
 20
122.06218
 10
-150.914978
 20
122.042107
 10
-150.8962399999999
 20
122.022285
 10
-150.872849
 20
122.002869
 10
-150.845291
 20
121.983902
 10
-150.813965
 20
121.965363
 10
-150.779114
 20
121.947174
 10
-150.698975
 20
121.911308
 10
-150.60376
 20
121.875122
 10
-150.491165
 20
121.83757
 10
-150.360184
 20
121.798286
 10
-150.288712
 20
121.778206
  0
LWPOLYLINE
  5
50C
330
62
100
AcDbEntity
  8
Hawa5
  6
DASHED
 62
     1
100
AcDbPolyline
 90
       15
 70
     0
 43
0.0
 10
-149.090134
 20
120.828201
 10
-148.936905
 20
120.87236
 10
-148.799683
 20
120.916519
 10
-148.718552
 20
120.945961
 10
-148.646606
 20
120.975403
 10
-148.584564
 20
121.004837
 10
-148.532974
 20
121.034279
 10
-148.511261
 20
121.048996
 10
-148.49234
 20
121.063713
 10
-148.476242
 20
121.07843
 10
-148.463028
 20
121.093147
 10
-148.452713
 20
121.107864
 10
-148.445343
 20
121.122581
 10
-148.440903
 20
121.137299
 10
-148.439423
 20
121.152016
  0
LWPOLYLINE
  5
51D
330
62
100
AcDbEntity
  8
Hawa5
  6
DASHED
 62
     1
100
AcDbPolyline
 90
       10
 70
     0
 43
0.0
 10
-148.439423
 20
121.152016
 10
-148.441177
 20
121.167999
 10
-148.446411
 20
121.18399
 10
-148.455124
 20
121.199974
 10
-148.46727
 20
121.215965
 10
-148.482849
 20
121.231956
 10
-148.501801
 20
121.24794
 10
-148.524063
 20
121.263931
 10
-148.549591
 20
121.279915
 10
-148.610092
 20
121.31189
  0
LWPOLYLINE
  5
529
330
62
100
AcDbEntity
  8
Hawa5
  6
DASHED
 62
     1
100
AcDbPolyline
 90
       10
 70
     0
 43
0.0
 10
-148.610092
 20
121.31189
 10
-148.675781
 20
121.341034
 10
-148.75087
 20
121.370171
 10
-148.879593
 20
121.413887
 10
-149.025223
 20
121.457603
 10
-149.240402
 20
121.5159
 10
-149.531769
 20
121.588768
 10
-149.951035
 20
121.690765
 10
-150.180344
 20
121.749054
 10
-150.288712
 20
121.778206
  0
LWPOLYLINE
  5
535
330
62
100
AcDbEntity
  8
Hawa5
  6
DASHED
 62
     1
100
AcDbPolyline
 90
       10
 70
     0
 43
0.0
 10
-149.090134
 20
120.828201
 10
-149.311371
 20
120.76992
 10
-149.606583
 20
120.69706
 10
-149.965698
 20
120.609619
 10
-150.194122
 20
120.551323
 10
-150.353592
 20
120.507614
 10
-150.499222
 20
120.463898
 10
-150.627945
 20
120.420181
 10
-150.703049
 20
120.391037
 10
-150.768738
 20
120.361893
  0
LWPOLYLINE
  5
541
330
62
100
AcDbEntity
  8
Hawa5
  6
DASHED
 62
     1
100
AcDbPolyline
 90
       10
 70
     0
 43
0.0
 10
-150.768738
 20
120.361893
 10
-150.829269
 20
120.32991
 10
-150.854782
 20
120.313919
 10
-150.87706
 20
120.297935
 10
-150.895996
 20
120.281944
 10
-150.911575
 20
120.265961
 10
-150.923737
 20
120.249977
 10
-150.932434
 20
120.233986
 10
-150.937668
 20
120.218002
 10
-150.939423
 20
120.202019
  0
LWPOLYLINE
  5
54D
330
62
100
AcDbEntity
  8
Hawa5
  6
DASHED
 62
     1
100
AcDbPolyline
 90
       15
 70
     0
 43
0.0
 10
-150.939423
 20
120.202019
 10
-150.937943
 20
120.187302
 10
-150.933502
 20
120.172585
 10
-150.926132
 20
120.157867
 10
-150.915817
 20
120.14315
 10
-150.902603
 20
120.128426
 10
-150.886505
 20
120.113708
 10
-150.867584
 20
120.098991
 10
-150.821411
 20
120.06955
 10
-150.764511
 20
120.040108
 10
-150.697418
 20
120.010666
 10
-150.620804
 20
119.981232
 10
-150.489594
 20
119.937073
 10
-150.34137
 20
119.892921
 10
-150.288712
 20
119.878204
  0
LWPOLYLINE
  5
55E
330
62
100
AcDbEntity
  8
Hawa5
  6
DASHED
 62
     1
100
AcDbPolyline
 90
       10
 70
     0
 43
0.0
 10
-150.288712
 20
119.878204
 10
-150.092896
 20
119.826393
 10
-149.814453
 20
119.757301
 10
-149.459015
 20
119.670952
 10
-149.186798
 20
119.601875
 10
-148.999023
 20
119.550064
 10
-148.88475
 20
119.515518
 10
-148.78096
 20
119.480972
 10
-148.689011
 20
119.446426
 10
-148.610107
 20
119.411888
  0
LWPOLYLINE
  5
56A
330
62
100
AcDbEntity
  8
Hawa5
  6
DASHED
 62
     1
100
AcDbPolyline
 90
        9
 70
     0
 43
0.0
 10
-148.610107
 20
119.411888
 10
-148.5708159999999
 20
119.391899
 10
-148.536407
 20
119.37191
 10
-148.507034
 20
119.351921
 10
-148.482834
 20
119.33194
 10
-148.463898
 20
119.311951
 10
-148.4503169999999
 20
119.291962
 10
-148.442139
 20
119.271973
 10
-148.439423
 20
119.251984
  0
LWPOLYLINE
  5
575
330
62
100
AcDbEntity
  8
Hawa5
  6
DASHED
 62
     1
100
AcDbPolyline
 90
       14
 70
     0
 43
0.0
 10
-148.439423
 20
119.251984
 10
-148.441422
 20
119.234901
 10
-148.447403
 20
119.217819
 10
-148.457336
 20
119.200745
 10
-148.471085
 20
119.1838
 10
-148.488403
 20
119.167084
 10
-148.508957
 20
119.150673
 10
-148.532486
 20
119.134583
 10
-148.58757
 20
119.103287
 10
-148.652695
 20
119.072754
 10
-148.728241
 20
119.042267
 10
-148.815521
 20
119.011108
 10
-148.915863
 20
118.97879
 10
-149.090134
 20
118.928207
  0
LWPOLYLINE
  5
585
330
62
100
AcDbEntity
  8
Hawa5
  6
DASHED
 62
     1
100
AcDbPolyline
 90
       15
 70
     0
 43
0.0
 10
-150.288712
 20
117.978203
 10
-150.425446
 20
118.017395
 10
-150.5345
 20
118.051506
 10
-150.6235659999999
 20
118.08223
 10
-150.70665
 20
118.114471
 10
-150.748001
 20
118.132446
 10
-150.788315
 20
118.151779
 10
-150.825577
 20
118.171951
 10
-150.857681
 20
118.192039
 10
-150.88385
 20
118.21151
 10
-150.904343
 20
118.230202
 10
-150.919724
 20
118.248253
 10
-150.930557
 20
118.265968
 10
-150.937149
 20
118.283752
 10
-150.939423
 20
118.301987
  0
LWPOLYLINE
  5
596
330
62
100
AcDbEntity
  8
Hawa5
  6
DASHED
 62
     1
100
AcDbPolyline
 90
        9
 70
     0
 43
0.0
 10
-150.939423
 20
118.301987
 10
-150.936737
 20
118.321823
 10
-150.928238
 20
118.342499
 10
-150.913513
 20
118.363678
 10
-150.892929
 20
118.384743
 10
-150.867294
 20
118.405243
 10
-150.83754
 20
118.42495
 10
-150.80452
 20
118.443794
 10
-150.768814
 20
118.461853
  0
LWPOLYLINE
  5
5A1
330
62
100
AcDbEntity
  8
Hawa5
  6
DASHED
 62
     1
100
AcDbPolyline
 90
       11
 70
     0
 43
0.0
 10
-150.768814
 20
118.461853
 10
-150.695114
 20
118.494293
 10
-150.610931
 20
118.526344
 10
-150.51181
 20
118.559875
 10
-150.393234
 20
118.596153
 10
-150.2547
 20
118.635109
 10
-150.028336
 20
118.693977
 10
-149.667633
 20
118.78228
 10
-149.385269
 20
118.851334
 10
-149.163452
 20
118.90834
 10
-149.090134
 20
118.928207
  0
LWPOLYLINE
  5
5AE
330
62
100
AcDbEntity
  8
Hawa5
  6
DASHED
 62
     1
100
AcDbPolyline
 90
       14
 70
     0
 43
0.0
 10
-149.090134
 20
117.028206
 10
-148.93222
 20
117.073784
 10
-148.809479
 20
117.113159
 10
-148.706741
 20
117.150543
 10
-148.657288
 20
117.170776
 10
-148.608826
 20
117.192749
 10
-148.563492
 20
117.216133
 10
-148.524582
 20
117.239746
 10
-148.493851
 20
117.262436
 10
-148.471283
 20
117.283585
 10
-148.455841
 20
117.30294
 10
-148.446167
 20
117.320572
 10
-148.44101
 20
117.336769
 10
-148.439423
 20
117.3520129999999
  0
LWPOLYLINE
  5
5BE
330
62
100
AcDbEntity
  8
Hawa5
  6
DASHED
 62
     1
100
AcDbPolyline
 90
        9
 70
     0
 43
0.0
 10
-148.439423
 20
117.3520129999999
 10
-148.441116
 20
117.367722
 10
-148.446304
 20
117.383766
 10
-148.455673
 20
117.400833
 10
-148.470413
 20
117.419487
 10
-148.492065
 20
117.440079
 10
-148.522156
 20
117.462646
 10
-148.561661
 20
117.486855
 10
-148.610031
 20
117.511856
  0
LWPOLYLINE
  5
5C9
330
62
100
AcDbEntity
  8
Hawa5
  6
DASHED
 62
     1
100
AcDbPolyline
 90
       11
 70
     0
 43
0.0
 10
-148.610031
 20
117.511856
 10
-148.659988
 20
117.534401
 10
-148.712906
 20
117.555878
 10
-148.820023
 20
117.594429
 10
-148.923691
 20
117.627632
 10
-149.084656
 20
117.674294
 10
-149.289597
 20
117.728554
 10
-149.556122
 20
117.794701
 10
-149.933563
 20
117.886452
 10
-150.203842
 20
117.955269
 10
-150.288712
 20
117.978203
  0
ARC
  5
5D6
330
62
100
AcDbEntity
  8
Hawa5
 62
     1
100
AcDbCircle
 10
-152.089417
 20
114.066345
 30
0.0
 40
1.5
100
AcDbArc
 50
180.000005
 51
270.000001
  0
ARC
  5
5D7
330
62
100
AcDbEntity
  8
Hawa5
 62
     1
100
AcDbCircle
 10
-147.289429
 20
114.066345
 30
0.0
 40
1.5
100
AcDbArc
 50
269.999997
 51
0.0
  0
LINE
  5
5D8
330
62
100
AcDbEntity
  8
Hawa5
 62
     1
 48
0.035
100
AcDbLine
 10
-153.589417
 20
114.066345
 30
0.0
 11
-153.589417
 21
115.466347
 31
0.0
  0
LINE
  5
5D9
330
62
100
AcDbEntity
  8
Hawa5
 62
     1
 48
0.035
100
AcDbLine
 10
-145.789429
 20
114.066345
 30
0.0
 11
-145.789429
 21
115.466347
 31
0.0
  0
LINE
  5
5DA
330
62
100
AcDbEntity
  8
Hawa5
  6
DASHED
 62
     1
 48
0.026517
100
AcDbLine
 10
-148.439423
 20
116.216347
 30
0.0
 11
-147.689423
 21
115.466347
 31
0.0
  0
LINE
  5
5DB
330
62
100
AcDbEntity
  8
Hawa5
  6
DASHED
 62
     1
 48
0.026517
100
AcDbLine
 10
-150.939423
 20
116.216347
 30
0.0
 11
-151.689423
 21
115.466347
 31
0.0
  0
LINE
  5
5DC
330
62
100
AcDbEntity
  8
Hawa5
  6
DASHED
 62
     1
 48
0.012859
100
AcDbLine
 10
-148.439423
 20
116.216347
 30
0.0
 11
-148.439423
 21
116.73069
 31
0.0
  0
LINE
  5
5DD
330
62
100
AcDbEntity
  8
Hawa5
  6
DASHED
 62
     1
 48
0.036608
100
AcDbLine
 10
-150.939423
 20
116.216347
 30
0.0
 11
-150.939423
 21
117.680664
 31
0.0
  0
ARC
  5
5DE
330
62
100
AcDbEntity
  8
Hawa5
  6
DASHED
 62
     1
100
AcDbCircle
 10
-136.495041
 20
91.04455599999999
 30
0.0
 40
28.255516
100
AcDbArc
 50
113.607705
 51
115.389421
  0
ARC
  5
5DF
330
62
100
AcDbEntity
  8
Hawa5
  6
DASHED
 62
     1
100
AcDbCircle
 10
-162.905151
 20
91.94706
 30
0.0
 40
28.307585
100
AcDbArc
 50
64.612797
 51
66.39120799999999
  0
ARC
  5
5E0
330
62
100
AcDbEntity
  8
Hawa5
  6
DASHED
 62
     1
100
AcDbCircle
 10
-136.480377
 20
92.907585
 30
0.0
 40
28.295233
100
AcDbArc
 50
113.604944
 51
115.3841209999999
  0
ARC
  5
5E1
330
62
100
AcDbEntity
  8
Hawa5
  6
DASHED
 62
     1
100
AcDbCircle
 10
-162.884079
 20
93.893982
 30
0.0
 40
28.256153
100
AcDbArc
 50
64.610578
 51
66.39222499999999
  0
ARC
  5
5E2
330
62
100
AcDbEntity
  8
Hawa5
  6
DASHED
 62
     1
100
AcDbCircle
 10
-136.494781
 20
94.84391
 30
0.0
 40
28.256212
100
AcDbArc
 50
113.607671
 51
115.389338
  0
ARC
  5
5E3
330
62
100
AcDbEntity
  8
Hawa5
  6
DASHED
 62
     1
100
AcDbCircle
 10
-162.885208
 20
95.791359
 30
0.0
 40
28.259005
100
AcDbArc
 50
64.610837
 51
66.39225999999999
  0
ARC
  5
5E4
330
62
100
AcDbEntity
  8
Hawa5
  6
DASHED
 62
     1
100
AcDbCircle
 10
-136.507339
 20
96.76689899999999
 30
0.0
 40
28.230093
100
AcDbArc
 50
113.603025
 51
115.386306
  0
ARC
  5
5E5
330
62
100
AcDbEntity
  8
Hawa5
  6
DASHED
 62
     1
100
AcDbCircle
 10
-162.880981
 20
97.69933299999999
 30
0.0
 40
28.249998
100
AcDbArc
 50
64.61159499999999
 51
66.39363900000001
  0
ARC
  5
5E6
330
62
100
AcDbEntity
  8
Hawa5
  6
DASHED
 62
     1
100
AcDbCircle
 10
-136.494278
 20
98.64276099999999
 30
0.0
 40
28.257463
100
AcDbArc
 50
113.607671
 51
115.389244
  0
ARC
  5
5E7
330
62
100
AcDbEntity
  8
Hawa5
  6
DASHED
 62
     1
100
AcDbCircle
 10
-162.884949
 20
99.59201800000002
 30
0.0
 40
28.258291
100
AcDbArc
 50
64.610714
 51
66.39222499999999
  0
ARC
  5
5E8
330
62
100
AcDbEntity
  8
Hawa5
  6
DASHED
 62
     1
100
AcDbCircle
 10
-136.4618679999999
 20
100.464607
 30
0.0
 40
28.342014
100
AcDbArc
 50
113.604351
 51
115.380706
  0
ARC
  5
5E9
330
62
100
AcDbEntity
  8
Hawa5
  6
DASHED
 62
     1
100
AcDbCircle
 10
-162.93396
 20
101.380127
 30
0.0
 40
28.380426
100
AcDbArc
 50
64.61817899999999
 51
66.39203399999999
  0
ARC
  5
5EA
330
62
100
AcDbEntity
  8
Hawa5
  6
DASHED
 62
     1
100
AcDbCircle
 10
-136.493866
 20
102.441864
 30
0.0
 40
28.258451
100
AcDbArc
 50
113.607717
 51
115.389202
  0
ARC
  5
5EB
330
62
100
AcDbEntity
  8
Hawa5
  6
DASHED
 62
     1
100
AcDbCircle
 10
-162.884415
 20
103.393219
 30
0.0
 40
28.256983
100
AcDbArc
 50
64.610619
 51
66.39222499999999
  0
ARC
  5
5EC
330
62
100
AcDbEntity
  8
Hawa5
  6
DASHED
 62
     1
100
AcDbCircle
 10
-136.493607
 20
104.341408
 30
0.0
 40
28.258976
100
AcDbArc
 50
113.607815
 51
115.3890239999999
  0
ARC
  5
5ED
330
62
100
AcDbEntity
  8
Hawa5
  6
DASHED
 62
     1
100
AcDbCircle
 10
-136.494629
 20
143.039001
 30
0.0
 40
28.25647
100
AcDbArc
 50
244.610593
 51
246.3922140000001
  0
ARC
  5
5EE
330
62
100
AcDbEntity
  8
Hawa5
  6
DASHED
 62
     1
100
AcDbCircle
 10
-162.830017
 20
143.874603
 30
0.0
 40
28.129904
100
AcDbArc
 50
293.599934
 51
295.38956
  0
ARC
  5
5EF
330
62
100
AcDbEntity
  8
Hawa5
  6
DASHED
 62
     1
100
AcDbCircle
 10
-136.49472
 20
144.938934
 30
0.0
 40
28.256365
100
AcDbArc
 50
244.610675
 51
246.392336
  0
ARC
  5
5F0
330
62
100
AcDbEntity
  8
Hawa5
  6
DASHED
 62
     1
100
AcDbCircle
 10
-162.885254
 20
145.891327
 30
0.0
 40
28.25902
100
AcDbArc
 50
293.607835
 51
295.38906
  0
ARC
  5
5F1
330
62
100
AcDbEntity
  8
Hawa5
  6
DASHED
 62
     1
100
AcDbCircle
 10
-136.443314
 20
146.955307
 30
0.0
 40
28.383575
100
AcDbArc
 50
244.617683
 51
246.391319
  0
ARC
  5
5F2
330
62
100
AcDbEntity
  8
Hawa5
  6
DASHED
 62
     1
100
AcDbCircle
 10
-162.88475
 20
147.790329
 30
0.0
 40
28.257896
100
AcDbArc
 50
293.607679
 51
295.389231
  0
ARC
  5
5F3
330
62
100
AcDbEntity
  8
Hawa5
  6
DASHED
 62
     1
100
AcDbCircle
 10
-136.48912
 20
148.752487
 30
0.0
 40
28.271021
100
AcDbArc
 50
244.612218
 51
246.392944
  0
ARC
  5
5F4
330
62
100
AcDbEntity
  8
Hawa5
  6
DASHED
 62
     1
100
AcDbCircle
 10
-162.917023
 20
149.768188
 30
0.0
 40
28.342133
100
AcDbArc
 50
293.604353
 51
295.380694
  0
ARC
  5
5F5
330
62
100
AcDbEntity
  8
Hawa5
  6
DASHED
 62
     1
100
AcDbCircle
 10
-136.493759
 20
150.641006
 30
0.0
 40
28.25865
100
AcDbArc
 50
244.610756
 51
246.392248
  0
ARC
  5
5F6
330
62
100
AcDbEntity
  8
Hawa5
  6
DASHED
 62
     1
100
AcDbCircle
 10
-162.863098
 20
151.547516
 30
0.0
 40
28.209963
100
AcDbArc
 50
293.6022069999999
 51
295.386779
  0
ARC
  5
5F7
330
62
100
AcDbEntity
  8
Hawa5
  6
DASHED
 62
     1
100
AcDbCircle
 10
-136.495605
 20
152.53685
 30
0.0
 40
28.254108
100
AcDbArc
 50
244.610347
 51
246.392288
  0
ARC
  5
5F8
330
62
100
AcDbEntity
  8
Hawa5
  6
DASHED
 62
     1
100
AcDbCircle
 10
-162.884613
 20
153.489929
 30
0.0
 40
28.257477
100
AcDbArc
 50
293.607781
 51
295.389347
  0
ARC
  5
5F9
330
62
100
AcDbEntity
  8
Hawa5
  6
DASHED
 62
     1
100
AcDbCircle
 10
-136.42804
 20
154.589401
 30
0.0
 40
28.420916
100
AcDbArc
 50
244.619335
 51
246.39065
  0
ARC
  5
5FA
330
62
100
AcDbEntity
  8
Hawa5
  6
DASHED
 62
     1
100
AcDbCircle
 10
-162.883896
 20
155.388397
 30
0.0
 40
28.255783
100
AcDbArc
 50
293.607686
 51
295.389373
  0
LINE
  5
5FB
330
62
100
AcDbEntity
  8
Hawa5
  6
DASHED
 62
     1
 48
0.031966
100
AcDbLine
 10
-148.439423
 20
117.3520129999999
 30
0.0
 11
-148.439423
 21
118.630661
 31
0.0
  0
LINE
  5
5FC
330
62
100
AcDbEntity
  8
Hawa5
  6
DASHED
 62
     1
 48
0.031968
100
AcDbLine
 10
-150.939423
 20
118.301987
 30
0.0
 11
-150.939423
 21
119.580696
 31
0.0
  0
LINE
  5
5FD
330
62
100
AcDbEntity
  8
Hawa5
  6
DASHED
 62
     1
 48
0.031968
100
AcDbLine
 10
-148.439423
 20
119.251984
 30
0.0
 11
-148.439423
 21
120.530693
 31
0.0
  0
LINE
  5
5FE
330
62
100
AcDbEntity
  8
Hawa5
  6
DASHED
 62
     1
 48
0.031967
100
AcDbLine
 10
-150.939423
 20
120.202019
 30
0.0
 11
-150.939423
 21
121.480698
 31
0.0
  0
LINE
  5
5FF
330
62
100
AcDbEntity
  8
Hawa5
  6
DASHED
 62
     1
 48
0.031967
100
AcDbLine
 10
-148.439423
 20
121.152016
 30
0.0
 11
-148.439423
 21
122.430695
 31
0.0
  0
LINE
  5
600
330
62
100
AcDbEntity
  8
Hawa5
  6
DASHED
 62
     1
 48
0.031967
100
AcDbLine
 10
-150.939423
 20
122.102013
 30
0.0
 11
-150.939423
 21
123.380699
 31
0.0
  0
LINE
  5
601
330
62
100
AcDbEntity
  8
Hawa5
  6
DASHED
 62
     1
 48
0.031967
100
AcDbLine
 10
-148.439423
 20
123.052017
 30
0.0
 11
-148.439423
 21
124.330688
 31
0.0
  0
LINE
  5
602
330
62
100
AcDbEntity
  8
Hawa5
  6
DASHED
 62
     1
 48
0.031967
100
AcDbLine
 10
-150.939423
 20
124.002022
 30
0.0
 11
-150.939423
 21
125.280701
 31
0.0
  0
LINE
  5
603
330
62
100
AcDbEntity
  8
Hawa5
  6
DASHED
 62
     1
 48
0.031967
100
AcDbLine
 10
-148.439423
 20
124.952011
 30
0.0
 11
-148.439423
 21
126.230698
 31
0.0
  0
LINE
  5
604
330
62
100
AcDbEntity
  8
Hawa5
  6
DASHED
 62
     1
 48
0.031967
100
AcDbLine
 10
-150.939423
 20
125.902016
 30
0.0
 11
-150.939423
 21
127.180687
 31
0.0
  0
LINE
  5
605
330
62
100
AcDbEntity
  8
Hawa5
  6
DASHED
 62
     1
 48
0.031967
100
AcDbLine
 10
-148.439423
 20
126.85202
 30
0.0
 11
-148.439423
 21
128.130692
 31
0.0
  0
LINE
  5
606
330
62
100
AcDbEntity
  8
Hawa5
  6
DASHED
 62
     1
 48
0.031968
100
AcDbLine
 10
-150.939423
 20
127.80201
 30
0.0
 11
-150.939423
 21
129.080719
 31
0.0
  0
LINE
  5
607
330
62
100
AcDbEntity
  8
Hawa5
  6
DASHED
 62
     1
 48
0.031967
100
AcDbLine
 10
-148.439423
 20
128.752014
 30
0.0
 11
-148.439423
 21
130.030685
 31
0.0
  0
LINE
  5
608
330
62
100
AcDbEntity
  8
Hawa5
  6
DASHED
 62
     1
 48
0.031966
100
AcDbLine
 10
-150.939423
 20
129.702042
 30
0.0
 11
-150.939423
 21
130.980682
 31
0.0
  0
LINE
  5
609
330
62
100
AcDbEntity
  8
Hawa5
 62
     1
100
AcDbLine
 10
-144.689423
 20
-9.033652999999999
 30
0.0
 11
-144.689423
 21
-35.033653
 31
0.0
  0
LINE
  5
60A
330
62
100
AcDbEntity
  8
Hawa6
  6
DASHSPACE
 62
     3
 48
0.00625
100
AcDbLine
 10
-152.689423
 20
20.094566
 30
0.0
 11
-152.439423
 21
20.094566
 31
0.0
  0
LINE
  5
60B
330
62
100
AcDbEntity
  8
Hawa6
  6
DASHSPACE
 62
     3
 48
0.090706
100
AcDbLine
 10
-152.689423
 20
2.838131
 30
0.0
 11
-152.689423
 21
6.466355999999999
 31
0.0
  0
LINE
  5
60C
330
62
100
AcDbEntity
  8
Hawa6
  6
DASHSPACE
 62
     3
 48
0.090706
100
AcDbLine
 10
-152.689423
 20
16.466341
 30
0.0
 11
-152.689423
 21
20.094566
 31
0.0
  0
LINE
  5
60D
330
62
100
AcDbEntity
  8
Hawa6
  6
DASHSPACE
 62
     3
 48
0.00625
100
AcDbLine
 10
-152.689423
 20
2.838131
 30
0.0
 11
-152.439423
 21
2.838131
 31
0.0
  0
LINE
  5
60E
330
62
100
AcDbEntity
  8
Hawa6
 62
     3
 48
0.2
100
AcDbLine
 10
-152.689423
 20
32.09269000000001
 30
0.0
 11
-144.689423
 21
32.09269000000001
 31
0.0
  0
LINE
  5
60F
330
62
100
AcDbEntity
  8
Hawa6
 62
     3
 48
0.075166
100
AcDbLine
 10
-152.689423
 20
32.09269000000001
 30
0.0
 11
-152.689423
 21
35.099342
 31
0.0
  0
LINE
  5
610
330
62
100
AcDbEntity
  8
Hawa6
 62
     3
 48
0.299953
100
AcDbLine
 10
-152.689423
 20
32.09269000000001
 30
0.0
 11
-152.689423
 21
20.094566
 31
0.0
  0
LINE
  5
611
330
62
100
AcDbEntity
  8
Hawa5
 62
     1
100
AcDbLine
 10
-152.689423
 20
2.838131
 30
0.0
 11
-152.689423
 21
-35.033653
 31
0.0
  0
LINE
  5
612
330
62
100
AcDbEntity
  8
Hawa5
  6
PHANTOM
 62
     1
 48
0.2
100
AcDbLine
 10
-144.689423
 20
-35.033653
 30
0.0
 11
-152.689423
 21
-35.033653
 31
0.0
  0
LINE
  5
613
330
62
100
AcDbEntity
  8
Hawa6
  6
DASHSPACE
 62
     3
 48
0.08
100
AcDbLine
 10
-149.489426
 20
79.966347
 30
0.0
 11
-152.689438
 21
79.966347
 31
0.0
  0
LINE
  5
614
330
62
100
AcDbEntity
  8
Hawa6
  6
DASHSPACE
 62
     3
100
AcDbLine
 10
-149.489426
 20
79.966347
 30
0.0
 11
-149.489426
 21
59.466347
 31
0.0
  0
LINE
  5
615
330
62
100
AcDbEntity
  8
Hawa6
  6
DASHSPACE
 62
     3
100
AcDbLine
 10
-149.489426
 20
36.466347
 30
0.0
 11
-149.489426
 21
59.466347
 31
0.0
  0
LINE
  5
616
330
62
100
AcDbEntity
  8
Hawa6
  6
DASHSPACE
 62
     3
 48
0.04
100
AcDbLine
 10
-149.489426
 20
61.99134799999999
 30
0.0
 11
-147.889435
 21
61.99134799999999
 31
0.0
  0
LINE
  5
617
330
62
100
AcDbEntity
  8
Hawa6
  6
DASHSPACE
 62
     3
 48
0.04
100
AcDbLine
 10
-149.489426
 20
52.341347
 30
0.0
 11
-147.88942
 21
52.341347
 31
0.0
  0
LINE
  5
618
330
62
100
AcDbEntity
  8
Hawa6
  6
DASHSPACE
 62
     3
 48
0.00625
100
AcDbLine
 10
-152.689438
 20
16.466349
 30
0.0
 11
-152.439423
 21
16.466349
 31
0.0
  0
LINE
  5
619
330
62
100
AcDbEntity
  8
Hawa6
  6
DASHSPACE
 62
     3
 48
0.00625
100
AcDbLine
 10
-152.689438
 20
6.466347999999999
 30
0.0
 11
-152.439423
 21
6.466347999999999
 31
0.0
  0
LINE
  5
61A
330
62
100
AcDbEntity
  8
Hawa6
 62
     3
100
AcDbLine
 10
-152.689423
 20
-1.334017999999999
 30
0.0
 11
-152.689423
 21
23.002659
 31
0.0
  0
LINE
  5
61B
330
62
100
AcDbEntity
  8
Hawa6
  6
DASHSPACE
 62
     3
 48
0.175
100
AcDbLine
 10
-149.489426
 20
36.466347
 30
0.0
 11
-149.489426
 21
43.466351
 31
0.0
  0
LINE
  5
61C
330
62
100
AcDbEntity
  8
Hawa6
  6
DASHSPACE
 62
     3
 48
0.0625
100
AcDbLine
 10
-152.489426
 20
79.966347
 30
0.0
 11
-149.989426
 21
79.966347
 31
0.0
  0
LINE
  5
61D
330
62
100
AcDbEntity
  8
Hawa6
  6
DASHSPACE
 62
     3
 48
0.0125
100
AcDbLine
 10
-149.489426
 20
79.966347
 30
0.0
 11
-149.989426
 21
79.966347
 31
0.0
  0
LINE
  5
61E
330
62
100
AcDbEntity
  8
Hawa6
  6
DASHSPACE
 62
     3
 48
0.005
100
AcDbLine
 10
-152.489426
 20
79.966347
 30
0.0
 11
-152.689423
 21
79.966347
 31
0.0
  0
LINE
  5
61F
330
62
100
AcDbEntity
  8
Hawa6
 62
     3
100
AcDbLine
 10
-152.689423
 20
79.966347
 30
0.0
 11
-152.689423
 21
23.002659
 31
0.0
  0
LINE
  5
620
330
62
100
AcDbEntity
  8
Hawa6
  6
DASHSPACE
 62
     3
100
AcDbLine
 10
-149.489426
 20
79.966347
 30
0.0
 11
-149.489426
 21
59.346165
 31
0.0
  0
LINE
  5
621
330
62
100
AcDbEntity
  8
Hawa6
  6
DASHSPACE
 62
     3
100
AcDbLine
 10
-149.489426
 20
34.755024
 30
0.0
 11
-149.489426
 21
59.346165
 31
0.0
  0
LINE
  5
622
330
62
100
AcDbEntity
  8
Hawa6
  6
DASHSPACE
 62
     3
 48
0.116335
100
AcDbLine
 10
-152.489426
 20
75.31295799999999
 30
0.0
 11
-152.489426
 21
79.966347
 31
0.0
  0
LINE
  5
623
330
62
100
AcDbEntity
  8
Hawa6
  6
DASHSPACE
 62
     3
100
AcDbLine
 10
-149.989426
 20
79.966347
 30
0.0
 11
-149.989426
 21
59.344761
 31
0.0
  0
LINE
  5
624
330
62
100
AcDbEntity
  8
Hawa6
  6
DASHSPACE
 62
     3
 48
0.399205
100
AcDbLine
 10
-152.489426
 20
59.344761
 30
0.0
 11
-152.489426
 21
75.31295799999999
 31
0.0
  0
LINE
  5
625
330
62
100
AcDbEntity
  8
Hawa6
  6
DASHSPACE
 62
     3
 48
0.0625
100
AcDbLine
 10
-152.489426
 20
59.344761
 30
0.0
 11
-149.989426
 21
59.344761
 31
0.0
  0
LINE
  5
626
330
62
100
AcDbEntity
  8
Hawa6
  6
DASHSPACE
 62
     3
 48
0.0125
100
AcDbLine
 10
-149.989426
 20
59.344761
 30
0.0
 11
-149.489426
 21
59.346165
 31
0.0
  0
LINE
  5
627
330
62
100
AcDbEntity
  8
Hawa6
  6
DASHSPACE
 62
     3
100
AcDbLine
 10
-149.989426
 20
34.466347
 30
0.0
 11
-149.989426
 21
59.344761
 31
0.0
  0
LINE
  5
628
330
62
100
AcDbEntity
  8
Hawa6
  6
DASHSPACE
 62
     3
100
AcDbLine
 10
-152.489426
 20
34.466347
 30
0.0
 11
-152.489426
 21
59.344761
 31
0.0
  0
LINE
  5
629
330
62
100
AcDbEntity
  8
Hawa6
  6
DASHSPACE
 62
     3
 48
0.005
100
AcDbLine
 10
-152.489426
 20
59.466347
 30
0.0
 11
-152.689423
 21
59.466347
 31
0.0
  0
LINE
  5
62A
330
62
100
AcDbEntity
  8
Hawa6
  6
DASHSPACE
 62
     3
 48
0.014434
100
AcDbLine
 10
-149.489426
 20
34.755024
 30
0.0
 11
-149.989426
 21
34.466347
 31
0.0
  0
LINE
  5
62B
330
62
100
AcDbEntity
  8
Hawa6
  6
DASHSPACE
 62
     3
 48
0.0625
100
AcDbLine
 10
-152.489426
 20
34.466347
 30
0.0
 11
-149.989426
 21
34.466347
 31
0.0
  0
LINE
  5
62C
330
62
100
AcDbEntity
  8
Hawa6
  6
DASHSPACE
 62
     3
 48
0.005
100
AcDbLine
 10
-152.689438
 20
35.099312
 30
0.0
 11
-152.489426
 21
35.099312
 31
0.0
  0
LINE
  5
62D
330
62
100
AcDbEntity
  8
Hawa6
  6
DASHSPACE
 62
     3
 48
0.04
100
AcDbLine
 10
-147.88942
 20
49.966347
 30
0.0
 11
-149.489426
 21
49.966347
 31
0.0
  0
LINE
  5
62E
330
62
100
AcDbEntity
  8
Hawa6
  6
DASHSPACE
 62
     3
 48
0.12
100
AcDbLine
 10
-147.88942
 20
79.966347
 30
0.0
 11
-152.689438
 21
79.966347
 31
0.0
  0
LINE
  5
62F
330
62
100
AcDbEntity
  8
Hawa6
  6
DASHSPACE
 62
     3
 48
0.08
100
AcDbLine
 10
-144.689438
 20
79.966347
 30
0.0
 11
-147.88942
 21
79.966347
 31
0.0
  0
LINE
  5
630
330
62
100
AcDbEntity
  8
Hawa6
  6
DASHSPACE
 62
     3
 48
0.04
100
AcDbLine
 10
-147.88942
 20
78.466347
 30
0.0
 11
-149.489426
 21
78.466347
 31
0.0
  0
LINE
  5
631
330
62
100
AcDbEntity
  8
Hawa6
  6
DASHSPACE
 62
     3
 48
0.04
100
AcDbLine
 10
-147.88942
 20
76.46634699999999
 30
0.0
 11
-149.489426
 21
76.46634699999999
 31
0.0
  0
LINE
  5
632
330
62
100
AcDbEntity
  8
Hawa6
  6
DASHSPACE
 62
     3
 48
0.04
100
AcDbLine
 10
-147.88942
 20
62.466347
 30
0.0
 11
-149.489426
 21
62.466347
 31
0.0
  0
LINE
  5
633
330
62
100
AcDbEntity
  8
Hawa6
  6
DASHSPACE
 62
     3
 48
0.021651
100
AcDbLine
 10
-147.88942
 20
79.966347
 30
0.0
 11
-147.023392
 21
79.966347
 31
0.0
  0
LINE
  5
634
330
62
100
AcDbEntity
  8
Hawa6
  6
DASHSPACE
 62
     3
 48
0.053349
100
AcDbLine
 10
-144.88942
 20
79.966347
 30
0.0
 11
-147.023392
 21
79.966347
 31
0.0
  0
LINE
  5
635
330
62
100
AcDbEntity
  8
Hawa6
  6
DASHSPACE
 62
     3
 48
0.005
100
AcDbLine
 10
-144.88942
 20
79.966347
 30
0.0
 11
-144.689423
 21
79.966347
 31
0.0
  0
LINE
  5
636
330
62
100
AcDbEntity
  8
Hawa6
  6
DASHSPACE
 62
     3
100
AcDbLine
 10
-147.88942
 20
59.347191
 30
0.0
 11
-147.88942
 21
34.966347
 31
0.0
  0
LINE
  5
637
330
62
100
AcDbEntity
  8
Hawa6
  6
DASHSPACE
 62
     3
100
AcDbLine
 10
-147.88942
 20
59.347191
 30
0.0
 11
-147.88942
 21
79.966347
 31
0.0
  0
LINE
  5
638
330
62
100
AcDbEntity
  8
Hawa6
  6
DASHSPACE
 62
     3
 48
0.021651
100
AcDbLine
 10
-147.88942
 20
59.347191
 30
0.0
 11
-147.023392
 21
59.344761
 31
0.0
  0
LINE
  5
639
330
62
100
AcDbEntity
  8
Hawa6
  6
DASHSPACE
 62
     3
100
AcDbLine
 10
-147.023392
 20
59.344761
 30
0.0
 11
-147.023392
 21
79.966347
 31
0.0
  0
LINE
  5
63A
330
62
100
AcDbEntity
  8
Hawa6
  6
DASHSPACE
 62
     3
100
AcDbLine
 10
-147.023392
 20
59.344761
 30
0.0
 11
-147.023392
 21
34.466347
 31
0.0
  0
LINE
  5
63B
330
62
100
AcDbEntity
  8
Hawa6
  6
DASHSPACE
 62
     3
 48
0.005
100
AcDbLine
 10
-144.88942
 20
59.344761
 30
0.0
 11
-144.689423
 21
59.344761
 31
0.0
  0
LINE
  5
63C
330
62
100
AcDbEntity
  8
Hawa6
  6
DASHSPACE
 62
     3
 48
0.053349
100
AcDbLine
 10
-144.88942
 20
59.344761
 30
0.0
 11
-147.023392
 21
59.344761
 31
0.0
  0
LINE
  5
63D
330
62
100
AcDbEntity
  8
Hawa6
  6
DASHSPACE
 62
     3
 48
0.025
100
AcDbLine
 10
-147.88942
 20
34.966347
 30
0.0
 11
-147.023392
 21
34.466347
 31
0.0
  0
LINE
  5
63E
330
62
100
AcDbEntity
  8
Hawa6
  6
DASHSPACE
 62
     3
 48
0.058348
100
AcDbLine
 10
-144.689453
 20
34.466347
 30
0.0
 11
-147.023392
 21
34.466347
 31
0.0
  0
LINE
  5
63F
330
62
100
AcDbEntity
  8
Hawa6
  6
DASHSPACE
 62
     3
 48
0.4406560000000001
100
AcDbLine
 10
-152.439423
 20
20.192602
 30
0.0
 11
-152.439423
 21
2.566348
 31
0.0
  0
LINE
  5
640
330
62
100
AcDbEntity
  8
Hawa6
  6
DASHSPACE
 62
     3
 48
0.059344
100
AcDbLine
 10
-152.439423
 20
20.192602
 30
0.0
 11
-152.439423
 21
22.566349
 31
0.0
  0
LINE
  5
641
330
62
100
AcDbEntity
  8
Hawa6
  6
DASHSPACE
 62
     3
 48
0.193749
100
AcDbLine
 10
-144.689453
 20
20.192602
 30
0.0
 11
-152.439423
 21
20.192602
 31
0.0
  0
LINE
  5
642
330
62
100
AcDbEntity
  8
Hawa6
  6
DASHSPACE
 62
     3
 48
0.193749
100
AcDbLine
 10
-144.689453
 20
22.566349
 30
0.0
 11
-152.439423
 21
22.566349
 31
0.0
  0
LINE
  5
643
330
62
100
AcDbEntity
  8
Hawa6
  6
DASHSPACE
 62
     3
 48
0.19375
100
AcDbLine
 10
-144.689438
 20
2.566348
 30
0.0
 11
-152.439423
 21
2.566348
 31
0.0
  0
LWPOLYLINE
  5
644
330
62
100
AcDbEntity
  8
Hawa6
  6
DASHED
 62
     3
100
AcDbPolyline
 90
        8
 70
     0
 43
0.0
 10
-142.034393
 20
13.222002
 10
-142.02948
 20
13.293727
 10
-142.018539
 20
13.366415
 10
-142.001266
 20
13.440862
 10
-141.977203
 20
13.517948
 10
-141.945663
 20
13.598661
 10
-141.905716
 20
13.684132
 10
-141.856094
 20
13.775749
  0
LWPOLYLINE
  5
64E
330
62
100
AcDbEntity
  8
Hawa6
  6
DASHED
 62
     3
100
AcDbPolyline
 90
       23
 70
     0
 43
0.0
 10
-141.856094
 20
12.621049
 10
-141.889206
 20
12.680786
 10
-141.920013
 20
12.74173
 10
-141.944946
 20
12.79647
 10
-141.967499
 20
12.852233
 10
-141.98558
 20
12.903552
 10
-142.0011899999999
 20
12.955671
 10
-142.01329
 20
13.004818
 10
-142.022827
 20
13.05452
 10
-142.029419
 20
13.102475
 10
-142.033417
 20
13.150716
 10
-142.034714
 20
13.198344
 10
-142.033417
 20
13.245973
 10
-142.029434
 20
13.294155
 10
-142.022873
 20
13.342054
 10
-142.013336
 20
13.391726
 10
-142.001266
 20
13.440845
 10
-141.985657
 20
13.493018
 10
-141.96756
 20
13.544391
 10
-141.944992
 20
13.600223
 10
-141.920029
 20
13.65503
 10
-141.889221
 20
13.715994
 10
-141.856094
 20
13.775749
  0
LWPOLYLINE
  5
667
330
62
100
AcDbEntity
  8
Hawa6
  6
DASHED
 62
     3
100
AcDbPolyline
 90
       23
 70
     0
 43
0.0
 10
-141.856094
 20
12.621049
 10
-141.889435
 20
12.500729
 10
-141.920013
 20
12.379687
 10
-141.945099
 20
12.269474
 10
-141.967499
 20
12.158682
 10
-141.985672
 20
12.055459
 10
-142.0011899999999
 20
11.951805
 10
-142.013336
 20
11.8531
 10
-142.022827
 20
11.754107
 10
-142.029434
 20
11.657983
 10
-142.033417
 20
11.561714
 10
-142.034714
 20
11.466457
 10
-142.033417
 20
11.371202
 10
-142.029449
 20
11.275047
 10
-142.022873
 20
11.179037
 10
-142.013382
 20
11.080104
 10
-142.001266
 20
10.981458
 10
-141.985748
 20
10.877695
 10
-141.96756
 20
10.774364
 10
-141.945145
 20
10.663435
 10
-141.920029
 20
10.553086
 10
-141.889435
 20
10.432007
 10
-141.856094
 20
10.311647
  0
LWPOLYLINE
  5
680
330
62
100
AcDbEntity
  8
Hawa6
  6
DASHED
 62
     3
100
AcDbPolyline
 90
        8
 70
     0
 43
0.0
 10
-142.034393
 20
9.710694
 10
-142.033005
 20
9.788935999999999
 10
-142.024475
 20
9.867827
 10
-142.00856
 20
9.94838
 10
-141.984741
 20
10.031696
 10
-141.952225
 20
10.119001
 10
-141.909866
 20
10.211727
 10
-141.856094
 20
10.311647
  0
LINE
  5
68A
330
62
100
AcDbEntity
  8
Hawa6
  6
DASHED
 62
     3
 48
0.0625
100
AcDbLine
 10
-139.356094
 20
10.311647
 30
0.0
 11
-141.856094
 21
10.311647
 31
0.0
  0
LINE
  5
68B
330
62
100
AcDbEntity
  8
Hawa6
  6
DASHED
 62
     3
 48
0.0625
100
AcDbLine
 10
-139.356094
 20
9.156947
 30
0.0
 11
-141.856094
 21
9.156947
 31
0.0
  0
LWPOLYLINE
  5
68C
330
62
100
AcDbEntity
  8
Hawa6
  6
DASHED
 62
     3
100
AcDbPolyline
 90
        8
 70
     0
 43
0.0
 10
-142.034393
 20
9.710694
 10
-142.02948
 20
9.638968999999999
 10
-142.018539
 20
9.566281
 10
-142.001266
 20
9.491835
 10
-141.977203
 20
9.414747999999999
 10
-141.945663
 20
9.334035999999999
 10
-141.905716
 20
9.248564999999999
 10
-141.856094
 20
9.156947
  0
LINE
  5
696
330
62
100
AcDbEntity
  8
Hawa6
  6
DASHED
 62
     3
 48
0.0625
100
AcDbLine
 10
-141.856094
 20
12.621049
 30
0.0
 11
-139.356094
 21
12.621049
 31
0.0
  0
LINE
  5
697
330
62
100
AcDbEntity
  8
Hawa6
  6
DASHED
 62
     3
 48
0.0625
100
AcDbLine
 10
-139.356094
 20
13.775749
 30
0.0
 11
-141.856094
 21
13.775749
 31
0.0
  0
LWPOLYLINE
  5
699
330
62
100
AcDbEntity
  8
Hawa6
  6
DASHED
 62
     3
100
AcDbPolyline
 90
        8
 70
     0
 43
0.0
 10
-142.034393
 20
13.222002
 10
-142.033005
 20
13.143761
 10
-142.024475
 20
13.064869
 10
-142.00856
 20
12.984317
 10
-141.984741
 20
12.901
 10
-141.952225
 20
12.813695
 10
-141.909866
 20
12.720969
 10
-141.856094
 20
12.621049
  0
LWPOLYLINE
  5
6A3
330
62
100
AcDbEntity
  8
Hawa6
  6
DASHED
 62
     3
100
AcDbPolyline
 90
       15
 70
     0
 43
0.0
 10
-141.856094
 20
10.311647
 10
-141.905426
 20
10.220634
 10
-141.948975
 20
10.126791
 10
-141.980011
 20
10.045764
 10
-142.00499
 20
9.962673999999999
 10
-142.021408
 20
9.886525
 10
-142.031479
 20
9.809293999999999
 10
-142.034698
 20
9.734364999999998
 10
-142.031494
 20
9.659435999999999
 10
-142.021439
 20
9.582281
 10
-142.005066
 20
9.506206999999999
 10
-141.980072
 20
9.423026
 10
-141.949005
 20
9.341912999999999
 10
-141.905441
 20
9.248013
 10
-141.856094
 20
9.156947
  0
LWPOLYLINE
  5
6B4
330
62
100
AcDbEntity
  8
Hawa6
  6
DASHED
 62
     3
100
AcDbPolyline
 90
       15
 70
     0
 43
0.0
 10
-141.856094
 20
10.311647
 10
-141.905914
 20
10.495675
 10
-141.948975
 20
10.68136
 10
-141.98027
 20
10.844916
 10
-142.00499
 20
11.009596
 10
-142.021484
 20
11.162697
 10
-142.031479
 20
11.316355
 10
-142.034714
 20
11.466213
 10
-142.031494
 20
11.616072
 10
-142.021515
 20
11.769578
 10
-142.005066
 20
11.922531
 10
-141.980331
 20
12.087386
 10
-141.949005
 20
12.251118
 10
-141.905945
 20
12.436913
 10
-141.856094
 20
12.621049
  0
LINE
  5
6C6
330
62
100
AcDbEntity
  8
Hawa6
  6
DASHSPACE
 62
     3
 48
0.00689
100
AcDbLine
 10
-155.356094
 20
9.490717
 30
0.0
 11
-155.356094
 21
9.215128999999999
 31
0.0
  0
LINE
  5
6C7
330
62
100
AcDbEntity
  8
Hawa6
  6
DASHSPACE
 62
     3
 48
0.140819
100
AcDbLine
 10
-154.607315
 20
14.099096
 30
0.0
 11
-154.607315
 21
8.466349000000001
 31
0.0
  0
LINE
  5
6C8
330
62
100
AcDbEntity
  8
Hawa6
  6
DASHSPACE
 62
     3
 48
0.105671
100
AcDbLine
 10
-155.356094
 20
13.717567
 30
0.0
 11
-155.356094
 21
9.490717
 31
0.0
  0
LINE
  5
6C9
330
62
100
AcDbEntity
  8
Hawa6
  6
DASHSPACE
 62
     3
 48
0.140819
100
AcDbLine
 10
-154.607315
 20
14.466349
 30
0.0
 11
-154.607315
 21
8.833600999999999
 31
0.0
  0
LINE
  5
6CA
330
62
100
AcDbEntity
  8
Hawa6
  6
DASHED
 62
     3
 48
0.281637
100
AcDbLine
 10
-139.589417
 20
16.731844
 30
0.0
 11
-139.589417
 21
5.466347999999999
 31
0.0
  0
LINE
  5
6CB
330
62
100
AcDbEntity
  8
Hawa6
  6
DASHED
 62
     3
 48
0.018363
100
AcDbLine
 10
-139.356094
 20
6.200852999999999
 30
0.0
 11
-139.356094
 21
5.466347999999999
 31
0.0
  0
LINE
  5
6CC
330
62
100
AcDbEntity
  8
Hawa6
  6
DASHED
 62
     3
 48
0.281637
100
AcDbLine
 10
-139.589417
 20
17.466349
 30
0.0
 11
-139.589417
 21
6.200852999999999
 31
0.0
  0
LINE
  5
6CD
330
62
100
AcDbEntity
  8
Hawa6
  6
DASHED
 62
     3
 48
0.281637
100
AcDbLine
 10
-139.356094
 20
17.466349
 30
0.0
 11
-139.356094
 21
6.200852999999999
 31
0.0
  0
LINE
  5
6CE
330
62
100
AcDbEntity
  8
Hawa6
  6
DASHED
 62
     3
 48
0.140819
100
AcDbLine
 10
-142.672272
 20
14.099096
 30
0.0
 11
-142.672272
 21
8.466349000000001
 31
0.0
  0
LINE
  5
6CF
330
62
100
AcDbEntity
  8
Hawa6
  6
DASHED
 62
     3
 48
0.140819
100
AcDbLine
 10
-142.672272
 20
8.833600999999999
 30
0.0
 11
-142.672272
 21
14.466349
 31
0.0
  0
LINE
  5
6D0
330
62
100
AcDbEntity
  8
Hawa6
  6
DASHED
 62
     3
 48
0.143568
100
AcDbLine
 10
-142.530838
 20
14.150503
 30
0.0
 11
-142.530838
 21
8.407769
 31
0.0
  0
LINE
  5
6D1
330
62
100
AcDbEntity
  8
Hawa6
  6
DASHED
 62
     3
 48
0.143568
100
AcDbLine
 10
-142.530838
 20
8.782192999999999
 30
0.0
 11
-142.530838
 21
14.524927
 31
0.0
  0
LINE
  5
6D2
330
62
100
AcDbEntity
  8
Hawa6
  6
DASHED
 62
     3
 48
0.066667
100
AcDbLine
 10
-143.189423
 20
11.466349
 30
0.0
 11
-141.856094
 21
13.775749
 31
0.0
  0
LINE
  5
6D3
330
62
100
AcDbEntity
  8
Hawa6
  6
DASHED
 62
     3
 48
0.066667
100
AcDbLine
 10
-143.189423
 20
11.466349
 30
0.0
 11
-141.856094
 21
9.156947
 31
0.0
  0
LINE
  5
6D4
330
62
100
AcDbEntity
  8
Hawa6
  6
DASHSPACE
 62
     3
 48
0.026473
100
AcDbLine
 10
-155.356094
 20
9.215128999999999
 30
0.0
 11
-154.607315
 21
8.466349000000001
 31
0.0
  0
LINE
  5
6D5
330
62
100
AcDbEntity
  8
Hawa6
  6
DASHSPACE
 62
     3
 48
0.026473
100
AcDbLine
 10
-155.356094
 20
13.717567
 30
0.0
 11
-154.607315
 21
14.466349
 31
0.0
  0
LINE
  5
6D6
330
62
100
AcDbEntity
  8
Hawa6
  6
DASHED
 62
     3
 48
0.005833
100
AcDbLine
 10
-139.356094
 20
5.466347999999999
 30
0.0
 11
-139.589417
 21
5.466347999999999
 31
0.0
  0
LINE
  5
6D7
330
62
100
AcDbEntity
  8
Hawa6
  6
DASHED
 62
     3
 48
0.005833
100
AcDbLine
 10
-139.356094
 20
17.466349
 30
0.0
 11
-139.589417
 21
17.466349
 31
0.0
  0
LINE
  5
6D8
330
62
100
AcDbEntity
  8
Hawa6
  6
DASHED
 62
     3
 48
0.298376
100
AcDbLine
 10
-142.672272
 20
8.466349000000001
 30
0.0
 11
-154.607315
 21
8.466349000000001
 31
0.0
  0
LINE
  5
6D9
330
62
100
AcDbEntity
  8
Hawa6
  6
DASHED
 62
     3
 48
0.298376
100
AcDbLine
 10
-142.672272
 20
14.466349
 30
0.0
 11
-154.607315
 21
14.466349
 31
0.0
  0
LINE
  5
6DA
330
62
100
AcDbEntity
  8
Hawa6
  6
DASHED
 62
     3
 48
0.103995
100
AcDbLine
 10
-142.530838
 20
8.407769
 30
0.0
 11
-139.589417
 21
5.466347999999999
 31
0.0
  0
LINE
  5
6DB
330
62
100
AcDbEntity
  8
Hawa6
  6
DASHED
 62
     3
 48
0.103995
100
AcDbLine
 10
-142.530838
 20
14.524927
 30
0.0
 11
-139.589417
 21
17.466349
 31
0.0
  0
ARC
  5
6DC
330
62
100
AcDbEntity
  8
Hawa6
  6
DASHED
 62
     3
100
AcDbCircle
 10
-142.672287
 20
8.266310999999999
 30
0.0
 40
0.200036
100
AcDbArc
 50
45.004489
 51
89.99550799999999
  0
ARC
  5
6DD
330
62
100
AcDbEntity
  8
Hawa6
  6
DASHED
 62
     3
100
AcDbCircle
 10
-142.672287
 20
14.666387
 30
0.0
 40
0.200036
100
AcDbArc
 50
270.004492
 51
314.995508
  0
LINE
  5
6DE
330
62
100
AcDbEntity
  8
Hawa6
  6
DASHSPACE
 62
     3
 48
0.040134
100
AcDbLine
 10
-147.884048
 20
43.466347
 30
0.0
 11
-149.489426
 21
43.466347
 31
0.0
  0
ARC
  5
6DF
330
62
100
AcDbEntity
  8
Hawa6
  6
DASHSPACE
 62
     3
100
AcDbCircle
 10
-145.940689
 20
54.952564
 30
0.0
 40
11.530005
100
AcDbArc
 50
252.077712
 51
260.285379
  0
ARC
  5
6E0
330
62
100
AcDbEntity
  8
Hawa6
  6
DASHSPACE
 62
     3
100
AcDbCircle
 10
-145.939087
 20
38.473927
 30
0.0
 40
11.536407
100
AcDbArc
 50
99.73615
 51
107.924496
  0
LINE
  5
6E1
330
62
100
AcDbEntity
  8
Hawa6
 62
     3
 48
0.0625
100
AcDbLine
 10
-152.189423
 20
82.966347
 30
0.0
 11
-154.689423
 21
82.966347
 31
0.0
  0
LINE
  5
6E2
330
62
100
AcDbEntity
  8
Hawa6
 62
     3
 48
0.1875
100
AcDbLine
 10
-144.689423
 20
82.966347
 30
0.0
 11
-152.189423
 21
82.966347
 31
0.0
  0
LINE
  5
6E3
330
62
100
AcDbEntity
  8
Hawa6
 62
     3
 48
0.025001
100
AcDbLine
 10
-154.689423
 20
81.966324
 30
0.0
 11
-154.689423
 21
82.966347
 31
0.0
  0
LINE
  5
6E4
330
62
100
AcDbEntity
  8
Hawa6
 62
     3
 48
0.325
100
AcDbLine
 10
-153.689423
 20
82.966347
 30
0.0
 11
-153.689423
 21
95.966347
 31
0.0
  0
LINE
  5
6E5
330
62
100
AcDbEntity
  8
Hawa6
 62
     3
 48
0.325
100
AcDbLine
 10
-145.689423
 20
82.966347
 30
0.0
 11
-145.689423
 21
95.966347
 31
0.0
  0
LINE
  5
6E6
330
62
100
AcDbEntity
  8
Hawa6
 62
     3
 48
0.085048
100
AcDbLine
 10
-149.610992
 20
83.96634699999999
 30
0.0
 11
-153.012924
 21
83.96634699999999
 31
0.0
  0
LINE
  5
6E7
330
62
100
AcDbEntity
  8
Hawa6
 62
     3
 48
0.10236
100
AcDbLine
 10
-145.689423
 20
83.96634699999999
 30
0.0
 11
-149.783813
 21
83.96634699999999
 31
0.0
  0
LINE
  5
6E8
330
62
100
AcDbEntity
  8
Hawa6
 62
     3
 48
0.09764
100
AcDbLine
 10
-149.783813
 20
83.96634699999999
 30
0.0
 11
-153.689423
 21
83.96634699999999
 31
0.0
  0
LINE
  5
6E9
330
62
100
AcDbEntity
  8
Hawa6
 62
     3
 48
0.299999
100
AcDbLine
 10
-153.012924
 20
83.96634699999999
 30
0.0
 11
-153.012924
 21
95.966324
 31
0.0
  0
LINE
  5
6EA
330
62
100
AcDbEntity
  8
Hawa6
 62
     3
 48
0.299999
100
AcDbLine
 10
-146.365921
 20
83.96634699999999
 30
0.0
 11
-146.365921
 21
95.966324
 31
0.0
  0
LINE
  5
6EB
330
62
100
AcDbEntity
  8
Hawa6
 62
     3
 48
0.030183
100
AcDbLine
 10
-153.012924
 20
83.96634699999999
 30
0.0
 11
-153.689423
 21
82.966347
 31
0.0
  0
LINE
  5
6EC
330
62
100
AcDbEntity
  8
Hawa6
 62
     3
 48
0.030183
100
AcDbLine
 10
-146.365921
 20
83.96634699999999
 30
0.0
 11
-145.689423
 21
82.966347
 31
0.0
  0
LINE
  5
6ED
330
62
100
AcDbEntity
  8
Hawa6
 62
     3
 48
0.025001
100
AcDbLine
 10
-144.689423
 20
81.966324
 30
0.0
 11
-144.689423
 21
82.966347
 31
0.0
  0
LINE
  5
6EE
330
62
100
AcDbEntity
  8
Hawa6
 62
     3
 48
0.27486
100
AcDbLine
 10
-145.689423
 20
82.966347
 30
0.0
 11
-145.689423
 21
93.96076200000001
 31
0.0
  0
ARC
  5
6EF
330
62
100
AcDbEntity
  8
Hawa6
 62
     3
100
AcDbCircle
 10
-145.7948
 20
111.966347
 30
0.0
 40
1.0
100
AcDbArc
 50
269.999997
 51
358.000003
  0
LINE
  5
6F0
330
62
100
AcDbEntity
  8
Hawa6
 62
     3
 48
0.075919
100
AcDbLine
 10
-154.583435
 20
93.001251
 30
0.0
 11
-154.689423
 21
89.96634699999999
 31
0.0
  0
LINE
  5
6F1
330
62
100
AcDbEntity
  8
Hawa6
 62
     3
 48
0.075919
100
AcDbLine
 10
-154.583435
 20
111.93145
 30
0.0
 11
-154.689423
 21
114.966347
 31
0.0
  0
LINE
  5
6F2
330
62
100
AcDbEntity
  8
Hawa6
 62
     3
 48
0.194731
100
AcDbLine
 10
-145.7948
 20
110.966347
 30
0.0
 11
-153.584045
 21
110.966347
 31
0.0
  0
ARC
  5
6F3
330
62
100
AcDbEntity
  8
Hawa6
 62
     3
100
AcDbCircle
 10
-153.584045
 20
111.966347
 30
0.0
 40
1.0
100
AcDbArc
 50
181.999997
 51
270.000004
  0
LINE
  5
6F4
330
62
100
AcDbEntity
  8
Hawa6
 62
     3
 48
0.07
100
AcDbLine
 10
-141.88942
 20
114.966347
 30
0.0
 11
-144.689423
 21
114.966347
 31
0.0
  0
ARC
  5
6F5
330
62
100
AcDbEntity
  8
Hawa6
 62
     3
100
AcDbCircle
 10
-141.88942
 20
114.76635
 30
0.0
 40
0.2
100
AcDbArc
 50
359.999997
 51
90.00000300000001
  0
LINE
  5
6F6
330
62
100
AcDbEntity
  8
Hawa6
 62
     3
 48
0.07
100
AcDbLine
 10
-154.689423
 20
114.966347
 30
0.0
 11
-157.489426
 21
114.966347
 31
0.0
  0
ARC
  5
6F7
330
62
100
AcDbEntity
  8
Hawa6
 62
     3
100
AcDbCircle
 10
-157.489426
 20
114.76635
 30
0.0
 40
0.2
100
AcDbArc
 50
89.999996
 51
180.000005
  0
LINE
  5
701
330
62
100
AcDbEntity
  8
Hawa6
 62
     3
 48
0.006249
100
AcDbLine
 10
-160.689423
 20
103.961349
 30
0.0
 11
-160.439453
 21
103.961349
 31
0.0
  0
LINE
  5
702
330
62
100
AcDbEntity
  8
Hawa6
 62
     3
 48
0.006251
100
AcDbLine
 10
-138.939453
 20
103.961349
 30
0.0
 11
-138.689423
 21
103.961349
 31
0.0
  0
LINE
  5
703
330
62
100
AcDbEntity
  8
Hawa6
 62
     3
 48
0.00625
100
AcDbLine
 10
-160.689423
 20
103.961349
 30
0.0
 11
-160.439438
 21
103.961349
 31
0.0
  0
LINE
  5
704
330
62
100
AcDbEntity
  8
Hawa6
 62
     3
 48
0.00625
100
AcDbLine
 10
-138.939438
 20
103.961349
 30
0.0
 11
-138.689423
 21
103.961349
 31
0.0
  0
LINE
  5
705
330
62
100
AcDbEntity
  8
Hawa6
 62
     3
 48
0.038256
100
AcDbLine
 10
-154.689423
 20
113.436127
 30
0.0
 11
-154.689423
 21
114.966347
 31
0.0
  0
LINE
  5
706
330
62
100
AcDbEntity
  8
Hawa6
 62
     3
 48
0.028967
100
AcDbLine
 10
-154.583435
 20
110.772758
 30
0.0
 11
-154.583435
 21
111.93145
 31
0.0
  0
LINE
  5
707
330
62
100
AcDbEntity
  8
Hawa6
 62
     3
 48
0.111011
100
AcDbLine
 10
-154.689423
 20
108.995689
 30
0.0
 11
-154.689423
 21
113.436127
 31
0.0
  0
LINE
  5
708
330
62
100
AcDbEntity
  8
Hawa6
 62
     3
 48
0.149379
100
AcDbLine
 10
-154.689423
 20
89.96634699999999
 30
0.0
 11
-154.689423
 21
95.941498
 31
0.0
  0
LINE
  5
709
330
62
100
AcDbEntity
  8
Hawa6
 62
     3
 48
0.074129
100
AcDbLine
 10
-154.583435
 20
93.001251
 30
0.0
 11
-154.583435
 21
95.96640800000001
 31
0.0
  0
LINE
  5
70A
330
62
100
AcDbEntity
  8
Hawa6
 62
     3
 48
0.045162
100
AcDbLine
 10
-154.583435
 20
108.966278
 30
0.0
 11
-154.583435
 21
110.772758
 31
0.0
  0
LINE
  5
70B
330
62
100
AcDbEntity
  8
Hawa6
 62
     3
 48
0.026014
100
AcDbLine
 10
-153.584045
 20
109.925797
 30
0.0
 11
-153.584045
 21
110.966347
 31
0.0
  0
LINE
  5
70C
330
62
100
AcDbEntity
  8
Hawa6
 62
     3
 48
0.023986
100
AcDbLine
 10
-153.584045
 20
108.966347
 30
0.0
 11
-153.584045
 21
109.925797
 31
0.0
  0
LINE
  5
70D
330
62
100
AcDbEntity
  8
Hawa6
 62
     3
 48
0.038256
100
AcDbLine
 10
-144.689423
 20
113.436127
 30
0.0
 11
-144.689423
 21
114.966347
 31
0.0
  0
LINE
  5
70E
330
62
100
AcDbEntity
  8
Hawa6
 62
     3
 48
0.028967
100
AcDbLine
 10
-144.79541
 20
110.772758
 30
0.0
 11
-144.79541
 21
111.93145
 31
0.0
  0
LINE
  5
70F
330
62
100
AcDbEntity
  8
Hawa6
 62
     3
 48
0.111011
100
AcDbLine
 10
-144.689423
 20
108.995689
 30
0.0
 11
-144.689423
 21
113.436127
 31
0.0
  0
LINE
  5
710
330
62
100
AcDbEntity
  8
Hawa6
 62
     3
 48
0.149379
100
AcDbLine
 10
-144.689423
 20
89.96634699999999
 30
0.0
 11
-144.689423
 21
95.941498
 31
0.0
  0
LINE
  5
711
330
62
100
AcDbEntity
  8
Hawa6
 62
     3
 48
0.074129
100
AcDbLine
 10
-144.79541
 20
93.001251
 30
0.0
 11
-144.79541
 21
95.96640800000001
 31
0.0
  0
LINE
  5
712
330
62
100
AcDbEntity
  8
Hawa6
 62
     3
 48
0.045162
100
AcDbLine
 10
-144.79541
 20
108.966278
 30
0.0
 11
-144.79541
 21
110.772758
 31
0.0
  0
LINE
  5
713
330
62
100
AcDbEntity
  8
Hawa6
 62
     3
 48
0.026014
100
AcDbLine
 10
-145.7948
 20
109.925797
 30
0.0
 11
-145.7948
 21
110.966347
 31
0.0
  0
LINE
  5
714
330
62
100
AcDbEntity
  8
Hawa6
 62
     3
 48
0.023986
100
AcDbLine
 10
-145.7948
 20
108.966347
 30
0.0
 11
-145.7948
 21
109.925797
 31
0.0
  0
LINE
  5
715
330
62
100
AcDbEntity
  8
Hawa6
 62
     3
 48
0.038256
100
AcDbLine
 10
-157.489426
 20
113.436127
 30
0.0
 11
-157.489426
 21
114.966347
 31
0.0
  0
LINE
  5
716
330
62
100
AcDbEntity
  8
Hawa6
 62
     3
 48
0.111745
100
AcDbLine
 10
-157.489426
 20
108.966324
 30
0.0
 11
-157.489426
 21
113.436127
 31
0.0
  0
LINE
  5
717
330
62
100
AcDbEntity
  8
Hawa6
 62
     3
 48
0.150001
100
AcDbLine
 10
-157.489426
 20
89.96634699999999
 30
0.0
 11
-157.489426
 21
95.96636999999999
 31
0.0
  0
LINE
  5
718
330
62
100
AcDbEntity
  8
Hawa6
 62
     3
 48
0.107357
100
AcDbLine
 10
-157.689423
 20
108.966316
 30
0.0
 11
-157.689423
 21
113.260612
 31
0.0
  0
LINE
  5
719
330
62
100
AcDbEntity
  8
Hawa6
 62
     3
 48
0.145
100
AcDbLine
 10
-157.689423
 20
90.166351
 30
0.0
 11
-157.689423
 21
95.96636999999999
 31
0.0
  0
LINE
  5
71A
330
62
100
AcDbEntity
  8
Hawa6
 62
     3
 48
0.037643
100
AcDbLine
 10
-157.689423
 20
113.260612
 30
0.0
 11
-157.689423
 21
114.76635
 31
0.0
  0
LINE
  5
71B
330
62
100
AcDbEntity
  8
Hawa6
 62
     3
 48
0.037643
100
AcDbLine
 10
-141.689423
 20
113.260612
 30
0.0
 11
-141.689423
 21
114.76635
 31
0.0
  0
LINE
  5
71C
330
62
100
AcDbEntity
  8
Hawa6
 62
     3
 48
0.107357
100
AcDbLine
 10
-141.689423
 20
108.966316
 30
0.0
 11
-141.689423
 21
113.260612
 31
0.0
  0
LINE
  5
71D
330
62
100
AcDbEntity
  8
Hawa6
 62
     3
 48
0.145
100
AcDbLine
 10
-141.689423
 20
90.166351
 30
0.0
 11
-141.689423
 21
95.96636999999999
 31
0.0
  0
LINE
  5
71E
330
62
100
AcDbEntity
  8
Hawa6
 62
     3
 48
0.038256
100
AcDbLine
 10
-141.88942
 20
113.436127
 30
0.0
 11
-141.88942
 21
114.966347
 31
0.0
  0
LINE
  5
71F
330
62
100
AcDbEntity
  8
Hawa6
 62
     3
 48
0.111745
100
AcDbLine
 10
-141.88942
 20
108.966324
 30
0.0
 11
-141.88942
 21
113.436127
 31
0.0
  0
LINE
  5
720
330
62
100
AcDbEntity
  8
Hawa6
 62
     3
 48
0.150001
100
AcDbLine
 10
-141.88942
 20
89.96634699999999
 30
0.0
 11
-141.88942
 21
95.96636999999999
 31
0.0
  0
ARC
  5
724
330
62
100
AcDbEntity
  8
Hawa6
 62
     3
100
AcDbCircle
 10
-153.584045
 20
92.966347
 30
0.0
 40
1.0
100
AcDbArc
 50
96.04936399999999
 51
178.000003
  0
LINE
  5
725
330
62
100
AcDbEntity
  8
Hawa6
 62
     3
 48
0.075919
100
AcDbLine
 10
-144.79541
 20
111.93145
 30
0.0
 11
-144.689423
 21
114.966347
 31
0.0
  0
LINE
  5
726
330
62
100
AcDbEntity
  8
Hawa6
 62
     3
 48
0.075919
100
AcDbLine
 10
-144.79541
 20
93.001251
 30
0.0
 11
-144.689423
 21
89.96634699999999
 31
0.0
  0
ARC
  5
729
330
62
100
AcDbEntity
  8
Hawa6
 62
     3
100
AcDbCircle
 10
-145.7948
 20
92.966347
 30
0.0
 40
1.0
100
AcDbArc
 50
2.000000999999999
 51
83.95211600000001
  0
LINE
  5
72B
330
62
100
AcDbEntity
  8
Hawa6
 62
     3
 48
0.07
100
AcDbLine
 10
-157.489426
 20
89.96634699999999
 30
0.0
 11
-154.689423
 21
89.96634699999999
 31
0.0
  0
ARC
  5
72C
330
62
100
AcDbEntity
  8
Hawa6
 62
     3
100
AcDbCircle
 10
-157.489426
 20
90.166351
 30
0.0
 40
0.2
100
AcDbArc
 50
179.999991
 51
270.000001
  0
LINE
  5
72F
330
62
100
AcDbEntity
  8
Hawa6
 62
     3
 48
0.07
100
AcDbLine
 10
-144.689423
 20
89.96634699999999
 30
0.0
 11
-141.88942
 21
89.96634699999999
 31
0.0
  0
ARC
  5
730
330
62
100
AcDbEntity
  8
Hawa6
 62
     3
100
AcDbCircle
 10
-141.88942
 20
90.166351
 30
0.0
 40
0.2
100
AcDbArc
 50
269.999997
 51
0.000003
  0
LINE
  5
732
330
62
100
AcDbEntity
  8
Hawa6
 62
     3
 48
0.037375
100
AcDbLine
 10
-160.689423
 20
103.961349
 30
0.0
 11
-160.689423
 21
102.466347
 31
0.0
  0
LINE
  5
733
330
62
100
AcDbEntity
  8
Hawa6
 62
     3
 48
0.037375
100
AcDbLine
 10
-160.689423
 20
102.466347
 30
0.0
 11
-160.689423
 21
100.971352
 31
0.0
  0
LINE
  5
734
330
62
100
AcDbEntity
  8
Hawa6
 62
     3
 48
0.037375
100
AcDbLine
 10
-138.689423
 20
103.961349
 30
0.0
 11
-138.689423
 21
102.466347
 31
0.0
  0
LINE
  5
735
330
62
100
AcDbEntity
  8
Hawa6
 62
     3
 48
0.037375
100
AcDbLine
 10
-138.689423
 20
102.466347
 30
0.0
 11
-138.689423
 21
100.971352
 31
0.0
  0
LINE
  5
738
330
62
100
AcDbEntity
  8
Hawa6
 62
     3
 48
0.006251
100
AcDbLine
 10
-138.689423
 20
100.971352
 30
0.0
 11
-138.939453
 21
100.971352
 31
0.0
  0
LINE
  5
739
330
62
100
AcDbEntity
  8
Hawa6
 62
     3
 48
0.006249
100
AcDbLine
 10
-160.439453
 20
100.971352
 30
0.0
 11
-160.689423
 21
100.971352
 31
0.0
  0
LINE
  5
73A
330
62
100
AcDbEntity
  8
Hawa6
 62
     3
 48
0.025
100
AcDbLine
 10
-159.439423
 20
108.966347
 30
0.0
 11
-160.439423
 21
108.966347
 31
0.0
  0
LINE
  5
73B
330
62
100
AcDbEntity
  8
Hawa6
 62
     3
 48
0.4875
100
AcDbLine
 10
-159.439423
 20
108.966347
 30
0.0
 11
-139.939423
 21
108.966347
 31
0.0
  0
LINE
  5
73C
330
62
100
AcDbEntity
  8
Hawa6
 62
     3
 48
0.025
100
AcDbLine
 10
-138.939423
 20
108.966347
 30
0.0
 11
-139.939423
 21
108.966347
 31
0.0
  0
LINE
  5
73D
330
62
100
AcDbEntity
  8
Hawa6
 62
     3
 48
0.325
100
AcDbLine
 10
-160.439423
 20
95.966347
 30
0.0
 11
-160.439423
 21
108.966347
 31
0.0
  0
LINE
  5
73E
330
62
100
AcDbEntity
  8
Hawa6
 62
     3
 48
0.025
100
AcDbLine
 10
-159.439423
 20
95.966347
 30
0.0
 11
-160.439423
 21
95.966347
 31
0.0
  0
LINE
  5
73F
330
62
100
AcDbEntity
  8
Hawa6
 62
     3
 48
0.325
100
AcDbLine
 10
-159.439423
 20
95.966347
 30
0.0
 11
-159.439423
 21
108.966347
 31
0.0
  0
LINE
  5
740
330
62
100
AcDbEntity
  8
Hawa6
 62
     3
 48
0.4875
100
AcDbLine
 10
-159.439423
 20
95.966347
 30
0.0
 11
-139.939423
 21
95.966347
 31
0.0
  0
LINE
  5
741
330
62
100
AcDbEntity
  8
Hawa6
 62
     3
 48
0.325
100
AcDbLine
 10
-139.939423
 20
95.966347
 30
0.0
 11
-139.939423
 21
108.966347
 31
0.0
  0
LINE
  5
742
330
62
100
AcDbEntity
  8
Hawa6
 62
     3
 48
0.025
100
AcDbLine
 10
-138.939423
 20
95.966347
 30
0.0
 11
-139.939423
 21
95.966347
 31
0.0
  0
LINE
  5
743
330
62
100
AcDbEntity
  8
Hawa6
 62
     3
 48
0.325
100
AcDbLine
 10
-138.939423
 20
95.966347
 30
0.0
 11
-138.939423
 21
108.966347
 31
0.0
  0
LINE
  5
744
330
62
100
AcDbEntity
  8
Hawa6
 62
     3
 48
0.0425
100
AcDbLine
 10
-142.989426
 20
-9.033650999999998
 30
0.0
 11
-144.689423
 21
-9.033650999999998
 31
0.0
  0
LINE
  5
745
330
62
100
AcDbEntity
  8
Hawa6
 62
     3
100
AcDbLine
 10
-142.989426
 20
-9.033650999999998
 30
0.0
 11
-142.989426
 21
27.966349
 31
0.0
  0
LINE
  5
746
330
62
100
AcDbEntity
  8
Hawa6
 62
     3
 48
0.0425
100
AcDbLine
 10
-142.989426
 20
27.966349
 30
0.0
 11
-144.689423
 21
27.966349
 31
0.0
  0
LINE
  5
747
330
62
100
AcDbEntity
  8
Hawa5
 62
     1
100
AcDbLine
 10
-144.689423
 20
27.966349
 30
0.0
 11
-144.689423
 21
-9.033650999999998
 31
0.0
  0
LINE
  5
748
330
62
100
AcDbEntity
  8
Hawa6
 62
     3
 48
0.0425
100
AcDbLine
 10
-142.989426
 20
81.966347
 30
0.0
 11
-144.689423
 21
81.966347
 31
0.0
  0
LINE
  5
749
330
62
100
AcDbEntity
  8
Hawa6
 62
     3
100
AcDbLine
 10
-142.989426
 20
27.966349
 30
0.0
 11
-142.989426
 21
81.966347
 31
0.0
  0
LINE
  5
74A
330
62
100
AcDbEntity
  8
Hawa5
 62
     1
100
AcDbLine
 10
-144.689423
 20
27.966349
 30
0.0
 11
-144.689423
 21
81.966347
 31
0.0
  0
LINE
  5
74B
330
62
100
AcDbEntity
  8
Hawa6
 62
     3
 48
0.035239
100
AcDbLine
 10
-142.989426
 20
81.966347
 30
0.0
 11
-141.57988
 21
81.966347
 31
0.0
  0
LINE
  5
74C
330
62
100
AcDbEntity
  8
Hawa6
 62
     3
100
AcDbLine
 10
-141.57988
 20
27.966349
 30
0.0
 11
-141.57988
 21
81.966347
 31
0.0
  0
LINE
  5
74D
330
62
100
AcDbEntity
  8
Hawa6
 62
     3
 48
0.035239
100
AcDbLine
 10
-141.57988
 20
27.966349
 30
0.0
 11
-142.989426
 21
27.966349
 31
0.0
  0
LINE
  5
74E
330
62
100
AcDbEntity
  8
Hawa6
 62
     3
 48
0.0602
100
AcDbLine
 10
-139.171875
 20
81.966347
 30
0.0
 11
-141.57988
 21
81.966347
 31
0.0
  0
LINE
  5
74F
330
62
100
AcDbEntity
  8
Hawa6
 62
     3
100
AcDbLine
 10
-139.171875
 20
27.966349
 30
0.0
 11
-139.171875
 21
81.966347
 31
0.0
  0
LINE
  5
750
330
62
100
AcDbEntity
  8
Hawa6
 62
     3
 48
0.0602
100
AcDbLine
 10
-139.171875
 20
27.966349
 30
0.0
 11
-141.57988
 21
27.966349
 31
0.0
  0
LINE
  5
751
330
62
100
AcDbEntity
  8
Hawa6
 62
     3
 48
0.012061
100
AcDbLine
 10
-139.171875
 20
81.966347
 30
0.0
 11
-138.689423
 21
81.966347
 31
0.0
  0
LINE
  5
752
330
62
100
AcDbEntity
  8
Hawa6
 62
     3
100
AcDbLine
 10
-138.689423
 20
27.966349
 30
0.0
 11
-138.689423
 21
81.966347
 31
0.0
  0
LINE
  5
753
330
62
100
AcDbEntity
  8
Hawa6
 62
     3
 48
0.012061
100
AcDbLine
 10
-138.689423
 20
27.966349
 30
0.0
 11
-139.171875
 21
27.966349
 31
0.0
  0
LINE
  5
754
330
62
100
AcDbEntity
  8
Hawa6
 62
     3
100
AcDbLine
 10
-138.689423
 20
1.305411
 30
0.0
 11
-138.689423
 21
27.966349
 31
0.0
  0
LINE
  5
755
330
62
100
AcDbEntity
  8
Hawa6
 62
     3
100
AcDbLine
 10
-139.171875
 20
-1.430751
 30
0.0
 11
-139.171875
 21
27.966349
 31
0.0
  0
LINE
  5
756
330
62
100
AcDbEntity
  8
Hawa6
 62
     3
100
AcDbLine
 10
-141.57988
 20
-8.046682
 30
0.0
 11
-141.57988
 21
27.966349
 31
0.0
  0
ARC
  5
757
330
62
100
AcDbEntity
  8
Hawa6
 62
     3
100
AcDbCircle
 10
-146.689423
 20
1.305411
 30
0.0
 40
8.0
100
AcDbArc
 50
340.000001
 51
0.0
  0
LINE
  5
758
330
62
100
AcDbEntity
  8
Hawa6
 62
     3
 48
0.176013
100
AcDbLine
 10
-139.171875
 20
-1.430751
 30
0.0
 11
-141.57988
 21
-8.046682
 31
0.0
  0
ARC
  5
759
330
62
100
AcDbEntity
  8
Hawa6
 62
     3
100
AcDbCircle
 10
-142.989426
 20
-7.533652
 30
0.0
 40
1.5
100
AcDbArc
 50
269.999997
 51
340.000001
  0
LINE
  5
75A
330
62
100
AcDbEntity
  8
Hawa5
 62
     1
100
AcDbLine
 10
-152.689423
 20
27.966349
 30
0.0
 11
-152.689423
 21
81.966347
 31
0.0
  0
LINE
  5
75B
330
62
100
AcDbEntity
  8
Hawa6
 62
     3
 48
0.0425
100
AcDbLine
 10
-154.38942
 20
27.966349
 30
0.0
 11
-152.689423
 21
27.966349
 31
0.0
  0
LINE
  5
75C
330
62
100
AcDbEntity
  8
Hawa6
 62
     3
100
AcDbLine
 10
-154.38942
 20
27.966349
 30
0.0
 11
-154.38942
 21
81.966347
 31
0.0
  0
LINE
  5
75D
330
62
100
AcDbEntity
  8
Hawa6
 62
     3
 48
0.0425
100
AcDbLine
 10
-154.38942
 20
81.966347
 30
0.0
 11
-152.689423
 21
81.966347
 31
0.0
  0
LINE
  5
75E
330
62
100
AcDbEntity
  8
Hawa6
 62
     3
 48
0.035239
100
AcDbLine
 10
-155.798965
 20
27.966349
 30
0.0
 11
-154.38942
 21
27.966349
 31
0.0
  0
LINE
  5
75F
330
62
100
AcDbEntity
  8
Hawa6
 62
     3
100
AcDbLine
 10
-155.798965
 20
27.966349
 30
0.0
 11
-155.798965
 21
81.966347
 31
0.0
  0
LINE
  5
760
330
62
100
AcDbEntity
  8
Hawa6
 62
     3
 48
0.035239
100
AcDbLine
 10
-155.798965
 20
81.966347
 30
0.0
 11
-154.38942
 21
81.966347
 31
0.0
  0
LINE
  5
761
330
62
100
AcDbEntity
  8
Hawa6
 62
     3
 48
0.0602
100
AcDbLine
 10
-158.20697
 20
27.966349
 30
0.0
 11
-155.798965
 21
27.966349
 31
0.0
  0
LINE
  5
762
330
62
100
AcDbEntity
  8
Hawa6
 62
     3
100
AcDbLine
 10
-158.20697
 20
27.966349
 30
0.0
 11
-158.20697
 21
81.966347
 31
0.0
  0
LINE
  5
763
330
62
100
AcDbEntity
  8
Hawa6
 62
     3
 48
0.0602
100
AcDbLine
 10
-158.20697
 20
81.966347
 30
0.0
 11
-155.798965
 21
81.966347
 31
0.0
  0
LINE
  5
764
330
62
100
AcDbEntity
  8
Hawa6
 62
     3
 48
0.012061
100
AcDbLine
 10
-158.689423
 20
27.966349
 30
0.0
 11
-158.20697
 21
27.966349
 31
0.0
  0
LINE
  5
765
330
62
100
AcDbEntity
  8
Hawa6
 62
     3
100
AcDbLine
 10
-158.689423
 20
27.966349
 30
0.0
 11
-158.689423
 21
81.966347
 31
0.0
  0
LINE
  5
766
330
62
100
AcDbEntity
  8
Hawa6
 62
     3
 48
0.012061
100
AcDbLine
 10
-158.689423
 20
81.966347
 30
0.0
 11
-158.20697
 21
81.966347
 31
0.0
  0
LINE
  5
767
330
62
100
AcDbEntity
  8
Hawa5
 62
     1
100
AcDbLine
 10
-152.689423
 20
-9.033650999999998
 30
0.0
 11
-152.689423
 21
27.966349
 31
0.0
  0
LINE
  5
768
330
62
100
AcDbEntity
  8
Hawa6
 62
     3
100
AcDbLine
 10
-154.38942
 20
-9.033650999999998
 30
0.0
 11
-154.38942
 21
27.966349
 31
0.0
  0
LINE
  5
769
330
62
100
AcDbEntity
  8
Hawa6
 62
     3
 48
0.0425
100
AcDbLine
 10
-154.38942
 20
-9.033650999999998
 30
0.0
 11
-152.689423
 21
-9.033650999999998
 31
0.0
  0
LINE
  5
76A
330
62
100
AcDbEntity
  8
Hawa6
 62
     3
100
AcDbLine
 10
-158.20697
 20
-1.430751
 30
0.0
 11
-158.20697
 21
27.966349
 31
0.0
  0
LINE
  5
76B
330
62
100
AcDbEntity
  8
Hawa6
 62
     3
100
AcDbLine
 10
-158.689423
 20
1.305411
 30
0.0
 11
-158.689423
 21
27.966349
 31
0.0
  0
LINE
  5
76C
330
62
100
AcDbEntity
  8
Hawa6
 62
     3
100
AcDbLine
 10
-155.798965
 20
-8.046682
 30
0.0
 11
-155.798965
 21
27.966349
 31
0.0
  0
ARC
  5
76D
330
62
100
AcDbEntity
  8
Hawa6
 62
     3
100
AcDbCircle
 10
-150.689423
 20
1.305411
 30
0.0
 40
8.0
100
AcDbArc
 50
180.000005
 51
200.000001
  0
LINE
  5
76E
330
62
100
AcDbEntity
  8
Hawa6
 62
     3
 48
0.176013
100
AcDbLine
 10
-158.20697
 20
-1.430751
 30
0.0
 11
-155.798965
 21
-8.046682
 31
0.0
  0
ARC
  5
76F
330
62
100
AcDbEntity
  8
Hawa6
 62
     3
100
AcDbCircle
 10
-154.38942
 20
-7.533652
 30
0.0
 40
1.5
100
AcDbArc
 50
200.000004
 51
269.999997
  0
ENDBLK
  5
773
330
62
100
AcDbEntity
  8
HAWA1
100
AcDbBlockEnd
  0
ENDSEC
  0
SECTION
  2
ENTITIES
  0
DIMENSION
  5
26
330
A
100
AcDbEntity
  8
HAWA1
 62
     0
100
AcDbDimension
  2
*D0
 10
89.43616699999999
 20
133.850957
 30
0.0
 11
120.145373
 21
133.850957
 31
0.0
 70
   160
 71
     5
 42
-1.0
 52
89.999523
  3
STANDARD
100
AcDbAlignedDimension
 13
109.436167
 23
150.511632
 33
0.0
 14
89.43616699999999
 24
150.511632
 34
0.0
 50
179.999046
100
AcDbRotatedDimension
  0
DIMENSION
  5
28
330
A
100
AcDbEntity
  8
HAWA1
 62
     0
100
AcDbDimension
  2
*D1
 10
122.322772
 20
240.511632
 30
0.0
 11
122.322772
 21
225.511632
 31
0.0
 70
   160
 71
     5
 42
-1.0
 52
89.999523
  3
STANDARD
100
AcDbAlignedDimension
 13
112.436167
 23
210.511632
 33
0.0
 14
132.322772
 24
240.511632
 34
0.0
 50
89.999523
100
AcDbRotatedDimension
  0
DIMENSION
  5
2A
330
A
100
AcDbEntity
  8
HAWA1
 62
     0
100
AcDbDimension
  2
*D2
 10
122.322772
 20
210.511632
 30
0.0
 11
122.322772
 21
197.101979
 31
0.0
 70
   160
 71
     5
 42
-1.0
 52
89.999523
  3
STANDARD
100
AcDbAlignedDimension
 13
103.436167
 23
205.511632
 33
0.0
 14
112.436167
 24
210.511632
 34
0.0
 50
89.999523
100
AcDbRotatedDimension
  0
DIMENSION
  5
2C
330
A
100
AcDbEntity
  8
HAWA1
 62
     0
100
AcDbDimension
  2
*D3
 10
138.328217
 20
205.511632
 30
0.0
 11
138.328217
 21
223.011632
 31
0.0
 70
   160
  1
<>{}{%%p3}
 71
     5
 42
-1.0
 52
89.999523
  3
STANDARD
100
AcDbAlignedDimension
 13
148.328217
 23
240.511632
 33
0.0
 14
103.436167
 24
205.511632
 34
0.0
 50
269.998569
100
AcDbRotatedDimension
1001
ACAD
1000
DSTYLE
1002
{
1070
    71
1070
     0
1070
    72
1070
     0
1070
    47
1040
3.0
1070
    48
1040
3.0
1002
}
  0
DIMENSION
  5
2E
330
A
100
AcDbEntity
  8
HAWA1
 62
     0
100
AcDbDimension
  2
*D4
 10
100.536167
 20
247.33492
 30
0.0
 11
113.688304
 21
247.33492
 31
0.0
 70
   161
  1
%%c<>
 71
     5
 42
-1.0
 52
89.999523
  3
STANDARD
100
AcDbAlignedDimension
 13
96.33616700000001
 23
240.511632
 33
0.0
 14
100.536167
 24
240.511632
 34
0.0
  0
DIMENSION
  5
30
330
A
100
AcDbEntity
  8
HAWA1
 62
     0
100
AcDbDimension
  2
*D5
 10
112.436167
 20
262.303471
 30
0.0
 11
98.436167
 21
262.303471
 31
0.0
 70
   161
 71
     5
 42
-1.0
 52
89.999523
  3
STANDARD
100
AcDbAlignedDimension
 13
84.43616699999999
 23
240.511632
 33
0.0
 14
112.436167
 24
240.511632
 34
0.0
  0
DIMENSION
  5
32
330
A
100
AcDbEntity
  8
HAWA1
 62
     0
100
AcDbDimension
  2
*D6
 10
98.436167
 20
108.662273
 30
0.0
 11
113.766726
 21
108.662273
 31
0.0
 70
   160
 71
     5
 42
-1.0
 52
89.999523
  3
STANDARD
100
AcDbAlignedDimension
 13
103.436167
 23
118.662273
 33
0.0
 14
98.436167
 24
87.51163199999998
 34
0.0
 50
179.999046
100
AcDbRotatedDimension
  0
DIMENSION
  5
34
330
A
100
AcDbEntity
  8
HAWA1
 62
     0
100
AcDbDimension
  2
*D7
 10
98.436167
 20
108.662273
 30
0.0
 11
86.052409
 21
108.662273
 31
0.0
 70
   160
 71
     5
 42
-1.0
 52
89.999523
  3
STANDARD
100
AcDbAlignedDimension
 13
95.43616699999999
 23
125.383414
 33
0.0
 14
98.436167
 24
87.51163199999998
 34
0.0
 50
359.998092
100
AcDbRotatedDimension
  0
DIMENSION
  5
36
330
A
100
AcDbEntity
  8
HAWA1
 62
     0
100
AcDbDimension
  2
*D8
 10
103.436167
 20
95.511405
 30
0.0
 11
112.109912
 21
95.511405
 31
0.0
 70
   161
 71
     5
 42
-1.0
 52
89.999523
  3
STANDARD
100
AcDbAlignedDimension
 13
95.43616699999999
 23
85.511405
 33
0.0
 14
103.436167
 24
85.511405
 34
0.0
  0
DIMENSION
  5
38
330
A
100
AcDbEntity
  8
HAWA1
 62
     0
100
AcDbDimension
  2
*D9
 10
95.43616699999999
 20
95.511405
 30
0.0
 11
125.481776
 21
95.511405
 31
0.0
 70
   161
  1
(<>
 71
     5
 42
-1.0
 52
89.999523
  3
STANDARD
100
AcDbAlignedDimension
 13
103.436167
 23
85.511405
 33
0.0
 14
95.43616699999999
 24
85.511405
 34
0.0
  0
DIMENSION
  5
3A
330
A
100
AcDbEntity
  8
HAWA1
 62
     0
100
AcDbDimension
  2
*D10
 10
103.436167
 20
95.511405
 30
0.0
 11
146.323401
 21
95.511405
 31
0.0
 70
   161
  1
-12,7
 71
     5
 42
-1.0
 52
89.999523
  3
STANDARD
100
AcDbAlignedDimension
 13
95.43616699999999
 23
85.511405
 33
0.0
 14
103.436167
 24
85.511405
 34
0.0
  0
LINE
  5
3B
330
A
100
AcDbEntity
  8
Hawa5
  6
DASHDOT
 62
     1
 48
0.090758
100
AcDbLine
 10
98.436167
 20
241.187137
 30
0.0
 11
98.436167
 21
237.556804
 31
0.0
  0
LINE
  5
3C
330
A
100
AcDbEntity
  8
Hawa6
  6
DASHSPACE
 62
     3
 48
0.048
100
AcDbLine
 10
98.47616100000001
 20
179.711631
 30
0.0
 11
100.396159
 21
179.711631
 31
0.0
  0
LINE
  5
3D
330
A
100
AcDbEntity
  8
Hawa5
  6
DASHDOT
 62
     1
 48
0.030001
100
AcDbLine
 10
98.436167
 20
204.411601
 30
0.0
 11
98.436167
 21
205.611636
 31
0.0
  0
LINE
  5
3E
330
A
100
AcDbEntity
  8
Hawa6
  6
DASHSPACE
 62
     3
 48
0.011829
100
AcDbLine
 10
98.436167
 20
172.428886
 30
0.0
 11
98.436167
 21
171.955745
 31
0.0
  0
LINE
  5
3F
330
A
100
AcDbEntity
  8
Hawa6
  6
DASHDOT
 62
     3
100
AcDbLine
 10
111.63621
 20
225.01163
 30
0.0
 11
85.23562099999999
 21
225.01163
 31
0.0
  0
LINE
  5
40
330
A
100
AcDbEntity
  8
Hawa5
 62
     1
 48
0.035355
100
AcDbLine
 10
95.73617
 20
204.51163
 30
0.0
 11
96.73617
 21
205.51163
 31
0.0
  0
LINE
  5
41
330
A
100
AcDbEntity
  8
Hawa6
 62
     3
 48
0.2
100
AcDbLine
 10
94.43616699999999
 20
207.621867
 30
0.0
 11
102.436167
 21
207.621867
 31
0.0
  0
LINE
  5
42
330
A
100
AcDbEntity
  8
Hawa5
  6
DASHDOT
 62
     1
100
AcDbLine
 10
98.436167
 20
234.511653
 30
0.0
 11
98.436167
 21
87.51163000000001
 31
0.0
  0
LINE
  5
43
330
A
100
AcDbEntity
  8
Hawa6
 62
     3
 48
0.00787
100
AcDbLine
 10
95.73617
 20
204.51163
 30
0.0
 11
95.42135100000001
 21
204.51163
 31
0.0
  0
LINE
  5
44
330
A
100
AcDbEntity
  8
Hawa5
 62
     1
 48
0.035355
100
AcDbLine
 10
103.436152
 20
204.511615
 30
0.0
 11
102.436152
 21
205.511615
 31
0.0
  0
LINE
  5
45
330
A
100
AcDbEntity
  8
Hawa4
  6
DASHED
 62
     4
 48
0.0625
100
AcDbLine
 10
100.536173
 20
238.01163
 30
0.0
 11
100.536173
 21
240.5116299999999
 31
0.0
  0
LINE
  5
46
330
A
100
AcDbEntity
  8
Hawa4
 62
     4
 48
0.2975
100
AcDbLine
 10
112.436167
 20
240.5116299999999
 30
0.0
 11
100.536173
 21
240.5116299999999
 31
0.0
  0
LINE
  5
47
330
A
100
AcDbEntity
  8
Hawa4
 62
     4
100
AcDbLine
 10
112.436167
 20
210.51163
 30
0.0
 11
112.436167
 21
240.5116299999999
 31
0.0
  0
LINE
  5
48
330
A
100
AcDbEntity
  8
Hawa4
 62
     4
 48
0.225
100
AcDbLine
 10
112.436167
 20
210.51163
 30
0.0
 11
103.436167
 21
210.51163
 31
0.0
  0
LINE
  5
49
330
A
100
AcDbEntity
  8
Hawa4
 62
     4
 48
0.05
100
AcDbLine
 10
103.436167
 20
210.51163
 30
0.0
 11
103.436167
 21
212.51163
 31
0.0
  0
LINE
  5
4A
330
A
100
AcDbEntity
  8
Hawa4
 62
     4
 48
0.0825
100
AcDbLine
 10
103.436167
 20
212.51163
 30
0.0
 11
106.73617
 21
212.51163
 31
0.0
  0
LINE
  5
4B
330
A
100
AcDbEntity
  8
Hawa4
 62
     4
 48
0.03
100
AcDbLine
 10
106.73617
 20
212.51163
 30
0.0
 11
106.73617
 21
213.711635
 31
0.0
  0
ARC
  5
4C
330
A
100
AcDbEntity
  8
Hawa4
 62
     4
100
AcDbCircle
 10
107.536173
 20
213.711635
 30
0.0
 40
0.8
100
AcDbArc
 50
90.00000300000001
 51
180.000005
  0
LINE
  5
4D
330
A
100
AcDbEntity
  8
Hawa4
 62
     4
 48
0.035
100
AcDbLine
 10
107.536173
 20
214.51163
 30
0.0
 11
108.936167
 21
214.51163
 31
0.0
  0
LINE
  5
4E
330
A
100
AcDbEntity
  8
Hawa4
 62
     4
 48
0.144889
100
AcDbLine
 10
108.936167
 20
214.51163
 30
0.0
 11
110.436167
 21
220.109706
 31
0.0
  0
LINE
  5
4F
330
A
100
AcDbEntity
  8
Hawa4
 62
     4
 48
0.372548
100
AcDbLine
 10
110.436167
 20
220.109706
 30
0.0
 11
110.436167
 21
235.01163
 31
0.0
  0
ARC
  5
50
330
A
100
AcDbEntity
  8
Hawa4
 62
     4
100
AcDbCircle
 10
107.436167
 20
235.01163
 30
0.0
 40
3.0
100
AcDbArc
 50
0.0
 51
90.00000300000001
  0
LINE
  5
51
330
A
100
AcDbEntity
  8
Hawa4
 62
     4
 48
0.1725
100
AcDbLine
 10
100.536173
 20
238.01163
 30
0.0
 11
107.436167
 21
238.01163
 31
0.0
  0
LINE
  5
52
330
A
100
AcDbEntity
  8
Hawa4
  6
DASHED
 62
     4
 48
0.0625
100
AcDbLine
 10
96.33616100000001
 20
238.01163
 30
0.0
 11
96.33616100000001
 21
240.5116299999999
 31
0.0
  0
LINE
  5
53
330
A
100
AcDbEntity
  8
Hawa4
 62
     4
 48
0.1725
100
AcDbLine
 10
89.43616699999999
 20
238.01163
 30
0.0
 11
96.33616100000001
 21
238.01163
 31
0.0
  0
ARC
  5
54
330
A
100
AcDbEntity
  8
Hawa4
 62
     4
100
AcDbCircle
 10
89.43616699999999
 20
235.01163
 30
0.0
 40
3.0
100
AcDbArc
 50
90.00000300000001
 51
180.000005
  0
LINE
  5
55
330
A
100
AcDbEntity
  8
Hawa4
 62
     4
 48
0.372548
100
AcDbLine
 10
86.436167
 20
220.109706
 30
0.0
 11
86.436167
 21
235.01163
 31
0.0
  0
LINE
  5
56
330
A
100
AcDbEntity
  8
Hawa4
 62
     4
 48
0.144889
100
AcDbLine
 10
87.93616699999999
 20
214.51163
 30
0.0
 11
86.436167
 21
220.109706
 31
0.0
  0
LINE
  5
57
330
A
100
AcDbEntity
  8
Hawa4
 62
     4
 48
0.035
100
AcDbLine
 10
87.93616699999999
 20
214.51163
 30
0.0
 11
89.336161
 21
214.51163
 31
0.0
  0
ARC
  5
58
330
A
100
AcDbEntity
  8
Hawa4
 62
     4
100
AcDbCircle
 10
89.336161
 20
213.711635
 30
0.0
 40
0.8
100
AcDbArc
 50
0.00001
 51
90.00000300000001
  0
LINE
  5
59
330
A
100
AcDbEntity
  8
Hawa4
 62
     4
 48
0.03
100
AcDbLine
 10
90.13616400000001
 20
212.51163
 30
0.0
 11
90.13616400000001
 21
213.711635
 31
0.0
  0
LINE
  5
5A
330
A
100
AcDbEntity
  8
Hawa4
 62
     4
 48
0.0825
100
AcDbLine
 10
90.13616400000001
 20
212.51163
 30
0.0
 11
93.436167
 21
212.51163
 31
0.0
  0
LINE
  5
5B
330
A
100
AcDbEntity
  8
Hawa4
 62
     4
 48
0.05
100
AcDbLine
 10
93.436167
 20
210.51163
 30
0.0
 11
93.436167
 21
212.51163
 31
0.0
  0
LINE
  5
5C
330
A
100
AcDbEntity
  8
Hawa4
 62
     4
 48
0.225
100
AcDbLine
 10
93.436167
 20
210.51163
 30
0.0
 11
84.43616699999999
 21
210.51163
 31
0.0
  0
LINE
  5
5D
330
A
100
AcDbEntity
  8
Hawa4
 62
     4
100
AcDbLine
 10
84.43616699999999
 20
210.51163
 30
0.0
 11
84.43616699999999
 21
240.5116299999999
 31
0.0
  0
LINE
  5
5E
330
A
100
AcDbEntity
  8
Hawa4
 62
     4
 48
0.2975
100
AcDbLine
 10
96.33616100000001
 20
240.5116299999999
 30
0.0
 11
84.43616699999999
 21
240.5116299999999
 31
0.0
  0
LINE
  5
77A
330
A
100
AcDbEntity
  8
Hawa2
 62
     9
 48
0.042575
100
AcDbLine
 10
111.231974
 20
210.51163
 30
0.0
 11
112.436167
 21
211.715815
 31
0.0
  0
LINE
  5
77B
330
A
100
AcDbEntity
  8
Hawa2
 62
     9
 48
0.192574
100
AcDbLine
 10
106.989344
 20
210.51163
 30
0.0
 11
112.436167
 21
215.95846
 31
0.0
  0
LINE
  5
77C
330
A
100
AcDbEntity
  8
Hawa2
 62
     9
 48
0.046334
100
AcDbLine
 10
103.436167
 20
211.201098
 30
0.0
 11
104.746699
 21
212.51163
 31
0.0
  0
LINE
  5
77D
330
A
100
AcDbEntity
  8
Hawa2
 62
     9
 48
0.09541
100
AcDbLine
 10
109.737574
 20
217.502497
 30
0.0
 11
112.436167
 21
220.201098
 31
0.0
  0
LINE
  5
77E
330
A
100
AcDbEntity
  8
Hawa2
 62
     9
 48
0.070711
100
AcDbLine
 10
110.436167
 20
222.443736
 30
0.0
 11
112.436167
 21
224.443736
 31
0.0
  0
LINE
  5
77F
330
A
100
AcDbEntity
  8
Hawa2
 62
     9
 48
0.070711
100
AcDbLine
 10
110.436167
 20
226.686381
 30
0.0
 11
112.436167
 21
228.686381
 31
0.0
  0
LINE
  5
780
330
A
100
AcDbEntity
  8
Hawa2
 62
     9
 48
0.070711
100
AcDbLine
 10
110.436167
 20
230.929019
 30
0.0
 11
112.436167
 21
232.929019
 31
0.0
  0
LINE
  5
781
330
A
100
AcDbEntity
  8
Hawa2
 62
     9
 48
0.070976
100
AcDbLine
 10
110.428675
 20
235.164164
 30
0.0
 11
112.436167
 21
237.171664
 31
0.0
  0
LINE
  5
782
330
A
100
AcDbEntity
  8
Hawa2
 62
     9
 48
0.09897
100
AcDbLine
 10
108.734202
 20
237.712336
 30
0.0
 11
111.533503
 21
240.5116299999999
 31
0.0
  0
LINE
  5
783
330
A
100
AcDbEntity
  8
Hawa2
 62
     9
 48
0.088388
100
AcDbLine
 10
104.790858
 20
238.01163
 30
0.0
 11
107.290858
 21
240.5116299999999
 31
0.0
  0
LINE
  5
784
330
A
100
AcDbEntity
  8
Hawa2
 62
     9
 48
0.088388
100
AcDbLine
 10
100.548213
 20
238.01163
 30
0.0
 11
103.048213
 21
240.5116299999999
 31
0.0
  0
LINE
  5
785
330
A
100
AcDbEntity
  8
Hawa2
 62
     9
 48
0.070711
100
AcDbLine
 10
90.018778
 20
210.51163
 30
0.0
 11
92.018778
 21
212.51163
 31
0.0
  0
LINE
  5
786
330
A
100
AcDbEntity
  8
Hawa2
 62
     9
 48
0.138441
100
AcDbLine
 10
85.77613299999999
 20
210.51163
 30
0.0
 11
89.69182799999998
 21
214.427317
 31
0.0
  0
LINE
  5
787
330
A
100
AcDbEntity
  8
Hawa2
 62
     9
 48
0.105792
100
AcDbLine
 10
84.43616699999997
 20
213.414302
 30
0.0
 11
87.428416
 21
216.406558
 31
0.0
  0
LINE
  5
788
330
A
100
AcDbEntity
  8
Hawa2
 62
     9
 48
0.074094
100
AcDbLine
 10
84.43616699999997
 20
217.656939
 30
0.0
 11
86.53185499999997
 21
219.752619
 31
0.0
  0
LINE
  5
789
330
A
100
AcDbEntity
  8
Hawa2
 62
     9
 48
0.070711
100
AcDbLine
 10
84.43616699999997
 20
221.899584
 30
0.0
 11
86.43616699999999
 21
223.899584
 31
0.0
  0
LINE
  5
78A
330
A
100
AcDbEntity
  8
Hawa2
 62
     9
 48
0.070711
100
AcDbLine
 10
84.43616699999997
 20
226.142222
 30
0.0
 11
86.43616699999999
 21
228.142222
 31
0.0
  0
LINE
  5
78B
330
A
100
AcDbEntity
  8
Hawa2
 62
     9
 48
0.001082
100
AcDbLine
 10
96.30556700000001
 20
238.01163
 30
0.0
 11
96.33616099999997
 21
238.0422240000001
 31
0.0
  0
LINE
  5
78C
330
A
100
AcDbEntity
  8
Hawa2
 62
     9
 48
0.070711
100
AcDbLine
 10
84.43616699999997
 20
230.384867
 30
0.0
 11
86.43616699999999
 21
232.384867
 31
0.0
  0
LINE
  5
78D
330
A
100
AcDbEntity
  8
Hawa2
 62
     9
 48
0.088388
100
AcDbLine
 10
92.06293699999998
 20
238.01163
 30
0.0
 11
94.56293699999998
 21
240.5116299999999
 31
0.0
  0
LINE
  5
78E
330
A
100
AcDbEntity
  8
Hawa2
 62
     9
 48
0.208035
100
AcDbLine
 10
84.43616699999997
 20
234.627505
 30
0.0
 11
90.32029200000001
 21
240.5116299999999
 31
0.0
  0
LINE
  5
78F
330
A
100
AcDbEntity
  8
Hawa2
 62
     9
 48
0.058035
100
AcDbLine
 10
84.43616699999997
 20
238.870143
 30
0.0
 11
86.07764699999998
 21
240.5116299999999
 31
0.0
  0
LINE
  5
797
330
A
100
AcDbEntity
  8
Hawa4
 62
     4
 48
0.35
100
AcDbLine
 10
98.43616699999998
 20
240.5116299999999
 30
0.0
 11
84.43616699999997
 21
240.5116299999999
 31
0.0
  0
LINE
  5
798
330
A
100
AcDbEntity
  8
Hawa4
 62
     4
 48
0.35
100
AcDbLine
 10
112.436167
 20
240.5116299999999
 30
0.0
 11
98.43616699999998
 21
240.5116299999999
 31
0.0
  0
LINE
  5
7A3
330
A
100
AcDbEntity
  8
Hawa4
 62
     4
 48
0.2175
100
AcDbLine
 10
98.73617000000001
 20
238.01163
 30
0.0
 11
107.436167
 21
238.01163
 31
0.0
  0
LINE
  5
7A4
330
A
100
AcDbEntity
  8
Hawa4
 62
     4
 48
0.010607
100
AcDbLine
 10
98.73617000000001
 20
238.01163
 30
0.0
 11
98.43616699999998
 21
238.311633
 31
0.0
  0
LINE
  5
7A5
330
A
100
AcDbEntity
  8
Hawa4
 62
     4
 48
0.010607
100
AcDbLine
 10
98.13616399999999
 20
238.01163
 30
0.0
 11
98.43616699999998
 21
238.311633
 31
0.0
  0
LINE
  5
7A6
330
A
100
AcDbEntity
  8
Hawa4
 62
     4
 48
0.2175
100
AcDbLine
 10
89.43616699999997
 20
238.01163
 30
0.0
 11
98.13616399999999
 21
238.01163
 31
0.0
  0
LINE
  5
7AC
330
A
100
AcDbEntity
  8
Hawa4
  6
DASHED
 62
     4
 48
0.0625
100
AcDbLine
 10
96.33616099999997
 20
238.01163
 30
0.0
 11
96.33616099999997
 21
240.5116299999999
 31
0.0
  0
LINE
  5
7B0
330
A
100
AcDbEntity
  8
Hawa5
 62
     1
100
AcDbLine
 10
58.43616699999998
 20
240.5116299999999
 30
0.0
 11
138.436167
 21
240.5116299999999
 31
0.0
  0
LINE
  5
7B1
330
A
100
AcDbEntity
  8
Hawa5
 62
     1
 48
0.088765
100
AcDbLine
 10
99.586787
 20
235.111628
 30
0.0
 11
96.03617300000001
 21
235.111628
 31
0.0
  0
LINE
  5
7B2
330
A
100
AcDbEntity
  8
Hawa5
 62
     1
 48
0.031234
100
AcDbLine
 10
100.836161
 20
235.111628
 30
0.0
 11
99.586787
 21
235.111628
 31
0.0
  0
LINE
  5
7B3
330
A
100
AcDbEntity
  8
Hawa5
  6
DASHED
 62
     1
 48
0.050756
100
AcDbLine
 10
96.56640099999998
 20
236.6116279999999
 30
0.0
 11
94.53617300000001
 21
236.6116279999999
 31
0.0
  0
LINE
  5
7B4
330
A
100
AcDbEntity
  8
Hawa5
 62
     1
 48
0.144244
100
AcDbLine
 10
100.305934
 20
236.6116279999999
 30
0.0
 11
94.53617300000001
 21
236.6116279999999
 31
0.0
  0
LINE
  5
7B5
330
A
100
AcDbEntity
  8
Hawa5
 62
     1
 48
0.050756
100
AcDbLine
 10
102.336161
 20
236.6116279999999
 30
0.0
 11
100.305934
 21
236.6116279999999
 31
0.0
  0
LINE
  5
7B6
330
A
100
AcDbEntity
  8
Hawa5
  6
DASHED
 62
     1
 48
0.144244
100
AcDbLine
 10
102.336161
 20
236.6116279999999
 30
0.0
 11
96.56640099999998
 21
236.6116279999999
 31
0.0
  0
LINE
  5
7B7
330
A
100
AcDbEntity
  8
Hawa5
  6
DASHED
 62
     1
 48
0.089998
100
AcDbLine
 10
98.136088
 20
238.01163
 30
0.0
 11
94.53617300000001
 21
238.01163
 31
0.0
  0
LINE
  5
7B8
330
A
100
AcDbEntity
  8
Hawa5
 62
     1
 48
0.015004
100
AcDbLine
 10
98.73623099999997
 20
238.01163
 30
0.0
 11
98.136088
 21
238.01163
 31
0.0
  0
LINE
  5
7B9
330
A
100
AcDbEntity
  8
Hawa5
  6
DASHED
 62
     1
 48
0.039243
100
AcDbLine
 10
100.305934
 20
238.01163
 30
0.0
 11
98.73623099999997
 21
238.01163
 31
0.0
  0
LINE
  5
7BA
330
A
100
AcDbEntity
  8
Hawa5
  6
DASHED
 62
     1
 48
0.050756
100
AcDbLine
 10
102.336161
 20
238.01163
 30
0.0
 11
100.305934
 21
238.01163
 31
0.0
  0
LINE
  5
7BB
330
A
100
AcDbEntity
  8
Hawa5
  6
DASHED
 62
     1
 48
0.046232
100
AcDbLine
 10
99.68616699999998
 20
238.76163
 30
0.0
 11
97.83687799999999
 21
238.76163
 31
0.0
  0
LINE
  5
7BC
330
A
100
AcDbEntity
  8
Hawa5
  6
DASHED
 62
     1
 48
0.046232
100
AcDbLine
 10
99.03545599999999
 20
238.76163
 30
0.0
 11
97.18616699999998
 21
238.76163
 31
0.0
  0
ARC
  5
7BD
330
A
100
AcDbEntity
  8
Hawa5
  6
DASHED
 62
     1
100
AcDbCircle
 10
93.94802299999998
 20
258.545344
 30
0.0
 40
19.642349
100
AcDbArc
 50
283.208184
 51
285.011107
  0
ARC
  5
7BE
330
A
100
AcDbEntity
  8
Hawa5
  6
DASHED
 62
     1
100
AcDbCircle
 10
89.962031
 20
296.308192
 30
0.0
 40
57.820766
100
AcDbArc
 50
278.427529
 51
279.252192
  0
ARC
  5
7BF
330
A
100
AcDbEntity
  8
Hawa5
  6
DASHED
 62
     1
100
AcDbCircle
 10
97.289332
 20
251.568415
 30
0.0
 40
12.484691
100
AcDbArc
 50
279.074628
 51
282.077343
  0
ARC
  5
7C0
330
A
100
AcDbEntity
  8
Hawa5
  6
DASHED
 62
     1
100
AcDbCircle
 10
99.44048600000002
 20
241.740039
 30
0.0
 40
2.423258999999999
100
AcDbArc
 50
280.9629769999997
 51
291.1586460000001
  0
LWPOLYLINE
  5
7C1
330
A
100
AcDbEntity
  8
Hawa5
  6
DASHED
 62
     1
100
AcDbPolyline
 90
       17
 70
     0
 43
0.0
 10
100.314921
 20
239.480799
 10
100.349116
 20
239.497149
 10
100.381953
 20
239.516062
 10
100.401515
 20
239.529864
 10
100.410533
 20
239.537745
 10
100.422557
 20
239.551325
 10
100.429499
 20
239.562335
 10
100.434336
 20
239.574237
 10
100.436167
 20
239.586589
 10
100.434367
 20
239.598933
 10
100.429545
 20
239.610842
 10
100.422618
 20
239.621859
 10
100.410609
 20
239.63544
 10
100.401606
 20
239.643321
 10
100.38206
 20
239.65713
 10
100.349238
 20
239.676051
 10
100.315058
 20
239.692401
  0
LWPOLYLINE
  5
7C2
330
A
100
AcDbEntity
  8
Hawa5
  6
DASHED
 62
     1
100
AcDbPolyline
 90
       23
 70
     0
 43
0.0
 10
100.315058
 20
239.692401
 10
100.271693
 20
239.710154
 10
100.227564
 20
239.725978
 10
100.17303
 20
239.74351
 10
100.118037
 20
239.759539
 10
99.98780299999999
 20
239.793101
 10
99.83851099999998
 20
239.826663
 10
99.67196099999998
 20
239.860217
 10
99.49019900000001
 20
239.893778
 10
99.295451
 20
239.92734
 10
98.87667299999998
 20
239.994479
 10
98.21480799999998
 20
240.095172
 10
97.78267900000001
 20
240.162287
 10
97.57734200000001
 20
240.195849
 10
97.38254799999999
 20
240.229411
 10
97.20070900000001
 20
240.26298
 10
97.03408299999999
 20
240.296549
 10
96.884715
 20
240.330119
 10
96.75446599999999
 20
240.363681
 10
96.699458
 20
240.37971
 10
96.64492299999999
 20
240.397235
 10
96.60079399999998
 20
240.413058
 10
96.557414
 20
240.430796
  0
LWPOLYLINE
  5
7C3
330
A
100
AcDbEntity
  8
Hawa5
  6
DASHED
 62
     1
100
AcDbPolyline
 90
       17
 70
     0
 43
0.0
 10
96.557414
 20
240.430796
 10
96.52321899999998
 20
240.447146
 10
96.49036700000001
 20
240.466067
 10
96.47080499999999
 20
240.479876
 10
96.461787
 20
240.487757
 10
96.44976300000001
 20
240.501345
 10
96.44281999999998
 20
240.512362
 10
96.43798299999996
 20
240.524272
 10
96.43616699999999
 20
240.536624
 10
96.43798299999996
 20
240.548976
 10
96.44281999999998
 20
240.560893
 10
96.44976300000001
 20
240.57191
 10
96.461787
 20
240.585498
 10
96.47080499999999
 20
240.593379
 10
96.49036700000001
 20
240.607188
 10
96.52321899999998
 20
240.626116
 10
96.557414
 20
240.642466
  0
LWPOLYLINE
  5
7C4
330
A
100
AcDbEntity
  8
Hawa5
  6
DASHED
 62
     1
100
AcDbPolyline
 90
       23
 70
     0
 43
0.0
 10
96.557414
 20
240.642466
 10
96.60079399999998
 20
240.660212
 10
96.64492299999999
 20
240.676028
 10
96.699458
 20
240.693553
 10
96.75445000000001
 20
240.709582
 10
96.88468399999999
 20
240.743136
 10
97.033991
 20
240.776698
 10
97.20058699999999
 20
240.81026
 10
97.38241100000001
 20
240.843821
 10
97.57720400000001
 20
240.877391
 10
97.99590600000001
 20
240.944514
 10
98.65763299999997
 20
241.045184
 10
99.08980799999998
 20
241.112307
 10
99.295176
 20
241.145877
 10
99.48995499999998
 20
241.179446
 10
99.67174799999998
 20
241.213008
 10
99.83832800000001
 20
241.246562
 10
99.98763499999999
 20
241.280116
 10
100.117854
 20
241.313677
 10
100.172862
 20
241.329699
 10
100.227397
 20
241.347232
 10
100.271525
 20
241.363055
 10
100.314921
 20
241.380793
  0
LWPOLYLINE
  5
7C5
330
A
100
AcDbEntity
  8
Hawa5
  6
DASHED
 62
     1
100
AcDbPolyline
 90
       17
 70
     0
 43
0.0
 10
100.314921
 20
241.380793
 10
100.349131
 20
241.397151
 10
100.381983
 20
241.416079
 10
100.401545
 20
241.429888
 10
100.410563
 20
241.43777
 10
100.422572
 20
241.451365
 10
100.429515
 20
241.462382
 10
100.434352
 20
241.474291
 10
100.436167
 20
241.486643
 10
100.434352
 20
241.498995
 10
100.429515
 20
241.510905
 10
100.422572
 20
241.521922
 10
100.410548
 20
241.535502
 10
100.40153
 20
241.543383
 10
100.381968
 20
241.557192
 10
100.349116
 20
241.576113
 10
100.314921
 20
241.592463
  0
LWPOLYLINE
  5
7C6
330
A
100
AcDbEntity
  8
Hawa5
  6
DASHED
 62
     1
100
AcDbPolyline
 90
       23
 70
     0
 43
0.0
 10
100.314921
 20
241.592463
 10
100.27154
 20
241.610202
 10
100.227427
 20
241.626017
 10
100.172877
 20
241.64355
 10
100.117884
 20
241.659579
 10
99.98763499999999
 20
241.693141
 10
99.83826700000001
 20
241.72671
 10
99.67165599999999
 20
241.760279
 10
99.48986300000001
 20
241.793833
 10
99.29513
 20
241.827395
 10
98.87650599999998
 20
241.894503
 10
98.214701
 20
241.995188
 10
97.78249599999998
 20
242.062319
 10
97.577174
 20
242.095874
 10
97.38244100000001
 20
242.129435
 10
97.20067899999998
 20
242.162982
 10
97.034114
 20
242.196543
 10
96.88479099999998
 20
242.230097
 10
96.75452700000001
 20
242.263659
 10
96.69950400000001
 20
242.279689
 10
96.644953
 20
242.297228
 10
96.60080999999999
 20
242.313052
 10
96.55742899999999
 20
242.33079
  0
LWPOLYLINE
  5
7C7
330
A
100
AcDbEntity
  8
Hawa5
  6
DASHED
 62
     1
100
AcDbPolyline
 90
       17
 70
     0
 43
0.0
 10
96.55742899999999
 20
242.33079
 10
96.52321899999998
 20
242.347155
 10
96.49035099999998
 20
242.366076
 10
96.47079000000001
 20
242.379885
 10
96.461772
 20
242.387767
 10
96.44976300000001
 20
242.401354
 10
96.44281999999998
 20
242.412371
 10
96.43798299999996
 20
242.424281
 10
96.43616699999999
 20
242.436633
 10
96.43798299999996
 20
242.448985
 10
96.44281999999998
 20
242.460894
 10
96.44976300000001
 20
242.471911
 10
96.461787
 20
242.485491
 10
96.47079000000001
 20
242.493373
 10
96.49036700000001
 20
242.507189
 10
96.52321899999998
 20
242.52611
 10
96.55742899999999
 20
242.542468
  0
LWPOLYLINE
  5
7C8
330
A
100
AcDbEntity
  8
Hawa5
  6
DASHED
 62
     1
100
AcDbPolyline
 90
       23
 70
     0
 43
0.0
 10
96.55742899999999
 20
242.542468
 10
96.60080999999999
 20
242.560214
 10
96.644938
 20
242.576029
 10
96.699488
 20
242.593562
 10
96.754496
 20
242.609591
 10
96.88474499999998
 20
242.643153
 10
97.03406800000001
 20
242.676707
 10
97.20060199999998
 20
242.710261
 10
97.382334
 20
242.743815
 10
97.577037
 20
242.777362
 10
97.995677
 20
242.844477
 10
98.65748100000001
 20
242.945162
 10
99.08954899999997
 20
243.012271
 10
99.29482499999997
 20
243.045817
 10
99.489558
 20
243.079371
 10
99.671351
 20
243.112925
 10
99.837977
 20
243.146487
 10
99.98734499999997
 20
243.180049
 10
100.11764
 20
243.21361
 10
100.172648
 20
243.22964
 10
100.227214
 20
243.2471720000001
 10
100.271357
 20
243.262988
 10
100.314753
 20
243.280726
  0
LWPOLYLINE
  5
7C9
330
A
100
AcDbEntity
  8
Hawa5
  6
DASHED
 62
     1
100
AcDbPolyline
 90
       17
 70
     0
 43
0.0
 10
100.314753
 20
243.280726
 10
100.348994
 20
243.297084
 10
100.381877
 20
243.316004
 10
100.401454
 20
243.329821
 10
100.410487
 20
243.337702
 10
100.422526
 20
243.35129
 10
100.429484
 20
243.362315
 10
100.434336
 20
243.374224
 10
100.436167
 20
243.386584
 10
100.434367
 20
243.398936
 10
100.42953
 20
243.410853
 10
100.422602
 20
243.421878
 10
100.410578
 20
243.435473
 10
100.40156
 20
243.443354
 10
100.381999
 20
243.457171
 10
100.349131
 20
243.476107
 10
100.314921
 20
243.492472
  0
LWPOLYLINE
  5
7CA
330
A
100
AcDbEntity
  8
Hawa5
  6
DASHED
 62
     1
100
AcDbPolyline
 90
       23
 70
     0
 43
0.0
 10
100.314921
 20
243.492472
 10
100.271525
 20
243.510211
 10
100.227397
 20
243.526034
 10
100.172846
 20
243.543566
 10
100.117854
 20
243.559588
 10
99.98762000000001
 20
243.59315
 10
99.838313
 20
243.626704
 10
99.67174799999998
 20
243.660258
 10
99.48995499999998
 20
243.69382
 10
99.295176
 20
243.727389
 10
98.87641399999999
 20
243.79452
 10
98.21465600000001
 20
243.89519
 10
97.78254199999999
 20
243.962306
 10
97.57720400000001
 20
243.995867
 10
97.38241100000001
 20
244.029437
 10
97.20058699999999
 20
244.063006
 10
97.033991
 20
244.096568
 10
96.88466899999999
 20
244.130129
 10
96.75445000000001
 20
244.163684
 10
96.699458
 20
244.179705
 10
96.64492299999999
 20
244.197238
 10
96.60079399999998
 20
244.213053
 10
96.557414
 20
244.230792
  0
LWPOLYLINE
  5
7CB
330
A
100
AcDbEntity
  8
Hawa5
  6
DASHED
 62
     1
100
AcDbPolyline
 90
       17
 70
     0
 43
0.0
 10
96.557414
 20
244.230792
 10
96.52321899999998
 20
244.247149
 10
96.49036700000001
 20
244.26607
 10
96.47080499999999
 20
244.279879
 10
96.461787
 20
244.28776
 10
96.44976300000001
 20
244.301348
 10
96.44281999999998
 20
244.312373
 10
96.43798299999996
 20
244.324282
 10
96.43616699999999
 20
244.336634
 10
96.43798299999996
 20
244.348994
 10
96.44281999999998
 20
244.360896
 10
96.44976300000001
 20
244.37192
 10
96.461787
 20
244.385508
 10
96.47080499999999
 20
244.393382
 10
96.49036700000001
 20
244.407199
 10
96.52321899999998
 20
244.426112
 10
96.557414
 20
244.442469
  0
LWPOLYLINE
  5
7CC
330
A
100
AcDbEntity
  8
Hawa5
  6
DASHED
 62
     1
100
AcDbPolyline
 90
       23
 70
     0
 43
0.0
 10
96.557414
 20
244.442469
 10
96.60079399999998
 20
244.460208
 10
96.64490800000001
 20
244.476023
 10
96.699443
 20
244.493556
 10
96.75445000000001
 20
244.509577
 10
96.88466899999999
 20
244.543139
 10
97.03400699999995
 20
244.576701
 10
97.20061700000002
 20
244.610263
 10
97.38244100000001
 20
244.643832
 10
97.57721999999999
 20
244.677394
 10
97.99587499999999
 20
244.744509
 10
98.65760300000001
 20
244.845179
 10
99.08982299999999
 20
244.91231
 10
99.295176
 20
244.94588
 10
99.48993900000001
 20
244.979441
 10
99.67170199999998
 20
245.012995
 10
99.83826700000001
 20
245.046549
 10
99.98758999999999
 20
245.080104
 10
100.117823
 20
245.113665
 10
100.172831
 20
245.129695
 10
100.227381
 20
245.147227
 10
100.271525
 20
245.16305
 10
100.314906
 20
245.180789
  0
LWPOLYLINE
  5
7CD
330
A
100
AcDbEntity
  8
Hawa5
  6
DASHED
 62
     1
100
AcDbPolyline
 90
       17
 70
     0
 43
0.0
 10
100.314906
 20
245.180789
 10
100.349116
 20
245.197154
 10
100.381983
 20
245.216082
 10
100.401545
 20
245.229891
 10
100.410563
 20
245.237773
 10
100.422587
 20
245.251361
 10
100.429515
 20
245.262385
 10
100.434352
 20
245.274287
 10
100.436167
 20
245.286639
 10
100.434352
 20
245.298991
 10
100.429515
 20
245.3109
 10
100.422572
 20
245.321917
 10
100.410548
 20
245.335505
 10
100.40153
 20
245.343379
 10
100.381968
 20
245.357188
 10
100.349116
 20
245.376109
 10
100.314921
 20
245.392466
  0
LWPOLYLINE
  5
7CE
330
A
100
AcDbEntity
  8
Hawa5
  6
DASHED
 62
     1
100
AcDbPolyline
 90
       23
 70
     0
 43
0.0
 10
100.314921
 20
245.392466
 10
100.27154
 20
245.410205
 10
100.227412
 20
245.426028
 10
100.172862
 20
245.44356
 10
100.117854
 20
245.45959
 10
99.987574
 20
245.493159
 10
99.83822099999997
 20
245.526721
 10
99.67162599999996
 20
245.560282
 10
99.48986300000001
 20
245.593836
 10
99.29513
 20
245.627391
 10
98.87650599999998
 20
245.694499
 10
98.21463999999997
 20
245.795199
 10
97.782481
 20
245.862315
 10
97.57718899999998
 20
245.895877
 10
97.38247199999998
 20
245.929423
 10
97.20070900000001
 20
245.962985
 10
97.03412899999998
 20
245.996539
 10
96.884776
 20
246.030101
 10
96.754496
 20
246.06367
 10
96.699488
 20
246.079699
 10
96.644938
 20
246.097232
 10
96.60079399999998
 20
246.113055
 10
96.557414
 20
246.130793
  0
LWPOLYLINE
  5
7CF
330
A
100
AcDbEntity
  8
Hawa5
  6
DASHED
 62
     1
100
AcDbPolyline
 90
       17
 70
     0
 43
0.0
 10
96.557414
 20
246.130793
 10
96.52321899999998
 20
246.147151
 10
96.49036700000001
 20
246.166072
 10
96.47080499999999
 20
246.179881
 10
96.461787
 20
246.187762
 10
96.44976300000001
 20
246.20135
 10
96.44281999999998
 20
246.212367
 10
96.43798299999996
 20
246.224269
 10
96.43616699999999
 20
246.236621
 10
96.43798299999996
 20
246.248973
 10
96.44281999999998
 20
246.260882
 10
96.44976300000001
 20
246.271899
 10
96.461772
 20
246.285487
 10
96.47079000000001
 20
246.293368
 10
96.49035099999998
 20
246.307185
 10
96.523204
 20
246.326106
 10
96.557414
 20
246.342471
  0
LWPOLYLINE
  5
7D0
330
A
100
AcDbEntity
  8
Hawa5
  6
DASHED
 62
     1
100
AcDbPolyline
 90
       23
 70
     0
 43
0.0
 10
96.557414
 20
246.342471
 10
96.60080999999999
 20
246.360217
 10
96.644953
 20
246.376033
 10
96.69950400000001
 20
246.393572
 10
96.75452700000001
 20
246.409602
 10
96.884761
 20
246.443156
 10
97.03408299999999
 20
246.476718
 10
97.20064800000001
 20
246.510272
 10
97.38241100000001
 20
246.5438259999999
 10
97.577159
 20
246.57738
 10
97.99590600000001
 20
246.644511
 10
98.657725
 20
246.745204
 10
99.08980799999998
 20
246.812312
 10
99.29511499999998
 20
246.845866
 10
99.48987799999997
 20
246.879428
 10
99.67168700000001
 20
246.912989
 10
99.83829799999998
 20
246.946559
 10
99.98765099999999
 20
246.980128
 10
100.117884
 20
247.013682
 10
100.172892
 20
247.029711
 10
100.227427
 20
247.047244
 10
100.27154
 20
247.063059
 10
100.314921
 20
247.080798
  0
LWPOLYLINE
  5
7D1
330
A
100
AcDbEntity
  8
Hawa5
  6
DASHED
 62
     1
100
AcDbPolyline
 90
       17
 70
     0
 43
0.0
 10
100.314921
 20
247.080798
 10
100.349116
 20
247.097148
 10
100.381968
 20
247.116069
 10
100.40153
 20
247.129878
 10
100.410548
 20
247.137759
 10
100.422572
 20
247.151339
 10
100.429515
 20
247.162364
 10
100.434352
 20
247.174266
 10
100.436167
 20
247.186625
 10
100.434352
 20
247.198977
 10
100.429515
 20
247.210887
 10
100.422572
 20
247.221903
 10
100.410548
 20
247.235499
 10
100.40153
 20
247.24338
 10
100.381968
 20
247.257189
 10
100.349116
 20
247.27611
 10
100.314921
 20
247.292468
  0
LWPOLYLINE
  5
7D2
330
A
100
AcDbEntity
  8
Hawa5
  6
DASHED
 62
     1
100
AcDbPolyline
 90
       23
 70
     0
 43
0.0
 10
100.314921
 20
247.292468
 10
100.27154
 20
247.310206
 10
100.227412
 20
247.326029
 10
100.172877
 20
247.343554
 10
100.117869
 20
247.359584
 10
99.98765099999999
 20
247.393138
 10
99.83834299999998
 20
247.426692
 10
99.67174799999998
 20
247.460253
 10
99.48993900000001
 20
247.493823
 10
99.295146
 20
247.527392
 10
98.87641399999999
 20
247.594515
 10
98.214701
 20
247.695185
 10
97.78254199999999
 20
247.762309
 10
97.577174
 20
247.795878
 10
97.38237999999999
 20
247.82944
 10
97.20058699999999
 20
247.863009
 10
97.03400699999995
 20
247.896563
 10
96.88469899999999
 20
247.930125
 10
96.75446599999999
 20
247.963679
 10
96.69947299999998
 20
247.979701
 10
96.644938
 20
247.997233
 10
96.60080999999999
 20
248.013049
 10
96.557414
 20
248.030795
  0
LWPOLYLINE
  5
7D3
330
A
100
AcDbEntity
  8
Hawa5
  6
DASHED
 62
     1
100
AcDbPolyline
 90
       17
 70
     0
 43
0.0
 10
96.557414
 20
248.030795
 10
96.52321899999998
 20
248.047152
 10
96.49036700000001
 20
248.066073
 10
96.47079000000001
 20
248.07989
 10
96.461772
 20
248.087771
 10
96.44976300000001
 20
248.101359
 10
96.44281999999998
 20
248.112384
 10
96.43798299999996
 20
248.124293
 10
96.43616699999999
 20
248.136645
 10
96.43798299999996
 20
248.148997
 10
96.442835
 20
248.160906
 10
96.44976300000001
 20
248.171923
 10
96.461787
 20
248.185504
 10
96.47080499999999
 20
248.193385
 10
96.49036700000001
 20
248.207194
 10
96.52321899999998
 20
248.226115
 10
96.557414
 20
248.242465
  0
LWPOLYLINE
  5
7D4
330
A
100
AcDbEntity
  8
Hawa5
  6
DASHED
 62
     1
100
AcDbPolyline
 90
       23
 70
     0
 43
0.0
 10
96.557414
 20
248.242465
 10
96.60079399999998
 20
248.260203
 10
96.64490800000001
 20
248.276019
 10
96.699443
 20
248.293551
 10
96.75445000000001
 20
248.30958
 10
96.88469899999999
 20
248.343142
 10
97.034053
 20
248.376704
 10
97.200663
 20
248.410273
 10
97.38247199999998
 20
248.443835
 10
97.57720400000001
 20
248.477397
 10
97.995829
 20
248.544505
 10
98.65763299999997
 20
248.645182
 10
99.08983899999999
 20
248.712313
 10
99.29516099999998
 20
248.745875
 10
99.48989400000002
 20
248.779437
 10
99.67165599999999
 20
248.812991
 10
99.83822099999997
 20
248.846545
 10
99.98754400000001
 20
248.880099
 10
100.117808
 20
248.913661
 10
100.172831
 20
248.92969
 10
100.227381
 20
248.94723
 10
100.271525
 20
248.963046
 10
100.314906
 20
248.980792
  0
LWPOLYLINE
  5
7D5
330
A
100
AcDbEntity
  8
Hawa5
  6
DASHED
 62
     1
100
AcDbPolyline
 90
       17
 70
     0
 43
0.0
 10
100.314906
 20
248.980792
 10
100.349131
 20
248.997149
 10
100.381983
 20
249.016078
 10
100.401545
 20
249.029887
 10
100.410563
 20
249.037768
 10
100.422572
 20
249.051356
 10
100.429515
 20
249.062373
 10
100.434352
 20
249.074282
 10
100.436167
 20
249.086634
 10
100.434352
 20
249.098986
 10
100.429515
 20
249.110896
 10
100.422572
 20
249.121913
 10
100.410548
 20
249.135493
 10
100.40153
 20
249.143374
 10
100.381968
 20
249.157183
 10
100.349116
 20
249.176112
 10
100.314906
 20
249.192469
  0
LWPOLYLINE
  5
7D6
330
A
100
AcDbEntity
  8
Hawa5
  6
DASHED
 62
     1
100
AcDbPolyline
 90
       23
 70
     0
 43
0.0
 10
100.314906
 20
249.192469
 10
100.271525
 20
249.210215
 10
100.227397
 20
249.226031
 10
100.172831
 20
249.243571
 10
100.117808
 20
249.2596
 10
99.98754400000001
 20
249.293162
 10
99.83820600000001
 20
249.326724
 10
99.67164100000001
 20
249.360278
 10
99.48987799999997
 20
249.393832
 10
99.29516099999998
 20
249.427386
 10
98.87647499999999
 20
249.494509
 10
98.21459499999996
 20
249.595202
 10
97.78249599999998
 20
249.662318
 10
97.57720400000001
 20
249.695872
 10
97.38248699999999
 20
249.729426
 10
97.20069399999999
 20
249.76298
 10
97.03409800000001
 20
249.796549
 10
96.88473000000001
 20
249.830111
 10
96.75446599999999
 20
249.863681
 10
96.69947299999998
 20
249.879702
 10
96.64492299999999
 20
249.897242
 10
96.60079399999998
 20
249.913058
 10
96.557414
 20
249.930796
  0
LWPOLYLINE
  5
7D7
330
A
100
AcDbEntity
  8
Hawa5
  6
DASHED
 62
     1
100
AcDbPolyline
 90
       17
 70
     0
 43
0.0
 10
96.557414
 20
249.930796
 10
96.52321899999998
 20
249.947146
 10
96.49036700000001
 20
249.966067
 10
96.47080499999999
 20
249.979876
 10
96.461787
 20
249.987757
 10
96.44976300000001
 20
250.001345
 10
96.442835
 20
250.012355
 10
96.43798299999996
 20
250.024264
 10
96.43616699999999
 20
250.036616
 10
96.43798299999996
 20
250.048968
 10
96.44281999999998
 20
250.060877
 10
96.44974799999999
 20
250.071902
 10
96.461772
 20
250.08549
 10
96.47079000000001
 20
250.093371
 10
96.49035099999998
 20
250.10718
 10
96.523204
 20
250.126109
 10
96.55742899999999
 20
250.142466
  0
LWPOLYLINE
  5
7D8
330
A
100
AcDbEntity
  8
Hawa5
  6
DASHED
 62
     1
100
AcDbPolyline
 90
       23
 70
     0
 43
0.0
 10
96.55742899999999
 20
250.142466
 10
96.60080999999999
 20
250.160212
 10
96.644938
 20
250.176036
 10
96.699488
 20
250.193568
 10
96.754496
 20
250.20959
 10
96.88473000000001
 20
250.243151
 10
97.03403699999999
 20
250.276705
 10
97.20060199999998
 20
250.31026
 10
97.38237999999999
 20
250.343821
 10
97.577159
 20
250.377383
 10
97.99592099999998
 20
250.444522
 10
98.65769400000001
 20
250.545191
 10
99.089793
 20
250.6123
 10
99.29513
 20
250.645869
 10
99.48990899999998
 20
250.679438
 10
99.671733
 20
250.713008
 10
99.83834299999998
 20
250.746562
 10
99.98766600000001
 20
250.780131
 10
100.117884
 20
250.813685
 10
100.172877
 20
250.829707
 10
100.227427
 20
250.847239
 10
100.27154
 20
250.863063
 10
100.314921
 20
250.880793
  0
LWPOLYLINE
  5
7D9
330
A
100
AcDbEntity
  8
Hawa5
  6
DASHED
 62
     1
100
AcDbPolyline
 90
       17
 70
     0
 43
0.0
 10
100.314921
 20
250.880793
 10
100.349116
 20
250.897151
 10
100.381968
 20
250.916072
 10
100.40153
 20
250.929881
 10
100.410548
 20
250.937754
 10
100.422572
 20
250.95135
 10
100.429515
 20
250.962367
 10
100.434352
 20
250.974269
 10
100.436167
 20
250.986628
 10
100.434352
 20
250.998988
 10
100.429515
 20
251.01089
 10
100.422572
 20
251.021907
 10
100.410563
 20
251.035487
 10
100.401545
 20
251.043376
 10
100.381983
 20
251.057185
 10
100.349147
 20
251.076106
 10
100.314952
 20
251.092448
  0
LWPOLYLINE
  5
7DA
330
A
100
AcDbEntity
  8
Hawa5
  6
DASHED
 62
     1
100
AcDbPolyline
 90
       23
 70
     0
 43
0.0
 10
100.314952
 20
251.092448
 10
100.271571
 20
251.110194
 10
100.227458
 20
251.126017
 10
100.172923
 20
251.143534
 10
100.11793
 20
251.159571
 10
99.987712
 20
251.193125
 10
99.838374
 20
251.226679
 10
99.67177800000001
 20
251.260249
 10
99.48995499999998
 20
251.293818
 10
99.295176
 20
251.327387
 10
98.87650599999998
 20
251.394511
 10
98.21476199999999
 20
251.495173
 10
97.78254199999999
 20
251.562312
 10
97.577174
 20
251.595881
 10
97.38241100000001
 20
251.629435
 10
97.20063299999999
 20
251.663005
 10
97.03406800000001
 20
251.696559
 10
96.88474499999998
 20
251.730113
 10
96.75451199999997
 20
251.763667
 10
96.69950400000001
 20
251.779689
 10
96.644953
 20
251.797221
 10
96.60080999999999
 20
251.813044
 10
96.55742899999999
 20
251.83079
  0
LWPOLYLINE
  5
7DB
330
A
100
AcDbEntity
  8
Hawa5
  6
DASHED
 62
     1
100
AcDbPolyline
 90
       17
 70
     0
 43
0.0
 10
96.55742899999999
 20
251.83079
 10
96.52321899999998
 20
251.847148
 10
96.49035099999998
 20
251.866084
 10
96.47079000000001
 20
251.879893
 10
96.461772
 20
251.887767
 10
96.44974799999999
 20
251.901362
 10
96.44281999999998
 20
251.912379
 10
96.43798299999996
 20
251.924296
 10
96.43616699999999
 20
251.93664
 10
96.43798299999996
 20
251.949
 10
96.44281999999998
 20
251.960902
 10
96.44976300000001
 20
251.971919
 10
96.461787
 20
251.985499
 10
96.47080499999999
 20
251.993388
 10
96.49036700000001
 20
252.007197
 10
96.52321899999998
 20
252.026118
 10
96.557414
 20
252.04246
  0
LWPOLYLINE
  5
7DC
330
A
100
AcDbEntity
  8
Hawa5
  6
DASHED
 62
     1
100
AcDbPolyline
 90
       23
 70
     0
 43
0.0
 10
96.557414
 20
252.04246
 10
96.60079399999998
 20
252.060206
 10
96.64492299999999
 20
252.076029
 10
96.69947299999998
 20
252.093562
 10
96.75448100000002
 20
252.109584
 10
96.88474499999998
 20
252.143153
 10
97.034114
 20
252.176722
 10
97.20070900000001
 20
252.210276
 10
97.38248699999999
 20
252.243846
 10
97.57720400000001
 20
252.2774
 10
97.995829
 20
252.344508
 10
98.65769400000001
 20
252.445201
 10
99.08985399999997
 20
252.512324
 10
99.29516099999998
 20
252.545878
 10
99.48987799999997
 20
252.579432
 10
99.67164100000001
 20
252.612986
 10
99.83820600000001
 20
252.64654
 10
99.98755899999999
 20
252.680094
 10
100.117823
 20
252.713664
 10
100.172846
 20
252.729701
 10
100.227397
 20
252.747233
 10
100.271525
 20
252.763056
 10
100.314921
 20
252.780802
  0
LINE
  5
7DD
330
A
100
AcDbEntity
  8
Hawa5
  6
DASHED
 62
     1
 48
0.007767
100
AcDbLine
 10
98.43616699999998
 20
239.111628
 30
0.0
 11
98.43616699999998
 21
239.42229
 31
0.0
  0
LWPOLYLINE
  5
7DE
330
A
100
AcDbEntity
  8
Hawa5
  6
DASHED
 62
     1
100
AcDbPolyline
 90
       10
 70
     0
 43
0.0
 10
99.03545599999999
 20
252.873484
 10
98.811183
 20
252.814433
 10
98.49149599999998
 20
252.735682
 10
98.16807
 20
252.656932
 10
97.936244
 20
252.597865
 10
97.73078400000001
 20
252.54098
 10
97.57616699999999
 20
252.492854
 10
97.48694899999998
 20
252.461528
 10
97.399012
 20
252.426371
 10
97.356776
 20
252.40713
  0
LWPOLYLINE
  5
7DF
330
A
100
AcDbEntity
  8
Hawa5
  6
DASHED
 62
     1
100
AcDbPolyline
 90
       10
 70
     0
 43
0.0
 10
97.356776
 20
252.40713
 10
97.31351700000001
 20
252.384974
 10
97.277079
 20
252.363337
 10
97.24807199999998
 20
252.34286
 10
97.22603900000001
 20
252.323878
 10
97.21001700000002
 20
252.306452
 10
97.19887799999998
 20
252.290446
 10
97.19161499999998
 20
252.275553
 10
97.18750999999997
 20
252.261332
 10
97.18616699999998
 20
252.247325
  0
LWPOLYLINE
  5
7E0
330
A
100
AcDbEntity
  8
Hawa5
  6
DASHED
 62
     1
100
AcDbPolyline
 90
       15
 70
     0
 43
0.0
 10
97.18616699999998
 20
252.247325
 10
97.187388
 20
252.233912
 10
97.19132499999998
 20
252.219828
 10
97.19852699999998
 20
252.204737
 10
97.209803
 20
252.18838
 10
97.226084
 20
252.170664
 10
97.24819399999999
 20
252.151637
 10
97.27668300000001
 20
252.13151
 10
97.31138099999999
 20
252.110789
 10
97.35154200000001
 20
252.089976
 10
97.39684499999999
 20
252.069163
 10
97.44706200000001
 20
252.04835
 10
97.561274
 20
252.006724
 10
97.692042
 20
251.965113
 10
97.83687799999999
 20
251.923487
  0
LWPOLYLINE
  5
7E1
330
A
100
AcDbEntity
  8
Hawa5
  6
DASHED
 62
     1
100
AcDbPolyline
 90
       10
 70
     0
 43
0.0
 10
97.83687799999999
 20
251.923487
 10
98.077464
 20
251.860301
 10
98.438975
 20
251.771617
 10
98.76107299999999
 20
251.692774
 10
99.00925700000001
 20
251.628276
 10
99.15612299999999
 20
251.58668
 10
99.27070100000001
 20
251.551234
 10
99.36950199999998
 20
251.517359
 10
99.467692
 20
251.478785
 10
99.515574
 20
251.457133
  0
LWPOLYLINE
  5
7E2
330
A
100
AcDbEntity
  8
Hawa5
  6
DASHED
 62
     1
100
AcDbPolyline
 90
        8
 70
     0
 43
0.0
 10
99.515574
 20
251.457133
 10
99.563243
 20
251.432521
 10
99.60247299999997
 20
251.40858
 10
99.63309700000001
 20
251.385737
 10
99.65606200000001
 20
251.363795
 10
99.67241900000001
 20
251.342173
 10
99.68258200000001
 20
251.320201
 10
99.68616699999998
 20
251.297297
  0
LWPOLYLINE
  5
7E3
330
A
100
AcDbEntity
  8
Hawa5
  6
DASHED
 62
     1
100
AcDbPolyline
 90
       14
 70
     0
 43
0.0
 10
99.68616699999998
 20
251.297297
 10
99.68250500000001
 20
251.274134
 10
99.67760699999999
 20
251.261866
 10
99.671137
 20
251.250346
 10
99.65233899999999
 20
251.226786
 10
99.627162
 20
251.204005
 10
99.59679699999998
 20
251.182246
 10
99.56229700000001
 20
251.16154
 10
99.52424100000001
 20
251.141658
 10
99.48267600000001
 20
251.122309
 10
99.43715899999999
 20
251.103099
 10
99.33075999999999
 20
251.063471
 10
99.19742800000001
 20
251.020304
 10
99.03545599999999
 20
250.97349
  0
LWPOLYLINE
  5
7E4
330
A
100
AcDbEntity
  8
Hawa5
  6
DASHED
 62
     1
100
AcDbPolyline
 90
       14
 70
     0
 43
0.0
 10
97.83687799999999
 20
250.023486
 10
97.70124299999999
 20
250.06235
 10
97.55463699999999
 20
250.108988
 10
97.478099
 20
250.136378
 10
97.400447
 20
250.167597
 10
97.36028499999997
 20
250.185771
 10
97.32120799999998
 20
250.205432
 10
97.28588399999999
 20
250.225688
 10
97.25570199999999
 20
250.245951
 10
97.23081499999999
 20
250.266223
 10
97.211344
 20
250.286486
 10
97.19738300000001
 20
250.306758
 10
97.188975
 20
250.327021
 10
97.18616699999998
 20
250.347293
  0
LWPOLYLINE
  5
7E5
330
A
100
AcDbEntity
  8
Hawa5
  6
DASHED
 62
     1
100
AcDbPolyline
 90
       10
 70
     0
 43
0.0
 10
97.18616699999998
 20
250.347293
 10
97.18714400000001
 20
250.359164
 10
97.18992100000001
 20
250.370722
 10
97.19477300000001
 20
250.3828
 10
97.20115199999998
 20
250.39416
 10
97.21978299999998
 20
250.417582
 10
97.24541699999996
 20
250.440768
 10
97.27727800000002
 20
250.463458
 10
97.314585
 20
250.485568
 10
97.356776
 20
250.507136
  0
LWPOLYLINE
  5
7E6
330
A
100
AcDbEntity
  8
Hawa5
  6
DASHED
 62
     1
100
AcDbPolyline
 90
       10
 70
     0
 43
0.0
 10
97.356776
 20
250.507136
 10
97.43657900000002
 20
250.542048
 10
97.529338
 20
250.576838
 10
97.63686599999999
 20
250.612498
 10
97.76072200000001
 20
250.649668
 10
97.97289499999999
 20
250.707484
 10
98.26455199999998
 20
250.78065
 10
98.67748500000001
 20
250.881037
 10
98.89177999999999
 20
250.935115
 10
99.03545599999999
 20
250.97349
  0
LWPOLYLINE
  5
7E7
330
A
100
AcDbEntity
  8
Hawa5
  6
DASHED
 62
     1
100
AcDbPolyline
 90
       10
 70
     0
 43
0.0
 10
97.83687799999999
 20
250.023486
 10
98.05811599999998
 20
249.965205
 10
98.35334300000001
 20
249.892344
 10
98.71244299999998
 20
249.804904
 10
98.940867
 20
249.746607
 10
99.10033699999999
 20
249.702899
 10
99.24595100000001
 20
249.659182
 10
99.37469
 20
249.615466
 10
99.44979299999999
 20
249.586322
 10
99.515483
 20
249.55717
  0
LWPOLYLINE
  5
7E8
330
A
100
AcDbEntity
  8
Hawa5
  6
DASHED
 62
     1
100
AcDbPolyline
 90
       10
 70
     0
 43
0.0
 10
99.515483
 20
249.55717
 10
99.57601400000001
 20
249.525195
 10
99.60152699999998
 20
249.509204
 10
99.62380499999998
 20
249.49322
 10
99.642741
 20
249.477229
 10
99.65831999999997
 20
249.461245
 10
99.67048100000001
 20
249.445254
 10
99.67917899999997
 20
249.42927
 10
99.68441299999998
 20
249.413287
 10
99.68616699999998
 20
249.397303
  0
LWPOLYLINE
  5
7E9
330
A
100
AcDbEntity
  8
Hawa5
  6
DASHED
 62
     1
100
AcDbPolyline
 90
       15
 70
     0
 43
0.0
 10
99.68616699999998
 20
249.397303
 10
99.684687
 20
249.382586
 10
99.68024699999999
 20
249.367869
 10
99.67287699999999
 20
249.353144
 10
99.66256199999998
 20
249.338427
 10
99.64934799999996
 20
249.32371
 10
99.63324999999997
 20
249.308993
 10
99.614329
 20
249.294268
 10
99.568141
 20
249.264826
 10
99.51124099999999
 20
249.235385
 10
99.44416299999996
 20
249.20595
 10
99.367549
 20
249.176509
 10
99.23633800000001
 20
249.132357
 10
99.08811400000001
 20
249.088206
 10
99.03545599999999
 20
249.073489
  0
LWPOLYLINE
  5
7EA
330
A
100
AcDbEntity
  8
Hawa5
  6
DASHED
 62
     1
100
AcDbPolyline
 90
       10
 70
     0
 43
0.0
 10
99.03545599999999
 20
249.073489
 10
98.81420400000001
 20
249.0152
 10
98.51894600000001
 20
248.942332
 10
98.159892
 20
248.854899
 10
97.93149799999998
 20
248.796618
 10
97.77201300000001
 20
248.752902
 10
97.62636800000001
 20
248.709185
 10
97.49763000000001
 20
248.665461
 10
97.42252599999998
 20
248.636317
 10
97.35683699999999
 20
248.607165
  0
LWPOLYLINE
  5
7EB
330
A
100
AcDbEntity
  8
Hawa5
  6
DASHED
 62
     1
100
AcDbPolyline
 90
       10
 70
     0
 43
0.0
 10
97.35683699999999
 20
248.607165
 10
97.29632099999998
 20
248.575198
 10
97.27080800000001
 20
248.559207
 10
97.24854499999999
 20
248.543223
 10
97.229594
 20
248.527239
 10
97.21402999999998
 20
248.511248
 10
97.20186900000001
 20
248.495265
 10
97.19315600000001
 20
248.479281
 10
97.18792200000001
 20
248.46329
 10
97.18616699999998
 20
248.447299
  0
LWPOLYLINE
  5
7EC
330
A
100
AcDbEntity
  8
Hawa5
  6
DASHED
 62
     1
100
AcDbPolyline
 90
       15
 70
     0
 43
0.0
 10
97.18616699999998
 20
248.447299
 10
97.18764700000001
 20
248.432582
 10
97.19208799999998
 20
248.417864
 10
97.19947299999999
 20
248.40314
 10
97.20978799999997
 20
248.388423
 10
97.22300199999999
 20
248.373698
 10
97.23909999999998
 20
248.358981
 10
97.25802100000001
 20
248.344264
 10
97.304194
 20
248.314822
 10
97.36109399999998
 20
248.285388
 10
97.42815700000001
 20
248.255953
 10
97.50477099999997
 20
248.226519
 10
97.63596599999999
 20
248.182368
 10
97.78421999999999
 20
248.138209
 10
97.83687799999999
 20
248.123492
  0
LWPOLYLINE
  5
7ED
330
A
100
AcDbEntity
  8
Hawa5
  6
DASHED
 62
     1
100
AcDbPolyline
 90
       14
 70
     0
 43
0.0
 10
99.03545599999999
 20
247.173487
 10
99.16939800000001
 20
247.21184
 10
99.27500400000001
 20
247.244754
 10
99.35958399999998
 20
247.273638
 10
99.438121
 20
247.303492
 10
99.51780200000001
 20
247.338526
 10
99.555903
 20
247.358012
 10
99.590007
 20
247.377902
 10
99.61911999999998
 20
247.397799
 10
99.643107
 20
247.417697
 10
99.66189100000001
 20
247.437594
 10
99.67534899999998
 20
247.457492
 10
99.68346699999997
 20
247.477389
 10
99.68616699999998
 20
247.497294
  0
LWPOLYLINE
  5
7EE
330
A
100
AcDbEntity
  8
Hawa5
  6
DASHED
 62
     1
100
AcDbPolyline
 90
        9
 70
     0
 43
0.0
 10
99.68616699999998
 20
247.497294
 10
99.68328300000001
 20
247.517848
 10
99.67463199999997
 20
247.538409
 10
99.660258
 20
247.55897
 10
99.640345
 20
247.579425
 10
99.61536700000001
 20
247.599551
 10
99.58591700000001
 20
247.619227
 10
99.552516
 20
247.638407
 10
99.515559
 20
247.657138
  0
LWPOLYLINE
  5
7EF
330
A
100
AcDbEntity
  8
Hawa5
  6
DASHED
 62
     1
100
AcDbPolyline
 90
       10
 70
     0
 43
0.0
 10
99.515559
 20
247.657138
 10
99.437388
 20
247.691386
 10
99.34681199999999
 20
247.725489
 10
99.24180099999999
 20
247.760501
 10
99.12049399999999
 20
247.797106
 10
98.91131099999999
 20
247.85438
 10
98.683543
 20
247.912051
 10
98.288279
 20
248.008151
 10
97.98083000000001
 20
248.08504
 10
97.83687799999999
 20
248.123492
  0
LWPOLYLINE
  5
7F0
330
A
100
AcDbEntity
  8
Hawa5
  6
DASHED
 62
     1
100
AcDbPolyline
 90
       14
 70
     0
 43
0.0
 10
97.83687799999999
 20
246.22349
 10
97.682841
 20
246.267886
 10
97.55910699999999
 20
246.30746
 10
97.45460000000001
 20
246.345385
 10
97.40534499999998
 20
246.365496
 10
97.357814
 20
246.38695
 10
97.31362399999998
 20
246.409548
 10
97.27529399999999
 20
246.432414
 10
97.24442499999998
 20
246.454615
 10
97.22109500000001
 20
246.475642
 10
97.2046
 20
246.495288
 10
97.19391899999999
 20
246.513598
 10
97.188029
 20
246.530818
 10
97.18616699999998
 20
246.547305
  0
LWPOLYLINE
  5
7F1
330
A
100
AcDbEntity
  8
Hawa5
  6
DASHED
 62
     1
100
AcDbPolyline
 90
        9
 70
     0
 43
0.0
 10
97.18616699999998
 20
246.547305
 10
97.18809
 20
246.564097
 10
97.19399500000001
 20
246.581141
 10
97.20437099999998
 20
246.598971
 10
97.22016399999999
 20
246.617976
 10
97.24250300000001
 20
246.63843
 10
97.27250199999996
 20
246.660342
 10
97.31075500000001
 20
246.683451
 10
97.356776
 20
246.707141
  0
LWPOLYLINE
  5
7F2
330
A
100
AcDbEntity
  8
Hawa5
  6
DASHED
 62
     1
100
AcDbPolyline
 90
       11
 70
     0
 43
0.0
 10
97.356776
 20
246.707141
 10
97.40516200000001
 20
246.729014
 10
97.45687400000001
 20
246.750086
 10
97.564509
 20
246.788943
 10
97.67371599999998
 20
246.823916
 10
97.849024
 20
246.87443
 10
98.06460099999998
 20
246.931025
 10
98.327922
 20
246.996073
 10
98.69265199999999
 20
247.08478
 10
98.953456
 20
247.151309
 10
99.03545599999999
 20
247.173487
  0
LWPOLYLINE
  5
7F3
330
A
100
AcDbEntity
  8
Hawa5
  6
DASHED
 62
     1
100
AcDbPolyline
 90
       11
 70
     0
 43
0.0
 10
97.83687799999999
 20
246.22349
 10
98.07280999999997
 20
246.161479
 10
98.36579399999999
 20
246.089327
 10
98.71371000000001
 20
246.004588
 10
98.94222499999997
 20
245.946253
 10
99.11443599999998
 20
245.898852
 10
99.263545
 20
245.853556
 10
99.36521399999998
 20
245.818919
 10
99.41689599999998
 20
245.799525
 10
99.46763099999998
 20
245.778811
 10
99.515559
 20
245.757136
  0
LWPOLYLINE
  5
7F4
330
A
100
AcDbEntity
  8
Hawa5
  6
DASHED
 62
     1
100
AcDbPolyline
 90
        9
 70
     0
 43
0.0
 10
99.515559
 20
245.757136
 10
99.561442
 20
245.733523
 10
99.59963499999998
 20
245.710475
 10
99.62961800000002
 20
245.688594
 10
99.65200299999999
 20
245.668154
 10
99.667857
 20
245.649119
 10
99.67829399999999
 20
245.631259
 10
99.68423000000001
 20
245.614146
 10
99.68616699999998
 20
245.5973
  0
LWPOLYLINE
  5
7F5
330
A
100
AcDbEntity
  8
Hawa5
  6
DASHED
 62
     1
100
AcDbPolyline
 90
       14
 70
     0
 43
0.0
 10
99.68616699999998
 20
245.5973
 10
99.68426
 20
245.580599
 10
99.67821800000001
 20
245.563174
 10
99.66727699999999
 20
245.54465
 10
99.65040100000001
 20
245.524783
 10
99.62658199999999
 20
245.50355
 10
99.59511800000001
 20
245.481158
 10
99.55614699999998
 20
245.45814
 10
99.51055399999999
 20
245.435061
 10
99.45870499999998
 20
245.411975
 10
99.400904
 20
245.388896
 10
99.33747400000001
 20
245.365817
 10
99.19529200000001
 20
245.319651
 10
99.03545599999999
 20
245.273486
  0
LWPOLYLINE
  5
7F6
330
A
100
AcDbEntity
  8
Hawa5
  6
DASHED
 62
     1
100
AcDbPolyline
 90
       10
 70
     0
 43
0.0
 10
99.03545599999999
 20
245.273486
 10
98.82587700000001
 20
245.218165
 10
98.52108299999997
 20
245.142848
 10
98.13749199999998
 20
245.049334
 10
97.92348699999999
 20
244.994494
 10
97.728938
 20
244.94044
 10
97.603831
 20
244.90195
 10
97.49009199999997
 20
244.862681
 10
97.396022
 20
244.825061
 10
97.35674500000001
 20
244.807124
  0
LWPOLYLINE
  5
7F7
330
A
100
AcDbEntity
  8
Hawa5
  6
DASHED
 62
     1
100
AcDbPolyline
 90
        9
 70
     0
 43
0.0
 10
97.35674500000001
 20
244.807124
 10
97.31756099999998
 20
244.787188
 10
97.284053
 20
244.767764
 10
97.25565600000001
 20
244.748599
 10
97.231959
 20
244.729388
 10
97.21282399999999
 20
244.709857
 10
97.198466
 20
244.689753
 10
97.18935599999998
 20
244.668917
 10
97.18616699999998
 20
244.647296
  0
LWPOLYLINE
  5
7F8
330
A
100
AcDbEntity
  8
Hawa5
  6
DASHED
 62
     1
100
AcDbPolyline
 90
       14
 70
     0
 43
0.0
 10
97.18616699999998
 20
244.647296
 10
97.18883799999998
 20
244.627536
 10
97.197001
 20
244.607463
 10
97.21061200000001
 20
244.58739
 10
97.22934999999999
 20
244.567568
 10
97.252741
 20
244.548152
 10
97.28029900000001
 20
244.529185
 10
97.31162500000001
 20
244.510646
 10
97.346476
 20
244.492457
 10
97.426615
 20
244.456591
 10
97.52183000000002
 20
244.420405
 10
97.634425
 20
244.382853
 10
97.76540599999998
 20
244.343569
 10
97.83687799999999
 20
244.323489
  0
LWPOLYLINE
  5
7F9
330
A
100
AcDbEntity
  8
Hawa5
  6
DASHED
 62
     1
100
AcDbPolyline
 90
       15
 70
     0
 43
0.0
 10
99.03545599999999
 20
243.373484
 10
99.18868500000002
 20
243.417643
 10
99.325907
 20
243.461802
 10
99.40703800000001
 20
243.491244
 10
99.47898399999999
 20
243.520686
 10
99.541026
 20
243.55012
 10
99.59261600000001
 20
243.579562
 10
99.614329
 20
243.594279
 10
99.63324999999997
 20
243.608996
 10
99.64934799999996
 20
243.623713
 10
99.66256199999998
 20
243.63843
 10
99.67287699999999
 20
243.653147
 10
99.68024699999999
 20
243.667864
 10
99.684687
 20
243.682582
 10
99.68616699999998
 20
243.697299
  0
LWPOLYLINE
  5
7FA
330
A
100
AcDbEntity
  8
Hawa5
  6
DASHED
 62
     1
100
AcDbPolyline
 90
       10
 70
     0
 43
0.0
 10
99.68616699999998
 20
243.697299
 10
99.68441299999998
 20
243.713282
 10
99.67917899999997
 20
243.729273
 10
99.67046599999997
 20
243.745257
 10
99.65831999999997
 20
243.761248
 10
99.642741
 20
243.777239
 10
99.623789
 20
243.793223
 10
99.60152699999998
 20
243.809214
 10
99.57599899999999
 20
243.825198
 10
99.51549799999998
 20
243.857173
  0
LWPOLYLINE
  5
7FB
330
A
100
AcDbEntity
  8
Hawa5
  6
DASHED
 62
     1
100
AcDbPolyline
 90
       10
 70
     0
 43
0.0
 10
99.51549799999998
 20
243.857173
 10
99.449809
 20
243.886317
 10
99.37471999999999
 20
243.915454
 10
99.24599700000001
 20
243.95917
 10
99.10036699999999
 20
244.002886
 10
98.88518799999999
 20
244.061183
 10
98.59382100000001
 20
244.134051
 10
98.17455500000001
 20
244.236048
 10
97.945246
 20
244.294337
 10
97.83687799999999
 20
244.323489
  0
LWPOLYLINE
  5
7FC
330
A
100
AcDbEntity
  8
Hawa5
  6
DASHED
 62
     1
100
AcDbPolyline
 90
       10
 70
     0
 43
0.0
 10
99.03545599999999
 20
243.373484
 10
98.81421899999999
 20
243.315203
 10
98.51900700000001
 20
243.242343
 10
98.159892
 20
243.154902
 10
97.93146800000002
 20
243.096606
 10
97.77199799999999
 20
243.0528970000001
 10
97.62636800000001
 20
243.009181
 10
97.49764499999997
 20
242.965464
 10
97.42254100000002
 20
242.93632
 10
97.35685199999998
 20
242.907176
  0
LWPOLYLINE
  5
7FD
330
A
100
AcDbEntity
  8
Hawa5
  6
DASHED
 62
     1
100
AcDbPolyline
 90
       10
 70
     0
 43
0.0
 10
97.35685199999998
 20
242.907176
 10
97.29632099999998
 20
242.875193
 10
97.27080800000001
 20
242.859202
 10
97.24853000000001
 20
242.843218
 10
97.229594
 20
242.827227
 10
97.214015
 20
242.811244
 10
97.201853
 20
242.79526
 10
97.19315600000001
 20
242.779269
 10
97.18792200000001
 20
242.763285
 10
97.18616699999998
 20
242.747302
  0
LWPOLYLINE
  5
7FE
330
A
100
AcDbEntity
  8
Hawa5
  6
DASHED
 62
     1
100
AcDbPolyline
 90
       15
 70
     0
 43
0.0
 10
97.18616699999998
 20
242.747302
 10
97.18764700000001
 20
242.732585
 10
97.19208799999998
 20
242.717868
 10
97.19945800000001
 20
242.70315
 10
97.20977299999999
 20
242.688433
 10
97.22298700000001
 20
242.673709
 10
97.239085
 20
242.658991
 10
97.25800600000001
 20
242.644274
 10
97.30417899999999
 20
242.614833
 10
97.361079
 20
242.585391
 10
97.42817200000001
 20
242.555949
 10
97.504786
 20
242.526515
 10
97.63599599999999
 20
242.482356
 10
97.78421999999999
 20
242.438204
 10
97.83687799999999
 20
242.423487
  0
LWPOLYLINE
  5
7FF
330
A
100
AcDbEntity
  8
Hawa5
  6
DASHED
 62
     1
100
AcDbPolyline
 90
       10
 70
     0
 43
0.0
 10
97.83687799999999
 20
242.423487
 10
98.03269400000001
 20
242.371676
 10
98.31113700000001
 20
242.302584
 10
98.666575
 20
242.216235
 10
98.93879199999998
 20
242.147158
 10
99.12656700000001
 20
242.095347
 10
99.24084
 20
242.060801
 10
99.34463
 20
242.026255
 10
99.43657900000001
 20
241.991709
 10
99.515483
 20
241.957171
  0
LWPOLYLINE
  5
800
330
A
100
AcDbEntity
  8
Hawa5
  6
DASHED
 62
     1
100
AcDbPolyline
 90
        9
 70
     0
 43
0.0
 10
99.515483
 20
241.957171
 10
99.55477399999999
 20
241.937182
 10
99.589183
 20
241.917193
 10
99.61855599999999
 20
241.897204
 10
99.642756
 20
241.877223
 10
99.66169200000001
 20
241.857234
 10
99.67527299999998
 20
241.837245
 10
99.683451
 20
241.817256
 10
99.68616699999998
 20
241.797267
  0
LWPOLYLINE
  5
801
330
A
100
AcDbEntity
  8
Hawa5
  6
DASHED
 62
     1
100
AcDbPolyline
 90
       14
 70
     0
 43
0.0
 10
99.68616699999998
 20
241.797267
 10
99.68416799999999
 20
241.780184
 10
99.67818699999998
 20
241.763102
 10
99.66825400000001
 20
241.746028
 10
99.65450500000001
 20
241.729083
 10
99.63718699999999
 20
241.712367
 10
99.61663299999997
 20
241.695956
 10
99.59310399999999
 20
241.679866
 10
99.53802000000001
 20
241.64857
 10
99.472895
 20
241.618037
 10
99.39734900000001
 20
241.58755
 10
99.31006899999999
 20
241.556391
 10
99.209727
 20
241.524073
 10
99.03545599999999
 20
241.47349
  0
LWPOLYLINE
  5
802
330
A
100
AcDbEntity
  8
Hawa5
  6
DASHED
 62
     1
100
AcDbPolyline
 90
       15
 70
     0
 43
0.0
 10
97.83687799999999
 20
240.523486
 10
97.700144
 20
240.562678
 10
97.59108999999998
 20
240.596789
 10
97.50202399999999
 20
240.627513
 10
97.41894000000002
 20
240.659754
 10
97.37758900000001
 20
240.677729
 10
97.33727499999998
 20
240.697062
 10
97.30001299999997
 20
240.717234
 10
97.26790899999997
 20
240.737322
 10
97.24174000000001
 20
240.756793
 10
97.22124699999998
 20
240.775485
 10
97.205866
 20
240.793536
 10
97.19503299999999
 20
240.811251
 10
97.18844099999998
 20
240.829035
 10
97.18616699999998
 20
240.84727
  0
LWPOLYLINE
  5
803
330
A
100
AcDbEntity
  8
Hawa5
  6
DASHED
 62
     1
100
AcDbPolyline
 90
        9
 70
     0
 43
0.0
 10
97.18616699999998
 20
240.84727
 10
97.18885300000001
 20
240.867106
 10
97.197352
 20
240.887782
 10
97.212077
 20
240.908961
 10
97.23266099999998
 20
240.930026
 10
97.258296
 20
240.9505259999999
 10
97.28805000000001
 20
240.970233
 10
97.32107
 20
240.989077
 10
97.356776
 20
241.007136
  0
LWPOLYLINE
  5
804
330
A
100
AcDbEntity
  8
Hawa5
  6
DASHED
 62
     1
100
AcDbPolyline
 90
       11
 70
     0
 43
0.0
 10
97.356776
 20
241.007136
 10
97.430476
 20
241.039576
 10
97.51465899999999
 20
241.071627
 10
97.61378
 20
241.105158
 10
97.73235599999999
 20
241.141436
 10
97.87088999999996
 20
241.180392
 10
98.09725400000001
 20
241.23926
 10
98.457957
 20
241.327563
 10
98.740321
 20
241.396617
 10
98.96213799999998
 20
241.453623
 10
99.03545599999999
 20
241.47349
  0
LWPOLYLINE
  5
805
330
A
100
AcDbEntity
  8
Hawa5
  6
DASHED
 62
     1
100
AcDbPolyline
 90
       14
 70
     0
 43
0.0
 10
99.03545599999999
 20
239.573489
 10
99.19337
 20
239.619067
 10
99.31611099999997
 20
239.658442
 10
99.41884899999999
 20
239.695826
 10
99.468302
 20
239.716059
 10
99.516764
 20
239.738032
 10
99.56209800000001
 20
239.761416
 10
99.60100799999999
 20
239.785029
 10
99.63173899999999
 20
239.807719
 10
99.654307
 20
239.828868
 10
99.669749
 20
239.848223
 10
99.679423
 20
239.865855
 10
99.68457999999998
 20
239.882052
 10
99.68616699999998
 20
239.897296
  0
LWPOLYLINE
  5
806
330
A
100
AcDbEntity
  8
Hawa5
  6
DASHED
 62
     1
100
AcDbPolyline
 90
        9
 70
     0
 43
0.0
 10
99.68616699999998
 20
239.897296
 10
99.684474
 20
239.913005
 10
99.679286
 20
239.929049
 10
99.66991700000001
 20
239.946116
 10
99.65517699999999
 20
239.96477
 10
99.633525
 20
239.985362
 10
99.60343399999999
 20
240.007929
 10
99.563929
 20
240.032138
 10
99.515559
 20
240.057139
  0
LWPOLYLINE
  5
807
330
A
100
AcDbEntity
  8
Hawa5
  6
DASHED
 62
     1
100
AcDbPolyline
 90
       11
 70
     0
 43
0.0
 10
99.515559
 20
240.057139
 10
99.465602
 20
240.079684
 10
99.41268399999998
 20
240.101161
 10
99.30556700000002
 20
240.139712
 10
99.201899
 20
240.172915
 10
99.040934
 20
240.219577
 10
98.835993
 20
240.273837
 10
98.56946800000001
 20
240.339984
 10
98.19202699999999
 20
240.431735
 10
97.92174799999997
 20
240.500552
 10
97.83687799999999
 20
240.523486
  0
ARC
  5
808
330
A
100
AcDbEntity
  8
Hawa5
 62
     1
100
AcDbCircle
 10
96.03617300000001
 20
236.6116279999999
 30
0.0
 40
1.5
100
AcDbArc
 50
180.000005050993
 51
270.0000010000003
  0
ARC
  5
809
330
A
100
AcDbEntity
  8
Hawa5
 62
     1
100
AcDbCircle
 10
100.836161
 20
236.6116279999999
 30
0.0
 40
1.5
100
AcDbArc
 50
269.9999970000001
 51
0.0
  0
LINE
  5
80A
330
A
100
AcDbEntity
  8
Hawa5
 62
     1
 48
0.035
100
AcDbLine
 10
94.53617300000001
 20
236.6116279999999
 30
0.0
 11
94.53617300000001
 21
238.01163
 31
0.0
  0
LINE
  5
80B
330
A
100
AcDbEntity
  8
Hawa5
 62
     1
 48
0.035
100
AcDbLine
 10
102.336161
 20
236.6116279999999
 30
0.0
 11
102.336161
 21
238.01163
 31
0.0
  0
LINE
  5
80C
330
A
100
AcDbEntity
  8
Hawa5
  6
DASHED
 62
     1
 48
0.026517
100
AcDbLine
 10
99.68616699999998
 20
238.76163
 30
0.0
 11
100.436167
 21
238.01163
 31
0.0
  0
LINE
  5
80D
330
A
100
AcDbEntity
  8
Hawa5
  6
DASHED
 62
     1
 48
0.026517
100
AcDbLine
 10
97.18616699999998
 20
238.76163
 30
0.0
 11
96.43616699999999
 21
238.01163
 31
0.0
  0
LINE
  5
80E
330
A
100
AcDbEntity
  8
Hawa5
  6
DASHED
 62
     1
 48
0.012859
100
AcDbLine
 10
99.68616699999998
 20
238.76163
 30
0.0
 11
99.68616699999998
 21
239.275973
 31
0.0
  0
LINE
  5
80F
330
A
100
AcDbEntity
  8
Hawa5
  6
DASHED
 62
     1
 48
0.036608
100
AcDbLine
 10
97.18616699999998
 20
238.76163
 30
0.0
 11
97.18616699999998
 21
240.225947
 31
0.0
  0
ARC
  5
810
330
A
100
AcDbEntity
  8
Hawa5
  6
DASHED
 62
     1
100
AcDbCircle
 10
111.630549
 20
213.589839
 30
0.0
 40
28.255516
100
AcDbArc
 50
113.607705
 51
115.389421
  0
ARC
  5
811
330
A
100
AcDbEntity
  8
Hawa5
  6
DASHED
 62
     1
100
AcDbCircle
 10
85.22043899999999
 20
214.492343
 30
0.0
 40
28.307585
100
AcDbArc
 50
64.61279699999995
 51
66.39120799999997
  0
ARC
  5
812
330
A
100
AcDbEntity
  8
Hawa5
  6
DASHED
 62
     1
100
AcDbCircle
 10
111.645213
 20
215.452868
 30
0.0
 40
28.295233
100
AcDbArc
 50
113.604944
 51
115.3841209999999
  0
ARC
  5
813
330
A
100
AcDbEntity
  8
Hawa5
  6
DASHED
 62
     1
100
AcDbCircle
 10
85.24151099999997
 20
216.439265
 30
0.0
 40
28.256153
100
AcDbArc
 50
64.61057800000003
 51
66.39222499999999
  0
ARC
  5
814
330
A
100
AcDbEntity
  8
Hawa5
  6
DASHED
 62
     1
100
AcDbCircle
 10
111.630809
 20
217.389193
 30
0.0
 40
28.256212
100
AcDbArc
 50
113.607671
 51
115.389338
  0
ARC
  5
815
330
A
100
AcDbEntity
  8
Hawa5
  6
DASHED
 62
     1
100
AcDbCircle
 10
85.24038199999997
 20
218.336642
 30
0.0
 40
28.259005
100
AcDbArc
 50
64.610837
 51
66.39226000000004
  0
ARC
  5
816
330
A
100
AcDbEntity
  8
Hawa5
  6
DASHED
 62
     1
100
AcDbCircle
 10
111.618251
 20
219.312182
 30
0.0
 40
28.230093
100
AcDbArc
 50
113.603025
 51
115.386306
  0
ARC
  5
817
330
A
100
AcDbEntity
  8
Hawa5
  6
DASHED
 62
     1
100
AcDbCircle
 10
85.24460899999999
 20
220.244616
 30
0.0
 40
28.249998
100
AcDbArc
 50
64.61159499999997
 51
66.39363899999996
  0
ARC
  5
818
330
A
100
AcDbEntity
  8
Hawa5
  6
DASHED
 62
     1
100
AcDbCircle
 10
111.631312
 20
221.188044
 30
0.0
 40
28.257463
100
AcDbArc
 50
113.607671
 51
115.389244
  0
ARC
  5
819
330
A
100
AcDbEntity
  8
Hawa5
  6
DASHED
 62
     1
100
AcDbCircle
 10
85.24064099999998
 20
222.137301
 30
0.0
 40
28.258291
100
AcDbArc
 50
64.61071399999998
 51
66.39222500000001
  0
ARC
  5
81A
330
A
100
AcDbEntity
  8
Hawa5
  6
DASHED
 62
     1
100
AcDbCircle
 10
111.663722
 20
223.00989
 30
0.0
 40
28.342014
100
AcDbArc
 50
113.604351
 51
115.380706
  0
ARC
  5
81B
330
A
100
AcDbEntity
  8
Hawa5
  6
DASHED
 62
     1
100
AcDbCircle
 10
85.19162999999997
 20
223.92541
 30
0.0
 40
28.380426
100
AcDbArc
 50
64.61817899999999
 51
66.39203399999996
  0
ARC
  5
81C
330
A
100
AcDbEntity
  8
Hawa5
  6
DASHED
 62
     1
100
AcDbCircle
 10
111.631724
 20
224.987147
 30
0.0
 40
28.258451
100
AcDbArc
 50
113.607717
 51
115.389202
  0
ARC
  5
81D
330
A
100
AcDbEntity
  8
Hawa5
  6
DASHED
 62
     1
100
AcDbCircle
 10
85.241175
 20
225.938502
 30
0.0
 40
28.256983
100
AcDbArc
 50
64.61061900000003
 51
66.39222499999999
  0
ARC
  5
81E
330
A
100
AcDbEntity
  8
Hawa5
  6
DASHED
 62
     1
100
AcDbCircle
 10
111.631983
 20
226.886691
 30
0.0
 40
28.258976
100
AcDbArc
 50
113.607815
 51
115.3890239999999
  0
ARC
  5
81F
330
A
100
AcDbEntity
  8
Hawa5
  6
DASHED
 62
     1
100
AcDbCircle
 10
111.630961
 20
265.584284
 30
0.0
 40
28.25647
100
AcDbArc
 50
244.610593
 51
246.3922140000001
  0
ARC
  5
820
330
A
100
AcDbEntity
  8
Hawa5
  6
DASHED
 62
     1
100
AcDbCircle
 10
85.29557299999998
 20
266.4198859999999
 30
0.0
 40
28.129904
100
AcDbArc
 50
293.599934
 51
295.38956
  0
ARC
  5
821
330
A
100
AcDbEntity
  8
Hawa5
  6
DASHED
 62
     1
100
AcDbCircle
 10
111.63087
 20
267.484217
 30
0.0
 40
28.256365
100
AcDbArc
 50
244.610675
 51
246.392336
  0
ARC
  5
822
330
A
100
AcDbEntity
  8
Hawa5
  6
DASHED
 62
     1
100
AcDbCircle
 10
85.24033599999999
 20
268.43661
 30
0.0
 40
28.25902
100
AcDbArc
 50
293.607835
 51
295.38906
  0
ARC
  5
823
330
A
100
AcDbEntity
  8
Hawa5
  6
DASHED
 62
     1
100
AcDbCircle
 10
111.682276
 20
269.50059
 30
0.0
 40
28.383575
100
AcDbArc
 50
244.617683
 51
246.391319
  0
ARC
  5
824
330
A
100
AcDbEntity
  8
Hawa5
  6
DASHED
 62
     1
100
AcDbCircle
 10
85.24083999999998
 20
270.335612
 30
0.0
 40
28.257896
100
AcDbArc
 50
293.607679
 51
295.389231
  0
ARC
  5
825
330
A
100
AcDbEntity
  8
Hawa5
  6
DASHED
 62
     1
100
AcDbCircle
 10
111.63647
 20
271.29777
 30
0.0
 40
28.271021
100
AcDbArc
 50
244.612218
 51
246.392944
  0
ARC
  5
826
330
A
100
AcDbEntity
  8
Hawa5
  6
DASHED
 62
     1
100
AcDbCircle
 10
85.20856699999999
 20
272.313471
 30
0.0
 40
28.342133
100
AcDbArc
 50
293.604353
 51
295.380694
  0
ARC
  5
827
330
A
100
AcDbEntity
  8
Hawa5
  6
DASHED
 62
     1
100
AcDbCircle
 10
111.631831
 20
273.186289
 30
0.0
 40
28.25865
100
AcDbArc
 50
244.610756
 51
246.392248
  0
ARC
  5
828
330
A
100
AcDbEntity
  8
Hawa5
  6
DASHED
 62
     1
100
AcDbCircle
 10
85.26249199999998
 20
274.092799
 30
0.0
 40
28.209963
100
AcDbArc
 50
293.6022069999999
 51
295.3867789999999
  0
ARC
  5
829
330
A
100
AcDbEntity
  8
Hawa5
  6
DASHED
 62
     1
100
AcDbCircle
 10
111.629985
 20
275.082133
 30
0.0
 40
28.254108
100
AcDbArc
 50
244.610347
 51
246.392288
  0
ARC
  5
82A
330
A
100
AcDbEntity
  8
Hawa5
  6
DASHED
 62
     1
100
AcDbCircle
 10
85.24097699999998
 20
276.035212
 30
0.0
 40
28.257477
100
AcDbArc
 50
293.607781
 51
295.389347
  0
ARC
  5
82B
330
A
100
AcDbEntity
  8
Hawa5
  6
DASHED
 62
     1
100
AcDbCircle
 10
111.69755
 20
277.134684
 30
0.0
 40
28.420916
100
AcDbArc
 50
244.619335
 51
246.39065
  0
ARC
  5
82C
330
A
100
AcDbEntity
  8
Hawa5
  6
DASHED
 62
     1
100
AcDbCircle
 10
85.24169399999999
 20
277.93368
 30
0.0
 40
28.255783
100
AcDbArc
 50
293.607686
 51
295.389373
  0
LINE
  5
82D
330
A
100
AcDbEntity
  8
Hawa5
  6
DASHED
 62
     1
 48
0.031966
100
AcDbLine
 10
99.68616699999998
 20
239.897296
 30
0.0
 11
99.68616699999998
 21
241.175944
 31
0.0
  0
LINE
  5
82E
330
A
100
AcDbEntity
  8
Hawa5
  6
DASHED
 62
     1
 48
0.031968
100
AcDbLine
 10
97.18616699999998
 20
240.84727
 30
0.0
 11
97.18616699999998
 21
242.125979
 31
0.0
  0
LINE
  5
82F
330
A
100
AcDbEntity
  8
Hawa5
  6
DASHED
 62
     1
 48
0.031968
100
AcDbLine
 10
99.68616699999998
 20
241.797267
 30
0.0
 11
99.68616699999998
 21
243.075976
 31
0.0
  0
LINE
  5
830
330
A
100
AcDbEntity
  8
Hawa5
  6
DASHED
 62
     1
 48
0.031967
100
AcDbLine
 10
97.18616699999998
 20
242.747302
 30
0.0
 11
97.18616699999998
 21
244.025981
 31
0.0
  0
LINE
  5
831
330
A
100
AcDbEntity
  8
Hawa5
  6
DASHED
 62
     1
 48
0.031967
100
AcDbLine
 10
99.68616699999998
 20
243.697299
 30
0.0
 11
99.68616699999998
 21
244.975978
 31
0.0
  0
LINE
  5
832
330
A
100
AcDbEntity
  8
Hawa5
  6
DASHED
 62
     1
 48
0.031967
100
AcDbLine
 10
97.18616699999998
 20
244.647296
 30
0.0
 11
97.18616699999998
 21
245.925982
 31
0.0
  0
LINE
  5
833
330
A
100
AcDbEntity
  8
Hawa5
  6
DASHED
 62
     1
 48
0.031967
100
AcDbLine
 10
99.68616699999998
 20
245.5973
 30
0.0
 11
99.68616699999998
 21
246.875971
 31
0.0
  0
LINE
  5
834
330
A
100
AcDbEntity
  8
Hawa5
  6
DASHED
 62
     1
 48
0.031967
100
AcDbLine
 10
97.18616699999998
 20
246.547305
 30
0.0
 11
97.18616699999998
 21
247.825984
 31
0.0
  0
LINE
  5
835
330
A
100
AcDbEntity
  8
Hawa5
  6
DASHED
 62
     1
 48
0.031967
100
AcDbLine
 10
99.68616699999998
 20
247.497294
 30
0.0
 11
99.68616699999998
 21
248.775981
 31
0.0
  0
LINE
  5
836
330
A
100
AcDbEntity
  8
Hawa5
  6
DASHED
 62
     1
 48
0.031967
100
AcDbLine
 10
97.18616699999998
 20
248.447299
 30
0.0
 11
97.18616699999998
 21
249.72597
 31
0.0
  0
LINE
  5
837
330
A
100
AcDbEntity
  8
Hawa5
  6
DASHED
 62
     1
 48
0.031967
100
AcDbLine
 10
99.68616699999998
 20
249.397303
 30
0.0
 11
99.68616699999998
 21
250.675975
 31
0.0
  0
LINE
  5
838
330
A
100
AcDbEntity
  8
Hawa5
  6
DASHED
 62
     1
 48
0.031968
100
AcDbLine
 10
97.18616699999998
 20
250.347293
 30
0.0
 11
97.18616699999998
 21
251.626002
 31
0.0
  0
LINE
  5
839
330
A
100
AcDbEntity
  8
Hawa5
  6
DASHED
 62
     1
 48
0.031967
100
AcDbLine
 10
99.68616699999998
 20
251.297297
 30
0.0
 11
99.68616699999998
 21
252.575968
 31
0.0
  0
LINE
  5
83A
330
A
100
AcDbEntity
  8
Hawa5
  6
DASHED
 62
     1
 48
0.031966
100
AcDbLine
 10
97.18616699999998
 20
252.247325
 30
0.0
 11
97.18616699999998
 21
253.525965
 31
0.0
  0
LINE
  5
83B
330
A
100
AcDbEntity
  8
Hawa5
 62
     1
100
AcDbLine
 10
103.436167
 20
113.51163
 30
0.0
 11
103.436167
 21
87.51163000000001
 31
0.0
  0
LINE
  5
83C
330
A
100
AcDbEntity
  8
Hawa6
  6
DASHSPACE
 62
     3
 48
0.00625
100
AcDbLine
 10
95.43616699999999
 20
142.639849
 30
0.0
 11
95.68616699999997
 21
142.639849
 31
0.0
  0
LINE
  5
83D
330
A
100
AcDbEntity
  8
Hawa6
  6
DASHSPACE
 62
     3
 48
0.090706
100
AcDbLine
 10
95.43616699999999
 20
125.383414
 30
0.0
 11
95.43616699999999
 21
129.011639
 31
0.0
  0
LINE
  5
83E
330
A
100
AcDbEntity
  8
Hawa6
  6
DASHSPACE
 62
     3
 48
0.090706
100
AcDbLine
 10
95.43616699999999
 20
139.011624
 30
0.0
 11
95.43616699999999
 21
142.639849
 31
0.0
  0
LINE
  5
83F
330
A
100
AcDbEntity
  8
Hawa6
  6
DASHSPACE
 62
     3
 48
0.00625
100
AcDbLine
 10
95.43616699999999
 20
125.383414
 30
0.0
 11
95.68616699999997
 21
125.383414
 31
0.0
  0
LINE
  5
840
330
A
100
AcDbEntity
  8
Hawa6
 62
     3
 48
0.2
100
AcDbLine
 10
95.43616699999999
 20
154.637973
 30
0.0
 11
103.436167
 21
154.637973
 31
0.0
  0
LINE
  5
841
330
A
100
AcDbEntity
  8
Hawa6
 62
     3
 48
0.075166
100
AcDbLine
 10
95.43616699999999
 20
154.637973
 30
0.0
 11
95.43616699999999
 21
157.644625
 31
0.0
  0
LINE
  5
842
330
A
100
AcDbEntity
  8
Hawa6
 62
     3
 48
0.299953
100
AcDbLine
 10
95.43616699999999
 20
154.637973
 30
0.0
 11
95.43616699999999
 21
142.639849
 31
0.0
  0
LINE
  5
843
330
A
100
AcDbEntity
  8
Hawa5
 62
     1
100
AcDbLine
 10
95.43616699999999
 20
125.383414
 30
0.0
 11
95.43616699999999
 21
87.51163000000001
 31
0.0
  0
LINE
  5
844
330
A
100
AcDbEntity
  8
Hawa5
  6
PHANTOM
 62
     1
 48
0.2
100
AcDbLine
 10
103.436167
 20
87.51163000000001
 30
0.0
 11
95.43616699999999
 21
87.51163000000001
 31
0.0
  0
LINE
  5
845
330
A
100
AcDbEntity
  8
Hawa6
  6
DASHSPACE
 62
     3
 48
0.08
100
AcDbLine
 10
98.63616399999997
 20
202.51163
 30
0.0
 11
95.43615200000001
 21
202.51163
 31
0.0
  0
LINE
  5
846
330
A
100
AcDbEntity
  8
Hawa6
  6
DASHSPACE
 62
     3
100
AcDbLine
 10
98.63616399999997
 20
202.51163
 30
0.0
 11
98.63616399999997
 21
182.01163
 31
0.0
  0
LINE
  5
847
330
A
100
AcDbEntity
  8
Hawa6
  6
DASHSPACE
 62
     3
100
AcDbLine
 10
98.63616399999997
 20
159.01163
 30
0.0
 11
98.63616399999997
 21
182.01163
 31
0.0
  0
LINE
  5
848
330
A
100
AcDbEntity
  8
Hawa6
  6
DASHSPACE
 62
     3
 48
0.04
100
AcDbLine
 10
98.63616399999997
 20
184.536631
 30
0.0
 11
100.236155
 21
184.536631
 31
0.0
  0
LINE
  5
849
330
A
100
AcDbEntity
  8
Hawa6
  6
DASHSPACE
 62
     3
 48
0.04
100
AcDbLine
 10
98.63616399999997
 20
174.88663
 30
0.0
 11
100.23617
 21
174.88663
 31
0.0
  0
LINE
  5
84A
330
A
100
AcDbEntity
  8
Hawa6
  6
DASHSPACE
 62
     3
 48
0.00625
100
AcDbLine
 10
95.43615200000001
 20
139.011632
 30
0.0
 11
95.68616699999997
 21
139.011632
 31
0.0
  0
LINE
  5
84B
330
A
100
AcDbEntity
  8
Hawa6
  6
DASHSPACE
 62
     3
 48
0.00625
100
AcDbLine
 10
95.43615200000001
 20
129.011631
 30
0.0
 11
95.68616699999997
 21
129.011631
 31
0.0
  0
LINE
  5
84C
330
A
100
AcDbEntity
  8
Hawa6
 62
     3
100
AcDbLine
 10
95.43616699999999
 20
121.211265
 30
0.0
 11
95.43616699999999
 21
145.547942
 31
0.0
  0
LINE
  5
84D
330
A
100
AcDbEntity
  8
Hawa6
  6
DASHSPACE
 62
     3
 48
0.175
100
AcDbLine
 10
98.63616399999997
 20
159.01163
 30
0.0
 11
98.63616399999997
 21
166.011634
 31
0.0
  0
LINE
  5
84E
330
A
100
AcDbEntity
  8
Hawa6
  6
DASHSPACE
 62
     3
 48
0.0625
100
AcDbLine
 10
95.63616399999999
 20
202.51163
 30
0.0
 11
98.13616399999999
 21
202.51163
 31
0.0
  0
LINE
  5
84F
330
A
100
AcDbEntity
  8
Hawa6
  6
DASHSPACE
 62
     3
 48
0.0125
100
AcDbLine
 10
98.63616399999997
 20
202.51163
 30
0.0
 11
98.13616399999999
 21
202.51163
 31
0.0
  0
LINE
  5
850
330
A
100
AcDbEntity
  8
Hawa6
  6
DASHSPACE
 62
     3
 48
0.005
100
AcDbLine
 10
95.63616399999999
 20
202.51163
 30
0.0
 11
95.43616699999999
 21
202.51163
 31
0.0
  0
LINE
  5
851
330
A
100
AcDbEntity
  8
Hawa6
 62
     3
100
AcDbLine
 10
95.43616699999999
 20
202.51163
 30
0.0
 11
95.43616699999999
 21
145.547942
 31
0.0
  0
LINE
  5
852
330
A
100
AcDbEntity
  8
Hawa6
  6
DASHSPACE
 62
     3
100
AcDbLine
 10
98.63616399999997
 20
202.51163
 30
0.0
 11
98.63616399999997
 21
181.891448
 31
0.0
  0
LINE
  5
853
330
A
100
AcDbEntity
  8
Hawa6
  6
DASHSPACE
 62
     3
100
AcDbLine
 10
98.63616399999997
 20
157.300307
 30
0.0
 11
98.63616399999997
 21
181.891448
 31
0.0
  0
LINE
  5
854
330
A
100
AcDbEntity
  8
Hawa6
  6
DASHSPACE
 62
     3
 48
0.116335
100
AcDbLine
 10
95.63616399999999
 20
197.858241
 30
0.0
 11
95.63616399999999
 21
202.51163
 31
0.0
  0
LINE
  5
855
330
A
100
AcDbEntity
  8
Hawa6
  6
DASHSPACE
 62
     3
100
AcDbLine
 10
98.13616399999999
 20
202.51163
 30
0.0
 11
98.13616399999999
 21
181.890044
 31
0.0
  0
LINE
  5
856
330
A
100
AcDbEntity
  8
Hawa6
  6
DASHSPACE
 62
     3
 48
0.399205
100
AcDbLine
 10
95.63616399999999
 20
181.890044
 30
0.0
 11
95.63616399999999
 21
197.858241
 31
0.0
  0
LINE
  5
857
330
A
100
AcDbEntity
  8
Hawa6
  6
DASHSPACE
 62
     3
 48
0.0625
100
AcDbLine
 10
95.63616399999999
 20
181.890044
 30
0.0
 11
98.13616399999999
 21
181.890044
 31
0.0
  0
LINE
  5
858
330
A
100
AcDbEntity
  8
Hawa6
  6
DASHSPACE
 62
     3
 48
0.0125
100
AcDbLine
 10
98.13616399999999
 20
181.890044
 30
0.0
 11
98.63616399999997
 21
181.891448
 31
0.0
  0
LINE
  5
859
330
A
100
AcDbEntity
  8
Hawa6
  6
DASHSPACE
 62
     3
100
AcDbLine
 10
98.13616399999999
 20
157.01163
 30
0.0
 11
98.13616399999999
 21
181.890044
 31
0.0
  0
LINE
  5
85A
330
A
100
AcDbEntity
  8
Hawa6
  6
DASHSPACE
 62
     3
100
AcDbLine
 10
95.63616399999999
 20
157.01163
 30
0.0
 11
95.63616399999999
 21
181.890044
 31
0.0
  0
LINE
  5
85B
330
A
100
AcDbEntity
  8
Hawa6
  6
DASHSPACE
 62
     3
 48
0.005
100
AcDbLine
 10
95.63616399999999
 20
182.01163
 30
0.0
 11
95.43616699999999
 21
182.01163
 31
0.0
  0
LINE
  5
85C
330
A
100
AcDbEntity
  8
Hawa6
  6
DASHSPACE
 62
     3
 48
0.014434
100
AcDbLine
 10
98.63616399999997
 20
157.300307
 30
0.0
 11
98.13616399999999
 21
157.01163
 31
0.0
  0
LINE
  5
85D
330
A
100
AcDbEntity
  8
Hawa6
  6
DASHSPACE
 62
     3
 48
0.0625
100
AcDbLine
 10
95.63616399999999
 20
157.01163
 30
0.0
 11
98.13616399999999
 21
157.01163
 31
0.0
  0
LINE
  5
85E
330
A
100
AcDbEntity
  8
Hawa6
  6
DASHSPACE
 62
     3
 48
0.005
100
AcDbLine
 10
95.43615200000001
 20
157.644595
 30
0.0
 11
95.63616399999999
 21
157.644595
 31
0.0
  0
LINE
  5
85F
330
A
100
AcDbEntity
  8
Hawa6
  6
DASHSPACE
 62
     3
 48
0.04
100
AcDbLine
 10
100.23617
 20
172.51163
 30
0.0
 11
98.63616399999997
 21
172.51163
 31
0.0
  0
LINE
  5
860
330
A
100
AcDbEntity
  8
Hawa6
  6
DASHSPACE
 62
     3
 48
0.12
100
AcDbLine
 10
100.23617
 20
202.51163
 30
0.0
 11
95.43615200000001
 21
202.51163
 31
0.0
  0
LINE
  5
861
330
A
100
AcDbEntity
  8
Hawa6
  6
DASHSPACE
 62
     3
 48
0.08
100
AcDbLine
 10
103.436152
 20
202.51163
 30
0.0
 11
100.23617
 21
202.51163
 31
0.0
  0
LINE
  5
862
330
A
100
AcDbEntity
  8
Hawa6
  6
DASHSPACE
 62
     3
 48
0.04
100
AcDbLine
 10
100.23617
 20
201.01163
 30
0.0
 11
98.63616399999997
 21
201.01163
 31
0.0
  0
LINE
  5
863
330
A
100
AcDbEntity
  8
Hawa6
  6
DASHSPACE
 62
     3
 48
0.04
100
AcDbLine
 10
100.23617
 20
199.01163
 30
0.0
 11
98.63616399999997
 21
199.01163
 31
0.0
  0
LINE
  5
864
330
A
100
AcDbEntity
  8
Hawa6
  6
DASHSPACE
 62
     3
 48
0.04
100
AcDbLine
 10
100.23617
 20
185.01163
 30
0.0
 11
98.63616399999997
 21
185.01163
 31
0.0
  0
LINE
  5
865
330
A
100
AcDbEntity
  8
Hawa6
  6
DASHSPACE
 62
     3
 48
0.021651
100
AcDbLine
 10
100.23617
 20
202.51163
 30
0.0
 11
101.102198
 21
202.51163
 31
0.0
  0
LINE
  5
866
330
A
100
AcDbEntity
  8
Hawa6
  6
DASHSPACE
 62
     3
 48
0.053349
100
AcDbLine
 10
103.23617
 20
202.51163
 30
0.0
 11
101.102198
 21
202.51163
 31
0.0
  0
LINE
  5
867
330
A
100
AcDbEntity
  8
Hawa6
  6
DASHSPACE
 62
     3
 48
0.005
100
AcDbLine
 10
103.23617
 20
202.51163
 30
0.0
 11
103.436167
 21
202.51163
 31
0.0
  0
LINE
  5
868
330
A
100
AcDbEntity
  8
Hawa6
  6
DASHSPACE
 62
     3
100
AcDbLine
 10
100.23617
 20
181.892474
 30
0.0
 11
100.23617
 21
157.51163
 31
0.0
  0
LINE
  5
869
330
A
100
AcDbEntity
  8
Hawa6
  6
DASHSPACE
 62
     3
100
AcDbLine
 10
100.23617
 20
181.892474
 30
0.0
 11
100.23617
 21
202.51163
 31
0.0
  0
LINE
  5
86A
330
A
100
AcDbEntity
  8
Hawa6
  6
DASHSPACE
 62
     3
 48
0.021651
100
AcDbLine
 10
100.23617
 20
181.892474
 30
0.0
 11
101.102198
 21
181.890044
 31
0.0
  0
LINE
  5
86B
330
A
100
AcDbEntity
  8
Hawa6
  6
DASHSPACE
 62
     3
100
AcDbLine
 10
101.102198
 20
181.890044
 30
0.0
 11
101.102198
 21
202.51163
 31
0.0
  0
LINE
  5
86C
330
A
100
AcDbEntity
  8
Hawa6
  6
DASHSPACE
 62
     3
100
AcDbLine
 10
101.102198
 20
181.890044
 30
0.0
 11
101.102198
 21
157.01163
 31
0.0
  0
LINE
  5
86D
330
A
100
AcDbEntity
  8
Hawa6
  6
DASHSPACE
 62
     3
 48
0.005
100
AcDbLine
 10
103.23617
 20
181.890044
 30
0.0
 11
103.436167
 21
181.890044
 31
0.0
  0
LINE
  5
86E
330
A
100
AcDbEntity
  8
Hawa6
  6
DASHSPACE
 62
     3
 48
0.053349
100
AcDbLine
 10
103.23617
 20
181.890044
 30
0.0
 11
101.102198
 21
181.890044
 31
0.0
  0
LINE
  5
86F
330
A
100
AcDbEntity
  8
Hawa6
  6
DASHSPACE
 62
     3
 48
0.025
100
AcDbLine
 10
100.23617
 20
157.51163
 30
0.0
 11
101.102198
 21
157.01163
 31
0.0
  0
LINE
  5
870
330
A
100
AcDbEntity
  8
Hawa6
  6
DASHSPACE
 62
     3
 48
0.058348
100
AcDbLine
 10
103.436137
 20
157.01163
 30
0.0
 11
101.102198
 21
157.01163
 31
0.0
  0
LINE
  5
871
330
A
100
AcDbEntity
  8
Hawa6
  6
DASHSPACE
 62
     3
 48
0.4406560000000001
100
AcDbLine
 10
95.68616699999997
 20
142.737885
 30
0.0
 11
95.68616699999997
 21
125.111631
 31
0.0
  0
LINE
  5
872
330
A
100
AcDbEntity
  8
Hawa6
  6
DASHSPACE
 62
     3
 48
0.059344
100
AcDbLine
 10
95.68616699999997
 20
142.737885
 30
0.0
 11
95.68616699999997
 21
145.111632
 31
0.0
  0
LINE
  5
873
330
A
100
AcDbEntity
  8
Hawa6
  6
DASHSPACE
 62
     3
 48
0.193749
100
AcDbLine
 10
103.436137
 20
142.737885
 30
0.0
 11
95.68616699999997
 21
142.737885
 31
0.0
  0
LINE
  5
874
330
A
100
AcDbEntity
  8
Hawa6
  6
DASHSPACE
 62
     3
 48
0.193749
100
AcDbLine
 10
103.436137
 20
145.111632
 30
0.0
 11
95.68616699999997
 21
145.111632
 31
0.0
  0
LINE
  5
875
330
A
100
AcDbEntity
  8
Hawa6
  6
DASHSPACE
 62
     3
 48
0.19375
100
AcDbLine
 10
103.436152
 20
125.111631
 30
0.0
 11
95.68616699999997
 21
125.111631
 31
0.0
  0
LWPOLYLINE
  5
876
330
A
100
AcDbEntity
  8
Hawa6
  6
DASHED
 62
     3
100
AcDbPolyline
 90
        8
 70
     0
 43
0.0
 10
106.091197
 20
135.767285
 10
106.09611
 20
135.83901
 10
106.107051
 20
135.911698
 10
106.124324
 20
135.986145
 10
106.148387
 20
136.063231
 10
106.179927
 20
136.143944
 10
106.219874
 20
136.229415
 10
106.269496
 20
136.321032
  0
LWPOLYLINE
  5
877
330
A
100
AcDbEntity
  8
Hawa6
  6
DASHED
 62
     3
100
AcDbPolyline
 90
       23
 70
     0
 43
0.0
 10
106.269496
 20
135.166332
 10
106.236384
 20
135.226069
 10
106.205577
 20
135.287013
 10
106.180644
 20
135.341753
 10
106.1580909999999
 20
135.397516
 10
106.14001
 20
135.448835
 10
106.1244
 20
135.500954
 10
106.1123
 20
135.550101
 10
106.102763
 20
135.599803
 10
106.096171
 20
135.647758
 10
106.092173
 20
135.695999
 10
106.090876
 20
135.743627
 10
106.092173
 20
135.791256
 10
106.096156
 20
135.839438
 10
106.102717
 20
135.887337
 10
106.112254
 20
135.937009
 10
106.124324
 20
135.986128
 10
106.139933
 20
136.038301
 10
106.15803
 20
136.089674
 10
106.180598
 20
136.145506
 10
106.205561
 20
136.200313
 10
106.236369
 20
136.261277
 10
106.269496
 20
136.321032
  0
LWPOLYLINE
  5
878
330
A
100
AcDbEntity
  8
Hawa6
  6
DASHED
 62
     3
100
AcDbPolyline
 90
       23
 70
     0
 43
0.0
 10
106.269496
 20
135.166332
 10
106.236155
 20
135.046012
 10
106.205577
 20
134.92497
 10
106.180491
 20
134.814757
 10
106.1580909999999
 20
134.703965
 10
106.139918
 20
134.600742
 10
106.1244
 20
134.497088
 10
106.112254
 20
134.398383
 10
106.102763
 20
134.29939
 10
106.096156
 20
134.203266
 10
106.092173
 20
134.106997
 10
106.090876
 20
134.01174
 10
106.092173
 20
133.916485
 10
106.096141
 20
133.82033
 10
106.102717
 20
133.72432
 10
106.112208
 20
133.625387
 10
106.124324
 20
133.526741
 10
106.139842
 20
133.422978
 10
106.15803
 20
133.319647
 10
106.180445
 20
133.208718
 10
106.205561
 20
133.098369
 10
106.236155
 20
132.97729
 10
106.269496
 20
132.85693
  0
LWPOLYLINE
  5
879
330
A
100
AcDbEntity
  8
Hawa6
  6
DASHED
 62
     3
100
AcDbPolyline
 90
        8
 70
     0
 43
0.0
 10
106.091197
 20
132.255977
 10
106.092585
 20
132.334219
 10
106.101115
 20
132.41311
 10
106.11703
 20
132.493663
 10
106.140849
 20
132.576979
 10
106.173365
 20
132.664284
 10
106.215724
 20
132.75701
 10
106.269496
 20
132.85693
  0
LINE
  5
87A
330
A
100
AcDbEntity
  8
Hawa6
  6
DASHED
 62
     3
 48
0.0625
100
AcDbLine
 10
108.769496
 20
132.85693
 30
0.0
 11
106.269496
 21
132.85693
 31
0.0
  0
LINE
  5
87B
330
A
100
AcDbEntity
  8
Hawa6
  6
DASHED
 62
     3
 48
0.0625
100
AcDbLine
 10
108.769496
 20
131.70223
 30
0.0
 11
106.269496
 21
131.70223
 31
0.0
  0
LWPOLYLINE
  5
87C
330
A
100
AcDbEntity
  8
Hawa6
  6
DASHED
 62
     3
100
AcDbPolyline
 90
        8
 70
     0
 43
0.0
 10
106.091197
 20
132.255977
 10
106.09611
 20
132.184252
 10
106.107051
 20
132.111564
 10
106.124324
 20
132.037118
 10
106.148387
 20
131.960031
 10
106.179927
 20
131.879319
 10
106.219874
 20
131.793848
 10
106.269496
 20
131.70223
  0
LINE
  5
87D
330
A
100
AcDbEntity
  8
Hawa6
  6
DASHED
 62
     3
 48
0.0625
100
AcDbLine
 10
106.269496
 20
135.166332
 30
0.0
 11
108.769496
 21
135.166332
 31
0.0
  0
LINE
  5
87E
330
A
100
AcDbEntity
  8
Hawa6
  6
DASHED
 62
     3
 48
0.0625
100
AcDbLine
 10
108.769496
 20
136.321032
 30
0.0
 11
106.269496
 21
136.321032
 31
0.0
  0
LWPOLYLINE
  5
880
330
A
100
AcDbEntity
  8
Hawa6
  6
DASHED
 62
     3
100
AcDbPolyline
 90
        8
 70
     0
 43
0.0
 10
106.091197
 20
135.767285
 10
106.092585
 20
135.689044
 10
106.101115
 20
135.610152
 10
106.11703
 20
135.5296
 10
106.140849
 20
135.446283
 10
106.173365
 20
135.358978
 10
106.215724
 20
135.266252
 10
106.269496
 20
135.166332
  0
LWPOLYLINE
  5
881
330
A
100
AcDbEntity
  8
Hawa6
  6
DASHED
 62
     3
100
AcDbPolyline
 90
       15
 70
     0
 43
0.0
 10
106.269496
 20
132.85693
 10
106.220164
 20
132.765917
 10
106.176615
 20
132.672074
 10
106.145579
 20
132.591047
 10
106.1206
 20
132.507957
 10
106.104182
 20
132.431808
 10
106.094111
 20
132.354577
 10
106.090892
 20
132.279648
 10
106.094096
 20
132.204719
 10
106.104151
 20
132.127564
 10
106.120524
 20
132.05149
 10
106.145518
 20
131.968309
 10
106.176585
 20
131.887196
 10
106.220149
 20
131.793296
 10
106.269496
 20
131.70223
  0
LWPOLYLINE
  5
882
330
A
100
AcDbEntity
  8
Hawa6
  6
DASHED
 62
     3
100
AcDbPolyline
 90
       15
 70
     0
 43
0.0
 10
106.269496
 20
132.85693
 10
106.219676
 20
133.040958
 10
106.176615
 20
133.226643
 10
106.14532
 20
133.390199
 10
106.1206
 20
133.554879
 10
106.104106
 20
133.70798
 10
106.094111
 20
133.861638
 10
106.090876
 20
134.011496
 10
106.094096
 20
134.161355
 10
106.104075
 20
134.314861
 10
106.120524
 20
134.467814
 10
106.145259
 20
134.632669
 10
106.176585
 20
134.796401
 10
106.219645
 20
134.982196
 10
106.269496
 20
135.166332
  0
LINE
  5
884
330
A
100
AcDbEntity
  8
Hawa6
  6
DASHSPACE
 62
     3
 48
0.00689
100
AcDbLine
 10
92.76949599999998
 20
132.036
 30
0.0
 11
92.76949599999998
 21
131.760412
 31
0.0
  0
LINE
  5
885
330
A
100
AcDbEntity
  8
Hawa6
  6
DASHSPACE
 62
     3
 48
0.140819
100
AcDbLine
 10
93.518275
 20
136.644379
 30
0.0
 11
93.518275
 21
131.011632
 31
0.0
  0
LINE
  5
886
330
A
100
AcDbEntity
  8
Hawa6
  6
DASHSPACE
 62
     3
 48
0.105671
100
AcDbLine
 10
92.76949599999998
 20
136.26285
 30
0.0
 11
92.76949599999998
 21
132.036
 31
0.0
  0
LINE
  5
887
330
A
100
AcDbEntity
  8
Hawa6
  6
DASHSPACE
 62
     3
 48
0.140819
100
AcDbLine
 10
93.518275
 20
137.011632
 30
0.0
 11
93.518275
 21
131.378884
 31
0.0
  0
LINE
  5
888
330
A
100
AcDbEntity
  8
Hawa6
  6
DASHED
 62
     3
 48
0.281637
100
AcDbLine
 10
108.536173
 20
139.277127
 30
0.0
 11
108.536173
 21
128.011631
 31
0.0
  0
LINE
  5
889
330
A
100
AcDbEntity
  8
Hawa6
  6
DASHED
 62
     3
 48
0.018363
100
AcDbLine
 10
108.769496
 20
128.746136
 30
0.0
 11
108.769496
 21
128.011631
 31
0.0
  0
LINE
  5
88A
330
A
100
AcDbEntity
  8
Hawa6
  6
DASHED
 62
     3
 48
0.281637
100
AcDbLine
 10
108.536173
 20
140.011632
 30
0.0
 11
108.536173
 21
128.746136
 31
0.0
  0
LINE
  5
88B
330
A
100
AcDbEntity
  8
Hawa6
  6
DASHED
 62
     3
 48
0.281637
100
AcDbLine
 10
108.769496
 20
140.011632
 30
0.0
 11
108.769496
 21
128.746136
 31
0.0
  0
LINE
  5
88C
330
A
100
AcDbEntity
  8
Hawa6
  6
DASHED
 62
     3
 48
0.140819
100
AcDbLine
 10
105.453318
 20
136.644379
 30
0.0
 11
105.453318
 21
131.011632
 31
0.0
  0
LINE
  5
88D
330
A
100
AcDbEntity
  8
Hawa6
  6
DASHED
 62
     3
 48
0.140819
100
AcDbLine
 10
105.453318
 20
131.378884
 30
0.0
 11
105.453318
 21
137.011632
 31
0.0
  0
LINE
  5
88E
330
A
100
AcDbEntity
  8
Hawa6
  6
DASHED
 62
     3
 48
0.143568
100
AcDbLine
 10
105.594752
 20
136.695786
 30
0.0
 11
105.594752
 21
130.953052
 31
0.0
  0
LINE
  5
88F
330
A
100
AcDbEntity
  8
Hawa6
  6
DASHED
 62
     3
 48
0.143568
100
AcDbLine
 10
105.594752
 20
131.327476
 30
0.0
 11
105.594752
 21
137.07021
 31
0.0
  0
LINE
  5
890
330
A
100
AcDbEntity
  8
Hawa6
  6
DASHED
 62
     3
 48
0.066667
100
AcDbLine
 10
104.936167
 20
134.011632
 30
0.0
 11
106.269496
 21
136.321032
 31
0.0
  0
LINE
  5
891
330
A
100
AcDbEntity
  8
Hawa6
  6
DASHED
 62
     3
 48
0.066667
100
AcDbLine
 10
104.936167
 20
134.011632
 30
0.0
 11
106.269496
 21
131.70223
 31
0.0
  0
LINE
  5
892
330
A
100
AcDbEntity
  8
Hawa6
  6
DASHSPACE
 62
     3
 48
0.026473
100
AcDbLine
 10
92.76949599999998
 20
131.760412
 30
0.0
 11
93.518275
 21
131.011632
 31
0.0
  0
LINE
  5
893
330
A
100
AcDbEntity
  8
Hawa6
  6
DASHSPACE
 62
     3
 48
0.026473
100
AcDbLine
 10
92.76949599999998
 20
136.26285
 30
0.0
 11
93.518275
 21
137.011632
 31
0.0
  0
LINE
  5
894
330
A
100
AcDbEntity
  8
Hawa6
  6
DASHED
 62
     3
 48
0.005833
100
AcDbLine
 10
108.769496
 20
128.011631
 30
0.0
 11
108.536173
 21
128.011631
 31
0.0
  0
LINE
  5
895
330
A
100
AcDbEntity
  8
Hawa6
  6
DASHED
 62
     3
 48
0.005833
100
AcDbLine
 10
108.769496
 20
140.011632
 30
0.0
 11
108.536173
 21
140.011632
 31
0.0
  0
LINE
  5
896
330
A
100
AcDbEntity
  8
Hawa6
  6
DASHED
 62
     3
 48
0.298376
100
AcDbLine
 10
105.453318
 20
131.011632
 30
0.0
 11
93.518275
 21
131.011632
 31
0.0
  0
LINE
  5
897
330
A
100
AcDbEntity
  8
Hawa6
  6
DASHED
 62
     3
 48
0.298376
100
AcDbLine
 10
105.453318
 20
137.011632
 30
0.0
 11
93.518275
 21
137.011632
 31
0.0
  0
LINE
  5
898
330
A
100
AcDbEntity
  8
Hawa6
  6
DASHED
 62
     3
 48
0.103995
100
AcDbLine
 10
105.594752
 20
130.953052
 30
0.0
 11
108.536173
 21
128.011631
 31
0.0
  0
LINE
  5
899
330
A
100
AcDbEntity
  8
Hawa6
  6
DASHED
 62
     3
 48
0.103995
100
AcDbLine
 10
105.594752
 20
137.07021
 30
0.0
 11
108.536173
 21
140.011632
 31
0.0
  0
ARC
  5
89A
330
A
100
AcDbEntity
  8
Hawa6
  6
DASHED
 62
     3
100
AcDbCircle
 10
105.453303
 20
130.811594
 30
0.0
 40
0.200036
100
AcDbArc
 50
45.00448900000455
 51
89.99550800000328
  0
ARC
  5
89B
330
A
100
AcDbEntity
  8
Hawa6
  6
DASHED
 62
     3
100
AcDbCircle
 10
105.453303
 20
137.21167
 30
0.0
 40
0.200036
100
AcDbArc
 50
270.0044919999967
 51
314.995507999999
  0
LINE
  5
89C
330
A
100
AcDbEntity
  8
Hawa6
  6
DASHSPACE
 62
     3
 48
0.040134
100
AcDbLine
 10
100.241542
 20
166.01163
 30
0.0
 11
98.63616399999997
 21
166.01163
 31
0.0
  0
ARC
  5
89D
330
A
100
AcDbEntity
  8
Hawa6
  6
DASHSPACE
 62
     3
100
AcDbCircle
 10
102.184901
 20
177.497847
 30
0.0
 40
11.530005
100
AcDbArc
 50
252.077712
 51
260.285379
  0
ARC
  5
89E
330
A
100
AcDbEntity
  8
Hawa6
  6
DASHSPACE
 62
     3
100
AcDbCircle
 10
102.186503
 20
161.01921
 30
0.0
 40
11.536407
100
AcDbArc
 50
99.73614999999997
 51
107.924496
  0
LINE
  5
89F
330
A
100
AcDbEntity
  8
Hawa6
 62
     3
 48
0.0625
100
AcDbLine
 10
95.93616699999998
 20
205.51163
 30
0.0
 11
93.43616699999998
 21
205.51163
 31
0.0
  0
LINE
  5
8A0
330
A
100
AcDbEntity
  8
Hawa6
 62
     3
 48
0.1875
100
AcDbLine
 10
103.436167
 20
205.51163
 30
0.0
 11
95.93616699999998
 21
205.51163
 31
0.0
  0
LINE
  5
8A1
330
A
100
AcDbEntity
  8
Hawa6
 62
     3
 48
0.025001
100
AcDbLine
 10
93.43616699999998
 20
204.511607
 30
0.0
 11
93.43616699999998
 21
205.51163
 31
0.0
  0
LINE
  5
8A2
330
A
100
AcDbEntity
  8
Hawa6
 62
     3
 48
0.325
100
AcDbLine
 10
94.43616699999997
 20
205.51163
 30
0.0
 11
94.43616699999997
 21
218.51163
 31
0.0
  0
LINE
  5
8A3
330
A
100
AcDbEntity
  8
Hawa6
 62
     3
 48
0.325
100
AcDbLine
 10
102.436167
 20
205.51163
 30
0.0
 11
102.436167
 21
218.51163
 31
0.0
  0
LINE
  5
8A4
330
A
100
AcDbEntity
  8
Hawa6
 62
     3
 48
0.085048
100
AcDbLine
 10
98.51459799999998
 20
206.51163
 30
0.0
 11
95.112666
 21
206.51163
 31
0.0
  0
LINE
  5
8A5
330
A
100
AcDbEntity
  8
Hawa6
 62
     3
 48
0.10236
100
AcDbLine
 10
102.436167
 20
206.51163
 30
0.0
 11
98.34177699999997
 21
206.51163
 31
0.0
  0
LINE
  5
8A6
330
A
100
AcDbEntity
  8
Hawa6
 62
     3
 48
0.09764
100
AcDbLine
 10
98.34177699999997
 20
206.51163
 30
0.0
 11
94.43616699999997
 21
206.51163
 31
0.0
  0
LINE
  5
8A7
330
A
100
AcDbEntity
  8
Hawa6
 62
     3
 48
0.299999
100
AcDbLine
 10
95.112666
 20
206.51163
 30
0.0
 11
95.112666
 21
218.511607
 31
0.0
  0
LINE
  5
8A8
330
A
100
AcDbEntity
  8
Hawa6
 62
     3
 48
0.299999
100
AcDbLine
 10
101.759669
 20
206.51163
 30
0.0
 11
101.759669
 21
218.511607
 31
0.0
  0
LINE
  5
8A9
330
A
100
AcDbEntity
  8
Hawa6
 62
     3
 48
0.030183
100
AcDbLine
 10
95.112666
 20
206.51163
 30
0.0
 11
94.43616699999997
 21
205.51163
 31
0.0
  0
LINE
  5
8AA
330
A
100
AcDbEntity
  8
Hawa6
 62
     3
 48
0.030183
100
AcDbLine
 10
101.759669
 20
206.51163
 30
0.0
 11
102.436167
 21
205.51163
 31
0.0
  0
LINE
  5
8AB
330
A
100
AcDbEntity
  8
Hawa6
 62
     3
 48
0.025001
100
AcDbLine
 10
103.436167
 20
204.511607
 30
0.0
 11
103.436167
 21
205.51163
 31
0.0
  0
LINE
  5
8AC
330
A
100
AcDbEntity
  8
Hawa6
 62
     3
 48
0.27486
100
AcDbLine
 10
102.436167
 20
205.51163
 30
0.0
 11
102.436167
 21
216.506045
 31
0.0
  0
ARC
  5
8AD
330
A
100
AcDbEntity
  8
Hawa6
 62
     3
100
AcDbCircle
 10
102.33079
 20
234.51163
 30
0.0
 40
1.0
100
AcDbArc
 50
269.9999970000007
 51
358.0000029999996
  0
LINE
  5
8AE
330
A
100
AcDbEntity
  8
Hawa6
 62
     3
 48
0.075919
100
AcDbLine
 10
93.54215499999998
 20
215.546534
 30
0.0
 11
93.43616699999998
 21
212.51163
 31
0.0
  0
LINE
  5
8AF
330
A
100
AcDbEntity
  8
Hawa6
 62
     3
 48
0.075919
100
AcDbLine
 10
93.54215499999998
 20
234.476733
 30
0.0
 11
93.43616699999998
 21
237.51163
 31
0.0
  0
LINE
  5
8B0
330
A
100
AcDbEntity
  8
Hawa6
 62
     3
 48
0.194731
100
AcDbLine
 10
102.33079
 20
233.51163
 30
0.0
 11
94.54154499999999
 21
233.51163
 31
0.0
  0
ARC
  5
8B1
330
A
100
AcDbEntity
  8
Hawa6
 62
     3
100
AcDbCircle
 10
94.54154499999999
 20
234.51163
 30
0.0
 40
1.0
100
AcDbArc
 50
181.9999970000004
 51
270.0000040000007
  0
LINE
  5
8B2
330
A
100
AcDbEntity
  8
Hawa6
 62
     3
 48
0.07
100
AcDbLine
 10
106.23617
 20
237.51163
 30
0.0
 11
103.436167
 21
237.51163
 31
0.0
  0
ARC
  5
8B3
330
A
100
AcDbEntity
  8
Hawa6
 62
     3
100
AcDbCircle
 10
106.23617
 20
237.311633
 30
0.0
 40
0.2
100
AcDbArc
 50
359.9999969216753
 51
90.00000300000095
  0
LINE
  5
8B4
330
A
100
AcDbEntity
  8
Hawa6
 62
     3
 48
0.07
100
AcDbLine
 10
93.43616699999998
 20
237.51163
 30
0.0
 11
90.63616399999999
 21
237.51163
 31
0.0
  0
ARC
  5
8B5
330
A
100
AcDbEntity
  8
Hawa6
 62
     3
100
AcDbCircle
 10
90.63616399999999
 20
237.311633
 30
0.0
 40
0.2
100
AcDbArc
 50
89.99999599999602
 51
180.0000049783131
  0
LINE
  5
8BF
330
A
100
AcDbEntity
  8
Hawa6
 62
     3
 48
0.006249
100
AcDbLine
 10
87.43616699999998
 20
226.506632
 30
0.0
 11
87.68613700000001
 21
226.506632
 31
0.0
  0
LINE
  5
8C0
330
A
100
AcDbEntity
  8
Hawa6
 62
     3
 48
0.006251
100
AcDbLine
 10
109.186137
 20
226.506632
 30
0.0
 11
109.436167
 21
226.506632
 31
0.0
  0
LINE
  5
8C1
330
A
100
AcDbEntity
  8
Hawa6
 62
     3
 48
0.00625
100
AcDbLine
 10
87.43616699999998
 20
226.506632
 30
0.0
 11
87.68615199999997
 21
226.506632
 31
0.0
  0
LINE
  5
8C2
330
A
100
AcDbEntity
  8
Hawa6
 62
     3
 48
0.00625
100
AcDbLine
 10
109.186152
 20
226.506632
 30
0.0
 11
109.436167
 21
226.506632
 31
0.0
  0
LINE
  5
8C3
330
A
100
AcDbEntity
  8
Hawa6
 62
     3
 48
0.038256
100
AcDbLine
 10
93.43616699999998
 20
235.98141
 30
0.0
 11
93.43616699999998
 21
237.51163
 31
0.0
  0
LINE
  5
8C4
330
A
100
AcDbEntity
  8
Hawa6
 62
     3
 48
0.028967
100
AcDbLine
 10
93.54215499999998
 20
233.318041
 30
0.0
 11
93.54215499999998
 21
234.476733
 31
0.0
  0
LINE
  5
8C5
330
A
100
AcDbEntity
  8
Hawa6
 62
     3
 48
0.111011
100
AcDbLine
 10
93.43616699999998
 20
231.540972
 30
0.0
 11
93.43616699999998
 21
235.98141
 31
0.0
  0
LINE
  5
8C6
330
A
100
AcDbEntity
  8
Hawa6
 62
     3
 48
0.149379
100
AcDbLine
 10
93.43616699999998
 20
212.51163
 30
0.0
 11
93.43616699999998
 21
218.486781
 31
0.0
  0
LINE
  5
8C7
330
A
100
AcDbEntity
  8
Hawa6
 62
     3
 48
0.074129
100
AcDbLine
 10
93.54215499999998
 20
215.546534
 30
0.0
 11
93.54215499999998
 21
218.511691
 31
0.0
  0
LINE
  5
8C8
330
A
100
AcDbEntity
  8
Hawa6
 62
     3
 48
0.045162
100
AcDbLine
 10
93.54215499999998
 20
231.511561
 30
0.0
 11
93.54215499999998
 21
233.318041
 31
0.0
  0
LINE
  5
8C9
330
A
100
AcDbEntity
  8
Hawa6
 62
     3
 48
0.026014
100
AcDbLine
 10
94.54154499999999
 20
232.47108
 30
0.0
 11
94.54154499999999
 21
233.51163
 31
0.0
  0
LINE
  5
8CA
330
A
100
AcDbEntity
  8
Hawa6
 62
     3
 48
0.023986
100
AcDbLine
 10
94.54154499999999
 20
231.51163
 30
0.0
 11
94.54154499999999
 21
232.47108
 31
0.0
  0
LINE
  5
8CB
330
A
100
AcDbEntity
  8
Hawa6
 62
     3
 48
0.038256
100
AcDbLine
 10
103.436167
 20
235.98141
 30
0.0
 11
103.436167
 21
237.51163
 31
0.0
  0
LINE
  5
8CC
330
A
100
AcDbEntity
  8
Hawa6
 62
     3
 48
0.028967
100
AcDbLine
 10
103.33018
 20
233.318041
 30
0.0
 11
103.33018
 21
234.476733
 31
0.0
  0
LINE
  5
8CD
330
A
100
AcDbEntity
  8
Hawa6
 62
     3
 48
0.111011
100
AcDbLine
 10
103.436167
 20
231.540972
 30
0.0
 11
103.436167
 21
235.98141
 31
0.0
  0
LINE
  5
8CE
330
A
100
AcDbEntity
  8
Hawa6
 62
     3
 48
0.149379
100
AcDbLine
 10
103.436167
 20
212.51163
 30
0.0
 11
103.436167
 21
218.486781
 31
0.0
  0
LINE
  5
8CF
330
A
100
AcDbEntity
  8
Hawa6
 62
     3
 48
0.074129
100
AcDbLine
 10
103.33018
 20
215.546534
 30
0.0
 11
103.33018
 21
218.511691
 31
0.0
  0
LINE
  5
8D0
330
A
100
AcDbEntity
  8
Hawa6
 62
     3
 48
0.045162
100
AcDbLine
 10
103.33018
 20
231.511561
 30
0.0
 11
103.33018
 21
233.318041
 31
0.0
  0
LINE
  5
8D1
330
A
100
AcDbEntity
  8
Hawa6
 62
     3
 48
0.026014
100
AcDbLine
 10
102.33079
 20
232.47108
 30
0.0
 11
102.33079
 21
233.51163
 31
0.0
  0
LINE
  5
8D2
330
A
100
AcDbEntity
  8
Hawa6
 62
     3
 48
0.023986
100
AcDbLine
 10
102.33079
 20
231.51163
 30
0.0
 11
102.33079
 21
232.47108
 31
0.0
  0
LINE
  5
8D3
330
A
100
AcDbEntity
  8
Hawa6
 62
     3
 48
0.038256
100
AcDbLine
 10
90.63616399999999
 20
235.98141
 30
0.0
 11
90.63616399999999
 21
237.51163
 31
0.0
  0
LINE
  5
8D4
330
A
100
AcDbEntity
  8
Hawa6
 62
     3
 48
0.111745
100
AcDbLine
 10
90.63616399999999
 20
231.511607
 30
0.0
 11
90.63616399999999
 21
235.98141
 31
0.0
  0
LINE
  5
8D5
330
A
100
AcDbEntity
  8
Hawa6
 62
     3
 48
0.150001
100
AcDbLine
 10
90.63616399999999
 20
212.51163
 30
0.0
 11
90.63616399999999
 21
218.511653
 31
0.0
  0
LINE
  5
8D6
330
A
100
AcDbEntity
  8
Hawa6
 62
     3
 48
0.107357
100
AcDbLine
 10
90.43616699999999
 20
231.511599
 30
0.0
 11
90.43616699999999
 21
235.805895
 31
0.0
  0
LINE
  5
8D7
330
A
100
AcDbEntity
  8
Hawa6
 62
     3
 48
0.145
100
AcDbLine
 10
90.43616699999999
 20
212.711634
 30
0.0
 11
90.43616699999999
 21
218.511653
 31
0.0
  0
LINE
  5
8D8
330
A
100
AcDbEntity
  8
Hawa6
 62
     3
 48
0.037643
100
AcDbLine
 10
90.43616699999999
 20
235.805895
 30
0.0
 11
90.43616699999999
 21
237.311633
 31
0.0
  0
LINE
  5
8D9
330
A
100
AcDbEntity
  8
Hawa6
 62
     3
 48
0.037643
100
AcDbLine
 10
106.436167
 20
235.805895
 30
0.0
 11
106.436167
 21
237.311633
 31
0.0
  0
LINE
  5
8DA
330
A
100
AcDbEntity
  8
Hawa6
 62
     3
 48
0.107357
100
AcDbLine
 10
106.436167
 20
231.511599
 30
0.0
 11
106.436167
 21
235.805895
 31
0.0
  0
LINE
  5
8DB
330
A
100
AcDbEntity
  8
Hawa6
 62
     3
 48
0.145
100
AcDbLine
 10
106.436167
 20
212.711634
 30
0.0
 11
106.436167
 21
218.511653
 31
0.0
  0
LINE
  5
8DC
330
A
100
AcDbEntity
  8
Hawa6
 62
     3
 48
0.038256
100
AcDbLine
 10
106.23617
 20
235.98141
 30
0.0
 11
106.23617
 21
237.51163
 31
0.0
  0
LINE
  5
8DD
330
A
100
AcDbEntity
  8
Hawa6
 62
     3
 48
0.111745
100
AcDbLine
 10
106.23617
 20
231.511607
 30
0.0
 11
106.23617
 21
235.98141
 31
0.0
  0
LINE
  5
8DE
330
A
100
AcDbEntity
  8
Hawa6
 62
     3
 48
0.150001
100
AcDbLine
 10
106.23617
 20
212.51163
 30
0.0
 11
106.23617
 21
218.511653
 31
0.0
  0
ARC
  5
8E2
330
A
100
AcDbEntity
  8
Hawa6
 62
     3
100
AcDbCircle
 10
94.54154499999999
 20
215.5116299999999
 30
0.0
 40
1.0
100
AcDbArc
 50
96.04936399999921
 51
178.0000029999996
  0
LINE
  5
8E3
330
A
100
AcDbEntity
  8
Hawa6
 62
     3
 48
0.075919
100
AcDbLine
 10
103.33018
 20
234.476733
 30
0.0
 11
103.436167
 21
237.51163
 31
0.0
  0
LINE
  5
8E4
330
A
100
AcDbEntity
  8
Hawa6
 62
     3
 48
0.075919
100
AcDbLine
 10
103.33018
 20
215.546534
 30
0.0
 11
103.436167
 21
212.51163
 31
0.0
  0
ARC
  5
8E7
330
A
100
AcDbEntity
  8
Hawa6
 62
     3
100
AcDbCircle
 10
102.33079
 20
215.5116299999999
 30
0.0
 40
1.0
100
AcDbArc
 50
2.000001000000377
 51
83.95211600000058
  0
LINE
  5
8E9
330
A
100
AcDbEntity
  8
Hawa6
 62
     3
 48
0.07
100
AcDbLine
 10
90.63616399999999
 20
212.51163
 30
0.0
 11
93.43616699999998
 21
212.51163
 31
0.0
  0
ARC
  5
8EA
330
A
100
AcDbEntity
  8
Hawa6
 62
     3
100
AcDbCircle
 10
90.63616399999999
 20
212.711634
 30
0.0
 40
0.2
100
AcDbArc
 50
179.9999910455465
 51
270.000001000003
  0
LINE
  5
8ED
330
A
100
AcDbEntity
  8
Hawa6
 62
     3
 48
0.07
100
AcDbLine
 10
103.436167
 20
212.51163
 30
0.0
 11
106.23617
 21
212.51163
 31
0.0
  0
ARC
  5
8EE
330
A
100
AcDbEntity
  8
Hawa6
 62
     3
100
AcDbCircle
 10
106.23617
 20
212.711634
 30
0.0
 40
0.2
100
AcDbArc
 50
269.999996999999
 51
0.0000030783246592
  0
LINE
  5
8F0
330
A
100
AcDbEntity
  8
Hawa6
 62
     3
 48
0.037375
100
AcDbLine
 10
87.43616699999998
 20
226.506632
 30
0.0
 11
87.43616699999998
 21
225.01163
 31
0.0
  0
LINE
  5
8F1
330
A
100
AcDbEntity
  8
Hawa6
 62
     3
 48
0.037375
100
AcDbLine
 10
87.43616699999998
 20
225.01163
 30
0.0
 11
87.43616699999998
 21
223.516635
 31
0.0
  0
LINE
  5
8F2
330
A
100
AcDbEntity
  8
Hawa6
 62
     3
 48
0.037375
100
AcDbLine
 10
109.436167
 20
226.506632
 30
0.0
 11
109.436167
 21
225.01163
 31
0.0
  0
LINE
  5
8F3
330
A
100
AcDbEntity
  8
Hawa6
 62
     3
 48
0.037375
100
AcDbLine
 10
109.436167
 20
225.01163
 30
0.0
 11
109.436167
 21
223.516635
 31
0.0
  0
LINE
  5
8F6
330
A
100
AcDbEntity
  8
Hawa6
 62
     3
 48
0.006251
100
AcDbLine
 10
109.436167
 20
223.516635
 30
0.0
 11
109.186137
 21
223.516635
 31
0.0
  0
LINE
  5
8F7
330
A
100
AcDbEntity
  8
Hawa6
 62
     3
 48
0.006249
100
AcDbLine
 10
87.68613700000001
 20
223.516635
 30
0.0
 11
87.43616699999998
 21
223.516635
 31
0.0
  0
LINE
  5
8F8
330
A
100
AcDbEntity
  8
Hawa6
 62
     3
 48
0.025
100
AcDbLine
 10
88.68616699999998
 20
231.51163
 30
0.0
 11
87.68616699999999
 21
231.51163
 31
0.0
  0
LINE
  5
8F9
330
A
100
AcDbEntity
  8
Hawa6
 62
     3
 48
0.4875
100
AcDbLine
 10
88.68616699999998
 20
231.51163
 30
0.0
 11
108.186167
 21
231.51163
 31
0.0
  0
LINE
  5
8FA
330
A
100
AcDbEntity
  8
Hawa6
 62
     3
 48
0.025
100
AcDbLine
 10
109.186167
 20
231.51163
 30
0.0
 11
108.186167
 21
231.51163
 31
0.0
  0
LINE
  5
8FB
330
A
100
AcDbEntity
  8
Hawa6
 62
     3
 48
0.325
100
AcDbLine
 10
87.68616699999999
 20
218.51163
 30
0.0
 11
87.68616699999999
 21
231.51163
 31
0.0
  0
LINE
  5
8FC
330
A
100
AcDbEntity
  8
Hawa6
 62
     3
 48
0.025
100
AcDbLine
 10
88.68616699999998
 20
218.51163
 30
0.0
 11
87.68616699999999
 21
218.51163
 31
0.0
  0
LINE
  5
8FD
330
A
100
AcDbEntity
  8
Hawa6
 62
     3
 48
0.325
100
AcDbLine
 10
88.68616699999998
 20
218.51163
 30
0.0
 11
88.68616699999998
 21
231.51163
 31
0.0
  0
LINE
  5
8FE
330
A
100
AcDbEntity
  8
Hawa6
 62
     3
 48
0.4875
100
AcDbLine
 10
88.68616699999998
 20
218.51163
 30
0.0
 11
108.186167
 21
218.51163
 31
0.0
  0
LINE
  5
8FF
330
A
100
AcDbEntity
  8
Hawa6
 62
     3
 48
0.325
100
AcDbLine
 10
108.186167
 20
218.51163
 30
0.0
 11
108.186167
 21
231.51163
 31
0.0
  0
LINE
  5
900
330
A
100
AcDbEntity
  8
Hawa6
 62
     3
 48
0.025
100
AcDbLine
 10
109.186167
 20
218.51163
 30
0.0
 11
108.186167
 21
218.51163
 31
0.0
  0
LINE
  5
901
330
A
100
AcDbEntity
  8
Hawa6
 62
     3
 48
0.325
100
AcDbLine
 10
109.186167
 20
218.51163
 30
0.0
 11
109.186167
 21
231.51163
 31
0.0
  0
LINE
  5
902
330
A
100
AcDbEntity
  8
Hawa6
 62
     3
 48
0.0425
100
AcDbLine
 10
105.136164
 20
113.511632
 30
0.0
 11
103.436167
 21
113.511632
 31
0.0
  0
LINE
  5
903
330
A
100
AcDbEntity
  8
Hawa6
 62
     3
100
AcDbLine
 10
105.136164
 20
113.511632
 30
0.0
 11
105.136164
 21
150.511632
 31
0.0
  0
LINE
  5
904
330
A
100
AcDbEntity
  8
Hawa6
 62
     3
 48
0.0425
100
AcDbLine
 10
105.136164
 20
150.511632
 30
0.0
 11
103.436167
 21
150.511632
 31
0.0
  0
LINE
  5
905
330
A
100
AcDbEntity
  8
Hawa5
 62
     1
100
AcDbLine
 10
103.436167
 20
150.511632
 30
0.0
 11
103.436167
 21
113.511632
 31
0.0
  0
LINE
  5
906
330
A
100
AcDbEntity
  8
Hawa6
 62
     3
 48
0.0425
100
AcDbLine
 10
105.136164
 20
204.51163
 30
0.0
 11
103.436167
 21
204.51163
 31
0.0
  0
LINE
  5
907
330
A
100
AcDbEntity
  8
Hawa6
 62
     3
100
AcDbLine
 10
105.136164
 20
150.511632
 30
0.0
 11
105.136164
 21
204.51163
 31
0.0
  0
LINE
  5
908
330
A
100
AcDbEntity
  8
Hawa5
 62
     1
100
AcDbLine
 10
103.436167
 20
150.511632
 30
0.0
 11
103.436167
 21
204.51163
 31
0.0
  0
LINE
  5
909
330
A
100
AcDbEntity
  8
Hawa6
 62
     3
 48
0.035239
100
AcDbLine
 10
105.136164
 20
204.51163
 30
0.0
 11
106.54571
 21
204.51163
 31
0.0
  0
LINE
  5
90A
330
A
100
AcDbEntity
  8
Hawa6
 62
     3
100
AcDbLine
 10
106.54571
 20
150.511632
 30
0.0
 11
106.54571
 21
204.51163
 31
0.0
  0
LINE
  5
90B
330
A
100
AcDbEntity
  8
Hawa6
 62
     3
 48
0.035239
100
AcDbLine
 10
106.54571
 20
150.511632
 30
0.0
 11
105.136164
 21
150.511632
 31
0.0
  0
LINE
  5
90C
330
A
100
AcDbEntity
  8
Hawa6
 62
     3
 48
0.0602
100
AcDbLine
 10
108.953715
 20
204.51163
 30
0.0
 11
106.54571
 21
204.51163
 31
0.0
  0
LINE
  5
90D
330
A
100
AcDbEntity
  8
Hawa6
 62
     3
100
AcDbLine
 10
108.953715
 20
150.511632
 30
0.0
 11
108.953715
 21
204.51163
 31
0.0
  0
LINE
  5
90E
330
A
100
AcDbEntity
  8
Hawa6
 62
     3
 48
0.0602
100
AcDbLine
 10
108.953715
 20
150.511632
 30
0.0
 11
106.54571
 21
150.511632
 31
0.0
  0
LINE
  5
90F
330
A
100
AcDbEntity
  8
Hawa6
 62
     3
 48
0.012061
100
AcDbLine
 10
108.953715
 20
204.51163
 30
0.0
 11
109.436167
 21
204.51163
 31
0.0
  0
LINE
  5
910
330
A
100
AcDbEntity
  8
Hawa6
 62
     3
100
AcDbLine
 10
109.436167
 20
150.511632
 30
0.0
 11
109.436167
 21
204.51163
 31
0.0
  0
LINE
  5
911
330
A
100
AcDbEntity
  8
Hawa6
 62
     3
 48
0.012061
100
AcDbLine
 10
109.436167
 20
150.511632
 30
0.0
 11
108.953715
 21
150.511632
 31
0.0
  0
LINE
  5
912
330
A
100
AcDbEntity
  8
Hawa6
 62
     3
100
AcDbLine
 10
109.436167
 20
123.850694
 30
0.0
 11
109.436167
 21
150.511632
 31
0.0
  0
LINE
  5
913
330
A
100
AcDbEntity
  8
Hawa6
 62
     3
100
AcDbLine
 10
108.953715
 20
121.114532
 30
0.0
 11
108.953715
 21
150.511632
 31
0.0
  0
LINE
  5
914
330
A
100
AcDbEntity
  8
Hawa6
 62
     3
100
AcDbLine
 10
106.54571
 20
114.498601
 30
0.0
 11
106.54571
 21
150.511632
 31
0.0
  0
ARC
  5
915
330
A
100
AcDbEntity
  8
Hawa6
 62
     3
100
AcDbCircle
 10
101.436167
 20
123.850694
 30
0.0
 40
8.0
100
AcDbArc
 50
340.0000009999999
 51
0.0
  0
LINE
  5
916
330
A
100
AcDbEntity
  8
Hawa6
 62
     3
 48
0.176013
100
AcDbLine
 10
108.953715
 20
121.114532
 30
0.0
 11
106.54571
 21
114.498601
 31
0.0
  0
ARC
  5
917
330
A
100
AcDbEntity
  8
Hawa6
 62
     3
100
AcDbCircle
 10
105.136164
 20
115.011631
 30
0.0
 40
1.5
100
AcDbArc
 50
269.9999970000001
 51
340.0000009999999
  0
LINE
  5
918
330
A
100
AcDbEntity
  8
Hawa5
 62
     1
100
AcDbLine
 10
95.43616699999999
 20
150.511632
 30
0.0
 11
95.43616699999999
 21
204.51163
 31
0.0
  0
LINE
  5
919
330
A
100
AcDbEntity
  8
Hawa6
 62
     3
 48
0.0425
100
AcDbLine
 10
93.73617000000001
 20
150.511632
 30
0.0
 11
95.43616699999999
 21
150.511632
 31
0.0
  0
LINE
  5
91A
330
A
100
AcDbEntity
  8
Hawa6
 62
     3
100
AcDbLine
 10
93.73617000000001
 20
150.511632
 30
0.0
 11
93.73617000000001
 21
204.51163
 31
0.0
  0
LINE
  5
91B
330
A
100
AcDbEntity
  8
Hawa6
 62
     3
 48
0.0425
100
AcDbLine
 10
93.73617000000001
 20
204.51163
 30
0.0
 11
95.43616699999999
 21
204.51163
 31
0.0
  0
LINE
  5
91C
330
A
100
AcDbEntity
  8
Hawa6
 62
     3
 48
0.035239
100
AcDbLine
 10
92.32662499999998
 20
150.511632
 30
0.0
 11
93.73617000000001
 21
150.511632
 31
0.0
  0
LINE
  5
91D
330
A
100
AcDbEntity
  8
Hawa6
 62
     3
100
AcDbLine
 10
92.32662499999998
 20
150.511632
 30
0.0
 11
92.32662499999998
 21
204.51163
 31
0.0
  0
LINE
  5
91E
330
A
100
AcDbEntity
  8
Hawa6
 62
     3
 48
0.035239
100
AcDbLine
 10
92.32662499999998
 20
204.51163
 30
0.0
 11
93.73617000000001
 21
204.51163
 31
0.0
  0
LINE
  5
91F
330
A
100
AcDbEntity
  8
Hawa6
 62
     3
 48
0.0602
100
AcDbLine
 10
89.91861999999997
 20
150.511632
 30
0.0
 11
92.32662499999998
 21
150.511632
 31
0.0
  0
LINE
  5
920
330
A
100
AcDbEntity
  8
Hawa6
 62
     3
100
AcDbLine
 10
89.91861999999997
 20
150.511632
 30
0.0
 11
89.91861999999997
 21
204.51163
 31
0.0
  0
LINE
  5
921
330
A
100
AcDbEntity
  8
Hawa6
 62
     3
 48
0.0602
100
AcDbLine
 10
89.91861999999997
 20
204.51163
 30
0.0
 11
92.32662499999998
 21
204.51163
 31
0.0
  0
LINE
  5
922
330
A
100
AcDbEntity
  8
Hawa6
 62
     3
 48
0.012061
100
AcDbLine
 10
89.43616699999997
 20
150.511632
 30
0.0
 11
89.91861999999997
 21
150.511632
 31
0.0
  0
LINE
  5
923
330
A
100
AcDbEntity
  8
Hawa6
 62
     3
100
AcDbLine
 10
89.43616699999997
 20
150.511632
 30
0.0
 11
89.43616699999997
 21
204.51163
 31
0.0
  0
LINE
  5
924
330
A
100
AcDbEntity
  8
Hawa6
 62
     3
 48
0.012061
100
AcDbLine
 10
89.43616699999997
 20
204.51163
 30
0.0
 11
89.91861999999997
 21
204.51163
 31
0.0
  0
LINE
  5
925
330
A
100
AcDbEntity
  8
Hawa5
 62
     1
100
AcDbLine
 10
95.43616699999999
 20
113.511632
 30
0.0
 11
95.43616699999999
 21
150.511632
 31
0.0
  0
LINE
  5
926
330
A
100
AcDbEntity
  8
Hawa6
 62
     3
100
AcDbLine
 10
93.73617000000001
 20
113.511632
 30
0.0
 11
93.73617000000001
 21
150.511632
 31
0.0
  0
LINE
  5
927
330
A
100
AcDbEntity
  8
Hawa6
 62
     3
 48
0.0425
100
AcDbLine
 10
93.73617000000001
 20
113.511632
 30
0.0
 11
95.43616699999999
 21
113.511632
 31
0.0
  0
LINE
  5
928
330
A
100
AcDbEntity
  8
Hawa6
 62
     3
100
AcDbLine
 10
89.91861999999997
 20
121.114532
 30
0.0
 11
89.91861999999997
 21
150.511632
 31
0.0
  0
LINE
  5
929
330
A
100
AcDbEntity
  8
Hawa6
 62
     3
100
AcDbLine
 10
89.43616699999997
 20
123.850694
 30
0.0
 11
89.43616699999997
 21
150.511632
 31
0.0
  0
LINE
  5
92A
330
A
100
AcDbEntity
  8
Hawa6
 62
     3
100
AcDbLine
 10
92.32662499999998
 20
114.498601
 30
0.0
 11
92.32662499999998
 21
150.511632
 31
0.0
  0
ARC
  5
92B
330
A
100
AcDbEntity
  8
Hawa6
 62
     3
100
AcDbCircle
 10
97.43616699999998
 20
123.850694
 30
0.0
 40
8.0
100
AcDbArc
 50
180.0000049783131
 51
200.000001
  0
LINE
  5
92C
330
A
100
AcDbEntity
  8
Hawa6
 62
     3
 48
0.176013
100
AcDbLine
 10
89.91861999999997
 20
121.114532
 30
0.0
 11
92.32662499999998
 21
114.498601
 31
0.0
  0
ARC
  5
92D
330
A
100
AcDbEntity
  8
Hawa6
 62
     3
100
AcDbCircle
 10
93.73617000000001
 20
115.011631
 30
0.0
 40
1.5
100
AcDbArc
 50
200.0000039999996
 51
269.9999970000001
  0
VIEWPORT
  5
5F
102
{ACAD_XDICTIONARY
360
95F
102
}
330
B
100
AcDbEntity
 67
     1
  8
HAWA1
 62
     0
100
AcDbViewport
 10
0.0
 20
0.0
 30
0.0
 40
1000.0
 41
1000.0
 68
     1
 69
     1
 12
0.0
 22
0.0
 13
0.0
 23
0.0
 14
1.0
 24
1.0
 15
1.0
 25
1.0
 16
0.0
 26
0.0
 36
1.0
 17
0.0
 27
0.0
 37
0.0
 42
50.0
 43
0.0
 44
0.0
 45
1000.0
 50
0.0
 51
0.0
 72
   100
 90
   557216
  1

281
     0
 71
     1
 74
     0
110
0.0
120
0.0
130
0.0
111
1.0
121
0.0
131
0.0
112
0.0
122
1.0
132
0.0
 79
     0
146
0.0
  0
ENDSEC
  0
SECTION
  2
OBJECTS
  0
DICTIONARY
  5
19
330
0
100
AcDbDictionary
281
     1
  3
ACAD_COLOR
350
952
  3
ACAD_GROUP
350
1A
  3
ACAD_LAYOUT
350
777
  3
ACAD_MATERIAL
350
93D
  3
ACAD_MLINESTYLE
350
1B
  3
ACAD_PLOTSETTINGS
350
955
  3
ACAD_PLOTSTYLENAME
350
936
  3
ACAD_TABLESTYLE
350
953
  3
ACAD_VISUALSTYLE
350
941
  3
AcDbVariableDictionary
350
959
  3
DWGPROPS
350
95E
  0
DICTIONARY
  5
95F
330
5F
100
AcDbDictionary
280
     1
281
     1
  3
ACAD_XREC_ROUNDTRIP
360
960
  0
DICTIONARY
  5
952
102
{ACAD_REACTORS
330
19
102
}
330
19
100
AcDbDictionary
281
     1
  0
DICTIONARY
  5
1A
102
{ACAD_REACTORS
330
19
102
}
330
19
100
AcDbDictionary
281
     1
  0
DICTIONARY
  5
777
102
{ACAD_REACTORS
330
19
102
}
330
19
100
AcDbDictionary
281
     1
  3
Layout1
350
779
  3
Model
350
778
  0
DICTIONARY
  5
93D
102
{ACAD_REACTORS
330
19
102
}
330
19
100
AcDbDictionary
281
     1
  3
ByBlock
350
93F
  3
ByLayer
350
93E
  3
Global
350
940
  0
DICTIONARY
  5
1B
102
{ACAD_REACTORS
330
19
102
}
330
19
100
AcDbDictionary
281
     1
  3
STANDARD
350
1C
  0
DICTIONARY
  5
955
102
{ACAD_REACTORS
330
19
102
}
330
19
100
AcDbDictionary
281
     1
  0
ACDBDICTIONARYWDFLT
  5
936
102
{ACAD_REACTORS
330
19
102
}
330
19
100
AcDbDictionary
281
     1
  3
Normal
350
937
100
AcDbDictionaryWithDefault
340
937
  0
DICTIONARY
  5
953
102
{ACAD_REACTORS
330
19
102
}
330
19
100
AcDbDictionary
281
     1
  3
Standard
350
954
  0
DICTIONARY
  5
941
102
{ACAD_REACTORS
330
19
102
}
330
19
100
AcDbDictionary
281
     1
  3
2dWireframe
350
947
  3
3D Hidden
350
949
  3
3dWireframe
350
948
  3
Basic
350
946
  3
Brighten
350
94D
  3
ColorChange
350
951
  3
Conceptual
350
94A
  3
Dim
350
94C
  3
Facepattern
350
950
  3
Flat
350
942
  3
FlatWithEdges
350
943
  3
Gouraud
350
944
  3
GouraudWithEdges
350
945
  3
Linepattern
350
94F
  3
Realistic
350
94B
  3
Thicken
350
94E
  0
DICTIONARY
  5
959
102
{ACAD_REACTORS
330
19
102
}
330
19
100
AcDbDictionary
281
     1
  3
CTABLESTYLE
350
95A
  3
DIMASSOC
350
95D
  3
INDEXCTL
350
95C
  3
SORTENTS
350
95B
  0
XRECORD
  5
95E
102
{ACAD_REACTORS
330
19
102
}
330
19
100
AcDbXrecord
280
     1
  1
DWGPROPS COOKIE
  2

  3

  4

  6

  7

  8
stj
  9

300
=
301
=
302
=
303
=
304
=
305
=
306
=
307
=
308
=
309
=
 40
0.0002010532407407
 41
2447893.0
 42
2455231.367650544
  1

 90
        0
  0
XRECORD
  5
960
102
{ACAD_REACTORS
330
95F
102
}
330
95F
100
AcDbXrecord
280
     1
102
SHADEPLOT
 70
     0
  0
LAYOUT
  5
779
102
{ACAD_XDICTIONARY
360
963
102
}
102
{ACAD_REACTORS
330
777
102
}
330
777
100
AcDbPlotSettings
  1

  2
none_device
  4

  6

 40
0.0
 41
0.0
 42
0.0
 43
0.0
 44
0.0
 45
0.0
 46
0.0
 47
0.0
 48
0.0
 49
0.0
140
0.0
141
0.0
142
1.0
143
1.0
 70
   688
 72
     0
 73
     0
 74
     5
  7

 75
    16
147
1.0
148
0.0
149
0.0
100
AcDbLayout
  1
Layout1
 70
     1
 71
     1
 10
0.0
 20
0.0
 11
420.0
 21
297.0
 12
0.0
 22
0.0
 32
0.0
 14
0.0
 24
0.0
 34
0.0
 15
195.5
 25
253.664566
 35
2.0
146
0.0
 13
0.0
 23
0.0
 33
0.0
 16
1.0
 26
0.0
 36
0.0
 17
0.0
 27
1.0
 37
0.0
 76
     0
330
B
331
5F
  0
LAYOUT
  5
778
102
{ACAD_XDICTIONARY
360
961
102
}
102
{ACAD_REACTORS
330
777
102
}
330
777
100
AcDbPlotSettings
  1

  2
none_device
  4

  6

 40
0.0
 41
0.0
 42
0.0
 43
0.0
 44
0.0
 45
0.0
 46
0.0
 47
0.0
 48
0.0
 49
0.0
140
0.0
141
0.0
142
1.0
143
1.0
 70
   688
 72
     0
 73
     0
 74
     5
  7

 75
    16
147
1.0
148
0.0
149
0.0
100
AcDbLayout
  1
Model
 70
     1
 71
     0
 10
0.0
 20
0.0
 11
0.0
 21
0.0
 12
0.0
 22
0.0
 32
0.0
 14
0.0
 24
0.0
 34
0.0
 15
0.0
 25
0.0
 35
0.0
146
0.0
 13
0.0
 23
0.0
 33
0.0
 16
1.0
 26
0.0
 36
0.0
 17
0.0
 27
1.0
 37
0.0
 76
     0
330
A
331
15
  0
MATERIAL
  5
93F
102
{ACAD_XDICTIONARY
360
967
102
}
102
{ACAD_REACTORS
330
93D
102
}
330
93D
100
AcDbMaterial
  1
ByBlock
  0
MATERIAL
  5
93E
102
{ACAD_XDICTIONARY
360
965
102
}
102
{ACAD_REACTORS
330
93D
102
}
330
93D
100
AcDbMaterial
  1
ByLayer
  0
MATERIAL
  5
940
102
{ACAD_XDICTIONARY
360
969
102
}
102
{ACAD_REACTORS
330
93D
102
}
330
93D
100
AcDbMaterial
  1
Global
  0
MLINESTYLE
  5
1C
102
{ACAD_REACTORS
330
1B
102
}
330
1B
100
AcDbMlineStyle
  2
STANDARD
 70
     0
  3

 62
     0
 51
90.0
 52
90.0
 71
     2
 49
0.5
 62
   256
  6
BYLAYER
 49
-0.5
 62
   256
  6
BYLAYER
  0
ACDBPLACEHOLDER
  5
937
102
{ACAD_REACTORS
330
936
102
}
330
936
  0
TABLESTYLE
  5
954
102
{ACAD_XDICTIONARY
360
96B
102
}
102
{ACAD_REACTORS
330
953
102
}
330
953
100
AcDbTableStyle
  3
Standard
 70
     0
 71
     0
 40
1.5
 41
1.5
280
     0
281
     0
  7
STANDARD
140
4.5
170
     2
 62
     0
 63
     7
283
     0
274
    -2
284
     1
 64
     0
275
    -2
285
     1
 65
     0
276
    -2
286
     1
 66
     0
277
    -2
287
     1
 67
     0
278
    -2
288
     1
 68
     0
279
    -2
289
     1
 69
     0
  7
STANDARD
140
6.0
170
     5
 62
     0
 63
     7
283
     0
274
    -2
284
     1
 64
     0
275
    -2
285
     1
 65
     0
276
    -2
286
     1
 66
     0
277
    -2
287
     1
 67
     0
278
    -2
288
     1
 68
     0
279
    -2
289
     1
 69
     0
  7
STANDARD
140
4.5
170
     5
 62
     0
 63
     7
283
     0
274
    -2
284
     1
 64
     0
275
    -2
285
     1
 65
     0
276
    -2
286
     1
 66
     0
277
    -2
287
     1
 67
     0
278
    -2
288
     1
 68
     0
279
    -2
289
     1
 69
     0
  0
VISUALSTYLE
  5
947
102
{ACAD_REACTORS
330
941
102
}
330
941
100
AcDbVisualStyle
  2
2dWireframe
 70
     4
 71
     0
 72
     2
 73
     0
 90
        0
 40
-0.6
 41
-30.0
 62
     5
 63
     7
 74
     1
 91
        4
 64
     7
 65
   257
 75
     1
175
     1
 42
1.0
 92
        0
 66
   257
 43
1.0
 76
     1
 77
     6
 78
     2
 67
     7
 79
     5
170
     0
171
     0
290
     0
174
     0
 93
        1
 44
0.0
173
     0
291
     0
 45
0.0
1001
ACAD
1000
AcDbSavedByObjectVersion
1070
     0
  0
VISUALSTYLE
  5
949
102
{ACAD_REACTORS
330
941
102
}
330
941
100
AcDbVisualStyle
  2
3D Hidden
 70
     6
 71
     1
 72
     2
 73
     2
 90
        0
 40
-0.6
 41
-30.0
 62
     5
 63
     7
 74
     2
 91
        2
 64
     7
 65
   257
 75
     2
175
     1
 42
40.0
 92
        0
 66
   257
 43
1.0
 76
     1
 77
     6
 78
     2
 67
     7
 79
     3
170
     0
171
     0
290
     0
174
     0
 93
        1
 44
0.0
173
     0
291
     0
 45
0.0
1001
ACAD
1000
AcDbSavedByObjectVersion
1070
     0
  0
VISUALSTYLE
  5
948
102
{ACAD_REACTORS
330
941
102
}
330
941
100
AcDbVisualStyle
  2
3dWireframe
 70
     5
 71
     0
 72
     2
 73
     0
 90
        0
 40
-0.6
 41
-30.0
 62
     5
 63
     7
 74
     1
 91
        4
 64
     7
 65
   257
 75
     1
175
     1
 42
1.0
 92
        0
 66
   257
 43
1.0
 76
     1
 77
     6
 78
     2
 67
     7
 79
     5
170
     0
171
     0
290
     0
174
     0
 93
        1
 44
0.0
173
     0
291
     0
 45
0.0
1001
ACAD
1000
AcDbSavedByObjectVersion
1070
     0
  0
VISUALSTYLE
  5
946
102
{ACAD_REACTORS
330
941
102
}
330
941
100
AcDbVisualStyle
  2
Basic
 70
     7
 71
     1
 72
     0
 73
     1
 90
        0
 40
-0.6
 41
-30.0
 62
     5
 63
     7
 74
     0
 91
        4
 64
     7
 65
   257
 75
     1
175
     1
 42
1.0
 92
        8
 66
     7
 43
1.0
 76
     1
 77
     6
 78
     2
 67
     7
 79
     5
170
     0
171
     0
290
     0
174
     0
 93
        1
 44
0.0
173
     0
291
     1
 45
0.0
1001
ACAD
1000
AcDbSavedByObjectVersion
1070
     0
  0
VISUALSTYLE
  5
94D
102
{ACAD_REACTORS
330
941
102
}
330
941
100
AcDbVisualStyle
  2
Brighten
 70
    12
 71
     2
 72
     2
 73
     0
 90
        0
 40
-0.6
 41
-30.0
 62
     5
 63
     7
 74
     1
 91
        4
 64
     7
 65
   257
 75
     1
175
     1
 42
1.0
 92
        8
 66
     7
 43
1.0
 76
     1
 77
     6
 78
     2
 67
     7
 79
     5
170
     0
171
     0
290
     0
174
     0
 93
        1
 44
50.0
173
     0
291
     1
 45
0.0
1001
ACAD
1000
AcDbSavedByObjectVersion
1070
     0
  0
VISUALSTYLE
  5
951
102
{ACAD_REACTORS
330
941
102
}
330
941
100
AcDbVisualStyle
  2
ColorChange
 70
    16
 71
     2
 72
     2
 73
     3
 90
        0
 40
-0.6
 41
-30.0
 62
     5
 63
     8
 74
     1
 91
        4
 64
     7
 65
   257
 75
     1
175
     1
 42
1.0
 92
        8
 66
     8
 43
1.0
 76
     1
 77
     6
 78
     2
 67
     7
 79
     5
170
     0
171
     0
290
     0
174
     0
 93
        1
 44
0.0
173
     0
291
     1
 45
0.0
1001
ACAD
1000
AcDbSavedByObjectVersion
1070
     0
  0
VISUALSTYLE
  5
94A
102
{ACAD_REACTORS
330
941
102
}
330
941
100
AcDbVisualStyle
  2
Conceptual
 70
     9
 71
     3
 72
     2
 73
     0
 90
        0
 40
-0.6
 41
-30.0
 62
     5
 63
     7
 74
     2
 91
        2
 64
     7
 65
   257
 75
     1
175
     1
 42
40.0
 92
        8
 66
     7
 43
1.0
 76
     1
 77
     6
 78
     2
 67
     7
 79
     3
170
     0
171
     0
290
     0
174
     0
 93
        1
 44
0.0
173
     0
291
     0
 45
0.0
1001
ACAD
1000
AcDbSavedByObjectVersion
1070
     0
  0
VISUALSTYLE
  5
94C
102
{ACAD_REACTORS
330
941
102
}
330
941
100
AcDbVisualStyle
  2
Dim
 70
    11
 71
     2
 72
     2
 73
     0
 90
        0
 40
-0.6
 41
-30.0
 62
     5
 63
     7
 74
     1
 91
        4
 64
     7
 65
   257
 75
     1
175
     1
 42
1.0
 92
        8
 66
     7
 43
1.0
 76
     1
 77
     6
 78
     2
 67
     7
 79
     5
170
     0
171
     0
290
     0
174
     0
 93
        1
 44
-50.0
173
     0
291
     1
 45
0.0
1001
ACAD
1000
AcDbSavedByObjectVersion
1070
     0
  0
VISUALSTYLE
  5
950
102
{ACAD_REACTORS
330
941
102
}
330
941
100
AcDbVisualStyle
  2
Facepattern
 70
    15
 71
     2
 72
     2
 73
     0
 90
        0
 40
-0.6
 41
-30.0
 62
     5
 63
     7
 74
     1
 91
        4
 64
     7
 65
   257
 75
     1
175
     1
 42
1.0
 92
        8
 66
     7
 43
1.0
 76
     1
 77
     6
 78
     2
 67
     7
 79
     5
170
     0
171
     0
290
     0
174
     0
 93
        1
 44
0.0
173
     0
291
     1
 45
0.0
1001
ACAD
1000
AcDbSavedByObjectVersion
1070
     0
  0
VISUALSTYLE
  5
942
102
{ACAD_REACTORS
330
941
102
}
330
941
100
AcDbVisualStyle
  2
Flat
 70
     0
 71
     2
 72
     1
 73
     1
 90
        2
 40
-0.6
 41
30.0
 62
     5
 63
     7
 74
     0
 91
        4
 64
     7
 65
   257
 75
     1
175
     1
 42
1.0
 92
        8
 66
     7
 43
1.0
 76
     1
 77
     6
 78
     2
 67
     7
 79
     5
170
     0
171
     0
290
     0
174
     0
 93
       13
 44
0.0
173
     0
291
     1
 45
0.0
1001
ACAD
1000
AcDbSavedByObjectVersion
1070
     0
  0
VISUALSTYLE
  5
943
102
{ACAD_REACTORS
330
941
102
}
330
941
100
AcDbVisualStyle
  2
FlatWithEdges
 70
     1
 71
     2
 72
     1
 73
     1
 90
        2
 40
-0.6
 41
30.0
 62
     5
 63
     7
 74
     1
 91
        4
 64
     7
 65
   257
 75
     1
175
     1
 42
1.0
 92
        0
 66
   257
 43
1.0
 76
     1
 77
     6
 78
     2
 67
     7
 79
     5
170
     0
171
     0
290
     0
174
     0
 93
       13
 44
0.0
173
     0
291
     1
 45
0.0
1001
ACAD
1000
AcDbSavedByObjectVersion
1070
     0
  0
VISUALSTYLE
  5
944
102
{ACAD_REACTORS
330
941
102
}
330
941
100
AcDbVisualStyle
  2
Gouraud
 70
     2
 71
     2
 72
     2
 73
     1
 90
        2
 40
-0.6
 41
30.0
 62
     5
 63
     7
 74
     0
 91
        4
 64
     7
 65
   257
 75
     1
175
     1
 42
1.0
 92
        0
 66
     7
 43
1.0
 76
     1
 77
     6
 78
     2
 67
     7
 79
     5
170
     0
171
     0
290
     0
174
     0
 93
       13
 44
0.0
173
     0
291
     1
 45
0.0
1001
ACAD
1000
AcDbSavedByObjectVersion
1070
     0
  0
VISUALSTYLE
  5
945
102
{ACAD_REACTORS
330
941
102
}
330
941
100
AcDbVisualStyle
  2
GouraudWithEdges
 70
     3
 71
     2
 72
     2
 73
     1
 90
        2
 40
-0.6
 41
30.0
 62
     5
 63
     7
 74
     1
 91
        4
 64
     7
 65
   257
 75
     1
175
     1
 42
1.0
 92
        0
 66
   257
 43
1.0
 76
     1
 77
     6
 78
     2
 67
     7
 79
     5
170
     0
171
     0
290
     0
174
     0
 93
       13
 44
0.0
173
     0
291
     1
 45
0.0
1001
ACAD
1000
AcDbSavedByObjectVersion
1070
     0
  0
VISUALSTYLE
  5
94F
102
{ACAD_REACTORS
330
941
102
}
330
941
100
AcDbVisualStyle
  2
Linepattern
 70
    14
 71
     2
 72
     2
 73
     0
 90
        0
 40
-0.6
 41
-30.0
 62
     5
 63
     7
 74
     1
 91
        4
 64
     7
 65
   257
 75
     7
175
     7
 42
1.0
 92
        8
 66
     7
 43
1.0
 76
     1
 77
     6
 78
     2
 67
     7
 79
     5
170
     0
171
     0
290
     0
174
     0
 93
        1
 44
0.0
173
     0
291
     1
 45
0.0
1001
ACAD
1000
AcDbSavedByObjectVersion
1070
     0
  0
VISUALSTYLE
  5
94B
102
{ACAD_REACTORS
330
941
102
}
330
941
100
AcDbVisualStyle
  2
Realistic
 70
     8
 71
     2
 72
     2
 73
     0
 90
        0
 40
-0.6
 41
-30.0
 62
     5
 63
     7
 74
     1
 91
        0
 64
     7
 65
   257
 75
     1
175
     1
 42
1.0
 92
        8
 66
     8
 43
1.0
 76
     1
 77
     6
 78
     2
 67
     7
 79
     5
170
     0
171
     0
290
     0
174
     0
 93
       13
 44
0.0
173
     0
291
     0
 45
0.0
1001
ACAD
1000
AcDbSavedByObjectVersion
1070
     0
  0
VISUALSTYLE
  5
94E
102
{ACAD_REACTORS
330
941
102
}
330
941
100
AcDbVisualStyle
  2
Thicken
 70
    13
 71
     2
 72
     2
 73
     0
 90
        0
 40
-0.6
 41
-30.0
 62
     5
 63
     7
 74
     1
 91
        4
 64
     7
 65
   257
 75
     1
175
     1
 42
1.0
 92
       12
 66
     7
 43
1.0
 76
     1
 77
     6
 78
     2
 67
     7
 79
     5
170
     0
171
     0
290
     0
174
     0
 93
        1
 44
0.0
173
     0
291
     1
 45
0.0
1001
ACAD
1000
AcDbSavedByObjectVersion
1070
     0
  0
DICTIONARYVAR
  5
95A
102
{ACAD_REACTORS
330
959
102
}
330
959
100
DictionaryVariables
280
     0
  1
STANDARD
  0
DICTIONARYVAR
  5
95D
102
{ACAD_REACTORS
330
959
102
}
330
959
100
DictionaryVariables
280
     0
  1
1
  0
DICTIONARYVAR
  5
95C
102
{ACAD_REACTORS
330
959
102
}
330
959
100
DictionaryVariables
280
     0
  1
0
  0
DICTIONARYVAR
  5
95B
102
{ACAD_REACTORS
330
959
102
}
330
959
100
DictionaryVariables
280
     0
  1
127
  0
DICTIONARY
  5
963
330
779
100
AcDbDictionary
280
     1
281
     1
  3
ACAD_XREC_ROUNDTRIP
360
964
  0
DICTIONARY
  5
961
330
778
100
AcDbDictionary
280
     1
281
     1
  3
ACAD_XREC_ROUNDTRIP
360
962
  0
DICTIONARY
  5
967
330
93F
100
AcDbDictionary
280
     1
281
     1
  3
ACAD_XREC_ROUNDTRIP
360
968
  0
DICTIONARY
  5
965
330
93E
100
AcDbDictionary
280
     1
281
     1
  3
ACAD_XREC_ROUNDTRIP
360
966
  0
DICTIONARY
  5
969
330
940
100
AcDbDictionary
280
     1
281
     1
  3
ACAD_XREC_ROUNDTRIP
360
96A
  0
DICTIONARY
  5
96B
330
954
100
AcDbDictionary
280
     1
281
     1
  3
ACAD_XREC_ROUNDTRIP
360
96C
  0
XRECORD
  5
964
102
{ACAD_REACTORS
330
963
102
}
330
963
100
AcDbXrecord
280
     1
102
SHADEPLOT
 70
     0
102
SHADEPLOTRESLEVEL
 70
     2
102
SHADEPLOTCUSTOMDPI
 70
   300
  0
XRECORD
  5
962
102
{ACAD_REACTORS
330
961
102
}
330
961
100
AcDbXrecord
280
     1
102
SHADEPLOT
 70
     0
102
SHADEPLOTRESLEVEL
 70
     2
102
SHADEPLOTCUSTOMDPI
 70
   300
  0
XRECORD
  5
968
102
{ACAD_REACTORS
330
967
102
}
330
967
100
AcDbXrecord
280
     1
102
MATERIAL
148
0.0
149
0.0
149
0.0
 93
        0
 94
       63
282
     0
 72
     1
 77
     1
171
     1
175
     1
179
     1
273
     0
  0
XRECORD
  5
966
102
{ACAD_REACTORS
330
965
102
}
330
965
100
AcDbXrecord
280
     1
102
MATERIAL
148
0.0
149
0.0
149
0.0
 93
        0
 94
       63
282
     0
 72
     1
 77
     1
171
     1
175
     1
179
     1
273
     0
  0
XRECORD
  5
96A
102
{ACAD_REACTORS
330
969
102
}
330
969
100
AcDbXrecord
280
     1
102
MATERIAL
148
0.0
149
0.0
149
0.0
 93
        0
 94
       63
282
     0
 72
     1
 77
     1
171
     1
175
     1
179
     1
273
     0
  0
XRECORD
  5
96C
102
{ACAD_REACTORS
330
96B
102
}
330
96B
100
AcDbXrecord
280
     1
102
ACAD_ROUNDTRIP_PRE2007_TABLESTYLE
 90
      512
 91
        0
  1

 92
      512
 93
        0
  2

 94
      512
 95
        0
  3

  0
ENDSEC
  0
EOF
