  0
SECTION
  2
HEADER
  9
$ACADVER
  1
AC1015
  9
$ACADMAINTVER
 70
    20
  9
$DWGCODEPAGE
  3
ANSI_1252
  9
$INSBASE
 10
0.0
 20
0.0
 30
0.0
  9
$EXTMIN
 10
3.287659673122334
 20
39.4634406788548
 30
-0.0000610304997082
  9
$EXTMAX
 10
275.7531746380883
 20
151.7402806737696
 30
0.000091555062788
  9
$LIMMIN
 10
0.0
 20
0.0
  9
$LIMMAX
 10
420.0
 20
297.0
  9
$ORTHOMODE
 70
     0
  9
$REGENMODE
 70
     1
  9
$FILLMODE
 70
     1
  9
$QTEXTMODE
 70
     0
  9
$MIRRTEXT
 70
     1
  9
$LTSCALE
 40
1.0
  9
$ATTMODE
 70
     1
  9
$TEXTSIZE
 40
2.5
  9
$TRACEWID
 40
1.0
  9
$TEXTSTYLE
  7
STANDARD
  9
$CLAYER
  8
0
  9
$CELTYPE
  6
BYLAYER
  9
$CECOLOR
 62
   256
  9
$CELTSCALE
 40
1.0
  9
$DISPSILH
 70
     0
  9
$DIMSCALE
 40
1.0
  9
$DIMASZ
 40
2.0
  9
$DIMEXO
 40
2.0
  9
$DIMDLI
 40
0.0
  9
$DIMRND
 40
0.0
  9
$DIMDLE
 40
1.0
  9
$DIMEXE
 40
1.0
  9
$DIMTP
 40
0.0
  9
$DIMTM
 40
0.0
  9
$DIMTXT
 40
3.5
  9
$DIMCEN
 40
0.0
  9
$DIMTSZ
 40
0.0
  9
$DIMTOL
 70
     0
  9
$DIMLIM
 70
     0
  9
$DIMTIH
 70
     0
  9
$DIMTOH
 70
     0
  9
$DIMSE1
 70
     0
  9
$DIMSE2
 70
     0
  9
$DIMTAD
 70
     1
  9
$DIMZIN
 70
     8
  9
$DIMBLK
  1

  9
$DIMASO
 70
     1
  9
$DIMSHO
 70
     1
  9
$DIMPOST
  1

  9
$DIMAPOST
  1

  9
$DIMALT
 70
     1
  9
$DIMALTD
 70
     5
  9
$DIMALTF
 40
0.039370078740157
  9
$DIMLFAC
 40
1.0
  9
$DIMTOFL
 70
     1
  9
$DIMTVP
 40
0.0
  9
$DIMTIX
 70
     0
  9
$DIMSOXD
 70
     0
  9
$DIMSAH
 70
     1
  9
$DIMBLK1
  1
Oblique
  9
$DIMBLK2
  1
Oblique
  9
$DIMSTYLE
  2
HAWA-Strich
  9
$DIMCLRD
 70
   256
  9
$DIMCLRE
 70
   256
  9
$DIMCLRT
 70
   256
  9
$DIMTFAC
 40
0.7114285714285719
  9
$DIMGAP
 40
1.0
  9
$DIMJUST
 70
     0
  9
$DIMSD1
 70
     0
  9
$DIMSD2
 70
     0
  9
$DIMTOLJ
 70
     1
  9
$DIMTZIN
 70
     8
  9
$DIMALTZ
 70
     8
  9
$DIMALTTZ
 70
     8
  9
$DIMUPT
 70
     0
  9
$DIMDEC
 70
     1
  9
$DIMTDEC
 70
     1
  9
$DIMALTU
 70
     4
  9
$DIMALTTD
 70
     5
  9
$DIMTXSTY
  7
Beschlag
  9
$DIMAUNIT
 70
     0
  9
$DIMADEC
 70
     1
  9
$DIMALTRND
 40
0.0
  9
$DIMAZIN
 70
     2
  9
$DIMDSEP
 70
    46
  9
$DIMATFIT
 70
     3
  9
$DIMFRAC
 70
     0
  9
$DIMLDRBLK
  1
Oblique
  9
$DIMLUNIT
 70
     2
  9
$DIMLWD
 70
    -2
  9
$DIMLWE
 70
    -2
  9
$DIMTMOVE
 70
     0
  9
$LUNITS
 70
     2
  9
$LUPREC
 70
     4
  9
$SKETCHINC
 40
1.0
  9
$FILLETRAD
 40
2.5
  9
$AUNITS
 70
     0
  9
$AUPREC
 70
     0
  9
$MENU
  1
.
  9
$ELEVATION
 40
0.0
  9
$PELEVATION
 40
0.0
  9
$THICKNESS
 40
0.0
  9
$LIMCHECK
 70
     0
  9
$CHAMFERA
 40
2.5
  9
$CHAMFERB
 40
2.5
  9
$CHAMFERC
 40
0.0
  9
$CHAMFERD
 40
0.0
  9
$SKPOLY
 70
     0
  9
$TDCREATE
 40
2447893.000000000
  9
$TDUCREATE
 40
2447892.916666666
  9
$TDUPDATE
 40
2455790.550899132
  9
$TDUUPDATE
 40
2455790.467565799
  9
$TDINDWG
 40
0.0861007523
  9
$TDUSRTIMER
 40
0.0861001968
  9
$USRTIMER
 70
     1
  9
$ANGBASE
 50
0.0
  9
$ANGDIR
 70
     0
  9
$PDMODE
 70
     0
  9
$PDSIZE
 40
0.0
  9
$PLINEWID
 40
0.0
  9
$SPLFRAME
 70
     0
  9
$SPLINETYPE
 70
     6
  9
$SPLINESEGS
 70
     8
  9
$HANDSEED
  5
811
  9
$SURFTAB1
 70
     6
  9
$SURFTAB2
 70
     6
  9
$SURFTYPE
 70
     6
  9
$SURFU
 70
     6
  9
$SURFV
 70
     6
  9
$UCSBASE
  2

  9
$UCSNAME
  2

  9
$UCSORG
 10
0.0
 20
0.0
 30
0.0
  9
$UCSXDIR
 10
1.0
 20
0.0
 30
0.0
  9
$UCSYDIR
 10
0.0
 20
1.0
 30
0.0
  9
$UCSORTHOREF
  2

  9
$UCSORTHOVIEW
 70
     0
  9
$UCSORGTOP
 10
0.0
 20
0.0
 30
0.0
  9
$UCSORGBOTTOM
 10
0.0
 20
0.0
 30
0.0
  9
$UCSORGLEFT
 10
0.0
 20
0.0
 30
0.0
  9
$UCSORGRIGHT
 10
0.0
 20
0.0
 30
0.0
  9
$UCSORGFRONT
 10
0.0
 20
0.0
 30
0.0
  9
$UCSORGBACK
 10
0.0
 20
0.0
 30
0.0
  9
$PUCSBASE
  2

  9
$PUCSNAME
  2

  9
$PUCSORG
 10
0.0
 20
0.0
 30
0.0
  9
$PUCSXDIR
 10
1.0
 20
0.0
 30
0.0
  9
$PUCSYDIR
 10
0.0
 20
1.0
 30
0.0
  9
$PUCSORTHOREF
  2

  9
$PUCSORTHOVIEW
 70
     0
  9
$PUCSORGTOP
 10
0.0
 20
0.0
 30
0.0
  9
$PUCSORGBOTTOM
 10
0.0
 20
0.0
 30
0.0
  9
$PUCSORGLEFT
 10
0.0
 20
0.0
 30
0.0
  9
$PUCSORGRIGHT
 10
0.0
 20
0.0
 30
0.0
  9
$PUCSORGFRONT
 10
0.0
 20
0.0
 30
0.0
  9
$PUCSORGBACK
 10
0.0
 20
0.0
 30
0.0
  9
$USERI1
 70
     0
  9
$USERI2
 70
     0
  9
$USERI3
 70
     0
  9
$USERI4
 70
     0
  9
$USERI5
 70
     0
  9
$USERR1
 40
0.0
  9
$USERR2
 40
0.0
  9
$USERR3
 40
0.0
  9
$USERR4
 40
0.0
  9
$USERR5
 40
0.0
  9
$WORLDVIEW
 70
     1
  9
$SHADEDGE
 70
     3
  9
$SHADEDIF
 70
    70
  9
$TILEMODE
 70
     1
  9
$MAXACTVP
 70
    48
  9
$PINSBASE
 10
0.0
 20
0.0
 30
0.0
  9
$PLIMCHECK
 70
     0
  9
$PEXTMIN
 10
0.0
 20
0.0
 30
0.0
  9
$PEXTMAX
 10
168.819046
 20
203.970047
 30
2.0
  9
$PLIMMIN
 10
0.0
 20
0.0
  9
$PLIMMAX
 10
420.0
 20
297.0
  9
$UNITMODE
 70
     0
  9
$VISRETAIN
 70
     0
  9
$PLINEGEN
 70
     0
  9
$PSLTSCALE
 70
     1
  9
$TREEDEPTH
 70
  3020
  9
$CMLSTYLE
  2
STANDARD
  9
$CMLJUST
 70
     0
  9
$CMLSCALE
 40
20.0
  9
$PROXYGRAPHICS
 70
     1
  9
$MEASUREMENT
 70
     1
  9
$CELWEIGHT
370
    -1
  9
$ENDCAPS
280
     0
  9
$JOINSTYLE
280
     0
  9
$LWDISPLAY
290
     0
  9
$INSUNITS
 70
     0
  9
$HYPERLINKBASE
  1

  9
$STYLESHEET
  1

  9
$XEDIT
290
     1
  9
$CEPSNTYPE
380
     0
  9
$PSTYLEMODE
290
     1
  9
$FINGERPRINTGUID
  2
{EC3F5D91-C780-4799-961D-410F52469557}
  9
$VERSIONGUID
  2
{20F3ED2F-A6A9-4B7F-96C0-DF39F36F1205}
  9
$EXTNAMES
290
     1
  9
$PSVPSCALE
 40
0.0
  9
$OLESTARTUP
290
     0
  0
ENDSEC
  0
SECTION
  2
CLASSES
  0
CLASS
  1
LWPOLYLINE
  2
AcDbPolyline
  3
ObjectDBX Classes
 90
        0
280
     0
281
     1
  0
CLASS
  1
IMAGE
  2
AcDbRasterImage
  3
ISM
 90
    34943
280
     0
281
     1
  0
CLASS
  1
OLE2FRAME
  2
AcDbOle2Frame
  3
ObjectDBX Classes
 90
    32768
280
     0
281
     1
  0
CLASS
  1
HATCH
  2
AcDbHatch
  3
ObjectDBX Classes
 90
    32768
280
     0
281
     1
  0
CLASS
  1
DICTIONARYVAR
  2
AcDbDictionaryVar
  3
ObjectDBX Classes
 90
        0
280
     0
281
     0
  0
CLASS
  1
RASTERVARIABLES
  2
AcDbRasterVariables
  3
ISM
 90
    32768
280
     0
281
     0
  0
CLASS
  1
IMAGEDEF
  2
AcDbRasterImageDef
  3
ISM
 90
    32768
280
     0
281
     0
  0
CLASS
  1
IMAGEDEF_REACTOR
  2
AcDbRasterImageDefReactor
  3
ISM
 90
    32769
280
     0
281
     0
  0
CLASS
  1
IDBUFFER
  2
AcDbIdBuffer
  3
ObjectDBX Classes
 90
    32768
280
     0
281
     0
  0
CLASS
  1
SPATIAL_FILTER
  2
AcDbSpatialFilter
  3
ObjectDBX Classes
 90
    32768
280
     0
281
     0
  0
CLASS
  1
XRECORD
  2
AcDbXrecord
  3
ObjectDBX Classes
 90
        0
280
     0
281
     0
  0
CLASS
  1
SORTENTSTABLE
  2
AcDbSortentsTable
  3
ObjectDBX Classes
 90
    32768
280
     0
281
     0
  0
CLASS
  1
LAYER_INDEX
  2
AcDbLayerIndex
  3
ObjectDBX Classes
 90
    32768
280
     0
281
     0
  0
CLASS
  1
SPATIAL_INDEX
  2
AcDbSpatialIndex
  3
ObjectDBX Classes
 90
    32768
280
     0
281
     0
  0
CLASS
  1
OBJECT_PTR
  2
CAseDLPNTableRecord
  3
ASE-LPNTableRecord
 90
    32769
280
     0
281
     0
  0
CLASS
  1
LAYOUT
  2
AcDbLayout
  3
ObjectDBX Classes
 90
        0
280
     0
281
     0
  0
CLASS
  1
PLOTSETTINGS
  2
AcDbPlotSettings
  3
ObjectDBX Classes
 90
    32768
280
     0
281
     0
  0
CLASS
  1
ACDBDICTIONARYWDFLT
  2
AcDbDictionaryWithDefault
  3
ObjectDBX Classes
 90
        0
280
     0
281
     0
  0
CLASS
  1
ACDBPLACEHOLDER
  2
AcDbPlaceHolder
  3
ObjectDBX Classes
 90
        0
280
     0
281
     0
  0
CLASS
  1
VBA_PROJECT
  2
AcDbVbaProject
  3
acad
 90
    32768
280
     0
281
     0
  0
CLASS
  1
WIPEOUT
  2
AcDbWipeout
  3
"WipeOut|Product Desc: Object Enabler for WipeOut entity                        |Company: Autodesk, Inc.                        |WEB Address: www.autodesk.com"
 90
    34943
280
     0
281
     1
  0
CLASS
  1
WIPEOUTVARIABLES
  2
AcDbWipeoutVariables
  3
"WipeOut|Product Desc:     WipeOut Dbx Application|Company:          Autodesk, Inc.|WEB Address:      www.autodesk.com"
 90
    32768
280
     0
281
     0
  0
CLASS
  1
RTEXT
  2
RText
  3
RText|AutoCAD Express Tool|expresstools@autodesk.com
 90
    32768
280
     0
281
     1
  0
CLASS
  1
ARCALIGNEDTEXT
  2
AcDbArcAlignedText
  3
ATEXT|AutoCAD Express Tool|expresstools@autodesk.com
 90
    32768
280
     0
281
     1
  0
CLASS
  1
SCALE
  2
AcDbScale
  3
ObjectDBX Classes
 90
     1153
280
     0
281
     0
  0
CLASS
  1
MATERIAL
  2
AcDbMaterial
  3
ObjectDBX Classes
 90
     1024
280
     0
281
     0
  0
CLASS
  1
VISUALSTYLE
  2
AcDbVisualStyle
  3
ObjectDBX Classes
 90
     4095
280
     0
281
     0
  0
CLASS
  1
TABLESTYLE
  2
AcDbTableStyle
  3
ObjectDBX Classes
 90
     4095
280
     0
281
     0
  0
ENDSEC
  0
SECTION
  2
TABLES
  0
TABLE
  2
VPORT
  5
7
330
0
100
AcDbSymbolTable
 70
     1
  0
VPORT
  5
15
330
7
100
AcDbSymbolTableRecord
100
AcDbViewportTableRecord
  2
*ACTIVE
 70
     0
 10
0.0
 20
0.0
 11
1.0
 21
1.0
 12
139.5204171556053
 22
95.60186067631217
 13
0.0
 23
0.0
 14
1.0
 24
1.0
 15
0.0
 25
0.0
 16
0.0
 26
0.0
 36
1.0
 17
0.0
 27
0.0
 37
0.0
 40
143.4557674258142
 41
1.905503634475596
 42
50.0
 43
0.0
 44
0.0
 50
0.0
 51
0.0
 71
     0
 72
   100
 73
     1
 74
     1
 75
     0
 76
     0
 77
     0
 78
     0
281
     0
 65
     1
110
0.0
120
0.0
130
0.0
111
1.0
121
0.0
131
0.0
112
0.0
122
1.0
132
0.0
 79
     0
146
0.0
  0
ENDTAB
  0
TABLE
  2
LTYPE
  5
4
330
0
100
AcDbSymbolTable
 70
     3
  0
LTYPE
  5
11
330
4
100
AcDbSymbolTableRecord
100
AcDbLinetypeTableRecord
  2
BYBLOCK
 70
     0
  3

 72
    65
 73
     0
 40
0.0
  0
LTYPE
  5
12
330
4
100
AcDbSymbolTableRecord
100
AcDbLinetypeTableRecord
  2
BYLAYER
 70
     0
  3

 72
    65
 73
     0
 40
0.0
  0
LTYPE
  5
13
330
4
100
AcDbSymbolTableRecord
100
AcDbLinetypeTableRecord
  2
CONTINUOUS
 70
     0
  3
Solid line
 72
    65
 73
     0
 40
0.0
  0
LTYPE
  5
1D
330
4
100
AcDbSymbolTableRecord
100
AcDbLinetypeTableRecord
  2
DASHDOT
 70
     0
  3
 __ . __ . __ . __ . __ . __ . __ . 
 72
    65
 73
     4
 40
18.5
 49
12.0
 74
     0
 49
-3.0
 74
     0
 49
0.5
 74
     0
 49
-3.0
 74
     0
  0
LTYPE
  5
1E
330
4
100
AcDbSymbolTableRecord
100
AcDbLinetypeTableRecord
  2
PHANTOM
 70
     0
  3
____________    ____    ____   _
 72
    65
 73
     6
 40
20.0
 49
10.0
 74
     0
 49
-2.0
 74
     0
 49
2.0
 74
     0
 49
-2.0
 74
     0
 49
2.0
 74
     0
 49
-2.0
 74
     0
  0
ENDTAB
  0
TABLE
  2
LAYER
  5
2
330
0
100
AcDbSymbolTable
 70
     7
  0
LAYER
  5
14
330
2
100
AcDbSymbolTableRecord
100
AcDbLayerTableRecord
  2
0
 70
     0
 62
     7
  6
CONTINUOUS
370
    -3
390
50A
  0
LAYER
  5
4FB
330
2
100
AcDbSymbolTableRecord
100
AcDbLayerTableRecord
  2
Hawa1
 70
     0
 62
     2
  6
CONTINUOUS
370
     0
390
50A
  0
LAYER
  5
4FC
330
2
100
AcDbSymbolTableRecord
100
AcDbLayerTableRecord
  2
Hawa2
 70
     0
 62
     9
  6
CONTINUOUS
370
     0
390
50A
  0
LAYER
  5
4FD
330
2
100
AcDbSymbolTableRecord
100
AcDbLayerTableRecord
  2
Hawa4
 70
     0
 62
     4
  6
CONTINUOUS
370
     0
390
50A
  0
LAYER
  5
4FE
330
2
100
AcDbSymbolTableRecord
100
AcDbLayerTableRecord
  2
Hawa5
 70
     0
 62
     1
  6
CONTINUOUS
370
    -3
390
50A
  0
LAYER
  5
4FF
330
2
100
AcDbSymbolTableRecord
100
AcDbLayerTableRecord
  2
Hawa6
 70
     0
 62
     3
  6
CONTINUOUS
370
    -3
390
50A
  0
LAYER
  5
526
330
2
100
AcDbSymbolTableRecord
100
AcDbLayerTableRecord
  2
Defpoints
 70
     0
 62
     7
  6
CONTINUOUS
290
     0
370
    -3
390
50A
  0
ENDTAB
  0
TABLE
  2
STYLE
  5
3
330
0
100
AcDbSymbolTable
 70
     3
  0
STYLE
  5
17
330
3
100
AcDbSymbolTableRecord
100
AcDbTextStyleTableRecord
  2
STANDARD
 70
     0
 40
0.0
 41
1.0
 50
0.0
 71
     0
 42
2.5
  3
isocp.shx
  4

  0
STYLE
  5
1F
330
3
100
AcDbSymbolTableRecord
100
AcDbTextStyleTableRecord
  2
GDT
 70
     0
 40
0.0
 41
1.0
 50
0.0
 71
     0
 42
2.5
  3
gdt.shx
  4

  0
STYLE
  5
528
330
3
100
AcDbSymbolTableRecord
100
AcDbTextStyleTableRecord
  2
Beschlag
 70
     0
 40
0.0
 41
0.9
 50
0.0
 71
     0
 42
3.5
  3
arial.ttf
  4

1001
ACAD
1000
Arial
1071
       34
  0
ENDTAB
  0
TABLE
  2
VIEW
  5
5
330
0
100
AcDbSymbolTable
 70
     0
  0
ENDTAB
  0
TABLE
  2
UCS
  5
6
330
0
100
AcDbSymbolTable
 70
     0
  0
ENDTAB
  0
TABLE
  2
APPID
  5
8
330
0
100
AcDbSymbolTable
 70
     1
  0
APPID
  5
16
330
8
100
AcDbSymbolTableRecord
100
AcDbRegAppTableRecord
  2
ACAD
 70
     0
  0
ENDTAB
  0
TABLE
  2
DIMSTYLE
  5
9
330
0
100
AcDbSymbolTable
 70
     2
100
AcDbDimStyleTable
 71
     2
340
527
340
18
  0
DIMSTYLE
105
18
330
9
100
AcDbSymbolTableRecord
100
AcDbDimStyleTableRecord
  2
STANDARD
 70
     0
 41
2.5
 42
0.625
 43
3.75
 44
1.25
 73
     0
 74
     0
 77
     1
 78
     8
140
2.5
141
2.5
143
0.03937
147
0.625
171
     3
172
     1
271
     2
272
     2
274
     3
283
     0
284
     8
289
     0
340
17
  0
DIMSTYLE
105
527
102
{ACAD_REACTORS
330
41
330
3F
330
3D
330
3B
330
39
330
37
330
35
330
33
330
31
330
2F
330
2D
330
2B
330
29
330
27
330
25
330
23
330
21
102
}
330
9
100
AcDbSymbolTableRecord
100
AcDbDimStyleTableRecord
  2
HAWA-Strich
 70
     0
 41
2.0
 42
2.0
 43
0.0
 44
1.0
 46
1.0
 73
     0
 74
     0
 77
     1
 78
     8
 79
     2
140
3.5
141
0.0
143
0.039370078740157
146
0.7114285714285719
147
1.0
170
     1
171
     5
172
     1
173
     1
176
   256
177
   256
178
   256
179
     1
271
     1
272
     1
273
     4
274
     5
284
     8
285
     8
286
     8
340
528
341
529
343
529
344
529
  0
ENDTAB
  0
TABLE
  2
BLOCK_RECORD
  5
1
330
0
100
AcDbSymbolTable
 70
    36
  0
BLOCK_RECORD
  5
A
330
1
100
AcDbSymbolTableRecord
100
AcDbBlockTableRecord
  2
*MODEL_SPACE
340
440
  0
BLOCK_RECORD
  5
B
330
1
100
AcDbSymbolTableRecord
100
AcDbBlockTableRecord
  2
*PAPER_SPACE
340
441
  0
BLOCK_RECORD
  5
20
330
1
100
AcDbSymbolTableRecord
100
AcDbBlockTableRecord
  2
*D0
340
0
  0
BLOCK_RECORD
  5
22
330
1
100
AcDbSymbolTableRecord
100
AcDbBlockTableRecord
  2
*D1
340
0
  0
BLOCK_RECORD
  5
24
330
1
100
AcDbSymbolTableRecord
100
AcDbBlockTableRecord
  2
*D2
340
0
  0
BLOCK_RECORD
  5
26
330
1
100
AcDbSymbolTableRecord
100
AcDbBlockTableRecord
  2
*D3
340
0
  0
BLOCK_RECORD
  5
28
330
1
100
AcDbSymbolTableRecord
100
AcDbBlockTableRecord
  2
*D4
340
0
  0
BLOCK_RECORD
  5
2A
330
1
100
AcDbSymbolTableRecord
100
AcDbBlockTableRecord
  2
*D5
340
0
  0
BLOCK_RECORD
  5
2C
330
1
100
AcDbSymbolTableRecord
100
AcDbBlockTableRecord
  2
*D6
340
0
  0
BLOCK_RECORD
  5
2E
330
1
100
AcDbSymbolTableRecord
100
AcDbBlockTableRecord
  2
*D7
340
0
  0
BLOCK_RECORD
  5
30
330
1
100
AcDbSymbolTableRecord
100
AcDbBlockTableRecord
  2
*D8
340
0
  0
BLOCK_RECORD
  5
32
330
1
100
AcDbSymbolTableRecord
100
AcDbBlockTableRecord
  2
*D9
340
0
  0
BLOCK_RECORD
  5
34
330
1
100
AcDbSymbolTableRecord
100
AcDbBlockTableRecord
  2
*D10
340
0
  0
BLOCK_RECORD
  5
36
330
1
100
AcDbSymbolTableRecord
100
AcDbBlockTableRecord
  2
*D11
340
0
  0
BLOCK_RECORD
  5
38
330
1
100
AcDbSymbolTableRecord
100
AcDbBlockTableRecord
  2
*D12
340
0
  0
BLOCK_RECORD
  5
3A
330
1
100
AcDbSymbolTableRecord
100
AcDbBlockTableRecord
  2
*D13
340
0
  0
BLOCK_RECORD
  5
3C
330
1
100
AcDbSymbolTableRecord
100
AcDbBlockTableRecord
  2
*D14
340
0
  0
BLOCK_RECORD
  5
3E
330
1
100
AcDbSymbolTableRecord
100
AcDbBlockTableRecord
  2
*D15
340
0
  0
BLOCK_RECORD
  5
40
330
1
100
AcDbSymbolTableRecord
100
AcDbBlockTableRecord
  2
*D16
340
0
  0
BLOCK_RECORD
  5
281
330
1
100
AcDbSymbolTableRecord
100
AcDbBlockTableRecord
  2
BLOCK1
340
0
  0
BLOCK_RECORD
  5
282
330
1
100
AcDbSymbolTableRecord
100
AcDbBlockTableRecord
  2
BLOCK2
340
0
  0
BLOCK_RECORD
  5
283
330
1
100
AcDbSymbolTableRecord
100
AcDbBlockTableRecord
  2
BLOCK3
340
0
  0
BLOCK_RECORD
  5
284
330
1
100
AcDbSymbolTableRecord
100
AcDbBlockTableRecord
  2
BLOCK4
340
0
  0
BLOCK_RECORD
  5
285
330
1
100
AcDbSymbolTableRecord
100
AcDbBlockTableRecord
  2
BLOCK5
340
0
  0
BLOCK_RECORD
  5
286
330
1
100
AcDbSymbolTableRecord
100
AcDbBlockTableRecord
  2
BLOCK6
340
0
  0
BLOCK_RECORD
  5
287
330
1
100
AcDbSymbolTableRecord
100
AcDbBlockTableRecord
  2
BLOCK7
340
0
  0
BLOCK_RECORD
  5
288
330
1
100
AcDbSymbolTableRecord
100
AcDbBlockTableRecord
  2
BLOCK8
340
0
  0
BLOCK_RECORD
  5
289
330
1
100
AcDbSymbolTableRecord
100
AcDbBlockTableRecord
  2
BLOCK9
340
0
  0
BLOCK_RECORD
  5
28A
330
1
100
AcDbSymbolTableRecord
100
AcDbBlockTableRecord
  2
BLOCK10
340
0
  0
BLOCK_RECORD
  5
28B
330
1
100
AcDbSymbolTableRecord
100
AcDbBlockTableRecord
  2
BLOCK11
340
0
  0
BLOCK_RECORD
  5
28C
330
1
100
AcDbSymbolTableRecord
100
AcDbBlockTableRecord
  2
BLOCK12
340
0
  0
BLOCK_RECORD
  5
28D
330
1
100
AcDbSymbolTableRecord
100
AcDbBlockTableRecord
  2
BLOCK13
340
0
  0
BLOCK_RECORD
  5
28E
330
1
100
AcDbSymbolTableRecord
100
AcDbBlockTableRecord
  2
BLOCK14
340
0
  0
BLOCK_RECORD
  5
28F
330
1
100
AcDbSymbolTableRecord
100
AcDbBlockTableRecord
  2
BLOCK15
340
0
  0
BLOCK_RECORD
  5
290
330
1
100
AcDbSymbolTableRecord
100
AcDbBlockTableRecord
  2
BLOCK16
340
0
  0
BLOCK_RECORD
  5
291
330
1
100
AcDbSymbolTableRecord
100
AcDbBlockTableRecord
  2
BLOCK17
340
0
  0
BLOCK_RECORD
  5
292
330
1
100
AcDbSymbolTableRecord
100
AcDbBlockTableRecord
  2
BLOCK18
340
0
  0
BLOCK_RECORD
  5
529
330
1
100
AcDbSymbolTableRecord
100
AcDbBlockTableRecord
  2
_Oblique
340
0
310
2800000020000000200000000100080000000000000400000000000000000000000000000000000000000000000080000080000000808000800000008000800080800000C0C0C000C0DCC000F0CAA6000020400000206000002080000020A0000020C0000020E00000400000004020000040400000406000004080000040A0
310
000040C0000040E00000600000006020000060400000606000006080000060A0000060C0000060E00000800000008020000080400000806000008080000080A0000080C0000080E00000A0000000A0200000A0400000A0600000A0800000A0A00000A0C00000A0E00000C0000000C0200000C0400000C0600000C0800000C0
310
A00000C0C00000C0E00000E0000000E0200000E0400000E0600000E0800000E0A00000E0C00000E0E00040000000400020004000400040006000400080004000A0004000C0004000E00040200000402020004020400040206000402080004020A0004020C0004020E000404000004040200040404000404060004040800040
310
40A0004040C0004040E00040600000406020004060400040606000406080004060A0004060C0004060E00040800000408020004080400040806000408080004080A0004080C0004080E00040A0000040A0200040A0400040A0600040A0800040A0A00040A0C00040A0E00040C0000040C0200040C0400040C0600040C08000
310
40C0A00040C0C00040C0E00040E0000040E0200040E0400040E0600040E0800040E0A00040E0C00040E0E00080000000800020008000400080006000800080008000A0008000C0008000E00080200000802020008020400080206000802080008020A0008020C0008020E00080400000804020008040400080406000804080
310
008040A0008040C0008040E00080600000806020008060400080606000806080008060A0008060C0008060E00080800000808020008080400080806000808080008080A0008080C0008080E00080A0000080A0200080A0400080A0600080A0800080A0A00080A0C00080A0E00080C0000080C0200080C0400080C0600080C0
310
800080C0A00080C0C00080C0E00080E0000080E0200080E0400080E0600080E0800080E0A00080E0C00080E0E000C0000000C0002000C0004000C0006000C0008000C000A000C000C000C000E000C0200000C0202000C0204000C0206000C0208000C020A000C020C000C020E000C0400000C0402000C0404000C0406000C0
310
408000C040A000C040C000C040E000C0600000C0602000C0604000C0606000C0608000C060A000C060C000C060E000C0800000C0802000C0804000C0806000C0808000C080A000C080C000C080E000C0A00000C0A02000C0A04000C0A06000C0A08000C0A0A000C0A0C000C0A0E000C0C00000C0C02000C0C04000C0C06000
310
C0C08000C0C0A000F0FBFF00A4A0A000808080000000FF0000FF000000FFFF00FF000000FF00FF00FFFF0000FFFFFF00000000000000000000000000000000000000000000000000000000000000000000FF0000000000000000000000000000000000000000000000000000000000000000FF000000000000000000000000
310
0000000000000000000000000000000000000000FF0000000000000000000000000000000000000000000000000000000000000000FF0000000000000000000000000000000000000000000000000000000000000000FF0000000000000000000000000000000000000000000000000000000000000000FF00000000000000
310
00000000000000000000000000000000000000000000000000FF0000000000000000000000000000000000000000000000000000000000000000FF0000000000000000000000000000000000000000000000000000000000000000FF0000000000000000000000000000000000000000000000000000000000000000FF0000
310
000000000000000000000000000000000000000000000000000000000000FF0000000000000000000000000000000000000000000000000000000000000000FF0000000000000000000000000000000000000000000000000000000000000000FF000000000000000000000000000000000000000000000000000000000000
310
0000FF0000000000000000000000000000000000000000000000000000000000000000FF0000000000000000000000000000000000000000000000000000000000000000FF0000000000000000000000000000000000000000000000000000000000000000FF00000000000000000000000000000000000000000000000000
310
00000000000000FF0000000000000000000000000000000000000000000000000000000000000000FF0000000000000000000000000000000000000000000000000000000000000000FF0000000000000000000000000000000000000000000000000000000000000000FF0000000000000000000000000000000000000000
310
000000000000000000000000FF0000000000000000000000000000000000000000000000000000000000000000FF0000000000000000000000000000000000000000000000000000000000000000FF0000000000000000000000000000000000000000000000000000000000000000FF000000000000000000000000000000
310
0000000000000000000000000000000000FF0000000000000000000000000000000000000000000000000000000000000000FF0000000000000000000000000000000000000000000000000000000000000000FF0000000000000000000000000000000000000000000000000000000000000000FF00000000000000000000
310
00000000000000000000000000000000000000000000FF000000000000000000000000000000000000000000000000000000000000000000
102
{BLKREFS
331
5D8
331
5D9
331
612
331
613
331
648
331
649
331
651
331
652
331
65A
331
65B
331
664
331
665
331
66E
331
66F
331
6A0
331
6A1
331
6AA
331
6AB
331
6B4
331
6B5
331
72A
331
72B
331
7A2
331
7A3
331
7B6
331
7B7
331
7CF
331
7D0
331
7D9
331
7DA
331
7E3
331
7E4
331
7ED
331
7EE
102
}
  0
ENDTAB
  0
ENDSEC
  0
SECTION
  2
BLOCKS
  0
BLOCK
  5
D
330
A
100
AcDbEntity
  8
0
100
AcDbBlockBegin
  2
*MODEL_SPACE
 70
     0
 10
0.0
 20
0.0
 30
0.0
  3
*MODEL_SPACE
  1

  0
ENDBLK
  5
E
330
A
100
AcDbEntity
  8
0
100
AcDbBlockEnd
  0
BLOCK
  5
F
330
B
100
AcDbEntity
 67
     1
  8
0
100
AcDbBlockBegin
  2
*PAPER_SPACE
 70
     0
 10
0.0
 20
0.0
 30
0.0
  3
*PAPER_SPACE
  1

  0
ENDBLK
  5
10
330
B
100
AcDbEntity
 67
     1
  8
0
100
AcDbBlockEnd
  0
BLOCK
  5
293
330
20
100
AcDbEntity
  8
Hawa1
100
AcDbBlockBegin
  2
*D0
 70
     1
 10
0.0
 20
0.0
 30
0.0
  3
*D0
  1

  0
LINE
  5
66A
330
20
100
AcDbEntity
  8
Hawa1
370
    -2
100
AcDbLine
 10
259.2386466991178
 20
109.3712410002772
 30
0.0
 11
259.2384968419537
 21
100.3710491430089
 31
0.0
  0
LINE
  5
66B
330
20
100
AcDbEntity
  8
Hawa1
370
    -2
100
AcDbLine
 10
256.7387133008821
 20
88.07540399972277
 30
0.0
 11
256.7389513303721
 21
102.3710907618214
 31
0.0
  0
LINE
  5
66C
330
20
100
AcDbEntity
  8
Hawa1
370
    -2
100
AcDbLine
 10
260.2385134922562
 20
101.3710324924292
 30
0.0
 11
256.738934679931
 21
101.37109076196
 31
0.0
  0
LINE
  5
66D
330
20
100
AcDbEntity
  8
Hawa1
370
    -2
100
AcDbLine
 10
256.738934679931
 20
101.37109076196
 30
0.0
 11
238.4708139828044
 21
101.371394934227
 31
0.0
  0
INSERT
  5
66E
330
20
100
AcDbEntity
  8
Hawa1
370
    -2
100
AcDbBlockReference
  2
_Oblique
 10
259.2385134923948
 20
101.3710491428703
 30
0.0
 41
2.0
 42
2.0
 43
2.0
 50
359.999046
  0
INSERT
  5
66F
330
20
100
AcDbEntity
  8
Hawa1
370
    -2
100
AcDbBlockReference
  2
_Oblique
 10
256.738934679931
 20
101.37109076196
 30
0.0
 41
2.0
 42
2.0
 43
2.0
 50
179.999046
  0
MTEXT
  5
670
330
20
100
AcDbEntity
  8
Hawa1
100
AcDbMText
 10
246.6049483460402
 20
105.8164590978502
 30
0.0
 40
3.5
 41
0.0
 71
     5
 72
     1
  1
\A1;2.5 [{\H0.711429x;\S3/32;}"]
  7
Beschlag
 11
0.9999999998613814
 21
-0.0000166504410634
 31
0.0
 73
     1
 44
1.0
1001
ACAD
1000
MTEXTBEGIN
1070
    73
1070
     1
1070
    44
1040
1.0
1070
    74
1070
     0
1000
MTEXTEND
  0
POINT
  5
671
330
20
100
AcDbEntity
  8
Defpoints
 62
     0
100
AcDbPoint
 10
259.23868
 20
111.371241
 30
0.0
  0
POINT
  5
672
330
20
100
AcDbEntity
  8
Defpoints
 62
     0
100
AcDbPoint
 10
256.73868
 20
86.07540400000001
 30
0.0
  0
POINT
  5
673
330
20
100
AcDbEntity
  8
Defpoints
 62
     0
100
AcDbPoint
 10
256.738934679931
 20
101.37109076196
 30
0.0
  0
ENDBLK
  5
29E
330
20
100
AcDbEntity
  8
Hawa1
100
AcDbBlockEnd
  0
BLOCK
  5
29F
330
22
100
AcDbEntity
  8
Hawa1
100
AcDbBlockBegin
  2
*D1
 70
     1
 10
0.0
 20
0.0
 30
0.0
  3
*D1
  1

  0
LINE
  5
660
330
22
100
AcDbEntity
  8
Hawa1
370
    -2
100
AcDbLine
 10
245.2386133982357
 20
66.32540400110895
 30
0.0
 11
245.2383174844944
 21
57.43934086149764
 31
0.0
  0
LINE
  5
661
330
22
100
AcDbEntity
  8
Hawa1
370
    -2
100
AcDbLine
 10
259.2387466017643
 20
50.43963099889105
 30
0.0
 11
259.2390462845156
 21
59.43887462598695
 31
0.0
  0
LINE
  5
662
330
22
100
AcDbEntity
  8
Hawa1
370
    -2
100
AcDbLine
 10
244.2383507859311
 20
58.4393741618253
 30
0.0
 11
259.2390129836335
 21
58.43887462654143
 31
0.0
  0
LINE
  5
663
330
22
100
AcDbEntity
  8
Hawa1
370
    -2
100
AcDbLine
 10
259.2390129836335
 20
58.43887462654143
 30
0.0
 11
275.7462583903401
 21
58.43832492070767
 31
0.0
  0
INSERT
  5
664
330
22
100
AcDbEntity
  8
Hawa1
370
    -2
100
AcDbBlockReference
  2
_Oblique
 10
245.2383507853765
 20
58.43934086094318
 30
0.0
 41
2.0
 42
2.0
 43
2.0
 50
179.998092
  0
INSERT
  5
665
330
22
100
AcDbEntity
  8
Hawa1
370
    -2
100
AcDbBlockReference
  2
_Oblique
 10
259.2390129836335
 20
58.43887462654143
 30
0.0
 41
2.0
 42
2.0
 43
2.0
 50
359.998092
  0
MTEXT
  5
666
330
22
100
AcDbEntity
  8
Hawa1
100
AcDbMText
 10
268.4927836589387
 20
62.88206756986934
 30
0.0
 40
3.5
 41
0.0
 71
     5
 72
     1
  1
\A1;14 [{\H0.711429x;\S9/16;}"]
  7
Beschlag
 11
0.9999999994455256
 21
-0.0000333008821221
 31
0.0
 73
     1
 44
1.0
1001
ACAD
1000
MTEXTBEGIN
1070
    73
1070
     1
1070
    44
1040
1.0
1070
    74
1070
     0
1000
MTEXTEND
  0
POINT
  5
667
330
22
100
AcDbEntity
  8
Defpoints
 62
     0
100
AcDbPoint
 10
245.23868
 20
68.325404
 30
0.0
  0
POINT
  5
668
330
22
100
AcDbEntity
  8
Defpoints
 62
     0
100
AcDbPoint
 10
259.23868
 20
48.439631
 30
0.0
  0
POINT
  5
669
330
22
100
AcDbEntity
  8
Defpoints
 62
     0
100
AcDbPoint
 10
259.2390129836335
 20
58.43887462654143
 30
0.0
  0
ENDBLK
  5
2AA
330
22
100
AcDbEntity
  8
Hawa1
100
AcDbBlockEnd
  0
BLOCK
  5
2AB
330
24
100
AcDbEntity
  8
Hawa1
100
AcDbBlockBegin
  2
*D2
 70
     1
 10
0.0
 20
0.0
 30
0.0
  3
*D2
  1

  0
LINE
  5
657
330
24
100
AcDbEntity
  8
Hawa1
370
    -2
100
AcDbLine
 10
32.71383800000001
 20
83.325404
 30
0.0
 11
10.74880400000001
 21
83.32540400000002
 31
0.0
  0
LINE
  5
658
330
24
100
AcDbEntity
  8
Hawa1
370
    -2
100
AcDbLine
 10
32.71383800000001
 20
121.325404
 30
0.0
 11
10.74880400000002
 21
121.325404
 31
0.0
  0
LINE
  5
659
330
24
100
AcDbEntity
  8
Hawa1
370
    -2
100
AcDbLine
 10
11.74880400000001
 20
82.32540400000003
 30
0.0
 11
11.74880400000002
 21
122.325404
 31
0.0
  0
INSERT
  5
65A
330
24
100
AcDbEntity
  8
Hawa1
370
    -2
100
AcDbBlockReference
  2
_Oblique
 10
11.74880400000001
 20
83.32540400000002
 30
0.0
 41
2.0
 42
2.0
 43
2.0
 50
270.0
  0
INSERT
  5
65B
330
24
100
AcDbEntity
  8
Hawa1
370
    -2
100
AcDbBlockReference
  2
_Oblique
 10
11.74880400000002
 20
121.325404
 30
0.0
 41
2.0
 42
2.0
 43
2.0
 50
90.0
  0
MTEXT
  5
65C
330
24
100
AcDbEntity
  8
Hawa1
100
AcDbMText
 10
7.347765408935878
 20
102.325404
 30
0.0
 40
3.5
 41
0.0
 71
     5
 72
     1
  1
\A1;38 [1{\H0.711429x;\S1/2;}"]
  7
Beschlag
 11
0.0000000000000001
 21
1.0
 31
0.0
 73
     1
 44
1.0
1001
ACAD
1000
MTEXTBEGIN
1070
    73
1070
     1
1070
    44
1040
1.0
1070
    74
1070
     0
1000
MTEXTEND
  0
POINT
  5
65D
330
24
100
AcDbEntity
  8
Defpoints
 62
     0
100
AcDbPoint
 10
34.713838
 20
83.325404
 30
0.0
  0
POINT
  5
65E
330
24
100
AcDbEntity
  8
Defpoints
 62
     0
100
AcDbPoint
 10
34.713838
 20
121.325404
 30
0.0
  0
POINT
  5
65F
330
24
100
AcDbEntity
  8
Defpoints
 62
     0
100
AcDbPoint
 10
11.74880400000002
 20
121.325404
 30
0.0
  0
ENDBLK
  5
2B8
330
24
100
AcDbEntity
  8
Hawa1
100
AcDbBlockEnd
  0
BLOCK
  5
2B9
330
26
100
AcDbEntity
  8
Hawa1
100
AcDbBlockBegin
  2
*D3
 70
     1
 10
0.0
 20
0.0
 30
0.0
  3
*D3
  1

  0
LINE
  5
64E
330
26
100
AcDbEntity
  8
Hawa1
370
    -2
100
AcDbLine
 10
55.68739530088213
 20
120.8010539997227
 30
0.0
 11
55.68778555220418
 21
144.2389509606418
 31
0.0
  0
LINE
  5
64F
330
26
100
AcDbEntity
  8
Hawa1
370
    -2
100
AcDbLine
 10
34.71387130088213
 20
123.3254039997228
 30
0.0
 11
34.71421952647793
 21
144.2393001797669
 31
0.0
  0
LINE
  5
650
330
26
100
AcDbEntity
  8
Hawa1
370
    -2
100
AcDbLine
 10
56.68776890162451
 20
143.2389343103394
 30
0.0
 11
33.71420287617549
 21
143.2393168303466
 31
0.0
  0
INSERT
  5
651
330
26
100
AcDbEntity
  8
Hawa1
370
    -2
100
AcDbBlockReference
  2
_Oblique
 10
55.68776890176312
 20
143.2389509607804
 30
0.0
 41
2.0
 42
2.0
 43
2.0
 50
359.999046
  0
INSERT
  5
652
330
26
100
AcDbEntity
  8
Hawa1
370
    -2
100
AcDbBlockReference
  2
_Oblique
 10
34.71420287603687
 20
143.2393001799055
 30
0.0
 41
2.0
 42
2.0
 43
2.0
 50
179.999046
  0
MTEXT
  5
653
330
26
100
AcDbEntity
  8
Hawa1
100
AcDbMText
 10
45.20105988929355
 20
147.6834759194882
 30
0.0
 40
3.5
 41
0.0
 71
     5
 72
     1
  1
\A1;21 [{\H0.711429x;\S13/16;}"]
  7
Beschlag
 11
0.9999999998613814
 21
-0.0000166504410634
 31
0.0
 73
     1
 44
1.0
1001
ACAD
1000
MTEXTBEGIN
1070
    73
1070
     1
1070
    44
1040
1.0
1070
    74
1070
     0
1000
MTEXTEND
  0
POINT
  5
654
330
26
100
AcDbEntity
  8
Defpoints
 62
     0
100
AcDbPoint
 10
55.687362
 20
118.801054
 30
0.0
  0
POINT
  5
655
330
26
100
AcDbEntity
  8
Defpoints
 62
     0
100
AcDbPoint
 10
34.71383800000001
 20
121.325404
 30
0.0
  0
POINT
  5
656
330
26
100
AcDbEntity
  8
Defpoints
 62
     0
100
AcDbPoint
 10
34.71420287603687
 20
143.2393001799055
 30
0.0
  0
ENDBLK
  5
2C5
330
26
100
AcDbEntity
  8
Hawa1
100
AcDbBlockEnd
  0
BLOCK
  5
2C6
330
28
100
AcDbEntity
  8
Hawa1
100
AcDbBlockBegin
  2
*D4
 70
     1
 10
0.0
 20
0.0
 30
0.0
  3
*D4
  1

  0
LINE
  5
645
330
28
100
AcDbEntity
  8
Hawa1
370
    -2
100
AcDbLine
 10
260.73868
 20
88.82540400000001
 30
0.0
 11
270.905121
 21
88.82540400000001
 31
0.0
  0
LINE
  5
646
330
28
100
AcDbEntity
  8
Hawa1
370
    -2
100
AcDbLine
 10
260.73868
 20
67.82540400000001
 30
0.0
 11
270.905121
 21
67.82540400000001
 31
0.0
  0
LINE
  5
647
330
28
100
AcDbEntity
  8
Hawa1
370
    -2
100
AcDbLine
 10
269.905121
 20
89.82540400000001
 30
0.0
 11
269.905121
 21
66.825404
 31
0.0
  0
INSERT
  5
648
330
28
100
AcDbEntity
  8
Hawa1
370
    -2
100
AcDbBlockReference
  2
_Oblique
 10
269.905121
 20
88.82540400000001
 30
0.0
 41
2.0
 42
2.0
 43
2.0
 50
90.0
  0
INSERT
  5
649
330
28
100
AcDbEntity
  8
Hawa1
370
    -2
100
AcDbBlockReference
  2
_Oblique
 10
269.905121
 20
67.82540400000001
 30
0.0
 41
2.0
 42
2.0
 43
2.0
 50
270.0
  0
MTEXT
  5
64A
330
28
100
AcDbEntity
  8
Hawa1
100
AcDbMText
 10
265.4607706502388
 20
78.32540400000005
 30
0.0
 40
3.5
 41
0.0
 71
     5
 72
     1
  1
\A1;21 [{\H0.711429x;\S13/16;}"]
  7
Beschlag
 11
0.0000000000000001
 21
1.0
 31
0.0
 73
     1
 44
1.0
1001
ACAD
1000
MTEXTBEGIN
1070
    73
1070
     1
1070
    44
1040
1.0
1070
    74
1070
     0
1000
MTEXTEND
  0
POINT
  5
64B
330
28
100
AcDbEntity
  8
Defpoints
 62
     0
100
AcDbPoint
 10
258.73868
 20
88.82540400000001
 30
0.0
  0
POINT
  5
64C
330
28
100
AcDbEntity
  8
Defpoints
 62
     0
100
AcDbPoint
 10
258.73868
 20
67.82540400000001
 30
0.0
  0
POINT
  5
64D
330
28
100
AcDbEntity
  8
Defpoints
 62
     0
100
AcDbPoint
 10
269.905121
 20
67.82540400000001
 30
0.0
  0
ENDBLK
  5
2D2
330
28
100
AcDbEntity
  8
Hawa1
100
AcDbBlockEnd
  0
BLOCK
  5
2D3
330
2A
100
AcDbEntity
  8
Hawa1
100
AcDbBlockBegin
  2
*D5
 70
     1
 10
0.0
 20
0.0
 30
0.0
  3
*D5
  1

  0
LINE
  5
7DF
330
2A
100
AcDbEntity
  8
Hawa1
370
    -2
100
AcDbLine
 10
230.69623
 20
83.325404
 30
0.0
 11
225.0718655429742
 21
83.325404
 31
0.0
  0
LINE
  5
7E0
330
2A
100
AcDbEntity
  8
Hawa1
370
    -2
100
AcDbLine
 10
230.69623
 20
73.325404
 30
0.0
 11
225.0718655429742
 21
73.325404
 31
0.0
  0
LINE
  5
7E1
330
2A
100
AcDbEntity
  8
Hawa1
370
    -2
100
AcDbLine
 10
226.0718655429741
 20
73.325404
 30
0.0
 11
226.0718655429741
 21
84.325404
 31
0.0
  0
LINE
  5
7E2
330
2A
100
AcDbEntity
  8
Hawa1
370
    -2
100
AcDbLine
 10
226.0718655429741
 20
83.325404
 30
0.0
 11
226.0718655429741
 21
101.1375045507314
 31
0.0
  0
INSERT
  5
7E3
330
2A
100
AcDbEntity
  8
Hawa1
370
    -2
100
AcDbBlockReference
  2
_Oblique
 10
226.0718655429741
 20
73.325404
 30
0.0
 41
2.0
 42
2.0
 43
2.0
 50
270.0
  0
INSERT
  5
7E4
330
2A
100
AcDbEntity
  8
Hawa1
370
    -2
100
AcDbBlockReference
  2
_Oblique
 10
226.0718655429741
 20
83.325404
 30
0.0
 41
2.0
 42
2.0
 43
2.0
 50
90.0
  0
MTEXT
  5
7E5
330
2A
100
AcDbEntity
  8
Hawa1
100
AcDbMText
 10
221.6976045152342
 20
94.98244145386928
 30
0.0
 40
3.5
 41
0.0
 71
     5
 72
     1
  1
\A1;8 [{\H0.7x;\S5/16;}"]
  7
Beschlag
 11
0.0000000000000001
 21
1.0
 31
0.0
 73
     1
 44
1.0
1001
ACAD
1000
MTEXTBEGIN
1070
    73
1070
     1
1070
    44
1040
1.0
1070
    74
1070
     0
1000
MTEXTEND
  0
POINT
  5
7E6
330
2A
100
AcDbEntity
  8
Defpoints
 62
     0
100
AcDbPoint
 10
232.69623
 20
83.325404
 30
0.0
  0
POINT
  5
7E7
330
2A
100
AcDbEntity
  8
Defpoints
 62
     0
100
AcDbPoint
 10
232.69623
 20
73.325404
 30
0.0
  0
POINT
  5
7E8
330
2A
100
AcDbEntity
  8
Defpoints
 62
     0
100
AcDbPoint
 10
226.0718655429741
 20
73.325404
 30
0.0
  0
ENDBLK
  5
2DD
330
2A
100
AcDbEntity
  8
Hawa1
100
AcDbBlockEnd
  0
BLOCK
  5
2DE
330
2C
100
AcDbEntity
  8
Hawa1
100
AcDbBlockBegin
  2
*D6
 70
     1
 10
0.0
 20
0.0
 30
0.0
  3
*D6
  1

  0
LINE
  5
7E9
330
2C
100
AcDbEntity
  8
Hawa1
370
    -2
100
AcDbLine
 10
230.69623
 20
83.325404
 30
0.0
 11
225.0718655429742
 21
83.325404
 31
0.0
  0
LINE
  5
7EA
330
2C
100
AcDbEntity
  8
Hawa1
370
    -2
100
AcDbLine
 10
230.69623
 20
73.325404
 30
0.0
 11
225.0718655429742
 21
73.325404
 31
0.0
  0
LINE
  5
7EB
330
2C
100
AcDbEntity
  8
Hawa1
370
    -2
100
AcDbLine
 10
226.0718655429742
 20
73.325404
 30
0.0
 11
226.0718655429742
 21
84.325404
 31
0.0
  0
LINE
  5
7EC
330
2C
100
AcDbEntity
  8
Hawa1
370
    -2
100
AcDbLine
 10
226.0718655429742
 20
83.325404
 30
0.0
 11
226.0718655429742
 21
117.7258637543079
 31
0.0
  0
INSERT
  5
7ED
330
2C
100
AcDbEntity
  8
Hawa1
370
    -2
100
AcDbBlockReference
  2
_Oblique
 10
226.0718655429742
 20
73.325404
 30
0.0
 41
2.0
 42
2.0
 43
2.0
 50
270.0
  0
INSERT
  5
7EE
330
2C
100
AcDbEntity
  8
Hawa1
370
    -2
100
AcDbBlockReference
  2
_Oblique
 10
226.0718655429742
 20
83.325404
 30
0.0
 41
2.0
 42
2.0
 43
2.0
 50
90.0
  0
MTEXT
  5
7EF
330
2C
100
AcDbEntity
  8
Hawa1
100
AcDbMText
 10
221.6750431236927
 20
109.502565664267
 30
0.0
 40
3.5
 41
0.0
 71
     5
 72
     1
  1
\A1;-12 [{\H0.7x;\S15/32;}"]
  7
Beschlag
 11
0.0000000000000001
 21
1.0
 31
0.0
 73
     1
 44
1.0
1001
ACAD
1000
MTEXTBEGIN
1070
    73
1070
     1
1070
    44
1040
1.0
1070
    74
1070
     0
1000
MTEXTEND
  0
POINT
  5
7F0
330
2C
100
AcDbEntity
  8
Defpoints
 62
     0
100
AcDbPoint
 10
232.69623
 20
83.325404
 30
0.0
  0
POINT
  5
7F1
330
2C
100
AcDbEntity
  8
Defpoints
 62
     0
100
AcDbPoint
 10
232.69623
 20
73.325404
 30
0.0
  0
POINT
  5
7F2
330
2C
100
AcDbEntity
  8
Defpoints
 62
     0
100
AcDbPoint
 10
226.0718655429742
 20
73.325404
 30
0.0
  0
ENDBLK
  5
2E9
330
2C
100
AcDbEntity
  8
Hawa1
100
AcDbBlockEnd
  0
BLOCK
  5
2EA
330
2E
100
AcDbEntity
  8
Hawa1
100
AcDbBlockBegin
  2
*D7
 70
     1
 10
0.0
 20
0.0
 30
0.0
  3
*D7
  1

  0
LINE
  5
727
330
2E
100
AcDbEntity
  8
Hawa1
370
    -2
100
AcDbLine
 10
184.2682179993761
 20
102.3253540486768
 30
0.0
 11
213.7566783724428
 21
102.3246175548693
 31
0.0
  0
LINE
  5
728
330
2E
100
AcDbEntity
  8
Hawa1
370
    -2
100
AcDbLine
 10
206.4076949993761
 20
78.32535404867678
 30
0.0
 11
213.7560789703749
 21
78.3251705179254
 31
0.0
  0
LINE
  5
729
330
2E
100
AcDbEntity
  8
Hawa1
370
    -2
100
AcDbLine
 10
212.7567033484162
 20
103.324642530219
 30
0.0
 11
212.7560539950252
 21
77.32519549389889
 31
0.0
  0
INSERT
  5
72A
330
2E
100
AcDbEntity
  8
Hawa1
370
    -2
100
AcDbBlockReference
  2
_Oblique
 10
212.7566783727546
 20
102.3246425305309
 30
0.0
 41
2.0
 42
2.0
 43
2.0
 50
89.99856899999997
  0
INSERT
  5
72B
330
2E
100
AcDbEntity
  8
Hawa1
370
    -2
100
AcDbBlockReference
  2
_Oblique
 10
212.7560789706868
 20
78.32519549358699
 30
0.0
 41
2.0
 42
2.0
 43
2.0
 50
269.998569
  0
MTEXT
  5
72C
330
2E
100
AcDbEntity
  8
Hawa1
100
AcDbMText
 10
208.3128775825785
 20
90.32539284698355
 30
0.0
 40
3.5
 41
0.0
 71
     5
 72
     1
  1
\A1;24 [{\H0.711429x;\S15/16;}"]
  7
Beschlag
 11
0.0000249756615941
 21
0.9999999996881081
 31
0.0
 73
     1
 44
1.0
1001
ACAD
1000
MTEXTBEGIN
1070
    73
1070
     1
1070
    44
1040
1.0
1070
    74
1070
     0
1000
MTEXTEND
  0
POINT
  5
72D
330
2E
100
AcDbEntity
  8
Defpoints
 62
     0
100
AcDbPoint
 10
182.2682179999999
 20
102.325404
 30
0.0
  0
POINT
  5
72E
330
2E
100
AcDbEntity
  8
Defpoints
 62
     0
100
AcDbPoint
 10
204.407695
 20
78.32540399999996
 30
0.0
  0
POINT
  5
72F
330
2E
100
AcDbEntity
  8
Defpoints
 62
     0
100
AcDbPoint
 10
212.7560789706868
 20
78.32519549358699
 30
0.0
  0
ENDBLK
  5
2F6
330
2E
100
AcDbEntity
  8
Hawa1
100
AcDbBlockEnd
  0
BLOCK
  5
2F7
330
30
100
AcDbEntity
  8
Hawa1
100
AcDbBlockBegin
  2
*D8
 70
     1
 10
0.0
 20
0.0
 30
0.0
  3
*D8
  1

  0
LINE
  5
7B2
330
30
100
AcDbEntity
  8
Hawa1
370
    -2
100
AcDbLine
 10
180.4036579993762
 20
97.32535404867681
 30
0.0
 11
191.2779684338847
 21
97.32508245557923
 31
0.0
  0
LINE
  5
7B3
330
30
100
AcDbEntity
  8
Hawa1
370
    -2
100
AcDbLine
 10
202.3708820006238
 20
83.32545395132317
 30
0.0
 11
189.2776187914442
 21
83.32578096423434
 31
0.0
  0
LINE
  5
7B4
330
30
100
AcDbEntity
  8
Hawa1
370
    -2
100
AcDbLine
 10
190.2776187911323
 20
83.32575598857275
 30
0.0
 11
190.2779934098582
 21
98.32510743092894
 31
0.0
  0
LINE
  5
7B5
330
30
100
AcDbEntity
  8
Hawa1
370
    -2
100
AcDbLine
 10
190.2779684341965
 20
97.32510743124082
 30
0.0
 11
190.2788269017716
 21
131.6972729720617
 31
0.0
  0
INSERT
  5
7B6
330
30
100
AcDbEntity
  8
Hawa1
370
    -2
100
AcDbBlockReference
  2
_Oblique
 10
190.2776187911323
 20
83.32575598857275
 30
0.0
 41
2.0
 42
2.0
 43
2.0
 50
269.998569
  0
INSERT
  5
7B7
330
30
100
AcDbEntity
  8
Hawa1
370
    -2
100
AcDbBlockReference
  2
_Oblique
 10
190.2779684341965
 20
97.32510743124082
 30
0.0
 41
2.0
 42
2.0
 43
2.0
 50
89.99856899999997
  0
MTEXT
  5
7B8
330
30
100
AcDbEntity
  8
Hawa1
100
AcDbMText
 10
185.8826370189364
 20
123.5665863825563
 30
0.0
 40
3.5
 41
0.0
 71
     5
 72
     1
  1
\A1;-14 [{\H0.7x;\S9/16;}"]
  7
Beschlag
 11
0.0000249756615941
 21
0.9999999996881081
 31
0.0
 73
     1
 44
1.0
1001
ACAD
1000
MTEXTBEGIN
1070
    73
1070
     1
1070
    44
1040
1.0
1070
    74
1070
     0
1000
MTEXTEND
  0
POINT
  5
7B9
330
30
100
AcDbEntity
  8
Defpoints
 62
     0
100
AcDbPoint
 10
178.4036579999999
 20
97.32540399999997
 30
0.0
  0
POINT
  5
7BA
330
30
100
AcDbEntity
  8
Defpoints
 62
     0
100
AcDbPoint
 10
204.3708819999999
 20
83.32540399999997
 30
0.0
  0
POINT
  5
7BB
330
30
100
AcDbEntity
  8
Defpoints
 62
     0
100
AcDbPoint
 10
190.2776187911323
 20
83.32575598857275
 30
0.0
  0
ENDBLK
  5
303
330
30
100
AcDbEntity
  8
Hawa1
100
AcDbBlockEnd
  0
BLOCK
  5
304
330
32
100
AcDbEntity
  8
Hawa1
100
AcDbBlockBegin
  2
*D9
 70
     1
 10
0.0
 20
0.0
 30
0.0
  3
*D9
  1

  0
LINE
  5
79E
330
32
100
AcDbEntity
  8
Hawa1
370
    -2
100
AcDbLine
 10
180.4036579993762
 20
97.32535404867681
 30
0.0
 11
191.2779684338847
 21
97.32508245557923
 31
0.0
  0
LINE
  5
79F
330
32
100
AcDbEntity
  8
Hawa1
370
    -2
100
AcDbLine
 10
202.3708820006238
 20
83.32545395132317
 30
0.0
 11
189.2776187914442
 21
83.32578096423434
 31
0.0
  0
LINE
  5
7A0
330
32
100
AcDbEntity
  8
Hawa1
370
    -2
100
AcDbLine
 10
190.2776187911323
 20
83.32575598857275
 30
0.0
 11
190.2779934098582
 21
98.32510743092894
 31
0.0
  0
LINE
  5
7A1
330
32
100
AcDbEntity
  8
Hawa1
370
    -2
100
AcDbLine
 10
190.2779684341965
 20
97.32510743124082
 30
0.0
 11
190.2784168386716
 21
115.2787649664919
 31
0.0
  0
INSERT
  5
7A2
330
32
100
AcDbEntity
  8
Hawa1
370
    -2
100
AcDbBlockReference
  2
_Oblique
 10
190.2776187911323
 20
83.32575598857275
 30
0.0
 41
2.0
 42
2.0
 43
2.0
 50
269.998569
  0
INSERT
  5
7A3
330
32
100
AcDbEntity
  8
Hawa1
370
    -2
100
AcDbBlockReference
  2
_Oblique
 10
190.2779684341965
 20
97.32510743124082
 30
0.0
 41
2.0
 42
2.0
 43
2.0
 50
89.99856899999997
  0
MTEXT
  5
7A4
330
32
100
AcDbEntity
  8
Hawa1
100
AcDbMText
 10
185.9240484449847
 20
108.7950589155183
 30
0.0
 40
3.5
 41
0.0
 71
     5
 72
     1
  1
\A1;13 [{\H0.7x;\S1/2;}"]
  7
Beschlag
 11
0.0000249756615941
 21
0.9999999996881081
 31
0.0
 73
     1
 44
1.0
1001
ACAD
1000
MTEXTBEGIN
1070
    73
1070
     1
1070
    44
1040
1.0
1070
    74
1070
     0
1000
MTEXTEND
  0
POINT
  5
7A5
330
32
100
AcDbEntity
  8
Defpoints
 62
     0
100
AcDbPoint
 10
178.4036579999999
 20
97.32540399999997
 30
0.0
  0
POINT
  5
7A6
330
32
100
AcDbEntity
  8
Defpoints
 62
     0
100
AcDbPoint
 10
204.3708819999999
 20
83.32540399999997
 30
0.0
  0
POINT
  5
7A7
330
32
100
AcDbEntity
  8
Defpoints
 62
     0
100
AcDbPoint
 10
190.2776187911323
 20
83.32575598857275
 30
0.0
  0
ENDBLK
  5
30F
330
32
100
AcDbEntity
  8
Hawa1
100
AcDbBlockEnd
  0
BLOCK
  5
310
330
34
100
AcDbEntity
  8
Hawa1
100
AcDbBlockBegin
  2
*D10
 70
     1
 10
0.0
 20
0.0
 30
0.0
  3
*D10
  1

  0
LINE
  5
60F
330
34
100
AcDbEntity
  8
Hawa1
370
    -2
100
AcDbLine
 10
179.4036913008821
 20
108.3254039997228
 30
0.0
 11
179.4039103413761
 21
121.4806407349104
 31
0.0
  0
LINE
  5
610
330
34
100
AcDbEntity
  8
Hawa1
370
    -2
100
AcDbLine
 10
129.4036913008822
 20
87.47540399972278
 30
0.0
 11
129.4042575169341
 21
121.481473251183
 31
0.0
  0
LINE
  5
611
330
34
100
AcDbEntity
  8
Hawa1
370
    -2
100
AcDbLine
 10
180.4038936907964
 20
120.4806240846079
 30
0.0
 11
128.4042408666316
 21
120.4814899017627
 31
0.0
  0
INSERT
  5
612
330
34
100
AcDbEntity
  8
Hawa1
370
    -2
100
AcDbBlockReference
  2
_Oblique
 10
179.403893690935
 20
120.480640735049
 30
0.0
 41
2.0
 42
2.0
 43
2.0
 50
359.999046
  0
INSERT
  5
613
330
34
100
AcDbEntity
  8
Hawa1
370
    -2
100
AcDbBlockReference
  2
_Oblique
 10
129.404240866493
 20
120.4814732513217
 30
0.0
 41
2.0
 42
2.0
 43
2.0
 50
179.999046
  0
MTEXT
  5
614
330
34
100
AcDbEntity
  8
Hawa1
100
AcDbMText
 10
154.404141293248
 20
124.9262565925009
 30
0.0
 40
3.5
 41
0.0
 71
     5
 72
     1
  1
\A1;=>50 [1{\H0.711429x;\S31/32;}"]
  7
Beschlag
 11
0.9999999998613814
 21
-0.0000166504410634
 31
0.0
 73
     1
 44
1.0
1001
ACAD
1000
MTEXTBEGIN
1070
    73
1070
     1
1070
    44
1040
1.0
1070
    74
1070
     0
1000
MTEXTEND
  0
POINT
  5
615
330
34
100
AcDbEntity
  8
Defpoints
 62
     0
100
AcDbPoint
 10
179.403658
 20
106.325404
 30
0.0
  0
POINT
  5
616
330
34
100
AcDbEntity
  8
Defpoints
 62
     0
100
AcDbPoint
 10
129.403658
 20
85.475404
 30
0.0
  0
POINT
  5
617
330
34
100
AcDbEntity
  8
Defpoints
 62
     0
100
AcDbPoint
 10
129.404240866493
 20
120.4814732513217
 30
0.0
  0
ENDBLK
  5
326
330
34
100
AcDbEntity
  8
Hawa1
100
AcDbBlockEnd
  0
BLOCK
  5
327
330
36
100
AcDbEntity
  8
Hawa1
100
AcDbBlockBegin
  2
*D11
 70
     1
 10
0.0
 20
0.0
 30
0.0
  3
*D11
  1

  0
LINE
  5
7D5
330
36
100
AcDbEntity
  8
Hawa1
370
    -2
100
AcDbLine
 10
92.50522
 20
107.325404
 30
0.0
 11
78.03594666829446
 21
107.325404
 31
0.0
  0
LINE
  5
7D6
330
36
100
AcDbEntity
  8
Hawa1
370
    -2
100
AcDbLine
 10
92.50522
 20
97.32540400000001
 30
0.0
 11
78.03594666829446
 21
97.32540400000001
 31
0.0
  0
LINE
  5
7D7
330
36
100
AcDbEntity
  8
Hawa1
370
    -2
100
AcDbLine
 10
79.03594666829445
 20
97.32540400000001
 30
0.0
 11
79.03594666829445
 21
108.325404
 31
0.0
  0
LINE
  5
7D8
330
36
100
AcDbEntity
  8
Hawa1
370
    -2
100
AcDbLine
 10
79.03594666829445
 20
107.325404
 30
0.0
 11
79.03594666829445
 21
140.5834616756278
 31
0.0
  0
INSERT
  5
7D9
330
36
100
AcDbEntity
  8
Hawa1
370
    -2
100
AcDbBlockReference
  2
_Oblique
 10
79.03594666829445
 20
97.32540400000001
 30
0.0
 41
2.0
 42
2.0
 43
2.0
 50
270.0
  0
INSERT
  5
7DA
330
36
100
AcDbEntity
  8
Hawa1
370
    -2
100
AcDbBlockReference
  2
_Oblique
 10
79.03594666829445
 20
107.325404
 30
0.0
 41
2.0
 42
2.0
 43
2.0
 50
90.0
  0
MTEXT
  5
7DB
330
36
100
AcDbEntity
  8
Hawa1
100
AcDbMText
 10
74.68174021081377
 20
132.2646536947274
 30
0.0
 40
3.5
 41
0.0
 71
     5
 72
     1
  1
\A1;12,7 [{\H0.7x;\S1/2;}"]
  7
Beschlag
 11
0.0000000000000001
 21
1.0
 31
0.0
 73
     1
 44
1.0
1001
ACAD
1000
MTEXTBEGIN
1070
    73
1070
     1
1070
    44
1040
1.0
1070
    74
1070
     0
1000
MTEXTEND
  0
POINT
  5
7DC
330
36
100
AcDbEntity
  8
Defpoints
 62
     0
100
AcDbPoint
 10
94.50521999999999
 20
107.325404
 30
0.0
  0
POINT
  5
7DD
330
36
100
AcDbEntity
  8
Defpoints
 62
     0
100
AcDbPoint
 10
94.50521999999999
 20
97.32540400000001
 30
0.0
  0
POINT
  5
7DE
330
36
100
AcDbEntity
  8
Defpoints
 62
     0
100
AcDbPoint
 10
79.03594666829445
 20
97.32540400000001
 30
0.0
  0
ENDBLK
  5
332
330
36
100
AcDbEntity
  8
Hawa1
100
AcDbBlockEnd
  0
BLOCK
  5
333
330
38
100
AcDbEntity
  8
Hawa1
100
AcDbBlockBegin
  2
*D12
 70
     1
 10
0.0
 20
0.0
 30
0.0
  3
*D12
  1

  0
LINE
  5
7CB
330
38
100
AcDbEntity
  8
Hawa1
370
    -2
100
AcDbLine
 10
92.50522
 20
107.325404
 30
0.0
 11
78.03594666829444
 21
107.325404
 31
0.0
  0
LINE
  5
7CC
330
38
100
AcDbEntity
  8
Hawa1
370
    -2
100
AcDbLine
 10
92.50522
 20
97.32540400000001
 30
0.0
 11
78.03594666829444
 21
97.32540400000001
 31
0.0
  0
LINE
  5
7CD
330
38
100
AcDbEntity
  8
Hawa1
370
    -2
100
AcDbLine
 10
79.03594666829445
 20
97.32540400000001
 30
0.0
 11
79.03594666829445
 21
108.325404
 31
0.0
  0
LINE
  5
7CE
330
38
100
AcDbEntity
  8
Hawa1
370
    -2
100
AcDbLine
 10
79.03594666829445
 20
107.325404
 30
0.0
 11
79.03594666829445
 21
124.4718194160982
 31
0.0
  0
INSERT
  5
7CF
330
38
100
AcDbEntity
  8
Hawa1
370
    -2
100
AcDbBlockReference
  2
_Oblique
 10
79.03594666829445
 20
97.32540400000001
 30
0.0
 41
2.0
 42
2.0
 43
2.0
 50
270.0
  0
INSERT
  5
7D0
330
38
100
AcDbEntity
  8
Hawa1
370
    -2
100
AcDbBlockReference
  2
_Oblique
 10
79.03594666829445
 20
107.325404
 30
0.0
 41
2.0
 42
2.0
 43
2.0
 50
90.0
  0
MTEXT
  5
7D1
330
38
100
AcDbEntity
  8
Hawa1
100
AcDbMText
 10
74.66168564055455
 20
116.8986117080491
 30
0.0
 40
3.5
 41
0.0
 71
     5
 72
     1
  1
\A1;8 [{\H0.7x;\S5/16;}"] -
  7
Beschlag
 11
0.0000000000000001
 21
1.0
 31
0.0
 73
     1
 44
1.0
1001
ACAD
1000
MTEXTBEGIN
1070
    73
1070
     1
1070
    44
1040
1.0
1070
    74
1070
     0
1000
MTEXTEND
  0
POINT
  5
7D2
330
38
100
AcDbEntity
  8
Defpoints
 62
     0
100
AcDbPoint
 10
94.50521999999999
 20
107.325404
 30
0.0
  0
POINT
  5
7D3
330
38
100
AcDbEntity
  8
Defpoints
 62
     0
100
AcDbPoint
 10
94.50521999999999
 20
97.32540400000001
 30
0.0
  0
POINT
  5
7D4
330
38
100
AcDbEntity
  8
Defpoints
 62
     0
100
AcDbPoint
 10
79.03594666829445
 20
97.32540400000001
 30
0.0
  0
ENDBLK
  5
33D
330
38
100
AcDbEntity
  8
Hawa1
100
AcDbBlockEnd
  0
BLOCK
  5
33E
330
3A
100
AcDbEntity
  8
Hawa1
100
AcDbBlockBegin
  2
*D13
 70
     1
 10
0.0
 20
0.0
 30
0.0
  3
*D13
  1

  0
LINE
  5
69C
330
3A
100
AcDbEntity
  8
Hawa1
370
    -2
100
AcDbLine
 10
128.403658
 20
70.175404
 30
0.0
 11
105.2756575119769
 21
70.175404
 31
0.0
  0
LINE
  5
69D
330
3A
100
AcDbEntity
  8
Hawa1
370
    -2
100
AcDbLine
 10
128.403658
 20
86.475404
 30
0.0
 11
105.2756575119769
 21
86.475404
 31
0.0
  0
LINE
  5
69E
330
3A
100
AcDbEntity
  8
Hawa1
370
    -2
100
AcDbLine
 10
106.2756575119769
 20
86.475404
 30
0.0
 11
106.2756575119769
 21
69.175404
 31
0.0
  0
LINE
  5
69F
330
3A
100
AcDbEntity
  8
Hawa1
370
    -2
100
AcDbLine
 10
106.2756575119769
 20
70.175404
 30
0.0
 11
106.2756575119769
 21
49.81014823894953
 31
0.0
  0
INSERT
  5
6A0
330
3A
100
AcDbEntity
  8
Hawa1
370
    -2
100
AcDbBlockReference
  2
_Oblique
 10
106.2756575119769
 20
86.475404
 30
0.0
 41
2.0
 42
2.0
 43
2.0
 50
90.0
  0
INSERT
  5
6A1
330
3A
100
AcDbEntity
  8
Hawa1
370
    -2
100
AcDbBlockReference
  2
_Oblique
 10
106.2756575119769
 20
70.175404
 30
0.0
 41
2.0
 42
2.0
 43
2.0
 50
270.0
  0
MTEXT
  5
6A2
330
3A
100
AcDbEntity
  8
Hawa1
100
AcDbMText
 10
101.8525384164789
 20
58.99277611947479
 30
0.0
 40
3.5
 41
0.0
 71
     5
 72
     1
  1
\A1;16.3 [{\H0.711429x;\S21/32;}"]
  7
Beschlag
 11
0.0000000000000001
 21
1.0
 31
0.0
 73
     1
 44
1.0
1001
ACAD
1000
MTEXTBEGIN
1070
    73
1070
     1
1070
    44
1040
1.0
1070
    74
1070
     0
1000
MTEXTEND
  0
POINT
  5
6A3
330
3A
100
AcDbEntity
  8
Defpoints
 62
     0
100
AcDbPoint
 10
130.403658
 20
70.175404
 30
0.0
  0
POINT
  5
6A4
330
3A
100
AcDbEntity
  8
Defpoints
 62
     0
100
AcDbPoint
 10
130.403658
 20
86.475404
 30
0.0
  0
POINT
  5
6A5
330
3A
100
AcDbEntity
  8
Defpoints
 62
     0
100
AcDbPoint
 10
106.2756575119769
 20
86.475404
 30
0.0
  0
ENDBLK
  5
34A
330
3A
100
AcDbEntity
  8
Hawa1
100
AcDbBlockEnd
  0
BLOCK
  5
34B
330
3C
100
AcDbEntity
  8
Hawa1
100
AcDbBlockBegin
  2
*D14
 70
     1
 10
0.0
 20
0.0
 30
0.0
  3
*D14
  1

  0
LINE
  5
6A6
330
3C
100
AcDbEntity
  8
Hawa1
370
    -2
100
AcDbLine
 10
129.4035913982358
 20
69.17540400110896
 30
0.0
 11
129.4032394211186
 21
58.60580060058623
 31
0.0
  0
LINE
  5
6A7
330
3C
100
AcDbEntity
  8
Hawa1
370
    -2
100
AcDbLine
 10
136.1035913982358
 20
72.22540400110895
 30
0.0
 11
136.1031378459983
 21
58.60557748805843
 31
0.0
  0
LINE
  5
6A8
330
3C
100
AcDbEntity
  8
Hawa1
370
    -2
100
AcDbLine
 10
136.1031711468804
 20
59.60557748750396
 30
0.0
 11
128.4032727225552
 21
59.60583390091388
 31
0.0
  0
LINE
  5
6A9
330
3C
100
AcDbEntity
  8
Hawa1
370
    -2
100
AcDbLine
 10
129.4032727220008
 20
59.60580060003175
 30
0.0
 11
112.8073358272464
 21
59.6063532593703
 31
0.0
  0
INSERT
  5
6AA
330
3C
100
AcDbEntity
  8
Hawa1
370
    -2
100
AcDbBlockReference
  2
_Oblique
 10
136.1031711468804
 20
59.60557748750396
 30
0.0
 41
2.0
 42
2.0
 43
2.0
 50
359.998092
  0
INSERT
  5
6AB
330
3C
100
AcDbEntity
  8
Hawa1
370
    -2
100
AcDbBlockReference
  2
_Oblique
 10
129.4032727220008
 20
59.60580060003175
 30
0.0
 41
2.0
 42
2.0
 43
2.0
 50
179.998092
  0
MTEXT
  5
6AC
330
3C
100
AcDbEntity
  8
Hawa1
100
AcDbMText
 10
120.1054506639607
 20
64.00205331818662
 30
0.0
 40
3.5
 41
0.0
 71
     5
 72
     1
  1
\A1;6.7 [{\H0.711429x;\S1/4;}"]
  7
Beschlag
 11
0.9999999994455256
 21
-0.0000333008821221
 31
0.0
 73
     1
 44
1.0
1001
ACAD
1000
MTEXTBEGIN
1070
    73
1070
     1
1070
    44
1040
1.0
1070
    74
1070
     0
1000
MTEXTEND
  0
POINT
  5
6AD
330
3C
100
AcDbEntity
  8
Defpoints
 62
     0
100
AcDbPoint
 10
129.403658
 20
71.17540400000001
 30
0.0
  0
POINT
  5
6AE
330
3C
100
AcDbEntity
  8
Defpoints
 62
     0
100
AcDbPoint
 10
136.103658
 20
74.22540399999999
 30
0.0
  0
POINT
  5
6AF
330
3C
100
AcDbEntity
  8
Defpoints
 62
     0
100
AcDbPoint
 10
136.1031711468804
 20
59.60557748750396
 30
0.0
  0
ENDBLK
  5
357
330
3C
100
AcDbEntity
  8
Hawa1
100
AcDbBlockEnd
  0
BLOCK
  5
358
330
3E
100
AcDbEntity
  8
Hawa1
100
AcDbBlockBegin
  2
*D15
 70
     1
 10
0.0
 20
0.0
 30
0.0
  3
*D15
  1

  0
LINE
  5
6B0
330
3E
100
AcDbEntity
  8
Hawa1
370
    -2
100
AcDbLine
 10
129.4035913982358
 20
69.17540400110896
 30
0.0
 11
129.4028839618183
 21
47.93162990463937
 31
0.0
  0
LINE
  5
6B1
330
3E
100
AcDbEntity
  8
Hawa1
370
    -2
100
AcDbLine
 10
136.8535913982357
 20
71.91474300110894
 30
0.0
 11
136.8527927311516
 21
47.93138181610548
 31
0.0
  0
LINE
  5
6B2
330
3E
100
AcDbEntity
  8
Hawa1
370
    -2
100
AcDbLine
 10
136.8528260320337
 20
48.93138181555102
 30
0.0
 11
128.402917263255
 21
48.93166320496702
 31
0.0
  0
LINE
  5
6B3
330
3E
100
AcDbEntity
  8
Hawa1
370
    -2
100
AcDbLine
 10
129.4029172627005
 20
48.9316299040849
 30
0.0
 11
111.2142986195114
 21
48.93223560113064
 31
0.0
  0
INSERT
  5
6B4
330
3E
100
AcDbEntity
  8
Hawa1
370
    -2
100
AcDbBlockReference
  2
_Oblique
 10
136.8528260320337
 20
48.93138181555102
 30
0.0
 41
2.0
 42
2.0
 43
2.0
 50
359.998092
  0
INSERT
  5
6B5
330
3E
100
AcDbEntity
  8
Hawa1
370
    -2
100
AcDbBlockReference
  2
_Oblique
 10
129.4029172627005
 20
48.9316299040849
 30
0.0
 41
2.0
 42
2.0
 43
2.0
 50
179.998092
  0
MTEXT
  5
6B6
330
3E
100
AcDbEntity
  8
Hawa1
100
AcDbMText
 10
119.3087559424475
 20
53.37631640078687
 30
0.0
 40
3.5
 41
0.0
 71
     5
 72
     1
  1
\A1;7.4 [{\H0.711429x;\S9/32;}"]
  7
Beschlag
 11
0.9999999994455256
 21
-0.0000333008821221
 31
0.0
 73
     1
 44
1.0
1001
ACAD
1000
MTEXTBEGIN
1070
    73
1070
     1
1070
    44
1040
1.0
1070
    74
1070
     0
1000
MTEXTEND
  0
POINT
  5
6B7
330
3E
100
AcDbEntity
  8
Defpoints
 62
     0
100
AcDbPoint
 10
129.403658
 20
71.17540400000001
 30
0.0
  0
POINT
  5
6B8
330
3E
100
AcDbEntity
  8
Defpoints
 62
     0
100
AcDbPoint
 10
136.853658
 20
73.914743
 30
0.0
  0
POINT
  5
6B9
330
3E
100
AcDbEntity
  8
Defpoints
 62
     0
100
AcDbPoint
 10
136.8528260320337
 20
48.93138181555102
 30
0.0
  0
ENDBLK
  5
364
330
3E
100
AcDbEntity
  8
Hawa1
100
AcDbBlockEnd
  0
BLOCK
  5
365
330
40
100
AcDbEntity
  8
Hawa1
100
AcDbBlockBegin
  2
*D16
 70
     1
 10
0.0
 20
0.0
 30
0.0
  3
*D16
  1

  0
LINE
  5
5D4
330
40
100
AcDbEntity
  8
Hawa1
370
    -2
100
AcDbLine
 10
129.4035913982358
 20
69.17540400110896
 30
0.0
 11
129.4026019884161
 21
39.46418447729431
 31
0.0
  0
LINE
  5
5D5
330
40
100
AcDbEntity
  8
Hawa1
370
    -2
100
AcDbLine
 10
143.4035913982358
 20
68.67540400110896
 30
0.0
 11
143.4026186233319
 21
39.46371826439039
 31
0.0
  0
LINE
  5
5D6
330
40
100
AcDbEntity
  8
Hawa1
370
    -2
100
AcDbLine
 10
128.4026352898527
 20
40.46421777762196
 30
0.0
 11
143.402651924214
 21
40.46371826383591
 31
0.0
  0
LINE
  5
5D7
330
40
100
AcDbEntity
  8
Hawa1
370
    -2
100
AcDbLine
 10
143.402651924214
 20
40.46371826383591
 30
0.0
 11
159.9098973309206
 21
40.46316855800216
 31
0.0
  0
INSERT
  5
5D8
330
40
100
AcDbEntity
  8
Hawa1
370
    -2
100
AcDbBlockReference
  2
_Oblique
 10
129.4026352892982
 20
40.46418447673984
 30
0.0
 41
2.0
 42
2.0
 43
2.0
 50
179.998092
  0
INSERT
  5
5D9
330
40
100
AcDbEntity
  8
Hawa1
370
    -2
100
AcDbBlockReference
  2
_Oblique
 10
143.402651924214
 20
40.46371826383591
 30
0.0
 41
2.0
 42
2.0
 43
2.0
 50
359.998092
  0
MTEXT
  5
5DA
330
40
100
AcDbEntity
  8
Hawa1
100
AcDbMText
 10
152.6564225995192
 20
44.90691120716382
 30
0.0
 40
3.5
 41
0.0
 71
     5
 72
     1
  1
\A1;14 [{\H0.711429x;\S9/16;}"]
  7
Beschlag
 11
0.9999999994455256
 21
-0.0000333008821221
 31
0.0
 73
     1
 44
1.0
1001
ACAD
1000
MTEXTBEGIN
1070
    73
1070
     1
1070
    44
1040
1.0
1070
    74
1070
     0
1000
MTEXTEND
  0
POINT
  5
5DB
330
40
100
AcDbEntity
  8
Defpoints
 62
     0
100
AcDbPoint
 10
129.403658
 20
71.17540400000001
 30
0.0
  0
POINT
  5
5DC
330
40
100
AcDbEntity
  8
Defpoints
 62
     0
100
AcDbPoint
 10
143.403658
 20
70.67540400000002
 30
0.0
  0
POINT
  5
5DD
330
40
100
AcDbEntity
  8
Defpoints
 62
     0
100
AcDbPoint
 10
143.402651924214
 20
40.46371826383591
 30
0.0
  0
ENDBLK
  5
371
330
40
100
AcDbEntity
  8
Hawa1
100
AcDbBlockEnd
  0
BLOCK
  5
372
330
281
100
AcDbEntity
  8
0
100
AcDbBlockBegin
  2
BLOCK1
 70
     0
 10
0.0
 20
0.0
 30
0.0
  3
BLOCK1
  1

  0
LINE
  5
373
330
281
100
AcDbEntity
  8
Hawa4
  6
DASHDOT
 62
     4
 48
0.039
100
AcDbLine
 10
151.947693
 20
125.039421
 30
0.0
 11
150.38768
 21
125.039421
 31
0.0
  0
LINE
  5
374
330
281
100
AcDbEntity
  8
Hawa4
  6
DASHDOT
 62
     4
 48
0.039
100
AcDbLine
 10
151.167694
 20
125.81942
 30
0.0
 11
151.167694
 21
124.259422
 31
0.0
  0
ENDBLK
  5
375
330
281
100
AcDbEntity
  8
0
100
AcDbBlockEnd
  0
BLOCK
  5
376
330
282
100
AcDbEntity
  8
0
100
AcDbBlockBegin
  2
BLOCK2
 70
     0
 10
0.0
 20
0.0
 30
0.0
  3
BLOCK2
  1

  0
LINE
  5
377
330
282
100
AcDbEntity
  8
Hawa4
  6
DASHDOT
 62
     4
 48
0.039
100
AcDbLine
 10
151.947693
 20
140.339417
 30
0.0
 11
150.38768
 21
140.339417
 31
0.0
  0
LINE
  5
378
330
282
100
AcDbEntity
  8
Hawa4
  6
DASHDOT
 62
     4
 48
0.039
100
AcDbLine
 10
151.167694
 20
141.119415
 30
0.0
 11
151.167694
 21
139.559418
 31
0.0
  0
ENDBLK
  5
379
330
282
100
AcDbEntity
  8
0
100
AcDbBlockEnd
  0
BLOCK
  5
37A
330
283
100
AcDbEntity
  8
0
100
AcDbBlockBegin
  2
BLOCK3
 70
     0
 10
0.0
 20
0.0
 30
0.0
  3
BLOCK3
  1

  0
LINE
  5
37B
330
283
100
AcDbEntity
  8
Hawa4
  6
DASHDOT
 62
     4
 48
0.00975
100
AcDbLine
 10
32.916939
 20
143.322739
 30
0.0
 11
32.526939
 21
143.322739
 31
0.0
  0
LINE
  5
37C
330
283
100
AcDbEntity
  8
Hawa4
  6
DASHDOT
 62
     4
 48
0.00975
100
AcDbLine
 10
32.721939
 20
143.517746
 30
0.0
 11
32.721939
 21
143.127747
 31
0.0
  0
ENDBLK
  5
37D
330
283
100
AcDbEntity
  8
0
100
AcDbBlockEnd
  0
BLOCK
  5
37E
330
284
100
AcDbEntity
  8
0
100
AcDbBlockBegin
  2
BLOCK4
 70
     0
 10
0.0
 20
0.0
 30
0.0
  3
BLOCK4
  1

  0
LINE
  5
37F
330
284
100
AcDbEntity
  8
Hawa4
  6
DASHDOT
 62
     4
 48
0.0325
100
AcDbLine
 10
31.006929
 20
152.678452
 30
0.0
 11
29.70693
 21
152.678452
 31
0.0
  0
LINE
  5
380
330
284
100
AcDbEntity
  8
Hawa4
  6
DASHDOT
 62
     4
 48
0.0325
100
AcDbLine
 10
30.35693
 20
153.328445
 30
0.0
 11
30.35693
 21
152.028458
 31
0.0
  0
ENDBLK
  5
381
330
284
100
AcDbEntity
  8
0
100
AcDbBlockEnd
  0
BLOCK
  5
382
330
285
100
AcDbEntity
  8
0
100
AcDbBlockBegin
  2
BLOCK5
 70
     0
 10
0.0
 20
0.0
 30
0.0
  3
BLOCK5
  1

  0
LINE
  5
383
330
285
100
AcDbEntity
  8
Hawa4
  6
DASHDOT
 62
     4
 48
0.00975
100
AcDbLine
 10
28.142019
 20
143.3342129999999
 30
0.0
 11
27.75202
 21
143.3342129999999
 31
0.0
  0
LINE
  5
384
330
285
100
AcDbEntity
  8
Hawa4
  6
DASHDOT
 62
     4
 48
0.00975
100
AcDbLine
 10
27.94702
 20
143.529205
 30
0.0
 11
27.94702
 21
143.139206
 31
0.0
  0
ENDBLK
  5
385
330
285
100
AcDbEntity
  8
0
100
AcDbBlockEnd
  0
BLOCK
  5
386
330
286
100
AcDbEntity
  8
0
100
AcDbBlockBegin
  2
BLOCK6
 70
     0
 10
0.0
 20
0.0
 30
0.0
  3
BLOCK6
  1

  0
LINE
  5
387
330
286
100
AcDbEntity
  8
Hawa4
  6
DASHDOT
 62
     4
 48
0.13
100
AcDbLine
 10
32.937241
 20
144.47847
 30
0.0
 11
27.737242
 21
144.47847
 31
0.0
  0
LINE
  5
388
330
286
100
AcDbEntity
  8
Hawa4
  6
DASHDOT
 62
     4
 48
0.13
100
AcDbLine
 10
30.33724
 20
147.078476
 30
0.0
 11
30.33724
 21
141.878479
 31
0.0
  0
ENDBLK
  5
389
330
286
100
AcDbEntity
  8
0
100
AcDbBlockEnd
  0
BLOCK
  5
38A
330
287
100
AcDbEntity
  8
0
100
AcDbBlockBegin
  2
BLOCK7
 70
     0
 10
0.0
 20
0.0
 30
0.0
  3
BLOCK7
  1

  0
LINE
  5
38B
330
287
100
AcDbEntity
  8
Hawa4
  6
DASHDOT
 62
     4
 48
0.00975
100
AcDbLine
 10
32.916939
 20
143.322739
 30
0.0
 11
32.526939
 21
143.322739
 31
0.0
  0
LINE
  5
38C
330
287
100
AcDbEntity
  8
Hawa4
  6
DASHDOT
 62
     4
 48
0.00975
100
AcDbLine
 10
32.721939
 20
143.517746
 30
0.0
 11
32.721939
 21
143.127747
 31
0.0
  0
ENDBLK
  5
38D
330
287
100
AcDbEntity
  8
0
100
AcDbBlockEnd
  0
BLOCK
  5
38E
330
288
100
AcDbEntity
  8
0
100
AcDbBlockBegin
  2
BLOCK8
 70
     0
 10
0.0
 20
0.0
 30
0.0
  3
BLOCK8
  1

  0
LINE
  5
38F
330
288
100
AcDbEntity
  8
Hawa4
  6
DASHDOT
 62
     4
 48
0.052
100
AcDbLine
 10
31.396929
 20
152.678452
 30
0.0
 11
29.316929
 21
152.678452
 31
0.0
  0
LINE
  5
390
330
288
100
AcDbEntity
  8
Hawa4
  6
DASHDOT
 62
     4
 48
0.052
100
AcDbLine
 10
30.35693
 20
153.718445
 30
0.0
 11
30.35693
 21
151.638443
 31
0.0
  0
ENDBLK
  5
391
330
288
100
AcDbEntity
  8
0
100
AcDbBlockEnd
  0
BLOCK
  5
392
330
289
100
AcDbEntity
  8
0
100
AcDbBlockBegin
  2
BLOCK9
 70
     0
 10
0.0
 20
0.0
 30
0.0
  3
BLOCK9
  1

  0
LINE
  5
393
330
289
100
AcDbEntity
  8
Hawa4
  6
DASHDOT
 62
     4
 48
0.00975
100
AcDbLine
 10
28.142019
 20
143.3342129999999
 30
0.0
 11
27.75202
 21
143.3342129999999
 31
0.0
  0
LINE
  5
394
330
289
100
AcDbEntity
  8
Hawa4
  6
DASHDOT
 62
     4
 48
0.00975
100
AcDbLine
 10
27.94702
 20
143.529205
 30
0.0
 11
27.94702
 21
143.139206
 31
0.0
  0
ENDBLK
  5
395
330
289
100
AcDbEntity
  8
0
100
AcDbBlockEnd
  0
BLOCK
  5
396
330
28A
100
AcDbEntity
  8
0
100
AcDbBlockBegin
  2
BLOCK10
 70
     0
 10
0.0
 20
0.0
 30
0.0
  3
BLOCK10
  1

  0
LINE
  5
397
330
28A
100
AcDbEntity
  8
Hawa2
 62
     9
 48
0.020887
100
AcDbLine
 10
143.091949
 20
122.780197
 30
0.0
 11
143.682724
 21
122.189423
 31
0.0
  0
LINE
  5
398
330
28A
100
AcDbEntity
  8
Hawa2
 62
     9
 48
0.07955
100
AcDbLine
 10
144.261154
 20
124.439423
 30
0.0
 11
146.511154
 21
122.189423
 31
0.0
  0
LINE
  5
399
330
28A
100
AcDbEntity
  8
Hawa2
 62
     9
 48
0.07955
100
AcDbLine
 10
147.089584
 20
124.439423
 30
0.0
 11
149.339584
 21
122.189423
 31
0.0
  0
LINE
  5
39A
330
28A
100
AcDbEntity
  8
Hawa2
 62
     9
 48
0.07251
100
AcDbLine
 10
150.117111
 20
124.240326
 30
0.0
 11
152.168015
 21
122.189423
 31
0.0
  0
LINE
  5
39B
330
28A
100
AcDbEntity
  8
Hawa2
 62
     9
 48
0.07955
100
AcDbLine
 10
152.746429
 20
124.439423
 30
0.0
 11
154.996429
 21
122.189423
 31
0.0
  0
LINE
  5
39C
330
28A
100
AcDbEntity
  8
Hawa2
 62
     9
 48
0.088388
100
AcDbLine
 10
154.591949
 20
125.422333
 30
0.0
 11
157.091949
 21
122.922333
 31
0.0
  0
LINE
  5
39D
330
28A
100
AcDbEntity
  8
Hawa2
 62
     9
 48
0.088388
100
AcDbLine
 10
154.591949
 20
128.250763
 30
0.0
 11
157.091949
 21
125.750763
 31
0.0
  0
LINE
  5
39E
330
28A
100
AcDbEntity
  8
Hawa2
 62
     9
 48
0.057975
100
AcDbLine
 10
143.091949
 20
142.579193
 30
0.0
 11
144.73172
 21
140.939423
 31
0.0
  0
LINE
  5
39F
330
28A
100
AcDbEntity
  8
Hawa2
 62
     9
 48
0.088388
100
AcDbLine
 10
154.591949
 20
131.079193
 30
0.0
 11
157.091949
 21
128.579193
 31
0.0
  0
LINE
  5
3A0
330
28A
100
AcDbEntity
  8
Hawa2
 62
     9
 48
0.07955
100
AcDbLine
 10
145.31015
 20
143.189423
 30
0.0
 11
147.56015
 21
140.939423
 31
0.0
  0
LINE
  5
3A1
330
28A
100
AcDbEntity
  8
Hawa2
 62
     9
 48
0.088388
100
AcDbLine
 10
154.591949
 20
133.907608
 30
0.0
 11
157.091949
 21
131.407608
 31
0.0
  0
LINE
  5
3A2
330
28A
100
AcDbEntity
  8
Hawa2
 62
     9
 48
0.07955
100
AcDbLine
 10
148.138565
 20
143.189423
 30
0.0
 11
150.388565
 21
140.939423
 31
0.0
  0
LINE
  5
3A3
330
28A
100
AcDbEntity
  8
Hawa2
 62
     9
 48
0.088388
100
AcDbLine
 10
154.591949
 20
136.736038
 30
0.0
 11
157.091949
 21
134.236038
 31
0.0
  0
LINE
  5
3A4
330
28A
100
AcDbEntity
  8
Hawa2
 62
     9
 48
0.07955
100
AcDbLine
 10
150.966995
 20
143.189423
 30
0.0
 11
153.216995
 21
140.939423
 31
0.0
  0
LINE
  5
3A5
330
28A
100
AcDbEntity
  8
Hawa2
 62
     9
 48
0.088388
100
AcDbLine
 10
154.591949
 20
139.564468
 30
0.0
 11
157.091949
 21
137.064468
 31
0.0
  0
LINE
  5
3A6
330
28A
100
AcDbEntity
  8
Hawa2
 62
     9
 48
0.11655
100
AcDbLine
 10
153.795425
 20
143.189423
 30
0.0
 11
157.091949
 21
139.892899
 31
0.0
  0
LINE
  5
3A7
330
28A
100
AcDbEntity
  8
Hawa2
 62
     9
 48
0.016463
100
AcDbLine
 10
156.625076
 20
143.188187
 30
0.0
 11
157.090714
 21
142.722549
 31
0.0
  0
ENDBLK
  5
3A8
330
28A
100
AcDbEntity
  8
0
100
AcDbBlockEnd
  0
BLOCK
  5
3A9
330
28B
100
AcDbEntity
  8
0
100
AcDbBlockBegin
  2
BLOCK11
 70
     0
 10
0.0
 20
0.0
 30
0.0
  3
BLOCK11
  1

  0
LINE
  5
3AA
330
28B
100
AcDbEntity
  8
Hawa2
 62
     9
 48
0.042426
100
AcDbLine
 10
149.895264
 20
124.439423
 30
0.0
 11
151.095261
 21
125.63942
 31
0.0
  0
LINE
  5
3AB
330
28B
100
AcDbEntity
  8
Hawa2
 62
     9
 48
0.042427
100
AcDbLine
 10
147.066833
 20
124.439423
 30
0.0
 11
148.266846
 21
125.63942
 31
0.0
  0
LINE
  5
3AC
330
28B
100
AcDbEntity
  8
Hawa2
 62
     9
 48
0.017671
100
AcDbLine
 10
148.96875
 20
126.341339
 30
0.0
 11
149.468582
 21
126.841156
 31
0.0
  0
LINE
  5
3AD
330
28B
100
AcDbEntity
  8
Hawa2
 62
     9
 48
0.018162
100
AcDbLine
 10
142.300247
 20
122.501266
 30
0.0
 11
142.81395
 21
123.014961
 31
0.0
  0
LINE
  5
3AE
330
28B
100
AcDbEntity
  8
Hawa2
 62
     9
 48
0.060563
100
AcDbLine
 10
144.238419
 20
124.439423
 30
0.0
 11
145.951385
 21
126.152397
 31
0.0
  0
LINE
  5
3AF
330
28B
100
AcDbEntity
  8
Hawa2
 62
     9
 48
0.060621
100
AcDbLine
 10
140.895355
 20
123.924782
 30
0.0
 11
142.609985
 21
125.63942
 31
0.0
  0
LINE
  5
3B0
330
28B
100
AcDbEntity
  8
Hawa2
 62
     9
 48
0.013922
100
AcDbLine
 10
143.831894
 20
126.861328
 30
0.0
 11
144.225677
 21
127.255119
 31
0.0
  0
LINE
  5
3B1
330
28B
100
AcDbEntity
  8
Hawa2
 62
     9
 48
0.036339
100
AcDbLine
 10
139.505768
 20
125.36364
 30
0.0
 11
140.5336
 21
126.391457
 31
0.0
  0
LINE
  5
3B2
330
28B
100
AcDbEntity
  8
Hawa2
 62
     9
 48
0.026268
100
AcDbLine
 10
138.002625
 20
126.688911
 30
0.0
 11
138.745605
 21
127.4319
 31
0.0
  0
ENDBLK
  5
3B3
330
28B
100
AcDbEntity
  8
0
100
AcDbBlockEnd
  0
BLOCK
  5
3B4
330
28C
100
AcDbEntity
  8
0
100
AcDbBlockBegin
  2
BLOCK12
 70
     0
 10
0.0
 20
0.0
 30
0.0
  3
BLOCK12
  1

  0
LINE
  5
3B5
330
28C
100
AcDbEntity
  8
Hawa2
 62
     9
 48
0.02493
100
AcDbLine
 10
151.053131
 20
139.739426
 30
0.0
 11
151.75827
 21
140.4445649999999
 31
0.0
  0
LINE
  5
3B6
330
28C
100
AcDbEntity
  8
Hawa2
 62
     9
 48
0.042426
100
AcDbLine
 10
148.224701
 20
139.739426
 30
0.0
 11
149.424698
 21
140.939423
 31
0.0
  0
LINE
  5
3B7
330
28C
100
AcDbEntity
  8
Hawa2
 62
     9
 48
0.114554
100
AcDbLine
 10
143.356216
 20
137.699356
 30
0.0
 11
146.596283
 21
140.939423
 31
0.0
  0
LINE
  5
3B8
330
28C
100
AcDbEntity
  8
Hawa2
 62
     9
 48
0.042426
100
AcDbLine
 10
142.567856
 20
139.739426
 30
0.0
 11
143.767853
 21
140.939423
 31
0.0
  0
LINE
  5
3B9
330
28C
100
AcDbEntity
  8
Hawa2
 62
     9
 48
0.187297
100
AcDbLine
 10
137.704254
 20
137.704254
 30
0.0
 11
143.001816
 21
143.001816
 31
0.0
  0
ENDBLK
  5
3BA
330
28C
100
AcDbEntity
  8
0
100
AcDbBlockEnd
  0
BLOCK
  5
3BB
330
28D
100
AcDbEntity
  8
0
100
AcDbBlockBegin
  2
BLOCK13
 70
     0
 10
0.0
 20
0.0
 30
0.0
  3
BLOCK13
  1

  0
LINE
  5
3BC
330
28D
100
AcDbEntity
  8
Hawa2
 62
     9
 48
0.033028
100
AcDbLine
 10
27.259197
 20
125.475868
 30
0.0
 11
28.193375
 21
124.541687
 31
0.0
  0
LINE
  5
3BD
330
28D
100
AcDbEntity
  8
Hawa2
 62
     9
 48
0.133189
100
AcDbLine
 10
27.256929
 20
128.306564
 30
0.0
 11
31.024069
 21
124.539421
 31
0.0
  0
LINE
  5
3BE
330
28D
100
AcDbEntity
  8
Hawa2
 62
     9
 48
0.233189
100
AcDbLine
 10
27.256929
 20
131.134995
 30
0.0
 11
33.852497
 21
124.539421
 31
0.0
  0
LINE
  5
3BF
330
28D
100
AcDbEntity
  8
Hawa2
 62
     9
 48
0.22981
100
AcDbLine
 10
27.256929
 20
133.963409
 30
0.0
 11
33.756927
 21
127.463417
 31
0.0
  0
LINE
  5
3C0
330
28D
100
AcDbEntity
  8
Hawa2
 62
     9
 48
0.068943
100
AcDbLine
 10
34.730923
 20
126.489426
 30
0.0
 11
36.680923
 21
124.539421
 31
0.0
  0
LINE
  5
3C1
330
28D
100
AcDbEntity
  8
Hawa2
 62
     9
 48
0.041543
100
AcDbLine
 10
27.256929
 20
136.7918399999999
 30
0.0
 11
28.431929
 21
135.616837
 31
0.0
  0
LINE
  5
3C2
330
28D
100
AcDbEntity
  8
Hawa2
 62
     9
 48
0.15214
100
AcDbLine
 10
29.653755
 20
134.39502
 30
0.0
 11
33.95692800000001
 21
130.091843
 31
0.0
  0
LINE
  5
3C3
330
28D
100
AcDbEntity
  8
Hawa2
 62
     9
 48
0.068943
100
AcDbLine
 10
37.559349
 20
126.489426
 30
0.0
 11
39.50935
 21
124.539421
 31
0.0
  0
LINE
  5
3C4
330
28D
100
AcDbEntity
  8
Hawa2
 62
     9
 48
0.041543
100
AcDbLine
 10
27.256929
 20
139.62027
 30
0.0
 11
28.431929
 21
138.445267
 31
0.0
  0
LINE
  5
3C5
330
28D
100
AcDbEntity
  8
Hawa2
 62
     9
 48
0.062958
100
AcDbLine
 10
32.14164
 20
134.735565
 30
0.0
 11
33.922352
 21
132.954849
 31
0.0
  0
LINE
  5
3C6
330
28D
100
AcDbEntity
  8
Hawa2
 62
     9
 48
0.030403
100
AcDbLine
 10
40.397018
 20
126.480186
 30
0.0
 11
41.256927
 21
125.62027
 31
0.0
  0
LINE
  5
3C7
330
28D
100
AcDbEntity
  8
Hawa2
 62
     9
 48
0.00798
100
AcDbLine
 10
28.873707
 20
140.831924
 30
0.0
 11
29.09942800000001
 21
140.606201
 31
0.0
  0
LINE
  5
3C8
330
28D
100
AcDbEntity
  8
Hawa2
 62
     9
 48
0.05922
100
AcDbLine
 10
32.281929
 20
137.423691
 30
0.0
 11
33.95692800000001
 21
135.748703
 31
0.0
  0
LINE
  5
3C9
330
28D
100
AcDbEntity
  8
Hawa2
 62
     9
 48
0.074546
100
AcDbLine
 10
31.743258
 20
140.790802
 30
0.0
 11
33.851734
 21
138.682327
 31
0.0
  0
LINE
  5
3CA
330
28D
100
AcDbEntity
  8
Hawa2
 62
     9
 48
0.068943
100
AcDbLine
 10
34.52306
 20
140.839417
 30
0.0
 11
36.473061
 21
138.88942
 31
0.0
  0
LINE
  5
3CB
330
28D
100
AcDbEntity
  8
Hawa2
 62
     9
 48
0.054801
100
AcDbLine
 10
37.351486
 20
140.839417
 30
0.0
 11
38.901485
 21
139.289429
 31
0.0
  0
LINE
  5
3CC
330
28D
100
AcDbEntity
  8
Hawa2
 62
     9
 48
0.038078
100
AcDbLine
 10
40.179913
 20
140.839417
 30
0.0
 11
41.256927
 21
139.762405
 31
0.0
  0
ENDBLK
  5
3CD
330
28D
100
AcDbEntity
  8
0
100
AcDbBlockEnd
  0
BLOCK
  5
3CE
330
28E
100
AcDbEntity
  8
0
100
AcDbBlockBegin
  2
BLOCK14
 70
     0
 10
0.0
 20
0.0
 30
0.0
  3
BLOCK14
  1

  0
LINE
  5
3CF
330
28E
100
AcDbEntity
  8
Hawa2
 62
     9
 48
0.038501
100
AcDbLine
 10
38.418468
 20
126.099709
 30
0.0
 11
39.507427
 21
127.188667
 31
0.0
  0
LINE
  5
3D0
330
28E
100
AcDbEntity
  8
Hawa2
 62
     9
 48
0.024722
100
AcDbLine
 10
35.979755
 20
126.489426
 30
0.0
 11
36.679001
 21
127.188667
 31
0.0
  0
LINE
  5
3D1
330
28E
100
AcDbEntity
  8
Hawa2
 62
     9
 48
0.025829
100
AcDbLine
 10
33.77636300000001
 20
127.114456
 30
0.0
 11
34.50692700000001
 21
127.845024
 31
0.0
  0
LINE
  5
3D2
330
28E
100
AcDbEntity
  8
Hawa2
 62
     9
 48
0.026517
100
AcDbLine
 10
33.95692800000001
 20
130.123459
 30
0.0
 11
34.70692800000001
 21
130.873459
 31
0.0
  0
LINE
  5
3D3
330
28E
100
AcDbEntity
  8
Hawa2
 62
     9
 48
0.026517
100
AcDbLine
 10
33.95692800000001
 20
132.951874
 30
0.0
 11
34.70692800000001
 21
133.701874
 31
0.0
  0
LINE
  5
3D4
330
28E
100
AcDbEntity
  8
Hawa2
 62
     9
 48
0.031326
100
AcDbLine
 10
39.195225
 20
138.19017
 30
0.0
 11
40.081261
 21
139.076202
 31
0.0
  0
LINE
  5
3D5
330
28E
100
AcDbEntity
  8
Hawa2
 62
     9
 48
0.026517
100
AcDbLine
 10
33.95692800000001
 20
135.780304
 30
0.0
 11
34.70692800000001
 21
136.530304
 31
0.0
  0
LINE
  5
3D6
330
28E
100
AcDbEntity
  8
Hawa2
 62
     9
 48
0.024722
100
AcDbLine
 10
36.366798
 20
138.19017
 30
0.0
 11
37.066048
 21
138.88942
 31
0.0
  0
LINE
  5
3D7
330
28E
100
AcDbEntity
  8
Hawa2
 62
     9
 48
0.005526
100
AcDbLine
 10
33.91912100000001
 20
138.570923
 30
0.0
 11
34.075428
 21
138.727234
 31
0.0
  0
ENDBLK
  5
3D8
330
28E
100
AcDbEntity
  8
0
100
AcDbBlockEnd
  0
BLOCK
  5
3D9
330
28F
100
AcDbEntity
  8
0
100
AcDbBlockBegin
  2
BLOCK15
 70
     0
 10
0.0
 20
0.0
 30
0.0
  3
BLOCK15
  1

  0
LINE
  5
3DA
330
28F
100
AcDbEntity
  8
Hawa2
 62
     9
 48
0.060393
100
AcDbLine
 10
30.097456
 20
134.749268
 30
0.0
 11
31.805618
 21
136.457428
 31
0.0
  0
LINE
  5
3DB
330
28F
100
AcDbEntity
  8
Hawa2
 62
     9
 48
0.012215
100
AcDbLine
 10
28.894257
 20
136.374481
 30
0.0
 11
29.239748
 21
136.719986
 31
0.0
  0
LINE
  5
3DC
330
28F
100
AcDbEntity
  8
Hawa2
 62
     9
 48
0.066887
100
AcDbLine
 10
29.47344000000001
 20
136.953674
 30
0.0
 11
31.365292
 21
138.84552
 31
0.0
  0
LINE
  5
3DD
330
28F
100
AcDbEntity
  8
Hawa2
 62
     9
 48
0.010151
100
AcDbLine
 10
31.829639
 20
139.309875
 30
0.0
 11
32.116753
 21
139.596985
 31
0.0
  0
LINE
  5
3DE
330
28F
100
AcDbEntity
  8
Hawa2
 62
     9
 48
0.01588
100
AcDbLine
 10
28.39837800000001
 20
138.707031
 30
0.0
 11
28.84754
 21
139.156204
 31
0.0
  0
LINE
  5
3DF
330
28F
100
AcDbEntity
  8
Hawa2
 62
     9
 48
0.12495
100
AcDbLine
 10
29.214138
 20
139.522797
 30
0.0
 11
32.748249
 21
143.0569
 31
0.0
  0
LINE
  5
3E0
330
28F
100
AcDbEntity
  8
Hawa2
 62
     9
 48
0.031355
100
AcDbLine
 10
27.622829
 20
140.759918
 30
0.0
 11
28.509674
 21
141.646759
 31
0.0
  0
LINE
  5
3E1
330
28F
100
AcDbEntity
  8
Hawa2
 62
     9
 48
0.021411
100
AcDbLine
 10
28.912037
 20
142.049118
 30
0.0
 11
29.517637
 21
142.654724
 31
0.0
  0
LINE
  5
3E2
330
28F
100
AcDbEntity
  8
Hawa2
 62
     9
 48
0.013177
100
AcDbLine
 10
32.161312
 20
145.298401
 30
0.0
 11
32.534012
 21
145.671097
 31
0.0
  0
LINE
  5
3E3
330
28F
100
AcDbEntity
  8
Hawa2
 62
     9
 48
0.015306
100
AcDbLine
 10
27.911703
 20
143.877213
 30
0.0
 11
28.344622
 21
144.310135
 31
0.0
  0
LINE
  5
3E4
330
28F
100
AcDbEntity
  8
Hawa2
 62
     9
 48
0.0251
100
AcDbLine
 10
30.505466
 20
146.470978
 30
0.0
 11
31.215416
 21
147.180923
 31
0.0
  0
LINE
  5
3E5
330
28F
100
AcDbEntity
  8
Hawa2
 62
     9
 48
0.035561
100
AcDbLine
 10
29.80857700000001
 20
148.602509
 30
0.0
 11
30.814398
 21
149.608337
 31
0.0
  0
LINE
  5
3E6
330
28F
100
AcDbEntity
  8
Hawa2
 62
     9
 48
0.025924
100
AcDbLine
 10
30.039688
 20
151.662048
 30
0.0
 11
30.77292100000001
 21
152.395279
 31
0.0
  0
ENDBLK
  5
3E7
330
28F
100
AcDbEntity
  8
0
100
AcDbBlockEnd
  0
BLOCK
  5
3E8
330
290
100
AcDbEntity
  8
0
100
AcDbBlockBegin
  2
BLOCK16
 70
     0
 10
0.0
 20
0.0
 30
0.0
  3
BLOCK16
  1

  0
LINE
  5
3E9
330
290
100
AcDbEntity
  8
Hawa2
 62
     9
 48
0.007759
100
AcDbLine
 10
32.534012
 20
145.671097
 30
0.0
 11
32.753475
 21
145.890564
 31
0.0
  0
LINE
  5
3EA
330
290
100
AcDbEntity
  8
Hawa2
 62
     9
 48
0.008608
100
AcDbLine
 10
27.66823
 20
143.633743
 30
0.0
 11
27.911703
 21
143.877213
 31
0.0
  0
LINE
  5
3EB
330
290
100
AcDbEntity
  8
Hawa2
 62
     9
 48
0.007801
100
AcDbLine
 10
31.215416
 20
147.180923
 30
0.0
 11
31.436069
 21
147.401581
 31
0.0
  0
LINE
  5
3EC
330
290
100
AcDbEntity
  8
Hawa2
 62
     9
 48
0.011506
100
AcDbLine
 10
29.483139
 20
148.277084
 30
0.0
 11
29.80857700000001
 21
148.602509
 31
0.0
  0
LINE
  5
3ED
330
290
100
AcDbEntity
  8
Hawa2
 62
     9
 48
0.009931
100
AcDbLine
 10
30.814398
 20
149.608337
 30
0.0
 11
31.095285
 21
149.889221
 31
0.0
  0
LINE
  5
3EE
330
290
100
AcDbEntity
  8
Hawa2
 62
     9
 48
0.011506
100
AcDbLine
 10
29.714251
 20
151.336624
 30
0.0
 11
30.039688
 21
151.662048
 31
0.0
  0
LINE
  5
3EF
330
290
100
AcDbEntity
  8
Hawa2
 62
     9
 48
0.013367
100
AcDbLine
 10
30.77292100000001
 20
152.395279
 30
0.0
 11
31.15099000000001
 21
152.773361
 31
0.0
  0
ENDBLK
  5
3F0
330
290
100
AcDbEntity
  8
0
100
AcDbBlockEnd
  0
BLOCK
  5
3F1
330
291
100
AcDbEntity
  8
0
100
AcDbBlockBegin
  2
BLOCK17
 70
     0
 10
0.0
 20
0.0
 30
0.0
  3
BLOCK17
  1

  0
LINE
  5
3F2
330
291
100
AcDbEntity
  8
Hawa2
 62
     9
 48
0.008986
100
AcDbLine
 10
-67.43289200000001
 20
138.14357
 30
0.0
 11
-67.178741
 21
137.88942
 31
0.0
  0
LINE
  5
3F3
330
291
100
AcDbEntity
  8
Hawa2
 62
     9
 48
0.09932
100
AcDbLine
 10
-67.159508
 20
140.698608
 30
0.0
 11
-64.350319
 21
137.88942
 31
0.0
  0
LINE
  5
3F4
330
291
100
AcDbEntity
  8
Hawa2
 62
     9
 48
0.191308
100
AcDbLine
 10
-66.93289200000001
 20
143.300415
 30
0.0
 11
-61.521889
 21
137.88942
 31
0.0
  0
LINE
  5
3F5
330
291
100
AcDbEntity
  8
Hawa2
 62
     9
 48
0.106117
100
AcDbLine
 10
-66.93289200000001
 20
146.128845
 30
0.0
 11
-63.931458
 21
143.127411
 31
0.0
  0
LINE
  5
3F6
330
291
100
AcDbEntity
  8
Hawa2
 62
     9
 48
0.099046
100
AcDbLine
 10
-61.49489599999999
 20
140.690857
 30
0.0
 11
-58.69346199999999
 21
137.88942
 31
0.0
  0
LINE
  5
3F7
330
291
100
AcDbEntity
  8
Hawa2
 62
     9
 48
0.106066
100
AcDbLine
 10
-66.93289200000001
 20
148.957275
 30
0.0
 11
-63.932892
 21
145.957275
 31
0.0
  0
LINE
  5
3F8
330
291
100
AcDbEntity
  8
Hawa2
 62
     9
 48
0.098995
100
AcDbLine
 10
-58.665035
 20
140.689423
 30
0.0
 11
-55.865036
 21
137.88942
 31
0.0
  0
LINE
  5
3F9
330
291
100
AcDbEntity
  8
Hawa2
 62
     9
 48
0.106066
100
AcDbLine
 10
-66.93289200000001
 20
151.785706
 30
0.0
 11
-63.932892
 21
148.785706
 31
0.0
  0
LINE
  5
3FA
330
291
100
AcDbEntity
  8
Hawa2
 62
     9
 48
0.109717
100
AcDbLine
 10
-56.139862
 20
140.992676
 30
0.0
 11
-53.03660999999999
 21
137.88942
 31
0.0
  0
LINE
  5
3FB
330
291
100
AcDbEntity
  8
Hawa2
 62
     9
 48
0.106066
100
AcDbLine
 10
-66.93289200000001
 20
154.614136
 30
0.0
 11
-63.932892
 21
151.614136
 31
0.0
  0
LINE
  5
3FC
330
291
100
AcDbEntity
  8
Hawa2
 62
     9
 48
0.166125
100
AcDbLine
 10
-54.906902
 20
142.58815
 30
0.0
 11
-50.208183
 21
137.88942
 31
0.0
  0
LINE
  5
3FD
330
291
100
AcDbEntity
  8
Hawa2
 62
     9
 48
0.106066
100
AcDbLine
 10
-66.93289200000001
 20
157.442551
 30
0.0
 11
-63.932892
 21
154.442551
 31
0.0
  0
LINE
  5
3FE
330
291
100
AcDbEntity
  8
Hawa2
 62
     9
 48
0.106066
100
AcDbLine
 10
-54.83289
 20
145.34256
 30
0.0
 11
-51.83289
 21
142.34256
 31
0.0
  0
LINE
  5
3FF
330
291
100
AcDbEntity
  8
Hawa2
 62
     9
 48
0.092136
100
AcDbLine
 10
-50.17975599999999
 20
140.689423
 30
0.0
 11
-47.57377199999999
 21
138.083435
 31
0.0
  0
LINE
  5
400
330
291
100
AcDbEntity
  8
Hawa2
 62
     9
 48
0.106066
100
AcDbLine
 10
-66.93289200000001
 20
160.270981
 30
0.0
 11
-63.932892
 21
157.270981
 31
0.0
  0
LINE
  5
401
330
291
100
AcDbEntity
  8
Hawa2
 62
     9
 48
0.106066
100
AcDbLine
 10
-54.83289
 20
148.17099
 30
0.0
 11
-51.83289
 21
145.17099
 31
0.0
  0
LINE
  5
402
330
291
100
AcDbEntity
  8
Hawa2
 62
     9
 48
0.077644
100
AcDbLine
 10
-48.632889
 20
141.970978
 30
0.0
 11
-46.436779
 21
139.774872
 31
0.0
  0
LINE
  5
403
330
291
100
AcDbEntity
  8
Hawa2
 62
     9
 48
0.106066
100
AcDbLine
 10
-66.93289200000001
 20
163.099411
 30
0.0
 11
-63.932892
 21
160.099411
 31
0.0
  0
LINE
  5
404
330
291
100
AcDbEntity
  8
Hawa2
 62
     9
 48
0.059751
100
AcDbLine
 10
-53.52289999999999
 20
149.689423
 30
0.0
 11
-51.83289
 21
147.999405
 31
0.0
  0
LINE
  5
405
330
291
100
AcDbEntity
  8
Hawa2
 62
     9
 48
0.060073
100
AcDbLine
 10
-48.632889
 20
144.799408
 30
0.0
 11
-46.933765
 21
143.100296
 31
0.0
  0
LINE
  5
406
330
291
100
AcDbEntity
  8
Hawa2
 62
     9
 48
0.106066
100
AcDbLine
 10
-66.93289200000001
 20
165.927841
 30
0.0
 11
-63.932892
 21
162.927841
 31
0.0
  0
LINE
  5
407
330
291
100
AcDbEntity
  8
Hawa2
 62
     9
 48
0.106066
100
AcDbLine
 10
-66.93289200000001
 20
168.756271
 30
0.0
 11
-63.932892
 21
165.756271
 31
0.0
  0
LINE
  5
408
330
291
100
AcDbEntity
  8
Hawa2
 62
     9
 48
0.106066
100
AcDbLine
 10
-66.93289200000001
 20
171.584686
 30
0.0
 11
-63.932892
 21
168.584686
 31
0.0
  0
LINE
  5
409
330
291
100
AcDbEntity
  8
Hawa2
 62
     9
 48
0.131291
100
AcDbLine
 10
-67.43289200000001
 20
174.913116
 30
0.0
 11
-63.71943299999999
 21
171.199661
 31
0.0
  0
LINE
  5
40A
330
291
100
AcDbEntity
  8
Hawa2
 62
     9
 48
0.1038
100
AcDbLine
 10
-65.180763
 20
175.489426
 30
0.0
 11
-62.244854
 21
172.553513
 31
0.0
  0
LINE
  5
40B
330
291
100
AcDbEntity
  8
Hawa2
 62
     9
 48
0.05134
100
AcDbLine
 10
-54.83289
 20
165.141541
 30
0.0
 11
-53.380764
 21
163.689423
 31
0.0
  0
LINE
  5
40C
330
291
100
AcDbEntity
  8
Hawa2
 62
     9
 48
0.098995
100
AcDbLine
 10
-62.352337
 20
175.489426
 30
0.0
 11
-59.552338
 21
172.689423
 31
0.0
  0
LINE
  5
40D
330
291
100
AcDbEntity
  8
Hawa2
 62
     9
 48
0.106066
100
AcDbLine
 10
-54.83289
 20
167.969971
 30
0.0
 11
-51.83289
 21
164.969971
 31
0.0
  0
LINE
  5
40E
330
291
100
AcDbEntity
  8
Hawa2
 62
     9
 48
0.102696
100
AcDbLine
 10
-59.52391099999999
 20
175.489426
 30
0.0
 11
-56.619236
 21
172.584747
 31
0.0
  0
LINE
  5
40F
330
291
100
AcDbEntity
  8
Hawa2
 62
     9
 48
0.109767
100
AcDbLine
 10
-54.93756499999999
 20
170.903076
 30
0.0
 11
-51.83289
 21
167.798401
 31
0.0
  0
LINE
  5
410
330
291
100
AcDbEntity
  8
Hawa2
 62
     9
 48
0.171919
100
AcDbLine
 10
-56.695484
 20
175.489426
 30
0.0
 11
-51.83289
 21
170.626831
 31
0.0
  0
LINE
  5
411
330
291
100
AcDbEntity
  8
Hawa2
 62
     9
 48
0.098995
100
AcDbLine
 10
-53.86705799999999
 20
175.489426
 30
0.0
 11
-51.067055
 21
172.689423
 31
0.0
  0
LINE
  5
412
330
291
100
AcDbEntity
  8
Hawa2
 62
     9
 48
0.05124
100
AcDbLine
 10
-48.632889
 20
170.255249
 30
0.0
 11
-47.183609
 21
168.805969
 31
0.0
  0
LINE
  5
413
330
291
100
AcDbEntity
  8
Hawa2
 62
     9
 48
0.150648
100
AcDbLine
 10
-51.038628
 20
175.489426
 30
0.0
 11
-46.77765299999999
 21
171.2284389999999
 31
0.0
  0
LINE
  5
414
330
291
100
AcDbEntity
  8
Hawa2
 62
     9
 48
0.061798
100
AcDbLine
 10
-48.19546500000001
 20
175.474686
 30
0.0
 11
-46.447552
 21
173.726776
 31
0.0
  0
ENDBLK
  5
415
330
291
100
AcDbEntity
  8
0
100
AcDbBlockEnd
  0
BLOCK
  5
416
330
292
100
AcDbEntity
  8
0
100
AcDbBlockBegin
  2
BLOCK18
 70
     0
 10
0.0
 20
0.0
 30
0.0
  3
BLOCK18
  1

  0
LINE
  5
417
330
292
100
AcDbEntity
  8
Hawa2
 62
     9
 48
0.023043
100
AcDbLine
 10
-49.284657
 20
143.048386
 30
0.0
 11
-48.632889
 21
143.70015
 31
0.0
  0
LINE
  5
418
330
292
100
AcDbEntity
  8
Hawa2
 62
     9
 48
0.089601
100
AcDbLine
 10
-51.167198
 20
143.994278
 30
0.0
 11
-48.632889
 21
146.52858
 31
0.0
  0
LINE
  5
419
330
292
100
AcDbEntity
  8
Hawa2
 62
     9
 48
0.018824
100
AcDbLine
 10
-51.83289
 20
146.157013
 30
0.0
 11
-51.30047600000001
 21
146.689423
 31
0.0
  0
LINE
  5
41A
330
292
100
AcDbEntity
  8
Hawa2
 62
     9
 48
0.111034
100
AcDbLine
 10
-50.53791799999999
 20
147.451981
 30
0.0
 11
-47.397415
 21
150.592484
 31
0.0
  0
LINE
  5
41B
330
292
100
AcDbEntity
  8
Hawa2
 62
     9
 48
0.160965
100
AcDbLine
 10
-51.140202
 20
149.678131
 30
0.0
 11
-46.587421
 21
154.230911
 31
0.0
  0
LINE
  5
41C
330
292
100
AcDbEntity
  8
Hawa2
 62
     9
 48
0.021623
100
AcDbLine
 10
-55.44447299999999
 20
148.202286
 30
0.0
 11
-54.83289
 21
148.813858
 31
0.0
  0
LINE
  5
41D
330
292
100
AcDbEntity
  8
Hawa2
 62
     9
 48
0.070711
100
AcDbLine
 10
-53.957329
 20
149.689423
 30
0.0
 11
-51.957329
 21
151.689423
 31
0.0
  0
LINE
  5
41E
330
292
100
AcDbEntity
  8
Hawa2
 62
     9
 48
0.10578
100
AcDbLine
 10
-49.43289199999999
 20
154.213867
 30
0.0
 11
-46.44098999999999
 21
157.205765
 31
0.0
  0
LINE
  5
41F
330
292
100
AcDbEntity
  8
Hawa2
 62
     9
 48
0.087265
100
AcDbLine
 10
-57.25397099999999
 20
149.221207
 30
0.0
 11
-54.785759
 21
151.689423
 31
0.0
  0
LINE
  5
420
330
292
100
AcDbEntity
  8
Hawa2
 62
     9
 48
0.097366
100
AcDbLine
 10
-49.43289199999999
 20
157.042297
 30
0.0
 11
-46.678963
 21
159.796219
 31
0.0
  0
LINE
  5
421
330
292
100
AcDbEntity
  8
Hawa2
 62
     9
 48
0.050662
100
AcDbLine
 10
-59.04712299999999
 20
150.256485
 30
0.0
 11
-57.614185
 21
151.689423
 31
0.0
  0
LINE
  5
422
330
292
100
AcDbEntity
  8
Hawa2
 62
     9
 48
0.079247
100
AcDbLine
 10
-49.43289199999999
 20
159.870712
 30
0.0
 11
-47.191456
 21
162.112152
 31
0.0
  0
LINE
  5
423
330
292
100
AcDbEntity
  8
Hawa2
 62
     9
 48
0.035355
100
AcDbLine
 10
-59.83289
 20
152.299149
 30
0.0
 11
-58.83289
 21
153.299149
 31
0.0
  0
LINE
  5
424
330
292
100
AcDbEntity
  8
Hawa2
 62
     9
 48
0.089186
100
AcDbLine
 10
-50.442612
 20
161.689423
 30
0.0
 11
-47.920052
 21
164.21199
 31
0.0
  0
LINE
  5
425
330
292
100
AcDbEntity
  8
Hawa2
 62
     9
 48
0.035355
100
AcDbLine
 10
-59.83289
 20
155.127579
 30
0.0
 11
-58.83289
 21
156.127579
 31
0.0
  0
LINE
  5
426
330
292
100
AcDbEntity
  8
Hawa2
 62
     9
 48
0.07073
100
AcDbLine
 10
-53.27103799999999
 20
161.689423
 30
0.0
 11
-51.270496
 21
163.689972
 31
0.0
  0
LINE
  5
427
330
292
100
AcDbEntity
  8
Hawa2
 62
     9
 48
0.059793
100
AcDbLine
 10
-50.288982
 20
164.671478
 30
0.0
 11
-48.597794
 21
166.362671
 31
0.0
  0
LINE
  5
428
330
292
100
AcDbEntity
  8
Hawa2
 62
     9
 48
0.035355
100
AcDbLine
 10
-59.83289
 20
157.955994
 30
0.0
 11
-58.83289
 21
158.955994
 31
0.0
  0
LINE
  5
429
330
292
100
AcDbEntity
  8
Hawa2
 62
     9
 48
0.070711
100
AcDbLine
 10
-56.099464
 20
161.689423
 30
0.0
 11
-54.099464
 21
163.689423
 31
0.0
  0
LINE
  5
42A
330
292
100
AcDbEntity
  8
Hawa2
 62
     9
 48
0.087207
100
AcDbLine
 10
-51.099464
 20
166.689423
 30
0.0
 11
-48.632889
 21
169.156006
 31
0.0
  0
LINE
  5
42B
330
292
100
AcDbEntity
  8
Hawa2
 62
     9
 48
0.155329
100
AcDbLine
 10
-59.83289
 20
160.784424
 30
0.0
 11
-55.43951800000001
 21
165.177795
 31
0.0
  0
ENDBLK
  5
42C
330
292
100
AcDbEntity
  8
0
100
AcDbBlockEnd
  0
BLOCK
  5
52A
330
529
100
AcDbEntity
  8
0
100
AcDbBlockBegin
  2
_Oblique
 70
     0
 10
0.0
 20
0.0
 30
0.0
  3
_Oblique
  1

  0
LINE
  5
52B
330
529
100
AcDbEntity
  8
0
 62
     0
370
    -2
100
AcDbLine
 10
-0.5
 20
-0.5
 30
0.0
 11
0.5
 21
0.5
 31
0.0
  0
ENDBLK
  5
52C
330
529
100
AcDbEntity
  8
0
100
AcDbBlockEnd
  0
ENDSEC
  0
SECTION
  2
ENTITIES
  0
DIMENSION
  5
21
330
A
100
AcDbEntity
  8
Hawa1
 62
     0
100
AcDbDimension
  2
*D0
 10
256.738934679931
 20
101.37109076196
 30
0.0
 11
246.6049483460402
 21
105.8164590978502
 31
0.0
 70
    32
 71
     5
 42
2.499578812810341
 52
89.999523
  3
HAWA-Strich
100
AcDbAlignedDimension
 13
259.23868
 23
111.371241
 33
0.0
 14
256.73868
 24
86.07540400000001
 34
0.0
 50
179.999046
100
AcDbRotatedDimension
  0
DIMENSION
  5
23
330
A
100
AcDbEntity
  8
Hawa1
 62
     0
100
AcDbDimension
  2
*D1
 10
259.2390129836335
 20
58.43887462654143
 30
0.0
 11
268.4927836589387
 21
62.88206756986934
 31
0.0
 70
    32
 71
     5
 42
14.00066220601994
 52
89.999523
  3
HAWA-Strich
100
AcDbAlignedDimension
 13
245.23868
 23
68.325404
 33
0.0
 14
259.23868
 24
48.43963099999999
 34
0.0
 50
359.998092
100
AcDbRotatedDimension
  0
DIMENSION
  5
25
330
A
100
AcDbEntity
  8
Hawa1
 62
     0
100
AcDbDimension
  2
*D2
 10
11.74880400000002
 20
121.325404
 30
0.0
 11
7.347765408935878
 21
102.325404
 31
0.0
 70
    33
 71
     5
 42
38.0
 52
89.999523
  3
HAWA-Strich
100
AcDbAlignedDimension
 13
34.713838
 23
83.325404
 33
0.0
 14
34.713838
 24
121.325404
 34
0.0
  0
DIMENSION
  5
27
330
A
100
AcDbEntity
  8
Hawa1
 62
     0
100
AcDbDimension
  2
*D3
 10
34.71420287603687
 20
143.2393001799055
 30
0.0
 11
45.20105988929355
 21
147.6834759194882
 31
0.0
 70
    32
 71
     5
 42
20.97356602863358
 52
89.999523
  3
HAWA-Strich
100
AcDbAlignedDimension
 13
55.687362
 23
118.801054
 33
0.0
 14
34.713838
 24
121.325404
 34
0.0
 50
179.999046
100
AcDbRotatedDimension
  0
DIMENSION
  5
29
330
A
100
AcDbEntity
  8
Hawa1
 62
     0
100
AcDbDimension
  2
*D4
 10
269.905121
 20
67.82540400000001
 30
0.0
 11
265.4607706502388
 21
78.32540400000005
 31
0.0
 70
    33
 71
     5
 42
21.0
 52
89.999523
  3
HAWA-Strich
100
AcDbAlignedDimension
 13
258.73868
 23
88.82540400000001
 33
0.0
 14
258.73868
 24
67.82540400000001
 34
0.0
  0
DIMENSION
  5
2B
330
A
100
AcDbEntity
  8
Hawa1
 62
     0
100
AcDbDimension
  2
*D5
 10
226.0718655429741
 20
73.325404
 30
0.0
 11
226.0718655429741
 21
94.98244145386928
 31
0.0
 70
   161
  1
8 [{\H0.7x;\S5/16;}"]
 71
     5
 42
10.0
 52
89.999523
  3
HAWA-Strich
100
AcDbAlignedDimension
 13
232.69623
 23
83.325404
 33
0.0
 14
232.69623
 24
73.325404
 34
0.0
  0
DIMENSION
  5
2D
330
A
100
AcDbEntity
  8
Hawa1
 62
     0
100
AcDbDimension
  2
*D6
 10
226.0718655429742
 20
73.325404
 30
0.0
 11
226.0718655429742
 21
109.502565664267
 31
0.0
 70
   161
  1
-12 [{\H0.7x;\S15/32;}"]
 71
     5
 42
10.0
 52
89.999523
  3
HAWA-Strich
100
AcDbAlignedDimension
 13
232.69623
 23
83.325404
 33
0.0
 14
232.69623
 24
73.325404
 34
0.0
  0
DIMENSION
  5
2F
330
A
100
AcDbEntity
  8
Hawa1
 62
     0
100
AcDbDimension
  2
*D7
 10
212.7560789706868
 20
78.32519549358699
 30
0.0
 11
212.7563786807833
 21
90.32528186760378
 31
0.0
 70
   160
 71
     5
 42
23.99944704442919
 52
89.999523
  3
HAWA-Strich
100
AcDbAlignedDimension
 13
182.268218
 23
102.325404
 33
0.0
 14
204.407695
 24
78.325404
 34
0.0
 50
269.998569
100
AcDbRotatedDimension
  0
DIMENSION
  5
31
330
A
100
AcDbEntity
  8
Hawa1
 62
     0
100
AcDbDimension
  2
*D8
 10
190.2776187911323
 20
83.32575598857275
 30
0.0
 11
190.2786238297527
 21
123.5664765898773
 31
0.0
 70
   160
  1
-14 [{\H0.7x;\S9/16;}"]
 71
     5
 42
13.99935144703436
 52
89.999523
  3
HAWA-Strich
100
AcDbAlignedDimension
 13
178.403658
 23
97.32540400000001
 33
0.0
 14
204.370882
 24
83.325404
 34
0.0
 50
269.998569
100
AcDbRotatedDimension
  0
DIMENSION
  5
33
330
A
100
AcDbEntity
  8
Hawa1
 62
     0
100
AcDbDimension
  2
*D9
 10
190.2776187911323
 20
83.32575598857275
 30
0.0
 11
190.2782549011073
 21
108.7949501663313
 31
0.0
 70
   160
  1
13 [{\H0.7x;\S1/2;}"]
 71
     5
 42
13.99935144703436
 52
89.999523
  3
HAWA-Strich
100
AcDbAlignedDimension
 13
178.403658
 23
97.32540400000001
 33
0.0
 14
204.370882
 24
83.325404
 34
0.0
 50
269.998569
100
AcDbRotatedDimension
  0
DIMENSION
  5
35
330
A
100
AcDbEntity
  8
Hawa1
 62
     0
100
AcDbDimension
  2
*D10
 10
129.404240866493
 20
120.4814732513217
 30
0.0
 11
154.404141293248
 21
124.9262565925009
 31
0.0
 70
    32
  1
=><>
 71
     5
 42
49.99965283137289
 52
89.999523
  3
HAWA-Strich
100
AcDbAlignedDimension
 13
179.403658
 23
106.325404
 33
0.0
 14
129.403658
 24
85.475404
 34
0.0
 50
179.999046
100
AcDbRotatedDimension
  0
DIMENSION
  5
37
330
A
100
AcDbEntity
  8
Hawa1
 62
     0
100
AcDbDimension
  2
*D11
 10
79.03594666829445
 20
97.32540400000001
 30
0.0
 11
79.03594666829445
 21
132.2646536947274
 31
0.0
 70
   161
  1
12,7 [{\H0.7x;\S1/2;}"]
 71
     5
 42
10.0
 52
89.999523
  3
HAWA-Strich
100
AcDbAlignedDimension
 13
94.50521999999999
 23
107.325404
 33
0.0
 14
94.50521999999999
 24
97.32540400000001
 34
0.0
  0
DIMENSION
  5
39
330
A
100
AcDbEntity
  8
Hawa1
 62
     0
100
AcDbDimension
  2
*D12
 10
79.03594666829445
 20
97.32540400000001
 30
0.0
 11
79.03594666829443
 21
116.8986117080491
 31
0.0
 70
   161
  1
8 [{\H0.7x;\S5/16;}"] -
 71
     5
 42
10.0
 52
89.999523
  3
HAWA-Strich
100
AcDbAlignedDimension
 13
94.50521999999999
 23
107.325404
 33
0.0
 14
94.50521999999999
 24
97.32540400000001
 34
0.0
  0
DIMENSION
  5
3B
330
A
100
AcDbEntity
  8
Hawa1
 62
     0
100
AcDbDimension
  2
*D13
 10
106.2756575119769
 20
86.475404
 30
0.0
 11
106.2756575119768
 21
58.99277611947479
 31
0.0
 70
   161
 71
     5
 42
16.3
 52
89.999523
  3
HAWA-Strich
100
AcDbAlignedDimension
 13
130.403658
 23
70.175404
 33
0.0
 14
130.403658
 24
86.475404
 34
0.0
  0
DIMENSION
  5
3D
330
A
100
AcDbEntity
  8
Hawa1
 62
     0
100
AcDbDimension
  2
*D14
 10
136.1031711468804
 20
59.60557748750396
 30
0.0
 11
120.1053042751781
 21
59.60611023058315
 31
0.0
 70
   160
 71
     5
 42
6.699898428594536
 52
89.999523
  3
HAWA-Strich
100
AcDbAlignedDimension
 13
129.403658
 23
71.175404
 33
0.0
 14
136.103658
 24
74.22540399999999
 34
0.0
 50
359.998092
100
AcDbRotatedDimension
  0
DIMENSION
  5
3F
330
A
100
AcDbEntity
  8
Hawa1
 62
     0
100
AcDbDimension
  2
*D15
 10
136.8528260320337
 20
48.93138181555102
 30
0.0
 11
119.3086079416604
 21
48.9319660534899
 31
0.0
 70
   160
 71
     5
 42
7.449908773464017
 52
89.999523
  3
HAWA-Strich
100
AcDbAlignedDimension
 13
129.403658
 23
71.175404
 33
0.0
 14
136.853658
 24
73.914743
 34
0.0
 50
359.998092
100
AcDbRotatedDimension
  0
DIMENSION
  5
41
330
A
100
AcDbEntity
  8
Hawa1
 62
     0
100
AcDbDimension
  2
*D16
 10
143.402651924214
 20
40.46371826383591
 30
0.0
 11
152.6564225995192
 21
44.90691120716382
 31
0.0
 70
    32
 71
     5
 42
14.00001664267842
 52
89.999523
  3
HAWA-Strich
100
AcDbAlignedDimension
 13
129.403658
 23
71.175404
 33
0.0
 14
143.403658
 24
70.675404
 34
0.0
 50
359.998092
100
AcDbRotatedDimension
  0
LINE
  5
42
330
A
100
AcDbEntity
  8
Hawa5
  6
DASHDOT
 62
     1
100
AcDbLine
 10
204.407692
 20
78.325404
 30
0.0
 11
129.2739639999999
 21
78.325404
 31
0.0
  0
LINE
  5
43
330
A
100
AcDbEntity
  8
Hawa5
  6
DASHDOT
 62
     1
100
AcDbLine
 10
256.575454
 20
78.325404
 30
0.0
 11
214.279724
 21
78.325404
 31
0.0
  0
LINE
  5
44
330
A
100
AcDbEntity
  8
Hawa5
  6
DASHDOT
 62
     1
100
AcDbLine
 10
54.03469799999999
 20
102.325404
 30
0.0
 11
94.939447
 21
102.325404
 31
0.0
  0
LINE
  5
45
330
A
100
AcDbEntity
  8
Hawa5
  6
DASHDOT
 62
     1
100
AcDbLine
 10
104.478826
 20
102.325404
 30
0.0
 11
182.268219
 21
102.325404
 31
0.0
  0
LINE
  5
46
330
A
100
AcDbEntity
  8
Hawa5
  6
PHANTOM
 62
     1
100
AcDbLine
 10
214.370882
 20
93.76238499999999
 30
0.0
 11
214.370882
 21
62.896624
 31
0.0
  0
LINE
  5
47
330
A
100
AcDbEntity
  8
Hawa5
  6
PHANTOM
 62
     1
100
AcDbLine
 10
204.370882
 20
93.76238499999999
 30
0.0
 11
204.370882
 21
62.896624
 31
0.0
  0
LINE
  5
48
330
A
100
AcDbEntity
  8
Hawa5
  6
PHANTOM
 62
     1
 48
0.479073
100
AcDbLine
 10
104.50522
 20
111.378047
 30
0.0
 11
104.50522
 21
92.215144
 31
0.0
  0
LINE
  5
49
330
A
100
AcDbEntity
  8
Hawa5
  6
PHANTOM
 62
     1
 48
0.479073
100
AcDbLine
 10
94.50521999999999
 20
111.378047
 30
0.0
 11
94.50521999999999
 21
92.215144
 31
0.0
  0
LINE
  5
4A
330
A
100
AcDbEntity
  8
Hawa5
 62
     1
100
AcDbLine
 10
259.23868
 20
55.32540400000001
 30
0.0
 11
259.23868
 21
135.325404
 31
0.0
  0
LINE
  5
4B
330
A
100
AcDbEntity
  8
Hawa4
 62
     4
 48
0.075032
100
AcDbLine
 10
253.7372
 20
78.625404
 30
0.0
 11
256.738467
 21
78.625404
 31
0.0
  0
LINE
  5
4C
330
A
100
AcDbEntity
  8
Hawa6
 62
     3
 48
0.004997
100
AcDbLine
 10
129.403658
 20
86.07540400000001
 30
0.0
 11
129.603518
 21
86.07540400000001
 31
0.0
  0
LINE
  5
4D
330
A
100
AcDbEntity
  8
Hawa4
 62
     4
 48
0.001134
100
AcDbLine
 10
133.706803
 20
86.07540400000001
 30
0.0
 11
133.752179
 21
86.07540400000001
 31
0.0
  0
LINE
  5
4E
330
A
100
AcDbEntity
  8
Hawa4
 62
     4
 48
0.00026
100
AcDbLine
 10
143.393256
 20
86.07540400000001
 30
0.0
 11
143.403647
 21
86.07540400000001
 31
0.0
  0
LINE
  5
4F
330
A
100
AcDbEntity
  8
Hawa4
 62
     4
 48
0.070827
100
AcDbLine
 10
253.905598
 20
86.07540400000001
 30
0.0
 11
256.738677
 21
86.07540400000001
 31
0.0
  0
LINE
  5
50
330
A
100
AcDbEntity
  8
Hawa6
 62
     3
 48
0.015
100
AcDbLine
 10
129.403658
 20
86.07540400000001
 30
0.0
 11
129.403658
 21
85.475404
 31
0.0
  0
LINE
  5
51
330
A
100
AcDbEntity
  8
Hawa4
 62
     4
 48
0.00125
100
AcDbLine
 10
136.852179
 20
78.625404
 30
0.0
 11
136.902179
 21
78.625404
 31
0.0
  0
LINE
  5
52
330
A
100
AcDbEntity
  8
Hawa4
 62
     4
 48
0.082526
100
AcDbLine
 10
253.7372
 20
78.325404
 30
0.0
 11
257.038257
 21
78.325404
 31
0.0
  0
LINE
  5
53
330
A
100
AcDbEntity
  8
Hawa4
 62
     4
 48
0.075037
100
AcDbLine
 10
253.7372
 20
78.02540400000001
 30
0.0
 11
256.738676
 21
78.02540400000001
 31
0.0
  0
LINE
  5
54
330
A
100
AcDbEntity
  8
Hawa4
 62
     4
 48
0.075032
100
AcDbLine
 10
253.7372
 20
76.205289
 30
0.0
 11
256.738466
 21
76.205289
 31
0.0
  0
LINE
  5
55
330
A
100
AcDbEntity
  8
Hawa4
 62
     4
 48
0.082526
100
AcDbLine
 10
253.7372
 20
75.90528899999999
 30
0.0
 11
257.038256
 21
75.90528899999999
 31
0.0
  0
LINE
  5
56
330
A
100
AcDbEntity
  8
Hawa4
 62
     4
 48
0.075037
100
AcDbLine
 10
253.7372
 20
75.605289
 30
0.0
 11
256.738676
 21
75.605289
 31
0.0
  0
LINE
  5
57
330
A
100
AcDbEntity
  8
Hawa4
 62
     4
 48
0.00125
100
AcDbLine
 10
136.852179
 20
75.605289
 30
0.0
 11
136.902179
 21
75.605289
 31
0.0
  0
LINE
  5
58
330
A
100
AcDbEntity
  8
Hawa6
 62
     3
 48
0.013625
100
AcDbLine
 10
129.403658
 20
71.120409
 30
0.0
 11
129.403658
 21
70.575404
 31
0.0
  0
LINE
  5
59
330
A
100
AcDbEntity
  8
Hawa6
 62
     3
 48
0.004973
100
AcDbLine
 10
129.403658
 20
70.575404
 30
0.0
 11
129.602569
 21
70.575404
 31
0.0
  0
LINE
  5
5A
330
A
100
AcDbEntity
  8
Hawa4
 62
     4
 48
0.070787
100
AcDbLine
 10
253.905719
 20
70.575404
 30
0.0
 11
256.7372
 21
70.575404
 31
0.0
  0
LINE
  5
5B
330
A
100
AcDbEntity
  8
Hawa6
 62
     3
 48
0.0125
100
AcDbLine
 10
129.403658
 20
86.07540400000001
 30
0.0
 11
129.403658
 21
86.575404
 31
0.0
  0
LINE
  5
5C
330
A
100
AcDbEntity
  8
Hawa6
 62
     3
 48
0.0125
100
AcDbLine
 10
129.403658
 20
88.325404
 30
0.0
 11
129.403658
 21
88.82540400000001
 31
0.0
  0
LINE
  5
5D
330
A
100
AcDbEntity
  8
Hawa6
 62
     3
 48
0.03625
100
AcDbLine
 10
129.403658
 20
86.87540400000001
 30
0.0
 11
129.403658
 21
88.325404
 31
0.0
  0
LINE
  5
5E
330
A
100
AcDbEntity
  8
Hawa6
 62
     3
 48
0.0075
100
AcDbLine
 10
129.403658
 20
86.575404
 30
0.0
 11
129.403658
 21
86.87540400000001
 31
0.0
  0
LINE
  5
5F
330
A
100
AcDbEntity
  8
Hawa6
 62
     3
 48
0.0125
100
AcDbLine
 10
129.403658
 20
70.075404
 30
0.0
 11
129.403658
 21
70.575404
 31
0.0
  0
LINE
  5
60
330
A
100
AcDbEntity
  8
Hawa6
 62
     3
 48
0.0075
100
AcDbLine
 10
129.403658
 20
69.77540400000001
 30
0.0
 11
129.403658
 21
70.075404
 31
0.0
  0
LINE
  5
61
330
A
100
AcDbEntity
  8
Hawa6
 62
     3
 48
0.03625
100
AcDbLine
 10
129.403658
 20
69.77540400000001
 30
0.0
 11
129.403658
 21
68.325404
 31
0.0
  0
LINE
  5
62
330
A
100
AcDbEntity
  8
Hawa6
 62
     3
 48
0.0125
100
AcDbLine
 10
129.403658
 20
67.82540400000001
 30
0.0
 11
129.403658
 21
68.325404
 31
0.0
  0
LINE
  5
63
330
A
100
AcDbEntity
  8
Hawa4
 62
     4
 48
0.007464
100
AcDbLine
 10
135.803633
 20
78.325404
 30
0.0
 11
136.102178
 21
78.325404
 31
0.0
  0
LINE
  5
64
330
A
100
AcDbEntity
  8
Hawa4
 62
     4
 48
0.00125
100
AcDbLine
 10
136.852178
 20
78.325404
 30
0.0
 11
136.902178
 21
78.325404
 31
0.0
  0
LINE
  5
65
330
A
100
AcDbEntity
  8
Hawa4
 62
     4
 48
0.00125
100
AcDbLine
 10
136.852178
 20
75.90528899999999
 30
0.0
 11
136.902178
 21
75.90528899999999
 31
0.0
  0
LINE
  5
66
330
A
100
AcDbEntity
  8
Hawa6
 62
     3
100
AcDbLine
 10
129.403658
 20
67.82540400000001
 30
0.0
 11
204.370882
 21
67.82540400000001
 31
0.0
  0
LINE
  5
67
330
A
100
AcDbEntity
  8
Hawa6
 62
     3
100
AcDbLine
 10
214.370882
 20
67.82540400000001
 30
0.0
 11
245.700334
 21
67.82540400000001
 31
0.0
  0
LINE
  5
68
330
A
100
AcDbEntity
  8
Hawa4
 62
     4
 48
0.011721
100
AcDbLine
 10
258.769834
 20
67.82540400000001
 30
0.0
 11
259.23868
 21
67.82540400000001
 31
0.0
  0
LINE
  5
69
330
A
100
AcDbEntity
  8
Hawa6
 62
     3
 48
0.014848
100
AcDbLine
 10
129.403658
 20
88.82540400000001
 30
0.0
 11
129.997592
 21
88.82540400000001
 31
0.0
  0
LINE
  5
6A
330
A
100
AcDbEntity
  8
Hawa6
 62
     3
 48
0.076486
100
AcDbLine
 10
130.953586
 20
88.82540400000001
 30
0.0
 11
134.01303
 21
88.82540400000001
 31
0.0
  0
LINE
  5
6B
330
A
100
AcDbEntity
  8
Hawa6
 62
     3
100
AcDbLine
 10
134.970347
 20
88.82540400000001
 30
0.0
 11
204.370882
 21
88.82540400000001
 31
0.0
  0
LINE
  5
6C
330
A
100
AcDbEntity
  8
Hawa6
 62
     3
100
AcDbLine
 10
214.370882
 20
88.82540400000001
 30
0.0
 11
245.737208
 21
88.82540400000001
 31
0.0
  0
LINE
  5
6D
330
A
100
AcDbEntity
  8
Hawa4
 62
     4
 48
0.0125
100
AcDbLine
 10
258.738679
 20
88.82540400000001
 30
0.0
 11
259.23868
 21
88.82540400000001
 31
0.0
  0
LINE
  5
6E
330
A
100
AcDbEntity
  8
Hawa6
 62
     3
 48
0.02313
100
AcDbLine
 10
129.403658
 20
88.325404
 30
0.0
 11
130.328866
 21
88.325404
 31
0.0
  0
LINE
  5
6F
330
A
100
AcDbEntity
  8
Hawa6
 62
     3
 48
0.044797
100
AcDbLine
 10
131.587048
 20
88.325404
 30
0.0
 11
133.378909
 21
88.325404
 31
0.0
  0
LINE
  5
70
330
A
100
AcDbEntity
  8
Hawa6
 62
     3
 48
0.219147
100
AcDbLine
 10
134.637761
 20
88.325404
 30
0.0
 11
143.403657
 21
88.325404
 31
0.0
  0
LINE
  5
71
330
A
100
AcDbEntity
  8
Hawa6
 62
     3
 48
0.011638
100
AcDbLine
 10
129.403658
 20
86.87540400000001
 30
0.0
 11
129.869176
 21
86.87540400000001
 31
0.0
  0
LINE
  5
72
330
A
100
AcDbEntity
  8
Hawa6
 62
     3
 48
0.205412
100
AcDbLine
 10
135.187174
 20
86.87540400000001
 30
0.0
 11
143.403656
 21
86.87540400000001
 31
0.0
  0
LINE
  5
73
330
A
100
AcDbEntity
  8
Hawa4
 62
     4
 48
0.016158
100
AcDbLine
 10
248.013708
 20
86.87540400000001
 30
0.0
 11
248.660026
 21
86.87540400000001
 31
0.0
  0
LINE
  5
74
330
A
100
AcDbEntity
  8
Hawa4
 62
     4
 48
0.021141
100
AcDbLine
 10
251.314374
 20
86.87540400000001
 30
0.0
 11
252.160009
 21
86.87540400000001
 31
0.0
  0
LINE
  5
75
330
A
100
AcDbEntity
  8
Hawa6
 62
     3
 48
0.007382
100
AcDbLine
 10
129.403658
 20
86.575404
 30
0.0
 11
129.698944
 21
86.575404
 31
0.0
  0
LINE
  5
76
330
A
100
AcDbEntity
  8
Hawa4
 62
     4
 48
0.012775
100
AcDbLine
 10
130.644202
 20
86.575404
 30
0.0
 11
131.155209
 21
86.575404
 31
0.0
  0
LINE
  5
77
330
A
100
AcDbEntity
  8
Hawa4
 62
     4
 48
0.015891
100
AcDbLine
 10
133.798966
 20
86.575404
 30
0.0
 11
134.434606
 21
86.575404
 31
0.0
  0
LINE
  5
78
330
A
100
AcDbEntity
  8
Hawa6
 62
     3
 48
0.202759
100
AcDbLine
 10
135.293289
 20
86.575404
 30
0.0
 11
143.403655
 21
86.575404
 31
0.0
  0
LINE
  5
79
330
A
100
AcDbEntity
  8
Hawa6
 62
     3
 48
0.35
100
AcDbLine
 10
129.403658
 20
70.075404
 30
0.0
 11
143.403655
 21
70.075404
 31
0.0
  0
LINE
  5
7A
330
A
100
AcDbEntity
  8
Hawa4
 62
     4
 48
0.000889
100
AcDbLine
 10
256.238679
 20
70.075404
 30
0.0
 11
256.274242
 21
70.075404
 31
0.0
  0
LINE
  5
7B
330
A
100
AcDbEntity
  8
Hawa6
 62
     3
 48
0.35
100
AcDbLine
 10
129.403658
 20
69.77540400000001
 30
0.0
 11
143.403656
 21
69.77540400000001
 31
0.0
  0
LINE
  5
7C
330
A
100
AcDbEntity
  8
Hawa4
 62
     4
 48
0.016213
100
AcDbLine
 10
248.01441
 20
69.77540400000001
 30
0.0
 11
248.662919
 21
69.77540400000001
 31
0.0
  0
LINE
  5
7D
330
A
100
AcDbEntity
  8
Hawa4
 62
     4
 48
0.021286
100
AcDbLine
 10
251.311481
 20
69.77540400000001
 30
0.0
 11
252.162903
 21
69.77540400000001
 31
0.0
  0
LINE
  5
7E
330
A
100
AcDbEntity
  8
Hawa6
 62
     3
 48
0.35
100
AcDbLine
 10
129.403658
 20
68.325404
 30
0.0
 11
143.403657
 21
68.325404
 31
0.0
  0
LINE
  5
7F
330
A
100
AcDbEntity
  8
Hawa4
 62
     4
 48
0.00125
100
AcDbLine
 10
136.852179
 20
78.02540400000001
 30
0.0
 11
136.902179
 21
78.02540400000001
 31
0.0
  0
LINE
  5
80
330
A
100
AcDbEntity
  8
Hawa4
 62
     4
 48
0.00125
100
AcDbLine
 10
136.852179
 20
76.205289
 30
0.0
 11
136.902179
 21
76.205289
 31
0.0
  0
LINE
  5
81
330
A
100
AcDbEntity
  8
Hawa5
 62
     1
 48
0.2
100
AcDbLine
 10
253.73868
 20
74.325404
 30
0.0
 11
253.73868
 21
82.32540400000001
 31
0.0
  0
LINE
  5
82
330
A
100
AcDbEntity
  8
Hawa5
 62
     1
 48
0.035355
100
AcDbLine
 10
253.73868
 20
74.325404
 30
0.0
 11
252.73868
 21
73.325404
 31
0.0
  0
LINE
  5
83
330
A
100
AcDbEntity
  8
Hawa5
 62
     1
100
AcDbLine
 10
137.903658
 20
73.325404
 30
0.0
 11
204.370882
 21
73.325404
 31
0.0
  0
LINE
  5
84
330
A
100
AcDbEntity
  8
Hawa5
 62
     1
100
AcDbLine
 10
214.370882
 20
73.325404
 30
0.0
 11
252.73868
 21
73.325404
 31
0.0
  0
LINE
  5
85
330
A
100
AcDbEntity
  8
Hawa5
 62
     1
 48
0.035355
100
AcDbLine
 10
136.903658
 20
74.325404
 30
0.0
 11
137.903658
 21
73.325404
 31
0.0
  0
LINE
  5
86
330
A
100
AcDbEntity
  8
Hawa5
 62
     1
 48
0.2
100
AcDbLine
 10
136.903658
 20
74.325404
 30
0.0
 11
136.903658
 21
82.32540400000001
 31
0.0
  0
LINE
  5
87
330
A
100
AcDbEntity
  8
Hawa5
 62
     1
 48
0.035355
100
AcDbLine
 10
136.903658
 20
82.32540400000001
 30
0.0
 11
137.903658
 21
83.325404
 31
0.0
  0
LINE
  5
88
330
A
100
AcDbEntity
  8
Hawa5
 62
     1
100
AcDbLine
 10
137.903658
 20
83.325404
 30
0.0
 11
204.370882
 21
83.325404
 31
0.0
  0
LINE
  5
89
330
A
100
AcDbEntity
  8
Hawa5
 62
     1
100
AcDbLine
 10
214.370882
 20
83.325404
 30
0.0
 11
252.73868
 21
83.325404
 31
0.0
  0
LINE
  5
8A
330
A
100
AcDbEntity
  8
Hawa5
 62
     1
 48
0.035355
100
AcDbLine
 10
253.73868
 20
82.32540400000001
 30
0.0
 11
252.73868
 21
83.325404
 31
0.0
  0
LINE
  5
8B
330
A
100
AcDbEntity
  8
Hawa4
 62
     4
 48
0.03625
100
AcDbLine
 10
245.23868
 20
69.77540400000001
 30
0.0
 11
245.23868
 21
68.325404
 31
0.0
  0
ARC
  5
8C
330
A
100
AcDbEntity
  8
Hawa4
 62
     4
100
AcDbCircle
 10
245.53868
 20
69.77540400000001
 30
0.0
 40
0.3
100
AcDbArc
 50
90.0
 51
180.0
  0
LINE
  5
8D
330
A
100
AcDbEntity
  8
Hawa4
 62
     4
 48
0.049393
100
AcDbLine
 10
245.53868
 20
70.075404
 30
0.0
 11
247.514416
 21
70.075404
 31
0.0
  0
LINE
  5
8E
330
A
100
AcDbEntity
  8
Hawa4
 62
     4
 48
0.018107
100
AcDbLine
 10
247.514416
 20
70.075404
 30
0.0
 11
248.026548
 21
69.563272
 31
0.0
  0
ARC
  5
8F
330
A
100
AcDbEntity
  8
Hawa4
 62
     4
100
AcDbCircle
 10
248.23868
 20
69.77540400000001
 30
0.0
 40
0.3
100
AcDbArc
 50
225.0
 51
315.0
  0
LINE
  5
90
330
A
100
AcDbEntity
  8
Hawa4
 62
     4
 48
0.018107
100
AcDbLine
 10
248.450812
 20
69.563272
 30
0.0
 11
248.962944
 21
70.075404
 31
0.0
  0
LINE
  5
91
330
A
100
AcDbEntity
  8
Hawa4
 62
     4
 48
0.051286
100
AcDbLine
 10
248.962944
 20
70.075404
 30
0.0
 11
251.014399
 21
70.075404
 31
0.0
  0
LINE
  5
92
330
A
100
AcDbEntity
  8
Hawa4
 62
     4
 48
0.018107
100
AcDbLine
 10
251.014399
 20
70.075404
 30
0.0
 11
251.526531
 21
69.563272
 31
0.0
  0
ARC
  5
93
330
A
100
AcDbEntity
  8
Hawa4
 62
     4
100
AcDbCircle
 10
251.738663
 20
69.77540400000001
 30
0.0
 40
0.3
100
AcDbArc
 50
225.0
 51
315.0
  0
LINE
  5
94
330
A
100
AcDbEntity
  8
Hawa4
 62
     4
 48
0.018107
100
AcDbLine
 10
251.950795
 20
69.563272
 30
0.0
 11
252.462927
 21
70.075404
 31
0.0
  0
LINE
  5
95
330
A
100
AcDbEntity
  8
Hawa4
 62
     4
 48
0.094394
100
AcDbLine
 10
252.462927
 20
70.075404
 30
0.0
 11
256.23868
 21
70.075404
 31
0.0
  0
ARC
  5
96
330
A
100
AcDbEntity
  8
Hawa4
 62
     4
100
AcDbCircle
 10
256.23868
 20
70.575404
 30
0.0
 40
0.5
100
AcDbArc
 50
270.0
 51
360.0
  0
LINE
  5
97
330
A
100
AcDbEntity
  8
Hawa4
 62
     4
 48
0.125747
100
AcDbLine
 10
256.73868
 20
75.605289
 30
0.0
 11
256.73868
 21
70.575404
 31
0.0
  0
LINE
  5
98
330
A
100
AcDbEntity
  8
Hawa4
 62
     4
 48
0.010607
100
AcDbLine
 10
257.03868
 20
75.90528899999999
 30
0.0
 11
256.73868
 21
75.605289
 31
0.0
  0
LINE
  5
99
330
A
100
AcDbEntity
  8
Hawa4
 62
     4
 48
0.010607
100
AcDbLine
 10
256.73868
 20
76.205289
 30
0.0
 11
257.03868
 21
75.90528899999999
 31
0.0
  0
LINE
  5
9A
330
A
100
AcDbEntity
  8
Hawa4
 62
     4
 48
0.045503
100
AcDbLine
 10
256.73868
 20
78.02540400000001
 30
0.0
 11
256.73868
 21
76.205289
 31
0.0
  0
LINE
  5
9B
330
A
100
AcDbEntity
  8
Hawa4
 62
     4
 48
0.010607
100
AcDbLine
 10
257.03868
 20
78.325404
 30
0.0
 11
256.73868
 21
78.02540400000001
 31
0.0
  0
LINE
  5
9C
330
A
100
AcDbEntity
  8
Hawa4
 62
     4
 48
0.010607
100
AcDbLine
 10
256.73868
 20
78.625404
 30
0.0
 11
257.03868
 21
78.325404
 31
0.0
  0
LINE
  5
9D
330
A
100
AcDbEntity
  8
Hawa4
 62
     4
 48
0.18625
100
AcDbLine
 10
256.73868
 20
86.07540400000001
 30
0.0
 11
256.73868
 21
78.625404
 31
0.0
  0
ARC
  5
9E
330
A
100
AcDbEntity
  8
Hawa4
 62
     4
100
AcDbCircle
 10
256.23868
 20
86.07540400000001
 30
0.0
 40
0.5
100
AcDbArc
 50
360.0
 51
450.0
  0
LINE
  5
9F
330
A
100
AcDbEntity
  8
Hawa4
 62
     4
 48
0.094394
100
AcDbLine
 10
256.23868
 20
86.575404
 30
0.0
 11
252.462927
 21
86.575404
 31
0.0
  0
LINE
  5
A0
330
A
100
AcDbEntity
  8
Hawa4
 62
     4
 48
0.018107
100
AcDbLine
 10
251.950795
 20
87.08753599999999
 30
0.0
 11
252.462927
 21
86.575404
 31
0.0
  0
ARC
  5
A1
330
A
100
AcDbEntity
  8
Hawa4
 62
     4
100
AcDbCircle
 10
251.738663
 20
86.87540400000001
 30
0.0
 40
0.3
100
AcDbArc
 50
45.0
 51
135.0
  0
LINE
  5
A2
330
A
100
AcDbEntity
  8
Hawa4
 62
     4
 48
0.018107
100
AcDbLine
 10
251.014399
 20
86.575404
 30
0.0
 11
251.526531
 21
87.08753599999999
 31
0.0
  0
LINE
  5
A3
330
A
100
AcDbEntity
  8
Hawa4
 62
     4
 48
0.051286
100
AcDbLine
 10
251.014399
 20
86.575404
 30
0.0
 11
248.962944
 21
86.575404
 31
0.0
  0
LINE
  5
A4
330
A
100
AcDbEntity
  8
Hawa4
 62
     4
 48
0.018107
100
AcDbLine
 10
248.450812
 20
87.08753599999999
 30
0.0
 11
248.962944
 21
86.575404
 31
0.0
  0
ARC
  5
A5
330
A
100
AcDbEntity
  8
Hawa4
 62
     4
100
AcDbCircle
 10
248.23868
 20
86.87540400000001
 30
0.0
 40
0.3
100
AcDbArc
 50
45.0
 51
135.0
  0
LINE
  5
A6
330
A
100
AcDbEntity
  8
Hawa4
 62
     4
 48
0.018107
100
AcDbLine
 10
247.514416
 20
86.575404
 30
0.0
 11
248.026548
 21
87.08753599999999
 31
0.0
  0
LINE
  5
A7
330
A
100
AcDbEntity
  8
Hawa4
 62
     4
 48
0.049393
100
AcDbLine
 10
247.514416
 20
86.575404
 30
0.0
 11
245.53868
 21
86.575404
 31
0.0
  0
ARC
  5
A8
330
A
100
AcDbEntity
  8
Hawa4
 62
     4
100
AcDbCircle
 10
245.53868
 20
86.87540400000001
 30
0.0
 40
0.3
100
AcDbArc
 50
180.0
 51
270.0
  0
LINE
  5
A9
330
A
100
AcDbEntity
  8
Hawa4
 62
     4
 48
0.03625
100
AcDbLine
 10
245.23868
 20
88.325404
 30
0.0
 11
245.23868
 21
86.87540400000001
 31
0.0
  0
ARC
  5
AA
330
A
100
AcDbEntity
  8
Hawa4
 62
     4
100
AcDbCircle
 10
245.73868
 20
88.325404
 30
0.0
 40
0.5
100
AcDbArc
 50
90.0
 51
180.0
  0
LINE
  5
AB
330
A
100
AcDbEntity
  8
Hawa4
 62
     4
 48
0.325
100
AcDbLine
 10
245.73868
 20
88.82540400000001
 30
0.0
 11
258.73868
 21
88.82540400000001
 31
0.0
  0
ARC
  5
AC
330
A
100
AcDbEntity
  8
Hawa4
 62
     4
100
AcDbCircle
 10
258.73868
 20
88.325404
 30
0.0
 40
0.5
100
AcDbArc
 50
360.0
 51
450.0
  0
LINE
  5
AD
330
A
100
AcDbEntity
  8
Hawa4
 62
     4
100
AcDbLine
 10
259.23868
 20
88.325404
 30
0.0
 11
259.23868
 21
68.325404
 31
0.0
  0
ARC
  5
AE
330
A
100
AcDbEntity
  8
Hawa4
 62
     4
100
AcDbCircle
 10
258.73868
 20
68.325404
 30
0.0
 40
0.5
100
AcDbArc
 50
270.0
 51
360.0
  0
LINE
  5
AF
330
A
100
AcDbEntity
  8
Hawa4
 62
     4
 48
0.325
100
AcDbLine
 10
245.73868
 20
67.82540400000001
 30
0.0
 11
258.73868
 21
67.82540400000001
 31
0.0
  0
ARC
  5
B0
330
A
100
AcDbEntity
  8
Hawa4
 62
     4
100
AcDbCircle
 10
245.73868
 20
68.325404
 30
0.0
 40
0.5
100
AcDbArc
 50
180.0
 51
270.0
  0
LINE
  5
B1
330
A
100
AcDbEntity
  8
Hawa6
 62
     3
100
AcDbLine
 10
143.403658
 20
67.996166
 30
0.0
 11
204.370882
 21
67.996166
 31
0.0
  0
LINE
  5
B2
330
A
100
AcDbEntity
  8
Hawa4
 62
     4
 48
0.000492
100
AcDbLine
 10
143.403658
 20
67.996166
 30
0.0
 11
143.403658
 21
68.015845
 31
0.0
  0
LINE
  5
B3
330
A
100
AcDbEntity
  8
Hawa4
 62
     4
 48
0.010949
100
AcDbLine
 10
143.403658
 20
68.453804
 30
0.0
 11
143.403658
 21
68.015845
 31
0.0
  0
LINE
  5
B4
330
A
100
AcDbEntity
  8
Hawa6
 62
     3
100
AcDbLine
 10
143.403658
 20
68.453804
 30
0.0
 11
204.370882
 21
68.453804
 31
0.0
  0
LINE
  5
B5
330
A
100
AcDbEntity
  8
Hawa4
 62
     4
 48
0.09629
100
AcDbLine
 10
143.403658
 20
68.453804
 30
0.0
 11
143.403658
 21
72.305419
 31
0.0
  0
LINE
  5
B6
330
A
100
AcDbEntity
  8
Hawa4
 62
     4
 48
0.001382
100
AcDbLine
 10
143.403658
 20
72.77003
 30
0.0
 11
143.403658
 21
72.82530600000001
 31
0.0
  0
LINE
  5
B7
330
A
100
AcDbEntity
  8
Hawa6
 62
     3
100
AcDbLine
 10
143.403658
 20
72.82530600000001
 30
0.0
 11
204.370882
 21
72.82530600000001
 31
0.0
  0
LINE
  5
B8
330
A
100
AcDbEntity
  8
Hawa4
 62
     4
 48
0.012502
100
AcDbLine
 10
143.403658
 20
73.325404
 30
0.0
 11
143.403658
 21
72.82530600000001
 31
0.0
  0
LINE
  5
B9
330
A
100
AcDbEntity
  8
Hawa6
 62
     3
100
AcDbLine
 10
204.370882
 20
68.015845
 30
0.0
 11
143.403658
 21
68.015845
 31
0.0
  0
LINE
  5
BA
330
A
100
AcDbEntity
  8
Hawa6
 62
     3
100
AcDbLine
 10
204.370882
 20
88.654641
 30
0.0
 11
143.403658
 21
88.654641
 31
0.0
  0
LINE
  5
BB
330
A
100
AcDbEntity
  8
Hawa4
 62
     4
 48
0.000492
100
AcDbLine
 10
143.403658
 20
88.654641
 30
0.0
 11
143.403658
 21
88.634962
 31
0.0
  0
LINE
  5
BC
330
A
100
AcDbEntity
  8
Hawa6
 62
     3
100
AcDbLine
 10
204.370882
 20
88.197003
 30
0.0
 11
143.403658
 21
88.197003
 31
0.0
  0
LINE
  5
BD
330
A
100
AcDbEntity
  8
Hawa4
 62
     4
 48
0.010949
100
AcDbLine
 10
143.403658
 20
88.197003
 30
0.0
 11
143.403658
 21
88.63496299999999
 31
0.0
  0
LINE
  5
BE
330
A
100
AcDbEntity
  8
Hawa6
 62
     3
100
AcDbLine
 10
204.370882
 20
83.82550100000001
 30
0.0
 11
143.403658
 21
83.82550100000001
 31
0.0
  0
LINE
  5
BF
330
A
100
AcDbEntity
  8
Hawa4
 62
     4
 48
0.096558
100
AcDbLine
 10
143.403658
 20
84.334681
 30
0.0
 11
143.403658
 21
88.197003
 31
0.0
  0
LINE
  5
C0
330
A
100
AcDbEntity
  8
Hawa4
 62
     4
 48
0.001238
100
AcDbLine
 10
143.403658
 20
83.82550100000001
 30
0.0
 11
143.403658
 21
83.875022
 31
0.0
  0
LINE
  5
C1
330
A
100
AcDbEntity
  8
Hawa5
 62
     1
100
AcDbLine
 10
204.370882
 20
83.325404
 30
0.0
 11
143.403658
 21
83.325404
 31
0.0
  0
LINE
  5
C2
330
A
100
AcDbEntity
  8
Hawa4
 62
     4
 48
0.012502
100
AcDbLine
 10
143.403658
 20
83.325404
 30
0.0
 11
143.403658
 21
83.82550100000001
 31
0.0
  0
LINE
  5
C3
330
A
100
AcDbEntity
  8
Hawa6
 62
     3
100
AcDbLine
 10
143.403658
 20
88.63496299999999
 30
0.0
 11
204.370882
 21
88.63496299999999
 31
0.0
  0
ARC
  5
C4
330
A
100
AcDbEntity
  8
Hawa4
 62
     4
100
AcDbCircle
 10
253.314416
 20
70.675404
 30
0.0
 40
0.6
100
AcDbArc
 50
270.0
 51
450.0
  0
LINE
  5
C5
330
A
100
AcDbEntity
  8
Hawa4
 62
     4
 48
0.125
100
AcDbLine
 10
253.314416
 20
70.075404
 30
0.0
 11
248.314416
 21
70.075404
 31
0.0
  0
LINE
  5
C6
330
A
100
AcDbEntity
  8
Hawa4
 62
     4
 48
0.014142
100
AcDbLine
 10
247.914416
 20
69.675404
 30
0.0
 11
248.314416
 21
70.075404
 31
0.0
  0
LINE
  5
C7
330
A
100
AcDbEntity
  8
Hawa4
 62
     4
 48
0.014142
100
AcDbLine
 10
247.514416
 20
70.075404
 30
0.0
 11
247.914416
 21
69.675404
 31
0.0
  0
LINE
  5
C8
330
A
100
AcDbEntity
  8
Hawa4
 62
     4
 48
0.05875
100
AcDbLine
 10
247.514416
 20
70.075404
 30
0.0
 11
245.164416
 21
70.075404
 31
0.0
  0
ARC
  5
C9
330
A
100
AcDbEntity
  8
Hawa4
 62
     4
100
AcDbCircle
 10
245.164416
 20
69.475404
 30
0.0
 40
0.6
100
AcDbArc
 50
90.0
 51
215.079116
  0
LINE
  5
CA
330
A
100
AcDbEntity
  8
Hawa4
 62
     4
 48
0.033058
100
AcDbLine
 10
245.352855
 20
67.996166
 30
0.0
 11
244.6734
 21
69.130579
 31
0.0
  0
LINE
  5
CB
330
A
100
AcDbEntity
  8
Hawa4
 62
     4
 48
0.006371
100
AcDbLine
 10
245.352855
 20
67.996166
 30
0.0
 11
245.098894
 21
68.01710799999999
 31
0.0
  0
ARC
  5
CC
330
A
100
AcDbEntity
  8
Hawa4
 62
     4
100
AcDbCircle
 10
245.037335
 20
69.515845
 30
0.0
 40
1.5
100
AcDbArc
 50
225.074603
 51
272.35207
  0
ARC
  5
CD
330
A
100
AcDbEntity
  8
Hawa4
 62
     4
100
AcDbCircle
 10
224.113134
 20
52.646653
 30
0.0
 40
25.386531
100
AcDbArc
 50
38.51038300000001
 51
52.641488
  0
ARC
  5
CE
330
A
100
AcDbEntity
  8
Hawa4
 62
     4
100
AcDbCircle
 10
239.681379
 20
73.04858199999999
 30
0.0
 40
0.2768219999999999
100
AcDbArc
 50
90.0
 51
233.762158
  0
SPLINE
  5
CF
330
A
100
AcDbEntity
  8
Hawa4
 62
     4
100
AcDbSpline
210
0.0
220
0.0
230
1.0
 70
     8
 71
     3
 72
    26
 73
    22
 74
     0
 42
0.0000000001
 43
0.0000000001
 40
0.0
 40
0.0
 40
0.0
 40
0.0
 40
0.2799053032571495
 40
0.5569766701720558
 40
0.8318028465371243
 40
1.10514872481035
 40
1.377820895543437
 40
1.650486016717686
 40
1.923735672973514
 40
2.198064096823335
 40
2.473320467761501
 40
2.748944347686588
 40
3.024366183839371
 40
3.299380517134514
 40
3.573530225836808
 40
3.846544756545418
 40
4.119001624977699
 40
4.391841238306758
 40
4.665771665432004
 40
4.940870125284896
 40
5.217302632576782
 40
5.217302632576782
 40
5.217302632576782
 40
5.217302632576782
 10
239.6813792167125
 20
73.32540356911517
 30
0.0
 10
239.7745766755379
 20
73.32031010846053
 30
0.0
 10
239.9596487556777
 20
73.30426227453869
 30
0.0
 10
240.2338528677206
 20
73.26161450202708
 30
0.0
 10
240.5022368886428
 20
73.20024364909072
 30
0.0
 10
240.7641561304728
 20
73.12030678752487
 30
0.0
 10
241.0191647196124
 20
73.02254728417366
 30
0.0
 10
241.2671916105783
 20
72.9083925746997
 30
0.0
 10
241.5087117793982
 20
72.77997587269291
 30
0.0
 10
241.7447476110862
 20
72.64013831581805
 30
0.0
 10
241.9766879351234
 20
72.49220925335612
 30
0.0
 10
242.2061087038556
 20
72.33978747415381
 30
0.0
 10
242.4348347492385
 20
72.18647976867527
 30
0.0
 10
242.6647314316844
 20
72.03580340005737
 30
0.0
 10
242.8975090284166
 20
71.89107731739809
 30
0.0
 10
243.1346602135757
 20
71.75526817661378
 30
0.0
 10
243.3774828349465
 20
71.63075494657777
 30
0.0
 10
243.6269239164961
 20
71.51927491746476
 30
0.0
 10
243.8832063415353
 20
71.42202983352487
 30
0.0
 10
244.1459461722101
 20
71.33974776676746
 30
0.0
 10
244.3243915732632
 20
71.29517921915679
 30
0.0
 10
244.4144155321961
 20
71.2754035691144
 30
0.0
  0
LINE
  5
D0
330
A
100
AcDbEntity
  8
Hawa4
 62
     4
 48
0.072553
100
AcDbLine
 10
244.414416
 20
71.275404
 30
0.0
 11
247.316551
 21
71.275404
 31
0.0
  0
ARC
  5
D1
330
A
100
AcDbEntity
  8
Hawa4
 62
     4
100
AcDbCircle
 10
238.749909
 20
63.25362
 30
0.0
 40
11.736401
100
AcDbArc
 50
43.11875599999999
 51
57.468423
  0
LINE
  5
D2
330
A
100
AcDbEntity
  8
Hawa4
 62
     4
 48
0.0125
100
AcDbLine
 10
245.06149
 20
73.148779
 30
0.0
 11
245.529255
 21
73.325404
 31
0.0
  0
SPLINE
  5
D3
330
A
100
AcDbEntity
  8
Hawa4
 62
     4
100
AcDbSpline
210
0.0
220
0.0
230
1.0
 70
     8
 71
     3
 72
    14
 73
    10
 74
     0
 42
0.0000000001
 43
0.0000000001
 40
0.0
 40
0.0
 40
0.0
 40
0.0
 40
0.5567912818920769
 40
1.117595884496572
 40
1.677108816236269
 40
2.233208358225138
 40
2.788559517683196
 40
3.343697473209628
 40
3.899247083813459
 40
3.899247083813459
 40
3.899247083813459
 40
3.899247083813459
 10
248.8398516163146
 20
71.27540356911364
 30
0.0
 10
248.6877824276465
 20
71.38180624727744
 30
0.0
 10
248.381920671931
 20
71.5944788732235
 30
0.0
 10
247.9209872566041
 20
71.91081266907686
 30
0.0
 10
247.4575116026824
 20
72.22300861012538
 30
0.0
 10
246.9905573953246
 20
72.52671412101229
 30
0.0
 10
246.5162455370436
 20
72.81613848047037
 30
0.0
 10
246.0302470749442
 20
73.0853213279752
 30
0.0
 10
245.6976318003309
 20
73.24821934509462
 30
0.0
 10
245.5292550934757
 20
73.3254035691142
 30
0.0
  0
LINE
  5
D4
330
A
100
AcDbEntity
  8
Hawa4
 62
     4
 48
0.068158
100
AcDbLine
 10
248.839852
 20
71.275404
 30
0.0
 11
251.56617
 21
71.275404
 31
0.0
  0
SPLINE
  5
D5
330
A
100
AcDbEntity
  8
Hawa4
 62
     4
100
AcDbSpline
210
0.0
220
0.0
230
1.0
 70
     8
 71
     3
 72
    14
 73
    10
 74
     0
 42
0.0000000001
 43
0.0000000001
 40
0.0
 40
0.0
 40
0.0
 40
0.0
 40
0.3551788021910713
 40
0.710709687838294
 40
1.06644447295021
 40
1.42207890468193
 40
1.776811573561935
 40
2.131418462505438
 40
2.486903502558118
 40
2.486903502558118
 40
2.486903502558118
 40
2.486903502558118
 10
251.566169737029
 20
71.27540356911321
 30
0.0
 10
251.5054041256323
 20
71.37702063954518
 30
0.0
 10
251.3812300668396
 20
71.57879645387928
 30
0.0
 10
251.1872115113605
 20
71.87671298563677
 30
0.0
 10
250.9849156388689
 20
72.16926791324034
 30
0.0
 10
250.7728941244615
 20
72.45457181858677
 30
0.0
 10
250.5478351293428
 20
72.72933172443962
 30
0.0
 10
250.3057308148535
 20
72.98930210057334
 30
0.0
 10
250.1321298121464
 20
73.15045615251637
 30
0.0
 10
250.042370512962
 20
73.22789759831092
 30
0.0
  0
LINE
  5
D6
330
A
100
AcDbEntity
  8
Hawa4
 62
     4
 48
0.0125
100
AcDbLine
 10
250.042371
 20
73.22789799999999
 30
0.0
 11
250.534774
 21
73.314722
 31
0.0
  0
ARC
  5
D7
330
A
100
AcDbEntity
  8
Hawa4
 62
     4
100
AcDbCircle
 10
240.454782
 20
59.195537
 30
0.0
 40
17.348387
100
AcDbArc
 50
44.131026
 51
54.476135
  0
LINE
  5
D8
330
A
100
AcDbEntity
  8
Hawa4
 62
     4
 48
0.010192
100
AcDbLine
 10
252.906738
 20
71.275404
 30
0.0
 11
253.314416
 21
71.275404
 31
0.0
  0
LINE
  5
D9
330
A
100
AcDbEntity
  8
Hawa4
 62
     4
 48
0.010192
100
AcDbLine
 10
252.906738
 20
85.37540400000001
 30
0.0
 11
253.314416
 21
85.37540400000001
 31
0.0
  0
ARC
  5
DA
330
A
100
AcDbEntity
  8
Hawa4
 62
     4
100
AcDbCircle
 10
240.454782
 20
97.45527
 30
0.0
 40
17.348387
100
AcDbArc
 50
305.523865
 51
315.868974
  0
LINE
  5
DB
330
A
100
AcDbEntity
  8
Hawa4
 62
     4
 48
0.0125
100
AcDbLine
 10
250.042371
 20
83.42291000000001
 30
0.0
 11
250.534774
 21
83.336085
 31
0.0
  0
SPLINE
  5
DC
330
A
100
AcDbEntity
  8
Hawa4
 62
     4
100
AcDbSpline
210
0.0
220
0.0
230
1.0
 70
     8
 71
     3
 72
    14
 73
    10
 74
     0
 42
0.0000000001
 43
0.0000000001
 40
0.0
 40
0.0
 40
0.0
 40
0.0
 40
0.3551788021934668
 40
0.7107096878429939
 40
1.066444472957253
 40
1.42207890469052
 40
1.776811573564159
 40
2.131418462503368
 40
2.486903502557997
 40
2.486903502557997
 40
2.486903502557997
 40
2.486903502557997
 10
251.5661697370991
 20
85.37540356911319
 30
0.0
 10
251.5054041257019
 20
85.27378649868055
 30
0.0
 10
251.381230066908
 20
85.07201068434538
 30
0.0
 10
251.1872115114277
 20
84.77409415258586
 30
0.0
 10
250.9849156389346
 20
84.48153922498079
 30
0.0
 10
250.7728941245273
 20
84.19623531963528
 30
0.0
 10
250.547835129411
 20
83.9214754137844
 30
0.0
 10
250.3057308149227
 20
83.66150503765368
 30
0.0
 10
250.1321298122165
 20
83.5003509857109
 30
0.0
 10
250.0423705130315
 20
83.42290953991595
 30
0.0
  0
LINE
  5
DD
330
A
100
AcDbEntity
  8
Hawa4
 62
     4
 48
0.068158
100
AcDbLine
 10
248.839852
 20
85.37540400000001
 30
0.0
 11
251.56617
 21
85.37540400000001
 31
0.0
  0
SPLINE
  5
DE
330
A
100
AcDbEntity
  8
Hawa4
 62
     4
100
AcDbSpline
210
0.0
220
0.0
230
1.0
 70
     8
 71
     3
 72
    14
 73
    10
 74
     0
 42
0.0000000001
 43
0.0000000001
 40
0.0
 40
0.0
 40
0.0
 40
0.0
 40
0.5567912819089667
 40
1.11759588669878
 40
1.67710881967691
 40
2.233208360891604
 40
2.788559519471449
 40
3.343697474116488
 40
3.899247083813636
 40
3.899247083813636
 40
3.899247083813636
 40
3.899247083813636
 10
248.8398516163846
 20
85.37540356911367
 30
0.0
 10
248.6877824277119
 20
85.26900089094667
 30
0.0
 10
248.3819206713898
 20
85.05632826458697
 30
0.0
 10
247.9209872551049
 20
84.7399944681028
 30
0.0
 10
247.4575116004471
 20
84.42779852656594
 30
0.0
 10
246.9905573931659
 20
84.1240930158138
 30
0.0
 10
246.5162455355625
 20
83.83466865686713
 30
0.0
 10
246.0302470742098
 20
83.56548580985039
 30
0.0
 10
245.6976318001254
 20
83.40258779300768
 30
0.0
 10
245.5292550935451
 20
83.32540356911421
 30
0.0
  0
LINE
  5
DF
330
A
100
AcDbEntity
  8
Hawa4
 62
     4
 48
0.0125
100
AcDbLine
 10
245.06149
 20
83.50202799999999
 30
0.0
 11
245.529255
 21
83.325404
 31
0.0
  0
ARC
  5
E0
330
A
100
AcDbEntity
  8
Hawa4
 62
     4
100
AcDbCircle
 10
238.749909
 20
93.397187
 30
0.0
 40
11.736401
100
AcDbArc
 50
302.531577
 51
316.881244
  0
LINE
  5
E1
330
A
100
AcDbEntity
  8
Hawa4
 62
     4
 48
0.072553
100
AcDbLine
 10
244.414416
 20
85.37540400000001
 30
0.0
 11
247.316551
 21
85.37540400000001
 31
0.0
  0
SPLINE
  5
E2
330
A
100
AcDbEntity
  8
Hawa4
 62
     4
100
AcDbSpline
210
0.0
220
0.0
230
1.0
 70
     8
 71
     3
 72
    26
 73
    22
 74
     0
 42
0.0000000001
 43
0.0000000001
 40
0.0
 40
0.0
 40
0.0
 40
0.0
 40
0.2799053032833589
 40
0.5569766701983989
 40
0.8318028465425491
 40
1.10514872479792
 40
1.377820895537162
 40
1.650486016740629
 40
1.923735673014089
 40
2.19806409684754
 40
2.473320467750556
 40
2.748944347653269
 40
3.024366183816999
 40
3.299380517142771
 40
3.573530225849143
 40
3.846544756525601
 40
4.119001624915046
 40
4.391841238224656
 40
4.665771665368334
 40
4.940870125253808
 40
5.217302632578729
 40
5.217302632578729
 40
5.217302632578729
 40
5.217302632578729
 10
239.681379216782
 20
83.3254035691152
 30
0.0
 10
239.7745766756162
 20
83.33049702977026
 30
0.0
 10
239.9596487557647
 20
83.34654486369286
 30
0.0
 10
240.2338528678098
 20
83.38919263620153
 30
0.0
 10
240.5022368887198
 20
83.4505634891339
 30
0.0
 10
240.7641561305387
 20
83.5305003506995
 30
0.0
 10
241.0191647196823
 20
83.62825985405612
 30
0.0
 10
241.267191610664
 20
83.74241456353798
 30
0.0
 10
241.5087117794928
 20
83.87083126554983
 30
0.0
 10
241.7447476111717
 20
84.01066882241789
 30
0.0
 10
241.9766879351876
 20
84.15859788486727
 30
0.0
 10
242.2061087039062
 20
84.31101966406208
 30
0.0
 10
242.4348347492938
 20
84.4643273695452
 30
0.0
 10
242.664731431753
 20
84.61500373817051
 30
0.0
 10
242.8975090284843
 20
84.75972982083268
 30
0.0
 10
243.1346602136209
 20
84.89553896160881
 30
0.0
 10
243.377482834963
 20
85.02005219163178
 30
0.0
 10
243.6269239164995
 20
85.13153222073821
 30
0.0
 10
243.8832063415476
 20
85.22877730468424
 30
0.0
 10
244.1459461722482
 20
85.31105937145325
 30
0.0
 10
244.3243915733225
 20
85.35562791906965
 30
0.0
 10
244.4144155322662
 20
85.37540356911437
 30
0.0
  0
ARC
  5
E3
330
A
100
AcDbEntity
  8
Hawa4
 62
     4
100
AcDbCircle
 10
239.681379
 20
83.602225
 30
0.0
 40
0.2768219999999999
100
AcDbArc
 50
126.2378419999999
 51
270.0
  0
ARC
  5
E4
330
A
100
AcDbEntity
  8
Hawa4
 62
     4
100
AcDbCircle
 10
224.113134
 20
104.004154
 30
0.0
 40
25.386531
100
AcDbArc
 50
307.358512
 51
321.4896170000001
  0
ARC
  5
E5
330
A
100
AcDbEntity
  8
Hawa4
 62
     4
100
AcDbCircle
 10
245.037335
 20
87.134963
 30
0.0
 40
1.5
100
AcDbArc
 50
87.64793
 51
134.925397
  0
LINE
  5
E6
330
A
100
AcDbEntity
  8
Hawa4
 62
     4
 48
0.006371
100
AcDbLine
 10
245.352855
 20
88.654641
 30
0.0
 11
245.098894
 21
88.633699
 31
0.0
  0
LINE
  5
E7
330
A
100
AcDbEntity
  8
Hawa4
 62
     4
 48
0.033058
100
AcDbLine
 10
245.352855
 20
88.654641
 30
0.0
 11
244.6734
 21
87.520228
 31
0.0
  0
ARC
  5
E8
330
A
100
AcDbEntity
  8
Hawa4
 62
     4
100
AcDbCircle
 10
245.164416
 20
87.175404
 30
0.0
 40
0.6
100
AcDbArc
 50
144.920884
 51
270.0
  0
LINE
  5
E9
330
A
100
AcDbEntity
  8
Hawa4
 62
     4
 48
0.05875
100
AcDbLine
 10
247.514416
 20
86.575404
 30
0.0
 11
245.164416
 21
86.575404
 31
0.0
  0
LINE
  5
EA
330
A
100
AcDbEntity
  8
Hawa4
 62
     4
 48
0.014142
100
AcDbLine
 10
247.514416
 20
86.575404
 30
0.0
 11
247.914416
 21
86.97540399999999
 31
0.0
  0
LINE
  5
EB
330
A
100
AcDbEntity
  8
Hawa4
 62
     4
 48
0.014142
100
AcDbLine
 10
247.914416
 20
86.97540399999999
 30
0.0
 11
248.314416
 21
86.575404
 31
0.0
  0
LINE
  5
EC
330
A
100
AcDbEntity
  8
Hawa4
 62
     4
 48
0.125
100
AcDbLine
 10
253.314416
 20
86.575404
 30
0.0
 11
248.314416
 21
86.575404
 31
0.0
  0
ARC
  5
ED
330
A
100
AcDbEntity
  8
Hawa4
 62
     4
100
AcDbCircle
 10
253.314416
 20
85.97540399999999
 30
0.0
 40
0.6
100
AcDbArc
 50
270.0
 51
450.0
  0
SPLINE
  5
EE
330
A
100
AcDbEntity
  8
Hawa4
 62
     4
100
AcDbSpline
210
0.0
220
0.0
230
1.0
 70
     8
 71
     3
 72
    26
 73
    22
 74
     0
 42
0.0000000001
 43
0.0000000001
 40
0.0
 40
0.0
 40
0.0
 40
0.0
 40
0.2852896173035391
 40
0.5647955282442352
 40
0.8399198313648499
 40
1.112128606397981
 40
1.382861347886387
 40
1.653398149363984
 40
1.924707996812438
 40
2.197320498875034
 40
2.471289199182991
 40
2.746268081625304
 40
3.021668222390583
 40
3.296853380787111
 40
3.571335182313596
 40
3.844930520204751
 40
4.117845379057672
 40
4.390655143983906
 40
4.664192364005195
 40
4.939414517303482
 40
5.217301580200913
 40
5.217301580200913
 40
5.217301580200913
 40
5.217301580200913
 10
239.6813792167128
 20
73.32540356911508
 30
0.0
 10
239.7763709272709
 20
73.32021204837684
 30
0.0
 10
239.9640355334262
 20
73.30382275308743
 30
0.0
 10
240.2408488418996
 20
73.26030178680125
 30
0.0
 10
240.509625029721
 20
73.19825764824365
 30
0.0
 10
240.7704989912146
 20
73.11808042339357
 30
0.0
 10
241.0237371942352
 20
73.02056438836557
 30
0.0
 10
241.2698396261829
 20
72.90702960773214
 30
0.0
 10
241.5096126354989
 20
72.77944023801838
 30
0.0
 10
241.7442310903656
 20
72.6404453486834
 30
0.0
 10
241.9751621935986
 20
72.49319595318048
 30
0.0
 10
242.2040554794186
 20
72.34115732842841
 30
0.0
 10
242.432643474485
 20
72.18794060290193
 30
0.0
 10
242.6626487577785
 20
72.03713771779233
 30
0.0
 10
242.8956926221888
 20
71.89215614785424
 30
0.0
 10
243.1331997775721
 20
71.75604830985533
 30
0.0
 10
243.3762957396157
 20
71.63133022283694
 30
0.0
 10
243.6257194558456
 20
71.51978375468475
 30
0.0
 10
243.8818767873414
 20
71.42249186058055
 30
0.0
 10
244.144966910612
 20
71.34000478116262
 30
0.0
 10
244.3239175783094
 20
71.29528334208628
 30
0.0
 10
244.4144155321965
 20
71.27540356911429
 30
0.0
  0
SPLINE
  5
EF
330
A
100
AcDbEntity
  8
Hawa4
 62
     4
100
AcDbSpline
210
0.0
220
0.0
230
1.0
 70
     8
 71
     3
 72
    14
 73
    10
 74
     0
 42
0.0000000001
 43
0.0000000001
 40
0.0
 40
0.0
 40
0.0
 40
0.0
 40
0.5563202239734196
 40
1.113387449801112
 40
1.670982285656705
 40
2.228598060610857
 40
2.785688833762121
 40
3.342273949627319
 40
3.899246304631838
 40
3.899246304631838
 40
3.899246304631838
 40
3.899246304631838
 10
248.8398516163149
 20
71.27540356911355
 30
0.0
 10
248.6879110786217
 20
71.38171623030288
 30
0.0
 10
248.3832034603443
 20
71.59359144049567
 30
0.0
 10
247.9239575001266
 20
71.90877489389905
 30
0.0
 10
247.4616586544172
 20
72.22024761941085
 30
0.0
 10
246.9943976513621
 20
72.52429881993283
 30
0.0
 10
246.5188205662956
 20
72.81466009145858
 30
0.0
 10
246.0315279558866
 20
73.08468072304629
 30
0.0
 10
245.6980632057156
 20
73.24802158799105
 30
0.0
 10
245.529255093476
 20
73.32540356911408
 30
0.0
  0
ARC
  5
F1
330
A
100
AcDbEntity
  8
Hawa4
 62
     4
100
AcDbCircle
 10
224.056242
 20
104.071498
 30
0.0
 40
25.474625
100
AcDbArc
 50
307.36831
 51
313.791102
  0
ARC
  5
F2
330
A
100
AcDbEntity
  8
Hawa4
 62
     4
100
AcDbCircle
 10
238.687719
 20
93.47852399999998
 30
0.0
 40
11.838594
100
AcDbArc
 50
302.573644
 51
313.749319
  0
ARC
  5
F3
330
A
100
AcDbEntity
  8
Hawa4
 62
     4
100
AcDbCircle
 10
246.853126
 20
87.119663
 30
0.0
 40
4.882341999999999
100
AcDbArc
 50
310.784833
 51
313.272977
  0
ARC
  5
F4
330
A
100
AcDbEntity
  8
Hawa4
 62
     4
100
AcDbCircle
 10
240.556226
 20
97.329875
 30
0.0
 40
17.187257
100
AcDbArc
 50
305.49152
 51
313.548096
  0
LINE
  5
F5
330
A
100
AcDbEntity
  8
Hawa4
 62
     4
 48
0.01375
100
AcDbLine
 10
130.953658
 20
86.475404
 30
0.0
 11
130.403658
 21
86.475404
 31
0.0
  0
ARC
  5
F6
330
A
100
AcDbEntity
  8
Hawa4
 62
     4
100
AcDbCircle
 10
130.953658
 20
86.17540400000001
 30
0.0
 40
0.3
100
AcDbArc
 50
360.0
 51
450.0
  0
LINE
  5
F7
330
A
100
AcDbEntity
  8
Hawa4
 62
     4
 48
0.01625
100
AcDbLine
 10
131.253658
 20
85.52540400000001
 30
0.0
 11
131.253658
 21
86.17540400000001
 31
0.0
  0
ARC
  5
F8
330
A
100
AcDbEntity
  8
Hawa4
 62
     4
100
AcDbCircle
 10
131.053658
 20
85.52540400000001
 30
0.0
 40
0.2
100
AcDbArc
 50
270.0
 51
360.0
  0
LINE
  5
F9
330
A
100
AcDbEntity
  8
Hawa4
 62
     4
 48
0.004375
100
AcDbLine
 10
130.878658
 20
85.325404
 30
0.0
 11
131.053658
 21
85.325404
 31
0.0
  0
ARC
  5
FA
330
A
100
AcDbEntity
  8
Hawa4
 62
     4
100
AcDbCircle
 10
130.878658
 20
85.025404
 30
0.0
 40
0.3
100
AcDbArc
 50
90.0
 51
180.0
  0
LINE
  5
FB
330
A
100
AcDbEntity
  8
Hawa4
 62
     4
 48
0.11
100
AcDbLine
 10
130.578658
 20
85.025404
 30
0.0
 11
130.578658
 21
80.62540400000001
 31
0.0
  0
ARC
  5
FC
330
A
100
AcDbEntity
  8
Hawa4
 62
     4
100
AcDbCircle
 10
130.878658
 20
80.62540400000001
 30
0.0
 40
0.3
100
AcDbArc
 50
180.0
 51
270.0
  0
LINE
  5
FD
330
A
100
AcDbEntity
  8
Hawa4
 62
     4
 48
0.010233
100
AcDbLine
 10
131.287972
 20
80.325404
 30
0.0
 11
130.878658
 21
80.325404
 31
0.0
  0
ARC
  5
FE
330
A
100
AcDbEntity
  8
Hawa4
 62
     4
100
AcDbCircle
 10
131.287972
 20
80.125404
 30
0.0
 40
0.2
100
AcDbArc
 50
45.0
 51
90.0
  0
LINE
  5
FF
330
A
100
AcDbEntity
  8
Hawa4
 62
     4
 48
0.006464
100
AcDbLine
 10
131.612236
 20
80.083982
 30
0.0
 11
131.429394
 21
80.26682499999999
 31
0.0
  0
ARC
  5
100
330
A
100
AcDbEntity
  8
Hawa4
 62
     4
100
AcDbCircle
 10
131.753658
 20
80.225404
 30
0.0
 40
0.2
100
AcDbArc
 50
225.0
 51
315.0
  0
LINE
  5
101
330
A
100
AcDbEntity
  8
Hawa4
 62
     4
 48
0.006464
100
AcDbLine
 10
132.077922
 20
80.26682499999999
 30
0.0
 11
131.895079
 21
80.083982
 31
0.0
  0
ARC
  5
102
330
A
100
AcDbEntity
  8
Hawa4
 62
     4
100
AcDbCircle
 10
132.219343
 20
80.125404
 30
0.0
 40
0.2
100
AcDbArc
 50
90.0
 51
135.0
  0
LINE
  5
103
330
A
100
AcDbEntity
  8
Hawa4
 62
     4
 48
0.014216
100
AcDbLine
 10
132.787972
 20
80.325404
 30
0.0
 11
132.219343
 21
80.325404
 31
0.0
  0
ARC
  5
104
330
A
100
AcDbEntity
  8
Hawa4
 62
     4
100
AcDbCircle
 10
132.787972
 20
80.125404
 30
0.0
 40
0.2
100
AcDbArc
 50
45.0
 51
90.0
  0
LINE
  5
105
330
A
100
AcDbEntity
  8
Hawa4
 62
     4
 48
0.006464
100
AcDbLine
 10
133.112236
 20
80.083982
 30
0.0
 11
132.929394
 21
80.26682499999999
 31
0.0
  0
ARC
  5
106
330
A
100
AcDbEntity
  8
Hawa4
 62
     4
100
AcDbCircle
 10
133.253658
 20
80.225404
 30
0.0
 40
0.2
100
AcDbArc
 50
225.0
 51
315.0
  0
LINE
  5
107
330
A
100
AcDbEntity
  8
Hawa4
 62
     4
 48
0.006464
100
AcDbLine
 10
133.577922
 20
80.26682499999999
 30
0.0
 11
133.395079
 21
80.083982
 31
0.0
  0
ARC
  5
108
330
A
100
AcDbEntity
  8
Hawa4
 62
     4
100
AcDbCircle
 10
133.719343
 20
80.125404
 30
0.0
 40
0.2
100
AcDbArc
 50
90.0
 51
135.0
  0
LINE
  5
109
330
A
100
AcDbEntity
  8
Hawa4
 62
     4
 48
0.010233
100
AcDbLine
 10
134.128658
 20
80.325404
 30
0.0
 11
133.719343
 21
80.325404
 31
0.0
  0
ARC
  5
10A
330
A
100
AcDbEntity
  8
Hawa4
 62
     4
100
AcDbCircle
 10
134.128658
 20
80.62540400000001
 30
0.0
 40
0.3
100
AcDbArc
 50
270.0
 51
360.0
  0
LINE
  5
10B
330
A
100
AcDbEntity
  8
Hawa4
 62
     4
 48
0.11
100
AcDbLine
 10
134.428658
 20
85.025404
 30
0.0
 11
134.428658
 21
80.62540400000001
 31
0.0
  0
ARC
  5
10C
330
A
100
AcDbEntity
  8
Hawa4
 62
     4
100
AcDbCircle
 10
134.128658
 20
85.025404
 30
0.0
 40
0.3
100
AcDbArc
 50
360.0
 51
450.0
  0
LINE
  5
10D
330
A
100
AcDbEntity
  8
Hawa4
 62
     4
 48
0.004375
100
AcDbLine
 10
133.953658
 20
85.325404
 30
0.0
 11
134.128658
 21
85.325404
 31
0.0
  0
ARC
  5
10E
330
A
100
AcDbEntity
  8
Hawa4
 62
     4
100
AcDbCircle
 10
133.953658
 20
85.52540400000001
 30
0.0
 40
0.2
100
AcDbArc
 50
180.0
 51
270.0
  0
LINE
  5
10F
330
A
100
AcDbEntity
  8
Hawa4
 62
     4
 48
0.01625
100
AcDbLine
 10
133.753658
 20
86.17540400000001
 30
0.0
 11
133.753658
 21
85.52540400000001
 31
0.0
  0
ARC
  5
110
330
A
100
AcDbEntity
  8
Hawa4
 62
     4
100
AcDbCircle
 10
134.053658
 20
86.17540400000001
 30
0.0
 40
0.3
100
AcDbArc
 50
90.0
 51
180.0
  0
LINE
  5
111
330
A
100
AcDbEntity
  8
Hawa4
 62
     4
 48
0.22125
100
AcDbLine
 10
142.903658
 20
86.475404
 30
0.0
 11
134.053658
 21
86.475404
 31
0.0
  0
ARC
  5
112
330
A
100
AcDbEntity
  8
Hawa4
 62
     4
100
AcDbCircle
 10
142.903658
 20
85.97540399999999
 30
0.0
 40
0.5
100
AcDbArc
 50
0.0
 51
90.0
  0
LINE
  5
113
330
A
100
AcDbEntity
  8
Hawa4
 62
     4
 48
0.02375
100
AcDbLine
 10
143.403658
 20
85.025404
 30
0.0
 11
143.403658
 21
85.97540399999999
 31
0.0
  0
ARC
  5
114
330
A
100
AcDbEntity
  8
Hawa4
 62
     4
100
AcDbCircle
 10
142.903658
 20
85.025404
 30
0.0
 40
0.5
100
AcDbArc
 50
270.0
 51
360.0
  0
LINE
  5
115
330
A
100
AcDbEntity
  8
Hawa4
 62
     4
 48
0.0075
100
AcDbLine
 10
142.603658
 20
84.52540400000001
 30
0.0
 11
142.903658
 21
84.52540400000001
 31
0.0
  0
ARC
  5
116
330
A
100
AcDbEntity
  8
Hawa4
 62
     4
100
AcDbCircle
 10
142.603658
 20
84.72540399999999
 30
0.0
 40
0.2
100
AcDbArc
 50
180.0
 51
270.0
  0
ARC
  5
117
330
A
100
AcDbEntity
  8
Hawa4
 62
     4
100
AcDbCircle
 10
142.203658
 20
84.72540399999999
 30
0.0
 40
0.2
100
AcDbArc
 50
360.0
 51
450.0
  0
LINE
  5
118
330
A
100
AcDbEntity
  8
Hawa4
 62
     4
 48
0.045
100
AcDbLine
 10
140.403658
 20
84.92540400000001
 30
0.0
 11
142.203658
 21
84.92540400000001
 31
0.0
  0
ARC
  5
119
330
A
100
AcDbEntity
  8
Hawa4
 62
     4
100
AcDbCircle
 10
140.403658
 20
84.72540399999999
 30
0.0
 40
0.2
100
AcDbArc
 50
90.0
 51
180.0
  0
ARC
  5
11A
330
A
100
AcDbEntity
  8
Hawa4
 62
     4
100
AcDbCircle
 10
140.003658
 20
84.72540399999999
 30
0.0
 40
0.2
100
AcDbArc
 50
270.0
 51
360.0
  0
LINE
  5
11B
330
A
100
AcDbEntity
  8
Hawa4
 62
     4
 48
0.09
100
AcDbLine
 10
136.403658
 20
84.52540400000001
 30
0.0
 11
140.003658
 21
84.52540400000001
 31
0.0
  0
ARC
  5
11C
330
A
100
AcDbEntity
  8
Hawa4
 62
     4
100
AcDbCircle
 10
136.403658
 20
84.02540400000001
 30
0.0
 40
0.5
100
AcDbArc
 50
90.0
 51
180.0
  0
LINE
  5
11D
330
A
100
AcDbEntity
  8
Hawa4
 62
     4
 48
0.034393
100
AcDbLine
 10
135.903658
 20
82.64966800000001
 30
0.0
 11
135.903658
 21
84.02540400000001
 31
0.0
  0
ARC
  5
11E
330
A
100
AcDbEntity
  8
Hawa4
 62
     4
100
AcDbCircle
 10
136.203658
 20
82.64966800000001
 30
0.0
 40
0.3
100
AcDbArc
 50
180.0
 51
225.0
  0
LINE
  5
11F
330
A
100
AcDbEntity
  8
Hawa4
 62
     4
 48
0.000858
100
AcDbLine
 10
136.01579
 20
82.41327199999998
 30
0.0
 11
135.991526
 21
82.43753599999999
 31
0.0
  0
ARC
  5
120
330
A
100
AcDbEntity
  8
Hawa4
 62
     4
100
AcDbCircle
 10
135.803658
 20
82.20114
 30
0.0
 40
0.3
100
AcDbArc
 50
0.0
 51
45.0
  0
LINE
  5
121
330
A
100
AcDbEntity
  8
Hawa4
 62
     4
 48
0.089393
100
AcDbLine
 10
136.103658
 20
78.625404
 30
0.0
 11
136.103658
 21
82.20114
 31
0.0
  0
LINE
  5
122
330
A
100
AcDbEntity
  8
Hawa4
 62
     4
 48
0.010607
100
AcDbLine
 10
136.103658
 20
78.625404
 30
0.0
 11
135.803658
 21
78.325404
 31
0.0
  0
LINE
  5
123
330
A
100
AcDbEntity
  8
Hawa4
 62
     4
 48
0.010607
100
AcDbLine
 10
136.103658
 20
78.02540400000001
 30
0.0
 11
135.803658
 21
78.325404
 31
0.0
  0
LINE
  5
124
330
A
100
AcDbEntity
  8
Hawa4
 62
     4
 48
0.089393
100
AcDbLine
 10
136.103658
 20
74.449668
 30
0.0
 11
136.103658
 21
78.02540400000001
 31
0.0
  0
ARC
  5
125
330
A
100
AcDbEntity
  8
Hawa4
 62
     4
100
AcDbCircle
 10
135.803658
 20
74.449668
 30
0.0
 40
0.3
100
AcDbArc
 50
315.0
 51
360.0
  0
LINE
  5
126
330
A
100
AcDbEntity
  8
Hawa4
 62
     4
 48
0.000858
100
AcDbLine
 10
135.991526
 20
74.213272
 30
0.0
 11
136.01579
 21
74.23753599999999
 31
0.0
  0
ARC
  5
127
330
A
100
AcDbEntity
  8
Hawa4
 62
     4
100
AcDbCircle
 10
136.203658
 20
74.00114000000001
 30
0.0
 40
0.3
100
AcDbArc
 50
135.0
 51
180.0
  0
LINE
  5
128
330
A
100
AcDbEntity
  8
Hawa4
 62
     4
 48
0.034393
100
AcDbLine
 10
135.903658
 20
72.625404
 30
0.0
 11
135.903658
 21
74.00114000000001
 31
0.0
  0
ARC
  5
129
330
A
100
AcDbEntity
  8
Hawa4
 62
     4
100
AcDbCircle
 10
136.403658
 20
72.625404
 30
0.0
 40
0.5
100
AcDbArc
 50
180.0
 51
270.0
  0
LINE
  5
12A
330
A
100
AcDbEntity
  8
Hawa4
 62
     4
 48
0.09
100
AcDbLine
 10
140.003658
 20
72.125404
 30
0.0
 11
136.403658
 21
72.125404
 31
0.0
  0
ARC
  5
12B
330
A
100
AcDbEntity
  8
Hawa4
 62
     4
100
AcDbCircle
 10
140.003658
 20
71.925404
 30
0.0
 40
0.2
100
AcDbArc
 50
360.0
 51
450.0
  0
ARC
  5
12C
330
A
100
AcDbEntity
  8
Hawa4
 62
     4
100
AcDbCircle
 10
140.403658
 20
71.925404
 30
0.0
 40
0.2
100
AcDbArc
 50
180.0
 51
270.0
  0
LINE
  5
12D
330
A
100
AcDbEntity
  8
Hawa4
 62
     4
 48
0.045
100
AcDbLine
 10
142.203658
 20
71.72540399999999
 30
0.0
 11
140.403658
 21
71.72540399999999
 31
0.0
  0
ARC
  5
12E
330
A
100
AcDbEntity
  8
Hawa4
 62
     4
100
AcDbCircle
 10
142.203658
 20
71.925404
 30
0.0
 40
0.2
100
AcDbArc
 50
270.0
 51
360.0
  0
ARC
  5
12F
330
A
100
AcDbEntity
  8
Hawa4
 62
     4
100
AcDbCircle
 10
142.603658
 20
71.925404
 30
0.0
 40
0.2
100
AcDbArc
 50
90.0
 51
180.0
  0
LINE
  5
130
330
A
100
AcDbEntity
  8
Hawa4
 62
     4
 48
0.0075
100
AcDbLine
 10
142.903658
 20
72.125404
 30
0.0
 11
142.603658
 21
72.125404
 31
0.0
  0
ARC
  5
131
330
A
100
AcDbEntity
  8
Hawa4
 62
     4
100
AcDbCircle
 10
142.903658
 20
71.62540400000001
 30
0.0
 40
0.5
100
AcDbArc
 50
0.0
 51
90.0
  0
LINE
  5
132
330
A
100
AcDbEntity
  8
Hawa4
 62
     4
 48
0.02375
100
AcDbLine
 10
143.403658
 20
70.675404
 30
0.0
 11
143.403658
 21
71.62540400000001
 31
0.0
  0
ARC
  5
133
330
A
100
AcDbEntity
  8
Hawa4
 62
     4
100
AcDbCircle
 10
142.903658
 20
70.675404
 30
0.0
 40
0.5
100
AcDbArc
 50
270.0
 51
360.0
  0
LINE
  5
134
330
A
100
AcDbEntity
  8
Hawa4
 62
     4
 48
0.3125
100
AcDbLine
 10
130.403658
 20
70.175404
 30
0.0
 11
142.903658
 21
70.175404
 31
0.0
  0
ARC
  5
135
330
A
100
AcDbEntity
  8
Hawa4
 62
     4
100
AcDbCircle
 10
130.403658
 20
71.175404
 30
0.0
 40
1.0
100
AcDbArc
 50
180.0
 51
270.0
  0
LINE
  5
136
330
A
100
AcDbEntity
  8
Hawa4
 62
     4
 48
0.3575
100
AcDbLine
 10
129.403658
 20
85.475404
 30
0.0
 11
129.403658
 21
71.175404
 31
0.0
  0
ARC
  5
137
330
A
100
AcDbEntity
  8
Hawa6
 62
     3
100
AcDbCircle
 10
130.403658
 20
85.475404
 30
0.0
 40
1.0
100
AcDbArc
 50
90.0
 51
180.0
  0
LINE
  5
138
330
A
100
AcDbEntity
  8
Hawa4
 62
     4
 48
0.088096
100
AcDbLine
 10
140.227501
 20
84.52540400000001
 30
0.0
 11
136.703658
 21
84.52540400000001
 31
0.0
  0
ARC
  5
139
330
A
100
AcDbEntity
  8
Hawa4
 62
     4
100
AcDbCircle
 10
140.227501
 20
84.72540399999999
 30
0.0
 40
0.2
100
AcDbArc
 50
270.0
 51
359.999998
  0
ARC
  5
13A
330
A
100
AcDbEntity
  8
Hawa4
 62
     4
100
AcDbCircle
 10
140.627501
 20
84.72540399999999
 30
0.0
 40
0.2
100
AcDbArc
 50
90.0
 51
180.000002
  0
LINE
  5
13B
330
A
100
AcDbEntity
  8
Hawa4
 62
     4
 48
0.035
100
AcDbLine
 10
142.027501
 20
84.92540400000001
 30
0.0
 11
140.627501
 21
84.92540400000001
 31
0.0
  0
ARC
  5
13C
330
A
100
AcDbEntity
  8
Hawa4
 62
     4
100
AcDbCircle
 10
142.027501
 20
84.72540399999999
 30
0.0
 40
0.2
100
AcDbArc
 50
360.0
 51
450.0
  0
ARC
  5
13D
330
A
100
AcDbEntity
  8
Hawa4
 62
     4
100
AcDbCircle
 10
142.427501
 20
84.72540399999999
 30
0.0
 40
0.2
100
AcDbArc
 50
180.0
 51
270.0
  0
LINE
  5
13E
330
A
100
AcDbEntity
  8
Hawa4
 62
     4
 48
0.0175
100
AcDbLine
 10
143.127501
 20
84.52540400000001
 30
0.0
 11
142.427501
 21
84.52540400000001
 31
0.0
  0
ARC
  5
13F
330
A
100
AcDbEntity
  8
Hawa4
 62
     4
100
AcDbCircle
 10
143.127501
 20
84.225404
 30
0.0
 40
0.3
100
AcDbArc
 50
360.0
 51
450.0
  0
LINE
  5
140
330
A
100
AcDbEntity
  8
Hawa4
 62
     4
 48
0.004822
100
AcDbLine
 10
143.427501
 20
84.225404
 30
0.0
 11
143.427501
 21
84.03251
 31
0.0
  0
ARC
  5
141
330
A
100
AcDbEntity
  8
Hawa4
 62
     4
100
AcDbCircle
 10
142.927501
 20
84.03251
 30
0.0
 40
0.5
100
AcDbArc
 50
305.233887
 51
360.0
  0
LINE
  5
142
330
A
100
AcDbEntity
  8
Hawa4
 62
     4
 48
0.012944
100
AcDbLine
 10
143.215959
 20
83.62410799999999
 30
0.0
 11
142.793049
 21
83.325404
 31
0.0
  0
LINE
  5
143
330
A
100
AcDbEntity
  8
Hawa4
 62
     4
 48
0.011616
100
AcDbLine
 10
142.793049
 20
83.325404
 30
0.0
 11
142.3284149999999
 21
83.325404
 31
0.0
  0
LINE
  5
144
330
A
100
AcDbEntity
  8
Hawa4
 62
     4
 48
0.011486
100
AcDbLine
 10
142.646503
 20
83.65692299999999
 30
0.0
 11
142.3284149999999
 21
83.325404
 31
0.0
  0
ARC
  5
145
330
A
100
AcDbEntity
  8
Hawa4
 62
     4
100
AcDbCircle
 10
142.574346
 20
83.726157
 30
0.0
 40
0.1
100
AcDbArc
 50
316.184434
 51
450.0
  0
LINE
  5
146
330
A
100
AcDbEntity
  8
Hawa4
 62
     4
 48
0.041928
100
AcDbLine
 10
140.897215
 20
83.826157
 30
0.0
 11
142.574346
 21
83.826157
 31
0.0
  0
ARC
  5
147
330
A
100
AcDbEntity
  8
Hawa4
 62
     4
100
AcDbCircle
 10
140.897215
 20
83.62615699999999
 30
0.0
 40
0.2
100
AcDbArc
 50
90.0
 51
144.314665
  0
ARC
  5
148
330
A
100
AcDbEntity
  8
Hawa4
 62
     4
100
AcDbCircle
 10
139.922536
 20
84.32615699999999
 30
0.0
 40
1.0
100
AcDbArc
 50
215.685335
 51
324.314665
  0
ARC
  5
149
330
A
100
AcDbEntity
  8
Hawa4
 62
     4
100
AcDbCircle
 10
138.947856
 20
83.62615699999999
 30
0.0
 40
0.2
100
AcDbArc
 50
35.685335
 51
90.0
  0
LINE
  5
14A
330
A
100
AcDbEntity
  8
Hawa4
 62
     4
 48
0.052529
100
AcDbLine
 10
136.846678
 20
83.826157
 30
0.0
 11
138.947856
 21
83.826157
 31
0.0
  0
ARC
  5
14B
330
A
100
AcDbEntity
  8
Hawa4
 62
     4
100
AcDbCircle
 10
136.853658
 20
83.626278
 30
0.0
 40
0.2
100
AcDbArc
 50
92.0
 51
180.0
  0
LINE
  5
14C
330
A
100
AcDbEntity
  8
Hawa4
 62
     4
 48
0.012078
100
AcDbLine
 10
136.653658
 20
83.626278
 30
0.0
 11
136.653658
 21
83.143171
 31
0.0
  0
ARC
  5
14D
330
A
100
AcDbEntity
  8
Hawa4
 62
     4
100
AcDbCircle
 10
136.953658
 20
83.143171
 30
0.0
 40
0.3
100
AcDbArc
 50
180.0
 51
225.0
  0
LINE
  5
14E
330
A
100
AcDbEntity
  8
Hawa4
 62
     4
 48
0.001893
100
AcDbLine
 10
136.741526
 20
82.931038
 30
0.0
 11
136.795079
 21
82.87748499999999
 31
0.0
  0
ARC
  5
14F
330
A
100
AcDbEntity
  8
Hawa4
 62
     4
100
AcDbCircle
 10
136.653658
 20
82.736064
 30
0.0
 40
0.2
100
AcDbArc
 50
0.0
 51
45.0
  0
LINE
  5
150
330
A
100
AcDbEntity
  8
Hawa4
 62
     4
 48
0.110267
100
AcDbLine
 10
136.853658
 20
78.325404
 30
0.0
 11
136.853658
 21
82.736064
 31
0.0
  0
LINE
  5
151
330
A
100
AcDbEntity
  8
Hawa4
 62
     4
 48
0.110267
100
AcDbLine
 10
136.853658
 20
73.914743
 30
0.0
 11
136.853658
 21
78.325404
 31
0.0
  0
ARC
  5
152
330
A
100
AcDbEntity
  8
Hawa4
 62
     4
100
AcDbCircle
 10
136.653658
 20
73.914743
 30
0.0
 40
0.2
100
AcDbArc
 50
315.0
 51
360.0
  0
LINE
  5
153
330
A
100
AcDbEntity
  8
Hawa4
 62
     4
 48
0.001893
100
AcDbLine
 10
136.741526
 20
73.71976899999999
 30
0.0
 11
136.795079
 21
73.77332199999999
 31
0.0
  0
ARC
  5
154
330
A
100
AcDbEntity
  8
Hawa4
 62
     4
100
AcDbCircle
 10
136.953658
 20
73.507637
 30
0.0
 40
0.3
100
AcDbArc
 50
135.0
 51
180.0
  0
LINE
  5
155
330
A
100
AcDbEntity
  8
Hawa4
 62
     4
 48
0.012078
100
AcDbLine
 10
136.653658
 20
73.507637
 30
0.0
 11
136.653658
 21
73.024529
 31
0.0
  0
ARC
  5
156
330
A
100
AcDbEntity
  8
Hawa4
 62
     4
100
AcDbCircle
 10
136.853658
 20
73.024529
 30
0.0
 40
0.2
100
AcDbArc
 50
180.0
 51
268.0
  0
LINE
  5
157
330
A
100
AcDbEntity
  8
Hawa4
 62
     4
 48
0.052529
100
AcDbLine
 10
136.846678
 20
72.82465000000001
 30
0.0
 11
138.947856
 21
72.82465000000001
 31
0.0
  0
ARC
  5
158
330
A
100
AcDbEntity
  8
Hawa4
 62
     4
100
AcDbCircle
 10
138.947856
 20
73.02464999999999
 30
0.0
 40
0.2
100
AcDbArc
 50
270.0
 51
324.314665
  0
ARC
  5
159
330
A
100
AcDbEntity
  8
Hawa4
 62
     4
100
AcDbCircle
 10
139.922536
 20
72.32465000000001
 30
0.0
 40
1.0
100
AcDbArc
 50
35.685335
 51
144.314665
  0
ARC
  5
15A
330
A
100
AcDbEntity
  8
Hawa4
 62
     4
100
AcDbCircle
 10
140.897215
 20
73.02464999999999
 30
0.0
 40
0.2
100
AcDbArc
 50
215.685335
 51
270.0
  0
LINE
  5
15B
330
A
100
AcDbEntity
  8
Hawa4
 62
     4
 48
0.041928
100
AcDbLine
 10
140.897215
 20
72.82465000000001
 30
0.0
 11
142.574346
 21
72.82465000000001
 31
0.0
  0
ARC
  5
15C
330
A
100
AcDbEntity
  8
Hawa4
 62
     4
100
AcDbCircle
 10
142.574346
 20
72.92464999999999
 30
0.0
 40
0.1
100
AcDbArc
 50
270.0
 51
403.815566
  0
LINE
  5
15D
330
A
100
AcDbEntity
  8
Hawa4
 62
     4
 48
0.011486
100
AcDbLine
 10
142.646503
 20
72.99388399999999
 30
0.0
 11
142.3284149999999
 21
73.325404
 31
0.0
  0
LINE
  5
15E
330
A
100
AcDbEntity
  8
Hawa4
 62
     4
 48
0.011616
100
AcDbLine
 10
142.793049
 20
73.325404
 30
0.0
 11
142.3284149999999
 21
73.325404
 31
0.0
  0
LINE
  5
15F
330
A
100
AcDbEntity
  8
Hawa4
 62
     4
 48
0.012944
100
AcDbLine
 10
143.215959
 20
73.02669899999999
 30
0.0
 11
142.793049
 21
73.325404
 31
0.0
  0
ARC
  5
160
330
A
100
AcDbEntity
  8
Hawa4
 62
     4
100
AcDbCircle
 10
142.927501
 20
72.61829699999999
 30
0.0
 40
0.5
100
AcDbArc
 50
360.0
 51
414.7661129999999
  0
LINE
  5
161
330
A
100
AcDbEntity
  8
Hawa4
 62
     4
 48
0.004822
100
AcDbLine
 10
143.427501
 20
72.61829699999999
 30
0.0
 11
143.427501
 21
72.425404
 31
0.0
  0
ARC
  5
162
330
A
100
AcDbEntity
  8
Hawa4
 62
     4
100
AcDbCircle
 10
143.127501
 20
72.425404
 30
0.0
 40
0.3
100
AcDbArc
 50
270.0
 51
360.0
  0
LINE
  5
163
330
A
100
AcDbEntity
  8
Hawa4
 62
     4
 48
0.0175
100
AcDbLine
 10
143.127501
 20
72.125404
 30
0.0
 11
142.427501
 21
72.125404
 31
0.0
  0
ARC
  5
164
330
A
100
AcDbEntity
  8
Hawa4
 62
     4
100
AcDbCircle
 10
142.427501
 20
71.925404
 30
0.0
 40
0.2
100
AcDbArc
 50
90.0
 51
180.0
  0
ARC
  5
165
330
A
100
AcDbEntity
  8
Hawa4
 62
     4
100
AcDbCircle
 10
142.027501
 20
71.925404
 30
0.0
 40
0.2
100
AcDbArc
 50
270.0
 51
360.0
  0
LINE
  5
166
330
A
100
AcDbEntity
  8
Hawa4
 62
     4
 48
0.035
100
AcDbLine
 10
142.027501
 20
71.72540399999999
 30
0.0
 11
140.627501
 21
71.72540399999999
 31
0.0
  0
ARC
  5
167
330
A
100
AcDbEntity
  8
Hawa4
 62
     4
100
AcDbCircle
 10
140.627501
 20
71.925404
 30
0.0
 40
0.2
100
AcDbArc
 50
179.999998
 51
270.0
  0
ARC
  5
168
330
A
100
AcDbEntity
  8
Hawa4
 62
     4
100
AcDbCircle
 10
140.227501
 20
71.925404
 30
0.0
 40
0.2
100
AcDbArc
 50
0.000002
 51
90.0
  0
LINE
  5
169
330
A
100
AcDbEntity
  8
Hawa4
 62
     4
 48
0.088096
100
AcDbLine
 10
140.227501
 20
72.125404
 30
0.0
 11
136.703658
 21
72.125404
 31
0.0
  0
ARC
  5
16A
330
A
100
AcDbEntity
  8
Hawa4
 62
     4
100
AcDbCircle
 10
136.703658
 20
72.925404
 30
0.0
 40
0.8
100
AcDbArc
 50
180.0
 51
270.0
  0
LINE
  5
16B
330
A
100
AcDbEntity
  8
Hawa4
 62
     4
 48
0.022322
100
AcDbLine
 10
135.903658
 20
73.818297
 30
0.0
 11
135.903658
 21
72.925404
 31
0.0
  0
ARC
  5
16C
330
A
100
AcDbEntity
  8
Hawa4
 62
     4
100
AcDbCircle
 10
136.203658
 20
73.818297
 30
0.0
 40
0.3
100
AcDbArc
 50
135.0
 51
180.0
  0
LINE
  5
16D
330
A
100
AcDbEntity
  8
Hawa4
 62
     4
 48
0.001893
100
AcDbLine
 10
135.991526
 20
74.03042899999999
 30
0.0
 11
136.045079
 21
74.08398199999999
 31
0.0
  0
ARC
  5
16E
330
A
100
AcDbEntity
  8
Hawa4
 62
     4
100
AcDbCircle
 10
135.903658
 20
74.22540399999999
 30
0.0
 40
0.2
100
AcDbArc
 50
315.0
 51
360.0
  0
LINE
  5
16F
330
A
100
AcDbEntity
  8
Hawa4
 62
     4
 48
0.1025
100
AcDbLine
 10
136.103658
 20
78.325404
 30
0.0
 11
136.103658
 21
74.22540399999999
 31
0.0
  0
LINE
  5
170
330
A
100
AcDbEntity
  8
Hawa4
 62
     4
 48
0.1025
100
AcDbLine
 10
136.103658
 20
82.42540400000001
 30
0.0
 11
136.103658
 21
78.325404
 31
0.0
  0
ARC
  5
171
330
A
100
AcDbEntity
  8
Hawa4
 62
     4
100
AcDbCircle
 10
135.903658
 20
82.42540400000001
 30
0.0
 40
0.2
100
AcDbArc
 50
0.0
 51
45.0
  0
LINE
  5
172
330
A
100
AcDbEntity
  8
Hawa4
 62
     4
 48
0.001893
100
AcDbLine
 10
135.991526
 20
82.62037799999999
 30
0.0
 11
136.045079
 21
82.566825
 31
0.0
  0
ARC
  5
173
330
A
100
AcDbEntity
  8
Hawa4
 62
     4
100
AcDbCircle
 10
136.203658
 20
82.83250999999999
 30
0.0
 40
0.3
100
AcDbArc
 50
180.0
 51
225.0
  0
LINE
  5
174
330
A
100
AcDbEntity
  8
Hawa4
 62
     4
 48
0.022322
100
AcDbLine
 10
135.903658
 20
83.725404
 30
0.0
 11
135.903658
 21
82.83250999999999
 31
0.0
  0
ARC
  5
175
330
A
100
AcDbEntity
  8
Hawa4
 62
     4
100
AcDbCircle
 10
136.703658
 20
83.725404
 30
0.0
 40
0.8
100
AcDbArc
 50
90.0
 51
180.0
  0
ARC
  5
176
330
A
100
AcDbEntity
  8
Hawa4
 62
     4
100
AcDbCircle
 10
130.627515
 20
86.223431
 30
0.0
 40
1.0
100
AcDbArc
 50
107.762171
 51
155.925478
  0
ARC
  5
177
330
A
100
AcDbEntity
  8
Hawa4
 62
     4
100
AcDbCircle
 10
129.897102
 20
86.54977099999999
 30
0.0
 40
0.2
100
AcDbArc
 50
155.925478
 51
304.752566
  0
ARC
  5
178
330
A
100
AcDbEntity
  8
Hawa4
 62
     4
100
AcDbCircle
 10
130.125116
 20
86.221122
 30
0.0
 40
0.2
100
AcDbArc
 50
105.852745
 51
124.752566
  0
LINE
  5
179
330
A
100
AcDbEntity
  8
Hawa4
 62
     4
 48
0.022439
100
AcDbLine
 10
130.933904
 20
86.65869800000001
 30
0.0
 11
130.070482
 21
86.413516
 31
0.0
  0
ARC
  5
17A
330
A
100
AcDbEntity
  8
Hawa4
 62
     4
100
AcDbCircle
 10
130.988537
 20
86.466305
 30
0.0
 40
0.2
100
AcDbArc
 50
7.435120999999999
 51
105.852745
  0
LINE
  5
17B
330
A
100
AcDbEntity
  8
Hawa4
 62
     4
 48
0.04835
100
AcDbLine
 10
131.437123
 20
84.574437
 30
0.0
 11
131.186855
 21
86.49218499999999
 31
0.0
  0
ARC
  5
17C
330
A
100
AcDbEntity
  8
Hawa4
 62
     4
100
AcDbCircle
 10
131.238805
 20
84.54855699999999
 30
0.0
 40
0.2
100
AcDbArc
 50
189.698609
 51
367.435121
  0
LINE
  5
17D
330
A
100
AcDbEntity
  8
Hawa4
 62
     4
 48
0.0145
100
AcDbLine
 10
130.943953
 20
85.086574
 30
0.0
 11
131.041663
 21
84.514863
 31
0.0
  0
ARC
  5
17E
330
A
100
AcDbEntity
  8
Hawa4
 62
     4
100
AcDbCircle
 10
130.746812
 20
85.05288099999999
 30
0.0
 40
0.2
100
AcDbArc
 50
9.698608999999999
 51
179.862433
  0
LINE
  5
17F
330
A
100
AcDbEntity
  8
Hawa4
 62
     4
 48
0.021864
100
AcDbLine
 10
130.544712
 20
84.17879199999999
 30
0.0
 11
130.546812
 21
85.05336099999999
 31
0.0
  0
ARC
  5
180
330
A
100
AcDbEntity
  8
Hawa4
 62
     4
100
AcDbCircle
 10
130.744712
 20
84.17831099999999
 30
0.0
 40
0.2
100
AcDbArc
 50
179.862433
 51
232.268588
  0
LINE
  5
181
330
A
100
AcDbEntity
  8
Hawa4
 62
     4
 48
0.007968
100
AcDbLine
 10
130.874407
 20
83.825078
 30
0.0
 11
130.62232
 21
84.02013399999999
 31
0.0
  0
ARC
  5
182
330
A
100
AcDbEntity
  8
Hawa4
 62
     4
100
AcDbCircle
 10
129.650486
 20
82.24330100000001
 30
0.0
 40
2.0
100
AcDbArc
 50
9.887052
 51
52.268582
  0
ARC
  5
183
330
A
100
AcDbEntity
  8
Hawa4
 62
     4
100
AcDbCircle
 10
131.423752
 20
82.552373
 30
0.0
 40
0.2
100
AcDbArc
 50
209.537307
 51
369.887058
  0
LINE
  5
184
330
A
100
AcDbEntity
  8
Hawa4
 62
     4
 48
0.016937
100
AcDbLine
 10
130.915757
 20
83.04320200000001
 30
0.0
 11
131.249745
 21
82.453775
 31
0.0
  0
ARC
  5
185
330
A
100
AcDbEntity
  8
Hawa4
 62
     4
100
AcDbCircle
 10
130.74175
 20
82.944604
 30
0.0
 40
0.2
100
AcDbArc
 50
29.537307
 51
179.862433
  0
LINE
  5
186
330
A
100
AcDbEntity
  8
Hawa4
 62
     4
 48
0.00415
100
AcDbLine
 10
130.541352
 20
82.779067
 30
0.0
 11
130.54175
 21
82.94508399999999
 31
0.0
  0
ARC
  5
187
330
A
100
AcDbEntity
  8
Hawa4
 62
     4
100
AcDbCircle
 10
130.741351
 20
82.77858700000001
 30
0.0
 40
0.2
100
AcDbArc
 50
179.862433
 51
215.348739
  0
LINE
  5
188
330
A
100
AcDbEntity
  8
Hawa4
 62
     4
 48
0.065578
100
AcDbLine
 10
132.095835
 20
80.523336
 30
0.0
 11
130.578222
 21
82.662876
 31
0.0
  0
ARC
  5
189
330
A
100
AcDbEntity
  8
Hawa4
 62
     4
100
AcDbCircle
 10
132.503658
 20
80.812612
 30
0.0
 40
0.5
100
AcDbArc
 50
215.348739
 51
265.0413910000001
  0
ARC
  5
18A
330
A
100
AcDbEntity
  8
Hawa4
 62
     4
100
AcDbCircle
 10
132.419614
 20
80.81281399999999
 30
0.0
 40
0.5
100
AcDbArc
 50
274.683475
 51
324.376127
  0
LINE
  5
18B
330
A
100
AcDbEntity
  8
Hawa4
 62
     4
 48
0.065578
100
AcDbLine
 10
132.826043
 20
80.521583
 30
0.0
 11
134.3539129999999
 21
82.653811
 31
0.0
  0
ARC
  5
18C
330
A
100
AcDbEntity
  8
Hawa4
 62
     4
100
AcDbCircle
 10
134.191341
 20
82.77030299999999
 30
0.0
 40
0.2
100
AcDbArc
 50
324.376127
 51
359.862433
  0
LINE
  5
18D
330
A
100
AcDbEntity
  8
Hawa4
 62
     4
 48
0.00415
100
AcDbLine
 10
134.39134
 20
82.769823
 30
0.0
 11
134.391739
 21
82.935841
 31
0.0
  0
ARC
  5
18E
330
A
100
AcDbEntity
  8
Hawa4
 62
     4
100
AcDbCircle
 10
134.19174
 20
82.93632099999999
 30
0.0
 40
0.2
100
AcDbArc
 50
359.862433
 51
510.187558
  0
LINE
  5
18F
330
A
100
AcDbEntity
  8
Hawa4
 62
     4
 48
0.016937
100
AcDbLine
 10
134.018208
 20
83.035753
 30
0.0
 11
133.681393
 21
82.447937
 31
0.0
  0
ARC
  5
190
330
A
100
AcDbEntity
  8
Hawa4
 62
     4
100
AcDbCircle
 10
133.507861
 20
82.54736899999999
 30
0.0
 40
0.2
100
AcDbArc
 50
169.837807
 51
330.187558
  0
ARC
  5
191
330
A
100
AcDbEntity
  8
Hawa4
 62
     4
100
AcDbCircle
 10
135.279623
 20
82.22978600000001
 30
0.0
 40
2.0
100
AcDbArc
 50
127.456284
 51
169.837813
  0
LINE
  5
192
330
A
100
AcDbEntity
  8
Hawa4
 62
     4
 48
0.007968
100
AcDbLine
 10
134.063312
 20
83.817421
 30
0.0
 11
134.316333
 21
84.011264
 31
0.0
  0
ARC
  5
193
330
A
100
AcDbEntity
  8
Hawa4
 62
     4
100
AcDbCircle
 10
134.194702
 20
84.170028
 30
0.0
 40
0.2
100
AcDbArc
 50
307.456277
 51
359.862433
  0
LINE
  5
194
330
A
100
AcDbEntity
  8
Hawa4
 62
     4
 48
0.021864
100
AcDbLine
 10
134.394701
 20
84.16954799999999
 30
0.0
 11
134.396801
 21
85.044117
 31
0.0
  0
ARC
  5
195
330
A
100
AcDbEntity
  8
Hawa4
 62
     4
100
AcDbCircle
 10
134.196802
 20
85.04459699999999
 30
0.0
 40
0.2
100
AcDbArc
 50
359.862433
 51
530.026256
  0
LINE
  5
196
330
A
100
AcDbEntity
  8
Hawa4
 62
     4
 48
0.0145
100
AcDbLine
 10
133.999824
 20
85.079237
 30
0.0
 11
133.89937
 21
84.50800200000001
 31
0.0
  0
ARC
  5
197
330
A
100
AcDbEntity
  8
Hawa4
 62
     4
100
AcDbCircle
 10
133.702393
 20
84.54264100000001
 30
0.0
 40
0.2
100
AcDbArc
 50
172.289745
 51
350.026256
  0
LINE
  5
198
330
A
100
AcDbEntity
  8
Hawa4
 62
     4
 48
0.04835
100
AcDbLine
 10
133.504201
 20
84.569474
 30
0.0
 11
133.763674
 21
86.48599899999998
 31
0.0
  0
ARC
  5
199
330
A
100
AcDbEntity
  8
Hawa4
 62
     4
100
AcDbCircle
 10
133.961866
 20
86.45916599999999
 30
0.0
 40
0.2
100
AcDbArc
 50
79.774326
 51
172.289745
  0
LINE
  5
19A
330
A
100
AcDbEntity
  8
Hawa4
 62
     4
 48
0.02738
100
AcDbLine
 10
135.07516
 20
86.46156600000001
 30
0.0
 11
133.997371
 21
86.655989
 31
0.0
  0
ARC
  5
19B
330
A
100
AcDbEntity
  8
Hawa4
 62
     4
100
AcDbCircle
 10
135.110665
 20
86.658389
 30
0.0
 40
0.2
100
AcDbArc
 50
259.774326
 51
377.976407
  0
ARC
  5
19C
330
A
100
AcDbEntity
  8
Hawa4
 62
     4
100
AcDbCircle
 10
134.43846
 20
86.213958
 30
0.0
 40
1.0
100
AcDbArc
 50
30.408114
 51
77.86547900000001
  0
LINE
  5
19D
330
A
100
AcDbEntity
  8
Hawa4
 62
     4
 48
0.01665
100
AcDbLine
 10
134.648667
 20
87.191615
 30
0.0
 11
134.006748
 21
87.36902800000001
 31
0.0
  0
ARC
  5
19E
330
A
100
AcDbEntity
  8
Hawa4
 62
     4
100
AcDbCircle
 10
134.060026
 20
87.56180099999999
 30
0.0
 40
0.2
100
AcDbArc
 50
121.691964
 51
254.550325
  0
ARC
  5
19F
330
A
100
AcDbEntity
  8
Hawa4
 62
     4
100
AcDbCircle
 10
132.483969
 20
90.114455
 30
0.0
 40
2.799999999999999
100
AcDbArc
 50
301.6919640000001
 51
334.143153
  0
ARC
  5
1A0
330
A
100
AcDbEntity
  8
Hawa4
 62
     4
100
AcDbCircle
 10
134.868669
 20
88.958726
 30
0.0
 40
0.15
100
AcDbArc
 50
154.143153
 51
334.143153
  0
ARC
  5
1A1
330
A
100
AcDbEntity
  8
Hawa4
 62
     4
100
AcDbCircle
 10
132.483969
 20
90.114455
 30
0.0
 40
2.5
100
AcDbArc
 50
334.143153
 51
413.22289
  0
ARC
  5
1A2
330
A
100
AcDbEntity
  8
Hawa4
 62
     4
100
AcDbCircle
 10
135.357747
 20
93.95911400000001
 30
0.0
 40
2.299999999999999
100
AcDbArc
 50
184.044679
 51
233.22289
  0
LINE
  5
1A3
330
A
100
AcDbEntity
  8
Hawa4
 62
     4
 48
0.091779
100
AcDbLine
 10
133.063475
 20
93.796885
 30
0.0
 11
132.804533
 21
97.45888800000001
 31
0.0
  0
ARC
  5
1A4
330
A
100
AcDbEntity
  8
Hawa4
 62
     4
100
AcDbCircle
 10
133.901794
 20
97.536476
 30
0.0
 40
1.1
100
AcDbArc
 50
150.907408
 51
184.044679
  0
ARC
  5
1A5
330
A
100
AcDbEntity
  8
Hawa4
 62
     4
100
AcDbCircle
 10
132.503658
 20
98.31443100000001
 30
0.0
 40
0.5
100
AcDbArc
 50
330.907408
 51
568.817457
  0
ARC
  5
1A6
330
A
100
AcDbEntity
  8
Hawa4
 62
     4
100
AcDbCircle
 10
131.101802
 20
97.54319800000001
 30
0.0
 40
1.1
100
AcDbArc
 50
355.680186
 51
388.817457
  0
LINE
  5
1A7
330
A
100
AcDbEntity
  8
Hawa4
 62
     4
 48
0.091779
100
AcDbLine
 10
131.922153
 20
93.79962500000001
 30
0.0
 11
132.198677
 21
97.46034300000001
 31
0.0
  0
ARC
  5
1A8
330
A
100
AcDbEntity
  8
Hawa4
 62
     4
100
AcDbCircle
 10
129.628687
 20
93.97287
 30
0.0
 40
2.299999999999999
100
AcDbArc
 50
306.501975
 51
355.680186
  0
ARC
  5
1A9
330
A
100
AcDbEntity
  8
Hawa4
 62
     4
100
AcDbCircle
 10
132.483969
 20
90.114455
 30
0.0
 40
2.5
100
AcDbArc
 50
126.501975
 51
205.581712
  0
ARC
  5
1AA
330
A
100
AcDbEntity
  8
Hawa4
 62
     4
100
AcDbCircle
 10
130.093748
 20
88.97019099999999
 30
0.0
 40
0.15
100
AcDbArc
 50
205.581712
 51
385.5817120000001
  0
ARC
  5
1AB
330
A
100
AcDbEntity
  8
Hawa4
 62
     4
100
AcDbCircle
 10
132.483969
 20
90.114455
 30
0.0
 40
2.799999999999999
100
AcDbArc
 50
205.581713
 51
238.032901
  0
ARC
  5
1AC
330
A
100
AcDbEntity
  8
Hawa4
 62
     4
100
AcDbCircle
 10
130.895673
 20
87.56939799999999
 30
0.0
 40
0.2
100
AcDbArc
 50
287.762171
 51
418.0329009999999
  0
LINE
  5
1AD
330
A
100
AcDbEntity
  8
Hawa4
 62
     4
 48
0.01665
100
AcDbLine
 10
130.322448
 20
87.17576200000001
 30
0.0
 11
130.956686
 21
87.378932
 31
0.0
  0
CIRCLE
  5
1AE
330
A
100
AcDbEntity
  8
Hawa4
 62
     4
100
AcDbCircle
 10
132.483969
 20
90.114455
 30
0.0
 40
2.0
  0
ARC
  5
1AF
330
A
100
AcDbEntity
  8
Hawa4
 62
     4
100
AcDbCircle
 10
132.503658
 20
98.31443100000001
 30
0.0
 40
0.8
100
AcDbArc
 50
330.907408
 51
568.817457
  0
ARC
  5
1B0
330
A
100
AcDbEntity
  8
Hawa4
 62
     4
100
AcDbCircle
 10
133.901794
 20
97.536476
 30
0.0
 40
0.8
100
AcDbArc
 50
150.907408
 51
184.044679
  0
LINE
  5
1B1
330
A
100
AcDbEntity
  8
Hawa4
 62
     4
 48
0.091779
100
AcDbLine
 10
133.362728
 20
93.81804499999999
 30
0.0
 11
133.103786
 21
97.480048
 31
0.0
  0
ARC
  5
1B2
330
A
100
AcDbEntity
  8
Hawa4
 62
     4
100
AcDbCircle
 10
135.357747
 20
93.95911400000001
 30
0.0
 40
2.0
100
AcDbArc
 50
184.044679
 51
233.22289
  0
ARC
  5
1B3
330
A
100
AcDbEntity
  8
Hawa4
 62
     4
100
AcDbCircle
 10
132.483969
 20
90.114455
 30
0.0
 40
2.799999999999999
100
AcDbArc
 50
334.143153
 51
413.22289
  0
ARC
  5
1BF
330
A
100
AcDbEntity
  8
Hawa4
 62
     4
100
AcDbCircle
 10
132.483969
 20
90.114455
 30
0.0
 40
2.799999999999999
100
AcDbArc
 50
126.501975
 51
205.581712
  0
ARC
  5
1C0
330
A
100
AcDbEntity
  8
Hawa4
 62
     4
100
AcDbCircle
 10
129.628687
 20
93.97287
 30
0.0
 40
2.0
100
AcDbArc
 50
306.501975
 51
355.680186
  0
LINE
  5
1C1
330
A
100
AcDbEntity
  8
Hawa4
 62
     4
 48
0.091779
100
AcDbLine
 10
131.623005
 20
93.822223
 30
0.0
 11
131.899529
 21
97.48294000000001
 31
0.0
  0
ARC
  5
1C2
330
A
100
AcDbEntity
  8
Hawa4
 62
     4
100
AcDbCircle
 10
131.101802
 20
97.54319800000001
 30
0.0
 40
0.8
100
AcDbArc
 50
355.680186
 51
388.817457
  0
LINE
  5
1C3
330
A
100
AcDbEntity
  8
Hawa5
 62
     1
 48
0.035355
100
AcDbLine
 10
179.403658
 20
106.325404
 30
0.0
 11
178.403658
 21
107.325404
 31
0.0
  0
LINE
  5
1C4
330
A
100
AcDbEntity
  8
Hawa5
 62
     1
 48
0.2
100
AcDbLine
 10
179.403658
 20
98.325404
 30
0.0
 11
179.403658
 21
106.325404
 31
0.0
  0
LINE
  5
1C5
330
A
100
AcDbEntity
  8
Hawa5
 62
     1
 48
0.035355
100
AcDbLine
 10
179.403658
 20
98.325404
 30
0.0
 11
178.403658
 21
97.32540400000001
 31
0.0
  0
LINE
  5
1C6
330
A
100
AcDbEntity
  8
Hawa5
 62
     1
100
AcDbLine
 10
57.713838
 20
97.32540400000001
 30
0.0
 11
94.50521999999999
 21
97.32540400000001
 31
0.0
  0
LINE
  5
1C7
330
A
100
AcDbEntity
  8
Hawa5
 62
     1
100
AcDbLine
 10
104.50522
 20
97.32540400000001
 30
0.0
 11
178.403658
 21
97.32540400000001
 31
0.0
  0
LINE
  5
1C8
330
A
100
AcDbEntity
  8
Hawa5
 62
     1
 48
0.035355
100
AcDbLine
 10
56.713838
 20
98.325404
 30
0.0
 11
57.713838
 21
97.32540400000001
 31
0.0
  0
LINE
  5
1C9
330
A
100
AcDbEntity
  8
Hawa5
 62
     1
 48
0.2
100
AcDbLine
 10
56.713838
 20
98.325404
 30
0.0
 11
56.713838
 21
106.325404
 31
0.0
  0
LINE
  5
1CA
330
A
100
AcDbEntity
  8
Hawa5
 62
     1
 48
0.035355
100
AcDbLine
 10
56.713838
 20
106.325404
 30
0.0
 11
57.713838
 21
107.325404
 31
0.0
  0
LINE
  5
1CB
330
A
100
AcDbEntity
  8
Hawa5
 62
     1
100
AcDbLine
 10
57.713838
 20
107.325404
 30
0.0
 11
94.50521999999999
 21
107.325404
 31
0.0
  0
LINE
  5
1CC
330
A
100
AcDbEntity
  8
Hawa5
 62
     1
100
AcDbLine
 10
104.50522
 20
107.325404
 30
0.0
 11
178.403658
 21
107.325404
 31
0.0
  0
LINE
  5
1CD
330
A
100
AcDbEntity
  8
Hawa5
 62
     1
 48
0.35
100
AcDbLine
 10
50.713838
 20
121.325404
 30
0.0
 11
50.713838
 21
135.325404
 31
0.0
  0
LINE
  5
1CE
330
A
100
AcDbEntity
  8
Hawa5
 62
     1
 48
0.4
100
AcDbLine
 10
50.713838
 20
121.325404
 30
0.0
 11
34.713838
 21
121.325404
 31
0.0
  0
LINE
  5
1CF
330
A
100
AcDbEntity
  8
Hawa5
 62
     1
100
AcDbLine
 10
34.713838
 20
83.325404
 30
0.0
 11
34.713838
 21
121.325404
 31
0.0
  0
LINE
  5
1D0
330
A
100
AcDbEntity
  8
Hawa5
 62
     1
 48
0.4
100
AcDbLine
 10
34.713838
 20
83.325404
 30
0.0
 11
50.713838
 21
83.325404
 31
0.0
  0
LINE
  5
1D1
330
A
100
AcDbEntity
  8
Hawa5
 62
     1
100
AcDbLine
 10
50.713838
 20
55.32540400000001
 30
0.0
 11
50.713838
 21
83.325404
 31
0.0
  0
LINE
  5
1D2
330
A
100
AcDbEntity
  8
Hawa4
 62
     4
 48
0.004964
100
AcDbLine
 10
50.713838
 20
83.52394699999999
 30
0.0
 11
50.713838
 21
83.325404
 31
0.0
  0
LINE
  5
1D3
330
A
100
AcDbEntity
  8
Hawa4
 62
     4
 48
0.08957
100
AcDbLine
 10
50.713838
 20
89.906755
 30
0.0
 11
50.713838
 21
86.323947
 31
0.0
  0
LINE
  5
1D4
330
A
100
AcDbEntity
  8
Hawa4
 62
     4
 48
0.089493
100
AcDbLine
 10
50.713838
 20
118.323947
 30
0.0
 11
50.713838
 21
114.744228
 31
0.0
  0
LINE
  5
1D5
330
A
100
AcDbEntity
  8
Hawa4
 62
     4
 48
0.005036
100
AcDbLine
 10
50.713838
 20
121.325404
 30
0.0
 11
50.713838
 21
121.123947
 31
0.0
  0
ARC
  5
1D6
330
A
100
AcDbEntity
  8
Hawa4
 62
     4
100
AcDbCircle
 10
34.913838
 20
118.025404
 30
0.0
 40
0.3
100
AcDbArc
 50
0.0
 51
90.0
  0
LINE
  5
1D7
330
A
100
AcDbEntity
  8
Hawa4
 62
     4
 48
0.005
100
AcDbLine
 10
34.913838
 20
118.325404
 30
0.0
 11
34.713838
 21
118.325404
 31
0.0
  0
LINE
  5
1D8
330
A
100
AcDbEntity
  8
Hawa4
 62
     4
 48
0.07
100
AcDbLine
 10
34.713838
 20
121.125404
 30
0.0
 11
34.713838
 21
118.325404
 31
0.0
  0
LINE
  5
1D9
330
A
100
AcDbEntity
  8
Hawa4
 62
     4
 48
0.475
100
AcDbLine
 10
34.713838
 20
121.125404
 30
0.0
 11
53.713838
 21
121.125404
 31
0.0
  0
ARC
  5
1DA
330
A
100
AcDbEntity
  8
Hawa4
 62
     4
100
AcDbCircle
 10
53.713838
 20
119.125404
 30
0.0
 40
2.0
100
AcDbArc
 50
350.666838
 51
450.0
  0
LINE
  5
1DB
330
A
100
AcDbEntity
  8
Hawa4
 62
     4
 48
0.106888
100
AcDbLine
 10
55.687362
 20
118.801054
 30
0.0
 11
54.993981
 21
114.582141
 31
0.0
  0
ARC
  5
1DC
330
A
100
AcDbEntity
  8
Hawa4
 62
     4
100
AcDbCircle
 10
53.513838
 20
114.825404
 30
0.0
 40
1.5
100
AcDbArc
 50
270.0
 51
350.666838
  0
LINE
  5
1DD
330
A
100
AcDbEntity
  8
Hawa4
 62
     4
 48
0.125
100
AcDbLine
 10
53.513838
 20
118.325404
 30
0.0
 11
53.513838
 21
113.325404
 31
0.0
  0
LINE
  5
1DE
330
A
100
AcDbEntity
  8
Hawa4
 62
     4
 48
0.08
100
AcDbLine
 10
53.513838
 20
118.325404
 30
0.0
 11
50.313838
 21
118.325404
 31
0.0
  0
LINE
  5
1DF
330
A
100
AcDbEntity
  8
Hawa4
 62
     4
 48
0.2
100
AcDbLine
 10
50.313838
 20
110.325404
 30
0.0
 11
50.313838
 21
118.325404
 31
0.0
  0
ARC
  5
1E0
330
A
100
AcDbEntity
  8
Hawa4
 62
     4
100
AcDbCircle
 10
49.31383799999999
 20
110.325404
 30
0.0
 40
1.0
100
AcDbArc
 50
270.0
 51
360.0
  0
LINE
  5
1E1
330
A
100
AcDbEntity
  8
Hawa4
 62
     4
 48
0.05
100
AcDbLine
 10
49.31383799999999
 20
109.325404
 30
0.0
 11
47.31383799999999
 21
109.325404
 31
0.0
  0
LINE
  5
1E2
330
A
100
AcDbEntity
  8
Hawa4
 62
     4
 48
0.1625
100
AcDbLine
 10
47.31383799999999
 20
115.825404
 30
0.0
 11
47.31383799999999
 21
109.325404
 31
0.0
  0
ARC
  5
1E3
330
A
100
AcDbEntity
  8
Hawa4
 62
     4
100
AcDbCircle
 10
44.81383799999999
 20
115.825404
 30
0.0
 40
2.5
100
AcDbArc
 50
0.0
 51
90.0
  0
LINE
  5
1E4
330
A
100
AcDbEntity
  8
Hawa4
 62
     4
 48
0.1025
100
AcDbLine
 10
44.81383799999999
 20
118.325404
 30
0.0
 11
40.713838
 21
118.325404
 31
0.0
  0
ARC
  5
1E5
330
A
100
AcDbEntity
  8
Hawa4
 62
     4
100
AcDbCircle
 10
40.713838
 20
115.825404
 30
0.0
 40
2.5
100
AcDbArc
 50
90.0
 51
180.0
  0
LINE
  5
1E6
330
A
100
AcDbEntity
  8
Hawa4
 62
     4
 48
0.33
100
AcDbLine
 10
38.213838
 20
102.625404
 30
0.0
 11
38.213838
 21
115.825404
 31
0.0
  0
LINE
  5
1E7
330
A
100
AcDbEntity
  8
Hawa4
 62
     4
 48
0.010607
100
AcDbLine
 10
38.213838
 20
102.625404
 30
0.0
 11
37.913838
 21
102.325404
 31
0.0
  0
LINE
  5
1E8
330
A
100
AcDbEntity
  8
Hawa4
 62
     4
 48
0.010607
100
AcDbLine
 10
38.213838
 20
102.025404
 30
0.0
 11
37.913838
 21
102.325404
 31
0.0
  0
LINE
  5
1E9
330
A
100
AcDbEntity
  8
Hawa4
 62
     4
 48
0.33
100
AcDbLine
 10
38.213838
 20
88.82540400000001
 30
0.0
 11
38.213838
 21
102.025404
 31
0.0
  0
ARC
  5
1EA
330
A
100
AcDbEntity
  8
Hawa4
 62
     4
100
AcDbCircle
 10
40.713838
 20
88.82540400000001
 30
0.0
 40
2.5
100
AcDbArc
 50
180.0
 51
270.0
  0
LINE
  5
1EB
330
A
100
AcDbEntity
  8
Hawa4
 62
     4
 48
0.04375
100
AcDbLine
 10
42.463838
 20
86.32540400000001
 30
0.0
 11
40.713838
 21
86.32540400000001
 31
0.0
  0
LINE
  5
1EC
330
A
100
AcDbEntity
  8
Hawa4
 62
     4
 48
0.010607
100
AcDbLine
 10
42.463838
 20
86.32540400000001
 30
0.0
 11
42.763838
 21
86.62540400000001
 31
0.0
  0
LINE
  5
1ED
330
A
100
AcDbEntity
  8
Hawa4
 62
     4
 48
0.010607
100
AcDbLine
 10
43.06383799999999
 20
86.32540400000001
 30
0.0
 11
42.763838
 21
86.62540400000001
 31
0.0
  0
LINE
  5
1EE
330
A
100
AcDbEntity
  8
Hawa4
 62
     4
 48
0.04375
100
AcDbLine
 10
44.81383799999999
 20
86.32540400000001
 30
0.0
 11
43.06383799999999
 21
86.32540400000001
 31
0.0
  0
ARC
  5
1EF
330
A
100
AcDbEntity
  8
Hawa4
 62
     4
100
AcDbCircle
 10
44.81383799999999
 20
88.82540400000001
 30
0.0
 40
2.5
100
AcDbArc
 50
270.0
 51
360.0
  0
LINE
  5
1F0
330
A
100
AcDbEntity
  8
Hawa4
 62
     4
 48
0.1625
100
AcDbLine
 10
47.31383799999999
 20
95.325404
 30
0.0
 11
47.31383799999999
 21
88.82540400000001
 31
0.0
  0
LINE
  5
1F1
330
A
100
AcDbEntity
  8
Hawa4
 62
     4
 48
0.05
100
AcDbLine
 10
49.31383799999999
 20
95.325404
 30
0.0
 11
47.31383799999999
 21
95.325404
 31
0.0
  0
ARC
  5
1F2
330
A
100
AcDbEntity
  8
Hawa4
 62
     4
100
AcDbCircle
 10
49.31383799999999
 20
94.325404
 30
0.0
 40
1.0
100
AcDbArc
 50
360.0
 51
450.0
  0
LINE
  5
1F3
330
A
100
AcDbEntity
  8
Hawa4
 62
     4
 48
0.2
100
AcDbLine
 10
50.313838
 20
86.32540400000001
 30
0.0
 11
50.313838
 21
94.325404
 31
0.0
  0
LINE
  5
1F4
330
A
100
AcDbEntity
  8
Hawa4
 62
     4
 48
0.08
100
AcDbLine
 10
53.513838
 20
86.32540400000001
 30
0.0
 11
50.313838
 21
86.32540400000001
 31
0.0
  0
LINE
  5
1F5
330
A
100
AcDbEntity
  8
Hawa4
 62
     4
 48
0.125
100
AcDbLine
 10
53.513838
 20
91.32540400000001
 30
0.0
 11
53.513838
 21
86.32540400000001
 31
0.0
  0
ARC
  5
1F6
330
A
100
AcDbEntity
  8
Hawa4
 62
     4
100
AcDbCircle
 10
53.513838
 20
89.82540400000001
 30
0.0
 40
1.5
100
AcDbArc
 50
9.333161999999999
 51
90.0
  0
LINE
  5
1F7
330
A
100
AcDbEntity
  8
Hawa4
 62
     4
 48
0.106888
100
AcDbLine
 10
55.687362
 20
85.84975400000001
 30
0.0
 11
54.993981
 21
90.068666
 31
0.0
  0
ARC
  5
1F8
330
A
100
AcDbEntity
  8
Hawa4
 62
     4
100
AcDbCircle
 10
53.713838
 20
85.52540400000001
 30
0.0
 40
2.0
100
AcDbArc
 50
270.0
 51
369.333162
  0
LINE
  5
1F9
330
A
100
AcDbEntity
  8
Hawa4
 62
     4
 48
0.475
100
AcDbLine
 10
34.713838
 20
83.525404
 30
0.0
 11
53.713838
 21
83.525404
 31
0.0
  0
LINE
  5
1FA
330
A
100
AcDbEntity
  8
Hawa4
 62
     4
 48
0.07
100
AcDbLine
 10
34.713838
 20
86.32540400000001
 30
0.0
 11
34.713838
 21
83.525404
 31
0.0
  0
LINE
  5
1FB
330
A
100
AcDbEntity
  8
Hawa4
 62
     4
 48
0.005
100
AcDbLine
 10
34.913838
 20
86.32540400000001
 30
0.0
 11
34.713838
 21
86.32540400000001
 31
0.0
  0
ARC
  5
1FC
330
A
100
AcDbEntity
  8
Hawa4
 62
     4
100
AcDbCircle
 10
34.913838
 20
86.62540400000001
 30
0.0
 40
0.3
100
AcDbArc
 50
270.0
 51
360.0
  0
LINE
  5
1FD
330
A
100
AcDbEntity
  8
Hawa4
 62
     4
 48
0.3925
100
AcDbLine
 10
35.21383800000001
 20
102.325404
 30
0.0
 11
35.21383800000001
 21
86.62540400000001
 31
0.0
  0
LINE
  5
1FE
330
A
100
AcDbEntity
  8
Hawa4
 62
     4
 48
0.3925
100
AcDbLine
 10
35.21383800000001
 20
118.025404
 30
0.0
 11
35.21383800000001
 21
102.325404
 31
0.0
  0
LINE
  5
1FF
330
A
100
AcDbEntity
  8
Hawa4
 62
     4
 48
0.085416
100
AcDbLine
 10
50.319691
 20
91.90743799999999
 30
0.0
 11
50.344926
 21
95.323989
 31
0.0
  0
LINE
  5
200
330
A
100
AcDbEntity
  8
Hawa4
 62
     4
 48
0.250007
100
AcDbLine
 10
50.359699
 20
97.32398899999999
 30
0.0
 11
50.433562
 21
107.3239889999999
 31
0.0
  0
LINE
  5
201
330
A
100
AcDbEntity
  8
Hawa4
 62
     4
 48
0.078394
100
AcDbLine
 10
50.448335
 20
109.3239889999999
 30
0.0
 11
50.471496
 21
112.459659
 31
0.0
  0
LINE
  5
202
330
A
100
AcDbEntity
  8
Hawa4
 62
     4
 48
0.004117
100
AcDbLine
 10
53.5124
 20
113.204755
 30
0.0
 11
53.677078
 21
113.203539
 31
0.0
  0
LINE
  5
203
330
A
100
AcDbEntity
  8
Hawa4
 62
     4
 48
0.026197
100
AcDbLine
 10
53.51606
 20
91.404133
 30
0.0
 11
53.5238
 21
92.45198700000001
 31
0.0
  0
LINE
  5
204
330
A
100
AcDbEntity
  8
Hawa6
 62
     3
 48
0.04574
100
AcDbLine
 10
53.663564
 20
111.373997
 30
0.0
 11
53.677078
 21
113.203539
 31
0.0
  0
LINE
  5
205
330
A
100
AcDbEntity
  8
Hawa6
 62
     3
 48
0.269178
100
AcDbLine
 10
54.420215
 20
95.292141
 30
0.0
 11
63.70478399999999
 21
89.83986299999999
 31
0.0
  0
LINE
  5
206
330
A
100
AcDbEntity
  8
Hawa6
 62
     3
 48
0.271103
100
AcDbLine
 10
54.456723
 20
109.264586
 30
0.0
 11
63.887797
 21
114.617132
 31
0.0
  0
ARC
  5
207
330
A
100
AcDbEntity
  8
Hawa6
 62
     3
100
AcDbCircle
 10
59.211473
 20
90.762049
 30
0.0
 40
1.5
100
AcDbArc
 50
50.237766
 51
68.916009
  0
LINE
  5
208
330
A
100
AcDbEntity
  8
Hawa6
 62
     3
 48
0.022301
100
AcDbLine
 10
61.98192699999999
 20
90.851588
 30
0.0
 11
62.873948
 21
90.845
 31
0.0
  0
LINE
  5
209
330
A
100
AcDbEntity
  8
Hawa6
 62
     3
 48
0.032602
100
AcDbLine
 10
63.70478399999999
 20
89.83986299999999
 30
0.0
 11
62.873948
 21
90.845
 31
0.0
  0
LINE
  5
20A
330
A
100
AcDbEntity
  8
Hawa6
 62
     3
 48
0.032602
100
AcDbLine
 10
63.04220400000001
 20
113.624378
 30
0.0
 11
63.887797
 21
114.617132
 31
0.0
  0
LINE
  5
20B
330
A
100
AcDbEntity
  8
Hawa6
 62
     3
 48
0.022301
100
AcDbLine
 10
62.150197
 20
113.630967
 30
0.0
 11
63.04220400000001
 21
113.624378
 31
0.0
  0
ARC
  5
20C
330
A
100
AcDbEntity
  8
Hawa6
 62
     3
100
AcDbCircle
 10
59.381354
 20
113.761422
 30
0.0
 40
1.5
100
AcDbArc
 50
290.240479
 51
308.9131720000001
  0
LINE
  5
20D
330
A
100
AcDbEntity
  8
Hawa6
 62
     3
 48
0.133781
100
AcDbLine
 10
55.643862
 20
86.11443299999999
 30
0.0
 11
54.776026
 21
91.394827
 31
0.0
  0
LINE
  5
20E
330
A
100
AcDbEntity
  8
Hawa6
 62
     3
 48
0.0315
100
AcDbLine
 10
54.776026
 20
91.394827
 30
0.0
 11
53.51606
 21
91.404133
 31
0.0
  0
LINE
  5
20F
330
A
100
AcDbEntity
  8
Hawa6
 62
     3
 48
0.021526
100
AcDbLine
 10
63.698425
 20
88.978859
 30
0.0
 11
63.70478399999999
 21
89.83986299999999
 31
0.0
  0
LINE
  5
210
330
A
100
AcDbEntity
  8
Hawa6
 62
     3
 48
0.213718
100
AcDbLine
 10
55.643862
 20
86.114432
 30
0.0
 11
63.698425
 21
88.978859
 31
0.0
  0
LINE
  5
211
330
A
100
AcDbEntity
  8
Hawa6
 62
     3
 48
0.0315
100
AcDbLine
 10
54.937043
 20
113.194232
 30
0.0
 11
53.677078
 21
113.203539
 31
0.0
  0
LINE
  5
212
330
A
100
AcDbEntity
  8
Hawa6
 62
     3
 48
0.133781
100
AcDbLine
 10
55.88278599999999
 20
118.46123
 30
0.0
 11
54.937043
 21
113.194232
 31
0.0
  0
LINE
  5
213
330
A
100
AcDbEntity
  8
Hawa6
 62
     3
 48
0.213718
100
AcDbLine
 10
55.88278599999999
 20
118.461231
 30
0.0
 11
63.89415699999999
 21
115.478136
 31
0.0
  0
LINE
  5
214
330
A
100
AcDbEntity
  8
Hawa6
 62
     3
 48
0.021526
100
AcDbLine
 10
63.887797
 20
114.617132
 30
0.0
 11
63.89415699999999
 21
115.478136
 31
0.0
  0
LINE
  5
215
330
A
100
AcDbEntity
  8
Hawa6
 62
     3
 48
0.000026
100
AcDbLine
 10
63.70478399999999
 20
89.83986299999999
 30
0.0
 11
63.704777
 21
89.838836
 31
0.0
  0
LINE
  5
216
330
A
100
AcDbEntity
  8
Hawa6
 62
     3
 48
0.064679
100
AcDbLine
 10
57.014051
 20
94.795075
 30
0.0
 11
58.662362
 21
92.800966
 31
0.0
  0
LINE
  5
217
330
A
100
AcDbEntity
  8
Hawa6
 62
     3
 48
0.077648
100
AcDbLine
 10
57.014051
 20
94.795075
 30
0.0
 11
55.035229
 21
97.18903199999999
 31
0.0
  0
LINE
  5
218
330
A
100
AcDbEntity
  8
Hawa6
 62
     3
 48
0.06527
100
AcDbLine
 10
57.014051
 20
94.795075
 30
0.0
 11
59.624795
 21
94.77579099999999
 31
0.0
  0
LINE
  5
219
330
A
100
AcDbEntity
  8
Hawa6
 62
     3
 48
0.127495
100
AcDbLine
 10
62.873948
 20
90.845
 30
0.0
 11
59.624795
 21
94.77579099999999
 31
0.0
  0
LINE
  5
21A
330
A
100
AcDbEntity
  8
Hawa6
 62
     3
 48
0.018457
100
AcDbLine
 10
56.65296899999999
 20
98.371074
 30
0.0
 11
56.182609
 21
98.94011
 31
0.0
  0
LINE
  5
21B
330
A
100
AcDbEntity
  8
Hawa6
 62
     3
 48
0.116613
100
AcDbLine
 10
59.624795
 20
94.77579099999999
 30
0.0
 11
56.65296899999999
 21
98.371074
 31
0.0
  0
LINE
  5
21C
330
A
100
AcDbEntity
  8
Hawa6
 62
     3
 48
0.127495
100
AcDbLine
 10
63.04220400000001
 20
113.624378
 30
0.0
 11
59.73534
 21
109.742012
 31
0.0
  0
LINE
  5
21D
330
A
100
AcDbEntity
  8
Hawa6
 62
     3
 48
0.087822
100
AcDbLine
 10
57.45747900000001
 20
107.067729
 30
0.0
 11
59.73534
 21
109.742012
 31
0.0
  0
LINE
  5
21E
330
A
100
AcDbEntity
  8
Hawa6
 62
     3
 48
0.018457
100
AcDbLine
 10
56.232015
 20
105.628995
 30
0.0
 11
56.71073
 21
106.191021
 31
0.0
  0
LINE
  5
21F
330
A
100
AcDbEntity
  8
Hawa6
 62
     3
 48
0.06527
100
AcDbLine
 10
57.124597
 20
109.761296
 30
0.0
 11
59.73534
 21
109.742012
 31
0.0
  0
LINE
  5
220
330
A
100
AcDbEntity
  8
Hawa6
 62
     3
 48
0.064678
100
AcDbLine
 10
57.124597
 20
109.761296
 30
0.0
 11
58.802156
 21
111.730806
 31
0.0
  0
LINE
  5
221
330
A
100
AcDbEntity
  8
Hawa6
 62
     3
 48
0.079356
100
AcDbLine
 10
55.066336
 20
107.344831
 30
0.0
 11
57.124597
 21
109.761296
 31
0.0
  0
LINE
  5
222
330
A
100
AcDbEntity
  8
Hawa6
 62
     3
 48
0.033405
100
AcDbLine
 10
55.31681800000001
 20
98.38094300000001
 30
0.0
 11
56.65296899999999
 21
98.371074
 31
0.0
  0
LINE
  5
223
330
A
100
AcDbEntity
  8
Hawa6
 62
     3
 48
0.018986
100
AcDbLine
 10
55.423194
 20
98.945719
 30
0.0
 11
56.182609
 21
98.94011
 31
0.0
  0
LINE
  5
224
330
A
100
AcDbEntity
  8
Hawa6
 62
     3
 48
0.019932
100
AcDbLine
 10
55.434743
 20
105.634884
 30
0.0
 11
56.232015
 21
105.628995
 31
0.0
  0
LINE
  5
225
330
A
100
AcDbEntity
  8
Hawa6
 62
     3
 48
0.034517
100
AcDbLine
 10
55.330081
 20
106.201219
 30
0.0
 11
56.71073
 21
106.191021
 31
0.0
  0
ARC
  5
226
330
A
100
AcDbEntity
  8
Hawa6
 62
     3
100
AcDbCircle
 10
50.675308
 20
102.325071
 30
0.0
 40
5.421355
100
AcDbArc
 50
359.580422
 51
385.113982
  0
ARC
  5
227
330
A
100
AcDbEntity
  8
Hawa6
 62
     3
100
AcDbCircle
 10
50.674701
 20
102.325936
 30
0.0
 40
5.421978
100
AcDbArc
 50
334.81645
 51
359.571326
  0
LINE
  5
22A
330
A
100
AcDbEntity
  8
Hawa4
 62
     4
 48
0.101731
100
AcDbLine
 10
44.04802199999999
 20
109.305322
 30
0.0
 11
44.078078
 21
113.374443
 31
0.0
  0
LINE
  5
22B
330
A
100
AcDbEntity
  8
Hawa4
 62
     4
 48
0.247408
100
AcDbLine
 10
43.96000899999999
 20
97.38956299999999
 30
0.0
 11
44.03310399999999
 21
107.285618
 31
0.0
  0
LINE
  5
22C
330
A
100
AcDbEntity
  8
Hawa4
 62
     4
 48
0.100675
100
AcDbLine
 10
43.915584
 20
91.37504300000001
 30
0.0
 11
43.945327
 21
95.40193399999999
 31
0.0
  0
LINE
  5
22D
330
A
100
AcDbEntity
  8
Hawa4
 62
     4
 48
0.125534
100
AcDbLine
 10
47.959633
 20
97.323982
 30
0.0
 11
47.99672199999999
 21
102.345198
 31
0.0
  0
LINE
  5
22E
330
A
100
AcDbEntity
  8
Hawa4
 62
     4
 48
0.05
100
AcDbLine
 10
47.99672199999999
 20
102.345198
 30
0.0
 11
49.99666699999999
 21
102.330426
 31
0.0
  0
LINE
  5
22F
330
A
100
AcDbEntity
  8
Hawa4
 62
     4
 48
0.124842
100
AcDbLine
 10
49.99666699999999
 20
102.330426
 30
0.0
 11
50.033551
 21
107.323982
 31
0.0
  0
LINE
  5
230
330
A
100
AcDbEntity
  8
Hawa4
 62
     4
 48
0.125126
100
AcDbLine
 10
49.959699
 20
97.32551200000001
 30
0.0
 11
49.99666699999999
 21
102.330426
 31
0.0
  0
LINE
  5
231
330
A
100
AcDbEntity
  8
Hawa4
 62
     4
 48
0.0375
100
AcDbLine
 10
43.90450399999999
 20
89.87508400000001
 30
0.0
 11
43.915584
 21
91.37504300000001
 31
0.0
  0
LINE
  5
232
330
A
100
AcDbEntity
  8
Hawa4
 62
     4
 48
0.0852
100
AcDbLine
 10
43.90450399999999
 20
89.87508400000001
 30
0.0
 11
47.312392
 21
89.84991200000001
 31
0.0
  0
LINE
  5
233
330
A
100
AcDbEntity
  8
Hawa4
 62
     4
 48
0.080583
100
AcDbLine
 10
44.089157
 20
114.874402
 30
0.0
 11
47.312392
 21
114.850594
 31
0.0
  0
LINE
  5
234
330
A
100
AcDbEntity
  8
Hawa4
 62
     4
 48
0.0375
100
AcDbLine
 10
44.078078
 20
113.374443
 30
0.0
 11
44.089157
 21
114.874402
 31
0.0
  0
LINE
  5
235
330
A
100
AcDbEntity
  8
Hawa4
 62
     4
 48
0.039043
100
AcDbLine
 10
43.962324
 20
105.37508
 30
0.0
 11
43.950789
 21
103.813399
 31
0.0
  0
LINE
  5
236
330
A
100
AcDbEntity
  8
Hawa4
 62
     4
 48
0.110957
100
AcDbLine
 10
43.950789
 20
103.813399
 30
0.0
 11
43.918007
 21
99.37524300000001
 31
0.0
  0
LINE
  5
237
330
A
100
AcDbEntity
  8
Hawa4
 62
     4
 48
0.022811
100
AcDbLine
 10
43.312389
 20
104.734675
 30
0.0
 11
43.962324
 21
105.37508
 31
0.0
  0
LINE
  5
238
330
A
100
AcDbEntity
  8
Hawa4
 62
     4
 48
0.021572
100
AcDbLine
 10
43.312389
 20
99.989875
 30
0.0
 11
43.918007
 21
99.37524300000001
 31
0.0
  0
LINE
  5
239
330
A
100
AcDbEntity
  8
Hawa4
 62
     4
 48
0.001417
100
AcDbLine
 10
44.018985
 20
105.374661
 30
0.0
 11
43.962324
 21
105.37508
 31
0.0
  0
LINE
  5
23A
330
A
100
AcDbEntity
  8
Hawa4
 62
     4
 48
0.001417
100
AcDbLine
 10
43.974668
 20
99.37482500000001
 30
0.0
 11
43.918007
 21
99.37524300000001
 31
0.0
  0
LINE
  5
23B
330
A
100
AcDbEntity
  8
Hawa4
 62
     4
 48
0.014142
100
AcDbLine
 10
50.01955999999999
 20
105.430337
 30
0.0
 11
50.422508
 21
105.827376
 31
0.0
  0
LINE
  5
23C
330
A
100
AcDbEntity
  8
Hawa4
 62
     4
 48
0.014142
100
AcDbLine
 10
49.97376899999999
 20
99.23051200000001
 30
0.0
 11
50.370813
 21
98.82755899999999
 31
0.0
  0
LINE
  5
23D
330
A
100
AcDbEntity
  8
Hawa4
 62
     4
 48
0.001417
100
AcDbLine
 10
43.922007
 20
99.91672800000001
 30
0.0
 11
43.97867199999999
 21
99.91630999999999
 31
0.0
  0
LINE
  5
23E
330
A
100
AcDbEntity
  8
Hawa4
 62
     4
 48
0.001417
100
AcDbLine
 10
43.95832399999999
 20
104.833594
 30
0.0
 11
44.01499
 21
104.833176
 31
0.0
  0
LINE
  5
23F
330
A
100
AcDbEntity
  8
Hawa4
 62
     4
 48
0.001416
100
AcDbLine
 10
44.018965
 20
105.374661
 30
0.0
 11
43.962324
 21
105.37508
 31
0.0
  0
ARC
  5
240
330
A
100
AcDbEntity
  8
Hawa4
 62
     4
100
AcDbCircle
 10
43.313838
 20
96.92348
 30
0.0
 40
1.0
100
AcDbArc
 50
180.0
 51
240.0
  0
LINE
  5
241
330
A
100
AcDbEntity
  8
Hawa4
 62
     4
 48
0.108253
100
AcDbLine
 10
42.81383799999999
 20
96.05745400000001
 30
0.0
 11
46.56383799999999
 21
93.89239100000001
 31
0.0
  0
ARC
  5
242
330
A
100
AcDbEntity
  8
Hawa4
 62
     4
100
AcDbCircle
 10
46.81383799999999
 20
94.325404
 30
0.0
 40
0.5
100
AcDbArc
 50
240.0
 51
360.0
  0
LINE
  5
243
330
A
100
AcDbEntity
  8
Hawa4
 62
     4
 48
0.025
100
AcDbLine
 10
47.31383799999999
 20
94.325404
 30
0.0
 11
47.31383799999999
 21
95.325404
 31
0.0
  0
LINE
  5
244
330
A
100
AcDbEntity
  8
Hawa4
 62
     4
 48
0.088604
100
AcDbLine
 10
47.31383799999999
 20
95.325404
 30
0.0
 11
50.857986
 21
95.325404
 31
0.0
  0
ARC
  5
245
330
A
100
AcDbEntity
  8
Hawa4
 62
     4
100
AcDbCircle
 10
50.857986
 20
94.325404
 30
0.0
 40
1.0
100
AcDbArc
 50
344.10419
 51
450.0
  0
ARC
  5
246
330
A
100
AcDbEntity
  8
Hawa4
 62
     4
100
AcDbCircle
 10
59.513838
 20
91.86040400000001
 30
0.0
 40
8.0
100
AcDbArc
 50
164.10419
 51
176.667805
  0
LINE
  5
247
330
A
100
AcDbEntity
  8
Hawa4
 62
     4
 48
0.017838
100
AcDbLine
 10
51.527364
 20
92.32540400000001
 30
0.0
 11
50.813838
 21
92.32540400000001
 31
0.0
  0
ARC
  5
248
330
A
100
AcDbEntity
  8
Hawa4
 62
     4
100
AcDbCircle
 10
50.813838
 20
91.825404
 30
0.0
 40
0.5
100
AcDbArc
 50
90.0
 51
180.0
  0
LINE
  5
249
330
A
100
AcDbEntity
  8
Hawa4
 62
     4
 48
0.033935
100
AcDbLine
 10
50.313838
 20
91.825404
 30
0.0
 11
50.313838
 21
90.467986
 31
0.0
  0
ARC
  5
24A
330
A
100
AcDbEntity
  8
Hawa4
 62
     4
100
AcDbCircle
 10
53.513838
 20
92.32540400000001
 30
0.0
 40
3.7
100
AcDbArc
 50
210.132722
 51
261.010701
  0
ARC
  5
24B
330
A
100
AcDbEntity
  8
Hawa4
 62
     4
100
AcDbCircle
 10
53.01383799999999
 20
89.16470699999999
 30
0.0
 40
0.5
100
AcDbArc
 50
261.010701
 51
360.0
  0
LINE
  5
24C
330
A
100
AcDbEntity
  8
Hawa4
 62
     4
 48
0.079017
100
AcDbLine
 10
53.513838
 20
89.16470699999999
 30
0.0
 11
53.513838
 21
92.32540400000001
 31
0.0
  0
ARC
  5
24D
330
A
100
AcDbEntity
  8
Hawa4
 62
     4
100
AcDbCircle
 10
59.513838
 20
91.86040400000001
 30
0.0
 40
6.017991999999999
100
AcDbArc
 50
156.067191
 51
175.568435
  0
ARC
  5
24E
330
A
100
AcDbEntity
  8
Hawa4
 62
     4
100
AcDbCircle
 10
35.934685
 20
102.325404
 30
0.0
 40
19.779154
100
AcDbArc
 50
336.0671910000001
 51
383.932809
  0
ARC
  5
24F
330
A
100
AcDbEntity
  8
Hawa4
 62
     4
100
AcDbCircle
 10
59.513838
 20
112.790404
 30
0.0
 40
6.017991999999999
100
AcDbArc
 50
184.431565
 51
203.932809
  0
LINE
  5
250
330
A
100
AcDbEntity
  8
Hawa4
 62
     4
 48
0.079017
100
AcDbLine
 10
53.513838
 20
112.325404
 30
0.0
 11
53.513838
 21
115.4861
 31
0.0
  0
ARC
  5
251
330
A
100
AcDbEntity
  8
Hawa4
 62
     4
100
AcDbCircle
 10
53.01383799999999
 20
115.4861
 30
0.0
 40
0.5
100
AcDbArc
 50
0.0
 51
98.989299
  0
ARC
  5
252
330
A
100
AcDbEntity
  8
Hawa4
 62
     4
100
AcDbCircle
 10
53.513838
 20
112.325404
 30
0.0
 40
3.7
100
AcDbArc
 50
98.989299
 51
149.867278
  0
LINE
  5
253
330
A
100
AcDbEntity
  8
Hawa4
 62
     4
 48
0.033935
100
AcDbLine
 10
50.313838
 20
114.182821
 30
0.0
 11
50.313838
 21
112.825404
 31
0.0
  0
ARC
  5
254
330
A
100
AcDbEntity
  8
Hawa4
 62
     4
100
AcDbCircle
 10
50.813838
 20
112.825404
 30
0.0
 40
0.5
100
AcDbArc
 50
180.0
 51
270.0
  0
LINE
  5
255
330
A
100
AcDbEntity
  8
Hawa4
 62
     4
 48
0.017838
100
AcDbLine
 10
51.527364
 20
112.325404
 30
0.0
 11
50.813838
 21
112.325404
 31
0.0
  0
ARC
  5
256
330
A
100
AcDbEntity
  8
Hawa4
 62
     4
100
AcDbCircle
 10
59.513838
 20
112.790404
 30
0.0
 40
8.0
100
AcDbArc
 50
183.332195
 51
195.89581
  0
ARC
  5
257
330
A
100
AcDbEntity
  8
Hawa4
 62
     4
100
AcDbCircle
 10
50.857986
 20
110.325404
 30
0.0
 40
1.0
100
AcDbArc
 50
270.0
 51
375.89581
  0
LINE
  5
258
330
A
100
AcDbEntity
  8
Hawa4
 62
     4
 48
0.088604
100
AcDbLine
 10
47.31383799999999
 20
109.325404
 30
0.0
 11
50.857986
 21
109.325404
 31
0.0
  0
LINE
  5
259
330
A
100
AcDbEntity
  8
Hawa4
 62
     4
 48
0.025
100
AcDbLine
 10
47.31383799999999
 20
109.325404
 30
0.0
 11
47.31383799999999
 21
110.325404
 31
0.0
  0
ARC
  5
25A
330
A
100
AcDbEntity
  8
Hawa4
 62
     4
100
AcDbCircle
 10
46.81383799999999
 20
110.325404
 30
0.0
 40
0.5
100
AcDbArc
 50
0.0
 51
120.0
  0
LINE
  5
25B
330
A
100
AcDbEntity
  8
Hawa4
 62
     4
 48
0.108253
100
AcDbLine
 10
42.81383799999999
 20
108.593353
 30
0.0
 11
46.56383799999999
 21
110.758416
 31
0.0
  0
ARC
  5
25C
330
A
100
AcDbEntity
  8
Hawa4
 62
     4
100
AcDbCircle
 10
43.313838
 20
107.727327
 30
0.0
 40
1.0
100
AcDbArc
 50
120.0
 51
180.0
  0
LINE
  5
25D
330
A
100
AcDbEntity
  8
Hawa4
 62
     4
 48
0.270096
100
AcDbLine
 10
42.31383799999999
 20
96.92348
 30
0.0
 11
42.31383799999999
 21
107.727327
 31
0.0
  0
LINE
  5
25E
330
A
100
AcDbEntity
  8
Hawa4
 62
     4
 48
0.185
100
AcDbLine
 10
44.31383799999999
 20
107.325404
 30
0.0
 11
51.713838
 21
107.325404
 31
0.0
  0
ARC
  5
25F
330
A
100
AcDbEntity
  8
Hawa4
 62
     4
100
AcDbCircle
 10
51.713838
 20
106.325404
 30
0.0
 40
1.0
100
AcDbArc
 50
360.0
 51
450.0
  0
LINE
  5
260
330
A
100
AcDbEntity
  8
Hawa4
 62
     4
 48
0.2
100
AcDbLine
 10
52.713838
 20
98.325404
 30
0.0
 11
52.713838
 21
106.325404
 31
0.0
  0
ARC
  5
261
330
A
100
AcDbEntity
  8
Hawa4
 62
     4
100
AcDbCircle
 10
51.713838
 20
98.325404
 30
0.0
 40
1.0
100
AcDbArc
 50
270.0
 51
360.0
  0
LINE
  5
262
330
A
100
AcDbEntity
  8
Hawa4
 62
     4
 48
0.185
100
AcDbLine
 10
51.713838
 20
97.32540400000001
 30
0.0
 11
44.31383799999999
 21
97.32540400000001
 31
0.0
  0
ARC
  5
263
330
A
100
AcDbEntity
  8
Hawa4
 62
     4
100
AcDbCircle
 10
44.31383799999999
 20
98.325404
 30
0.0
 40
1.0
100
AcDbArc
 50
180.0
 51
270.0
  0
LINE
  5
264
330
A
100
AcDbEntity
  8
Hawa4
 62
     4
 48
0.2
100
AcDbLine
 10
43.313838
 20
106.325404
 30
0.0
 11
43.313838
 21
98.325404
 31
0.0
  0
ARC
  5
265
330
A
100
AcDbEntity
  8
Hawa4
 62
     4
100
AcDbCircle
 10
44.31383799999999
 20
106.325404
 30
0.0
 40
1.0
100
AcDbArc
 50
90.0
 51
180.0
  0
LINE
  5
266
330
A
100
AcDbEntity
  8
Hawa6
 62
     3
100
AcDbLine
 10
214.370882
 20
67.996166
 30
0.0
 11
245.23868
 21
67.996166
 31
0.0
  0
LINE
  5
267
330
A
100
AcDbEntity
  8
Hawa4
 62
     4
 48
0.000196
100
AcDbLine
 10
245.23868
 20
67.996166
 30
0.0
 11
245.23868
 21
68.004013
 31
0.0
  0
LINE
  5
268
330
A
100
AcDbEntity
  8
Hawa6
 62
     3
100
AcDbLine
 10
214.370882
 20
68.453804
 30
0.0
 11
243.977423
 21
68.453804
 31
0.0
  0
LINE
  5
269
330
A
100
AcDbEntity
  8
Hawa4
 62
     4
 48
0.004012
100
AcDbLine
 10
245.078188
 20
68.453804
 30
0.0
 11
245.23868
 21
68.453804
 31
0.0
  0
LINE
  5
26A
330
A
100
AcDbEntity
  8
Hawa4
 62
     4
 48
0.00242
100
AcDbLine
 10
245.23868
 20
68.28268900000001
 30
0.0
 11
245.23868
 21
68.185874
 31
0.0
  0
LINE
  5
26B
330
A
100
AcDbEntity
  8
Hawa6
 62
     3
100
AcDbLine
 10
214.370882
 20
72.82530600000001
 30
0.0
 11
239.516915
 21
72.82530600000001
 31
0.0
  0
LINE
  5
26C
330
A
100
AcDbEntity
  8
Hawa6
 62
     3
 48
0.095464
100
AcDbLine
 10
241.420124
 20
72.82530600000001
 30
0.0
 11
245.23868
 21
72.82530600000001
 31
0.0
  0
LINE
  5
26D
330
A
100
AcDbEntity
  8
Hawa4
 62
     4
 48
0.007499
100
AcDbLine
 10
245.23868
 20
69.775403
 30
0.0
 11
245.23868
 21
70.075383
 31
0.0
  0
LINE
  5
26E
330
A
100
AcDbEntity
  8
Hawa4
 62
     4
 48
0.03815
100
AcDbLine
 10
245.23868
 20
71.299291
 30
0.0
 11
245.23868
 21
72.82530600000001
 31
0.0
  0
LINE
  5
26F
330
A
100
AcDbEntity
  8
Hawa4
 62
     4
 48
0.005183
100
AcDbLine
 10
245.23868
 20
73.032614
 30
0.0
 11
245.23868
 21
72.82530600000001
 31
0.0
  0
LINE
  5
270
330
A
100
AcDbEntity
  8
Hawa4
 62
     4
 48
0.002735
100
AcDbLine
 10
245.23868
 20
73.325404
 30
0.0
 11
245.23868
 21
73.21601
 31
0.0
  0
LINE
  5
271
330
A
100
AcDbEntity
  8
Hawa6
 62
     3
100
AcDbLine
 10
244.970659
 20
68.015845
 30
0.0
 11
214.370882
 21
68.015845
 31
0.0
  0
LINE
  5
272
330
A
100
AcDbEntity
  8
Hawa6
 62
     3
100
AcDbLine
 10
245.23868
 20
88.654641
 30
0.0
 11
214.370882
 21
88.654641
 31
0.0
  0
LINE
  5
273
330
A
100
AcDbEntity
  8
Hawa4
 62
     4
 48
0.000243
100
AcDbLine
 10
245.23868
 20
88.654641
 30
0.0
 11
245.23868
 21
88.644905
 31
0.0
  0
LINE
  5
274
330
A
100
AcDbEntity
  8
Hawa4
 62
     4
 48
0.002495
100
AcDbLine
 10
245.23868
 20
88.36429100000001
 30
0.0
 11
245.23868
 21
88.464076
 31
0.0
  0
LINE
  5
275
330
A
100
AcDbEntity
  8
Hawa4
 62
     4
 48
0.004013
100
AcDbLine
 10
245.23868
 20
88.197003
 30
0.0
 11
245.078149
 21
88.197003
 31
0.0
  0
LINE
  5
276
330
A
100
AcDbEntity
  8
Hawa6
 62
     3
100
AcDbLine
 10
243.978057
 20
88.197003
 30
0.0
 11
214.370882
 21
88.197003
 31
0.0
  0
LINE
  5
277
330
A
100
AcDbEntity
  8
Hawa4
 62
     4
 48
0.007507
100
AcDbLine
 10
245.23868
 20
86.575427
 30
0.0
 11
245.23868
 21
86.875709
 31
0.0
  0
LINE
  5
278
330
A
100
AcDbEntity
  8
Hawa4
 62
     4
 48
0.038104
100
AcDbLine
 10
245.23868
 20
83.82550100000001
 30
0.0
 11
245.23868
 21
85.349663
 31
0.0
  0
LINE
  5
279
330
A
100
AcDbEntity
  8
Hawa6
 62
     3
 48
0.095485
100
AcDbLine
 10
245.23868
 20
83.82550100000001
 30
0.0
 11
241.419263
 21
83.82550100000001
 31
0.0
  0
LINE
  5
27A
330
A
100
AcDbEntity
  8
Hawa6
 62
     3
100
AcDbLine
 10
239.517841
 20
83.82550100000001
 30
0.0
 11
214.370882
 21
83.82550100000001
 31
0.0
  0
LINE
  5
27B
330
A
100
AcDbEntity
  8
Hawa4
 62
     4
 48
0.005209
100
AcDbLine
 10
245.23868
 20
83.617129
 30
0.0
 11
245.23868
 21
83.82550100000001
 31
0.0
  0
LINE
  5
27C
330
A
100
AcDbEntity
  8
Hawa4
 62
     4
 48
0.002729
100
AcDbLine
 10
245.23868
 20
83.325404
 30
0.0
 11
245.23868
 21
83.43457800000001
 31
0.0
  0
LINE
  5
27D
330
A
100
AcDbEntity
  8
Hawa5
 62
     1
 48
0.138771
100
AcDbLine
 10
245.23868
 20
83.325404
 30
0.0
 11
239.687858
 21
83.325404
 31
0.0
  0
LINE
  5
27E
330
A
100
AcDbEntity
  8
Hawa5
 62
     1
100
AcDbLine
 10
239.681379
 20
83.325404
 30
0.0
 11
214.370882
 21
83.325404
 31
0.0
  0
LINE
  5
27F
330
A
100
AcDbEntity
  8
Hawa6
 62
     3
100
AcDbLine
 10
214.370882
 20
88.63496299999999
 30
0.0
 11
245.118113
 21
88.63496299999999
 31
0.0
  0
LINE
  5
464
330
A
100
AcDbEntity
  8
Hawa4
  6
DASHDOT
 62
     4
 48
0.039
100
AcDbLine
 10
254.094421
 20
70.675402
 30
0.0
 11
252.534408
 21
70.675402
 31
0.0
  0
LINE
  5
465
330
A
100
AcDbEntity
  8
Hawa4
  6
DASHDOT
 62
     4
 48
0.039
100
AcDbLine
 10
253.314422
 20
71.45540099999999
 30
0.0
 11
253.314422
 21
69.895403
 31
0.0
  0
LINE
  5
466
330
A
100
AcDbEntity
  8
Hawa4
  6
DASHDOT
 62
     4
 48
0.039
100
AcDbLine
 10
254.094421
 20
85.97539799999999
 30
0.0
 11
252.534408
 21
85.97539799999999
 31
0.0
  0
LINE
  5
467
330
A
100
AcDbEntity
  8
Hawa4
  6
DASHDOT
 62
     4
 48
0.039
100
AcDbLine
 10
253.314422
 20
86.75539599999998
 30
0.0
 11
253.314422
 21
85.19539899999999
 31
0.0
  0
LINE
  5
468
330
A
100
AcDbEntity
  8
Hawa4
  6
DASHDOT
 62
     4
 48
0.00975
100
AcDbLine
 10
135.063667
 20
88.95872000000002
 30
0.0
 11
134.673667
 21
88.95872000000002
 31
0.0
  0
LINE
  5
469
330
A
100
AcDbEntity
  8
Hawa4
  6
DASHDOT
 62
     4
 48
0.00975
100
AcDbLine
 10
134.868667
 20
89.15372699999997
 30
0.0
 11
134.868667
 21
88.763728
 31
0.0
  0
LINE
  5
46A
330
A
100
AcDbEntity
  8
Hawa4
  6
DASHDOT
 62
     4
 48
0.0325
100
AcDbLine
 10
133.153657
 20
98.314433
 30
0.0
 11
131.853658
 21
98.314433
 31
0.0
  0
LINE
  5
46B
330
A
100
AcDbEntity
  8
Hawa4
  6
DASHDOT
 62
     4
 48
0.0325
100
AcDbLine
 10
132.503658
 20
98.964426
 30
0.0
 11
132.503658
 21
97.664439
 31
0.0
  0
LINE
  5
46C
330
A
100
AcDbEntity
  8
Hawa4
  6
DASHDOT
 62
     4
 48
0.00975
100
AcDbLine
 10
130.288747
 20
88.97019399999999
 30
0.0
 11
129.898748
 21
88.97019399999999
 31
0.0
  0
LINE
  5
46D
330
A
100
AcDbEntity
  8
Hawa4
  6
DASHDOT
 62
     4
 48
0.00975
100
AcDbLine
 10
130.093748
 20
89.16518599999998
 30
0.0
 11
130.093748
 21
88.77518700000001
 31
0.0
  0
LINE
  5
46E
330
A
100
AcDbEntity
  8
Hawa4
  6
DASHDOT
 62
     4
 48
0.13
100
AcDbLine
 10
135.083969
 20
90.11445100000001
 30
0.0
 11
129.88397
 21
90.11445100000001
 31
0.0
  0
LINE
  5
46F
330
A
100
AcDbEntity
  8
Hawa4
  6
DASHDOT
 62
     4
 48
0.13
100
AcDbLine
 10
132.483968
 20
92.71445699999999
 30
0.0
 11
132.483968
 21
87.51445999999999
 31
0.0
  0
LINE
  5
472
330
A
100
AcDbEntity
  8
Hawa4
  6
DASHDOT
 62
     4
 48
0.052
100
AcDbLine
 10
133.543657
 20
98.314433
 30
0.0
 11
131.463657
 21
98.314433
 31
0.0
  0
LINE
  5
473
330
A
100
AcDbEntity
  8
Hawa4
  6
DASHDOT
 62
     4
 48
0.052
100
AcDbLine
 10
132.503658
 20
99.35442600000001
 30
0.0
 11
132.503658
 21
97.27442400000001
 31
0.0
  0
LINE
  5
476
330
A
100
AcDbEntity
  8
Hawa2
 62
     9
 48
0.020887
100
AcDbLine
 10
245.238677
 20
68.416178
 30
0.0
 11
245.829452
 21
67.82540400000001
 31
0.0
  0
LINE
  5
477
330
A
100
AcDbEntity
  8
Hawa2
 62
     9
 48
0.07955
100
AcDbLine
 10
246.407882
 20
70.075404
 30
0.0
 11
248.657882
 21
67.82540400000001
 31
0.0
  0
LINE
  5
478
330
A
100
AcDbEntity
  8
Hawa2
 62
     9
 48
0.07955
100
AcDbLine
 10
249.236312
 20
70.075404
 30
0.0
 11
251.486312
 21
67.82540400000001
 31
0.0
  0
LINE
  5
479
330
A
100
AcDbEntity
  8
Hawa2
 62
     9
 48
0.07251
100
AcDbLine
 10
252.263839
 20
69.876307
 30
0.0
 11
254.314743
 21
67.82540400000001
 31
0.0
  0
LINE
  5
47A
330
A
100
AcDbEntity
  8
Hawa2
 62
     9
 48
0.07955
100
AcDbLine
 10
254.893157
 20
70.075404
 30
0.0
 11
257.143157
 21
67.82540400000001
 31
0.0
  0
LINE
  5
47B
330
A
100
AcDbEntity
  8
Hawa2
 62
     9
 48
0.088388
100
AcDbLine
 10
256.738677
 20
71.05831399999999
 30
0.0
 11
259.238677
 21
68.55831399999999
 31
0.0
  0
LINE
  5
47C
330
A
100
AcDbEntity
  8
Hawa2
 62
     9
 48
0.088388
100
AcDbLine
 10
256.738677
 20
73.88674400000002
 30
0.0
 11
259.238677
 21
71.38674400000002
 31
0.0
  0
LINE
  5
47D
330
A
100
AcDbEntity
  8
Hawa2
 62
     9
 48
0.057975
100
AcDbLine
 10
245.238677
 20
88.21517400000001
 30
0.0
 11
246.878448
 21
86.575404
 31
0.0
  0
LINE
  5
47E
330
A
100
AcDbEntity
  8
Hawa2
 62
     9
 48
0.088388
100
AcDbLine
 10
256.738677
 20
76.715174
 30
0.0
 11
259.238677
 21
74.215174
 31
0.0
  0
LINE
  5
47F
330
A
100
AcDbEntity
  8
Hawa2
 62
     9
 48
0.07955
100
AcDbLine
 10
247.456878
 20
88.82540400000001
 30
0.0
 11
249.706878
 21
86.575404
 31
0.0
  0
LINE
  5
480
330
A
100
AcDbEntity
  8
Hawa2
 62
     9
 48
0.088388
100
AcDbLine
 10
256.738677
 20
79.54358900000002
 30
0.0
 11
259.238677
 21
77.04358900000002
 31
0.0
  0
LINE
  5
481
330
A
100
AcDbEntity
  8
Hawa2
 62
     9
 48
0.07955
100
AcDbLine
 10
250.285293
 20
88.82540400000001
 30
0.0
 11
252.535293
 21
86.575404
 31
0.0
  0
LINE
  5
482
330
A
100
AcDbEntity
  8
Hawa2
 62
     9
 48
0.088388
100
AcDbLine
 10
256.738677
 20
82.37201900000002
 30
0.0
 11
259.238677
 21
79.87201900000002
 31
0.0
  0
LINE
  5
483
330
A
100
AcDbEntity
  8
Hawa2
 62
     9
 48
0.07955
100
AcDbLine
 10
253.113723
 20
88.82540400000001
 30
0.0
 11
255.363723
 21
86.575404
 31
0.0
  0
LINE
  5
484
330
A
100
AcDbEntity
  8
Hawa2
 62
     9
 48
0.088388
100
AcDbLine
 10
256.738677
 20
85.200449
 30
0.0
 11
259.238677
 21
82.700449
 31
0.0
  0
LINE
  5
485
330
A
100
AcDbEntity
  8
Hawa2
 62
     9
 48
0.11655
100
AcDbLine
 10
255.942153
 20
88.82540400000001
 30
0.0
 11
259.238677
 21
85.52888000000001
 31
0.0
  0
LINE
  5
486
330
A
100
AcDbEntity
  8
Hawa2
 62
     9
 48
0.016463
100
AcDbLine
 10
258.771804
 20
88.82416799999999
 30
0.0
 11
259.237442
 21
88.35852999999998
 31
0.0
  0
LINE
  5
487
330
A
100
AcDbEntity
  8
Hawa2
 62
     9
 48
0.042426
100
AcDbLine
 10
252.041992
 20
70.075404
 30
0.0
 11
253.241989
 21
71.275401
 31
0.0
  0
LINE
  5
488
330
A
100
AcDbEntity
  8
Hawa2
 62
     9
 48
0.042427
100
AcDbLine
 10
249.213561
 20
70.075404
 30
0.0
 11
250.413574
 21
71.275401
 31
0.0
  0
LINE
  5
489
330
A
100
AcDbEntity
  8
Hawa2
 62
     9
 48
0.017671
100
AcDbLine
 10
251.115478
 20
71.97731999999999
 30
0.0
 11
251.61531
 21
72.477137
 31
0.0
  0
LINE
  5
48A
330
A
100
AcDbEntity
  8
Hawa2
 62
     9
 48
0.018162
100
AcDbLine
 10
244.446975
 20
68.137247
 30
0.0
 11
244.960678
 21
68.650942
 31
0.0
  0
LINE
  5
48B
330
A
100
AcDbEntity
  8
Hawa2
 62
     9
 48
0.060563
100
AcDbLine
 10
246.385147
 20
70.075404
 30
0.0
 11
248.098113
 21
71.78837800000001
 31
0.0
  0
LINE
  5
48C
330
A
100
AcDbEntity
  8
Hawa2
 62
     9
 48
0.060621
100
AcDbLine
 10
243.042083
 20
69.56076299999999
 30
0.0
 11
244.756713
 21
71.275401
 31
0.0
  0
LINE
  5
48D
330
A
100
AcDbEntity
  8
Hawa2
 62
     9
 48
0.013922
100
AcDbLine
 10
245.978622
 20
72.497309
 30
0.0
 11
246.372405
 21
72.89109999999999
 31
0.0
  0
LINE
  5
48E
330
A
100
AcDbEntity
  8
Hawa2
 62
     9
 48
0.036339
100
AcDbLine
 10
241.652496
 20
70.99962099999999
 30
0.0
 11
242.680328
 21
72.027438
 31
0.0
  0
LINE
  5
48F
330
A
100
AcDbEntity
  8
Hawa2
 62
     9
 48
0.026268
100
AcDbLine
 10
240.149353
 20
72.324892
 30
0.0
 11
240.892333
 21
73.067881
 31
0.0
  0
LINE
  5
490
330
A
100
AcDbEntity
  8
Hawa2
 62
     9
 48
0.02493
100
AcDbLine
 10
253.199859
 20
85.37540700000002
 30
0.0
 11
253.904998
 21
86.080546
 31
0.0
  0
LINE
  5
491
330
A
100
AcDbEntity
  8
Hawa2
 62
     9
 48
0.042426
100
AcDbLine
 10
250.371429
 20
85.37540700000002
 30
0.0
 11
251.571426
 21
86.575404
 31
0.0
  0
LINE
  5
492
330
A
100
AcDbEntity
  8
Hawa2
 62
     9
 48
0.114554
100
AcDbLine
 10
245.502944
 20
83.335337
 30
0.0
 11
248.743011
 21
86.575404
 31
0.0
  0
LINE
  5
493
330
A
100
AcDbEntity
  8
Hawa2
 62
     9
 48
0.042426
100
AcDbLine
 10
244.714584
 20
85.37540700000002
 30
0.0
 11
245.914581
 21
86.575404
 31
0.0
  0
LINE
  5
494
330
A
100
AcDbEntity
  8
Hawa2
 62
     9
 48
0.187297
100
AcDbLine
 10
239.850982
 20
83.34023499999998
 30
0.0
 11
245.148544
 21
88.63779699999998
 31
0.0
  0
LINE
  5
495
330
A
100
AcDbEntity
  8
Hawa2
 62
     9
 48
0.033028
100
AcDbLine
 10
129.405925
 20
71.11184899999999
 30
0.0
 11
130.340103
 21
70.17766800000001
 31
0.0
  0
LINE
  5
496
330
A
100
AcDbEntity
  8
Hawa2
 62
     9
 48
0.133189
100
AcDbLine
 10
129.403657
 20
73.94254500000002
 30
0.0
 11
133.170797
 21
70.175402
 31
0.0
  0
LINE
  5
497
330
A
100
AcDbEntity
  8
Hawa2
 62
     9
 48
0.233189
100
AcDbLine
 10
129.403657
 20
76.770976
 30
0.0
 11
135.999225
 21
70.175402
 31
0.0
  0
LINE
  5
498
330
A
100
AcDbEntity
  8
Hawa2
 62
     9
 48
0.22981
100
AcDbLine
 10
129.403657
 20
79.59939000000002
 30
0.0
 11
135.903655
 21
73.09939800000002
 31
0.0
  0
LINE
  5
499
330
A
100
AcDbEntity
  8
Hawa2
 62
     9
 48
0.068943
100
AcDbLine
 10
136.877651
 20
72.12540699999999
 30
0.0
 11
138.827651
 21
70.175402
 31
0.0
  0
LINE
  5
49A
330
A
100
AcDbEntity
  8
Hawa2
 62
     9
 48
0.041543
100
AcDbLine
 10
129.403657
 20
82.42782100000002
 30
0.0
 11
130.578657
 21
81.25281800000001
 31
0.0
  0
LINE
  5
49B
330
A
100
AcDbEntity
  8
Hawa2
 62
     9
 48
0.15214
100
AcDbLine
 10
131.800483
 20
80.03100099999997
 30
0.0
 11
136.103656
 21
75.72782400000001
 31
0.0
  0
LINE
  5
49C
330
A
100
AcDbEntity
  8
Hawa2
 62
     9
 48
0.068943
100
AcDbLine
 10
139.706077
 20
72.12540699999999
 30
0.0
 11
141.656078
 21
70.175402
 31
0.0
  0
LINE
  5
49D
330
A
100
AcDbEntity
  8
Hawa2
 62
     9
 48
0.041543
100
AcDbLine
 10
129.403657
 20
85.256251
 30
0.0
 11
130.578657
 21
84.08124800000001
 31
0.0
  0
LINE
  5
49E
330
A
100
AcDbEntity
  8
Hawa2
 62
     9
 48
0.062958
100
AcDbLine
 10
134.288368
 20
80.37154600000002
 30
0.0
 11
136.06908
 21
78.59083000000001
 31
0.0
  0
LINE
  5
49F
330
A
100
AcDbEntity
  8
Hawa2
 62
     9
 48
0.030403
100
AcDbLine
 10
142.543746
 20
72.116167
 30
0.0
 11
143.403655
 21
71.256251
 31
0.0
  0
LINE
  5
4A0
330
A
100
AcDbEntity
  8
Hawa2
 62
     9
 48
0.00798
100
AcDbLine
 10
131.020435
 20
86.46790499999999
 30
0.0
 11
131.246156
 21
86.24218199999999
 31
0.0
  0
LINE
  5
4A1
330
A
100
AcDbEntity
  8
Hawa2
 62
     9
 48
0.05922
100
AcDbLine
 10
134.428657
 20
83.05967199999997
 30
0.0
 11
136.103656
 21
81.38468400000002
 31
0.0
  0
LINE
  5
4A2
330
A
100
AcDbEntity
  8
Hawa2
 62
     9
 48
0.074546
100
AcDbLine
 10
133.889986
 20
86.42678300000001
 30
0.0
 11
135.998462
 21
84.31830799999998
 31
0.0
  0
LINE
  5
4A3
330
A
100
AcDbEntity
  8
Hawa2
 62
     9
 48
0.068943
100
AcDbLine
 10
136.669788
 20
86.475398
 30
0.0
 11
138.619789
 21
84.525401
 31
0.0
  0
LINE
  5
4A4
330
A
100
AcDbEntity
  8
Hawa2
 62
     9
 48
0.054801
100
AcDbLine
 10
139.498214
 20
86.475398
 30
0.0
 11
141.048213
 21
84.92541000000001
 31
0.0
  0
LINE
  5
4A5
330
A
100
AcDbEntity
  8
Hawa2
 62
     9
 48
0.038078
100
AcDbLine
 10
142.326641
 20
86.475398
 30
0.0
 11
143.403655
 21
85.39838600000001
 31
0.0
  0
LINE
  5
4A6
330
A
100
AcDbEntity
  8
Hawa2
 62
     9
 48
0.038501
100
AcDbLine
 10
140.565196
 20
71.73569
 30
0.0
 11
141.654155
 21
72.82464799999999
 31
0.0
  0
LINE
  5
4A7
330
A
100
AcDbEntity
  8
Hawa2
 62
     9
 48
0.024722
100
AcDbLine
 10
138.126483
 20
72.12540699999999
 30
0.0
 11
138.825729
 21
72.82464799999999
 31
0.0
  0
LINE
  5
4A8
330
A
100
AcDbEntity
  8
Hawa2
 62
     9
 48
0.025829
100
AcDbLine
 10
135.923091
 20
72.75043700000001
 30
0.0
 11
136.653655
 21
73.48100500000001
 31
0.0
  0
LINE
  5
4A9
330
A
100
AcDbEntity
  8
Hawa2
 62
     9
 48
0.026517
100
AcDbLine
 10
136.103656
 20
75.75943999999999
 30
0.0
 11
136.853656
 21
76.50943999999999
 31
0.0
  0
LINE
  5
4AA
330
A
100
AcDbEntity
  8
Hawa2
 62
     9
 48
0.026517
100
AcDbLine
 10
136.103656
 20
78.587855
 30
0.0
 11
136.853656
 21
79.337855
 31
0.0
  0
LINE
  5
4AB
330
A
100
AcDbEntity
  8
Hawa2
 62
     9
 48
0.031326
100
AcDbLine
 10
141.341953
 20
83.826151
 30
0.0
 11
142.2279889999999
 21
84.712183
 31
0.0
  0
LINE
  5
4AC
330
A
100
AcDbEntity
  8
Hawa2
 62
     9
 48
0.026517
100
AcDbLine
 10
136.103656
 20
81.41628500000001
 30
0.0
 11
136.853656
 21
82.166285
 31
0.0
  0
LINE
  5
4AD
330
A
100
AcDbEntity
  8
Hawa2
 62
     9
 48
0.024722
100
AcDbLine
 10
138.513526
 20
83.826151
 30
0.0
 11
139.212776
 21
84.525401
 31
0.0
  0
LINE
  5
4AE
330
A
100
AcDbEntity
  8
Hawa2
 62
     9
 48
0.005526
100
AcDbLine
 10
136.065849
 20
84.20690400000001
 30
0.0
 11
136.222156
 21
84.36321500000003
 31
0.0
  0
LINE
  5
4AF
330
A
100
AcDbEntity
  8
Hawa2
 62
     9
 48
0.060393
100
AcDbLine
 10
132.244184
 20
80.385249
 30
0.0
 11
133.952346
 21
82.09340899999999
 31
0.0
  0
LINE
  5
4B0
330
A
100
AcDbEntity
  8
Hawa2
 62
     9
 48
0.012215
100
AcDbLine
 10
131.040985
 20
82.010462
 30
0.0
 11
131.386476
 21
82.355967
 31
0.0
  0
LINE
  5
4B1
330
A
100
AcDbEntity
  8
Hawa2
 62
     9
 48
0.066887
100
AcDbLine
 10
131.620168
 20
82.58965500000002
 30
0.0
 11
133.51202
 21
84.48150099999999
 31
0.0
  0
LINE
  5
4B2
330
A
100
AcDbEntity
  8
Hawa2
 62
     9
 48
0.010151
100
AcDbLine
 10
133.9763669999999
 20
84.945856
 30
0.0
 11
134.263481
 21
85.23296599999998
 31
0.0
  0
LINE
  5
4B3
330
A
100
AcDbEntity
  8
Hawa2
 62
     9
 48
0.01588
100
AcDbLine
 10
130.545106
 20
84.343012
 30
0.0
 11
130.994268
 21
84.79218499999999
 31
0.0
  0
LINE
  5
4B4
330
A
100
AcDbEntity
  8
Hawa2
 62
     9
 48
0.12495
100
AcDbLine
 10
131.360866
 20
85.158778
 30
0.0
 11
134.894977
 21
88.69288100000002
 31
0.0
  0
LINE
  5
4B5
330
A
100
AcDbEntity
  8
Hawa2
 62
     9
 48
0.031355
100
AcDbLine
 10
129.769557
 20
86.395899
 30
0.0
 11
130.656402
 21
87.28274
 31
0.0
  0
LINE
  5
4B6
330
A
100
AcDbEntity
  8
Hawa2
 62
     9
 48
0.021411
100
AcDbLine
 10
131.058765
 20
87.68509899999999
 30
0.0
 11
131.664365
 21
88.29070499999998
 31
0.0
  0
LINE
  5
4B7
330
A
100
AcDbEntity
  8
Hawa2
 62
     9
 48
0.013177
100
AcDbLine
 10
134.30804
 20
90.93438199999999
 30
0.0
 11
134.68074
 21
91.30707800000001
 31
0.0
  0
LINE
  5
4B8
330
A
100
AcDbEntity
  8
Hawa2
 62
     9
 48
0.015306
100
AcDbLine
 10
130.058431
 20
89.513194
 30
0.0
 11
130.49135
 21
89.946116
 31
0.0
  0
LINE
  5
4B9
330
A
100
AcDbEntity
  8
Hawa2
 62
     9
 48
0.0251
100
AcDbLine
 10
132.652194
 20
92.10695900000001
 30
0.0
 11
133.362144
 21
92.816904
 31
0.0
  0
LINE
  5
4BA
330
A
100
AcDbEntity
  8
Hawa2
 62
     9
 48
0.035561
100
AcDbLine
 10
131.955305
 20
94.23849
 30
0.0
 11
132.961126
 21
95.244318
 31
0.0
  0
LINE
  5
4BB
330
A
100
AcDbEntity
  8
Hawa2
 62
     9
 48
0.025924
100
AcDbLine
 10
132.186416
 20
97.29802900000001
 30
0.0
 11
132.919649
 21
98.03126
 31
0.0
  0
LINE
  5
4BC
330
A
100
AcDbEntity
  8
Hawa2
 62
     9
 48
0.007759
100
AcDbLine
 10
134.68074
 20
91.30707800000001
 30
0.0
 11
134.900203
 21
91.526545
 31
0.0
  0
LINE
  5
4BD
330
A
100
AcDbEntity
  8
Hawa2
 62
     9
 48
0.008608
100
AcDbLine
 10
129.814958
 20
89.26972400000002
 30
0.0
 11
130.058431
 21
89.513194
 31
0.0
  0
LINE
  5
4BE
330
A
100
AcDbEntity
  8
Hawa2
 62
     9
 48
0.007801
100
AcDbLine
 10
133.362144
 20
92.816904
 30
0.0
 11
133.582797
 21
93.037562
 31
0.0
  0
LINE
  5
4BF
330
A
100
AcDbEntity
  8
Hawa2
 62
     9
 48
0.011506
100
AcDbLine
 10
131.629867
 20
93.913065
 30
0.0
 11
131.955305
 21
94.23849
 31
0.0
  0
LINE
  5
4C0
330
A
100
AcDbEntity
  8
Hawa2
 62
     9
 48
0.009931
100
AcDbLine
 10
132.961126
 20
95.244318
 30
0.0
 11
133.242013
 21
95.52520200000001
 31
0.0
  0
LINE
  5
4C1
330
A
100
AcDbEntity
  8
Hawa2
 62
     9
 48
0.011506
100
AcDbLine
 10
131.860979
 20
96.972605
 30
0.0
 11
132.186416
 21
97.29802900000001
 31
0.0
  0
LINE
  5
4C2
330
A
100
AcDbEntity
  8
Hawa2
 62
     9
 48
0.013367
100
AcDbLine
 10
132.919649
 20
98.03126
 30
0.0
 11
133.297718
 21
98.40934200000001
 31
0.0
  0
LINE
  5
4C3
330
A
100
AcDbEntity
  8
Hawa2
 62
     9
 48
0.008986
100
AcDbLine
 10
34.713836
 20
83.77955100000001
 30
0.0
 11
34.96798699999999
 21
83.525401
 31
0.0
  0
LINE
  5
4C4
330
A
100
AcDbEntity
  8
Hawa2
 62
     9
 48
0.09932
100
AcDbLine
 10
34.98721999999999
 20
86.33458900000002
 30
0.0
 11
37.796409
 21
83.525401
 31
0.0
  0
LINE
  5
4C5
330
A
100
AcDbEntity
  8
Hawa2
 62
     9
 48
0.191308
100
AcDbLine
 10
35.213836
 20
88.93639599999998
 30
0.0
 11
40.62483899999999
 21
83.525401
 31
0.0
  0
LINE
  5
4C6
330
A
100
AcDbEntity
  8
Hawa2
 62
     9
 48
0.106117
100
AcDbLine
 10
35.213836
 20
91.76482599999999
 30
0.0
 11
38.21527000000001
 21
88.76339200000002
 31
0.0
  0
LINE
  5
4C7
330
A
100
AcDbEntity
  8
Hawa2
 62
     9
 48
0.099046
100
AcDbLine
 10
40.65183199999999
 20
86.326838
 30
0.0
 11
43.45326599999999
 21
83.525401
 31
0.0
  0
LINE
  5
4C8
330
A
100
AcDbEntity
  8
Hawa2
 62
     9
 48
0.106066
100
AcDbLine
 10
35.213836
 20
94.59325599999999
 30
0.0
 11
38.21383599999999
 21
91.593256
 31
0.0
  0
LINE
  5
4C9
330
A
100
AcDbEntity
  8
Hawa2
 62
     9
 48
0.098995
100
AcDbLine
 10
43.48169299999999
 20
86.32540400000001
 30
0.0
 11
46.28169199999999
 21
83.525401
 31
0.0
  0
LINE
  5
4CA
330
A
100
AcDbEntity
  8
Hawa2
 62
     9
 48
0.106066
100
AcDbLine
 10
35.213836
 20
97.421687
 30
0.0
 11
38.21383599999999
 21
94.42168700000001
 31
0.0
  0
LINE
  5
4CB
330
A
100
AcDbEntity
  8
Hawa2
 62
     9
 48
0.109717
100
AcDbLine
 10
46.00686599999999
 20
86.62865699999997
 30
0.0
 11
49.11011799999999
 21
83.525401
 31
0.0
  0
LINE
  5
4CC
330
A
100
AcDbEntity
  8
Hawa2
 62
     9
 48
0.106066
100
AcDbLine
 10
35.213836
 20
100.250117
 30
0.0
 11
38.21383599999999
 21
97.25011700000001
 31
0.0
  0
LINE
  5
4CD
330
A
100
AcDbEntity
  8
Hawa2
 62
     9
 48
0.166125
100
AcDbLine
 10
47.23982599999999
 20
88.22413100000002
 30
0.0
 11
51.938545
 21
83.525401
 31
0.0
  0
LINE
  5
4CE
330
A
100
AcDbEntity
  8
Hawa2
 62
     9
 48
0.106066
100
AcDbLine
 10
35.213836
 20
103.078532
 30
0.0
 11
38.21383599999999
 21
100.078532
 31
0.0
  0
LINE
  5
4CF
330
A
100
AcDbEntity
  8
Hawa2
 62
     9
 48
0.106066
100
AcDbLine
 10
47.31383799999999
 20
90.97854100000001
 30
0.0
 11
50.313838
 21
87.97854099999998
 31
0.0
  0
LINE
  5
4D0
330
A
100
AcDbEntity
  8
Hawa2
 62
     9
 48
0.092136
100
AcDbLine
 10
51.966972
 20
86.32540400000001
 30
0.0
 11
54.57295600000001
 21
83.71941600000003
 31
0.0
  0
LINE
  5
4D1
330
A
100
AcDbEntity
  8
Hawa2
 62
     9
 48
0.106066
100
AcDbLine
 10
35.213836
 20
105.906962
 30
0.0
 11
38.21383599999999
 21
102.906962
 31
0.0
  0
LINE
  5
4D2
330
A
100
AcDbEntity
  8
Hawa2
 62
     9
 48
0.106066
100
AcDbLine
 10
47.31383799999999
 20
93.806971
 30
0.0
 11
50.313838
 21
90.806971
 31
0.0
  0
LINE
  5
4D3
330
A
100
AcDbEntity
  8
Hawa2
 62
     9
 48
0.077644
100
AcDbLine
 10
53.513839
 20
87.60695899999999
 30
0.0
 11
55.70994899999998
 21
85.41085299999997
 31
0.0
  0
LINE
  5
4D4
330
A
100
AcDbEntity
  8
Hawa2
 62
     9
 48
0.106066
100
AcDbLine
 10
35.213836
 20
108.735392
 30
0.0
 11
38.21383599999999
 21
105.735392
 31
0.0
  0
LINE
  5
4D5
330
A
100
AcDbEntity
  8
Hawa2
 62
     9
 48
0.059751
100
AcDbLine
 10
48.623828
 20
95.325404
 30
0.0
 11
50.313838
 21
93.635386
 31
0.0
  0
LINE
  5
4D6
330
A
100
AcDbEntity
  8
Hawa2
 62
     9
 48
0.060073
100
AcDbLine
 10
53.513839
 20
90.43538899999999
 30
0.0
 11
55.21296299999999
 21
88.73627699999998
 31
0.0
  0
LINE
  5
4D7
330
A
100
AcDbEntity
  8
Hawa2
 62
     9
 48
0.106066
100
AcDbLine
 10
35.213836
 20
111.563822
 30
0.0
 11
38.21383599999999
 21
108.563822
 31
0.0
  0
LINE
  5
4D8
330
A
100
AcDbEntity
  8
Hawa2
 62
     9
 48
0.106066
100
AcDbLine
 10
35.213836
 20
114.392252
 30
0.0
 11
38.21383599999999
 21
111.392252
 31
0.0
  0
LINE
  5
4D9
330
A
100
AcDbEntity
  8
Hawa2
 62
     9
 48
0.106066
100
AcDbLine
 10
35.213836
 20
117.220667
 30
0.0
 11
38.21383599999999
 21
114.220667
 31
0.0
  0
LINE
  5
4DA
330
A
100
AcDbEntity
  8
Hawa2
 62
     9
 48
0.131291
100
AcDbLine
 10
34.713836
 20
120.549097
 30
0.0
 11
38.42729499999999
 21
116.835642
 31
0.0
  0
LINE
  5
4DB
330
A
100
AcDbEntity
  8
Hawa2
 62
     9
 48
0.1038
100
AcDbLine
 10
36.965965
 20
121.125407
 30
0.0
 11
39.901874
 21
118.189494
 31
0.0
  0
LINE
  5
4DC
330
A
100
AcDbEntity
  8
Hawa2
 62
     9
 48
0.05134
100
AcDbLine
 10
47.31383799999999
 20
110.777522
 30
0.0
 11
48.765964
 21
109.325404
 31
0.0
  0
LINE
  5
4DD
330
A
100
AcDbEntity
  8
Hawa2
 62
     9
 48
0.098995
100
AcDbLine
 10
39.794391
 20
121.125407
 30
0.0
 11
42.59439
 21
118.325404
 31
0.0
  0
LINE
  5
4DE
330
A
100
AcDbEntity
  8
Hawa2
 62
     9
 48
0.106066
100
AcDbLine
 10
47.31383799999999
 20
113.605952
 30
0.0
 11
50.313838
 21
110.605952
 31
0.0
  0
LINE
  5
4DF
330
A
100
AcDbEntity
  8
Hawa2
 62
     9
 48
0.102696
100
AcDbLine
 10
42.62281699999999
 20
121.125407
 30
0.0
 11
45.527492
 21
118.220728
 31
0.0
  0
LINE
  5
4E0
330
A
100
AcDbEntity
  8
Hawa2
 62
     9
 48
0.109767
100
AcDbLine
 10
47.209163
 20
116.539057
 30
0.0
 11
50.313838
 21
113.434382
 31
0.0
  0
LINE
  5
4E1
330
A
100
AcDbEntity
  8
Hawa2
 62
     9
 48
0.171919
100
AcDbLine
 10
45.451244
 20
121.125407
 30
0.0
 11
50.313838
 21
116.262812
 31
0.0
  0
LINE
  5
4E2
330
A
100
AcDbEntity
  8
Hawa2
 62
     9
 48
0.098995
100
AcDbLine
 10
48.27967000000001
 20
121.125407
 30
0.0
 11
51.07967299999999
 21
118.325404
 31
0.0
  0
LINE
  5
4E3
330
A
100
AcDbEntity
  8
Hawa2
 62
     9
 48
0.05124
100
AcDbLine
 10
53.513839
 20
115.89123
 30
0.0
 11
54.96311899999999
 21
114.44195
 31
0.0
  0
LINE
  5
4E4
330
A
100
AcDbEntity
  8
Hawa2
 62
     9
 48
0.150648
100
AcDbLine
 10
51.10809999999999
 20
121.125407
 30
0.0
 11
55.369075
 21
116.86442
 31
0.0
  0
LINE
  5
4E5
330
A
100
AcDbEntity
  8
Hawa2
 62
     9
 48
0.061798
100
AcDbLine
 10
53.951263
 20
121.110667
 30
0.0
 11
55.69917599999999
 21
119.362757
 31
0.0
  0
LINE
  5
4E6
330
A
100
AcDbEntity
  8
Hawa2
 62
     9
 48
0.023043
100
AcDbLine
 10
52.86207099999999
 20
88.68436700000001
 30
0.0
 11
53.513839
 21
89.33613100000002
 31
0.0
  0
LINE
  5
4E7
330
A
100
AcDbEntity
  8
Hawa2
 62
     9
 48
0.089601
100
AcDbLine
 10
50.97953
 20
89.63025900000003
 30
0.0
 11
53.513839
 21
92.164561
 31
0.0
  0
LINE
  5
4E8
330
A
100
AcDbEntity
  8
Hawa2
 62
     9
 48
0.018824
100
AcDbLine
 10
50.313838
 20
91.79299399999999
 30
0.0
 11
50.84625199999999
 21
92.32540400000001
 31
0.0
  0
LINE
  5
4E9
330
A
100
AcDbEntity
  8
Hawa2
 62
     9
 48
0.111034
100
AcDbLine
 10
51.60880999999999
 20
93.08796200000001
 30
0.0
 11
54.74931299999999
 21
96.22846500000001
 31
0.0
  0
LINE
  5
4EA
330
A
100
AcDbEntity
  8
Hawa2
 62
     9
 48
0.160965
100
AcDbLine
 10
51.006526
 20
95.31411199999999
 30
0.0
 11
55.559307
 21
99.866892
 31
0.0
  0
LINE
  5
4EB
330
A
100
AcDbEntity
  8
Hawa2
 62
     9
 48
0.021623
100
AcDbLine
 10
46.70225499999999
 20
93.838267
 30
0.0
 11
47.31383799999999
 21
94.449839
 31
0.0
  0
LINE
  5
4EC
330
A
100
AcDbEntity
  8
Hawa2
 62
     9
 48
0.070711
100
AcDbLine
 10
48.18939899999999
 20
95.325404
 30
0.0
 11
50.18939899999999
 21
97.32540400000001
 31
0.0
  0
LINE
  5
4ED
330
A
100
AcDbEntity
  8
Hawa2
 62
     9
 48
0.10578
100
AcDbLine
 10
52.713836
 20
99.84984799999999
 30
0.0
 11
55.705738
 21
102.841746
 31
0.0
  0
LINE
  5
4EE
330
A
100
AcDbEntity
  8
Hawa2
 62
     9
 48
0.087265
100
AcDbLine
 10
44.892757
 20
94.85718799999999
 30
0.0
 11
47.36096899999999
 21
97.32540400000001
 31
0.0
  0
LINE
  5
4EF
330
A
100
AcDbEntity
  8
Hawa2
 62
     9
 48
0.097366
100
AcDbLine
 10
52.713836
 20
102.678278
 30
0.0
 11
55.46776499999999
 21
105.4322
 31
0.0
  0
LINE
  5
4F0
330
A
100
AcDbEntity
  8
Hawa2
 62
     9
 48
0.050662
100
AcDbLine
 10
43.09960499999999
 20
95.892466
 30
0.0
 11
44.532543
 21
97.32540400000001
 31
0.0
  0
LINE
  5
4F1
330
A
100
AcDbEntity
  8
Hawa2
 62
     9
 48
0.079247
100
AcDbLine
 10
52.713836
 20
105.506693
 30
0.0
 11
54.95527199999999
 21
107.748133
 31
0.0
  0
LINE
  5
4F2
330
A
100
AcDbEntity
  8
Hawa2
 62
     9
 48
0.035355
100
AcDbLine
 10
42.31383799999999
 20
97.93513
 30
0.0
 11
43.313838
 21
98.93513
 31
0.0
  0
LINE
  5
4F3
330
A
100
AcDbEntity
  8
Hawa2
 62
     9
 48
0.089186
100
AcDbLine
 10
51.704116
 20
107.325404
 30
0.0
 11
54.226676
 21
109.847971
 31
0.0
  0
LINE
  5
4F4
330
A
100
AcDbEntity
  8
Hawa2
 62
     9
 48
0.035355
100
AcDbLine
 10
42.31383799999999
 20
100.76356
 30
0.0
 11
43.313838
 21
101.76356
 31
0.0
  0
LINE
  5
4F5
330
A
100
AcDbEntity
  8
Hawa2
 62
     9
 48
0.07073
100
AcDbLine
 10
48.87569
 20
107.325404
 30
0.0
 11
50.87623199999999
 21
109.325953
 31
0.0
  0
LINE
  5
4F6
330
A
100
AcDbEntity
  8
Hawa2
 62
     9
 48
0.059793
100
AcDbLine
 10
51.857746
 20
110.307459
 30
0.0
 11
53.54893399999999
 21
111.998652
 31
0.0
  0
LINE
  5
4F7
330
A
100
AcDbEntity
  8
Hawa2
 62
     9
 48
0.035355
100
AcDbLine
 10
42.31383799999999
 20
103.591975
 30
0.0
 11
43.313838
 21
104.591975
 31
0.0
  0
LINE
  5
4F8
330
A
100
AcDbEntity
  8
Hawa2
 62
     9
 48
0.070711
100
AcDbLine
 10
46.04726399999999
 20
107.325404
 30
0.0
 11
48.04726399999999
 21
109.325404
 31
0.0
  0
LINE
  5
4F9
330
A
100
AcDbEntity
  8
Hawa2
 62
     9
 48
0.087207
100
AcDbLine
 10
51.047264
 20
112.325404
 30
0.0
 11
53.513839
 21
114.791987
 31
0.0
  0
LINE
  5
4FA
330
A
100
AcDbEntity
  8
Hawa2
 62
     9
 48
0.155329
100
AcDbLine
 10
42.31383799999999
 20
106.420405
 30
0.0
 11
46.70720999999999
 21
110.813776
 31
0.0
  0
VIEWPORT
  5
280
102
{ACAD_XDICTIONARY
360
803
102
}
330
B
100
AcDbEntity
 67
     1
  8
0
 62
     0
100
AcDbViewport
 10
0.0
 20
0.0
 30
0.0
 40
1000.0
 41
1000.0
 68
     1
 69
     1
 12
0.0
 22
0.0
 13
0.0
 23
0.0
 14
1.0
 24
1.0
 15
1.0
 25
1.0
 16
0.0
 26
0.0
 36
1.0
 17
0.0
 27
0.0
 37
0.0
 42
50.0
 43
0.0
 44
0.0
 45
1000.0
 50
0.0
 51
0.0
 72
   100
 90
   557216
  1

281
     0
 71
     1
 74
     0
110
0.0
120
0.0
130
0.0
111
1.0
121
0.0
131
0.0
112
0.0
122
1.0
132
0.0
 79
     0
146
0.0
  0
ENDSEC
  0
SECTION
  2
OBJECTS
  0
DICTIONARY
  5
19
330
0
100
AcDbDictionary
281
     1
  3
ACAD_COLOR
350
520
  3
ACAD_GROUP
350
1A
  3
ACAD_LAYOUT
350
43F
  3
ACAD_MATERIAL
350
50B
  3
ACAD_MLEADERSTYLE
350
502
  3
ACAD_MLINESTYLE
350
1B
  3
ACAD_PLOTSETTINGS
350
523
  3
ACAD_PLOTSTYLENAME
350
509
  3
ACAD_SCALELIST
350
442
  3
ACAD_TABLESTYLE
350
521
  3
ACAD_VISUALSTYLE
350
50F
  3
AcDbVariableDictionary
350
500
  3
DWGPROPS
350
802
  0
DICTIONARY
  5
803
330
280
100
AcDbDictionary
280
     1
281
     1
  3
ACAD_XREC_ROUNDTRIP
360
804
  0
DICTIONARY
  5
520
102
{ACAD_REACTORS
330
19
102
}
330
19
100
AcDbDictionary
281
     1
  0
DICTIONARY
  5
1A
102
{ACAD_REACTORS
330
19
102
}
330
19
100
AcDbDictionary
281
     1
  0
DICTIONARY
  5
43F
102
{ACAD_REACTORS
330
19
102
}
330
19
100
AcDbDictionary
281
     1
  3
Layout1
350
441
  3
Model
350
440
  0
DICTIONARY
  5
50B
102
{ACAD_REACTORS
330
19
102
}
330
19
100
AcDbDictionary
281
     1
  3
ByBlock
350
50D
  3
ByLayer
350
50C
  3
Global
350
50E
  0
DICTIONARY
  5
502
102
{ACAD_REACTORS
330
19
102
}
330
19
100
AcDbDictionary
281
     1
  0
DICTIONARY
  5
1B
102
{ACAD_REACTORS
330
19
102
}
330
19
100
AcDbDictionary
281
     1
  3
STANDARD
350
1C
  0
DICTIONARY
  5
523
102
{ACAD_REACTORS
330
19
102
}
330
19
100
AcDbDictionary
281
     1
  0
ACDBDICTIONARYWDFLT
  5
509
102
{ACAD_REACTORS
330
19
102
}
330
19
100
AcDbDictionary
281
     1
  3
Normal
350
50A
100
AcDbDictionaryWithDefault
340
50A
  0
DICTIONARY
  5
442
102
{ACAD_REACTORS
330
19
102
}
330
19
100
AcDbDictionary
281
     1
  3
A0
350
443
  3
A1
350
444
  3
A2
350
445
  3
A3
350
446
  3
A4
350
447
  3
A5
350
448
  3
A6
350
449
  3
A7
350
44A
  3
A8
350
44B
  3
A9
350
44C
  3
B0
350
44D
  3
B1
350
44E
  3
B2
350
44F
  3
B3
350
450
  3
B4
350
451
  3
B5
350
452
  3
B6
350
453
  3
B7
350
454
  3
B8
350
455
  3
B9
350
456
  3
C0
350
457
  3
C1
350
458
  3
C2
350
459
  3
C3
350
45A
  3
C4
350
45B
  3
C5
350
45C
  3
C6
350
45D
  3
C7
350
45E
  3
C8
350
45F
  3
C9
350
460
  3
D0
350
461
  3
D1
350
462
  3
D2
350
463
  0
DICTIONARY
  5
521
102
{ACAD_REACTORS
330
19
102
}
330
19
100
AcDbDictionary
281
     1
  3
Standard
350
522
  0
DICTIONARY
  5
50F
102
{ACAD_REACTORS
330
19
102
}
330
19
100
AcDbDictionary
281
     1
  3
2dWireframe
350
515
  3
3D Hidden
350
517
  3
3dWireframe
350
516
  3
Basic
350
514
  3
Brighten
350
51B
  3
ColorChange
350
51F
  3
Conceptual
350
518
  3
Dim
350
51A
  3
Facepattern
350
51E
  3
Flat
350
510
  3
FlatWithEdges
350
511
  3
Gouraud
350
512
  3
GouraudWithEdges
350
513
  3
Linepattern
350
51D
  3
Realistic
350
519
  3
Thicken
350
51C
  0
DICTIONARY
  5
500
102
{ACAD_REACTORS
330
19
102
}
330
19
100
AcDbDictionary
281
     1
  3
CANNOSCALE
350
503
  3
CTABLESTYLE
350
6EC
  3
DIMASSOC
350
6EF
  3
INDEXCTL
350
6EE
  3
SORTENTS
350
6ED
  0
XRECORD
  5
802
102
{ACAD_REACTORS
330
19
102
}
330
19
100
AcDbXrecord
280
     1
  1
DWGPROPS COOKIE
  2

  3

  4

  6

  7

  8
rhu
  9

300
=
301
=
302
=
303
=
304
=
305
=
306
=
307
=
308
=
309
=
 40
0.0861006712962963
 41
2447893.0
 42
2455790.550899132
  1

 90
        0
  0
XRECORD
  5
804
102
{ACAD_REACTORS
330
803
102
}
330
803
100
AcDbXrecord
280
     1
102
SHADEPLOT
 70
     0
  0
LAYOUT
  5
441
102
{ACAD_XDICTIONARY
360
807
102
}
102
{ACAD_REACTORS
330
43F
102
}
330
43F
100
AcDbPlotSettings
  1

  2
none_device
  4

  6

 40
0.0
 41
0.0
 42
0.0
 43
0.0
 44
0.0
 45
0.0
 46
0.0
 47
0.0
 48
0.0
 49
0.0
140
0.0
141
0.0
142
1.0
143
1.0
 70
   688
 72
     0
 73
     0
 74
     5
  7

 75
    16
147
1.0
148
0.0
149
0.0
100
AcDbLayout
  1
Layout1
 70
     1
 71
     1
 10
0.0
 20
0.0
 11
420.0
 21
297.0
 12
0.0
 22
0.0
 32
0.0
 14
0.0
 24
0.0
 34
0.0
 15
168.819046
 25
203.970047
 35
2.0
146
0.0
 13
0.0
 23
0.0
 33
0.0
 16
1.0
 26
0.0
 36
0.0
 17
0.0
 27
1.0
 37
0.0
 76
     0
330
B
331
280
  0
LAYOUT
  5
440
102
{ACAD_XDICTIONARY
360
805
102
}
102
{ACAD_REACTORS
330
43F
102
}
330
43F
100
AcDbPlotSettings
  1

  2
none_device
  4

  6

 40
0.0
 41
0.0
 42
0.0
 43
0.0
 44
0.0
 45
0.0
 46
0.0
 47
0.0
 48
0.0
 49
0.0
140
0.0
141
0.0
142
1.0
143
1.0
 70
   688
 72
     0
 73
     0
 74
     5
  7

 75
    16
147
1.0
148
0.0
149
0.0
100
AcDbLayout
  1
Model
 70
     1
 71
     0
 10
0.0
 20
0.0
 11
0.0
 21
0.0
 12
0.0
 22
0.0
 32
0.0
 14
0.0
 24
0.0
 34
0.0
 15
0.0
 25
0.0
 35
0.0
146
0.0
 13
0.0
 23
0.0
 33
0.0
 16
1.0
 26
0.0
 36
0.0
 17
0.0
 27
1.0
 37
0.0
 76
     0
330
A
331
15
  0
MATERIAL
  5
50D
102
{ACAD_XDICTIONARY
360
80B
102
}
102
{ACAD_REACTORS
330
50B
102
}
330
50B
100
AcDbMaterial
  1
ByBlock
  0
MATERIAL
  5
50C
102
{ACAD_XDICTIONARY
360
809
102
}
102
{ACAD_REACTORS
330
50B
102
}
330
50B
100
AcDbMaterial
  1
ByLayer
  0
MATERIAL
  5
50E
102
{ACAD_XDICTIONARY
360
80D
102
}
102
{ACAD_REACTORS
330
50B
102
}
330
50B
100
AcDbMaterial
  1
Global
  0
MLINESTYLE
  5
1C
102
{ACAD_REACTORS
330
1B
102
}
330
1B
100
AcDbMlineStyle
  2
STANDARD
 70
     0
  3

 62
     0
 51
90.0
 52
90.0
 71
     2
 49
0.5
 62
   256
  6
BYLAYER
 49
-0.5
 62
   256
  6
BYLAYER
  0
ACDBPLACEHOLDER
  5
50A
102
{ACAD_REACTORS
330
509
102
}
330
509
  0
SCALE
  5
443
102
{ACAD_REACTORS
330
442
102
}
330
442
100
AcDbScale
 70
     0
300
1:1
140
1.0
141
1.0
290
     1
1001
ACAD
1000
AcRTDxfName
1000
SCALE
  0
SCALE
  5
444
102
{ACAD_REACTORS
330
442
102
}
330
442
100
AcDbScale
 70
     0
300
1:2
140
1.0
141
2.0
290
     0
1001
ACAD
1000
AcRTDxfName
1000
SCALE
  0
SCALE
  5
445
102
{ACAD_REACTORS
330
442
102
}
330
442
100
AcDbScale
 70
     0
300
1:4
140
1.0
141
4.0
290
     0
1001
ACAD
1000
AcRTDxfName
1000
SCALE
  0
SCALE
  5
446
102
{ACAD_REACTORS
330
442
102
}
330
442
100
AcDbScale
 70
     0
300
1:5
140
1.0
141
5.0
290
     0
1001
ACAD
1000
AcRTDxfName
1000
SCALE
  0
SCALE
  5
447
102
{ACAD_REACTORS
330
442
102
}
330
442
100
AcDbScale
 70
     0
300
1:8
140
1.0
141
8.0
290
     0
1001
ACAD
1000
AcRTDxfName
1000
SCALE
  0
SCALE
  5
448
102
{ACAD_REACTORS
330
442
102
}
330
442
100
AcDbScale
 70
     0
300
1:10
140
1.0
141
10.0
290
     0
1001
ACAD
1000
AcRTDxfName
1000
SCALE
  0
SCALE
  5
449
102
{ACAD_REACTORS
330
442
102
}
330
442
100
AcDbScale
 70
     0
300
1:16
140
1.0
141
16.0
290
     0
1001
ACAD
1000
AcRTDxfName
1000
SCALE
  0
SCALE
  5
44A
102
{ACAD_REACTORS
330
442
102
}
330
442
100
AcDbScale
 70
     0
300
1:20
140
1.0
141
20.0
290
     0
1001
ACAD
1000
AcRTDxfName
1000
SCALE
  0
SCALE
  5
44B
102
{ACAD_REACTORS
330
442
102
}
330
442
100
AcDbScale
 70
     0
300
1:30
140
1.0
141
30.0
290
     0
1001
ACAD
1000
AcRTDxfName
1000
SCALE
  0
SCALE
  5
44C
102
{ACAD_REACTORS
330
442
102
}
330
442
100
AcDbScale
 70
     0
300
1:40
140
1.0
141
40.0
290
     0
1001
ACAD
1000
AcRTDxfName
1000
SCALE
  0
SCALE
  5
44D
102
{ACAD_REACTORS
330
442
102
}
330
442
100
AcDbScale
 70
     0
300
1:50
140
1.0
141
50.0
290
     0
1001
ACAD
1000
AcRTDxfName
1000
SCALE
  0
SCALE
  5
44E
102
{ACAD_REACTORS
330
442
102
}
330
442
100
AcDbScale
 70
     0
300
1:100
140
1.0
141
100.0
290
     0
1001
ACAD
1000
AcRTDxfName
1000
SCALE
  0
SCALE
  5
44F
102
{ACAD_REACTORS
330
442
102
}
330
442
100
AcDbScale
 70
     0
300
2:1
140
2.0
141
1.0
290
     0
1001
ACAD
1000
AcRTDxfName
1000
SCALE
  0
SCALE
  5
450
102
{ACAD_REACTORS
330
442
102
}
330
442
100
AcDbScale
 70
     0
300
4:1
140
4.0
141
1.0
290
     0
1001
ACAD
1000
AcRTDxfName
1000
SCALE
  0
SCALE
  5
451
102
{ACAD_REACTORS
330
442
102
}
330
442
100
AcDbScale
 70
     0
300
8:1
140
8.0
141
1.0
290
     0
1001
ACAD
1000
AcRTDxfName
1000
SCALE
  0
SCALE
  5
452
102
{ACAD_REACTORS
330
442
102
}
330
442
100
AcDbScale
 70
     0
300
10:1
140
10.0
141
1.0
290
     0
1001
ACAD
1000
AcRTDxfName
1000
SCALE
  0
SCALE
  5
453
102
{ACAD_REACTORS
330
442
102
}
330
442
100
AcDbScale
 70
     0
300
100:1
140
100.0
141
1.0
290
     0
1001
ACAD
1000
AcRTDxfName
1000
SCALE
  0
SCALE
  5
454
102
{ACAD_REACTORS
330
442
102
}
330
442
100
AcDbScale
 70
     0
300
1/128" = 1'-0"
140
0.0078125
141
12.0
290
     0
1001
ACAD
1000
AcRTDxfName
1000
SCALE
  0
SCALE
  5
455
102
{ACAD_REACTORS
330
442
102
}
330
442
100
AcDbScale
 70
     0
300
1/64" = 1'-0"
140
0.015625
141
12.0
290
     0
1001
ACAD
1000
AcRTDxfName
1000
SCALE
  0
SCALE
  5
456
102
{ACAD_REACTORS
330
442
102
}
330
442
100
AcDbScale
 70
     0
300
1/32" = 1'-0"
140
0.03125
141
12.0
290
     0
1001
ACAD
1000
AcRTDxfName
1000
SCALE
  0
SCALE
  5
457
102
{ACAD_REACTORS
330
442
102
}
330
442
100
AcDbScale
 70
     0
300
1/16" = 1'-0"
140
0.0625
141
12.0
290
     0
1001
ACAD
1000
AcRTDxfName
1000
SCALE
  0
SCALE
  5
458
102
{ACAD_REACTORS
330
442
102
}
330
442
100
AcDbScale
 70
     0
300
3/32" = 1'-0"
140
0.09375
141
12.0
290
     0
1001
ACAD
1000
AcRTDxfName
1000
SCALE
  0
SCALE
  5
459
102
{ACAD_REACTORS
330
442
102
}
330
442
100
AcDbScale
 70
     0
300
1/8" = 1'-0"
140
0.125
141
12.0
290
     0
1001
ACAD
1000
AcRTDxfName
1000
SCALE
  0
SCALE
  5
45A
102
{ACAD_REACTORS
330
442
102
}
330
442
100
AcDbScale
 70
     0
300
3/16" = 1'-0"
140
0.1875
141
12.0
290
     0
1001
ACAD
1000
AcRTDxfName
1000
SCALE
  0
SCALE
  5
45B
102
{ACAD_REACTORS
330
442
102
}
330
442
100
AcDbScale
 70
     0
300
1/4" = 1'-0"
140
0.25
141
12.0
290
     0
1001
ACAD
1000
AcRTDxfName
1000
SCALE
  0
SCALE
  5
45C
102
{ACAD_REACTORS
330
442
102
}
330
442
100
AcDbScale
 70
     0
300
3/8" = 1'-0"
140
0.375
141
12.0
290
     0
1001
ACAD
1000
AcRTDxfName
1000
SCALE
  0
SCALE
  5
45D
102
{ACAD_REACTORS
330
442
102
}
330
442
100
AcDbScale
 70
     0
300
1/2" = 1'-0"
140
0.5
141
12.0
290
     0
1001
ACAD
1000
AcRTDxfName
1000
SCALE
  0
SCALE
  5
45E
102
{ACAD_REACTORS
330
442
102
}
330
442
100
AcDbScale
 70
     0
300
3/4" = 1'-0"
140
0.75
141
12.0
290
     0
1001
ACAD
1000
AcRTDxfName
1000
SCALE
  0
SCALE
  5
45F
102
{ACAD_REACTORS
330
442
102
}
330
442
100
AcDbScale
 70
     0
300
1" = 1'-0"
140
1.0
141
12.0
290
     0
1001
ACAD
1000
AcRTDxfName
1000
SCALE
  0
SCALE
  5
460
102
{ACAD_REACTORS
330
442
102
}
330
442
100
AcDbScale
 70
     0
300
1-1/2" = 1'-0"
140
1.5
141
12.0
290
     0
1001
ACAD
1000
AcRTDxfName
1000
SCALE
  0
SCALE
  5
461
102
{ACAD_REACTORS
330
442
102
}
330
442
100
AcDbScale
 70
     0
300
3" = 1'-0"
140
3.0
141
12.0
290
     0
1001
ACAD
1000
AcRTDxfName
1000
SCALE
  0
SCALE
  5
462
102
{ACAD_REACTORS
330
442
102
}
330
442
100
AcDbScale
 70
     0
300
6" = 1'-0"
140
6.0
141
12.0
290
     0
1001
ACAD
1000
AcRTDxfName
1000
SCALE
  0
SCALE
  5
463
102
{ACAD_REACTORS
330
442
102
}
330
442
100
AcDbScale
 70
     0
300
1'-0" = 1'-0"
140
12.0
141
12.0
290
     0
1001
ACAD
1000
AcRTDxfName
1000
SCALE
  0
TABLESTYLE
  5
522
102
{ACAD_XDICTIONARY
360
80F
102
}
102
{ACAD_REACTORS
330
521
102
}
330
521
100
AcDbTableStyle
  3
Standard
 70
     0
 71
     0
 40
1.5
 41
1.5
280
     0
281
     0
  7
STANDARD
140
4.5
170
     2
 62
     0
 63
     7
283
     0
274
    -2
284
     1
 64
     0
275
    -2
285
     1
 65
     0
276
    -2
286
     1
 66
     0
277
    -2
287
     1
 67
     0
278
    -2
288
     1
 68
     0
279
    -2
289
     1
 69
     0
  7
STANDARD
140
6.0
170
     5
 62
     0
 63
     7
283
     0
274
    -2
284
     1
 64
     0
275
    -2
285
     1
 65
     0
276
    -2
286
     1
 66
     0
277
    -2
287
     1
 67
     0
278
    -2
288
     1
 68
     0
279
    -2
289
     1
 69
     0
  7
STANDARD
140
4.5
170
     5
 62
     0
 63
     7
283
     0
274
    -2
284
     1
 64
     0
275
    -2
285
     1
 65
     0
276
    -2
286
     1
 66
     0
277
    -2
287
     1
 67
     0
278
    -2
288
     1
 68
     0
279
    -2
289
     1
 69
     0
  0
VISUALSTYLE
  5
515
102
{ACAD_REACTORS
330
50F
102
}
330
50F
100
AcDbVisualStyle
  2
2dWireframe
 70
     4
 71
     0
 72
     2
 73
     0
 90
        0
 40
-0.6
 41
-30.0
 62
     5
 63
     7
 74
     1
 91
        4
 64
     7
 65
   257
 75
     1
175
     1
 42
1.0
 92
        0
 66
   257
 43
1.0
 76
     1
 77
     6
 78
     2
 67
     7
 79
     5
170
     0
171
     0
290
     0
174
     0
 93
        1
 44
0.0
173
     0
291
     0
 45
0.0
1001
ACAD
1000
AcDbSavedByObjectVersion
1070
     0
  0
VISUALSTYLE
  5
517
102
{ACAD_REACTORS
330
50F
102
}
330
50F
100
AcDbVisualStyle
  2
3D Hidden
 70
     6
 71
     1
 72
     2
 73
     2
 90
        0
 40
-0.6
 41
-30.0
 62
     5
 63
     7
 74
     2
 91
        2
 64
     7
 65
   257
 75
     2
175
     1
 42
40.0
 92
        0
 66
   257
 43
1.0
 76
     1
 77
     6
 78
     2
 67
     7
 79
     3
170
     0
171
     0
290
     0
174
     0
 93
        1
 44
0.0
173
     0
291
     0
 45
0.0
1001
ACAD
1000
AcDbSavedByObjectVersion
1070
     0
  0
VISUALSTYLE
  5
516
102
{ACAD_REACTORS
330
50F
102
}
330
50F
100
AcDbVisualStyle
  2
3dWireframe
 70
     5
 71
     0
 72
     2
 73
     0
 90
        0
 40
-0.6
 41
-30.0
 62
     5
 63
     7
 74
     1
 91
        4
 64
     7
 65
   257
 75
     1
175
     1
 42
1.0
 92
        0
 66
   257
 43
1.0
 76
     1
 77
     6
 78
     2
 67
     7
 79
     5
170
     0
171
     0
290
     0
174
     0
 93
        1
 44
0.0
173
     0
291
     0
 45
0.0
1001
ACAD
1000
AcDbSavedByObjectVersion
1070
     0
  0
VISUALSTYLE
  5
514
102
{ACAD_REACTORS
330
50F
102
}
330
50F
100
AcDbVisualStyle
  2
Basic
 70
     7
 71
     1
 72
     0
 73
     1
 90
        0
 40
-0.6
 41
-30.0
 62
     5
 63
     7
 74
     0
 91
        4
 64
     7
 65
   257
 75
     1
175
     1
 42
1.0
 92
        8
 66
     7
 43
1.0
 76
     1
 77
     6
 78
     2
 67
     7
 79
     5
170
     0
171
     0
290
     0
174
     0
 93
        1
 44
0.0
173
     0
291
     1
 45
0.0
1001
ACAD
1000
AcDbSavedByObjectVersion
1070
     0
  0
VISUALSTYLE
  5
51B
102
{ACAD_REACTORS
330
50F
102
}
330
50F
100
AcDbVisualStyle
  2
Brighten
 70
    12
 71
     2
 72
     2
 73
     0
 90
        0
 40
-0.6
 41
-30.0
 62
     5
 63
     7
 74
     1
 91
        4
 64
     7
 65
   257
 75
     1
175
     1
 42
1.0
 92
        8
 66
     7
 43
1.0
 76
     1
 77
     6
 78
     2
 67
     7
 79
     5
170
     0
171
     0
290
     0
174
     0
 93
        1
 44
50.0
173
     0
291
     1
 45
0.0
1001
ACAD
1000
AcDbSavedByObjectVersion
1070
     0
  0
VISUALSTYLE
  5
51F
102
{ACAD_REACTORS
330
50F
102
}
330
50F
100
AcDbVisualStyle
  2
ColorChange
 70
    16
 71
     2
 72
     2
 73
     3
 90
        0
 40
-0.6
 41
-30.0
 62
     5
 63
     8
 74
     1
 91
        4
 64
     7
 65
   257
 75
     1
175
     1
 42
1.0
 92
        8
 66
     8
 43
1.0
 76
     1
 77
     6
 78
     2
 67
     7
 79
     5
170
     0
171
     0
290
     0
174
     0
 93
        1
 44
0.0
173
     0
291
     1
 45
0.0
1001
ACAD
1000
AcDbSavedByObjectVersion
1070
     0
  0
VISUALSTYLE
  5
518
102
{ACAD_REACTORS
330
50F
102
}
330
50F
100
AcDbVisualStyle
  2
Conceptual
 70
     9
 71
     3
 72
     2
 73
     0
 90
        0
 40
-0.6
 41
-30.0
 62
     5
 63
     7
 74
     2
 91
        2
 64
     7
 65
   257
 75
     1
175
     1
 42
40.0
 92
        8
 66
     7
 43
1.0
 76
     1
 77
     6
 78
     2
 67
     7
 79
     3
170
     0
171
     0
290
     0
174
     0
 93
        1
 44
0.0
173
     0
291
     0
 45
0.0
1001
ACAD
1000
AcDbSavedByObjectVersion
1070
     0
  0
VISUALSTYLE
  5
51A
102
{ACAD_REACTORS
330
50F
102
}
330
50F
100
AcDbVisualStyle
  2
Dim
 70
    11
 71
     2
 72
     2
 73
     0
 90
        0
 40
-0.6
 41
-30.0
 62
     5
 63
     7
 74
     1
 91
        4
 64
     7
 65
   257
 75
     1
175
     1
 42
1.0
 92
        8
 66
     7
 43
1.0
 76
     1
 77
     6
 78
     2
 67
     7
 79
     5
170
     0
171
     0
290
     0
174
     0
 93
        1
 44
-50.0
173
     0
291
     1
 45
0.0
1001
ACAD
1000
AcDbSavedByObjectVersion
1070
     0
  0
VISUALSTYLE
  5
51E
102
{ACAD_REACTORS
330
50F
102
}
330
50F
100
AcDbVisualStyle
  2
Facepattern
 70
    15
 71
     2
 72
     2
 73
     0
 90
        0
 40
-0.6
 41
-30.0
 62
     5
 63
     7
 74
     1
 91
        4
 64
     7
 65
   257
 75
     1
175
     1
 42
1.0
 92
        8
 66
     7
 43
1.0
 76
     1
 77
     6
 78
     2
 67
     7
 79
     5
170
     0
171
     0
290
     0
174
     0
 93
        1
 44
0.0
173
     0
291
     1
 45
0.0
1001
ACAD
1000
AcDbSavedByObjectVersion
1070
     0
  0
VISUALSTYLE
  5
510
102
{ACAD_REACTORS
330
50F
102
}
330
50F
100
AcDbVisualStyle
  2
Flat
 70
     0
 71
     2
 72
     1
 73
     1
 90
        2
 40
-0.6
 41
30.0
 62
     5
 63
     7
 74
     0
 91
        4
 64
     7
 65
   257
 75
     1
175
     1
 42
1.0
 92
        8
 66
     7
 43
1.0
 76
     1
 77
     6
 78
     2
 67
     7
 79
     5
170
     0
171
     0
290
     0
174
     0
 93
       13
 44
0.0
173
     0
291
     1
 45
0.0
1001
ACAD
1000
AcDbSavedByObjectVersion
1070
     0
  0
VISUALSTYLE
  5
511
102
{ACAD_REACTORS
330
50F
102
}
330
50F
100
AcDbVisualStyle
  2
FlatWithEdges
 70
     1
 71
     2
 72
     1
 73
     1
 90
        2
 40
-0.6
 41
30.0
 62
     5
 63
     7
 74
     1
 91
        4
 64
     7
 65
   257
 75
     1
175
     1
 42
1.0
 92
        0
 66
   257
 43
1.0
 76
     1
 77
     6
 78
     2
 67
     7
 79
     5
170
     0
171
     0
290
     0
174
     0
 93
       13
 44
0.0
173
     0
291
     1
 45
0.0
1001
ACAD
1000
AcDbSavedByObjectVersion
1070
     0
  0
VISUALSTYLE
  5
512
102
{ACAD_REACTORS
330
50F
102
}
330
50F
100
AcDbVisualStyle
  2
Gouraud
 70
     2
 71
     2
 72
     2
 73
     1
 90
        2
 40
-0.6
 41
30.0
 62
     5
 63
     7
 74
     0
 91
        4
 64
     7
 65
   257
 75
     1
175
     1
 42
1.0
 92
        0
 66
     7
 43
1.0
 76
     1
 77
     6
 78
     2
 67
     7
 79
     5
170
     0
171
     0
290
     0
174
     0
 93
       13
 44
0.0
173
     0
291
     1
 45
0.0
1001
ACAD
1000
AcDbSavedByObjectVersion
1070
     0
  0
VISUALSTYLE
  5
513
102
{ACAD_REACTORS
330
50F
102
}
330
50F
100
AcDbVisualStyle
  2
GouraudWithEdges
 70
     3
 71
     2
 72
     2
 73
     1
 90
        2
 40
-0.6
 41
30.0
 62
     5
 63
     7
 74
     1
 91
        4
 64
     7
 65
   257
 75
     1
175
     1
 42
1.0
 92
        0
 66
   257
 43
1.0
 76
     1
 77
     6
 78
     2
 67
     7
 79
     5
170
     0
171
     0
290
     0
174
     0
 93
       13
 44
0.0
173
     0
291
     1
 45
0.0
1001
ACAD
1000
AcDbSavedByObjectVersion
1070
     0
  0
VISUALSTYLE
  5
51D
102
{ACAD_REACTORS
330
50F
102
}
330
50F
100
AcDbVisualStyle
  2
Linepattern
 70
    14
 71
     2
 72
     2
 73
     0
 90
        0
 40
-0.6
 41
-30.0
 62
     5
 63
     7
 74
     1
 91
        4
 64
     7
 65
   257
 75
     7
175
     7
 42
1.0
 92
        8
 66
     7
 43
1.0
 76
     1
 77
     6
 78
     2
 67
     7
 79
     5
170
     0
171
     0
290
     0
174
     0
 93
        1
 44
0.0
173
     0
291
     1
 45
0.0
1001
ACAD
1000
AcDbSavedByObjectVersion
1070
     0
  0
VISUALSTYLE
  5
519
102
{ACAD_REACTORS
330
50F
102
}
330
50F
100
AcDbVisualStyle
  2
Realistic
 70
     8
 71
     2
 72
     2
 73
     0
 90
        0
 40
-0.6
 41
-30.0
 62
     5
 63
     7
 74
     1
 91
        0
 64
     7
 65
   257
 75
     1
175
     1
 42
1.0
 92
        8
 66
     8
 43
1.0
 76
     1
 77
     6
 78
     2
 67
     7
 79
     5
170
     0
171
     0
290
     0
174
     0
 93
       13
 44
0.0
173
     0
291
     0
 45
0.0
1001
ACAD
1000
AcDbSavedByObjectVersion
1070
     0
  0
VISUALSTYLE
  5
51C
102
{ACAD_REACTORS
330
50F
102
}
330
50F
100
AcDbVisualStyle
  2
Thicken
 70
    13
 71
     2
 72
     2
 73
     0
 90
        0
 40
-0.6
 41
-30.0
 62
     5
 63
     7
 74
     1
 91
        4
 64
     7
 65
   257
 75
     1
175
     1
 42
1.0
 92
       12
 66
     7
 43
1.0
 76
     1
 77
     6
 78
     2
 67
     7
 79
     5
170
     0
171
     0
290
     0
174
     0
 93
        1
 44
0.0
173
     0
291
     1
 45
0.0
1001
ACAD
1000
AcDbSavedByObjectVersion
1070
     0
  0
DICTIONARYVAR
  5
503
102
{ACAD_REACTORS
330
500
102
}
330
500
100
DictionaryVariables
280
     0
  1
1:1
  0
DICTIONARYVAR
  5
6EC
102
{ACAD_REACTORS
330
500
102
}
330
500
100
DictionaryVariables
280
     0
  1
STANDARD
  0
DICTIONARYVAR
  5
6EF
102
{ACAD_REACTORS
330
500
102
}
330
500
100
DictionaryVariables
280
     0
  1
1
  0
DICTIONARYVAR
  5
6EE
102
{ACAD_REACTORS
330
500
102
}
330
500
100
DictionaryVariables
280
     0
  1
0
  0
DICTIONARYVAR
  5
6ED
102
{ACAD_REACTORS
330
500
102
}
330
500
100
DictionaryVariables
280
     0
  1
127
  0
DICTIONARY
  5
807
330
441
100
AcDbDictionary
280
     1
281
     1
  3
ACAD_XREC_ROUNDTRIP
360
808
  0
DICTIONARY
  5
805
330
440
100
AcDbDictionary
280
     1
281
     1
  3
ACAD_XREC_ROUNDTRIP
360
806
  0
DICTIONARY
  5
80B
330
50D
100
AcDbDictionary
280
     1
281
     1
  3
ACAD_XREC_ROUNDTRIP
360
80C
  0
DICTIONARY
  5
809
330
50C
100
AcDbDictionary
280
     1
281
     1
  3
ACAD_XREC_ROUNDTRIP
360
80A
  0
DICTIONARY
  5
80D
330
50E
100
AcDbDictionary
280
     1
281
     1
  3
ACAD_XREC_ROUNDTRIP
360
80E
  0
DICTIONARY
  5
80F
330
522
100
AcDbDictionary
280
     1
281
     1
  3
ACAD_XREC_ROUNDTRIP
360
810
  0
XRECORD
  5
808
102
{ACAD_REACTORS
330
807
102
}
330
807
100
AcDbXrecord
280
     1
102
SHADEPLOT
 70
     0
102
SHADEPLOTRESLEVEL
 70
     2
102
SHADEPLOTCUSTOMDPI
 70
   300
  0
XRECORD
  5
806
102
{ACAD_REACTORS
330
805
102
}
330
805
100
AcDbXrecord
280
     1
102
SHADEPLOT
 70
     0
102
SHADEPLOTRESLEVEL
 70
     2
102
SHADEPLOTCUSTOMDPI
 70
   300
  0
XRECORD
  5
80C
102
{ACAD_REACTORS
330
80B
102
}
330
80B
100
AcDbXrecord
280
     1
102
MATERIAL
148
0.0
149
0.0
149
0.0
 93
        0
 94
       63
282
     0
 72
     1
 77
     1
171
     1
175
     1
179
     1
273
     0
  0
XRECORD
  5
80A
102
{ACAD_REACTORS
330
809
102
}
330
809
100
AcDbXrecord
280
     1
102
MATERIAL
148
0.0
149
0.0
149
0.0
 93
        0
 94
       63
282
     0
 72
     1
 77
     1
171
     1
175
     1
179
     1
273
     0
  0
XRECORD
  5
80E
102
{ACAD_REACTORS
330
80D
102
}
330
80D
100
AcDbXrecord
280
     1
102
MATERIAL
148
0.0
149
0.0
149
0.0
 93
        0
 94
       63
282
     0
 72
     1
 77
     1
171
     1
175
     1
179
     1
273
     0
  0
XRECORD
  5
810
102
{ACAD_REACTORS
330
80F
102
}
330
80F
100
AcDbXrecord
280
     1
102
ACAD_ROUNDTRIP_PRE2007_TABLESTYLE
 90
      512
 91
        0
  1

 92
      512
 93
        0
  2

 94
      512
 95
        0
  3

  0
ENDSEC
  0
EOF
