  0
SECTION
  2
HEADER
  9
$ACADVER
  1
AC1009
  9
$INSBASE
 10
0
 20
0
  9
$EXTMIN
 10
183.1446808109252
 20
-145.0423916171471
  9
$EXTMAX
 10
428.7537084170129
 20
224.9239611549009
  9
$LIMMIN
 10
183.1446808109252
 20
-145.0423916171471
  9
$LIMMAX
 10
428.7537084170129
 20
224.9239611549009
  9
$VIEWCTR
 10
10
 20
10
  9
$VIEWSIZE
 40
10
  9
$SNAPMODE
 70
0
  9
$SNAPUNIT
 10
1
 20
1
  9
$SNAPBASE
 10
0
 20
0
  9
$SNAPANG
 50
0
  9
$SNAPSTYLE
 70
0
  9
$SNAPISOPAIR
 70
0
  9
$GRIDMODE
 70
0
  9
$GRIDUNIT
 10
0
 20
0
  9
$ORTHOMODE
 70
0
  9
$REGENMODE
 70
1
  9
$FILLMODE
 70
1
  9
$QTEXTMODE
 70
0
  9
$DRAGMODE
 70
2
  9
$LTSCALE
 40
1
  9
$OSMODE
 70
0
  9
$ATTMODE
 70
1
  9
$TEXTSIZE
 40
3.5
  9
$TRACEWID
 40
0.5
  9
$TEXTSTYLE
  7
STANDARD
  9
$CLAYER
  8
0
  9
$CELTYPE
  6
BYLAYER
  9
$CECOLOR
 62
256
  9
$DIMSCALE
 40
1
  9
$DIMASZ
 40
0.18
  9
$DIMEXO
 40
0.0625
  9
$DIMDLI
 40
0.38
  9
$DIMRND
 40
0
  9
$DIMDLE
 40
0
  9
$DIMEXE
 40
0.18
  9
$DIMTP
 40
0
  9
$DIMTM
 40
0
  9
$DIMTXT
 40
0.18
  9
$DIMCEN
 40
0.09
  9
$DIMTSZ
 40
0
  9
$DIMTOL
 70
0
  9
$DIMLIM
 70
0
  9
$DIMTIH
 70
1
  9
$DIMTOH
 70
1
  9
$DIMSE1
 70
0
  9
$DIMSE2
 70
0
  9
$DIMTAD
 70
0
  9
$DIMZIN
 70
0
  9
$DIMBLK
  1

  9
$DIMASO
 70
1
  9
$DIMSHO
 70
1
  9
$DIMPOST
  1

  9
$DIMAPOST
  1

  9
$DIMALT
 70
0
  9
$DIMALTD
 70
2
  9
$DIMALTF
 40
25.4
  9
$DIMLFAC
 40
1
  9
$DIMTOFL
 70
0
  9
$DIMTVP
 40
0
  9
$DIMTIX
 70
0
  9
$DIMSOXD
 70
0
  9
$DIMSAH
 70
0
  9
$DIMBLK1
  1

  9
$DIMBLK2
  1

  9
$DIMSTYLE
  2
*UNNAMED
  9
$DIMCLRD
 70
0
  9
$DIMCLRE
 70
0
  9
$DIMCLRT
 70
0
  9
$DIMTFAC
 40
1
  9
$DIMGAP
 40
0.09
  9
$LUNITS
 70
2
  9
$LUPREC
 70
4
  9
$AXISMODE
 70
0
  9
$AXISUNIT
 10
0
 20
0
  9
$SKETCHINC
 40
0.1
  9
$FILLETRAD
 40
2
  9
$AUNITS
 70
0
  9
$AUPREC
 70
0
  9
$MENU
  1
ACAD
  9
$ELEVATION
 40
0
  9
$THICKNESS
 40
0
  9
$VIEWDIR
 10
0
 20
0
 30
1
  9
$LIMCHECK
 70
0
  9
$BLIPMODE
 70
1
  9
$CHAMFERA
 40
0
  9
$CHAMFERB
 40
0
  9
$FASTZOOM
 70
1
  9
$SKPOLY
 70
0
  9
$ANGBASE
 50
0
  9
$ANGDIR
 70
0
  9
$PDMODE
 70
0
  9
$PDSIZE
 40
0
  9
$PLINEWID
 40
0
  9
$COORDS
 70
2
  0
ENDSEC
  0
SECTION
  2
TABLES
  0
TABLE
  2
DIMSTYLE
 70
3
  0
DIMSTYLE
  2
DMST_1
 70
0
  3

  4

  5

  6

  7

 40
1
 41
5
 42
0
 43
7
 44
1.5
 45
0
 46
0
 47
0
 48
0
140
5
141
0
142
0
143
25.4
144
1
145
0
146
1
147
0.09
 71
0
 72
0
 73
0
 74
0
 75
0
 76
0
 77
1
 78
1
170
0
171
2
172
0
173
0
174
0
175
0
176
1
177
1
178
7
  0
DIMSTYLE
  2
DMST_2
 70
0
  3

  4

  5

  6

  7

 40
1
 41
5
 42
0
 43
7
 44
2
 45
0
 46
0
 47
0
 48
0
140
5
141
0
142
0
143
25.4
144
1
145
0
146
1
147
0.09
 71
0
 72
0
 73
0
 74
0
 75
0
 76
0
 77
1
 78
9
170
0
171
2
172
0
173
0
174
0
175
0
176
1
177
1
178
7
  0
DIMSTYLE
  2
DMST_3
 70
0
  3

  4

  5

  6

  7

 40
1
 41
5
 42
0
 43
7
 44
1.5
 45
0
 46
0
 47
0
 48
0
140
5
141
0
142
0
143
25.4
144
1
145
0
146
1
147
0.09
 71
0
 72
0
 73
0
 74
0
 75
0
 76
0
 77
1
 78
1
170
0
171
2
172
0
173
0
174
1
175
0
176
1
177
1
178
7
  0
ENDTAB
  0
TABLE
  2
LTYPE
 70
9
  0
LTYPE
  2
CONTINUOUS
 70
64
  3
Solid line
 72
65
 73
0
 40
0
  0
LTYPE
  2
BORDER
 70
64
  3
__ __ . __ __ .
 72
65
 73
6
 40
17.037924140818
 49
4.867978325948
 49
-2.433989162974
 49
4.867978325948
 49
-2.433989162974
 49
0
 49
-2.433989162974
  0
LTYPE
  2
CENTER
 70
64
  3
____ _ ____ _
 72
65
 73
4
 40
19.471913303792
 49
12.16994581487
 49
-2.433989162974
 49
2.433989162974
 49
-2.433989162974
  0
LTYPE
  2
DASHDOT
 70
64
  3
__ . __ . __ .
 72
65
 73
4
 40
9.735956651896
 49
4.867978325948
 49
-2.433989162974
 49
0
 49
-2.433989162974
  0
LTYPE
  2
DASHED
 70
64
  3
__ __ __ __ __
 72
65
 73
2
 40
7.301967488922
 49
4.867978325948
 49
-2.433989162974
  0
LTYPE
  2
DIVIDE
 70
64
  3
__ . . __ . . 
 72
65
 73
6
 40
12.16994581487
 49
4.867978325948
 49
-2.433989162974
 49
0
 49
-2.433989162974
 49
0
 49
-2.433989162974
  0
LTYPE
  2
DOT
 70
64
  3
..............
 72
65
 73
4
 40
4.867978325948
 49
0
 49
-2.433989162974
 49
0
 49
-2.433989162974
  0
LTYPE
  2
HIDDEN
 70
64
  3
_ _ _ _ _ _ _
 72
65
 73
2
 40
3.650983744461
 49
2.433989162974
 49
-1.216994581487
  0
LTYPE
  2
PHANTOM
 70
64
  3
_____ _ _ _____ _ _ 
 72
65
 73
6
 40
24.33989162974
 49
12.16994581487
 49
-2.433989162974
 49
2.433989162974
 49
-2.433989162974
 49
2.433989162974
 49
-2.433989162974
  0
ENDTAB
  0
TABLE
  2
LAYER
 70
3
  0
LAYER
  2
1
 70
0
 62
7
  6
CONTINUOUS
  0
LAYER
  2
0
 70
0
 62
7
  6
CONTINUOUS
  0
ENDTAB
  0
TABLE
  2
STYLE
 70
4
  0
STYLE
  2
STANDARD
 70
0
 40
0
 41
1
 50
0
 71
0
 42
3.5
  3
txt
  4

  0
STYLE
  2
SIMPLEX
 70
0
 40
0
 41
1
 50
0
 71
0
 42
3.5
  3
simplex
  4

  0
STYLE
  2
COMPLEX
 70
0
 40
0
 41
1
 50
0
 71
0
 42
3.5
  3
complex
  4

  0
STYLE
  2
ITALIC
 70
0
 40
0
 41
1
 50
0
 71
0
 42
3.5
  3
italic
  4

  0
ENDTAB
  0
TABLE
  2
VIEW
 70
0
  0
ENDTAB
  0
ENDSEC
  0
SECTION
  2
BLOCKS
  0
BLOCK
  8
0
  2
3-10905
 70
0
 10
774.625484159785
 20
346.2497688274279
 30
0
  0
LINE
  8
1
 62
2
  6
DIVIDE
 10
288.0537084170129
 20
46.22374999999995
 30
0
 11
288.0537084170129
 21
7.999999999999957
 31
0
  0
LINE
  8
1
 62
2
  6
DIVIDE
 10
300.2774584170129
 20
33.99999999999994
 30
0
 11
275.8299584170129
 21
33.99999999999994
 31
0
  0
LINE
  8
1
 62
2
  6
PHANTOM
 10
301.5537084170129
 20
17.79999999999994
 30
0
 11
304.7537084170129
 21
17.79999999999994
 31
0
  0
LINE
  8
1
 62
2
  6
PHANTOM
 10
304.7537084170129
 20
13.29999999999997
 30
0
 11
301.5537084170129
 21
13.29999999999997
 31
0
  0
LINE
  8
1
 62
2
  6
PHANTOM
 10
304.7537084170129
 20
17.79999999999994
 30
0
 11
304.7537084170129
 21
13.29999999999997
 31
0
  0
LINE
  8
1
 62
2
  6
PHANTOM
 10
301.5537084170129
 20
13.29999999999997
 30
0
 11
301.5537084170129
 21
17.79999999999994
 31
0
  0
LINE
  8
1
 62
2
  6
PHANTOM
 10
298.3056708702546
 20
37.32231599761354
 30
0
 11
304.7543490521541
 21
43.77099417951264
 31
0
  0
LINE
  8
1
 62
2
  6
PHANTOM
 10
278.5784775491131
 20
38.66690475583114
 30
0
 11
274.3358368619936
 21
42.90954544295045
 31
0
  0
LINE
  8
1
 62
2
  6
PHANTOM
 10
276.4571572055531
 20
36.54558441227154
 30
0
 11
278.5784775491131
 21
38.66690475583114
 31
0
  0
LINE
  8
1
 62
2
  6
PHANTOM
 10
272.2145165184339
 20
40.78822509939084
 30
0
 11
276.4571572055531
 21
36.54558441227154
 31
0
  0
LINE
  8
1
 62
2
  6
PHANTOM
 10
274.3358368619936
 20
42.90954544295045
 30
0
 11
272.2145165184339
 21
40.78822509939084
 31
0
  0
LINE
  8
1
 62
2
  6
PHANTOM
 10
277.5178173773331
 20
39.72756492761094
 30
0
 11
275.3964970337734
 21
37.60624458405144
 31
0
  0
LINE
  8
1
 62
2
  6
PHANTOM
 10
271.3530677818717
 20
43.77099417951264
 30
0
 11
277.8017459637711
 21
37.32231599761354
 31
0
  0
LINE
  8
1
 62
2
  6
PHANTOM
 10
303.8929003155918
 20
40.78822509939084
 30
0
 11
301.7715799720314
 21
42.90954544295045
 31
0
  0
LINE
  8
1
 62
2
  6
PHANTOM
 10
299.6502596284721
 20
36.54558441227154
 30
0
 11
303.8929003155918
 21
40.78822509939084
 31
0
  0
LINE
  8
1
 62
2
  6
PHANTOM
 10
297.528939284912
 20
38.66690475583114
 30
0
 11
299.6502596284721
 21
36.54558441227154
 31
0
  0
LINE
  8
1
 62
2
  6
PHANTOM
 10
301.7715799720314
 20
42.90954544295045
 30
0
 11
297.528939284912
 21
38.66690475583114
 31
0
  0
LINE
  8
1
 62
2
  6
PHANTOM
 10
300.7109198002524
 20
37.60624458405144
 30
0
 11
298.5895994566927
 21
39.72756492761094
 31
0
  0
LINE
  8
1
 62
2
  6
PHANTOM
 10
282.0727951658175
 20
13.99999999999996
 30
0
 11
294.1651143209615
 21
13.99999999999996
 31
0
  0
LINE
  8
1
 62
2
  6
PHANTOM
 10
293.1537084170128
 20
13.99999999999996
 30
0
 11
293.1537084170128
 21
27.07540614909435
 31
0
  0
LINE
  8
1
 62
2
  6
PHANTOM
 10
282.9537084170129
 20
13.99999999999996
 30
0
 11
282.9537084170129
 21
27.07540614909435
 31
0
  0
ARC
  8
1
 62
2
  6
PHANTOM
 10
288.0537084170129
 20
33.99999999999994
 30
0
 40
6.999999999999886
 50
0
 51
180
  0
ARC
  8
1
 62
2
  6
PHANTOM
 10
288.0537084170129
 20
33.99999999999994
 30
0
 40
7.000000000000114
 50
180
 51
0
  0
ARC
  8
1
 62
2
  6
PHANTOM
 10
288.0537084170129
 20
33.99999999999994
 30
0
 40
11.11250000000001
 50
297.3914626952544
 51
242.608537304745
  0
ARC
  8
1
 62
2
  6
PHANTOM
 10
288.0537084170129
 20
14.94999999999995
 30
0
 40
5.112500000000125
 50
180
 51
0
  0
ARC
  8
1
 62
2
  6
PHANTOM
 10
288.0537084170129
 20
33.99999999999994
 30
0
 40
8.599999999999922
 50
306.3718424099341
 51
233.6281575900653
  0
ARC
  8
1
 62
2
  6
PHANTOM
 10
288.0537084170129
 20
13.99999999999996
 30
0
 40
5.100000000000023
 50
180
 51
0
  0
CIRCLE
  8
1
 62
2
  6
PHANTOM
 10
298.0537084170129
 20
19.49999999999994
 30
0
 40
2.599999999999795
  0
CIRCLE
  8
1
 62
2
  6
PHANTOM
 10
278.0537084170129
 20
19.49999999999994
 30
0
 40
2.599999999999909
  0
ENDBLK
  8
0
  0
BLOCK
  8
0
  2
1607_BB_RZ_PZ_WC_DM_50_60_300
 70
0
 10
485.190781355128
 20
-1.33239856042405
 30
0
  0
LINE
  8
1
 62
2
  6
DIVIDE
 10
288.0537084170129
 20
37.84999999999994
 30
0
 11
288.0537084170129
 21
30.14999999999995
 31
0
  0
LINE
  8
1
 62
2
  6
DIVIDE
 10
291.9037084170128
 20
33.99999999999994
 30
0
 11
284.2037084170129
 21
33.99999999999994
 31
0
  0
LINE
  8
1
 62
7
 10
286.8037084170129
 20
28.19999999999995
 30
0
 11
286.8037084170129
 21
30.73082579234445
 31
0
  0
LINE
  8
1
 62
7
 10
285.1537084170129
 20
27.53335672737204
 30
0
 11
286.8037084170129
 21
28.19999999999995
 31
0
  0
LINE
  8
1
 62
7
 10
285.1537084170129
 20
25.76089305106824
 30
0
 11
285.1537084170129
 21
27.53335672737204
 31
0
  0
LINE
  8
1
 62
7
 10
288.5537084170129
 20
25.09999999999994
 30
0
 11
285.1537084170129
 21
25.76089305106824
 31
0
  0
LINE
  8
1
 62
7
 10
288.5537084170129
 20
21.09999999999994
 30
0
 11
288.5537084170129
 21
25.09999999999994
 31
0
  0
LINE
  8
1
 62
7
 10
285.1537084170129
 20
20.50048826559114
 30
0
 11
288.5537084170129
 21
21.09999999999994
 31
0
  0
LINE
  8
1
 62
7
 10
285.1537084170129
 20
18.74500453720874
 30
0
 11
285.1537084170129
 21
20.50048826559114
 31
0
  0
LINE
  8
1
 62
7
 10
290.9537084170129
 20
27.53335672737184
 30
0
 11
290.9537084170129
 21
18.74500453720874
 31
0
  0
LINE
  8
1
 62
7
 10
289.3037084170129
 20
28.19999999999995
 30
0
 11
290.9537084170129
 21
27.53335672737184
 31
0
  0
LINE
  8
1
 62
7
 10
289.3037084170129
 20
30.73082579234445
 30
0
 11
289.3037084170129
 21
28.19999999999995
 31
0
  0
ARC
  8
1
 62
7
 10
288.0537084170129
 20
21.49999999999994
 30
0
 40
3.999999999999996
 50
223.5311521673729
 51
316.4688478326272
  0
ARC
  8
1
 62
7
 10
288.0537084170129
 20
33.99999999999994
 30
0
 40
3.499999999999988
 50
290.9248324276384
 51
249.0751675723616
  0
INSERT
  8
0
  2
3-10905
 10
774.625484159785
 20
346.2497688274279
 30
0
  0
ENDBLK
  8
0
  0
BLOCK
  8
1
  2
*D0
 70
1
 10
0
 20
0
 30
0
  0
LINE
  8
1
 62
1
 10
292.0537084170129
 20
128.904877499881
 30
0
 11
302.0537084170129
 21
128.904877499881
 31
0
  0
LINE
  8
1
 62
1
 10
284.0537084170129
 20
128.904877499881
 30
0
 11
274.0537084170129
 21
128.904877499881
 31
0
  0
LINE
  8
1
 62
1
 10
292.0537084170129
 20
128.904877499881
 30
0
 11
302.0537084170129
 21
128.904877499881
 31
0
  0
LINE
  8
1
 62
1
 10
292.0537084170129
 20
128.904877499881
 30
0
 11
302.0537084170129
 21
128.904877499881
 31
0
  0
LINE
  8
1
 62
1
 10
284.0537084170129
 20
128.904877499881
 30
0
 11
292.0537084170129
 21
128.904877499881
 31
0
  0
LINE
  8
1
 62
1
 10
292.0537084170129
 20
115.9999999999999
 30
0
 11
292.0537084170129
 21
130.404877499881
 31
0
  0
LINE
  8
1
 62
1
 10
284.0537084170129
 20
115.9999999999999
 30
0
 11
284.0537084170129
 21
130.404877499881
 31
0
  0
SOLID
  8
1
 62
1
 10
292.0537084170129
 20
128.904877499881
 30
0
 11
297.0537084170129
 21
129.554877499881
 31
0
 12
297.0537084170129
 22
128.254877499881
 32
0
 13
297.0537084170129
 23
128.254877499881
 33
0
  0
SOLID
  8
1
 62
1
 10
284.0537084170129
 20
128.904877499881
 30
0
 11
279.0537084170129
 21
128.254877499881
 31
0
 12
279.0537084170129
 22
129.554877499881
 32
0
 13
279.0537084170129
 23
129.554877499881
 33
0
  0
TEXT
  8
1
 62
7
 10
286.5537084170129
 20
130.904877499881
 30
0
 40
5
  1
8
 41
0.88209
  0
ENDBLK
  8
0
  0
BLOCK
  8
1
  2
*D1
 70
1
 10
0
 20
0
 30
0
  0
LINE
  8
1
 62
1
 10
387.7537084170129
 20
-52.5897206054791
 30
0
 11
407.7537084170129
 21
-52.5897206054791
 31
0
  0
LINE
  8
1
 62
1
 10
407.7537084170129
 20
-24.99972060547909
 30
0
 11
407.7537084170129
 21
-52.5897206054791
 31
0
  0
LINE
  8
1
 62
1
 10
387.7537084170129
 20
-24.99972060547909
 30
0
 11
387.7537084170129
 21
-52.5897206054791
 31
0
  0
SOLID
  8
1
 62
1
 10
387.7537084170129
 20
-52.5897206054791
 30
0
 11
392.7537084170129
 21
-51.9397206054791
 31
0
 12
392.7537084170129
 22
-53.2397206054791
 32
0
 13
392.7537084170129
 23
-53.2397206054791
 33
0
  0
SOLID
  8
1
 62
1
 10
407.7537084170129
 20
-52.5897206054791
 30
0
 11
402.7537084170129
 21
-53.2397206054791
 31
0
 12
402.7537084170129
 22
-51.9397206054791
 32
0
 13
402.7537084170129
 23
-51.9397206054791
 33
0
  0
TEXT
  8
1
 62
7
 10
394.3255971221971
 20
-50.3986346138371
 30
0
 40
5
  1
20
 41
0.88209
  0
ENDBLK
  8
0
  0
BLOCK
  8
1
  2
*D2
 70
1
 10
0
 20
0
 30
0
  0
LINE
  8
1
 62
1
 10
231.0537084170129
 20
-52.5897206054791
 30
0
 11
241.0537084170129
 21
-52.5897206054791
 31
0
  0
LINE
  8
1
 62
1
 10
228.0537084170129
 20
-52.5897206054791
 30
0
 11
231.0537084170129
 21
-52.5897206054791
 31
0
  0
LINE
  8
1
 62
1
 10
218.0537084170129
 20
-52.5897206054791
 30
0
 11
228.0537084170129
 21
-52.5897206054791
 31
0
  0
LINE
  8
1
 62
1
 10
231.0537084170129
 20
-35.00000000000006
 30
0
 11
231.0537084170129
 21
-54.0897206054791
 31
0
  0
LINE
  8
1
 62
1
 10
228.0537084170129
 20
-35.00000000000006
 30
0
 11
228.0537084170129
 21
-54.0897206054791
 31
0
  0
SOLID
  8
1
 62
1
 10
228.0537084170129
 20
-52.5897206054791
 30
0
 11
223.0537084170129
 21
-53.2397206054791
 31
0
 12
223.0537084170129
 22
-51.9397206054791
 32
0
 13
223.0537084170129
 23
-51.9397206054791
 33
0
  0
SOLID
  8
1
 62
1
 10
231.0537084170129
 20
-52.5897206054791
 30
0
 11
236.0537084170129
 21
-51.9397206054791
 31
0
 12
236.0537084170129
 22
-53.2397206054791
 32
0
 13
236.0537084170129
 23
-53.2397206054791
 33
0
  0
TEXT
  8
1
 62
7
 10
237.65680160327
 20
-51.6701485762741
 30
0
 40
5
  1
3
 41
0.88209
  0
ENDBLK
  8
0
  0
BLOCK
  8
1
  2
*D3
 70
1
 10
0
 20
0
 30
0
  0
LINE
  8
1
 62
1
 10
228.0537084170129
 20
-32.59000000000006
 30
0
 11
318.0537084170129
 21
-32.59000000000006
 31
0
  0
LINE
  8
1
 62
1
 10
318.0537084170129
 20
21.99999999999995
 30
0
 11
318.0537084170129
 21
-32.59000000000006
 31
0
  0
LINE
  8
1
 62
1
 10
228.0537084170129
 20
-25.75000000000006
 30
0
 11
228.0537084170129
 21
-32.59000000000006
 31
0
  0
SOLID
  8
1
 62
1
 10
318.0537084170129
 20
-32.59000000000006
 30
0
 11
313.0537084170129
 21
-33.24000000000006
 31
0
 12
313.0537084170129
 22
-31.94000000000006
 32
0
 13
313.0537084170129
 23
-31.94000000000006
 33
0
  0
SOLID
  8
1
 62
1
 10
228.0537084170129
 20
-32.59000000000006
 30
0
 11
233.0537084170129
 21
-31.94000000000006
 31
0
 12
233.0537084170129
 22
-33.24000000000006
 32
0
 13
233.0537084170129
 23
-33.24000000000006
 33
0
  0
TEXT
  8
1
 62
7
 10
257.742801613985
 20
-28.2285057113643
 30
0
 40
5
  1
80 / 90
 41
0.88209
  0
ENDBLK
  8
0
  0
BLOCK
  8
1
  2
*D4
 70
1
 10
0
 20
0
 30
0
  0
LINE
  8
1
 62
1
 10
228.0537084170129
 20
-17.59000000000006
 30
0
 11
288.0537084170129
 21
-17.59000000000006
 31
0
  0
LINE
  8
1
 62
1
 10
288.0537084170129
 20
8.541179009833348
 30
0
 11
288.0537084170129
 21
-17.59000000000006
 31
0
  0
LINE
  8
1
 62
1
 10
228.0537084170129
 20
-16.25000000000006
 30
0
 11
228.0537084170129
 21
-17.59000000000006
 31
0
  0
SOLID
  8
1
 62
1
 10
288.0537084170129
 20
-17.59000000000006
 30
0
 11
283.0537084170129
 21
-18.24000000000006
 31
0
 12
283.0537084170129
 22
-16.94000000000006
 32
0
 13
283.0537084170129
 23
-16.94000000000006
 33
0
  0
SOLID
  8
1
 62
1
 10
228.0537084170129
 20
-17.59000000000006
 30
0
 11
233.0537084170129
 21
-16.94000000000006
 31
0
 12
233.0537084170129
 22
-18.24000000000006
 32
0
 13
233.0537084170129
 23
-18.24000000000006
 33
0
  0
TEXT
  8
1
 62
7
 10
244.397922488684
 20
-14.0495716407324
 30
0
 40
5
  1
50 / 60
 41
0.88209
  0
ENDBLK
  8
0
  0
BLOCK
  8
1
  2
*D5
 70
1
 10
0
 20
0
 30
0
  0
LINE
  8
1
 62
1
 10
228.0537084170129
 20
94.0872175022827
 30
0
 11
238.0537084170129
 21
94.0872175022827
 31
0
  0
LINE
  8
1
 62
1
 10
221.1142516466838
 20
94.0872175022827
 30
0
 11
211.1142516466838
 21
94.0872175022827
 31
0
  0
LINE
  8
1
 62
1
 10
228.0537084170129
 20
94.0872175022827
 30
0
 11
238.0537084170129
 21
94.0872175022827
 31
0
  0
LINE
  8
1
 62
1
 10
228.0537084170129
 20
94.0872175022827
 30
0
 11
238.0537084170129
 21
94.0872175022827
 31
0
  0
LINE
  8
1
 62
1
 10
221.1142516466838
 20
94.0872175022827
 30
0
 11
228.0537084170129
 21
94.0872175022827
 31
0
  0
LINE
  8
1
 62
1
 10
228.0537084170129
 20
125.1999999999999
 30
0
 11
228.0537084170129
 21
92.5872175022827
 31
0
  0
LINE
  8
1
 62
1
 10
221.1142516466838
 20
117.3225128990386
 30
0
 11
221.1142516466838
 21
92.5872175022827
 31
0
  0
SOLID
  8
1
 62
1
 10
228.0537084170129
 20
94.0872175022827
 30
0
 11
233.0537084170129
 21
94.7372175022827
 31
0
 12
233.0537084170129
 22
93.43721750228269
 32
0
 13
233.0537084170129
 23
93.43721750228269
 33
0
  0
SOLID
  8
1
 62
1
 10
221.1142516466838
 20
94.0872175022827
 30
0
 11
216.1142516466838
 21
93.43721750228269
 31
0
 12
216.1142516466838
 22
94.7372175022827
 32
0
 13
216.1142516466838
 23
94.7372175022827
 33
0
  0
TEXT
  8
1
 62
7
 10
223.160180694437
 20
96.1114486617888
 30
0
 40
5
  1
7
 41
0.88209
  0
ENDBLK
  8
0
  0
BLOCK
  8
1
  2
*D6
 70
1
 10
0
 20
0
 30
0
  0
LINE
  8
1
 62
1
 10
238.0537084170129
 20
159.461392966182
 30
0
 11
228.0537084170129
 21
159.461392966182
 31
0
  0
LINE
  8
1
 62
1
 10
221.5580199285903
 20
159.461392966182
 30
0
 11
228.0537084170129
 21
159.461392966182
 31
0
  0
LINE
  8
1
 62
1
 10
221.5580199285903
 20
159.461392966182
 30
0
 11
210.501503254206
 21
159.461392966182
 31
0
  0
LINE
  8
1
 62
1
 10
221.5580199285903
 20
125.550811908677
 30
0
 11
221.5580199285903
 21
160.961392966182
 31
0
  0
LINE
  8
1
 62
1
 10
228.0537084170129
 20
125.1999999999999
 30
0
 11
228.0537084170129
 21
160.961392966182
 31
0
  0
SOLID
  8
1
 62
1
 10
221.5580199285903
 20
159.461392966182
 30
0
 11
216.5580199285903
 21
158.811392966182
 31
0
 12
216.5580199285903
 22
160.111392966182
 32
0
 13
216.5580199285903
 23
160.111392966182
 33
0
  0
SOLID
  8
1
 62
1
 10
228.0537084170129
 20
159.461392966182
 30
0
 11
233.0537084170129
 21
160.111392966182
 31
0
 12
233.0537084170129
 22
158.811392966182
 32
0
 13
233.0537084170129
 23
158.811392966182
 33
0
  0
TEXT
  8
1
 62
7
 10
210.501503254206
 20
162.296717090479
 30
0
 40
5
  1
6,5
 41
0.88209
  0
ENDBLK
  8
0
  0
BLOCK
  8
1
  2
*D7
 70
1
 10
0
 20
0
 30
0
  0
LINE
  8
1
 62
1
 10
201.8046808158539
 20
69.8437882025077
 30
0
 11
228.0537084170129
 21
69.8437882025077
 31
0
  0
LINE
  8
1
 62
1
 10
201.8046808158539
 20
69.8437882025077
 30
0
 11
228.0537084170129
 21
69.8437882025077
 31
0
  0
LINE
  8
1
 62
1
 10
201.8046808158539
 20
69.8437882025077
 30
0
 11
228.0537084170129
 21
69.8437882025077
 31
0
  0
LINE
  8
1
 62
1
 10
201.8046808158539
 20
131.9961794753347
 30
0
 11
201.8046808158539
 21
68.3437882025077
 31
0
  0
LINE
  8
1
 62
1
 10
228.0537084170129
 20
98.69999999999993
 30
0
 11
228.0537084170129
 21
68.3437882025077
 31
0
  0
SOLID
  8
1
 62
1
 10
228.0537084170129
 20
69.8437882025077
 30
0
 11
223.0537084170129
 21
69.19378820250769
 31
0
 12
223.0537084170129
 22
70.4937882025077
 32
0
 13
223.0537084170129
 23
70.4937882025077
 33
0
  0
SOLID
  8
1
 62
1
 10
201.8046808158539
 20
69.8437882025077
 30
0
 11
206.8046808158539
 21
70.4937882025077
 31
0
 12
206.8046808158539
 22
69.19378820250769
 32
0
 13
206.8046808158539
 23
69.19378820250769
 33
0
  0
TEXT
  8
1
 62
7
 10
208.0541946164334
 20
72.3437882025077
 30
0
 40
5
  1
26,5
 41
0.88209
  0
ENDBLK
  8
0
  0
BLOCK
  8
1
  2
*D8
 70
1
 10
0
 20
0
 30
0
  0
LINE
  8
1
 62
1
 10
246.509624537671
 20
114.9968104958437
 30
0
 11
246.509624537671
 21
126.497208033195
 31
0
  0
LINE
  8
1
 62
1
 10
246.509624537671
 20
114.9968104958437
 30
0
 11
246.509624537671
 21
104.9968104958437
 31
0
  0
LINE
  8
1
 62
1
 10
246.509624537671
 20
126.497208033195
 30
0
 11
246.509624537671
 21
136.497208033195
 31
0
  0
LINE
  8
1
 62
1
 10
218.6203349785195
 20
114.9968104958437
 30
0
 11
248.009624537671
 21
114.9968104958437
 31
0
  0
LINE
  8
1
 62
1
 10
228.0537084170129
 20
126.497208033195
 30
0
 11
248.009624537671
 21
126.497208033195
 31
0
  0
SOLID
  8
1
 62
1
 10
246.509624537671
 20
126.497208033195
 30
0
 11
245.859624537671
 21
131.497208033195
 31
0
 12
247.159624537671
 22
131.497208033195
 32
0
 13
247.159624537671
 23
131.497208033195
 33
0
  0
SOLID
  8
1
 62
1
 10
246.509624537671
 20
114.9968104958437
 30
0
 11
247.159624537671
 21
109.9968104958437
 31
0
 12
245.859624537671
 22
109.9968104958437
 32
0
 13
245.859624537671
 23
109.9968104958437
 33
0
  0
TEXT
  8
1
 62
7
 10
244.783573962727
 20
118.268542604438
 30
0
 40
5
  1
12
 50
90
 41
0.88209
  0
ENDBLK
  8
0
  0
BLOCK
  8
1
  2
*D9
 70
1
 10
0
 20
0
 30
0
  0
LINE
  8
1
 62
1
 10
337.8037084170129
 20
-112.2500000000001
 30
0
 11
337.8037084170129
 21
-97.7500000000001
 31
0
  0
LINE
  8
1
 62
1
 10
318.0537084170129
 20
-97.7500000000001
 30
0
 11
339.3037084170129
 21
-97.7500000000001
 31
0
  0
LINE
  8
1
 62
1
 10
318.0537084170129
 20
-112.2500000000001
 30
0
 11
339.3037084170129
 21
-112.2500000000001
 31
0
  0
SOLID
  8
1
 62
1
 10
337.8037084170129
 20
-112.2500000000001
 30
0
 11
337.1537084170129
 21
-107.2500000000001
 31
0
 12
338.4537084170129
 22
-107.2500000000001
 32
0
 13
338.4537084170129
 23
-107.2500000000001
 33
0
  0
SOLID
  8
1
 62
1
 10
337.8037084170129
 20
-97.7500000000001
 30
0
 11
338.4537084170129
 21
-102.7500000000001
 31
0
 12
337.1537084170129
 22
-102.7500000000001
 32
0
 13
337.1537084170129
 23
-102.7500000000001
 33
0
  0
TEXT
  8
1
 62
7
 10
335.3037084170129
 20
-111.0031125000001
 30
0
 40
5
  1
14,5
 50
90
 41
0.88209
  0
ENDBLK
  8
0
  0
BLOCK
  8
1
  2
*D10
 70
1
 10
0
 20
0
 30
0
  0
LINE
  8
1
 62
1
 10
352.5537084170129
 20
-5.684341886080802e-014
 30
0
 11
352.5537084170129
 21
169.9999999999999
 31
0
  0
LINE
  8
1
 62
1
 10
296.0537084170129
 20
169.9999999999999
 30
0
 11
354.0537084170129
 21
169.9999999999999
 31
0
  0
LINE
  8
1
 62
1
 10
296.0537084170129
 20
-5.684341886080802e-014
 30
0
 11
354.0537084170129
 21
-5.684341886080802e-014
 31
0
  0
SOLID
  8
1
 62
1
 10
352.5537084170129
 20
-5.684341886080802e-014
 30
0
 11
351.9037084170129
 21
4.999999999999943
 31
0
 12
353.2037084170129
 22
4.999999999999943
 32
0
 13
353.2037084170129
 23
4.999999999999943
 33
0
  0
SOLID
  8
1
 62
1
 10
352.5537084170129
 20
169.9999999999999
 30
0
 11
353.2037084170129
 21
164.9999999999999
 31
0
 12
351.9037084170129
 22
164.9999999999999
 32
0
 13
351.9037084170129
 23
164.9999999999999
 33
0
  0
TEXT
  8
1
 62
7
 10
350.5537084170129
 20
79.74999999999992
 30
0
 40
5
  1
170
 50
90
 41
0.88209
  0
ENDBLK
  8
0
  0
BLOCK
  8
1
  2
*D11
 70
1
 10
0
 20
0
 30
0
  0
LINE
  8
1
 62
1
 10
376.147063247885
 20
-34.99972060547856
 30
0
 11
376.147063247885
 21
205.0002793945195
 31
0
  0
LINE
  8
1
 62
1
 10
397.7537084170129
 20
205.0002793945195
 30
0
 11
376.147063247885
 21
205.0002793945195
 31
0
  0
LINE
  8
1
 62
1
 10
397.7537084170129
 20
-34.99972060547856
 30
0
 11
376.147063247885
 21
-34.99972060547856
 31
0
  0
SOLID
  8
1
 62
1
 10
376.147063247885
 20
-34.99972060547856
 30
0
 11
375.497063247885
 21
-29.99972060547856
 31
0
 12
376.797063247885
 22
-29.99972060547856
 32
0
 13
376.797063247885
 23
-29.99972060547856
 33
0
  0
SOLID
  8
1
 62
1
 10
376.147063247885
 20
205.0002793945195
 30
0
 11
376.797063247885
 21
200.0002793945195
 31
0
 12
375.497063247885
 22
200.0002793945195
 32
0
 13
375.497063247885
 23
200.0002793945195
 33
0
  0
TEXT
  8
1
 62
7
 10
376.057063247885
 20
79.11967939452094
 30
0
 40
5
  1
240
 50
90
 41
0.88209
  0
ENDBLK
  8
0
  0
BLOCK
  8
1
  2
*D12
 70
1
 10
0
 20
0
 30
0
  0
LINE
  8
1
 62
1
 10
427.239091585954
 20
-20.99972060547915
 30
0
 11
427.239091585954
 21
-10.99972060547915
 31
0
  0
LINE
  8
1
 62
1
 10
427.239091585954
 20
-34.99972060547856
 30
0
 11
427.239091585954
 21
-44.99972060547856
 31
0
  0
LINE
  8
1
 62
1
 10
427.239091585954
 20
-34.99972060547856
 30
0
 11
427.239091585954
 21
-20.99972060547915
 31
0
  0
LINE
  8
1
 62
1
 10
405.3537084170129
 20
-20.99972060547915
 30
0
 11
428.739091585954
 21
-20.99972060547915
 31
0
  0
LINE
  8
1
 62
1
 10
397.7537084170129
 20
-34.99972060547856
 30
0
 11
428.739091585954
 21
-34.99972060547856
 31
0
  0
SOLID
  8
1
 62
1
 10
427.239091585954
 20
-20.99972060547915
 30
0
 11
426.589091585954
 21
-15.99972060547915
 31
0
 12
427.889091585954
 22
-15.99972060547915
 32
0
 13
427.889091585954
 23
-15.99972060547915
 33
0
  0
SOLID
  8
1
 62
1
 10
427.239091585954
 20
-34.99972060547856
 30
0
 11
427.889091585954
 21
-39.99972060547856
 31
0
 12
426.589091585954
 22
-39.99972060547856
 32
0
 13
426.589091585954
 23
-39.99972060547856
 33
0
  0
TEXT
  8
1
 62
7
 10
425.778790765039
 20
-31.2755724556149
 30
0
 40
5
  1
14
 50
90
 41
0.88209
  0
ENDBLK
  8
0
  0
BLOCK
  8
1
  2
*D13
 70
1
 10
0
 20
0
 30
0
  0
LINE
  8
1
 62
1
 10
427.2537084170129
 20
-20.99972060547913
 30
0
 11
427.2537084170129
 21
191.0002793945209
 31
0
  0
LINE
  8
1
 62
1
 10
405.3537084170129
 20
191.0002793945209
 30
0
 11
428.7537084170129
 21
191.0002793945209
 31
0
  0
LINE
  8
1
 62
1
 10
405.3537084170129
 20
-20.99972060547913
 30
0
 11
428.7537084170129
 21
-20.99972060547913
 31
0
  0
SOLID
  8
1
 62
1
 10
427.2537084170129
 20
-20.99972060547913
 30
0
 11
426.6037084170129
 21
-15.99972060547913
 31
0
 12
427.9037084170129
 22
-15.99972060547913
 32
0
 13
427.9037084170129
 23
-15.99972060547913
 33
0
  0
SOLID
  8
1
 62
1
 10
427.2537084170129
 20
191.0002793945209
 30
0
 11
427.9037084170129
 21
186.0002793945209
 31
0
 12
426.6037084170129
 22
186.0002793945209
 32
0
 13
426.6037084170129
 23
186.0002793945209
 33
0
  0
TEXT
  8
1
 62
7
 10
425.2537084170129
 20
79.75027939452087
 30
0
 40
5
  1
212
 50
90
 41
0.88209
  0
ENDBLK
  8
0
  0
BLOCK
  8
1
  2
*D14
 70
1
 10
0
 20
0
 30
0
  0
LINE
  8
1
 62
1
 10
190.1446808109252
 20
-35.00000000000006
 30
0
 11
190.1446808109252
 21
-6.039613253960852e-014
 31
0
  0
LINE
  8
1
 62
1
 10
233.0537084170129
 20
-6.039613253960852e-014
 30
0
 11
188.6446808109252
 21
-6.039613253960852e-014
 31
0
  0
LINE
  8
1
 62
1
 10
228.0537084170129
 20
-35.00000000000006
 30
0
 11
188.6446808109252
 21
-35.00000000000006
 31
0
  0
SOLID
  8
1
 62
1
 10
190.1446808109252
 20
-35.00000000000006
 30
0
 11
189.4946808109252
 21
-30.00000000000006
 31
0
 12
190.7946808109252
 22
-30.00000000000006
 32
0
 13
190.7946808109252
 23
-30.00000000000006
 33
0
  0
SOLID
  8
1
 62
1
 10
190.1446808109252
 20
-6.039613253960852e-014
 30
0
 11
190.7946808109252
 21
-5.00000000000006
 31
0
 12
189.4946808109252
 22
-5.00000000000006
 32
0
 13
189.4946808109252
 23
-5.00000000000006
 33
0
  0
TEXT
  8
1
 62
7
 10
188.1446808109252
 20
-21.25000000000006
 30
0
 40
5
  1
35
 50
90
 41
0.88209
  0
ENDBLK
  8
0
  0
BLOCK
  8
1
  2
*D15
 70
1
 10
0
 20
0
 30
0
  0
LINE
  8
1
 62
1
 10
190.1446808109252
 20
169.9999999999998
 30
0
 11
190.1446808109252
 21
204.9999999999999
 31
0
  0
LINE
  8
1
 62
1
 10
228.0537084170129
 20
204.9999999999999
 30
0
 11
188.6446808109252
 21
204.9999999999999
 31
0
  0
LINE
  8
1
 62
1
 10
231.0537084170129
 20
169.9999999999998
 30
0
 11
188.6446808109252
 21
169.9999999999998
 31
0
  0
SOLID
  8
1
 62
1
 10
190.1446808109252
 20
169.9999999999998
 30
0
 11
189.4946808109252
 21
174.9999999999998
 31
0
 12
190.7946808109252
 22
174.9999999999998
 32
0
 13
190.7946808109252
 23
174.9999999999998
 33
0
  0
SOLID
  8
1
 62
1
 10
190.1446808109252
 20
204.9999999999999
 30
0
 11
190.7946808109252
 21
199.9999999999999
 31
0
 12
189.4946808109252
 22
199.9999999999999
 32
0
 13
189.4946808109252
 23
199.9999999999999
 33
0
  0
TEXT
  8
1
 62
7
 10
188.1446808109252
 20
183.7499999999999
 30
0
 40
5
  1
35
 50
90
 41
0.88209
  0
ENDBLK
  8
0
  0
BLOCK
  8
1
  2
*D16
 70
1
 10
0
 20
0
 30
0
  0
LINE
  8
1
 62
1
 10
190.1446808109252
 20
138.9964421551035
 30
0
 11
190.1446808109252
 21
169.9999999999999
 31
0
  0
LINE
  8
1
 62
1
 10
231.0537084170129
 20
169.9999999999999
 30
0
 11
188.6446808109252
 21
169.9999999999999
 31
0
  0
LINE
  8
1
 62
1
 10
208.8044181262275
 20
138.9964421551035
 30
0
 11
188.6446808109252
 21
138.9964421551035
 31
0
  0
SOLID
  8
1
 62
1
 10
190.1446808109252
 20
138.9964421551035
 30
0
 11
189.4946808109252
 21
143.9964421551035
 31
0
 12
190.7946808109252
 22
143.9964421551035
 32
0
 13
190.7946808109252
 23
143.9964421551035
 33
0
  0
SOLID
  8
1
 62
1
 10
190.1446808109252
 20
169.9999999999999
 30
0
 11
190.7946808109252
 21
164.9999999999999
 31
0
 12
189.4946808109252
 22
164.9999999999999
 32
0
 13
189.4946808109252
 23
164.9999999999999
 33
0
  0
TEXT
  8
1
 62
7
 10
188.1446808109252
 20
151.4982210775517
 30
0
 40
5
  1
31
 50
90
 41
0.88209
  0
ENDBLK
  8
0
  0
BLOCK
  8
1
  2
*D17
 70
1
 10
0
 20
0
 30
0
  0
LINE
  8
1
 62
1
 10
190.1446808109252
 20
114.9968104958438
 30
0
 11
190.1446808109252
 21
138.9964421551034
 31
0
  0
LINE
  8
1
 62
1
 10
218.6203349785195
 20
114.9968104958438
 30
0
 11
188.6446808109252
 21
114.9968104958438
 31
0
  0
LINE
  8
1
 62
1
 10
208.8044181262275
 20
138.9964421551034
 30
0
 11
188.6446808109252
 21
138.9964421551034
 31
0
  0
SOLID
  8
1
 62
1
 10
190.1446808109252
 20
114.9968104958438
 30
0
 11
189.4946808109252
 21
119.9968104958438
 31
0
 12
190.7946808109252
 22
119.9968104958438
 32
0
 13
190.7946808109252
 23
119.9968104958438
 33
0
  0
SOLID
  8
1
 62
1
 10
190.1446808109252
 20
138.9964421551034
 30
0
 11
190.7946808109252
 21
133.9964421551034
 31
0
 12
189.4946808109252
 22
133.9964421551034
 32
0
 13
189.4946808109252
 23
133.9964421551034
 33
0
  0
TEXT
  8
1
 62
7
 10
188.1446808109252
 20
123.2466263254736
 30
0
 40
5
  1
24
 50
90
 41
0.88209
  0
ENDBLK
  8
0
  0
BLOCK
  8
1
  2
*D18
 70
1
 10
0
 20
0
 30
0
  0
LINE
  8
1
 62
1
 10
190.1446808109252
 20
-5.684341886080802e-014
 30
0
 11
190.1446808109252
 21
114.9968104958438
 31
0
  0
LINE
  8
1
 62
1
 10
218.6203349785195
 20
114.9968104958438
 30
0
 11
188.6446808109252
 21
114.9968104958438
 31
0
  0
LINE
  8
1
 62
1
 10
233.0537084170129
 20
-5.684341886080802e-014
 30
0
 11
188.6446808109252
 21
-5.684341886080802e-014
 31
0
  0
SOLID
  8
1
 62
1
 10
190.1446808109252
 20
-5.684341886080802e-014
 30
0
 11
189.4946808109252
 21
4.999999999999943
 31
0
 12
190.7946808109252
 22
4.999999999999943
 32
0
 13
190.7946808109252
 23
4.999999999999943
 33
0
  0
SOLID
  8
1
 62
1
 10
190.1446808109252
 20
114.9968104958438
 30
0
 11
190.7946808109252
 21
109.9968104958438
 31
0
 12
189.4946808109252
 22
109.9968104958438
 32
0
 13
189.4946808109252
 23
109.9968104958438
 33
0
  0
TEXT
  8
1
 62
7
 10
188.1446808109252
 20
52.99840524792187
 30
0
 40
5
  1
115
 50
90
 41
0.88209
  0
ENDBLK
  8
0
  0
BLOCK
  8
1
  2
*D19
 70
1
 10
0
 20
0
 30
0
  0
LINE
  8
1
 62
1
 10
337.5537084170129
 20
-4.973799150320701e-014
 30
0
 11
337.5537084170129
 21
33.99999999999995
 31
0
  0
LINE
  8
1
 62
1
 10
300.0057503322438
 20
33.99999999999995
 30
0
 11
339.0537084170129
 21
33.99999999999995
 31
0
  0
LINE
  8
1
 62
1
 10
296.0537084170129
 20
-4.973799150320701e-014
 30
0
 11
339.0537084170129
 21
-4.973799150320701e-014
 31
0
  0
SOLID
  8
1
 62
1
 10
337.5537084170129
 20
-4.973799150320701e-014
 30
0
 11
336.9037084170129
 21
4.99999999999995
 31
0
 12
338.2037084170129
 22
4.99999999999995
 32
0
 13
338.2037084170129
 23
4.99999999999995
 33
0
  0
SOLID
  8
1
 62
1
 10
337.5537084170129
 20
33.99999999999995
 30
0
 11
338.2037084170129
 21
28.99999999999995
 31
0
 12
336.9037084170129
 22
28.99999999999995
 32
0
 13
336.9037084170129
 23
28.99999999999995
 33
0
  0
TEXT
  8
1
 62
7
 10
335.5537084170129
 20
13.24999999999995
 30
0
 40
5
  1
34
 50
90
 41
0.88209
  0
ENDBLK
  8
0
  0
BLOCK
  8
1
  2
*D20
 70
1
 10
0
 20
0
 30
0
  0
LINE
  8
1
 62
1
 10
337.5537084170129
 20
111.9999999999999
 30
0
 11
337.5537084170129
 21
169.9999999999999
 31
0
  0
LINE
  8
1
 62
1
 10
299.4537084170129
 20
111.9999999999999
 30
0
 11
339.0537084170129
 21
111.9999999999999
 31
0
  0
LINE
  8
1
 62
1
 10
296.0537084170129
 20
169.9999999999999
 30
0
 11
339.0537084170129
 21
169.9999999999999
 31
0
  0
SOLID
  8
1
 62
1
 10
337.5537084170129
 20
111.9999999999999
 30
0
 11
336.9037084170129
 21
116.9999999999999
 31
0
 12
338.2037084170129
 22
116.9999999999999
 32
0
 13
338.2037084170129
 23
116.9999999999999
 33
0
  0
SOLID
  8
1
 62
1
 10
337.5537084170129
 20
169.9999999999999
 30
0
 11
338.2037084170129
 21
164.9999999999999
 31
0
 12
336.9037084170129
 22
164.9999999999999
 32
0
 13
336.9037084170129
 23
164.9999999999999
 33
0
  0
TEXT
  8
1
 62
7
 10
335.5537084170129
 20
137.2499999999999
 30
0
 40
5
  1
58
 50
90
 41
0.88209
  0
ENDBLK
  8
0
  0
BLOCK
  8
1
  2
*D21
 70
1
 10
0
 20
0
 30
0
  0
LINE
  8
1
 62
1
 10
337.5537084170129
 20
33.99999999999994
 30
0
 11
337.5537084170129
 21
111.9999999999999
 31
0
  0
LINE
  8
1
 62
1
 10
300.0057503322438
 20
33.99999999999994
 30
0
 11
339.0537084170129
 21
33.99999999999994
 31
0
  0
LINE
  8
1
 62
1
 10
299.4537084170129
 20
111.9999999999999
 30
0
 11
339.0537084170129
 21
111.9999999999999
 31
0
  0
SOLID
  8
1
 62
1
 10
337.5537084170129
 20
33.99999999999994
 30
0
 11
336.9037084170129
 21
38.99999999999994
 31
0
 12
338.2037084170129
 22
38.99999999999994
 32
0
 13
338.2037084170129
 23
38.99999999999994
 33
0
  0
SOLID
  8
1
 62
1
 10
337.5537084170129
 20
111.9999999999999
 30
0
 11
338.2037084170129
 21
106.9999999999999
 31
0
 12
336.9037084170129
 22
106.9999999999999
 32
0
 13
336.9037084170129
 23
106.9999999999999
 33
0
  0
TEXT
  8
1
 62
7
 10
335.5537084170129
 20
69.24999999999992
 30
0
 40
5
  1
78
 50
90
 41
0.88209
  0
ENDBLK
  8
0
  0
BLOCK
  8
1
  2
*D22
 70
1
 10
0
 20
0
 30
0
  0
LINE
  8
1
 62
1
 10
417.1283567754166
 20
221.3715192335262
 30
0
 11
403.6744449526365
 21
203.059117950771
 31
0
  0
SOLID
  8
1
 62
1
 10
403.6744449526365
 20
203.059117950771
 30
0
 11
406.1109887142924
 21
207.4733851037122
 31
0
 12
407.158637726605
 22
206.703689354081
 32
0
 13
407.158637726605
 23
206.703689354081
 33
0
  0
TEXT
  8
1
 62
7
 10
412.7700309984168
 20
217.1282897533379
 30
0
 40
5
  1
10
 50
53.6957005551492
 41
0.9
  0
TEXT
  8
1
 62
7
 10
409.2175890770421
 20
212.2929866195871
 30
0
 40
5
  1
R
 50
53.6957005551492
 41
0.9
  0
ENDBLK
  8
0
  0
BLOCK
  8
1
  2
*D23
 70
1
 10
0
 20
0
 30
0
  0
LINE
  8
1
 62
1
 10
315.4421657736681
 20
158.3965244831703
 30
0
 11
276.7602648339847
 21
137.6544240273572
 31
0
  0
SOLID
  8
1
 62
1
 10
315.4421657736681
 20
158.3965244831703
 30
0
 11
311.3428682341583
 21
155.460837224185
 31
0
 12
310.7285281510619
 22
156.60651879526
 32
0
 13
310.7285281510619
 23
156.60651879526
 33
0
  0
TEXT
  8
1
 62
7
 10
281.1028873418752
 20
142.2524268279178
 30
0
 40
5
  1
22
 50
28.20120467756315
 41
0.88209
  0
TEXT
  8
1
 62
7
 10
275.8151262446056
 20
139.4170110597804
 30
0
 40
5
  1
R
 50
28.20120467756315
 41
0.88209
  0
ENDBLK
  8
0
  0
ENDSEC
  0
SECTION
  2
ENTITIES
  0
LINE
  8
1
 62
2
  6
DASHDOT
 10
397.7537084170129
 20
-28.59972060547912
 30
0
 11
397.7537084170129
 21
-41.1050231504857
 31
0
  0
LINE
  8
1
 62
2
  6
DASHDOT
 10
397.7537084170129
 20
198.6002793945209
 30
0
 11
397.7537084170129
 21
210.11945198176
 31
0
  0
LINE
  8
1
 62
2
  6
DASHDOT
 10
397.7537084170129
 20
-13.39972060547913
 30
0
 11
397.7537084170129
 21
183.4002793945209
 31
0
  0
LINE
  8
1
 62
2
 10
222.5564937126727
 20
127.4969582126945
 30
0
 11
228.0537084170129
 21
127.4995282011397
 31
0
  0
LINE
  8
1
 62
7
 10
222.556531239058
 20
126.4969582133987
 30
0
 11
228.0537084170129
 21
126.497208033195
 31
0
  0
LINE
  8
1
 62
2
  6
DASHDOT
 10
275.9721050718066
 20
33.99999999999994
 30
0
 11
300.0057503322438
 21
33.99999999999994
 31
0
  0
LINE
  8
1
 62
2
  6
DASHDOT
 10
288.0537084170129
 20
46.50267799262633
 30
0
 11
288.0537084170129
 21
8.541179009833343
 31
0
  0
LINE
  8
1
 62
2
 10
402.2537084170129
 20
114.9968104958438
 30
0
 11
399.7537084170129
 21
132.39498749663
 31
0
  0
LINE
  8
1
 62
2
 10
399.7537084170129
 20
132.39498749663
 30
0
 11
402.2537084170129
 21
138.9964421551035
 31
0
  0
LINE
  8
1
 62
2
 10
395.7537084170129
 20
132.39498749663
 30
0
 11
393.2537084170128
 21
114.9968104958438
 31
0
  0
LINE
  8
1
 62
2
 10
393.2537084170128
 20
138.9964421551035
 30
0
 11
395.7537084170129
 21
132.39498749663
 31
0
  0
LINE
  8
1
 62
7
 10
393.2537084170128
 20
138.9964421551035
 30
0
 11
402.2537084170129
 21
138.9964421551035
 31
0
  0
LINE
  8
1
 62
7
 10
210.6446808109252
 20
-109.5000000000001
 30
0
 11
228.0537084170129
 21
-109.5000000000001
 31
0
  0
LINE
  8
1
 62
2
 10
210.6446808109252
 20
-108.5000000000001
 30
0
 11
228.0537084170129
 21
-108.5000000000001
 31
0
  0
LINE
  8
1
 62
7
 10
200.6446808109252
 20
-102.5871215252209
 30
0
 11
200.6446808109252
 21
-107.4128784747793
 31
0
  0
LINE
  8
1
 62
2
 10
228.0537084170129
 20
-101.5000000000001
 30
0
 11
210.6446808109252
 21
-101.5000000000001
 31
0
  0
LINE
  8
1
 62
7
 10
284.0537084170129
 20
115.9999999999999
 30
0
 11
284.0537084170129
 21
107.9999999999999
 31
0
  0
LINE
  8
1
 62
7
 10
292.0537084170129
 20
115.9999999999999
 30
0
 11
284.0537084170129
 21
115.9999999999999
 31
0
  0
LINE
  8
1
 62
7
 10
292.0537084170129
 20
107.9999999999999
 30
0
 11
292.0537084170129
 21
115.9999999999999
 31
0
  0
LINE
  8
1
 62
7
 10
284.0537084170129
 20
107.9999999999999
 30
0
 11
292.0537084170129
 21
107.9999999999999
 31
0
  0
LINE
  8
1
 62
2
  6
DASHED
 10
288.0537084170129
 20
-95.982138501118
 30
0
 11
288.0537084170129
 21
-114.646168222929
 31
0
  0
LINE
  8
1
 62
7
 10
285.0537084170129
 20
-99.7500000000001
 30
0
 11
285.0537084170129
 21
-110.2500000000001
 31
0
  0
LINE
  8
1
 62
7
 10
291.0537084170129
 20
-99.7500000000001
 30
0
 11
291.0537084170129
 21
-110.2500000000001
 31
0
  0
LINE
  8
1
 62
7
 10
228.0537084170129
 20
-100.5000000000001
 30
0
 11
210.6446808109252
 21
-100.5000000000001
 31
0
  0
LINE
  8
1
 62
7
 10
228.0537084170129
 20
-109.5000000000001
 30
0
 11
228.0537084170129
 21
-100.898760738215
 31
0
  0
LINE
  8
1
 62
7
 10
231.0537084170129
 20
-100.2500000000001
 30
0
 11
231.0537084170129
 21
-95.0000000000001
 31
0
  0
LINE
  8
1
 62
7
 10
233.0537084170129
 20
-100.2500000000001
 30
0
 11
233.0537084170129
 21
-110.2500000000001
 31
0
  0
LINE
  8
1
 62
7
 10
318.0537084170129
 20
-110.2500000000001
 30
0
 11
318.0537084170129
 21
-112.2500000000001
 31
0
  0
LINE
  8
1
 62
7
 10
318.0537084170129
 20
-97.7500000000001
 30
0
 11
318.0537084170129
 21
-99.7500000000001
 31
0
  0
LINE
  8
1
 62
7
 10
318.0537084170129
 20
-110.2500000000001
 30
0
 11
231.0537084170129
 21
-110.2500000000001
 31
0
  0
LINE
  8
1
 62
7
 10
231.0537084170129
 20
-112.2500000000001
 30
0
 11
318.0537084170129
 21
-112.2500000000001
 31
0
  0
LINE
  8
1
 62
7
 10
233.5537084170129
 20
-99.7500000000001
 30
0
 11
318.0537084170129
 21
-99.7500000000001
 31
0
  0
LINE
  8
1
 62
7
 10
318.0537084170129
 20
-97.7500000000001
 30
0
 11
233.5537084170129
 21
-97.7500000000001
 31
0
  0
LINE
  8
1
 62
7
 10
228.0537084170129
 20
-95.0000000000001
 30
0
 11
228.0537084170129
 21
-115.0000000000001
 31
0
  0
LINE
  8
1
 62
7
 10
231.0537084170129
 20
-95.0000000000001
 30
0
 11
228.0537084170129
 21
-95.0000000000001
 31
0
  0
LINE
  8
1
 62
7
 10
231.0537084170129
 20
-115.0000000000001
 30
0
 11
231.0537084170129
 21
-100.2500000000001
 31
0
  0
LINE
  8
1
 62
7
 10
228.0537084170129
 20
-115.0000000000001
 30
0
 11
231.0537084170129
 21
-115.0000000000001
 31
0
  0
LINE
  8
1
 62
2
  6
DASHDOT
 10
249.0537084170129
 20
5.999999999999943
 30
0
 11
250.5537084170129
 21
5.999999999999943
 31
0
  0
LINE
  8
1
 62
2
  6
DASHDOT
 10
243.0537084170129
 20
5.999999999999943
 30
0
 11
243.8537084170129
 21
5.999999999999944
 31
0
  0
LINE
  8
1
 62
2
 10
248.2537084170129
 20
5.999999999999943
 30
0
 11
248.2537084170129
 21
5.499999999999943
 31
0
  0
LINE
  8
1
 62
2
  6
DASHDOT
 10
248.2537084170129
 20
5.999999999999943
 30
0
 11
249.0537084170129
 21
5.999999999999943
 31
0
  0
LINE
  8
1
 62
2
 10
243.8537084170129
 20
5.999999999999944
 30
0
 11
243.8537084170129
 21
6.499999999999943
 31
0
  0
LINE
  8
1
 62
2
  6
DASHDOT
 10
246.0537084170129
 20
2.999999999999943
 30
0
 11
246.0537084170129
 21
1.499999999999943
 31
0
  0
LINE
  8
1
 62
2
  6
DASHDOT
 10
246.0537084170129
 20
8.999999999999943
 30
0
 11
246.0537084170129
 21
8.199999999999942
 31
0
  0
LINE
  8
1
 62
2
 10
246.0537084170129
 20
3.799999999999943
 30
0
 11
245.5537084170129
 21
3.799999999999943
 31
0
  0
LINE
  8
1
 62
2
  6
DASHDOT
 10
246.0537084170129
 20
3.799999999999943
 30
0
 11
246.0537084170129
 21
2.999999999999943
 31
0
  0
LINE
  8
1
 62
2
 10
246.0537084170129
 20
8.199999999999942
 30
0
 11
246.5537084170129
 21
8.199999999999942
 31
0
  0
LINE
  8
1
 62
2
  6
DASHDOT
 10
313.9537084170129
 20
56.99999999999994
 30
0
 11
315.4537084170129
 21
56.99999999999994
 31
0
  0
LINE
  8
1
 62
2
  6
DASHDOT
 10
307.9537084170129
 20
56.99999999999994
 30
0
 11
308.7537084170129
 21
56.99999999999994
 31
0
  0
LINE
  8
1
 62
2
  6
DASHDOT
 10
310.9537084170129
 20
53.99999999999994
 30
0
 11
310.9537084170129
 21
52.49999999999994
 31
0
  0
LINE
  8
1
 62
2
  6
DASHDOT
 10
310.9537084170129
 20
59.99999999999994
 30
0
 11
310.9537084170129
 21
59.19999999999995
 31
0
  0
LINE
  8
1
 62
2
 10
313.1537084170129
 20
56.99999999999994
 30
0
 11
313.1537084170129
 21
56.49999999999994
 31
0
  0
LINE
  8
1
 62
2
  6
DASHDOT
 10
313.1537084170129
 20
56.99999999999994
 30
0
 11
313.9537084170129
 21
56.99999999999994
 31
0
  0
LINE
  8
1
 62
2
 10
308.7537084170129
 20
56.99999999999994
 30
0
 11
308.7537084170129
 21
57.49999999999994
 31
0
  0
LINE
  8
1
 62
2
 10
310.9537084170129
 20
54.79999999999994
 30
0
 11
310.4537084170129
 21
54.79999999999994
 31
0
  0
LINE
  8
1
 62
2
  6
DASHDOT
 10
310.9537084170129
 20
54.79999999999994
 30
0
 11
310.9537084170129
 21
53.99999999999994
 31
0
  0
LINE
  8
1
 62
2
 10
310.9537084170129
 20
59.19999999999995
 30
0
 11
311.4537084170129
 21
59.19999999999995
 31
0
  0
LINE
  8
1
 62
2
  6
DASHDOT
 10
290.6537084170129
 20
157.9999999999999
 30
0
 11
292.1537084170129
 21
157.9999999999999
 31
0
  0
LINE
  8
1
 62
2
  6
DASHDOT
 10
284.6537084170129
 20
157.9999999999999
 30
0
 11
285.4537084170129
 21
157.9999999999999
 31
0
  0
LINE
  8
1
 62
2
  6
DASHDOT
 10
287.6537084170129
 20
154.9999999999999
 30
0
 11
287.6537084170129
 21
153.4999999999999
 31
0
  0
LINE
  8
1
 62
2
  6
DASHDOT
 10
287.6537084170129
 20
160.9999999999999
 30
0
 11
287.6537084170129
 21
160.1999999999999
 31
0
  0
LINE
  8
1
 62
2
 10
289.8537084170129
 20
157.9999999999999
 30
0
 11
289.8537084170129
 21
157.4999999999999
 31
0
  0
LINE
  8
1
 62
2
  6
DASHDOT
 10
289.8537084170129
 20
157.9999999999999
 30
0
 11
290.6537084170129
 21
157.9999999999999
 31
0
  0
LINE
  8
1
 62
2
 10
285.4537084170129
 20
157.9999999999999
 30
0
 11
285.4537084170129
 21
158.4999999999999
 31
0
  0
LINE
  8
1
 62
2
 10
287.6537084170129
 20
155.7999999999999
 30
0
 11
287.1537084170129
 21
155.7999999999999
 31
0
  0
LINE
  8
1
 62
2
  6
DASHDOT
 10
287.6537084170129
 20
155.7999999999999
 30
0
 11
287.6537084170129
 21
154.9999999999999
 31
0
  0
LINE
  8
1
 62
2
 10
287.6537084170129
 20
160.1999999999999
 30
0
 11
288.1537084170129
 21
160.1999999999999
 31
0
  0
LINE
  8
1
 62
2
 10
245.5537084170129
 20
8.199999999999942
 30
0
 11
246.0537084170129
 21
8.199999999999942
 31
0
  0
LINE
  8
1
 62
2
 10
245.5537084170129
 20
6.499999999999943
 30
0
 11
245.5537084170129
 21
8.199999999999942
 31
0
  0
LINE
  8
1
 62
2
 10
243.8537084170129
 20
6.499999999999943
 30
0
 11
245.5537084170129
 21
6.499999999999943
 31
0
  0
LINE
  8
1
 62
2
 10
243.8537084170129
 20
5.499999999999943
 30
0
 11
243.8537084170129
 21
5.999999999999944
 31
0
  0
LINE
  8
1
 62
2
 10
245.5537084170129
 20
5.499999999999943
 30
0
 11
243.8537084170129
 21
5.499999999999943
 31
0
  0
LINE
  8
1
 62
2
 10
245.5537084170129
 20
3.799999999999943
 30
0
 11
245.5537084170129
 21
5.499999999999943
 31
0
  0
LINE
  8
1
 62
2
 10
246.5537084170129
 20
3.799999999999943
 30
0
 11
246.0537084170129
 21
3.799999999999943
 31
0
  0
LINE
  8
1
 62
2
 10
246.5537084170129
 20
5.499999999999943
 30
0
 11
246.5537084170129
 21
3.799999999999943
 31
0
  0
LINE
  8
1
 62
2
 10
248.2537084170129
 20
5.499999999999943
 30
0
 11
246.5537084170129
 21
5.499999999999943
 31
0
  0
LINE
  8
1
 62
2
 10
248.2537084170129
 20
6.499999999999943
 30
0
 11
248.2537084170129
 21
5.999999999999943
 31
0
  0
LINE
  8
1
 62
2
 10
246.5537084170129
 20
6.499999999999943
 30
0
 11
248.2537084170129
 21
6.499999999999943
 31
0
  0
LINE
  8
1
 62
2
 10
246.5537084170129
 20
8.199999999999942
 30
0
 11
246.5537084170129
 21
6.499999999999943
 31
0
  0
LINE
  8
1
 62
2
  6
DASHDOT
 10
246.0537084170129
 20
10.49999999999994
 30
0
 11
246.0537084170129
 21
8.999999999999943
 31
0
  0
LINE
  8
1
 62
2
  6
DASHDOT
 10
241.5537084170129
 20
5.999999999999944
 30
0
 11
243.0537084170129
 21
5.999999999999943
 31
0
  0
LINE
  8
1
 62
2
 10
310.4537084170129
 20
59.19999999999995
 30
0
 11
310.9537084170129
 21
59.19999999999995
 31
0
  0
LINE
  8
1
 62
2
 10
310.4537084170129
 20
57.49999999999994
 30
0
 11
310.4537084170129
 21
59.19999999999995
 31
0
  0
LINE
  8
1
 62
2
 10
308.7537084170129
 20
57.49999999999994
 30
0
 11
310.4537084170129
 21
57.49999999999994
 31
0
  0
LINE
  8
1
 62
2
 10
308.7537084170129
 20
56.49999999999994
 30
0
 11
308.7537084170129
 21
56.99999999999994
 31
0
  0
LINE
  8
1
 62
2
 10
310.4537084170129
 20
56.49999999999994
 30
0
 11
308.7537084170129
 21
56.49999999999994
 31
0
  0
LINE
  8
1
 62
2
 10
310.4537084170129
 20
54.79999999999994
 30
0
 11
310.4537084170129
 21
56.49999999999994
 31
0
  0
LINE
  8
1
 62
2
 10
311.4537084170129
 20
54.79999999999994
 30
0
 11
310.9537084170129
 21
54.79999999999994
 31
0
  0
LINE
  8
1
 62
2
 10
311.4537084170129
 20
56.49999999999994
 30
0
 11
311.4537084170129
 21
54.79999999999994
 31
0
  0
LINE
  8
1
 62
2
 10
313.1537084170129
 20
56.49999999999994
 30
0
 11
311.4537084170129
 21
56.49999999999994
 31
0
  0
LINE
  8
1
 62
2
 10
313.1537084170129
 20
57.49999999999994
 30
0
 11
313.1537084170129
 21
56.99999999999994
 31
0
  0
LINE
  8
1
 62
2
 10
311.4537084170129
 20
57.49999999999994
 30
0
 11
313.1537084170129
 21
57.49999999999994
 31
0
  0
LINE
  8
1
 62
2
 10
311.4537084170129
 20
59.19999999999995
 30
0
 11
311.4537084170129
 21
57.49999999999994
 31
0
  0
LINE
  8
1
 62
2
  6
DASHDOT
 10
310.9537084170129
 20
61.49999999999994
 30
0
 11
310.9537084170129
 21
59.99999999999994
 31
0
  0
LINE
  8
1
 62
2
  6
DASHDOT
 10
306.4537084170129
 20
56.99999999999994
 30
0
 11
307.9537084170129
 21
56.99999999999994
 31
0
  0
LINE
  8
1
 62
2
 10
287.1537084170129
 20
160.1999999999999
 30
0
 11
287.6537084170129
 21
160.1999999999999
 31
0
  0
LINE
  8
1
 62
2
 10
287.1537084170129
 20
158.4999999999999
 30
0
 11
287.1537084170129
 21
160.1999999999999
 31
0
  0
LINE
  8
1
 62
2
 10
285.4537084170129
 20
158.4999999999999
 30
0
 11
287.1537084170129
 21
158.4999999999999
 31
0
  0
LINE
  8
1
 62
2
 10
285.4537084170129
 20
157.4999999999999
 30
0
 11
285.4537084170129
 21
157.9999999999999
 31
0
  0
LINE
  8
1
 62
2
 10
287.1537084170129
 20
157.4999999999999
 30
0
 11
285.4537084170129
 21
157.4999999999999
 31
0
  0
LINE
  8
1
 62
2
 10
287.1537084170129
 20
155.7999999999999
 30
0
 11
287.1537084170129
 21
157.4999999999999
 31
0
  0
LINE
  8
1
 62
2
 10
288.1537084170129
 20
155.7999999999999
 30
0
 11
287.6537084170129
 21
155.7999999999999
 31
0
  0
LINE
  8
1
 62
2
 10
288.1537084170129
 20
157.4999999999999
 30
0
 11
288.1537084170129
 21
155.7999999999999
 31
0
  0
LINE
  8
1
 62
2
 10
289.8537084170129
 20
157.4999999999999
 30
0
 11
288.1537084170129
 21
157.4999999999999
 31
0
  0
LINE
  8
1
 62
2
 10
289.8537084170129
 20
158.4999999999999
 30
0
 11
289.8537084170129
 21
157.9999999999999
 31
0
  0
LINE
  8
1
 62
2
 10
288.1537084170129
 20
158.4999999999999
 30
0
 11
289.8537084170129
 21
158.4999999999999
 31
0
  0
LINE
  8
1
 62
2
 10
288.1537084170129
 20
160.1999999999999
 30
0
 11
288.1537084170129
 21
158.4999999999999
 31
0
  0
LINE
  8
1
 62
2
  6
DASHDOT
 10
287.6537084170129
 20
162.4999999999999
 30
0
 11
287.6537084170129
 21
160.9999999999999
 31
0
  0
LINE
  8
1
 62
2
  6
DASHDOT
 10
283.1537084170129
 20
157.9999999999999
 30
0
 11
284.6537084170129
 21
157.9999999999999
 31
0
  0
LINE
  8
1
 62
7
 10
231.0537084170129
 20
151.4
 30
0
 11
231.0537084170129
 21
118.4
 31
0
  0
LINE
  8
1
 62
2
  6
CENTER
 10
231.0537084170129
 20
13.75999999999993
 30
0
 11
231.0537084170129
 21
9.439999999999941
 31
0
  0
LINE
  8
1
 62
2
  6
CENTER
 10
231.0537084170129
 20
71.19999999999993
 30
0
 11
231.0537084170129
 21
70.83999999999992
 31
0
  0
LINE
  8
1
 62
2
  6
CENTER
 10
231.0537084170129
 20
118.7599999999999
 30
0
 11
231.0537084170129
 21
114.4399999999999
 31
0
  0
LINE
  8
1
 62
2
  6
CENTER
 10
231.0537084170129
 20
155.36
 30
0
 11
231.0537084170129
 21
151.04
 31
0
  0
LINE
  8
1
 62
7
 10
296.0537084170129
 20
169.9999999999999
 30
0
 11
231.0537084170129
 21
169.9999999999999
 31
0
  0
LINE
  8
1
 62
7
 10
318.0537084170129
 20
21.99999999999995
 30
0
 11
318.0537084170129
 21
147.9999999999999
 31
0
  0
LINE
  8
1
 62
7
 10
233.0537084170129
 20
-5.684341886080801e-014
 30
0
 11
296.0537084170129
 21
-5.421023107534411e-014
 31
0
  0
LINE
  8
1
 62
7
 10
231.0537084170129
 20
71.19999999999993
 30
0
 11
231.0537084170129
 21
13.39999999999992
 31
0
  0
LINE
  8
1
 62
2
  6
CENTER
 10
288.0537084170129
 20
123.4
 30
0
 11
288.0537084170129
 21
100.5999999999999
 31
0
  0
LINE
  8
1
 62
2
  6
CENTER
 10
276.6537084170129
 20
111.9999999999999
 30
0
 11
299.4537084170129
 21
111.9999999999999
 31
0
  0
LINE
  8
1
 62
7
 10
231.0537084170129
 20
169.9999999999999
 30
0
 11
231.0537084170129
 21
154.9999999999999
 31
0
  0
LINE
  8
1
 62
7
 10
233.0537084170129
 20
-5.684341886080801e-014
 30
0
 11
231.0537084170129
 21
-5.684341886080801e-014
 31
0
  0
LINE
  8
1
 62
2
  6
CENTER
 10
283.5537084170129
 20
89.9999999999999
 30
0
 11
292.5537084170129
 21
89.9999999999999
 31
0
  0
LINE
  8
1
 62
2
  6
CENTER
 10
288.0537084170129
 20
94.4999999999999
 30
0
 11
288.0537084170129
 21
85.4999999999999
 31
0
  0
LINE
  8
1
 62
7
 10
285.4537084170129
 20
92.70231382337421
 30
0
 11
285.4537084170129
 21
87.29768617662559
 31
0
  0
LINE
  8
1
 62
7
 10
290.6537084170129
 20
87.29768617662559
 30
0
 11
290.6537084170129
 21
92.70231382337421
 31
0
  0
LINE
  8
1
 62
2
 10
220.1157028098307
 20
117.3763665936129
 30
0
 11
220.5594710917372
 21
125.6046656032511
 31
0
  0
LINE
  8
1
 62
2
 10
205.4346770369007
 20
127.024617634976
 30
0
 11
217.8393102270363
 21
116.2056364052681
 31
0
  0
LINE
  8
1
 62
2
 10
208.9068239023081
 20
137.9964421558075
 30
0
 11
228.0537084170129
 21
137.9972080412924
 31
0
  0
LINE
  8
1
 62
7
 10
221.1142516466838
 20
117.3225128990386
 30
0
 11
221.5580199285903
 21
125.550811908677
 31
0
  0
LINE
  8
1
 62
7
 10
204.7773801091945
 20
126.2709859286181
 30
0
 11
217.18201329933
 21
115.45200469891
 31
0
  0
LINE
  8
1
 62
7
 10
208.8044181262275
 20
138.9964421551035
 30
0
 11
228.0537084170129
 21
138.9972080419964
 31
0
  0
LINE
  8
1
 62
7
 10
228.0537084170129
 20
190.9999999999999
 30
0
 11
228.0537084170129
 21
195.75
 31
0
  0
LINE
  8
1
 62
7
 10
228.0537084170129
 20
164.4999999999999
 30
0
 11
228.0537084170129
 21
186.2499999999999
 31
0
  0
LINE
  8
1
 62
7
 10
231.0537084170129
 20
190.9999999999999
 30
0
 11
231.0537084170129
 21
188.2499999999999
 31
0
  0
LINE
  8
1
 62
7
 10
231.0537084170129
 20
205
 30
0
 11
231.0537084170129
 21
193.75
 31
0
  0
LINE
  8
1
 62
7
 10
228.0537084170129
 20
186.2499999999999
 30
0
 11
228.0537084170129
 21
190.9999999999999
 31
0
  0
LINE
  8
1
 62
7
 10
231.0537084170129
 20
193.75
 30
0
 11
231.0537084170129
 21
190.9999999999999
 31
0
  0
LINE
  8
1
 62
7
 10
228.0537084170129
 20
-21.00000000000006
 30
0
 11
228.0537084170129
 21
-16.25000000000006
 31
0
  0
LINE
  8
1
 62
7
 10
228.0537084170129
 20
-35.00000000000006
 30
0
 11
228.0537084170129
 21
-25.75000000000006
 31
0
  0
LINE
  8
1
 62
7
 10
231.0537084170129
 20
-21.00000000000006
 30
0
 11
231.0537084170129
 21
-23.75000000000006
 31
0
  0
LINE
  8
1
 62
7
 10
231.0537084170129
 20
3.999999999999943
 30
0
 11
231.0537084170129
 21
-18.25000000000006
 31
0
  0
LINE
  8
1
 62
7
 10
228.0537084170129
 20
-25.75000000000006
 30
0
 11
228.0537084170129
 21
-21.00000000000006
 31
0
  0
LINE
  8
1
 62
7
 10
231.0537084170129
 20
-18.25000000000006
 30
0
 11
231.0537084170129
 21
-21.00000000000006
 31
0
  0
LINE
  8
1
 62
7
 10
228.0537084170129
 20
96.19999999999993
 30
0
 11
228.0537084170129
 21
98.69999999999993
 31
0
  0
LINE
  8
1
 62
7
 10
228.0537084170129
 20
8.499999999999943
 30
0
 11
228.0537084170129
 21
93.69999999999993
 31
0
  0
LINE
  8
1
 62
7
 10
231.0537084170129
 20
96.19999999999993
 30
0
 11
231.0537084170129
 21
94.19999999999993
 31
0
  0
LINE
  8
1
 62
7
 10
231.0537084170129
 20
125.1999999999999
 30
0
 11
231.0537084170129
 21
98.19999999999993
 31
0
  0
LINE
  8
1
 62
7
 10
228.0537084170129
 20
93.69999999999993
 30
0
 11
228.0537084170129
 21
96.19999999999993
 31
0
  0
LINE
  8
1
 62
7
 10
231.0537084170129
 20
98.19999999999993
 30
0
 11
231.0537084170129
 21
96.19999999999993
 31
0
  0
LINE
  8
1
 62
7
 10
228.0537084170129
 20
161.9999999999999
 30
0
 11
228.0537084170129
 21
164.4999999999999
 31
0
  0
LINE
  8
1
 62
7
 10
228.0537084170129
 20
154.1999999999999
 30
0
 11
228.0537084170129
 21
159.4999999999999
 31
0
  0
LINE
  8
1
 62
7
 10
231.0537084170129
 20
161.9999999999999
 30
0
 11
231.0537084170129
 21
159.9999999999999
 31
0
  0
LINE
  8
1
 62
7
 10
231.0537084170129
 20
188.2499999999999
 30
0
 11
231.0537084170129
 21
169.9999999999999
 31
0
  0
LINE
  8
1
 62
7
 10
228.0537084170129
 20
159.4999999999999
 30
0
 11
228.0537084170129
 21
161.9999999999999
 31
0
  0
LINE
  8
1
 62
7
 10
231.0537084170129
 20
169.9999999999999
 30
0
 11
231.0537084170129
 21
161.9999999999999
 31
0
  0
LINE
  8
1
 62
7
 10
228.0537084170129
 20
3.499999999999943
 30
0
 11
228.0537084170129
 21
8.499999999999943
 31
0
  0
LINE
  8
1
 62
7
 10
228.0537084170129
 20
-16.25000000000006
 30
0
 11
228.0537084170129
 21
3.499999999999943
 31
0
  0
LINE
  8
1
 62
7
 10
231.0537084170129
 20
5.999999999999943
 30
0
 11
231.0537084170129
 21
3.999999999999943
 31
0
  0
LINE
  8
1
 62
7
 10
231.0537084170129
 20
94.19999999999993
 30
0
 11
231.0537084170129
 21
7.999999999999943
 31
0
  0
LINE
  8
1
 62
7
 10
231.0537084170129
 20
7.999999999999943
 30
0
 11
231.0537084170129
 21
5.999999999999943
 31
0
  0
LINE
  8
1
 62
7
 10
228.0537084170129
 20
125.1999999999999
 30
0
 11
228.0537084170129
 21
154.1999999999999
 31
0
  0
LINE
  8
1
 62
7
 10
228.0537084170129
 20
98.69999999999993
 30
0
 11
228.0537084170129
 21
125.1999999999999
 31
0
  0
LINE
  8
1
 62
7
 10
231.0537084170129
 20
159.9999999999999
 30
0
 11
231.0537084170129
 21
154.1999999999999
 31
0
  0
LINE
  8
1
 62
7
 10
231.0537084170129
 20
154.1999999999999
 30
0
 11
231.0537084170129
 21
125.1999999999999
 31
0
  0
LINE
  8
1
 62
7
 10
231.0537084170129
 20
-23.75000000000006
 30
0
 11
231.0537084170129
 21
-35.00000000000006
 31
0
  0
LINE
  8
1
 62
7
 10
231.0537084170129
 20
-35.00000000000006
 30
0
 11
228.0537084170129
 21
-35.00000000000006
 31
0
  0
LINE
  8
1
 62
7
 10
228.0537084170129
 20
195.75
 30
0
 11
228.0537084170129
 21
205
 31
0
  0
LINE
  8
1
 62
7
 10
228.0537084170129
 20
205
 30
0
 11
231.0537084170129
 21
205
 31
0
  0
LINE
  8
1
 62
2
  6
DASHDOT
 10
393.0037084170129
 20
-20.9997206054791
 30
0
 11
390.1537084170129
 21
-20.99972060547915
 31
0
  0
LINE
  8
1
 62
2
  6
DASHDOT
 10
402.5037084170129
 20
-20.99972060547915
 30
0
 11
400.5037084170129
 21
-20.99972060547915
 31
0
  0
LINE
  8
1
 62
2
  6
DASHDOT
 10
397.7537084170129
 20
-16.2497206054791
 30
0
 11
397.7537084170129
 21
-13.39972060547913
 31
0
  0
LINE
  8
1
 62
2
  6
DASHDOT
 10
397.7537084170129
 20
-25.7497206054791
 30
0
 11
397.7537084170129
 21
-23.7497206054791
 31
0
  0
LINE
  8
1
 62
2
  6
DASHDOT
 10
395.0037084170129
 20
-20.9997206054791
 30
0
 11
393.0037084170129
 21
-20.9997206054791
 31
0
  0
LINE
  8
1
 62
2
  6
DASHDOT
 10
400.5037084170129
 20
-20.99972060547915
 30
0
 11
397.7537084170129
 21
-20.9997206054791
 31
0
  0
LINE
  8
1
 62
2
  6
DASHDOT
 10
397.7537084170129
 20
-18.2497206054791
 30
0
 11
397.7537084170129
 21
-16.2497206054791
 31
0
  0
LINE
  8
1
 62
2
  6
DASHDOT
 10
397.7537084170129
 20
-23.7497206054791
 30
0
 11
397.7537084170129
 21
-20.9997206054791
 31
0
  0
LINE
  8
1
 62
2
  6
DASHDOT
 10
397.7537084170129
 20
-20.9997206054791
 30
0
 11
397.7537084170129
 21
-18.2497206054791
 31
0
  0
LINE
  8
1
 62
2
  6
DASHDOT
 10
397.7537084170129
 20
-20.9997206054791
 30
0
 11
395.0037084170129
 21
-20.9997206054791
 31
0
  0
LINE
  8
1
 62
2
  6
DASHDOT
 10
397.7537084170129
 20
193.750279394521
 30
0
 11
397.7537084170129
 21
195.750279394521
 31
0
  0
LINE
  8
1
 62
2
  6
DASHDOT
 10
395.0037084170129
 20
191.0002793945209
 30
0
 11
393.0037084170129
 21
191.0002793945209
 31
0
  0
LINE
  8
1
 62
2
  6
DASHDOT
 10
400.5037084170129
 20
191.0002793945209
 30
0
 11
397.7537084170129
 21
191.0002793945209
 31
0
  0
LINE
  8
1
 62
2
  6
DASHDOT
 10
397.7537084170129
 20
188.2502793945209
 30
0
 11
397.7537084170129
 21
191.0002793945209
 31
0
  0
LINE
  8
1
 62
2
  6
DASHDOT
 10
397.7537084170129
 20
195.750279394521
 30
0
 11
397.7537084170129
 21
198.6002793945209
 31
0
  0
LINE
  8
1
 62
2
  6
DASHDOT
 10
393.0037084170129
 20
191.0002793945209
 30
0
 11
390.1537084170129
 21
191.0002793945209
 31
0
  0
LINE
  8
1
 62
2
  6
DASHDOT
 10
402.5037084170129
 20
191.0002793945209
 30
0
 11
400.5037084170129
 21
191.0002793945209
 31
0
  0
LINE
  8
1
 62
2
  6
DASHDOT
 10
397.7537084170129
 20
186.2502793945209
 30
0
 11
397.7537084170129
 21
188.2502793945209
 31
0
  0
LINE
  8
1
 62
2
  6
DASHDOT
 10
397.7537084170129
 20
191.0002793945209
 30
0
 11
397.7537084170129
 21
193.750279394521
 31
0
  0
LINE
  8
1
 62
2
  6
DASHDOT
 10
397.7537084170129
 20
191.0002793945209
 30
0
 11
395.0037084170129
 21
191.0002793945209
 31
0
  0
LINE
  8
1
 62
7
 10
393.2537084170128
 20
114.9968104958438
 30
0
 11
393.2537084170128
 21
154.2002793945209
 31
0
  0
LINE
  8
1
 62
7
 10
402.2537084170129
 20
114.9968104958438
 30
0
 11
393.2537084170128
 21
114.9968104958438
 31
0
  0
LINE
  8
1
 62
7
 10
402.2537084170129
 20
154.2002793945209
 30
0
 11
402.2537084170129
 21
114.9968104958438
 31
0
  0
LINE
  8
1
 62
7
 10
393.2537084170128
 20
154.2002793945209
 30
0
 11
402.2537084170129
 21
154.2002793945209
 31
0
  0
LINE
  8
1
 62
2
  6
DASHDOT
 10
397.7537084170129
 20
183.4002793945209
 30
0
 11
397.7537084170129
 21
186.2502793945209
 31
0
  0
LINE
  8
1
 62
2
  6
DASHDOT
 10
405.3537084170129
 20
191.0002793945209
 30
0
 11
402.5037084170129
 21
191.0002793945209
 31
0
  0
LINE
  8
1
 62
2
  6
DASHDOT
 10
397.7537084170129
 20
-28.59972060547912
 30
0
 11
397.7537084170129
 21
-25.7497206054791
 31
0
  0
LINE
  8
1
 62
2
  6
DASHDOT
 10
405.3537084170129
 20
-20.99972060547915
 30
0
 11
402.5037084170129
 21
-20.99972060547915
 31
0
  0
LINE
  8
1
 62
7
 10
387.7537084170129
 20
195.000279394521
 30
0
 11
387.7537084170129
 21
-24.9997206054791
 31
0
  0
LINE
  8
1
 62
7
 10
407.7537084170129
 20
-24.9997206054791
 30
0
 11
407.7537084170129
 21
195.000279394521
 31
0
  0
ARC
  8
1
 62
7
 10
397.7537084170129
 20
195.0002793945209
 30
0
 40
10
 50
0
 51
90
  0
ARC
  8
1
 62
7
 10
397.7537084170129
 20
-24.9997206054791
 30
0
 40
10
 50
180
 51
270
  0
ARC
  8
1
 62
7
 10
397.7537084170129
 20
-24.9997206054791
 30
0
 40
9.999999999999456
 50
270
 51
0
  0
ARC
  8
1
 62
7
 10
397.7537084170129
 20
195.0002793945209
 30
0
 40
9.999999999998607
 50
90
 51
180
  0
ARC
  8
1
 62
7
 10
210.6446808109252
 20
-84.50000000000006
 30
0
 40
25.00000000000005
 50
246.4218215217983
 51
270
  0
ARC
  8
1
 62
2
 10
210.6446808109252
 20
-84.50000000000006
 30
0
 40
24.00000000000001
 50
245.375681647836
 51
270
  0
ARC
  8
1
 62
7
 10
210.6446808109252
 20
-125.5000000000001
 30
0
 40
25
 50
90
 51
113.5781784782018
  0
ARC
  8
1
 62
2
 10
210.6446808109252
 20
-125.5000000000001
 30
0
 40
24
 50
90
 51
114.6243183521641
  0
ARC
  8
1
 62
2
 10
246.0537084170129
 20
5.999999999999943
 30
0
 40
3
 50
90
 51
180
  0
ARC
  8
1
 62
2
 10
246.0537084170129
 20
5.999999999999943
 30
0
 40
3
 50
180
 51
270
  0
ARC
  8
1
 62
2
 10
246.0537084170129
 20
5.999999999999943
 30
0
 40
3
 50
270
 51
0
  0
ARC
  8
1
 62
2
 10
246.0537084170129
 20
5.999999999999943
 30
0
 40
3
 50
0
 51
90
  0
ARC
  8
1
 62
2
 10
310.9537084170129
 20
56.99999999999994
 30
0
 40
3
 50
90
 51
180
  0
ARC
  8
1
 62
2
 10
310.9537084170129
 20
56.99999999999994
 30
0
 40
3
 50
180
 51
270
  0
ARC
  8
1
 62
2
 10
310.9537084170129
 20
56.99999999999994
 30
0
 40
3
 50
270
 51
0
  0
ARC
  8
1
 62
2
 10
310.9537084170129
 20
56.99999999999994
 30
0
 40
3
 50
0
 51
90
  0
ARC
  8
1
 62
2
 10
287.6537084170129
 20
157.9999999999999
 30
0
 40
3
 50
90
 51
180
  0
ARC
  8
1
 62
2
 10
287.6537084170129
 20
157.9999999999999
 30
0
 40
3
 50
180
 51
270
  0
ARC
  8
1
 62
2
 10
287.6537084170129
 20
157.9999999999999
 30
0
 40
3
 50
270
 51
0
  0
ARC
  8
1
 62
2
 10
287.6537084170129
 20
157.9999999999999
 30
0
 40
3
 50
0
 51
90
  0
ARC
  8
1
 62
7
 10
288.0537084170129
 20
89.9999999999999
 30
0
 40
3.750000000000001
 50
46.10544623633245
 51
133.8945537636676
  0
ARC
  8
1
 62
7
 10
288.0537084170129
 20
89.9999999999999
 30
0
 40
3.750000000000001
 50
226.1054462363325
 51
313.8945537636676
  0
ARC
  8
1
 62
2
 10
208.8046808109251
 20
131.9964421600322
 30
0
 40
6
 50
90.00215010350256
 51
234.5491710345871
  0
ARC
  8
1
 62
7
 10
208.8046808109314
 20
131.9964421600321
 30
0
 40
6.000000000000086
 50
89.02455820671793
 51
90.00215010356256
  0
ARC
  8
1
 62
7
 10
218.6203349785195
 20
117.4968104958437
 30
0
 40
1.501866647507935
 50
357.8089455100514
 51
0.002150103506722948
  0
ARC
  8
1
 62
2
 10
218.6203349785195
 20
117.4968104958437
 30
0
 40
1.501866647507754
 50
227.8653797766931
 51
357.8089455100514
  0
ARC
  8
1
 62
2
 10
222.5565687654434
 20
125.4969582141028
 30
0
 40
2.000000000000076
 50
92.08922150334958
 51
179.2520728295121
  0
ARC
  8
1
 62
2
 10
222.5565687654391
 20
125.4969582141027
 30
0
 40
2.000000000000019
 50
90.00215010337799
 51
92.0892215032266
  0
ARC
  8
1
 62
7
 10
208.8046808109251
 20
131.9964421600322
 30
0
 40
6.999999999999996
 50
180.0021501035016
 51
234.8773474770005
  0
ARC
  8
1
 62
7
 10
208.8046808109251
 20
131.9964421600322
 30
0
 40
7.000000000000109
 50
90.00215010350281
 51
180.0021501035016
  0
ARC
  8
1
 62
7
 10
397.7537084170129
 20
-20.9997206054791
 30
0
 40
4.75
 50
90
 51
180
  0
ARC
  8
1
 62
7
 10
397.7537084170129
 20
-20.9997206054791
 30
0
 40
4.75
 50
0
 51
90
  0
ARC
  8
1
 62
7
 10
397.7537084170129
 20
-20.9997206054791
 30
0
 40
4.75
 50
270
 51
0
  0
ARC
  8
1
 62
7
 10
397.7537084170129
 20
-20.9997206054791
 30
0
 40
4.75
 50
180
 51
270
  0
ARC
  8
1
 62
7
 10
397.7537084170129
 20
-20.9997206054791
 30
0
 40
2.75
 50
90
 51
180
  0
ARC
  8
1
 62
7
 10
397.7537084170129
 20
-20.9997206054791
 30
0
 40
2.75
 50
0
 51
90
  0
ARC
  8
1
 62
7
 10
397.7537084170129
 20
-20.9997206054791
 30
0
 40
2.75
 50
270
 51
0
  0
ARC
  8
1
 62
7
 10
397.7537084170129
 20
-20.9997206054791
 30
0
 40
2.75
 50
180
 51
270
  0
ARC
  8
1
 62
7
 10
397.7537084170129
 20
191.0002793945209
 30
0
 40
2.75
 50
0
 51
90
  0
ARC
  8
1
 62
7
 10
397.7537084170129
 20
191.0002793945209
 30
0
 40
2.75
 50
180
 51
270
  0
ARC
  8
1
 62
7
 10
397.7537084170129
 20
191.0002793945209
 30
0
 40
4.75
 50
0
 51
90
  0
ARC
  8
1
 62
7
 10
397.7537084170129
 20
191.0002793945209
 30
0
 40
4.75
 50
180
 51
270
  0
ARC
  8
1
 62
7
 10
397.7537084170129
 20
191.0002793945209
 30
0
 40
4.75
 50
270
 51
0
  0
ARC
  8
1
 62
7
 10
397.7537084170129
 20
191.0002793945209
 30
0
 40
4.750000000000085
 50
90
 51
180
  0
ARC
  8
1
 62
7
 10
397.7537084170129
 20
191.0002793945209
 30
0
 40
2.75
 50
270
 51
0
  0
ARC
  8
1
 62
7
 10
397.7537084170129
 20
191.0002793945209
 30
0
 40
2.750000000000085
 50
90
 51
180
  0
ARC
  8
1
 62
7
 10
218.6203349785195
 20
117.4968104958437
 30
0
 40
2.500000000000035
 50
234.8773474770019
 51
270
  0
ARC
  8
1
 62
7
 10
296.0537084170129
 20
147.9999999999999
 30
0
 40
22
 50
0
 51
90
  0
ARC
  8
1
 62
7
 10
296.0537084170129
 20
21.99999999999995
 30
0
 40
22
 50
270
 51
0
  0
ARC
  8
1
 62
7
 10
233.5537084170129
 20
-100.2500000000001
 30
0
 40
2.5
 50
90
 51
180
  0
ARC
  8
1
 62
7
 10
233.5537084170129
 20
-100.2500000000001
 30
0
 40
0.5
 50
90
 51
180
  0
ARC
  8
1
 62
7
 10
222.5565687654434
 20
125.4969582141028
 30
0
 40
1.00000000000001
 50
90.00215010350419
 51
176.9129171582443
  0
ARC
  8
1
 62
7
 10
218.6203349785195
 20
117.4968104958437
 30
0
 40
2.5
 50
270
 51
356.0021501035017
  0
CIRCLE
  8
1
 62
7
 10
288.0537084170129
 20
111.9999999999999
 30
0
 40
9.35000000000008
  0
TEXT
  8
1
 62
7
 10
230.4811424056927
 20
-144.4423916171471
 30
0
 40
6
  1
1608.BB_RZ_PZ_WC.DM_50_60.380
 41
0.8304702249851284
  0
DIMENSION
  8
1
  6
CONTINUOUS
 62
1
  2
*D0
  3
DMST_1
 10
292.0537084170129
 20
128.904877499881
 30
0
 11
288.0537084170129
 21
133.404877499881
 31
0
 12
0
 22
0
 32
0
 70
0
 13
284.0537084170129
 23
115.9999999999999
 33
0
 14
292.0537084170129
 24
115.9999999999999
 34
0
 53
0
  0
DIMENSION
  8
1
  6
CONTINUOUS
 62
1
  2
*D1
  3
DMST_1
 10
407.7537084170129
 20
-52.5897206054791
 30
0
 11
398.000972122197
 21
-47.8986346138371
 31
0
 12
0
 22
0
 32
0
 70
0
  1
20
 13
387.7537084170129
 23
-24.9997206054791
 33
0
 14
407.7537084170129
 24
-24.9997206054791
 34
0
 53
0
  0
DIMENSION
  8
1
  6
CONTINUOUS
 62
1
  2
*D2
  3
DMST_1
 10
231.0537084170129
 20
-52.5897206054791
 30
0
 11
239.12695160327
 21
-49.1701485762741
 31
0
 12
0
 22
0
 32
0
 70
0
 13
228.0537084170129
 23
-35.00000000000006
 33
0
 14
231.0537084170129
 24
-35.00000000000006
 34
0
 53
0
  0
DIMENSION
  8
1
  6
CONTINUOUS
 62
1
  2
*D3
  3
DMST_1
 10
228.0537084170129
 20
-32.59000000000006
 30
0
 11
271.464201613985
 21
-25.7285057113643
 31
0
 12
0
 22
0
 32
0
 70
0
  1
80 / 90
 13
318.0537084170129
 23
21.99999999999995
 33
0
 14
228.0537084170129
 24
-25.75000000000006
 34
0
 53
0
  0
DIMENSION
  8
1
  6
CONTINUOUS
 62
1
  2
*D4
  3
DMST_1
 10
288.0537084170129
 20
-17.59000000000006
 30
0
 11
258.119322488684
 21
-11.5495716407324
 31
0
 12
0
 22
0
 32
0
 70
0
  1
50 / 60
 13
228.0537084170129
 23
-16.25000000000006
 33
0
 14
288.0537084170129
 24
8.541179009833343
 34
0
 53
0
  0
DIMENSION
  8
1
  6
CONTINUOUS
 62
1
  2
*D5
  3
DMST_1
 10
228.0537084170129
 20
94.0872175022827
 30
0
 11
224.660180694437
 21
98.6114486617888
 31
0
 12
0
 22
0
 32
0
 70
0
  1
7
 13
221.1142516466838
 23
117.3225128990386
 33
0
 14
228.0537084170129
 24
125.1999999999999
 34
0
 53
0
  0
DIMENSION
  8
1
  6
CONTINUOUS
 62
1
  2
*D6
  3
DMST_1
 10
221.5580199285903
 20
159.461392966182
 30
0
 11
215.034465754206
 21
164.546717090479
 31
0
 12
0
 22
0
 32
0
 70
0
  1
6,5
 13
228.0537084170129
 23
125.1999999999999
 33
0
 14
221.5580199285903
 24
125.550811908677
 34
0
 53
0
  0
DIMENSION
  8
1
  6
CONTINUOUS
 62
1
  2
*D7
  3
DMST_1
 10
201.8046808158539
 20
69.8437882025077
 30
0
 11
214.9291946164334
 21
74.5937882025077
 31
0
 12
0
 22
0
 32
0
 70
0
  1
26,5
 13
228.0537084170129
 23
98.69999999999993
 33
0
 14
201.8046808158539
 24
131.9961794753347
 34
0
 53
0
  0
DIMENSION
  8
1
  6
CONTINUOUS
 62
1
  2
*D8
  3
DMST_1
 10
246.509624537671
 20
126.497208033195
 30
0
 11
242.283573962727
 21
121.208842604438
 31
0
 12
0
 22
0
 32
0
 70
0
 13
218.6203349785195
 23
114.9968104958437
 33
0
 14
228.0537084170129
 24
126.497208033195
 34
0
 50
90
 53
0
  0
DIMENSION
  8
1
  6
CONTINUOUS
 62
1
  2
*D9
  3
DMST_1
 10
337.8037084170129
 20
-97.7500000000001
 30
0
 11
333.0537084170129
 21
-105.0000000000001
 31
0
 12
0
 22
0
 32
0
 70
0
 13
318.0537084170129
 23
-112.2500000000001
 33
0
 14
318.0537084170129
 24
-97.7500000000001
 34
0
 50
90
 53
0
  0
DIMENSION
  8
1
  6
CONTINUOUS
 62
1
  2
*D10
  3
DMST_1
 10
352.5537084170129
 20
169.9999999999999
 30
0
 11
348.0537084170129
 21
84.99999999999992
 31
0
 12
0
 22
0
 32
0
 70
0
 13
296.0537084170129
 23
-5.421023107534411e-014
 33
0
 14
296.0537084170129
 24
169.9999999999999
 34
0
 50
90
 53
0
  0
DIMENSION
  8
1
  6
CONTINUOUS
 62
1
  2
*D11
  3
DMST_1
 10
376.147063247885
 20
205.0002793945195
 30
0
 11
373.557063247885
 21
85.00027939452095
 31
0
 12
0
 22
0
 32
0
 70
0
 13
397.7537084170129
 23
-34.99972060547856
 33
0
 14
397.7537084170129
 24
205.0002793945195
 34
0
 50
90
 53
0
  0
DIMENSION
  8
1
  6
CONTINUOUS
 62
1
  2
*D12
  3
DMST_1
 10
427.239091585954
 20
-34.99972060547856
 30
0
 11
423.278790765039
 21
-28.3352724556149
 31
0
 12
0
 22
0
 32
0
 70
0
 13
405.3537084170129
 23
-20.99972060547915
 33
0
 14
397.7537084170129
 24
-34.99972060547856
 34
0
 50
90
 53
0
  0
DIMENSION
  8
1
  6
CONTINUOUS
 62
1
  2
*D13
  3
DMST_1
 10
427.2537084170129
 20
191.0002793945209
 30
0
 11
422.7537084170129
 21
85.00027939452087
 31
0
 12
0
 22
0
 32
0
 70
0
 13
405.3537084170129
 23
-20.99972060547915
 33
0
 14
405.3537084170129
 24
191.0002793945209
 34
0
 50
90
 53
0
  0
DIMENSION
  8
1
  6
CONTINUOUS
 62
1
  2
*D14
  3
DMST_1
 10
190.1446808109252
 20
-6.039613253960852e-014
 30
0
 11
185.6446808109252
 21
-17.50000000000006
 31
0
 12
0
 22
0
 32
0
 70
0
 13
228.0537084170129
 23
-35.00000000000006
 33
0
 14
233.0537084170129
 24
-5.684341886080801e-014
 34
0
 50
90
 53
0
  0
DIMENSION
  8
1
  6
CONTINUOUS
 62
1
  2
*D15
  3
DMST_1
 10
190.1446808109252
 20
204.9999999999999
 30
0
 11
185.6446808109252
 21
187.4999999999999
 31
0
 12
0
 22
0
 32
0
 70
0
 13
231.0537084170129
 23
169.9999999999999
 33
0
 14
228.0537084170129
 24
205
 34
0
 50
90
 53
0
  0
DIMENSION
  8
1
  6
CONTINUOUS
 62
1
  2
*D16
  3
DMST_1
 10
190.1446808109252
 20
169.9999999999999
 30
0
 11
185.6446808109252
 21
154.4982210775517
 31
0
 12
0
 22
0
 32
0
 70
0
 13
208.8044181262275
 23
138.9964421551035
 33
0
 14
231.0537084170129
 24
169.9999999999999
 34
0
 50
90
 53
0
  0
DIMENSION
  8
1
  6
CONTINUOUS
 62
1
  2
*D17
  3
DMST_1
 10
190.1446808109252
 20
114.9968104958438
 30
0
 11
185.6446808109252
 21
126.9966263254736
 31
0
 12
0
 22
0
 32
0
 70
0
 13
208.8044181262275
 23
138.9964421551035
 33
0
 14
218.6203349785195
 24
114.9968104958437
 34
0
 50
90
 53
0
  0
DIMENSION
  8
1
  6
CONTINUOUS
 62
1
  2
*D18
  3
DMST_1
 10
190.1446808109252
 20
114.9968104958438
 30
0
 11
185.6446808109252
 21
57.49840524792187
 31
0
 12
0
 22
0
 32
0
 70
0
 13
233.0537084170129
 23
-5.684341886080801e-014
 33
0
 14
218.6203349785195
 24
114.9968104958437
 34
0
 50
90
 53
0
  0
DIMENSION
  8
1
  6
CONTINUOUS
 62
1
  2
*D19
  3
DMST_1
 10
337.5537084170129
 20
33.99999999999995
 30
0
 11
333.0537084170129
 21
16.99999999999995
 31
0
 12
0
 22
0
 32
0
 70
0
 13
296.0537084170129
 23
-5.421023107534411e-014
 33
0
 14
300.0057503322438
 24
33.99999999999994
 34
0
 50
90
 53
0
  0
DIMENSION
  8
1
  6
CONTINUOUS
 62
1
  2
*D20
  3
DMST_1
 10
337.5537084170129
 20
111.9999999999999
 30
0
 11
333.0537084170129
 21
140.9999999999999
 31
0
 12
0
 22
0
 32
0
 70
0
 13
296.0537084170129
 23
169.9999999999999
 33
0
 14
299.4537084170129
 24
111.9999999999999
 34
0
 50
90
 53
0
  0
DIMENSION
  8
1
  6
CONTINUOUS
 62
1
  2
*D21
  3
DMST_1
 10
337.5537084170129
 20
33.99999999999994
 30
0
 11
333.0537084170129
 21
72.99999999999992
 31
0
 12
0
 22
0
 32
0
 70
0
 13
299.4537084170129
 23
111.9999999999999
 33
0
 14
300.0057503322438
 24
33.99999999999994
 34
0
 50
90
 53
0
  0
DIMENSION
  8
1
  6
CONTINUOUS
 62
1
  2
*D22
  3
DMST_2
 10
397.7537084170129
 20
195.0002793945209
 30
0
 11
410.755321359354
 21
218.608473887244
 31
0
 12
0
 22
0
 32
0
 70
4
 15
403.6744449526373
 25
203.0591179507722
 35
0
 40
0
 53
0
  0
DIMENSION
  8
1
  6
CONTINUOUS
 62
1
  2
*D23
  3
DMST_3
 10
296.0537084170129
 20
147.9999999999999
 30
0
 11
280.58243424231
 21
144.810087589464
 31
0
 12
0
 22
0
 32
0
 70
4
 15
315.4421657736681
 25
158.3965244831703
 35
0
 40
0
 53
0
  0
INSERT
  8
0
  2
1607_BB_RZ_PZ_WC_DM_50_60_300
 10
485.190781355128
 20
-1.33239856042405
 30
0
  0
ENDSEC
  0
EOF
