  0
SECTION
  2
HEADER
  9
$ACADVER
  1
AC1009
  9
$INSBASE
 10
0
 20
0
  9
$EXTMIN
 10
23.6689854825062
 20
27.7782078867902
  9
$EXTMAX
 10
257.954297915832
 20
335.024800212833
  9
$LIMMIN
 10
23.6689854825062
 20
27.7782078867902
  9
$LIMMAX
 10
257.954297915832
 20
335.024800212833
  9
$VIEWCTR
 10
10
 20
10
  9
$VIEWSIZE
 40
10
  9
$SNAPMODE
 70
0
  9
$SNAPUNIT
 10
1
 20
1
  9
$SNAPBASE
 10
0
 20
0
  9
$SNAPANG
 50
0
  9
$SNAPSTYLE
 70
0
  9
$SNAPISOPAIR
 70
0
  9
$GRIDMODE
 70
0
  9
$GRIDUNIT
 10
0
 20
0
  9
$ORTHOMODE
 70
0
  9
$REGENMODE
 70
1
  9
$FILLMODE
 70
1
  9
$QTEXTMODE
 70
0
  9
$DRAGMODE
 70
2
  9
$LTSCALE
 40
1
  9
$OSMODE
 70
0
  9
$ATTMODE
 70
1
  9
$TEXTSIZE
 40
3.5
  9
$TRACEWID
 40
0.5
  9
$TEXTSTYLE
  7
STANDARD
  9
$CLAYER
  8
0
  9
$CELTYPE
  6
BYLAYER
  9
$CECOLOR
 62
256
  9
$DIMSCALE
 40
1
  9
$DIMASZ
 40
0.18
  9
$DIMEXO
 40
0.0625
  9
$DIMDLI
 40
0.38
  9
$DIMRND
 40
0
  9
$DIMDLE
 40
0
  9
$DIMEXE
 40
0.18
  9
$DIMTP
 40
0
  9
$DIMTM
 40
0
  9
$DIMTXT
 40
0.18
  9
$DIMCEN
 40
0.09
  9
$DIMTSZ
 40
0
  9
$DIMTOL
 70
0
  9
$DIMLIM
 70
0
  9
$DIMTIH
 70
1
  9
$DIMTOH
 70
1
  9
$DIMSE1
 70
0
  9
$DIMSE2
 70
0
  9
$DIMTAD
 70
0
  9
$DIMZIN
 70
0
  9
$DIMBLK
  1

  9
$DIMASO
 70
1
  9
$DIMSHO
 70
1
  9
$DIMPOST
  1

  9
$DIMAPOST
  1

  9
$DIMALT
 70
0
  9
$DIMALTD
 70
2
  9
$DIMALTF
 40
25.4
  9
$DIMLFAC
 40
1
  9
$DIMTOFL
 70
0
  9
$DIMTVP
 40
0
  9
$DIMTIX
 70
0
  9
$DIMSOXD
 70
0
  9
$DIMSAH
 70
0
  9
$DIMBLK1
  1

  9
$DIMBLK2
  1

  9
$DIMSTYLE
  2
*UNNAMED
  9
$DIMCLRD
 70
0
  9
$DIMCLRE
 70
0
  9
$DIMCLRT
 70
0
  9
$DIMTFAC
 40
1
  9
$DIMGAP
 40
0.09
  9
$LUNITS
 70
2
  9
$LUPREC
 70
4
  9
$AXISMODE
 70
0
  9
$AXISUNIT
 10
0
 20
0
  9
$SKETCHINC
 40
0.1
  9
$FILLETRAD
 40
2
  9
$AUNITS
 70
0
  9
$AUPREC
 70
0
  9
$MENU
  1
ACAD
  9
$ELEVATION
 40
0
  9
$THICKNESS
 40
0
  9
$VIEWDIR
 10
0
 20
0
 30
1
  9
$LIMCHECK
 70
0
  9
$BLIPMODE
 70
1
  9
$CHAMFERA
 40
0
  9
$CHAMFERB
 40
0
  9
$FASTZOOM
 70
1
  9
$SKPOLY
 70
0
  9
$ANGBASE
 50
0
  9
$ANGDIR
 70
0
  9
$PDMODE
 70
0
  9
$PDSIZE
 40
0
  9
$PLINEWID
 40
0
  9
$COORDS
 70
2
  0
ENDSEC
  0
SECTION
  2
TABLES
  0
TABLE
  2
DIMSTYLE
 70
1
  0
DIMSTYLE
  2
DMST_1
 70
0
  3

  4

  5

  6

  7

 40
1
 41
5
 42
0
 43
7
 44
1.5
 45
0
 46
0
 47
0
 48
0
140
5
141
0
142
0
143
25.4
144
1
145
0
146
1
147
0.09
 71
0
 72
0
 73
0
 74
0
 75
0
 76
0
 77
1
 78
9
170
0
171
2
172
0
173
0
174
0
175
0
176
1
177
1
178
3
  0
ENDTAB
  0
TABLE
  2
LTYPE
 70
9
  0
LTYPE
  2
CONTINUOUS
 70
64
  3
Solid line
 72
65
 73
0
 40
0
  0
LTYPE
  2
BORDER
 70
64
  3
__ __ . __ __ .
 72
65
 73
6
 40
14.14951412027829
 49
4.04271832007951
 49
-2.021359160039755
 49
4.04271832007951
 49
-2.021359160039755
 49
0
 49
-2.021359160039755
  0
LTYPE
  2
CENTER
 70
64
  3
____ _ ____ _
 72
65
 73
4
 40
16.17087328031804
 49
10.10679580019877
 49
-2.021359160039755
 49
2.021359160039755
 49
-2.021359160039755
  0
LTYPE
  2
DASHDOT
 70
64
  3
__ . __ . __ .
 72
65
 73
4
 40
8.085436640159021
 49
4.04271832007951
 49
-2.021359160039755
 49
0
 49
-2.021359160039755
  0
LTYPE
  2
DASHED
 70
64
  3
__ __ __ __ __
 72
65
 73
2
 40
6.064077480119265
 49
4.04271832007951
 49
-2.021359160039755
  0
LTYPE
  2
DIVIDE
 70
64
  3
__ . . __ . . 
 72
65
 73
6
 40
10.10679580019877
 49
4.04271832007951
 49
-2.021359160039755
 49
0
 49
-2.021359160039755
 49
0
 49
-2.021359160039755
  0
LTYPE
  2
DOT
 70
64
  3
..............
 72
65
 73
4
 40
4.04271832007951
 49
0
 49
-2.021359160039755
 49
0
 49
-2.021359160039755
  0
LTYPE
  2
HIDDEN
 70
64
  3
_ _ _ _ _ _ _
 72
65
 73
2
 40
3.032038740059633
 49
2.021359160039755
 49
-1.010679580019878
  0
LTYPE
  2
PHANTOM
 70
64
  3
_____ _ _ _____ _ _ 
 72
65
 73
6
 40
20.21359160039755
 49
10.10679580019877
 49
-2.021359160039755
 49
2.021359160039755
 49
-2.021359160039755
 49
2.021359160039755
 49
-2.021359160039755
  0
ENDTAB
  0
TABLE
  2
LAYER
 70
3
  0
LAYER
  2
1
 70
0
 62
7
  6
CONTINUOUS
  0
LAYER
  2
0
 70
0
 62
7
  6
CONTINUOUS
  0
ENDTAB
  0
TABLE
  2
STYLE
 70
4
  0
STYLE
  2
STANDARD
 70
0
 40
0
 41
1
 50
0
 71
0
 42
3.5
  3
txt
  4

  0
STYLE
  2
SIMPLEX
 70
0
 40
0
 41
1
 50
0
 71
0
 42
3.5
  3
simplex
  4

  0
STYLE
  2
COMPLEX
 70
0
 40
0
 41
1
 50
0
 71
0
 42
3.5
  3
complex
  4

  0
STYLE
  2
ITALIC
 70
0
 40
0
 41
1
 50
0
 71
0
 42
3.5
  3
italic
  4

  0
ENDTAB
  0
TABLE
  2
VIEW
 70
0
  0
ENDTAB
  0
ENDSEC
  0
SECTION
  2
BLOCKS
  0
BLOCK
  8
1
  2
*D0
 70
1
 10
0
 20
0
 30
0
  0
LINE
  8
1
 62
1
 10
75.80639957992101
 20
307.805862047879
 30
0
 11
62.3840872274039
 21
307.805862047879
 31
0
  0
LINE
  8
1
 62
1
 10
75.80639957992101
 20
307.805862047879
 30
0
 11
78.80639957992101
 21
307.805862047879
 31
0
  0
LINE
  8
1
 62
1
 10
88.80639957992101
 20
307.805862047879
 30
0
 11
78.80639957992101
 21
307.805862047879
 31
0
  0
LINE
  8
1
 62
1
 10
78.80639957992101
 20
325.024800212833
 30
0
 11
78.80639957992101
 21
306.305862047879
 31
0
  0
LINE
  8
1
 62
1
 10
75.80639957992101
 20
325.024800212833
 30
0
 11
75.80639957992101
 21
306.305862047879
 31
0
  0
SOLID
  8
1
 62
1
 10
75.80639957992101
 20
307.805862047879
 30
0
 11
70.80639957992101
 21
307.155862047879
 31
0
 12
70.80639957992101
 22
308.455862047879
 32
0
 13
70.80639957992101
 23
308.455862047879
 33
0
  0
SOLID
  8
1
 62
1
 10
78.80639957992101
 20
307.805862047879
 30
0
 11
83.80639957992101
 21
308.455862047879
 31
0
 12
83.80639957992101
 22
307.155862047879
 32
0
 13
83.80639957992101
 23
307.155862047879
 33
0
  0
TEXT
  8
1
 62
3
 10
62.3840872274039
 20
309.805862047879
 30
0
 40
5
  1
3
 41
0.9
  0
ENDBLK
  8
0
  0
BLOCK
  8
1
  2
*D1
 70
1
 10
0
 20
0
 30
0
  0
LINE
  8
1
 62
1
 10
30.9726645274469
 20
301.024800212833
 30
0
 11
30.9726645274469
 21
325.024800212833
 31
0
  0
LINE
  8
1
 62
1
 10
75.80639957992101
 20
325.024800212833
 30
0
 11
29.4726645274469
 21
325.024800212833
 31
0
  0
LINE
  8
1
 62
1
 10
78.80639957992101
 20
301.024800212833
 30
0
 11
29.4726645274469
 21
301.024800212833
 31
0
  0
SOLID
  8
1
 62
1
 10
30.9726645274469
 20
325.024800212833
 30
0
 11
31.6226645274469
 21
320.024800212833
 31
0
 12
30.3226645274469
 22
320.024800212833
 32
0
 13
30.3226645274469
 23
320.024800212833
 33
0
  0
SOLID
  8
1
 62
1
 10
30.9726645274469
 20
301.024800212833
 30
0
 11
30.3226645274469
 21
306.024800212833
 31
0
 12
31.6226645274469
 22
306.024800212833
 32
0
 13
31.6226645274469
 23
306.024800212833
 33
0
  0
TEXT
  8
1
 62
3
 10
28.9726645274469
 20
309.274800212833
 30
0
 40
5
  1
24
 50
90
 41
0.9
  0
ENDBLK
  8
0
  0
BLOCK
  8
1
  2
*D2
 70
1
 10
0
 20
0
 30
0
  0
LINE
  8
1
 62
1
 10
30.9726645274469
 20
261.024800212833
 30
0
 11
30.9726645274469
 21
301.024800212833
 31
0
  0
LINE
  8
1
 62
1
 10
78.80639957992101
 20
301.024800212833
 30
0
 11
29.4726645274469
 21
301.024800212833
 31
0
  0
LINE
  8
1
 62
1
 10
57.80639957992101
 20
261.024800212833
 30
0
 11
29.4726645274469
 21
261.024800212833
 31
0
  0
SOLID
  8
1
 62
1
 10
30.9726645274469
 20
301.024800212833
 30
0
 11
31.6226645274469
 21
296.024800212833
 31
0
 12
30.3226645274469
 22
296.024800212833
 32
0
 13
30.3226645274469
 23
296.024800212833
 33
0
  0
SOLID
  8
1
 62
1
 10
30.9726645274469
 20
261.024800212833
 30
0
 11
30.3226645274469
 21
266.024800212833
 31
0
 12
31.6226645274469
 22
266.024800212833
 32
0
 13
31.6226645274469
 23
266.024800212833
 33
0
  0
TEXT
  8
1
 62
3
 10
28.9726645274469
 20
277.274800212833
 30
0
 40
5
  1
40
 50
90
 41
0.9
  0
ENDBLK
  8
0
  0
BLOCK
  8
1
  2
*D3
 70
1
 10
0
 20
0
 30
0
  0
LINE
  8
1
 62
1
 10
30.9713535892742
 20
226.024800212833
 30
0
 11
30.9713535892742
 21
261.024800212833
 31
0
  0
LINE
  8
1
 62
1
 10
57.80639957992101
 20
261.024800212833
 30
0
 11
29.4713535892742
 21
261.024800212833
 31
0
  0
LINE
  8
1
 62
1
 10
60.80639957992101
 20
226.024800212833
 30
0
 11
29.4713535892742
 21
226.024800212833
 31
0
  0
SOLID
  8
1
 62
1
 10
30.9713535892742
 20
261.024800212833
 30
0
 11
31.6213535892742
 21
256.024800212833
 31
0
 12
30.3213535892742
 22
256.024800212833
 32
0
 13
30.3213535892742
 23
256.024800212833
 33
0
  0
SOLID
  8
1
 62
1
 10
30.9713535892742
 20
226.024800212833
 30
0
 11
30.3213535892742
 21
231.024800212833
 31
0
 12
31.6213535892742
 22
231.024800212833
 32
0
 13
31.6213535892742
 23
231.024800212833
 33
0
  0
TEXT
  8
1
 62
3
 10
28.9713535892742
 20
239.774800212833
 30
0
 40
5
  1
35
 50
90
 41
0.9
  0
ENDBLK
  8
0
  0
BLOCK
  8
1
  2
*D4
 70
1
 10
0
 20
0
 30
0
  0
LINE
  8
1
 62
1
 10
30.8855907434505
 20
190.024800212833
 30
0
 11
30.8855907434505
 21
226.024800212833
 31
0
  0
LINE
  8
1
 62
1
 10
60.80639957992101
 20
226.024800212833
 30
0
 11
29.3855907434505
 21
226.024800212833
 31
0
  0
LINE
  8
1
 62
1
 10
62.80639957992101
 20
190.024800212833
 30
0
 11
29.3855907434505
 21
190.024800212833
 31
0
  0
SOLID
  8
1
 62
1
 10
30.8855907434505
 20
226.024800212833
 30
0
 11
31.5355907434505
 21
221.024800212833
 31
0
 12
30.2355907434505
 22
221.024800212833
 32
0
 13
30.2355907434505
 23
221.024800212833
 33
0
  0
SOLID
  8
1
 62
1
 10
30.8855907434505
 20
190.024800212833
 30
0
 11
30.2355907434505
 21
195.024800212833
 31
0
 12
31.5355907434505
 22
195.024800212833
 32
0
 13
31.5355907434505
 23
195.024800212833
 33
0
  0
TEXT
  8
1
 62
3
 10
28.8855907434505
 20
204.274800212833
 30
0
 40
5
  1
36
 50
90
 41
0.9
  0
ENDBLK
  8
0
  0
BLOCK
  8
1
  2
*D5
 70
1
 10
0
 20
0
 30
0
  0
LINE
  8
1
 62
1
 10
30.7169877472942
 20
155.024800212833
 30
0
 11
30.7169877472942
 21
190.024800212833
 31
0
  0
LINE
  8
1
 62
1
 10
62.80639957992101
 20
190.024800212833
 30
0
 11
29.2169877472942
 21
190.024800212833
 31
0
  0
LINE
  8
1
 62
1
 10
62.80639957992101
 20
155.024800212833
 30
0
 11
29.2169877472942
 21
155.024800212833
 31
0
  0
SOLID
  8
1
 62
1
 10
30.7169877472942
 20
190.024800212833
 30
0
 11
31.3669877472942
 21
185.024800212833
 31
0
 12
30.0669877472942
 22
185.024800212833
 32
0
 13
30.0669877472942
 23
185.024800212833
 33
0
  0
SOLID
  8
1
 62
1
 10
30.7169877472942
 20
155.024800212833
 30
0
 11
30.0669877472942
 21
160.024800212833
 31
0
 12
31.3669877472942
 22
160.024800212833
 32
0
 13
31.3669877472942
 23
160.024800212833
 33
0
  0
TEXT
  8
1
 62
3
 10
28.7169877472942
 20
168.774800212833
 30
0
 40
5
  1
35
 50
90
 41
0.9
  0
ENDBLK
  8
0
  0
BLOCK
  8
1
  2
*D6
 70
1
 10
0
 20
0
 30
0
  0
LINE
  8
1
 62
1
 10
30.6689854825062
 20
106.024800212833
 30
0
 11
30.6689854825062
 21
155.024800212833
 31
0
  0
LINE
  8
1
 62
1
 10
62.80639957992101
 20
155.024800212833
 30
0
 11
29.1689854825062
 21
155.024800212833
 31
0
  0
LINE
  8
1
 62
1
 10
78.80639957992099
 20
106.024800212833
 30
0
 11
29.1689854825062
 21
106.024800212833
 31
0
  0
SOLID
  8
1
 62
1
 10
30.6689854825062
 20
155.024800212833
 30
0
 11
31.3189854825062
 21
150.024800212833
 31
0
 12
30.0189854825062
 22
150.024800212833
 32
0
 13
30.0189854825062
 23
150.024800212833
 33
0
  0
SOLID
  8
1
 62
1
 10
30.6689854825062
 20
106.024800212833
 30
0
 11
30.0189854825062
 21
111.024800212833
 31
0
 12
31.3189854825062
 22
111.024800212833
 32
0
 13
31.3189854825062
 23
111.024800212833
 33
0
  0
TEXT
  8
1
 62
3
 10
28.6689854825062
 20
126.774800212833
 30
0
 40
5
  1
49
 50
90
 41
0.9
  0
ENDBLK
  8
0
  0
BLOCK
  8
1
  2
*D7
 70
1
 10
0
 20
0
 30
0
  0
LINE
  8
1
 62
1
 10
30.6689854825062
 20
82.024800212833
 30
0
 11
30.6689854825062
 21
106.024800212833
 31
0
  0
LINE
  8
1
 62
1
 10
78.80639957992099
 20
106.024800212833
 30
0
 11
29.1689854825062
 21
106.024800212833
 31
0
  0
LINE
  8
1
 62
1
 10
75.80639957992099
 20
82.024800212833
 30
0
 11
29.1689854825062
 21
82.024800212833
 31
0
  0
SOLID
  8
1
 62
1
 10
30.6689854825062
 20
106.024800212833
 30
0
 11
31.3189854825062
 21
101.024800212833
 31
0
 12
30.0189854825062
 22
101.024800212833
 32
0
 13
30.0189854825062
 23
101.024800212833
 33
0
  0
SOLID
  8
1
 62
1
 10
30.6689854825062
 20
82.024800212833
 30
0
 11
30.0189854825062
 21
87.024800212833
 31
0
 12
31.3189854825062
 22
87.024800212833
 32
0
 13
31.3189854825062
 23
87.024800212833
 33
0
  0
TEXT
  8
1
 62
3
 10
28.6689854825062
 20
90.274800212833
 30
0
 40
5
  1
24
 50
90
 41
0.9
  0
ENDBLK
  8
0
  0
BLOCK
  8
1
  2
*D8
 70
1
 10
0
 20
0
 30
0
  0
LINE
  8
1
 62
1
 10
62.80639957992101
 20
139.28292973419
 30
0
 11
75.80639957992101
 21
139.28292973419
 31
0
  0
LINE
  8
1
 62
1
 10
62.80639957992101
 20
139.28292973419
 30
0
 11
52.80639957992101
 21
139.28292973419
 31
0
  0
LINE
  8
1
 62
1
 10
75.80639957992101
 20
139.28292973419
 30
0
 11
85.80639957992101
 21
139.28292973419
 31
0
  0
LINE
  8
1
 62
1
 10
62.80639957992101
 20
155.024800212833
 30
0
 11
62.80639957992101
 21
137.78292973419
 31
0
  0
LINE
  8
1
 62
1
 10
75.80639957992101
 20
155.024800212833
 30
0
 11
75.80639957992101
 21
137.78292973419
 31
0
  0
SOLID
  8
1
 62
1
 10
62.80639957992101
 20
139.28292973419
 30
0
 11
57.80639957992101
 21
138.63292973419
 31
0
 12
57.80639957992101
 22
139.93292973419
 32
0
 13
57.80639957992101
 23
139.93292973419
 33
0
  0
SOLID
  8
1
 62
1
 10
75.80639957992101
 20
139.28292973419
 30
0
 11
80.80639957992101
 21
139.93292973419
 31
0
 12
80.80639957992101
 22
138.63292973419
 32
0
 13
80.80639957992101
 23
138.63292973419
 33
0
  0
TEXT
  8
1
 62
3
 10
66.30639957992101
 20
141.28292973419
 30
0
 40
5
  1
13
 41
0.9
  0
ENDBLK
  8
0
  0
BLOCK
  8
1
  2
*D9
 70
1
 10
0
 20
0
 30
0
  0
LINE
  8
1
 62
1
 10
75.80639957992101
 20
88.2240301075778
 30
0
 11
110.806399579921
 21
88.2240301075778
 31
0
  0
LINE
  8
1
 62
1
 10
110.806399579921
 20
115.7988405973891
 30
0
 11
110.806399579921
 21
86.7240301075778
 31
0
  0
LINE
  8
1
 62
1
 10
75.80639957992101
 20
82.024800212833
 30
0
 11
75.80639957992101
 21
89.7240301075778
 31
0
  0
SOLID
  8
1
 62
1
 10
110.806399579921
 20
88.2240301075778
 30
0
 11
105.806399579921
 21
87.5740301075778
 31
0
 12
105.806399579921
 22
88.87403010757781
 32
0
 13
105.806399579921
 23
88.87403010757781
 33
0
  0
SOLID
  8
1
 62
1
 10
75.80639957992101
 20
88.2240301075778
 30
0
 11
80.80639957992101
 21
88.87403010757781
 31
0
 12
80.80639957992101
 22
87.5740301075778
 32
0
 13
80.80639957992101
 23
87.5740301075778
 33
0
  0
TEXT
  8
1
 62
3
 10
89.55639957992099
 20
90.2240301075778
 30
0
 40
5
  1
35
 41
0.9
  0
ENDBLK
  8
0
  0
BLOCK
  8
1
  2
*D10
 70
1
 10
0
 20
0
 30
0
  0
LINE
  8
1
 62
1
 10
75.80639957992102
 20
70.15590946606891
 30
0
 11
127.806399579921
 21
70.15590946606891
 31
0
  0
LINE
  8
1
 62
1
 10
75.80639957992102
 20
82.024800212833
 30
0
 11
75.80639957992102
 21
68.65590946606891
 31
0
  0
LINE
  8
1
 62
1
 10
127.806399579921
 20
106.024800212833
 30
0
 11
127.806399579921
 21
68.65590946606891
 31
0
  0
SOLID
  8
1
 62
1
 10
75.80639957992102
 20
70.15590946606891
 30
0
 11
80.80639957992102
 21
70.80590946606891
 31
0
 12
80.80639957992102
 22
69.5059094660689
 32
0
 13
80.80639957992102
 23
69.5059094660689
 33
0
  0
SOLID
  8
1
 62
1
 10
127.806399579921
 20
70.15590946606891
 30
0
 11
122.806399579921
 21
69.5059094660689
 31
0
 12
122.806399579921
 22
70.80590946606891
 32
0
 13
122.806399579921
 23
70.80590946606891
 33
0
  0
TEXT
  8
1
 62
3
 10
98.05639957992101
 20
72.15590946606891
 30
0
 40
5
  1
52
 41
0.9
  0
ENDBLK
  8
0
  0
BLOCK
  8
1
  2
*D11
 70
1
 10
0
 20
0
 30
0
  0
LINE
  8
1
 62
1
 10
153.101100121589
 20
106.024800212833
 30
0
 11
153.101100121589
 21
142.024800212833
 31
0
  0
LINE
  8
1
 62
1
 10
123.146056811676
 20
142.024800212833
 30
0
 11
154.601100121589
 21
142.024800212833
 31
0
  0
LINE
  8
1
 62
1
 10
127.806399579921
 20
106.024800212833
 30
0
 11
154.601100121589
 21
106.024800212833
 31
0
  0
SOLID
  8
1
 62
1
 10
153.101100121589
 20
106.024800212833
 30
0
 11
152.451100121589
 21
111.024800212833
 31
0
 12
153.751100121589
 22
111.024800212833
 32
0
 13
153.751100121589
 23
111.024800212833
 33
0
  0
SOLID
  8
1
 62
1
 10
153.101100121589
 20
142.024800212833
 30
0
 11
153.751100121589
 21
137.024800212833
 31
0
 12
152.451100121589
 22
137.024800212833
 32
0
 13
152.451100121589
 23
137.024800212833
 33
0
  0
TEXT
  8
1
 62
3
 10
151.101100121589
 20
115.212300212833
 30
0
 40
5
  1
.7=36
 50
90
 41
0.9
  0
ENDBLK
  8
0
  0
BLOCK
  8
1
  2
*D12
 70
1
 10
0
 20
0
 30
0
  0
LINE
  8
1
 62
1
 10
142.798501831646
 20
34.024800212833
 30
0
 11
142.798501831646
 21
53.024800212833
 31
0
  0
LINE
  8
1
 62
1
 10
127.806399579921
 20
34.024800212833
 30
0
 11
144.298501831646
 21
34.024800212833
 31
0
  0
LINE
  8
1
 62
1
 10
127.806399579921
 20
53.024800212833
 30
0
 11
144.298501831646
 21
53.024800212833
 31
0
  0
SOLID
  8
1
 62
1
 10
142.798501831646
 20
53.024800212833
 30
0
 11
143.448501831646
 21
48.024800212833
 31
0
 12
142.148501831646
 22
48.024800212833
 32
0
 13
142.148501831646
 23
48.024800212833
 33
0
  0
SOLID
  8
1
 62
1
 10
142.798501831646
 20
34.024800212833
 30
0
 11
142.148501831646
 21
39.024800212833
 31
0
 12
143.448501831646
 22
39.024800212833
 32
0
 13
143.448501831646
 23
39.024800212833
 33
0
  0
TEXT
  8
1
 62
3
 10
140.798501831646
 20
40.524800212833
 30
0
 40
5
  1
19
 50
90
 41
0.9
  0
ENDBLK
  8
0
  0
BLOCK
  8
1
  2
*D13
 70
1
 10
0
 20
0
 30
0
  0
LINE
  8
1
 62
1
 10
153.101100121589
 20
142.024800212833
 30
0
 11
153.101100121589
 21
214.024800212833
 31
0
  0
LINE
  8
1
 62
1
 10
120.706399579921
 20
214.024800212833
 30
0
 11
154.601100121589
 21
214.024800212833
 31
0
  0
LINE
  8
1
 62
1
 10
123.146056811676
 20
142.024800212833
 30
0
 11
154.601100121589
 21
142.024800212833
 31
0
  0
SOLID
  8
1
 62
1
 10
153.101100121589
 20
142.024800212833
 30
0
 11
152.451100121589
 21
147.024800212833
 31
0
 12
153.751100121589
 22
147.024800212833
 32
0
 13
153.751100121589
 23
147.024800212833
 33
0
  0
SOLID
  8
1
 62
1
 10
153.101100121589
 20
214.024800212833
 30
0
 11
153.751100121589
 21
209.024800212833
 31
0
 12
152.451100121589
 22
209.024800212833
 32
0
 13
152.451100121589
 23
209.024800212833
 33
0
  0
TEXT
  8
1
 62
3
 10
151.101100121589
 20
169.212300212833
 30
0
 40
5
  1
.7=72
 50
90
 41
0.9
  0
ENDBLK
  8
0
  0
BLOCK
  8
1
  2
*D14
 70
1
 10
0
 20
0
 30
0
  0
LINE
  8
1
 62
1
 10
153.105508663891
 20
214.024800212833
 30
0
 11
153.105508663891
 21
301.024800212833
 31
0
  0
LINE
  8
1
 62
1
 10
127.806399579921
 20
301.024800212833
 30
0
 11
154.605508663891
 21
301.024800212833
 31
0
  0
LINE
  8
1
 62
1
 10
120.706399579921
 20
214.024800212833
 30
0
 11
154.605508663891
 21
214.024800212833
 31
0
  0
SOLID
  8
1
 62
1
 10
153.105508663891
 20
214.024800212833
 30
0
 11
152.455508663891
 21
219.024800212833
 31
0
 12
153.755508663891
 22
219.024800212833
 32
0
 13
153.755508663891
 23
219.024800212833
 33
0
  0
SOLID
  8
1
 62
1
 10
153.105508663891
 20
301.024800212833
 30
0
 11
153.755508663891
 21
296.024800212833
 31
0
 12
152.455508663891
 22
296.024800212833
 32
0
 13
152.455508663891
 23
296.024800212833
 33
0
  0
TEXT
  8
1
 62
3
 10
151.105508663891
 20
253.774800212833
 30
0
 40
5
  1
87
 50
90
 41
0.9
  0
ENDBLK
  8
0
  0
BLOCK
  8
1
  2
*D15
 70
1
 10
0
 20
0
 30
0
  0
LINE
  8
1
 62
1
 10
168.197018971559
 20
106.024800212833
 30
0
 11
168.197018971559
 21
301.024800212833
 31
0
  0
LINE
  8
1
 62
1
 10
127.806399579921
 20
301.024800212833
 30
0
 11
169.697018971559
 21
301.024800212833
 31
0
  0
LINE
  8
1
 62
1
 10
127.806399579921
 20
106.024800212833
 30
0
 11
169.697018971559
 21
106.024800212833
 31
0
  0
SOLID
  8
1
 62
1
 10
168.197018971559
 20
106.024800212833
 30
0
 11
167.547018971559
 21
111.024800212833
 31
0
 12
168.847018971559
 22
111.024800212833
 32
0
 13
168.847018971559
 23
111.024800212833
 33
0
  0
SOLID
  8
1
 62
1
 10
168.197018971559
 20
301.024800212833
 30
0
 11
168.847018971559
 21
296.024800212833
 31
0
 12
167.547018971559
 22
296.024800212833
 32
0
 13
167.547018971559
 23
296.024800212833
 33
0
  0
TEXT
  8
1
 62
3
 10
166.197018971559
 20
198.274800212833
 30
0
 40
5
  1
195
 50
90
 41
0.9
  0
ENDBLK
  8
0
  0
BLOCK
  8
1
  2
*D16
 70
1
 10
0
 20
0
 30
0
  0
LINE
  8
1
 62
1
 10
68.80639957992101
 20
214.476519810358
 30
0
 11
75.80639957992101
 21
214.476519810358
 31
0
  0
LINE
  8
1
 62
1
 10
68.80639957992101
 20
214.476519810358
 30
0
 11
58.80639957992101
 21
214.476519810358
 31
0
  0
LINE
  8
1
 62
1
 10
75.80639957992101
 20
214.476519810358
 30
0
 11
85.80639957992101
 21
214.476519810358
 31
0
  0
LINE
  8
1
 62
1
 10
68.80639957992101
 20
226.024800212833
 30
0
 11
68.80639957992101
 21
212.976519810358
 31
0
  0
LINE
  8
1
 62
1
 10
75.80639957992101
 20
325.024800212833
 30
0
 11
75.80639957992101
 21
212.976519810358
 31
0
  0
SOLID
  8
1
 62
1
 10
68.80639957992101
 20
214.476519810358
 30
0
 11
63.80639957992101
 21
213.826519810358
 31
0
 12
63.80639957992101
 22
215.126519810358
 32
0
 13
63.80639957992101
 23
215.126519810358
 33
0
  0
SOLID
  8
1
 62
1
 10
75.80639957992101
 20
214.476519810358
 30
0
 11
80.80639957992101
 21
215.126519810358
 31
0
 12
80.80639957992101
 22
213.826519810358
 32
0
 13
80.80639957992101
 23
213.826519810358
 33
0
  0
TEXT
  8
1
 62
3
 10
70.80639957992101
 20
216.476519810358
 30
0
 40
5
  1
7
 41
0.9
  0
ENDBLK
  8
0
  0
BLOCK
  8
1
  2
*D17
 70
1
 10
0
 20
0
 30
0
  0
LINE
  8
1
 62
1
 10
45.80639957992101
 20
202.03034600949
 30
0
 11
75.80639957992102
 21
202.03034600949
 31
0
  0
LINE
  8
1
 62
1
 10
45.80639957992101
 20
241.024800212833
 30
0
 11
45.80639957992101
 21
200.53034600949
 31
0
  0
LINE
  8
1
 62
1
 10
75.80639957992102
 20
325.024800212833
 30
0
 11
75.80639957992102
 21
200.53034600949
 31
0
  0
SOLID
  8
1
 62
1
 10
45.80639957992101
 20
202.03034600949
 30
0
 11
50.80639957992101
 21
202.68034600949
 31
0
 12
50.80639957992101
 22
201.38034600949
 32
0
 13
50.80639957992101
 23
201.38034600949
 33
0
  0
SOLID
  8
1
 62
1
 10
75.80639957992102
 20
202.03034600949
 30
0
 11
70.80639957992102
 21
201.38034600949
 31
0
 12
70.80639957992102
 22
202.68034600949
 32
0
 13
70.80639957992102
 23
202.68034600949
 33
0
  0
TEXT
  8
1
 62
3
 10
57.05639957992101
 20
204.03034600949
 30
0
 40
5
  1
30
 41
0.9
  0
ENDBLK
  8
0
  0
BLOCK
  8
1
  2
*D18
 70
1
 10
0
 20
0
 30
0
  0
LINE
  8
1
 62
1
 10
91.1445920574748
 20
226.024800212833
 30
0
 11
91.1445920574748
 21
237.024800212833
 31
0
  0
LINE
  8
1
 62
1
 10
91.1445920574748
 20
226.024800212833
 30
0
 11
91.1445920574748
 21
216.024800212833
 31
0
  0
LINE
  8
1
 62
1
 10
91.1445920574748
 20
237.024800212833
 30
0
 11
91.1445920574748
 21
247.024800212833
 31
0
  0
LINE
  8
1
 62
1
 10
68.80639957992101
 20
226.024800212833
 30
0
 11
92.6445920574748
 21
226.024800212833
 31
0
  0
LINE
  8
1
 62
1
 10
75.80639957992101
 20
237.024800212833
 30
0
 11
92.6445920574748
 21
237.024800212833
 31
0
  0
SOLID
  8
1
 62
1
 10
91.1445920574748
 20
226.024800212833
 30
0
 11
91.7945920574748
 21
221.024800212833
 31
0
 12
90.49459205747479
 22
221.024800212833
 32
0
 13
90.49459205747479
 23
221.024800212833
 33
0
  0
SOLID
  8
1
 62
1
 10
91.1445920574748
 20
237.024800212833
 30
0
 11
90.49459205747479
 21
242.024800212833
 31
0
 12
91.79459205747479
 22
242.024800212833
 32
0
 13
91.79459205747479
 23
242.024800212833
 33
0
  0
TEXT
  8
1
 62
3
 10
89.1445920574748
 20
229.274800212833
 30
0
 40
5
  1
11
 50
90
 41
0.9
  0
ENDBLK
  8
0
  0
BLOCK
  8
1
  2
*D19
 70
1
 10
0
 20
0
 30
0
  0
LINE
  8
1
 62
1
 10
105.7330771496872
 20
234.4002685278551
 30
0
 11
113.7221134277238
 21
234.8189561777986
 31
0
  0
LINE
  8
1
 62
1
 10
105.7330771496872
 20
234.4002685278551
 30
0
 11
95.74678180214148
 21
233.8769089654257
 31
0
  0
LINE
  8
1
 62
1
 10
113.7221134277238
 20
234.8189561777986
 30
0
 11
123.7084087752695
 21
235.3423157402279
 31
0
  0
LINE
  8
1
 62
1
 10
106.602537615931
 20
217.8099745268796
 30
0
 11
105.6545732153228
 21
235.8982128299869
 31
0
  0
LINE
  8
1
 62
1
 10
114.5915738939675
 20
218.2286621768231
 30
0
 11
113.6436094933594
 21
236.3169004799304
 31
0
  0
SOLID
  8
1
 62
1
 10
105.7330771496872
 20
234.4002685278551
 30
0
 11
100.7739478474723
 21
233.4894795490499
 31
0
 12
100.7059111043565
 22
234.7876979442309
 32
0
 13
100.7059111043565
 23
234.7876979442309
 33
0
  0
SOLID
  8
1
 62
1
 10
113.7221134277238
 20
234.8189561777986
 30
0
 11
118.6812427299388
 21
235.7297451566037
 31
0
 12
118.7492794730546
 22
234.4315267614228
 32
0
 13
118.7492794730546
 23
234.4315267614228
 33
0
  0
TEXT
  8
1
 62
3
 10
108.1249790740878
 20
236.5283674879716
 30
0
 40
5
  1
8
 50
2.999999999999496
 41
0.9
  0
ENDBLK
  8
0
  0
BLOCK
  8
1
  2
*D20
 70
1
 10
0
 20
0
 30
0
  0
LINE
  8
1
 62
1
 10
201.778723690411
 20
82.024800212833
 30
0
 11
201.778723690411
 21
92.024800212833
 31
0
  0
LINE
  8
1
 62
1
 10
201.778723690411
 20
82.024800212833
 30
0
 11
201.778723690411
 21
72.024800212833
 31
0
  0
LINE
  8
1
 62
1
 10
201.778723690411
 20
92.024800212833
 30
0
 11
201.778723690411
 21
102.024800212833
 31
0
  0
LINE
  8
1
 62
1
 10
216.806399579921
 20
82.024800212833
 30
0
 11
200.278723690411
 21
82.024800212833
 31
0
  0
LINE
  8
1
 62
1
 10
223.031399579921
 20
92.024800212833
 30
0
 11
200.278723690411
 21
92.024800212833
 31
0
  0
SOLID
  8
1
 62
1
 10
201.778723690411
 20
82.024800212833
 30
0
 11
202.428723690411
 21
77.024800212833
 31
0
 12
201.128723690411
 22
77.024800212833
 32
0
 13
201.128723690411
 23
77.024800212833
 33
0
  0
SOLID
  8
1
 62
1
 10
201.778723690411
 20
92.024800212833
 30
0
 11
201.128723690411
 21
97.024800212833
 31
0
 12
202.428723690411
 22
97.024800212833
 32
0
 13
202.428723690411
 23
97.024800212833
 33
0
  0
TEXT
  8
1
 62
3
 10
199.778723690411
 20
84.024800212833
 30
0
 40
5
  1
10
 50
90
 41
0.9
  0
ENDBLK
  8
0
  0
BLOCK
  8
1
  2
*D21
 70
1
 10
0
 20
0
 30
0
  0
LINE
  8
1
 62
1
 10
201.824587916844
 20
92.02480021283299
 30
0
 11
201.824587916844
 21
315.024800212833
 31
0
  0
LINE
  8
1
 62
1
 10
223.031399579921
 20
92.02480021283299
 30
0
 11
200.324587916844
 21
92.02480021283299
 31
0
  0
LINE
  8
1
 62
1
 10
223.031399579921
 20
315.024800212833
 30
0
 11
200.324587916844
 21
315.024800212833
 31
0
  0
SOLID
  8
1
 62
1
 10
201.824587916844
 20
92.02480021283299
 30
0
 11
201.174587916844
 21
97.02480021283299
 31
0
 12
202.474587916844
 22
97.02480021283299
 32
0
 13
202.474587916844
 23
97.02480021283299
 33
0
  0
SOLID
  8
1
 62
1
 10
201.824587916844
 20
315.024800212833
 30
0
 11
202.474587916844
 21
310.024800212833
 31
0
 12
201.174587916844
 22
310.024800212833
 32
0
 13
201.174587916844
 23
310.024800212833
 33
0
  0
TEXT
  8
1
 62
3
 10
199.824587916844
 20
197.524800212833
 30
0
 40
5
  1
223
 50
90
 41
0.9
  0
ENDBLK
  8
0
  0
BLOCK
  8
1
  2
*D22
 70
1
 10
0
 20
0
 30
0
  0
LINE
  8
1
 62
1
 10
201.837129029598
 20
315.024800212833
 30
0
 11
201.837129029598
 21
325.024800212833
 31
0
  0
LINE
  8
1
 62
1
 10
201.837129029598
 20
315.024800212833
 30
0
 11
201.837129029598
 21
305.024800212833
 31
0
  0
LINE
  8
1
 62
1
 10
201.837129029598
 20
325.024800212833
 30
0
 11
201.837129029598
 21
335.024800212833
 31
0
  0
LINE
  8
1
 62
1
 10
223.031399579921
 20
315.024800212833
 30
0
 11
200.337129029598
 21
315.024800212833
 31
0
  0
LINE
  8
1
 62
1
 10
216.806399579921
 20
325.024800212833
 30
0
 11
200.337129029598
 21
325.024800212833
 31
0
  0
SOLID
  8
1
 62
1
 10
201.837129029598
 20
315.024800212833
 30
0
 11
202.487129029598
 21
310.024800212833
 31
0
 12
201.187129029598
 22
310.024800212833
 32
0
 13
201.187129029598
 23
310.024800212833
 33
0
  0
SOLID
  8
1
 62
1
 10
201.837129029598
 20
325.024800212833
 30
0
 11
201.187129029598
 21
330.024800212833
 31
0
 12
202.487129029598
 22
330.024800212833
 32
0
 13
202.487129029598
 23
330.024800212833
 33
0
  0
TEXT
  8
1
 62
3
 10
199.837129029598
 20
317.024800212833
 30
0
 40
5
  1
10
 50
90
 41
0.9
  0
ENDBLK
  8
0
  0
BLOCK
  8
1
  2
*D23
 70
1
 10
0
 20
0
 30
0
  0
LINE
  8
1
 62
1
 10
221.806399579921
 20
211.138028449306
 30
0
 11
235.806399579921
 21
211.138028449306
 31
0
  0
LINE
  8
1
 62
1
 10
221.806399579921
 20
211.138028449306
 30
0
 11
211.806399579921
 21
211.138028449306
 31
0
  0
LINE
  8
1
 62
1
 10
235.806399579921
 20
211.138028449306
 30
0
 11
245.806399579921
 21
211.138028449306
 31
0
  0
LINE
  8
1
 62
1
 10
221.806399579921
 20
226.024800212833
 30
0
 11
221.806399579921
 21
209.638028449306
 31
0
  0
LINE
  8
1
 62
1
 10
235.806399579921
 20
226.024800212833
 30
0
 11
235.806399579921
 21
209.638028449306
 31
0
  0
SOLID
  8
1
 62
1
 10
221.806399579921
 20
211.138028449306
 30
0
 11
216.806399579921
 21
210.488028449306
 31
0
 12
216.806399579921
 22
211.788028449306
 32
0
 13
216.806399579921
 23
211.788028449306
 33
0
  0
SOLID
  8
1
 62
1
 10
235.806399579921
 20
211.138028449306
 30
0
 11
240.806399579921
 21
211.788028449306
 31
0
 12
240.806399579921
 22
210.488028449306
 32
0
 13
240.806399579921
 23
210.488028449306
 33
0
  0
TEXT
  8
1
 62
3
 10
225.806399579921
 20
213.138028449306
 30
0
 40
5
  1
14
 41
0.9
  0
ENDBLK
  8
0
  0
BLOCK
  8
1
  2
*D24
 70
1
 10
0
 20
0
 30
0
  0
LINE
  8
1
 62
1
 10
224.806399579921
 20
141.200315504884
 30
0
 11
232.806399579921
 21
141.200315504884
 31
0
  0
LINE
  8
1
 62
1
 10
224.806399579921
 20
141.200315504884
 30
0
 11
214.806399579921
 21
141.200315504884
 31
0
  0
LINE
  8
1
 62
1
 10
232.806399579921
 20
141.200315504884
 30
0
 11
242.806399579921
 21
141.200315504884
 31
0
  0
LINE
  8
1
 62
1
 10
224.806399579921
 20
155.024800212833
 30
0
 11
224.806399579921
 21
139.700315504884
 31
0
  0
LINE
  8
1
 62
1
 10
232.806399579921
 20
155.024800212833
 30
0
 11
232.806399579921
 21
139.700315504884
 31
0
  0
SOLID
  8
1
 62
1
 10
224.806399579921
 20
141.200315504884
 30
0
 11
219.806399579921
 21
140.550315504884
 31
0
 12
219.806399579921
 22
141.850315504884
 32
0
 13
219.806399579921
 23
141.850315504884
 33
0
  0
SOLID
  8
1
 62
1
 10
232.806399579921
 20
141.200315504884
 30
0
 11
237.806399579921
 21
141.850315504884
 31
0
 12
237.806399579921
 22
140.550315504884
 32
0
 13
237.806399579921
 23
140.550315504884
 33
0
  0
TEXT
  8
1
 62
3
 10
227.306399579921
 20
143.200315504884
 30
0
 40
5
  1
8
 41
0.9
  0
ENDBLK
  8
0
  0
BLOCK
  8
1
  2
*D25
 70
1
 10
0
 20
0
 30
0
  0
LINE
  8
1
 62
1
 10
216.806399579921
 20
65.40394597873031
 30
0
 11
240.806399579921
 21
65.40394597873031
 31
0
  0
LINE
  8
1
 62
1
 10
216.806399579921
 20
82.024800212833
 30
0
 11
216.806399579921
 21
63.90394597873031
 31
0
  0
LINE
  8
1
 62
1
 10
240.806399579921
 20
82.024800212833
 30
0
 11
240.806399579921
 21
63.90394597873031
 31
0
  0
SOLID
  8
1
 62
1
 10
216.806399579921
 20
65.40394597873031
 30
0
 11
221.806399579921
 21
66.05394597873031
 31
0
 12
221.806399579921
 22
64.7539459787303
 32
0
 13
221.806399579921
 23
64.7539459787303
 33
0
  0
SOLID
  8
1
 62
1
 10
240.806399579921
 20
65.40394597873031
 30
0
 11
235.806399579921
 21
64.7539459787303
 31
0
 12
235.806399579921
 22
66.05394597873031
 32
0
 13
235.806399579921
 23
66.05394597873031
 33
0
  0
TEXT
  8
1
 62
3
 10
225.056399579921
 20
67.40394597873031
 30
0
 40
5
  1
24
 41
0.9
  0
ENDBLK
  8
0
  0
BLOCK
  8
1
  2
*D26
 70
1
 10
0
 20
0
 30
0
  0
LINE
  8
1
 62
1
 10
256.454297915832
 20
82.02480021283299
 30
0
 11
256.454297915832
 21
325.024800212833
 31
0
  0
LINE
  8
1
 62
1
 10
240.806399579921
 20
82.02480021283299
 30
0
 11
257.954297915832
 21
82.02480021283299
 31
0
  0
LINE
  8
1
 62
1
 10
240.806399579921
 20
325.024800212833
 30
0
 11
257.954297915832
 21
325.024800212833
 31
0
  0
SOLID
  8
1
 62
1
 10
256.454297915832
 20
82.02480021283299
 30
0
 11
255.804297915832
 21
87.02480021283299
 31
0
 12
257.104297915832
 22
87.02480021283299
 32
0
 13
257.104297915832
 23
87.02480021283299
 33
0
  0
SOLID
  8
1
 62
1
 10
256.454297915832
 20
325.024800212833
 30
0
 11
257.104297915832
 21
320.024800212833
 31
0
 12
255.804297915832
 22
320.024800212833
 32
0
 13
255.804297915832
 23
320.024800212833
 33
0
  0
TEXT
  8
1
 62
3
 10
254.454297915832
 20
197.524800212833
 30
0
 40
5
  1
243
 50
90
 41
0.9
  0
ENDBLK
  8
0
  0
ENDSEC
  0
SECTION
  2
ENTITIES
  0
LINE
  8
1
 62
7
 10
105.693899579921
 20
132.1581898526333
 30
0
 11
105.693899579921
 21
122.974800212833
 31
0
  0
LINE
  8
1
 62
7
 10
115.918899579921
 20
132.1581898526333
 30
0
 11
115.918899579921
 21
122.974800212833
 31
0
  0
LINE
  8
1
 62
7
 10
78.80639957992101
 20
106.024800212833
 30
0
 11
127.806399579921
 21
106.024800212833
 31
0
  0
LINE
  8
1
 62
7
 10
127.806399579921
 20
106.024800212833
 30
0
 11
127.806399579921
 21
301.024800212833
 31
0
  0
LINE
  8
1
 62
7
 10
78.80639957992101
 20
82.024800212833
 30
0
 11
78.80639957992101
 21
325.024800212833
 31
0
  0
LINE
  8
1
 62
7
 10
78.80639957992101
 20
301.024800212833
 30
0
 11
127.806399579921
 21
301.024800212833
 31
0
  0
LINE
  8
1
 62
7
 10
75.80639957992101
 20
82.024800212833
 30
0
 11
75.80639957992101
 21
325.024800212833
 31
0
  0
LINE
  8
1
 62
7
 10
75.80639957992101
 20
82.024800212833
 30
0
 11
78.80639957992101
 21
82.024800212833
 31
0
  0
LINE
  8
1
 62
7
 10
75.80639957992101
 20
325.024800212833
 30
0
 11
78.80639957992101
 21
325.024800212833
 31
0
  0
LINE
  8
1
 62
2
  6
PHANTOM
 10
70.79104680236
 20
315.024800212833
 30
0
 11
83.79104680236
 21
315.024800212833
 31
0
  0
LINE
  8
1
 62
2
  6
PHANTOM
 10
70.79104680236
 20
92.02480021283299
 30
0
 11
83.79104680236
 21
92.02480021283299
 31
0
  0
LINE
  8
1
 62
2
  6
PHANTOM
 10
110.806399579921
 20
115.7988405973891
 30
0
 11
110.806399579921
 21
154.765602717042
 31
0
  0
LINE
  8
1
 62
2
  6
PHANTOM
 10
123.146056811676
 20
142.024800212833
 30
0
 11
98.2098720366283
 21
142.024800212833
 31
0
  0
LINE
  8
1
 62
7
 10
106.6025376159309
 20
217.8099745268796
 30
0
 11
114.5915738939675
 21
218.2286621768231
 31
0
  0
LINE
  8
1
 62
7
 10
107.0212252658745
 20
209.820938248843
 30
0
 11
115.0102615439111
 21
210.2396258987866
 31
0
  0
LINE
  8
1
 62
7
 10
115.0102615439111
 20
210.2396258987866
 30
0
 11
114.5915738939675
 21
218.2286621768231
 31
0
  0
LINE
  8
1
 62
7
 10
107.0212252658745
 20
209.820938248843
 30
0
 11
106.6025376159309
 21
217.8099745268796
 31
0
  0
LINE
  8
1
 62
2
  6
DIVIDE
 10
120.706399579921
 20
214.024800212833
 30
0
 11
100.906399579921
 21
214.024800212833
 31
0
  0
LINE
  8
1
 62
2
  6
DIVIDE
 10
110.806399579921
 20
223.924800212833
 30
0
 11
110.806399579921
 21
204.124800212833
 31
0
  0
LINE
  8
1
 62
7
 10
62.80639957992101
 20
190.024800212833
 30
0
 11
75.80639957992101
 21
190.024800212833
 31
0
  0
LINE
  8
1
 62
7
 10
62.80639957992101
 20
155.024800212833
 30
0
 11
75.80639957992101
 21
155.024800212833
 31
0
  0
LINE
  8
1
 62
7
 10
62.80639957992101
 20
155.024800212833
 30
0
 11
62.80639957992101
 21
190.024800212833
 31
0
  0
LINE
  8
1
 62
7
 10
57.80639957992101
 20
261.024800212833
 30
0
 11
75.80639957992101
 21
261.024800212833
 31
0
  0
LINE
  8
1
 62
7
 10
57.80639957992101
 20
261.024800212833
 30
0
 11
45.80639957992101
 21
249.024800212833
 31
0
  0
LINE
  8
1
 62
7
 10
68.80639957992101
 20
237.024800212833
 30
0
 11
75.80639957992101
 21
237.024800212833
 31
0
  0
LINE
  8
1
 62
7
 10
68.80639957992101
 20
237.024800212833
 30
0
 11
68.80639957992101
 21
226.024800212833
 31
0
  0
LINE
  8
1
 62
7
 10
68.80639957992101
 20
226.024800212833
 30
0
 11
60.80639957992101
 21
226.024800212833
 31
0
  0
LINE
  8
1
 62
7
 10
60.80639957992101
 20
226.024800212833
 30
0
 11
45.80639957992101
 21
241.024800212833
 31
0
  0
LINE
  8
1
 62
7
 10
45.80639957992101
 20
249.024800212833
 30
0
 11
45.80639957992101
 21
241.024800212833
 31
0
  0
LINE
  8
1
 62
7
 10
78.80639957992101
 20
53.024800212833
 30
0
 11
127.806399579921
 21
53.024800212833
 31
0
  0
LINE
  8
1
 62
7
 10
78.80639957992101
 20
34.024800212833
 30
0
 11
127.806399579921
 21
34.024800212833
 31
0
  0
LINE
  8
1
 62
7
 10
127.806399579921
 20
53.024800212833
 30
0
 11
127.806399579921
 21
34.024800212833
 31
0
  0
LINE
  8
1
 62
7
 10
78.80639957992101
 20
55.524800212833
 30
0
 11
78.80639957992101
 21
31.524800212833
 31
0
  0
LINE
  8
1
 62
7
 10
75.80639957992101
 20
55.524800212833
 30
0
 11
78.80639957992101
 21
55.524800212833
 31
0
  0
LINE
  8
1
 62
7
 10
75.80639957992101
 20
31.524800212833
 30
0
 11
78.80639957992101
 21
31.524800212833
 31
0
  0
LINE
  8
1
 62
7
 10
75.80639957992101
 20
55.524800212833
 30
0
 11
75.80639957992101
 21
31.524800212833
 31
0
  0
LINE
  8
1
 62
7
 10
75.80639957992101
 20
50.524800212833
 30
0
 11
69.80639957992101
 21
50.524800212833
 31
0
  0
LINE
  8
1
 62
7
 10
75.80639957992101
 20
36.524800212833
 30
0
 11
69.80639957992101
 21
36.524800212833
 31
0
  0
LINE
  8
1
 62
7
 10
45.80639957992101
 20
46.02480021283299
 30
0
 11
45.80639957992101
 21
41.02480021283299
 31
0
  0
LINE
  8
1
 62
7
 10
45.80639957992101
 20
46.02480021283299
 30
0
 11
69.80639957992101
 21
50.524800212833
 31
0
  0
LINE
  8
1
 62
7
 10
45.80639957992101
 20
41.02480021283299
 30
0
 11
69.80639957992101
 21
36.524800212833
 31
0
  0
LINE
  8
1
 62
2
 10
69.80639957992101
 20
50.524800212833
 30
0
 11
69.80639957992101
 21
36.524800212833
 31
0
  0
LINE
  8
1
 62
7
 10
57.80639957992101
 20
48.27480021283299
 30
0
 11
57.80639957992101
 21
38.77480021283299
 31
0
  0
LINE
  8
1
 62
2
 10
69.80639957992101
 20
237.024800212833
 30
0
 11
69.80639957992101
 21
261.024800212833
 31
0
  0
LINE
  8
1
 62
7
 10
216.806399579921
 20
82.024800212833
 30
0
 11
216.806399579921
 21
325.024800212833
 31
0
  0
LINE
  8
1
 62
7
 10
240.806399579921
 20
82.024800212833
 30
0
 11
240.806399579921
 21
325.024800212833
 31
0
  0
LINE
  8
1
 62
7
 10
216.806399579921
 20
325.024800212833
 30
0
 11
240.806399579921
 21
325.024800212833
 31
0
  0
LINE
  8
1
 62
7
 10
216.806399579921
 20
82.024800212833
 30
0
 11
240.806399579921
 21
82.024800212833
 31
0
  0
LINE
  8
1
 62
7
 10
221.806399579921
 20
261.024800212833
 30
0
 11
235.806399579921
 21
261.024800212833
 31
0
  0
LINE
  8
1
 62
7
 10
221.806399579921
 20
226.024800212833
 30
0
 11
235.806399579921
 21
226.024800212833
 31
0
  0
LINE
  8
1
 62
7
 10
221.806399579921
 20
226.024800212833
 30
0
 11
221.806399579921
 21
261.024800212833
 31
0
  0
LINE
  8
1
 62
7
 10
235.806399579921
 20
261.024800212833
 30
0
 11
235.806399579921
 21
226.024800212833
 31
0
  0
LINE
  8
1
 62
7
 10
226.306399579921
 20
249.024800212833
 30
0
 11
231.306399579921
 21
249.024800212833
 31
0
  0
LINE
  8
1
 62
7
 10
226.306399579921
 20
241.024800212833
 30
0
 11
231.306399579921
 21
241.024800212833
 31
0
  0
LINE
  8
1
 62
7
 10
231.306399579921
 20
241.024800212833
 30
0
 11
231.306399579921
 21
249.024800212833
 31
0
  0
LINE
  8
1
 62
7
 10
226.306399579921
 20
241.024800212833
 30
0
 11
226.306399579921
 21
249.024800212833
 31
0
  0
LINE
  8
1
 62
7
 10
231.306399579921
 20
249.024800212833
 30
0
 11
235.806399579921
 21
261.024800212833
 31
0
  0
LINE
  8
1
 62
7
 10
226.306399579921
 20
249.024800212833
 30
0
 11
221.806399579921
 21
261.024800212833
 31
0
  0
LINE
  8
1
 62
7
 10
226.306399579921
 20
241.024800212833
 30
0
 11
221.806399579921
 21
226.024800212833
 31
0
  0
LINE
  8
1
 62
7
 10
231.306399579921
 20
241.024800212833
 30
0
 11
235.806399579921
 21
226.024800212833
 31
0
  0
LINE
  8
1
 62
7
 10
224.806399579921
 20
190.024800212833
 30
0
 11
232.806399579921
 21
190.024800212833
 31
0
  0
LINE
  8
1
 62
7
 10
224.806399579921
 20
155.024800212833
 30
0
 11
232.806399579921
 21
155.024800212833
 31
0
  0
LINE
  8
1
 62
7
 10
232.806399579921
 20
155.024800212833
 30
0
 11
232.806399579921
 21
190.024800212833
 31
0
  0
LINE
  8
1
 62
7
 10
224.806399579921
 20
155.024800212833
 30
0
 11
224.806399579921
 21
190.024800212833
 31
0
  0
LINE
  8
1
 62
2
  6
DIVIDE
 10
234.581399579921
 20
92.024800212833
 30
0
 11
223.031399579921
 21
92.024800212833
 31
0
  0
LINE
  8
1
 62
2
  6
DIVIDE
 10
228.806399579921
 20
97.79980021283301
 30
0
 11
228.806399579921
 21
86.24980021283299
 31
0
  0
LINE
  8
1
 62
2
  6
DIVIDE
 10
234.581399579921
 20
315.024800212833
 30
0
 11
223.031399579921
 21
315.024800212833
 31
0
  0
LINE
  8
1
 62
2
  6
DIVIDE
 10
228.806399579921
 20
320.799800212833
 30
0
 11
228.806399579921
 21
309.249800212833
 31
0
  0
LINE
  8
1
 62
2
  6
DIVIDE
 10
234.031399579921
 20
123.024800212833
 30
0
 11
223.581399579921
 21
123.024800212833
 31
0
  0
LINE
  8
1
 62
2
  6
DIVIDE
 10
228.806399579921
 20
128.249800212833
 30
0
 11
228.806399579921
 21
117.799800212833
 31
0
  0
ARC
  8
1
 62
7
 10
110.806399579921
 20
142.024800212833
 30
0
 40
11.11249999999998
 50
297.3914626952544
 51
242.6085373047455
  0
ARC
  8
1
 62
7
 10
110.806399579921
 20
122.974800212833
 30
0
 40
5.112500000000011
 50
180
 51
0
  0
CIRCLE
  8
1
 62
7
 10
110.806399579921
 20
214.024800212833
 30
0
 40
9
  0
CIRCLE
  8
1
 62
7
 10
228.806399579921
 20
92.024800212833
 30
0
 40
5.25
  0
CIRCLE
  8
1
 62
7
 10
228.806399579921
 20
315.024800212833
 30
0
 40
5.25
  0
CIRCLE
  8
1
 62
7
 10
228.806399579921
 20
92.024800212833
 30
0
 40
2.75
  0
CIRCLE
  8
1
 62
7
 10
228.806399579921
 20
315.024800212833
 30
0
 40
2.75
  0
CIRCLE
  8
1
 62
7
 10
228.806399579921
 20
123.024800212833
 30
0
 40
4.75
  0
CIRCLE
  8
1
 62
7
 10
228.806399579921
 20
123.024800212833
 30
0
 40
2.75
  0
TEXT
  8
1
 62
3
 10
142.5443586650163
 20
115.3415830410132
 30
0
 40
5
  1
.6=34
 50
90
 41
0.891
  0
TEXT
  8
1
 62
3
 10
142.5443586650163
 20
169.1802024089795
 30
0
 40
5
  1
.6=74
 50
90
 41
0.891
  0
TEXT
  8
1
 62
3
 10
195.983223518555
 20
28.4782078867902
 30
0
 40
7
  1
1909_635
 41
0.9
 73
2
 11
195.983223518555
 21
31.9782078867902
 31
0
  0
DIMENSION
  8
1
  6
CONTINUOUS
 62
1
  2
*D0
  3
DMST_1
 10
75.80639957992101
 20
307.805862047879
 30
0
 11
63.8840872274039
 21
312.305862047879
 31
0
 12
0
 22
0
 32
0
 70
0
 13
78.80639957992101
 23
325.024800212833
 33
0
 14
75.80639957992101
 24
325.024800212833
 34
0
 53
0
  0
DIMENSION
  8
1
  6
CONTINUOUS
 62
1
  2
*D1
  3
DMST_1
 10
30.9726645274469
 20
325.024800212833
 30
0
 11
26.4726645274469
 21
313.024800212833
 31
0
 12
0
 22
0
 32
0
 70
0
 13
78.80639957992101
 23
301.024800212833
 33
0
 14
75.80639957992101
 24
325.024800212833
 34
0
 50
90
 53
0
  0
DIMENSION
  8
1
  6
CONTINUOUS
 62
1
  2
*D2
  3
DMST_1
 10
30.9726645274469
 20
301.024800212833
 30
0
 11
26.4726645274469
 21
281.024800212833
 31
0
 12
0
 22
0
 32
0
 70
0
 13
57.80639957992101
 23
261.024800212833
 33
0
 14
78.80639957992101
 24
301.024800212833
 34
0
 50
90
 53
0
  0
DIMENSION
  8
1
  6
CONTINUOUS
 62
1
  2
*D3
  3
DMST_1
 10
30.9713535892742
 20
261.024800212833
 30
0
 11
26.4713535892742
 21
243.524800212833
 31
0
 12
0
 22
0
 32
0
 70
0
 13
60.80639957992101
 23
226.024800212833
 33
0
 14
57.80639957992101
 24
261.024800212833
 34
0
 50
90
 53
0
  0
DIMENSION
  8
1
  6
CONTINUOUS
 62
1
  2
*D4
  3
DMST_1
 10
30.8855907434505
 20
226.024800212833
 30
0
 11
26.3855907434505
 21
208.024800212833
 31
0
 12
0
 22
0
 32
0
 70
0
 13
62.80639957992101
 23
190.024800212833
 33
0
 14
60.80639957992101
 24
226.024800212833
 34
0
 50
90
 53
0
  0
DIMENSION
  8
1
  6
CONTINUOUS
 62
1
  2
*D5
  3
DMST_1
 10
30.7169877472942
 20
190.024800212833
 30
0
 11
26.2169877472942
 21
172.524800212833
 31
0
 12
0
 22
0
 32
0
 70
0
 13
62.80639957992101
 23
155.024800212833
 33
0
 14
62.80639957992101
 24
190.024800212833
 34
0
 50
90
 53
0
  0
DIMENSION
  8
1
  6
CONTINUOUS
 62
1
  2
*D6
  3
DMST_1
 10
30.6689854825062
 20
106.024800212833
 30
0
 11
26.1689854825062
 21
130.524800212833
 31
0
 12
0
 22
0
 32
0
 70
0
 13
62.80639957992101
 23
155.024800212833
 33
0
 14
78.80639957992101
 24
106.024800212833
 34
0
 50
90
 53
0
  0
DIMENSION
  8
1
  6
CONTINUOUS
 62
1
  2
*D7
  3
DMST_1
 10
30.6689854825062
 20
106.024800212833
 30
0
 11
26.1689854825062
 21
94.024800212833
 31
0
 12
0
 22
0
 32
0
 70
0
 13
75.80639957992101
 23
82.024800212833
 33
0
 14
78.80639957992101
 24
106.024800212833
 34
0
 50
90
 53
0
  0
DIMENSION
  8
1
  6
CONTINUOUS
 62
1
  2
*D8
  3
DMST_1
 10
62.80639957992101
 20
139.28292973419
 30
0
 11
69.30639957992101
 21
143.78292973419
 31
0
 12
0
 22
0
 32
0
 70
0
 13
75.80639957992101
 23
155.024800212833
 33
0
 14
62.80639957992101
 24
155.024800212833
 34
0
 53
0
  0
DIMENSION
  8
1
  6
CONTINUOUS
 62
1
  2
*D9
  3
DMST_1
 10
75.80639957992101
 20
88.2240301075778
 30
0
 11
93.30639957992099
 21
92.7240301075778
 31
0
 12
0
 22
0
 32
0
 70
0
 13
110.806399579921
 23
115.7988405973891
 33
0
 14
75.80639957992101
 24
82.024800212833
 34
0
 53
0
  0
DIMENSION
  8
1
  6
CONTINUOUS
 62
1
  2
*D10
  3
DMST_1
 10
75.80639957992102
 20
70.15590946606891
 30
0
 11
101.806399579921
 21
74.65590946606891
 31
0
 12
0
 22
0
 32
0
 70
0
 13
127.806399579921
 23
106.024800212833
 33
0
 14
75.80639957992101
 24
82.024800212833
 34
0
 53
0
  0
DIMENSION
  8
1
  6
CONTINUOUS
 62
1
  2
*D11
  3
DMST_1
 10
153.101100121589
 20
106.024800212833
 30
0
 11
148.601100121589
 21
124.024800212833
 31
0
 12
0
 22
0
 32
0
 70
0
  1
.7=36
 13
123.146056811676
 23
142.024800212833
 33
0
 14
127.806399579921
 24
106.024800212833
 34
0
 50
90
 53
0
  0
DIMENSION
  8
1
  6
CONTINUOUS
 62
1
  2
*D12
  3
DMST_1
 10
142.798501831646
 20
34.024800212833
 30
0
 11
138.298501831646
 21
43.524800212833
 31
0
 12
0
 22
0
 32
0
 70
0
 13
127.806399579921
 23
53.024800212833
 33
0
 14
127.806399579921
 24
34.024800212833
 34
0
 50
90
 53
0
  0
DIMENSION
  8
1
  6
CONTINUOUS
 62
1
  2
*D13
  3
DMST_1
 10
153.101100121589
 20
214.024800212833
 30
0
 11
148.601100121589
 21
178.024800212833
 31
0
 12
0
 22
0
 32
0
 70
0
  1
.7=72
 13
123.146056811676
 23
142.024800212833
 33
0
 14
120.706399579921
 24
214.024800212833
 34
0
 50
90
 53
0
  0
DIMENSION
  8
1
  6
CONTINUOUS
 62
1
  2
*D14
  3
DMST_1
 10
153.105508663891
 20
301.024800212833
 30
0
 11
148.605508663891
 21
257.524800212833
 31
0
 12
0
 22
0
 32
0
 70
0
 13
120.706399579921
 23
214.024800212833
 33
0
 14
127.806399579921
 24
301.024800212833
 34
0
 50
90
 53
0
  0
DIMENSION
  8
1
  6
CONTINUOUS
 62
1
  2
*D15
  3
DMST_1
 10
168.197018971559
 20
106.024800212833
 30
0
 11
163.697018971559
 21
203.524800212833
 31
0
 12
0
 22
0
 32
0
 70
0
 13
127.806399579921
 23
301.024800212833
 33
0
 14
127.806399579921
 24
106.024800212833
 34
0
 50
90
 53
0
  0
DIMENSION
  8
1
  6
CONTINUOUS
 62
1
  2
*D16
  3
DMST_1
 10
68.80639957992101
 20
214.476519810358
 30
0
 11
72.30639957992101
 21
218.976519810358
 31
0
 12
0
 22
0
 32
0
 70
0
 13
75.80639957992101
 23
325.024800212833
 33
0
 14
68.80639957992101
 24
226.024800212833
 34
0
 53
0
  0
DIMENSION
  8
1
  6
CONTINUOUS
 62
1
  2
*D17
  3
DMST_1
 10
45.80639957992101
 20
202.03034600949
 30
0
 11
60.80639957992101
 21
206.53034600949
 31
0
 12
0
 22
0
 32
0
 70
0
 13
75.80639957992101
 23
325.024800212833
 33
0
 14
45.80639957992101
 24
241.024800212833
 34
0
 53
0
  0
DIMENSION
  8
1
  6
CONTINUOUS
 62
1
  2
*D18
  3
DMST_1
 10
91.1445920574748
 20
226.024800212833
 30
0
 11
86.6445920574748
 21
231.524800212833
 31
0
 12
0
 22
0
 32
0
 70
0
 13
75.80639957992101
 23
237.024800212833
 33
0
 14
68.80639957992101
 24
226.024800212833
 34
0
 50
90
 53
0
  0
DIMENSION
  8
1
  6
CONTINUOUS
 62
1
  2
*D19
  3
DMST_1
 10
105.7330771496872
 20
234.4002685278551
 30
0
 11
109.4920834856123
 21
239.1034452592224
 31
0
 12
0
 22
0
 32
0
 70
1
 13
114.5915738939675
 23
218.2286621768231
 33
0
 14
106.6025376159309
 24
217.8099745268796
 34
0
 53
0
  0
DIMENSION
  8
1
  6
CONTINUOUS
 62
1
  2
*D20
  3
DMST_1
 10
201.778723690411
 20
82.024800212833
 30
0
 11
197.278723690411
 21
87.024800212833
 31
0
 12
0
 22
0
 32
0
 70
0
 13
223.031399579921
 23
92.024800212833
 33
0
 14
216.806399579921
 24
82.024800212833
 34
0
 50
90
 53
0
  0
DIMENSION
  8
1
  6
CONTINUOUS
 62
1
  2
*D21
  3
DMST_1
 10
201.824587916844
 20
92.02480021283299
 30
0
 11
197.324587916844
 21
203.524800212833
 31
0
 12
0
 22
0
 32
0
 70
0
 13
223.031399579921
 23
315.024800212833
 33
0
 14
223.031399579921
 24
92.024800212833
 34
0
 50
90
 53
0
  0
DIMENSION
  8
1
  6
CONTINUOUS
 62
1
  2
*D22
  3
DMST_1
 10
201.837129029598
 20
315.024800212833
 30
0
 11
197.337129029598
 21
320.024800212833
 31
0
 12
0
 22
0
 32
0
 70
0
 13
216.806399579921
 23
325.024800212833
 33
0
 14
223.031399579921
 24
315.024800212833
 34
0
 50
90
 53
0
  0
DIMENSION
  8
1
  6
CONTINUOUS
 62
1
  2
*D23
  3
DMST_1
 10
221.806399579921
 20
211.138028449306
 30
0
 11
228.806399579921
 21
215.638028449306
 31
0
 12
0
 22
0
 32
0
 70
0
 13
235.806399579921
 23
226.024800212833
 33
0
 14
221.806399579921
 24
226.024800212833
 34
0
 53
0
  0
DIMENSION
  8
1
  6
CONTINUOUS
 62
1
  2
*D24
  3
DMST_1
 10
224.806399579921
 20
141.200315504884
 30
0
 11
228.806399579921
 21
145.700315504884
 31
0
 12
0
 22
0
 32
0
 70
0
 13
232.806399579921
 23
155.024800212833
 33
0
 14
224.806399579921
 24
155.024800212833
 34
0
 53
0
  0
DIMENSION
  8
1
  6
CONTINUOUS
 62
1
  2
*D25
  3
DMST_1
 10
216.806399579921
 20
65.40394597873031
 30
0
 11
228.806399579921
 21
69.90394597873031
 31
0
 12
0
 22
0
 32
0
 70
0
 13
240.806399579921
 23
82.024800212833
 33
0
 14
216.806399579921
 24
82.024800212833
 34
0
 53
0
  0
DIMENSION
  8
1
  6
CONTINUOUS
 62
1
  2
*D26
  3
DMST_1
 10
256.454297915832
 20
82.02480021283299
 30
0
 11
251.954297915832
 21
203.524800212833
 31
0
 12
0
 22
0
 32
0
 70
0
 13
240.806399579921
 23
325.024800212833
 33
0
 14
240.806399579921
 24
82.024800212833
 34
0
 50
90
 53
0
  0
ENDSEC
  0
EOF
