  0
SECTION
  2
HEADER
  9
$ACADVER
  1
AC1015
  9
$ACADMAINTVER
 70
    20
  9
$DWGCODEPAGE
  3
ANSI_1252
  9
$INSBASE
 10
0.0
 20
0.0
 30
0.0
  9
$EXTMIN
 10
5121.873004877547
 20
-2386.377670356756
 30
-0.0000000349181948
  9
$EXTMAX
 10
5696.397510779789
 20
-1566.318371352219
 30
0.0000000814935747
  9
$LIMMIN
 10
0.0
 20
0.0
  9
$LIMMAX
 10
12.0
 20
9.0
  9
$ORTHOMODE
 70
     0
  9
$REGENMODE
 70
     1
  9
$FILLMODE
 70
     1
  9
$QTEXTMODE
 70
     0
  9
$MIRRTEXT
 70
     0
  9
$LTSCALE
 40
1.0
  9
$ATTMODE
 70
     1
  9
$TEXTSIZE
 40
0.2
  9
$TRACEWID
 40
0.05
  9
$TEXTSTYLE
  7
Standard
  9
$CLAYER
  8
Bem 1_10
  9
$CELTYPE
  6
ByLayer
  9
$CECOLOR
 62
   256
  9
$CELTSCALE
 40
1.0
  9
$DISPSILH
 70
     0
  9
$DIMSCALE
 40
1.0
  9
$DIMASZ
 40
2.5
  9
$DIMEXO
 40
0.625
  9
$DIMDLI
 40
3.75
  9
$DIMRND
 40
0.0
  9
$DIMDLE
 40
0.0
  9
$DIMEXE
 40
1.25
  9
$DIMTP
 40
0.0
  9
$DIMTM
 40
0.0
  9
$DIMTXT
 40
2.5
  9
$DIMCEN
 40
2.5
  9
$DIMTSZ
 40
0.0
  9
$DIMTOL
 70
     0
  9
$DIMLIM
 70
     0
  9
$DIMTIH
 70
     0
  9
$DIMTOH
 70
     0
  9
$DIMSE1
 70
     0
  9
$DIMSE2
 70
     0
  9
$DIMTAD
 70
     1
  9
$DIMZIN
 70
     8
  9
$DIMBLK
  1

  9
$DIMASO
 70
     1
  9
$DIMSHO
 70
     1
  9
$DIMPOST
  1

  9
$DIMAPOST
  1

  9
$DIMALT
 70
     0
  9
$DIMALTD
 70
     3
  9
$DIMALTF
 40
0.03937007874016
  9
$DIMLFAC
 40
1.0
  9
$DIMTOFL
 70
     1
  9
$DIMTVP
 40
0.0
  9
$DIMTIX
 70
     0
  9
$DIMSOXD
 70
     0
  9
$DIMSAH
 70
     0
  9
$DIMBLK1
  1

  9
$DIMBLK2
  1

  9
$DIMSTYLE
  2
Bemassungsstil Karl
  9
$DIMCLRD
 70
     0
  9
$DIMCLRE
 70
     0
  9
$DIMCLRT
 70
     0
  9
$DIMTFAC
 40
1.0
  9
$DIMGAP
 40
0.625
  9
$DIMJUST
 70
     0
  9
$DIMSD1
 70
     0
  9
$DIMSD2
 70
     0
  9
$DIMTOLJ
 70
     0
  9
$DIMTZIN
 70
     8
  9
$DIMALTZ
 70
     0
  9
$DIMALTTZ
 70
     0
  9
$DIMUPT
 70
     0
  9
$DIMDEC
 70
     2
  9
$DIMTDEC
 70
     2
  9
$DIMALTU
 70
     2
  9
$DIMALTTD
 70
     3
  9
$DIMTXSTY
  7
Standard
  9
$DIMAUNIT
 70
     0
  9
$DIMADEC
 70
     0
  9
$DIMALTRND
 40
0.0
  9
$DIMAZIN
 70
     0
  9
$DIMDSEP
 70
    44
  9
$DIMATFIT
 70
     3
  9
$DIMFRAC
 70
     0
  9
$DIMLDRBLK
  1

  9
$DIMLUNIT
 70
     2
  9
$DIMLWD
 70
    -2
  9
$DIMLWE
 70
    -2
  9
$DIMTMOVE
 70
     0
  9
$LUNITS
 70
     2
  9
$LUPREC
 70
     4
  9
$SKETCHINC
 40
0.1
  9
$FILLETRAD
 40
6.049999999999998
  9
$AUNITS
 70
     0
  9
$AUPREC
 70
     0
  9
$MENU
  1
.
  9
$ELEVATION
 40
0.0
  9
$PELEVATION
 40
0.0
  9
$THICKNESS
 40
0.0
  9
$LIMCHECK
 70
     0
  9
$CHAMFERA
 40
0.0
  9
$CHAMFERB
 40
0.0
  9
$CHAMFERC
 40
0.0
  9
$CHAMFERD
 40
0.0
  9
$SKPOLY
 70
     0
  9
$TDCREATE
 40
2454889.588798877
  9
$TDUCREATE
 40
2454889.547132211
  9
$TDUPDATE
 40
2454893.712145254
  9
$TDUUPDATE
 40
2454893.670478588
  9
$TDINDWG
 40
0.2791985301
  9
$TDUSRTIMER
 40
0.2791983449
  9
$USRTIMER
 70
     1
  9
$ANGBASE
 50
0.0
  9
$ANGDIR
 70
     0
  9
$PDMODE
 70
     0
  9
$PDSIZE
 40
0.0
  9
$PLINEWID
 40
0.0
  9
$SPLFRAME
 70
     0
  9
$SPLINETYPE
 70
     6
  9
$SPLINESEGS
 70
     8
  9
$HANDSEED
  5
5194F
  9
$SURFTAB1
 70
     6
  9
$SURFTAB2
 70
     6
  9
$SURFTYPE
 70
     6
  9
$SURFU
 70
     6
  9
$SURFV
 70
     6
  9
$UCSBASE
  2

  9
$UCSNAME
  2

  9
$UCSORG
 10
5213.099899658664
 20
-1916.734004584513
 30
0.0
  9
$UCSXDIR
 10
1.0
 20
0.0
 30
0.0
  9
$UCSYDIR
 10
0.0
 20
1.0
 30
0.0
  9
$UCSORTHOREF
  2

  9
$UCSORTHOVIEW
 70
     0
  9
$UCSORGTOP
 10
0.0
 20
0.0
 30
0.0
  9
$UCSORGBOTTOM
 10
0.0
 20
0.0
 30
0.0
  9
$UCSORGLEFT
 10
0.0
 20
0.0
 30
0.0
  9
$UCSORGRIGHT
 10
0.0
 20
0.0
 30
0.0
  9
$UCSORGFRONT
 10
0.0
 20
0.0
 30
0.0
  9
$UCSORGBACK
 10
0.0
 20
0.0
 30
0.0
  9
$PUCSBASE
  2

  9
$PUCSNAME
  2

  9
$PUCSORG
 10
0.0
 20
0.0
 30
0.0
  9
$PUCSXDIR
 10
1.0
 20
0.0
 30
0.0
  9
$PUCSYDIR
 10
0.0
 20
1.0
 30
0.0
  9
$PUCSORTHOREF
  2

  9
$PUCSORTHOVIEW
 70
     0
  9
$PUCSORGTOP
 10
0.0
 20
0.0
 30
0.0
  9
$PUCSORGBOTTOM
 10
0.0
 20
0.0
 30
0.0
  9
$PUCSORGLEFT
 10
0.0
 20
0.0
 30
0.0
  9
$PUCSORGRIGHT
 10
0.0
 20
0.0
 30
0.0
  9
$PUCSORGFRONT
 10
0.0
 20
0.0
 30
0.0
  9
$PUCSORGBACK
 10
0.0
 20
0.0
 30
0.0
  9
$USERI1
 70
     0
  9
$USERI2
 70
     0
  9
$USERI3
 70
     0
  9
$USERI4
 70
     0
  9
$USERI5
 70
     0
  9
$USERR1
 40
0.0
  9
$USERR2
 40
0.0
  9
$USERR3
 40
0.0
  9
$USERR4
 40
0.0
  9
$USERR5
 40
0.0
  9
$WORLDVIEW
 70
     1
  9
$SHADEDGE
 70
     3
  9
$SHADEDIF
 70
    70
  9
$TILEMODE
 70
     1
  9
$MAXACTVP
 70
    64
  9
$PINSBASE
 10
0.0
 20
0.0
 30
0.0
  9
$PLIMCHECK
 70
     0
  9
$PEXTMIN
 10
1.135666597546553
 20
0.7933333558360422
 30
0.0
  9
$PEXTMAX
 10
10.22099937791899
 20
7.140000202524379
 30
0.0
  9
$PLIMMIN
 10
-0.1666668268639272
 20
-0.166666657905879
  9
$PLIMMAX
 10
11.52333297128752
 20
8.099999784484621
  9
$UNITMODE
 70
     0
  9
$VISRETAIN
 70
     1
  9
$PLINEGEN
 70
     0
  9
$PSLTSCALE
 70
     1
  9
$TREEDEPTH
 70
  3020
  9
$CMLSTYLE
  2
Standard
  9
$CMLJUST
 70
     0
  9
$CMLSCALE
 40
1.0
  9
$PROXYGRAPHICS
 70
     1
  9
$MEASUREMENT
 70
     0
  9
$CELWEIGHT
370
    -1
  9
$ENDCAPS
280
     0
  9
$JOINSTYLE
280
     0
  9
$LWDISPLAY
290
     0
  9
$INSUNITS
 70
     1
  9
$HYPERLINKBASE
  1

  9
$STYLESHEET
  1
MONOCHROME.CTB
  9
$XEDIT
290
     1
  9
$CEPSNTYPE
380
     0
  9
$PSTYLEMODE
290
     1
  9
$FINGERPRINTGUID
  2
{B53C778A-82E1-4B51-9FC7-9A823E708445}
  9
$VERSIONGUID
  2
{5066BBD6-9881-4E2F-BE85-F5EF742CFD04}
  9
$EXTNAMES
290
     1
  9
$PSVPSCALE
 40
0.0
  9
$OLESTARTUP
290
     0
  0
ENDSEC
  0
SECTION
  2
CLASSES
  0
CLASS
  1
ACDBDICTIONARYWDFLT
  2
AcDbDictionaryWithDefault
  3
ObjectDBX Classes
 90
        0
280
     0
281
     0
  0
CLASS
  1
ACDBPLACEHOLDER
  2
AcDbPlaceHolder
  3
ObjectDBX Classes
 90
        0
280
     0
281
     0
  0
CLASS
  1
LAYOUT
  2
AcDbLayout
  3
ObjectDBX Classes
 90
        0
280
     0
281
     0
  0
CLASS
  1
PLOTSETTINGS
  2
AcDbPlotSettings
  3
ObjectDBX Classes
 90
    32768
280
     0
281
     0
  0
CLASS
  1
MATERIAL
  2
AcDbMaterial
  3
ObjectDBX Classes
 90
     1024
280
     0
281
     0
  0
CLASS
  1
VISUALSTYLE
  2
AcDbVisualStyle
  3
ObjectDBX Classes
 90
     4095
280
     0
281
     0
  0
CLASS
  1
TABLESTYLE
  2
AcDbTableStyle
  3
ObjectDBX Classes
 90
     4095
280
     0
281
     0
  0
CLASS
  1
DICTIONARYVAR
  2
AcDbDictionaryVar
  3
ObjectDBX Classes
 90
        0
280
     0
281
     0
  0
CLASS
  1
SORTENTSTABLE
  2
AcDbSortentsTable
  3
ObjectDBX Classes
 90
        0
280
     0
281
     0
  0
CLASS
  1
DIMASSOC
  2
AcDbDimAssoc
  3
"AcDbDimAssoc|Product Desc:     AcDim ARX App For Dimension|Company:          Autodesk, Inc.|WEB Address:      www.autodesk.com"
 90
    32768
280
     0
281
     0
  0
CLASS
  1
ARC_DIMENSION
  2
AcDbArcDimension
  3
ObjectDBX Classes
 90
     1025
280
     0
281
     1
  0
ENDSEC
  0
SECTION
  2
TABLES
  0
TABLE
  2
VPORT
  5
19
330
0
100
AcDbSymbolTable
 70
     1
  0
VPORT
  5
9C
330
19
100
AcDbSymbolTableRecord
100
AcDbViewportTableRecord
  2
*Active
 70
     0
 10
0.0
 20
0.0
 11
1.0
 21
1.0
 12
5409.135257828668
 22
-1976.348020854487
 13
0.0
 23
0.0
 14
0.5
 24
0.5
 15
0.5
 25
0.5
 16
0.0
 26
0.0
 36
1.0
 17
0.0
 27
0.0
 37
0.0
 40
826.6373147719523
 41
1.278447121820615
 42
50.0
 43
0.0
 44
0.0
 50
0.0
 51
0.0
 71
     0
 72
  1000
 73
     1
 74
     3
 75
     0
 76
     0
 77
     0
 78
     1
281
     0
 65
     1
110
0.0
120
0.0
130
0.0
111
1.0
121
0.0
131
0.0
112
0.0
122
1.0
132
0.0
 79
     0
146
0.0
  0
ENDTAB
  0
TABLE
  2
LTYPE
  5
14
330
0
100
AcDbSymbolTable
 70
     4
  0
LTYPE
  5
15
330
14
100
AcDbSymbolTableRecord
100
AcDbLinetypeTableRecord
  2
ByBlock
 70
     0
  3

 72
    65
 73
     0
 40
0.0
  0
LTYPE
  5
16
330
14
100
AcDbSymbolTableRecord
100
AcDbLinetypeTableRecord
  2
ByLayer
 70
     0
  3

 72
    65
 73
     0
 40
0.0
  0
LTYPE
  5
8
330
14
100
AcDbSymbolTableRecord
100
AcDbLinetypeTableRecord
  2
Continuous
 70
     0
  3
Solid line
 72
    65
 73
     0
 40
0.0
  0
LTYPE
  5
725
330
14
100
AcDbSymbolTableRecord
100
AcDbLinetypeTableRecord
  2
DASHED
 70
     0
  3
Style 1 Dashed Line
 72
    65
 73
     2
 40
0.3
 49
0.17
 74
     0
 49
-0.13
 74
     0
  0
LTYPE
  5
727
330
14
100
AcDbSymbolTableRecord
100
AcDbLinetypeTableRecord
  2
DASHDOT
 70
     0
  3
 __ . __ . __ . __ . __ . __ . __ . 
 72
    65
 73
     4
 40
18.5
 49
12.0
 74
     0
 49
-3.0
 74
     0
 49
0.5
 74
     0
 49
-3.0
 74
     0
  0
LTYPE
  5
41424
330
14
100
AcDbSymbolTableRecord
100
AcDbLinetypeTableRecord
  2
MCLT_DSH4
 70
     0
  3
Style 2 Dashed Line 4
 72
    65
 73
     2
 40
0.36
 49
0.28
 74
     0
 49
-0.08
 74
     0
  0
ENDTAB
  0
TABLE
  2
LAYER
  5
10
102
{ACAD_XDICTIONARY
360
73F
102
}
330
0
100
AcDbSymbolTable
 70
    12
  0
LAYER
  5
4
330
10
100
AcDbSymbolTableRecord
100
AcDbLayerTableRecord
  2
0
 70
     0
 62
     7
  6
Continuous
370
    -3
390
5
  0
LAYER
  5
72D
330
10
100
AcDbSymbolTableRecord
100
AcDbLayerTableRecord
  2
DEFPOINTS
 70
     0
 62
     7
  6
Continuous
290
     0
370
    -3
390
5
  0
LAYER
  5
72E
330
10
100
AcDbSymbolTableRecord
100
AcDbLayerTableRecord
  2
Achse
 70
     0
 62
     7
  6
DASHDOT
370
    18
390
5
  0
LAYER
  5
72F
330
10
100
AcDbSymbolTableRecord
100
AcDbLayerTableRecord
  2
Konstruktionslinie
 70
     0
 62
     3
  6
Continuous
370
    -3
390
5
  0
LAYER
  5
735
330
10
100
AcDbSymbolTableRecord
100
AcDbLayerTableRecord
  2
Planrand
 70
     0
 62
     7
  6
Continuous
370
    30
390
5
  0
LAYER
  5
5086E
330
10
100
AcDbSymbolTableRecord
100
AcDbLayerTableRecord
  2
mansfen
 70
     0
 62
     1
  6
MCLT_DSH4
290
     0
370
    18
390
5
1001
AcAecLayerStandard
1000

1000

  0
LAYER
  5
50A89
330
10
100
AcDbSymbolTableRecord
100
AcDbLayerTableRecord
  2
Bem 1_10
 70
     0
 62
     9
  6
Continuous
370
    15
390
5
1001
AcAecLayerStandard
1000

1000

  0
LAYER
  5
50E79
330
10
100
AcDbSymbolTableRecord
100
AcDbLayerTableRecord
  2
V1_035
 70
     0
 62
     3
  6
Continuous
370
    35
390
5
1001
AcAecLayerStandard
1000

1000

  0
LAYER
  5
50E7C
330
10
100
AcDbSymbolTableRecord
100
AcDbLayerTableRecord
  2
V1_025
 70
     0
 62
     4
  6
Continuous
370
    25
390
5
1001
AcAecLayerStandard
1000

1000

  0
LAYER
  5
50E7F
330
10
100
AcDbSymbolTableRecord
100
AcDbLayerTableRecord
  2
V1_015
 70
     0
 62
     9
  6
Continuous
370
    15
390
5
1001
AcAecLayerStandard
1000

1000

  0
LAYER
  5
50E93
330
10
100
AcDbSymbolTableRecord
100
AcDbLayerTableRecord
  2
V1_015 schimmer
 70
     0
 62
   253
  6
Continuous
370
    15
390
5
1001
AcAecLayerStandard
1000

1000

  0
LAYER
  5
517BD
330
10
100
AcDbSymbolTableRecord
100
AcDbLayerTableRecord
  2
Punkte
 70
     0
 62
     1
  6
Continuous
370
    20
390
5
1001
AcAecLayerStandard
1000

1000

  0
ENDTAB
  0
TABLE
  2
STYLE
  5
11
330
0
100
AcDbSymbolTable
 70
     3
  0
STYLE
  5
12
330
11
100
AcDbSymbolTableRecord
100
AcDbTextStyleTableRecord
  2
Standard
 70
     0
 40
0.0
 41
1.0
 50
0.0
 71
     0
 42
0.2
  3
txt
  4

  0
STYLE
  5
73A
330
11
100
AcDbSymbolTableRecord
100
AcDbTextStyleTableRecord
  2
MICROCADAM
 70
     0
 40
5.0
 41
1.0
 50
0.0
 71
     0
 42
30.0
  3
monos.ttf
  4

1001
ACAD
1000
Monospac821 BT
1071
       49
  0
STYLE
  5
50ADF
330
11
100
AcDbSymbolTableRecord
100
AcDbTextStyleTableRecord
  2
Beschlag
 70
     0
 40
0.0
 41
0.9
 50
0.0
 71
     0
 42
3.5
  3
ARIAL.TTF
  4

1001
ACAD
1000
Arial
1071
       34
  0
ENDTAB
  0
TABLE
  2
VIEW
  5
17
330
0
100
AcDbSymbolTable
 70
     0
  0
ENDTAB
  0
TABLE
  2
UCS
  5
18
330
0
100
AcDbSymbolTable
 70
     0
  0
ENDTAB
  0
TABLE
  2
APPID
  5
1B
330
0
100
AcDbSymbolTable
 70
     8
  0
APPID
  5
1C
330
1B
100
AcDbSymbolTableRecord
100
AcDbRegAppTableRecord
  2
ACAD
 70
     0
  0
APPID
  5
73E
330
1B
100
AcDbSymbolTableRecord
100
AcDbRegAppTableRecord
  2
ACAD_PSEXT
 70
     0
  0
APPID
  5
163EB
330
1B
100
AcDbSymbolTableRecord
100
AcDbRegAppTableRecord
  2
ANTLOG
 70
     0
  0
APPID
  5
24340
330
1B
100
AcDbSymbolTableRecord
100
AcDbRegAppTableRecord
  2
AcAecLayerStandard
 70
     0
  0
APPID
  5
31BD0
330
1B
100
AcDbSymbolTableRecord
100
AcDbRegAppTableRecord
  2
RAK
 70
     0
  0
APPID
  5
31BD1
330
1B
100
AcDbSymbolTableRecord
100
AcDbRegAppTableRecord
  2
ACAD_DSTYLE_DIMJOGGED_JOGANGLE_SYMBOL
 70
     0
  0
APPID
  5
31BD2
330
1B
100
AcDbSymbolTableRecord
100
AcDbRegAppTableRecord
  2
AcadStringInfo
 70
     0
  0
APPID
  5
5085A
330
1B
100
AcDbSymbolTableRecord
100
AcDbRegAppTableRecord
  2
ACAD_EXEMPT_FROM_CAD_STANDARDS
 70
     0
  0
ENDTAB
  0
TABLE
  2
DIMSTYLE
  5
1D
330
0
100
AcDbSymbolTable
 70
     2
100
AcDbDimStyleTable
 71
     2
340
50EBB
340
24
  0
DIMSTYLE
105
24
330
1D
100
AcDbSymbolTableRecord
100
AcDbDimStyleTableRecord
  2
Standard
 70
     0
340
12
  0
DIMSTYLE
105
50EBB
102
{ACAD_REACTORS
330
51748
330
5175D
330
5183D
330
51846
330
5184F
330
5185F
330
51868
330
51872
330
5187B
330
51885
330
5188F
330
51898
330
518B5
330
518BE
330
518C7
330
518FB
330
51904
330
5190D
330
51920
330
51930
330
5193A
102
}
330
1D
100
AcDbSymbolTableRecord
100
AcDbDimStyleTableRecord
  2
Bemassungsstil Karl
 70
     0
 41
2.5
 42
0.625
 43
3.75
 44
1.25
 73
     0
 74
     0
 77
     1
 78
     8
140
2.5
141
2.5
143
0.03937007874016
147
0.625
171
     3
172
     1
271
     2
272
     2
274
     3
278
    44
283
     0
284
     8
340
12
  0
ENDTAB
  0
TABLE
  2
BLOCK_RECORD
  5
1
330
0
100
AcDbSymbolTable
 70
    25
  0
BLOCK_RECORD
  5
2
102
{ACAD_XDICTIONARY
360
75C6
102
}
330
1
100
AcDbSymbolTableRecord
100
AcDbBlockTableRecord
  2
*Model_Space
340
A
  0
BLOCK_RECORD
  5
517F6
330
1
100
AcDbSymbolTableRecord
100
AcDbBlockTableRecord
  2
*Paper_Space
340
517F7
  0
BLOCK_RECORD
  5
50BCD
330
1
100
AcDbSymbolTableRecord
100
AcDbBlockTableRecord
  2
BLOCK3
340
0
310
2800000020000000200000000100080000000000000400000000000000000000000000000000000000000000000080000080000000808000800000008000800080800000C0C0C000C0DCC000F0CAA6000020400000206000002080000020A0000020C0000020E00000400000004020000040400000406000004080000040A0
310
000040C0000040E00000600000006020000060400000606000006080000060A0000060C0000060E00000800000008020000080400000806000008080000080A0000080C0000080E00000A0000000A0200000A0400000A0600000A0800000A0A00000A0C00000A0E00000C0000000C0200000C0400000C0600000C0800000C0
310
A00000C0C00000C0E00000E0000000E0200000E0400000E0600000E0800000E0A00000E0C00000E0E00040000000400020004000400040006000400080004000A0004000C0004000E00040200000402020004020400040206000402080004020A0004020C0004020E000404000004040200040404000404060004040800040
310
40A0004040C0004040E00040600000406020004060400040606000406080004060A0004060C0004060E00040800000408020004080400040806000408080004080A0004080C0004080E00040A0000040A0200040A0400040A0600040A0800040A0A00040A0C00040A0E00040C0000040C0200040C0400040C0600040C08000
310
40C0A00040C0C00040C0E00040E0000040E0200040E0400040E0600040E0800040E0A00040E0C00040E0E00080000000800020008000400080006000800080008000A0008000C0008000E00080200000802020008020400080206000802080008020A0008020C0008020E00080400000804020008040400080406000804080
310
008040A0008040C0008040E00080600000806020008060400080606000806080008060A0008060C0008060E00080800000808020008080400080806000808080008080A0008080C0008080E00080A0000080A0200080A0400080A0600080A0800080A0A00080A0C00080A0E00080C0000080C0200080C0400080C0600080C0
310
800080C0A00080C0C00080C0E00080E0000080E0200080E0400080E0600080E0800080E0A00080E0C00080E0E000C0000000C0002000C0004000C0006000C0008000C000A000C000C000C000E000C0200000C0202000C0204000C0206000C0208000C020A000C020C000C020E000C0400000C0402000C0404000C0406000C0
310
408000C040A000C040C000C040E000C0600000C0602000C0604000C0606000C0608000C060A000C060C000C060E000C0800000C0802000C0804000C0806000C0808000C080A000C080C000C080E000C0A00000C0A02000C0A04000C0A06000C0A08000C0A0A000C0A0C000C0A0E000C0C00000C0C02000C0C04000C0C06000
310
C0C08000C0C0A000F0FBFF00A4A0A000808080000000FF0000FF000000FFFF00FF000000FF00FF00FFFF0000FFFFFF00000000000000000000000000000000000000000000000000000000000000000000000000000000000000000000FF00FFFFFFFF0000000000000000000000000000000000000000000000000000FFFF
310
FFFFFFFF0000000000000000000000000000000000000000000000000000FFFFFFFFFFFF000000000000000000000000000000000000000000000000000000FFFFFFFFFF0000000000000000000000000000000000000000000000000000FFFFFFFFFFFF000000000000000000000000000000000000000000000000000000
310
FFFFFFFFFF0000000000000000000000000000000000000000000000000000FFFFFFFFFFFF000000000000000000000000000000000000000000000000000000FFFFFFFFFF0000000000000000000000000000000000000000000000000000FFFFFFFFFFFF0000000000000000000000000000000000000000000000000000
310
00FFFFFFFF00000000000000000000000000000000000000000000000000000000FFFFFFFFFF000000000000000000000000000000000000000000000000000000FF00FFFF00000000000000000000000000000000000000000000000000000000FFFFFFFFFF00000000000000000000000000000000000000000000000000
310
0000FFFFFFFFFF000000000000000000000000000000000000000000000000000000FFFFFFFFFF000000000000000000000000000000000000000000000000000000FFFFFFFFFF0000000000000000000000000000000000000000000000000000FFFFFFFFFFFF000000000000000000000000000000000000000000000000
310
000000FFFFFF0000000000000000000000000000000000000000000000000000000000FFFFFF0000000000000000000000000000000000000000000000000000000000FFFFFF00000000000000000000000000000000000000000000000000000000FFFFFFFF00000000000000000000000000000000000000000000000000
310
00000000FFFFFF0000000000000000000000000000000000000000000000000000000000FFFFFF0000000000000000000000000000000000000000000000000000000000FFFFFF00000000000000000000000000000000000000000000000000000000FFFFFFFF000000000000000000000000000000000000000000000000
310
0000000000FFFFFF00000000000000000000000000000000000000000000000000000000FFFFFFFF00000000000000000000000000000000000000000000000000000000FFFFFFFF0000000000000000000000000000000000000000000000000000000000FFFFFF0000000000000000000000000000000000000000000000
310
000000000000FF00000000000000000000000000000000000000000000000000000000000000000000000000000000000000000000000000
  0
BLOCK_RECORD
  5
50BD3
330
1
100
AcDbSymbolTableRecord
100
AcDbBlockTableRecord
  2
BLOCK4
340
0
310
2800000020000000200000000100080000000000000400000000000000000000000000000000000000000000000080000080000000808000800000008000800080800000C0C0C000C0DCC000F0CAA6000020400000206000002080000020A0000020C0000020E00000400000004020000040400000406000004080000040A0
310
000040C0000040E00000600000006020000060400000606000006080000060A0000060C0000060E00000800000008020000080400000806000008080000080A0000080C0000080E00000A0000000A0200000A0400000A0600000A0800000A0A00000A0C00000A0E00000C0000000C0200000C0400000C0600000C0800000C0
310
A00000C0C00000C0E00000E0000000E0200000E0400000E0600000E0800000E0A00000E0C00000E0E00040000000400020004000400040006000400080004000A0004000C0004000E00040200000402020004020400040206000402080004020A0004020C0004020E000404000004040200040404000404060004040800040
310
40A0004040C0004040E00040600000406020004060400040606000406080004060A0004060C0004060E00040800000408020004080400040806000408080004080A0004080C0004080E00040A0000040A0200040A0400040A0600040A0800040A0A00040A0C00040A0E00040C0000040C0200040C0400040C0600040C08000
310
40C0A00040C0C00040C0E00040E0000040E0200040E0400040E0600040E0800040E0A00040E0C00040E0E00080000000800020008000400080006000800080008000A0008000C0008000E00080200000802020008020400080206000802080008020A0008020C0008020E00080400000804020008040400080406000804080
310
008040A0008040C0008040E00080600000806020008060400080606000806080008060A0008060C0008060E00080800000808020008080400080806000808080008080A0008080C0008080E00080A0000080A0200080A0400080A0600080A0800080A0A00080A0C00080A0E00080C0000080C0200080C0400080C0600080C0
310
800080C0A00080C0C00080C0E00080E0000080E0200080E0400080E0600080E0800080E0A00080E0C00080E0E000C0000000C0002000C0004000C0006000C0008000C000A000C000C000C000E000C0200000C0202000C0204000C0206000C0208000C020A000C020C000C020E000C0400000C0402000C0404000C0406000C0
310
408000C040A000C040C000C040E000C0600000C0602000C0604000C0606000C0608000C060A000C060C000C060E000C0800000C0802000C0804000C0806000C0808000C080A000C080C000C080E000C0A00000C0A02000C0A04000C0A06000C0A08000C0A0A000C0A0C000C0A0E000C0C00000C0C02000C0C04000C0C06000
310
C0C08000C0C0A000F0FBFF00A4A0A000808080000000FF0000FF000000FFFF00FF000000FF00FF00FFFF0000FFFFFF00000000000000000000000000000000000000000000000000000000000000000000000000000000000000000000FFFFFFFFFF000000000000000000000000000000000000000000000000000000FFFF
310
FFFFFF00000000000000000000000000000000000000000000000000000000FFFFFFFFFF0000000000000000000000000000000000000000000000000000FFFFFFFFFF00000000000000000000000000000000000000000000000000000000FFFFFFFF000000000000000000000000000000000000000000000000000000FF
310
FFFFFFFF00000000000000000000000000000000000000000000000000000000FFFFFFFF00000000000000000000000000000000000000000000000000000000FFFFFFFF000000000000000000000000000000000000000000000000000000FFFFFFFFFF000000000000000000000000000000000000000000000000000000
310
FFFFFFFFFF00000000000000000000000000000000000000000000000000000000FFFFFFFF00000000000000000000000000000000000000000000000000000000FFFFFFFF000000000000000000000000000000000000000000000000000000FFFFFFFFFF0000000000000000000000000000000000000000000000000000
310
0000FFFFFFFF00000000000000000000000000000000000000000000000000000000FFFFFF0000000000000000000000000000000000000000000000000000000000FFFFFF0000000000000000000000000000000000000000000000000000000000FFFFFF0000000000000000000000000000000000000000000000000000
310
0000FFFFFFFF00000000000000000000000000000000000000000000000000000000FFFFFFFF00000000000000000000000000000000000000000000000000000000FFFFFFFF0000000000000000000000000000000000000000000000000000000000FFFFFF00000000000000000000000000000000000000000000000000
310
000000FFFFFFFF0000000000000000000000000000000000000000000000000000000000FFFFFF0000000000000000000000000000000000000000000000000000000000FFFFFF0000000000000000000000000000000000000000000000000000000000FFFFFF000000000000000000000000000000000000000000000000
310
0000000000FF000000000000000000000000000000000000000000000000000000000000FFFF00000000000000000000000000000000000000000000000000000000000000FFFF000000000000000000000000000000000000000000000000000000000000FF00000000000000000000000000000000000000000000000000
310
000000000000FF00000000000000000000000000000000000000000000000000000000000000000000000000000000000000000000000000
  0
BLOCK_RECORD
  5
50BD9
330
1
100
AcDbSymbolTableRecord
100
AcDbBlockTableRecord
  2
BLOCK5
340
0
310
2800000020000000200000000100080000000000000400000000000000000000000000000000000000000000000080000080000000808000800000008000800080800000C0C0C000C0DCC000F0CAA6000020400000206000002080000020A0000020C0000020E00000400000004020000040400000406000004080000040A0
310
000040C0000040E00000600000006020000060400000606000006080000060A0000060C0000060E00000800000008020000080400000806000008080000080A0000080C0000080E00000A0000000A0200000A0400000A0600000A0800000A0A00000A0C00000A0E00000C0000000C0200000C0400000C0600000C0800000C0
310
A00000C0C00000C0E00000E0000000E0200000E0400000E0600000E0800000E0A00000E0C00000E0E00040000000400020004000400040006000400080004000A0004000C0004000E00040200000402020004020400040206000402080004020A0004020C0004020E000404000004040200040404000404060004040800040
310
40A0004040C0004040E00040600000406020004060400040606000406080004060A0004060C0004060E00040800000408020004080400040806000408080004080A0004080C0004080E00040A0000040A0200040A0400040A0600040A0800040A0A00040A0C00040A0E00040C0000040C0200040C0400040C0600040C08000
310
40C0A00040C0C00040C0E00040E0000040E0200040E0400040E0600040E0800040E0A00040E0C00040E0E00080000000800020008000400080006000800080008000A0008000C0008000E00080200000802020008020400080206000802080008020A0008020C0008020E00080400000804020008040400080406000804080
310
008040A0008040C0008040E00080600000806020008060400080606000806080008060A0008060C0008060E00080800000808020008080400080806000808080008080A0008080C0008080E00080A0000080A0200080A0400080A0600080A0800080A0A00080A0C00080A0E00080C0000080C0200080C0400080C0600080C0
310
800080C0A00080C0C00080C0E00080E0000080E0200080E0400080E0600080E0800080E0A00080E0C00080E0E000C0000000C0002000C0004000C0006000C0008000C000A000C000C000C000E000C0200000C0202000C0204000C0206000C0208000C020A000C020C000C020E000C0400000C0402000C0404000C0406000C0
310
408000C040A000C040C000C040E000C0600000C0602000C0604000C0606000C0608000C060A000C060C000C060E000C0800000C0802000C0804000C0806000C0808000C080A000C080C000C080E000C0A00000C0A02000C0A04000C0A06000C0A08000C0A0A000C0A0C000C0A0E000C0C00000C0C02000C0C04000C0C06000
310
C0C08000C0C0A000F0FBFF00A4A0A000808080000000FF0000FF000000FFFF00FF000000FF00FF00FFFF0000FFFFFF00000000000000000000000000000000000000000000000000000000000000000000000000000000000000000000FFFFFF00FFFF0000000000000000000000000000000000000000000000000000FFFF
310
FFFFFFFF0000000000000000000000000000000000000000000000000000FFFFFFFFFFFF0000000000000000000000000000000000000000000000000000FFFFFFFFFFFF0000000000000000000000000000000000000000000000000000FFFFFF00FFFF0000000000000000000000000000000000000000000000000000FF
310
FFFFFFFFFF0000000000000000000000000000000000000000000000000000FFFFFFFFFFFF0000000000000000000000000000000000000000000000000000FFFFFFFFFFFF0000000000000000000000000000000000000000000000000000FFFFFFFFFFFF0000000000000000000000000000000000000000000000000000
310
FFFFFFFFFFFF0000000000000000000000000000000000000000000000000000FFFFFFFFFFFF0000000000000000000000000000000000000000000000000000FFFFFFFFFFFF0000000000000000000000000000000000000000000000000000FFFFFFFFFFFF00000000000000000000000000000000000000000000000000
310
00FFFFFFFFFFFF0000000000000000000000000000000000000000000000000000FFFFFFFFFFFF0000000000000000000000000000000000000000000000000000FFFFFFFFFFFF0000000000000000000000000000000000000000000000000000FFFFFFFFFFFF000000000000000000000000000000000000000000000000
310
0000FFFFFFFFFFFF0000000000000000000000000000000000000000000000000000FFFFFFFFFFFF0000000000000000000000000000000000000000000000000000FFFFFFFF00000000000000000000000000000000000000000000000000000000FFFFFFFF00000000000000000000000000000000000000000000000000
310
000000FFFFFFFF00000000000000000000000000000000000000000000000000000000FFFFFFFF00000000000000000000000000000000000000000000000000000000FFFFFFFF00000000000000000000000000000000000000000000000000000000FFFFFFFF000000000000000000000000000000000000000000000000
310
00000000FFFFFFFF00000000000000000000000000000000000000000000000000000000FFFFFFFF00000000000000000000000000000000000000000000000000000000FFFF000000000000000000000000000000000000000000000000000000000000FFFF00000000000000000000000000000000000000000000000000
310
0000000000FF0000000000000000000000000000000000000000000000000000000000000000000000000000000000000000000000000000
  0
BLOCK_RECORD
  5
51749
330
1
100
AcDbSymbolTableRecord
100
AcDbBlockTableRecord
  2
*D3
340
0
  0
BLOCK_RECORD
  5
5175E
330
1
100
AcDbSymbolTableRecord
100
AcDbBlockTableRecord
  2
*D4
340
0
  0
BLOCK_RECORD
  5
5182F
330
1
100
AcDbSymbolTableRecord
100
AcDbBlockTableRecord
  2
*D5
340
0
  0
BLOCK_RECORD
  5
5183E
330
1
100
AcDbSymbolTableRecord
100
AcDbBlockTableRecord
  2
*D6
340
0
  0
BLOCK_RECORD
  5
51847
330
1
100
AcDbSymbolTableRecord
100
AcDbBlockTableRecord
  2
*D7
340
0
  0
BLOCK_RECORD
  5
51850
330
1
100
AcDbSymbolTableRecord
100
AcDbBlockTableRecord
  2
*D8
340
0
  0
BLOCK_RECORD
  5
51860
330
1
100
AcDbSymbolTableRecord
100
AcDbBlockTableRecord
  2
*D9
340
0
  0
BLOCK_RECORD
  5
51869
330
1
100
AcDbSymbolTableRecord
100
AcDbBlockTableRecord
  2
*D10
340
0
  0
BLOCK_RECORD
  5
51873
330
1
100
AcDbSymbolTableRecord
100
AcDbBlockTableRecord
  2
*D11
340
0
  0
BLOCK_RECORD
  5
5187C
330
1
100
AcDbSymbolTableRecord
100
AcDbBlockTableRecord
  2
*D12
340
0
  0
BLOCK_RECORD
  5
51886
330
1
100
AcDbSymbolTableRecord
100
AcDbBlockTableRecord
  2
*D13
340
0
  0
BLOCK_RECORD
  5
51890
330
1
100
AcDbSymbolTableRecord
100
AcDbBlockTableRecord
  2
*D14
340
0
  0
BLOCK_RECORD
  5
51899
330
1
100
AcDbSymbolTableRecord
100
AcDbBlockTableRecord
  2
*D15
340
0
  0
BLOCK_RECORD
  5
518B6
330
1
100
AcDbSymbolTableRecord
100
AcDbBlockTableRecord
  2
*D16
340
0
  0
BLOCK_RECORD
  5
518BF
330
1
100
AcDbSymbolTableRecord
100
AcDbBlockTableRecord
  2
*D17
340
0
  0
BLOCK_RECORD
  5
518C8
330
1
100
AcDbSymbolTableRecord
100
AcDbBlockTableRecord
  2
*D18
340
0
  0
BLOCK_RECORD
  5
518FC
330
1
100
AcDbSymbolTableRecord
100
AcDbBlockTableRecord
  2
*D19
340
0
  0
BLOCK_RECORD
  5
51905
330
1
100
AcDbSymbolTableRecord
100
AcDbBlockTableRecord
  2
*D20
340
0
  0
BLOCK_RECORD
  5
5190E
330
1
100
AcDbSymbolTableRecord
100
AcDbBlockTableRecord
  2
*D21
340
0
  0
BLOCK_RECORD
  5
51921
330
1
100
AcDbSymbolTableRecord
100
AcDbBlockTableRecord
  2
*D22
340
0
  0
BLOCK_RECORD
  5
51931
330
1
100
AcDbSymbolTableRecord
100
AcDbBlockTableRecord
  2
*D23
340
0
  0
BLOCK_RECORD
  5
5193B
330
1
100
AcDbSymbolTableRecord
100
AcDbBlockTableRecord
  2
*D24
340
0
  0
ENDTAB
  0
ENDSEC
  0
SECTION
  2
BLOCKS
  0
BLOCK
  5
3
330
2
100
AcDbEntity
  8
0
100
AcDbBlockBegin
  2
*Model_Space
 70
     2
 10
0.0
 20
0.0
 30
0.0
  3
*Model_Space
  1

  0
ENDBLK
  5
9
330
2
100
AcDbEntity
  8
0
100
AcDbBlockEnd
  0
BLOCK
  5
517F8
330
517F6
100
AcDbEntity
 67
     1
  8
0
100
AcDbBlockBegin
  2
*Paper_Space
 70
     0
 10
0.0
 20
0.0
 30
0.0
  3
*Paper_Space
  1

  0
ENDBLK
  5
517F9
330
517F6
100
AcDbEntity
 67
     1
  8
0
100
AcDbBlockEnd
  0
BLOCK
  5
50BCE
330
50BCD
100
AcDbEntity
  8
0
100
AcDbBlockBegin
  2
BLOCK3
 70
     0
 10
0.0
 20
0.0
 30
0.0
  3
BLOCK3
  1

  0
TEXT
  5
50BCF
330
50BCD
100
AcDbEntity
  8
0
 62
     7
100
AcDbText
 10
9.427718999999999
 20
200.000641
 30
0.0
 40
1.8
  1
This drawing is our property and cannot either
 50
90.00000222209703
 41
0.6662675322997425
 72
     5
 11
9.427716999999999
 21
251.569748
 31
0.0
100
AcDbText
  0
TEXT
  5
50BD0
330
50BCD
100
AcDbEntity
  8
0
 62
     7
100
AcDbText
 10
12.429388
 20
200.000641
 30
0.0
 40
1.8
  1
be utilized for an other purpose or copied nor
 50
90.00000226095146
 41
0.6522894723294735
 72
     5
 11
12.429386
 21
250.683533
 31
0.0
100
AcDbText
  0
TEXT
  5
50BD1
330
50BCD
100
AcDbEntity
  8
0
 62
     7
100
AcDbText
 10
15.431057
 20
200.000641
 30
0.0
 40
1.8
  1
made available to a third.
 50
90.00000203616361
 41
0.6896834313725501
 72
     5
 11
15.431056
 21
228.139725
 31
0.0
100
AcDbText
  0
ENDBLK
  5
50BD2
330
50BCD
100
AcDbEntity
  8
0
100
AcDbBlockEnd
  0
BLOCK
  5
50BD4
330
50BD3
100
AcDbEntity
  8
0
100
AcDbBlockBegin
  2
BLOCK4
 70
     0
 10
0.0
 20
0.0
 30
0.0
  3
BLOCK4
  1

  0
TEXT
  5
50BD5
330
50BD3
100
AcDbEntity
  8
0
 62
     7
100
AcDbText
 10
9.395574999999999
 20
120.008095
 30
0.0
 40
1.8
  1
Ce dessin est de notre propriété et ne peut pas
 50
90.00000217728107
 41
0.6449825612745094
 72
     5
 11
9.395572999999997
 21
172.6386719999999
 31
0.0
100
AcDbText
  0
TEXT
  5
50BD6
330
50BD3
100
AcDbEntity
  8
0
 62
     7
100
AcDbText
 10
12.397243
 20
120.008095
 30
0.0
 40
1.8
  1
être utilisé ailleurs, ni reproduit ou mis à
 50
90.00000129046984
 41
0.6548548967551633
 72
     5
 11
12.397242
 21
164.407257
 31
0.0
100
AcDbText
  0
TEXT
  5
50BD7
330
50BD3
100
AcDbEntity
  8
0
 62
     7
100
AcDbText
 10
15.398912
 20
120.008095
 30
0.0
 40
1.8
  1
disposition d'un tiers.
 50
90.00000242313126
 41
0.697502861356932
 72
     5
 11
15.398911
 21
143.653442
 31
0.0
100
AcDbText
  0
ENDBLK
  5
50BD8
330
50BD3
100
AcDbEntity
  8
0
100
AcDbBlockEnd
  0
BLOCK
  5
50BDA
330
50BD9
100
AcDbEntity
  8
0
100
AcDbBlockBegin
  2
BLOCK5
 70
     0
 10
0.0
 20
0.0
 30
0.0
  3
BLOCK5
  1

  0
TEXT
  5
50BDB
330
50BD9
100
AcDbEntity
  8
0
 62
     7
100
AcDbText
 10
8.717264
 20
41.997219
 30
0.0
 40
2.0
  1
Diese Zeichnung ist unser Eigentum und darf
 50
90.00000306166146
 41
0.7017731249999999
 72
     5
 11
8.717261
 21
98.139069
 31
0.0
100
AcDbText
  0
TEXT
  5
50BDC
330
50BD9
100
AcDbEntity
  8
0
 62
     7
100
AcDbText
 10
12.052452
 20
41.997219
 30
0.0
 40
2.0
  1
weder verwertet, vervielfältigt noch Dritten
 50
90.00000221184793
 41
0.6449136597510375
 72
     5
 11
12.05245
 21
93.80528299999999
 31
0.0
100
AcDbText
  0
TEXT
  5
50BDD
330
50BD9
100
AcDbEntity
  8
0
 62
     7
100
AcDbText
 10
15.38764
 20
41.997219
 30
0.0
 40
2.0
  1
zugänglich gemacht werden.
 50
90.00000318088742
 41
0.7557698181818184
 72
     5
 11
15.387638
 21
78.022247
 31
0.0
100
AcDbText
  0
ENDBLK
  5
50BDE
330
50BD9
100
AcDbEntity
  8
0
100
AcDbBlockEnd
  0
BLOCK
  5
51753
330
51749
100
AcDbEntity
  8
0
100
AcDbBlockBegin
  2
*D3
 70
     1
 10
0.0
 20
0.0
 30
0.0
  3
*D3
  1

  0
LINE
  5
51786
330
51749
100
AcDbEntity
  8
Bem 1_10
 62
     0
370
    -2
100
AcDbLine
 10
5373.724765658664
 20
-2341.734038584514
 30
0.0
 11
5403.275887898082
 21
-2341.734038584514
 31
0.0
  0
LINE
  5
51787
330
51749
100
AcDbEntity
  8
Bem 1_10
 62
     0
370
    -2
100
AcDbLine
 10
5373.724873049969
 20
-2276.734008584513
 30
0.0
 11
5403.275887898082
 21
-2276.734008584513
 31
0.0
  0
LINE
  5
51788
330
51749
100
AcDbEntity
  8
Bem 1_10
 62
     0
370
    -2
100
AcDbLine
 10
5402.025887898084
 20
-2339.234038584513
 30
0.0
 11
5402.025887898084
 21
-2279.234008584513
 31
0.0
  0
SOLID
  5
51789
330
51749
100
AcDbEntity
  8
Bem 1_10
 62
     0
100
AcDbTrace
 10
5401.609221231415
 20
-2339.234038584513
 30
0.0
 11
5402.442554564749
 21
-2339.234038584513
 31
0.0
 12
5402.025887898084
 22
-2341.734038584514
 32
0.0
 13
5402.025887898084
 23
-2341.734038584514
 33
0.0
  0
SOLID
  5
5178A
330
51749
100
AcDbEntity
  8
Bem 1_10
 62
     0
100
AcDbTrace
 10
5401.609221231415
 20
-2279.234008584513
 30
0.0
 11
5402.442554564749
 21
-2279.234008584513
 31
0.0
 12
5402.025887898084
 22
-2276.734008584513
 32
0.0
 13
5402.025887898084
 23
-2276.734008584513
 33
0.0
  0
POINT
  5
5178B
330
51749
100
AcDbEntity
  8
DEFPOINTS
 62
     0
100
AcDbPoint
 10
5373.099765658665
 20
-2341.734038584514
 30
0.0
  0
POINT
  5
5178C
330
51749
100
AcDbEntity
  8
DEFPOINTS
 62
     0
100
AcDbPoint
 10
5373.099873049969
 20
-2276.734008584513
 30
0.0
  0
POINT
  5
5178D
330
51749
100
AcDbEntity
  8
DEFPOINTS
 62
     0
100
AcDbPoint
 10
5402.025887898084
 20
-2276.734008584513
 30
0.0
  0
ENDBLK
  5
51754
330
51749
100
AcDbEntity
  8
0
100
AcDbBlockEnd
  0
BLOCK
  5
51768
330
5175E
100
AcDbEntity
  8
0
100
AcDbBlockBegin
  2
*D4
 70
     1
 10
0.0
 20
0.0
 30
0.0
  3
*D4
  1

  0
LINE
  5
5178E
330
5175E
100
AcDbEntity
  8
Bem 1_10
 62
     0
370
    -2
100
AcDbLine
 10
5373.724873049969
 20
-2276.734008584513
 30
0.0
 11
5403.275887898082
 21
-2276.734008584513
 31
0.0
  0
LINE
  5
5178F
330
5175E
100
AcDbEntity
  8
Bem 1_10
 62
     0
370
    -2
100
AcDbLine
 10
5373.724803638872
 20
-1916.734004584513
 30
0.0
 11
5403.275887898082
 21
-1916.734004584513
 31
0.0
  0
LINE
  5
51790
330
5175E
100
AcDbEntity
  8
Bem 1_10
 62
     0
370
    -2
100
AcDbLine
 10
5402.025887898084
 20
-2274.234008584513
 30
0.0
 11
5402.025887898084
 21
-1919.234004584513
 31
0.0
  0
SOLID
  5
51791
330
5175E
100
AcDbEntity
  8
Bem 1_10
 62
     0
100
AcDbTrace
 10
5401.609221231415
 20
-2274.234008584513
 30
0.0
 11
5402.442554564749
 21
-2274.234008584513
 31
0.0
 12
5402.025887898084
 22
-2276.734008584513
 32
0.0
 13
5402.025887898084
 23
-2276.734008584513
 33
0.0
  0
SOLID
  5
51792
330
5175E
100
AcDbEntity
  8
Bem 1_10
 62
     0
100
AcDbTrace
 10
5401.609221231416
 20
-1919.234004584513
 30
0.0
 11
5402.44255456475
 21
-1919.234004584513
 31
0.0
 12
5402.025887898084
 22
-1916.734004584513
 32
0.0
 13
5402.025887898084
 23
-1916.734004584513
 33
0.0
  0
POINT
  5
51793
330
5175E
100
AcDbEntity
  8
DEFPOINTS
 62
     0
100
AcDbPoint
 10
5373.099873049969
 20
-2276.734008584513
 30
0.0
  0
POINT
  5
51794
330
5175E
100
AcDbEntity
  8
DEFPOINTS
 62
     0
100
AcDbPoint
 10
5373.099803638871
 20
-1916.734004584513
 30
0.0
  0
POINT
  5
51795
330
5175E
100
AcDbEntity
  8
DEFPOINTS
 62
     0
100
AcDbPoint
 10
5402.025887898084
 20
-1916.734004584513
 30
0.0
  0
ENDBLK
  5
51769
330
5175E
100
AcDbEntity
  8
0
100
AcDbBlockEnd
  0
BLOCK
  5
5183B
330
5182F
100
AcDbEntity
  8
0
100
AcDbBlockBegin
  2
*D5
 70
     1
 10
0.0
 20
0.0
 30
0.0
  3
*D5
  1

  0
LINE
  5
51830
330
5182F
100
AcDbEntity
  8
Bem 1_10
 62
     0
370
    -2
100
AcDbLine
 10
5213.208970549255
 20
-2013.257933924236
 30
0.0
 11
5214.291217314724
 21
-1999.516259407665
 31
0.0
  0
LINE
  5
51831
330
5182F
100
AcDbEntity
  8
Bem 1_10
 62
     0
370
    -2
100
AcDbLine
 10
5206.00990030132
 20
-2019.921900866385
 30
0.0
 11
5192.225688831843
 21
-2019.941668148906
 31
0.0
  0
ARC
  5
51832
330
5182F
100
AcDbEntity
  8
Bem 1_10
 62
     0
370
    -2
100
AcDbCircle
 10
5212.684893437741
 20
-2019.912328575983
 30
0.0
 40
19.20922564313176
100
AcDbArc
 50
92.95895515010903
 51
172.6200874806641
  0
SOLID
  5
51833
330
5182F
100
AcDbEntity
  8
Bem 1_10
 62
     0
100
AcDbTrace
 10
5211.698917094063
 20
-2000.312084406188
 30
0.0
 11
5211.687687932295
 21
-2001.145342079643
 31
0.0
 12
5214.193075533541
 22
-2000.762400728216
 32
0.0
 13
5214.193075533541
 23
-2000.762400728216
 33
0.0
  0
SOLID
  5
51834
330
5182F
100
AcDbEntity
  8
Bem 1_10
 62
     0
100
AcDbTrace
 10
5194.050614099779
 20
-2017.471460998937
 30
0.0
 11
5193.218970095962
 21
-2017.418426148489
 31
0.0
 12
5193.475687546527
 22
-2019.93987558516
 32
0.0
 13
5193.475687546527
 23
-2019.93987558516
 33
0.0
  0
MTEXT
  5
51835
330
5182F
100
AcDbEntity
  8
Bem 1_10
 62
     0
100
AcDbMText
 10
5198.22070688731
 20
-2004.286696582346
 30
0.0
 40
2.5
 41
0.0
 71
     5
 72
     1
  1
9,99
 11
0.7338541135853368
 21
0.6793071028436843
 31
0.0
 73
     1
 44
1.0
1001
ACAD
1000
MTEXTBEGIN
1070
    73
1070
     1
1070
    44
1040
1.0
1070
    74
1070
     0
1000
MTEXTEND
  0
ARC
  5
51836
330
5182F
100
AcDbEntity
  8
Bem 1_10
  6
Continuous
 62
     0
370
    -2
100
AcDbCircle
 10
5193.967984809728
 20
-2009.813096046912
 30
0.0
 40
2.333333333333484
100
AcDbArc
 50
42.7895213153866
 51
222.7895213153866
  0
POINT
  5
51837
330
5182F
100
AcDbEntity
  8
DEFPOINTS
 62
     0
100
AcDbPoint
 10
5212.684893437741
 20
-2019.912328575983
 30
0.0
  0
POINT
  5
51838
330
5182F
100
AcDbEntity
  8
DEFPOINTS
 62
     0
100
AcDbPoint
 10
5213.159899658664
 20
-2013.881004584512
 30
0.0
  0
POINT
  5
51839
330
5182F
100
AcDbEntity
  8
DEFPOINTS
 62
     0
100
AcDbPoint
 10
5206.634899658663
 20
-2019.921004584512
 30
0.0
  0
POINT
  5
5183A
330
5182F
100
AcDbEntity
  8
DEFPOINTS
 62
     0
100
AcDbPoint
 10
5203.956528649238
 20
-2002.800636727204
 30
0.0
  0
ENDBLK
  5
5183C
330
5182F
100
AcDbEntity
  8
0
100
AcDbBlockEnd
  0
BLOCK
  5
51844
330
5183E
100
AcDbEntity
  8
0
100
AcDbBlockBegin
  2
*D6
 70
     1
 10
0.0
 20
0.0
 30
0.0
  3
*D6
  1

  0
LINE
  5
5183F
330
5183E
100
AcDbEntity
  8
Bem 1_10
 62
     0
370
    -2
100
AcDbLine
 10
5281.140810146528
 20
-1994.835335884852
 30
0.0
 11
5303.741864460484
 21
-2012.730711945707
 31
0.0
  0
MTEXT
  5
51840
330
5183E
100
AcDbEntity
  8
Bem 1_10
 62
     0
100
AcDbMText
 10
5286.68072098659
 20
-1996.564481176525
 30
0.0
 40
2.5
 41
0.0
 71
     5
 72
     1
  1
R15,5
 11
0.7839972923189924
 21
-0.6207642432006601
 31
0.0
 73
     1
 44
1.0
1001
ACAD
1000
MTEXTBEGIN
1070
    73
1070
     1
1070
    44
1040
1.0
1070
    74
1070
     0
1000
MTEXTEND
  0
SOLID
  5
51841
330
5183E
100
AcDbEntity
  8
Bem 1_10
 62
     0
100
AcDbTrace
 10
5304.000516228484
 20
-2012.40404640724
 30
0.0
 11
5303.483212692484
 21
-2013.057377484173
 31
0.0
 12
5305.701857691282
 22
-2014.282622553708
 32
0.0
 13
5305.701857691282
 23
-2014.282622553708
 33
0.0
  0
POINT
  5
51842
330
5183E
100
AcDbEntity
  8
DEFPOINTS
 62
     0
100
AcDbPoint
 10
5305.701857691282
 20
-2014.282622553708
 30
0.0
  0
POINT
  5
51843
330
5183E
100
AcDbEntity
  8
DEFPOINTS
 62
     0
100
AcDbPoint
 10
5293.549899660344
 20
-2004.660776784104
 30
0.0
  0
ENDBLK
  5
51845
330
5183E
100
AcDbEntity
  8
0
100
AcDbBlockEnd
  0
BLOCK
  5
5184D
330
51847
100
AcDbEntity
  8
0
100
AcDbBlockBegin
  2
*D7
 70
     1
 10
0.0
 20
0.0
 30
0.0
  3
*D7
  1

  0
LINE
  5
51859
330
51847
100
AcDbEntity
  8
Bem 1_10
 62
     0
370
    -2
100
AcDbLine
 10
5194.165762729459
 20
-2007.489293608248
 30
0.0
 11
5205.584509242413
 21
-2015.149236693735
 31
0.0
  0
MTEXT
  5
5185A
330
51847
100
AcDbEntity
  8
Bem 1_10
 62
     0
100
AcDbMText
 10
5199.997665558317
 20
-2008.892793580651
 30
0.0
 40
2.5
 41
0.0
 71
     5
 72
     1
  1
R6,05
 11
0.8304542918511666
 21
-0.5570867698536538
 31
0.0
 73
     1
 44
1.0
1001
ACAD
1000
MTEXTBEGIN
1070
    73
1070
     1
1070
    44
1040
1.0
1070
    74
1070
     0
1000
MTEXTEND
  0
LINE
  5
5185B
330
51847
100
AcDbEntity
  8
Bem 1_10
 62
     0
370
    -2
100
AcDbLine
 10
5212.684893437732
 20
-2019.912328575979
 30
0.0
 11
5207.660644972041
 21
-2016.541953618369
 31
0.0
  0
SOLID
  5
5185C
330
51847
100
AcDbEntity
  8
Bem 1_10
 62
     0
100
AcDbTrace
 10
5205.816628729851
 20
-2014.80321407213
 30
0.0
 11
5205.352389754973
 21
-2015.49525931534
 31
0.0
 12
5207.660644972041
 22
-2016.541953618369
 32
0.0
 13
5207.660644972041
 23
-2016.541953618369
 33
0.0
  0
POINT
  5
5185D
330
51847
100
AcDbEntity
  8
DEFPOINTS
 62
     0
100
AcDbPoint
 10
5207.660644972041
 20
-2016.541953618369
 30
0.0
  0
POINT
  5
5185E
330
51847
100
AcDbEntity
  8
DEFPOINTS
 62
     0
100
AcDbPoint
 10
5212.684893437732
 20
-2019.912328575979
 30
0.0
  0
ENDBLK
  5
5184E
330
51847
100
AcDbEntity
  8
0
100
AcDbBlockEnd
  0
BLOCK
  5
51857
330
51850
100
AcDbEntity
  8
0
100
AcDbBlockBegin
  2
*D8
 70
     1
 10
0.0
 20
0.0
 30
0.0
  3
*D8
  1

  0
LINE
  5
51851
330
51850
100
AcDbEntity
  8
Bem 1_10
 62
     0
370
    -2
100
AcDbLine
 10
5190.838352246799
 20
-2039.573645345132
 30
0.0
 11
5205.118173057186
 21
-2032.061036315866
 31
0.0
  0
MTEXT
  5
51852
330
51850
100
AcDbEntity
  8
Bem 1_10
 62
     0
100
AcDbMText
 10
5194.846467567369
 20
-2035.110920353069
 30
0.0
 40
2.5
 41
0.0
 71
     5
 72
     1
  1
R6,05
 11
0.8849970387997226
 21
0.4655966508854227
 31
0.0
 73
     1
 44
1.0
1001
ACAD
1000
MTEXTBEGIN
1070
    73
1070
     1
1070
    44
1040
1.0
1070
    74
1070
     0
1000
MTEXTEND
  0
LINE
  5
51853
330
51850
100
AcDbEntity
  8
Bem 1_10
 62
     0
370
    -2
100
AcDbLine
 10
5212.684897738923
 20
-2028.080184950795
 30
0.0
 11
5207.330665654186
 21
-2030.897044688652
 31
0.0
  0
SOLID
  5
51854
330
51850
100
AcDbEntity
  8
Bem 1_10
 62
     0
100
AcDbTrace
 10
5204.924174452652
 20
-2031.692287549699
 30
0.0
 11
5205.312171661723
 21
-2032.429785082033
 31
0.0
 12
5207.330665654186
 22
-2030.897044688652
 32
0.0
 13
5207.330665654186
 23
-2030.897044688652
 33
0.0
  0
POINT
  5
51855
330
51850
100
AcDbEntity
  8
DEFPOINTS
 62
     0
100
AcDbPoint
 10
5207.330665654186
 20
-2030.897044688652
 30
0.0
  0
POINT
  5
51856
330
51850
100
AcDbEntity
  8
DEFPOINTS
 62
     0
100
AcDbPoint
 10
5212.684897738923
 20
-2028.080184950795
 30
0.0
  0
ENDBLK
  5
51858
330
51850
100
AcDbEntity
  8
0
100
AcDbBlockEnd
  0
BLOCK
  5
51866
330
51860
100
AcDbEntity
  8
0
100
AcDbBlockBegin
  2
*D9
 70
     1
 10
0.0
 20
0.0
 30
0.0
  3
*D9
  1

  0
LINE
  5
51861
330
51860
100
AcDbEntity
  8
Bem 1_10
 62
     0
370
    -2
100
AcDbLine
 10
5308.514809847215
 20
-2033.723206972993
 30
0.0
 11
5309.422287368548
 21
-2043.263477531318
 31
0.0
  0
MTEXT
  5
51862
330
51860
100
AcDbEntity
  8
Bem 1_10
 62
     0
100
AcDbMText
 10
5310.716756649119
 20
-2037.071409186026
 30
0.0
 40
2.5
 41
0.0
 71
     5
 72
     1
  1
R14
 11
0.0946933065737772
 21
-0.9955064930426745
 31
0.0
 73
     1
 44
1.0
1001
ACAD
1000
MTEXTBEGIN
1070
    73
1070
     1
1070
    44
1040
1.0
1070
    74
1070
     0
1000
MTEXTEND
  0
SOLID
  5
51863
330
51860
100
AcDbEntity
  8
Bem 1_10
 62
     0
100
AcDbTrace
 10
5309.837081740648
 20
-2043.224021986912
 30
0.0
 11
5309.007492996446
 21
-2043.302933075724
 31
0.0
 12
5309.659020634982
 22
-2045.752243763924
 32
0.0
 13
5309.659020634982
 23
-2045.752243763924
 33
0.0
  0
POINT
  5
51864
330
51860
100
AcDbEntity
  8
DEFPOINTS
 62
     0
100
AcDbPoint
 10
5309.659020634982
 20
-2045.752243763924
 30
0.0
  0
POINT
  5
51865
330
51860
100
AcDbEntity
  8
DEFPOINTS
 62
     0
100
AcDbPoint
 10
5308.333314342949
 20
-2031.815152861327
 30
0.0
  0
ENDBLK
  5
51867
330
51860
100
AcDbEntity
  8
0
100
AcDbBlockEnd
  0
BLOCK
  5
51870
330
51869
100
AcDbEntity
  8
0
100
AcDbBlockBegin
  2
*D10
 70
     1
 10
0.0
 20
0.0
 30
0.0
  3
*D10
  1

  0
LINE
  5
5186A
330
51869
100
AcDbEntity
  8
Bem 1_10
 62
     0
370
    -2
100
AcDbLine
 10
5326.310848580432
 20
-2026.667735968436
 30
0.0
 11
5322.558184350504
 21
-2037.71439257976
 31
0.0
  0
MTEXT
  5
5186B
330
51869
100
AcDbEntity
  8
Bem 1_10
 62
     0
100
AcDbMText
 10
5322.863970380939
 20
-2030.337375310398
 30
0.0
 40
2.5
 41
0.0
 71
     5
 72
     1
  1
R2,5
 11
0.3216569339938144
 21
0.9468562809707178
 31
0.0
 73
     1
 44
1.0
1001
ACAD
1000
MTEXTBEGIN
1070
    73
1070
     1
1070
    44
1040
1.0
1070
    74
1070
     0
1000
MTEXTEND
  0
LINE
  5
5186C
330
51869
100
AcDbEntity
  8
Bem 1_10
 62
     0
370
    -2
100
AcDbLine
 10
5320.949899680535
 20
-2042.448673984615
 30
0.0
 11
5321.75404201552
 21
-2040.081533282187
 31
0.0
  0
SOLID
  5
5186D
330
51869
100
AcDbEntity
  8
Bem 1_10
 62
     0
100
AcDbTrace
 10
5322.163660900099
 20
-2037.580368857263
 30
0.0
 11
5322.952707800908
 21
-2037.848416302258
 31
0.0
 12
5321.75404201552
 22
-2040.081533282187
 32
0.0
 13
5321.75404201552
 23
-2040.081533282187
 33
0.0
  0
POINT
  5
5186E
330
51869
100
AcDbEntity
  8
DEFPOINTS
 62
     0
100
AcDbPoint
 10
5321.75404201552
 20
-2040.081533282187
 30
0.0
  0
POINT
  5
5186F
330
51869
100
AcDbEntity
  8
DEFPOINTS
 62
     0
100
AcDbPoint
 10
5320.949899680535
 20
-2042.448673984615
 30
0.0
  0
ENDBLK
  5
51871
330
51869
100
AcDbEntity
  8
0
100
AcDbBlockEnd
  0
BLOCK
  5
51879
330
51873
100
AcDbEntity
  8
0
100
AcDbBlockBegin
  2
*D11
 70
     1
 10
0.0
 20
0.0
 30
0.0
  3
*D11
  1

  0
LINE
  5
51874
330
51873
100
AcDbEntity
  8
Bem 1_10
 62
     0
370
    -2
100
AcDbLine
 10
5326.565118866287
 20
-2058.51034759881
 30
0.0
 11
5330.479397353631
 21
-2072.146200983544
 31
0.0
  0
MTEXT
  5
51875
330
51873
100
AcDbEntity
  8
Bem 1_10
 62
     0
100
AcDbMText
 10
5330.119602537326
 20
-2063.342174231678
 30
0.0
 40
2.5
 41
0.0
 71
     5
 72
     1
  1
R6,05
 11
0.2759148436538162
 21
-0.9611820842335182
 31
0.0
 73
     1
 44
1.0
1001
ACAD
1000
MTEXTBEGIN
1070
    73
1070
     1
1070
    44
1040
1.0
1070
    74
1070
     0
1000
MTEXTEND
  0
SOLID
  5
51876
330
51873
100
AcDbEntity
  8
Bem 1_10
 62
     0
100
AcDbTrace
 10
5330.879889888727
 20
-2072.031236465355
 30
0.0
 11
5330.078904818532
 21
-2072.261165501733
 31
0.0
 12
5331.169184462765
 22
-2074.549156194127
 32
0.0
 13
5331.169184462765
 23
-2074.549156194127
 33
0.0
  0
POINT
  5
51877
330
51873
100
AcDbEntity
  8
DEFPOINTS
 62
     0
100
AcDbPoint
 10
5331.169184462765
 20
-2074.549156194127
 30
0.0
  0
POINT
  5
51878
330
51873
100
AcDbEntity
  8
DEFPOINTS
 62
     0
100
AcDbPoint
 10
5329.499899658658
 20
-2068.734004584514
 30
0.0
  0
ENDBLK
  5
5187A
330
51873
100
AcDbEntity
  8
0
100
AcDbBlockEnd
  0
BLOCK
  5
51883
330
5187C
100
AcDbEntity
  8
0
100
AcDbBlockBegin
  2
*D12
 70
     1
 10
0.0
 20
0.0
 30
0.0
  3
*D12
  1

  0
LINE
  5
518F5
330
5187C
100
AcDbEntity
  8
Bem 1_10
 62
     0
370
    -2
100
AcDbLine
 10
5350.478298475708
 20
-1793.529102473412
 30
0.0
 11
5337.543187097594
 21
-1798.192298119726
 31
0.0
  0
MTEXT
  5
518F6
330
5187C
100
AcDbEntity
  8
Bem 1_10
 62
     0
100
AcDbMText
 10
5344.480117207948
 20
-1793.47690805931
 30
0.0
 40
2.5
 41
0.0
 71
     5
 72
     1
  1
R6,05
 11
0.9407353729537149
 21
0.3391415015500679
 31
0.0
 73
     1
 44
1.0
1001
ACAD
1000
MTEXTBEGIN
1070
    73
1070
     1
1070
    44
1040
1.0
1070
    74
1070
     0
1000
MTEXTEND
  0
LINE
  5
518F7
330
5187C
100
AcDbEntity
  8
Bem 1_10
 62
     0
370
    -2
100
AcDbLine
 10
5329.499899658812
 20
-1801.091957957989
 30
0.0
 11
5335.19134866521
 21
-1799.040151873601
 31
0.0
  0
SOLID
  5
518F8
330
5187C
100
AcDbEntity
  8
Bem 1_10
 62
     0
100
AcDbTrace
 10
5337.401878138614
 20
-1797.800325047661
 30
0.0
 11
5337.684496056573
 21
-1798.584271191789
 31
0.0
 12
5335.19134866521
 22
-1799.040151873601
 32
0.0
 13
5335.19134866521
 23
-1799.040151873601
 33
0.0
  0
POINT
  5
518F9
330
5187C
100
AcDbEntity
  8
DEFPOINTS
 62
     0
100
AcDbPoint
 10
5335.19134866521
 20
-1799.040151873601
 30
0.0
  0
POINT
  5
518FA
330
5187C
100
AcDbEntity
  8
DEFPOINTS
 62
     0
100
AcDbPoint
 10
5329.499899658812
 20
-1801.091957957989
 30
0.0
  0
ENDBLK
  5
51884
330
5187C
100
AcDbEntity
  8
0
100
AcDbBlockEnd
  0
BLOCK
  5
5188D
330
51886
100
AcDbEntity
  8
0
100
AcDbBlockBegin
  2
*D13
 70
     1
 10
0.0
 20
0.0
 30
0.0
  3
*D13
  1

  0
LINE
  5
51887
330
51886
100
AcDbEntity
  8
Bem 1_10
 62
     0
370
    -2
100
AcDbLine
 10
5315.605809912433
 20
-1808.601403919873
 30
0.0
 11
5321.652652187776
 21
-1798.624089170491
 31
0.0
  0
MTEXT
  5
51888
330
51886
100
AcDbEntity
  8
Bem 1_10
 62
     0
100
AcDbMText
 10
5316.199691743929
 20
-1803.60195129059
 30
0.0
 40
2.5
 41
0.0
 71
     5
 72
     1
  1
R2,5
 11
0.5183007664580655
 21
0.8551984070898296
 31
0.0
 73
     1
 44
1.0
1001
ACAD
1000
MTEXTBEGIN
1070
    73
1070
     1
1070
    44
1040
1.0
1070
    74
1070
     0
1000
MTEXTEND
  0
LINE
  5
51889
330
51886
100
AcDbEntity
  8
Bem 1_10
 62
     0
370
    -2
100
AcDbLine
 10
5324.244156020065
 20
-1794.348097135044
 30
0.0
 11
5322.948404103922
 21
-1796.486093152767
 31
0.0
  0
SOLID
  5
5188A
330
51886
100
AcDbEntity
  8
Bem 1_10
 62
     0
100
AcDbTrace
 10
5321.296319518156
 20
-1798.4081305178
 30
0.0
 11
5322.008984857398
 21
-1798.840047823182
 31
0.0
 12
5322.948404103922
 22
-1796.486093152767
 32
0.0
 13
5322.948404103922
 23
-1796.486093152767
 33
0.0
  0
POINT
  5
5188B
330
51886
100
AcDbEntity
  8
DEFPOINTS
 62
     0
100
AcDbPoint
 10
5322.948404103922
 20
-1796.486093152767
 30
0.0
  0
POINT
  5
5188C
330
51886
100
AcDbEntity
  8
DEFPOINTS
 62
     0
100
AcDbPoint
 10
5324.244156020065
 20
-1794.348097135044
 30
0.0
  0
ENDBLK
  5
5188E
330
51886
100
AcDbEntity
  8
0
100
AcDbBlockEnd
  0
BLOCK
  5
51896
330
51890
100
AcDbEntity
  8
0
100
AcDbBlockBegin
  2
*D14
 70
     1
 10
0.0
 20
0.0
 30
0.0
  3
*D14
  1

  0
LINE
  5
518EA
330
51890
100
AcDbEntity
  8
Bem 1_10
 62
     0
370
    -2
100
AcDbLine
 10
5344.000644576311
 20
-1791.182078687278
 30
0.0
 11
5325.302416948878
 21
-1786.783480271377
 31
0.0
  0
MTEXT
  5
518EB
330
51890
100
AcDbEntity
  8
Bem 1_10
 62
     0
100
AcDbMText
 10
5337.785387084636
 20
-1787.579790929485
 30
0.0
 40
2.5
 41
0.0
 71
     5
 72
     1
  1
R44,05
 11
0.9734285946640184
 21
-0.2289907663868441
 31
0.0
 73
     1
 44
1.0
1001
ACAD
1000
MTEXTBEGIN
1070
    73
1070
     1
1070
    44
1040
1.0
1070
    74
1070
     0
1000
MTEXTEND
  0
SOLID
  5
518EC
330
51890
100
AcDbEntity
  8
Bem 1_10
 62
     0
100
AcDbTrace
 10
5325.397829768205
 20
-1786.3778850236
 30
0.0
 11
5325.20700412955
 21
-1787.189075519154
 31
0.0
 12
5322.868845462218
 22
-1786.21100335541
 32
0.0
 13
5322.868845462218
 23
-1786.21100335541
 33
0.0
  0
POINT
  5
518ED
330
51890
100
AcDbEntity
  8
DEFPOINTS
 62
     0
100
AcDbPoint
 10
5322.868845462218
 20
-1786.21100335541
 30
0.0
  0
POINT
  5
518EE
330
51890
100
AcDbEntity
  8
DEFPOINTS
 62
     0
100
AcDbPoint
 10
5365.748375057169
 20
-1796.29804661475
 30
0.0
  0
ENDBLK
  5
51897
330
51890
100
AcDbEntity
  8
0
100
AcDbBlockEnd
  0
BLOCK
  5
5189F
330
51899
100
AcDbEntity
  8
0
100
AcDbBlockBegin
  2
*D15
 70
     1
 10
0.0
 20
0.0
 30
0.0
  3
*D15
  1

  0
LINE
  5
518E0
330
51899
100
AcDbEntity
  8
Bem 1_10
 62
     0
370
    -2
100
AcDbLine
 10
5336.632993097314
 20
-1794.419803690467
 30
0.0
 11
5311.908963365638
 21
-1791.542187381659
 31
0.0
  0
MTEXT
  5
518E1
330
51899
100
AcDbEntity
  8
Bem 1_10
 62
     0
100
AcDbMText
 10
5330.04494354336
 20
-1791.555627394842
 30
0.0
 40
2.5
 41
0.0
 71
     5
 72
     1
  1
R56,05
 11
0.9932947952366401
 21
-0.1156090383828244
 31
0.0
 73
     1
 44
1.0
1001
ACAD
1000
MTEXTBEGIN
1070
    73
1070
     1
1070
    44
1040
1.0
1070
    74
1070
     0
1000
MTEXTEND
  0
SOLID
  5
518E2
330
51899
100
AcDbEntity
  8
Bem 1_10
 62
     0
100
AcDbTrace
 10
5311.957133798298
 20
-1791.12831455031
 30
0.0
 11
5311.860792932979
 21
-1791.956060213007
 31
0.0
 12
5309.425726377546
 22
-1791.253164785702
 32
0.0
 13
5309.425726377546
 23
-1791.253164785702
 33
0.0
  0
POINT
  5
518E3
330
51899
100
AcDbEntity
  8
DEFPOINTS
 62
     0
100
AcDbPoint
 10
5309.425726377546
 20
-1791.253164785702
 30
0.0
  0
POINT
  5
518E4
330
51899
100
AcDbEntity
  8
DEFPOINTS
 62
     0
100
AcDbPoint
 10
5365.099899650559
 20
-1797.733051387059
 30
0.0
  0
ENDBLK
  5
518A0
330
51899
100
AcDbEntity
  8
0
100
AcDbBlockEnd
  0
BLOCK
  5
518BC
330
518B6
100
AcDbEntity
  8
0
100
AcDbBlockBegin
  2
*D16
 70
     1
 10
0.0
 20
0.0
 30
0.0
  3
*D16
  1

  0
LINE
  5
518B7
330
518B6
100
AcDbEntity
  8
Bem 1_10
 62
     0
370
    -2
100
AcDbLine
 10
5302.487795714491
 20
-1748.621457223197
 30
0.0
 11
5319.157810202789
 21
-1753.689235423173
 31
0.0
  0
MTEXT
  5
518B8
330
518B6
100
AcDbEntity
  8
Bem 1_10
 62
     0
100
AcDbMText
 10
5309.870843751927
 20
-1748.688468907326
 30
0.0
 40
2.5
 41
0.0
 71
     5
 72
     1
  1
R43,95
 11
0.9567650309484736
 21
-0.2908619527441952
 31
0.0
 73
     1
 44
1.0
1001
ACAD
1000
MTEXTBEGIN
1070
    73
1070
     1
1070
    44
1040
1.0
1070
    74
1070
     0
1000
MTEXTEND
  0
SOLID
  5
518B9
330
518B6
100
AcDbEntity
  8
Bem 1_10
 62
     0
100
AcDbTrace
 10
5319.279002683099
 20
-1753.290583326945
 30
0.0
 11
5319.036617722479
 21
-1754.087887519402
 31
0.0
 12
5321.549722780162
 22
-1754.416390305034
 32
0.0
 13
5321.549722780162
 23
-1754.416390305034
 33
0.0
  0
POINT
  5
518BA
330
518B6
100
AcDbEntity
  8
DEFPOINTS
 62
     0
100
AcDbPoint
 10
5321.549722780162
 20
-1754.416390305034
 30
0.0
  0
POINT
  5
518BB
330
518B6
100
AcDbEntity
  8
DEFPOINTS
 62
     0
100
AcDbPoint
 10
5279.499899669982
 20
-1741.633007481928
 30
0.0
  0
ENDBLK
  5
518BD
330
518B6
100
AcDbEntity
  8
0
100
AcDbBlockEnd
  0
BLOCK
  5
518C5
330
518BF
100
AcDbEntity
  8
0
100
AcDbBlockBegin
  2
*D17
 70
     1
 10
0.0
 20
0.0
 30
0.0
  3
*D17
  1

  0
LINE
  5
518C0
330
518BF
100
AcDbEntity
  8
Bem 1_10
 62
     0
370
    -2
100
AcDbLine
 10
5304.862256268297
 20
-1744.511400039269
 30
0.0
 11
5332.708428569093
 21
-1747.671221297893
 31
0.0
  0
MTEXT
  5
518C1
330
518BF
100
AcDbEntity
  8
Bem 1_10
 62
     0
100
AcDbMText
 10
5311.928313651983
 20
-1743.216511693419
 30
0.0
 40
2.5
 41
0.0
 71
     5
 72
     1
  1
R56,05
 11
0.9936233222681579
 21
-0.1127505806849299
 31
0.0
 73
     1
 44
1.0
1001
ACAD
1000
MTEXTBEGIN
1070
    73
1070
     1
1070
    44
1040
1.0
1070
    74
1070
     0
1000
MTEXTEND
  0
SOLID
  5
518C2
330
518BF
100
AcDbEntity
  8
Bem 1_10
 62
     0
100
AcDbTrace
 10
5332.75540797771
 20
-1747.257211580281
 30
0.0
 11
5332.661449160474
 21
-1748.085231015505
 31
0.0
 12
5335.192486874763
 22
-1747.953097749606
 32
0.0
 13
5335.192486874763
 23
-1747.953097749606
 33
0.0
  0
POINT
  5
518C3
330
518BF
100
AcDbEntity
  8
DEFPOINTS
 62
     0
100
AcDbPoint
 10
5335.192486874763
 20
-1747.953097749606
 30
0.0
  0
POINT
  5
518C4
330
518BF
100
AcDbEntity
  8
DEFPOINTS
 62
     0
100
AcDbPoint
 10
5279.499899661648
 20
-1741.633427702217
 30
0.0
  0
ENDBLK
  5
518C6
330
518BF
100
AcDbEntity
  8
0
100
AcDbBlockEnd
  0
BLOCK
  5
518CE
330
518C8
100
AcDbEntity
  8
0
100
AcDbBlockBegin
  2
*D18
 70
     1
 10
0.0
 20
0.0
 30
0.0
  3
*D18
  1

  0
LINE
  5
518C9
330
518C8
100
AcDbEntity
  8
Bem 1_10
 62
     0
370
    -2
100
AcDbLine
 10
5328.1392922695
 20
-1713.361310105125
 30
0.0
 11
5329.880215016806
 21
-1697.204435173329
 31
0.0
  0
MTEXT
  5
518CA
330
518C8
100
AcDbEntity
  8
Bem 1_10
 62
     0
100
AcDbMText
 10
5326.670561081588
 20
-1707.545492752815
 30
0.0
 40
2.5
 41
0.0
 71
     5
 72
     1
  1
R6,05
 11
0.1071310868002899
 21
0.9942449045587252
 31
0.0
 73
     1
 44
1.0
1001
ACAD
1000
MTEXTBEGIN
1070
    73
1070
     1
1070
    44
1040
1.0
1070
    74
1070
     0
1000
MTEXTEND
  0
SOLID
  5
518CB
330
518C8
100
AcDbEntity
  8
Bem 1_10
 62
     0
100
AcDbTrace
 10
5329.465946306573
 20
-1697.159797220496
 30
0.0
 11
5330.294483727039
 21
-1697.249073126163
 31
0.0
 12
5330.148042733807
 22
-1694.718822911933
 32
0.0
 13
5330.148042733807
 23
-1694.718822911933
 33
0.0
  0
POINT
  5
518CC
330
518C8
100
AcDbEntity
  8
DEFPOINTS
 62
     0
100
AcDbPoint
 10
5330.148042733807
 20
-1694.718822911933
 30
0.0
  0
POINT
  5
518CD
330
518C8
100
AcDbEntity
  8
DEFPOINTS
 62
     0
100
AcDbPoint
 10
5329.499899658665
 20
-1700.734004584514
 30
0.0
  0
ENDBLK
  5
518CF
330
518C8
100
AcDbEntity
  8
0
100
AcDbBlockEnd
  0
BLOCK
  5
51902
330
518FC
100
AcDbEntity
  8
0
100
AcDbBlockBegin
  2
*D19
 70
     1
 10
0.0
 20
0.0
 30
0.0
  3
*D19
  1

  0
LINE
  5
518FD
330
518FC
100
AcDbEntity
  8
Bem 1_10
 62
     0
370
    -2
100
AcDbLine
 10
5327.577326747814
 20
-2109.751179512599
 30
0.0
 11
5330.169030426638
 21
-2096.247640271305
 31
0.0
  0
MTEXT
  5
518FE
330
518FC
100
AcDbEntity
  8
Bem 1_10
 62
     0
100
AcDbMText
 10
5326.591578367742
 20
-2103.834321992854
 30
0.0
 40
2.5
 41
0.0
 71
     5
 72
     1
  1
R6,05
 11
0.1884875402781141
 21
0.982075581185026
 31
0.0
 73
     1
 44
1.0
1001
ACAD
1000
MTEXTBEGIN
1070
    73
1070
     1
1070
    44
1040
1.0
1070
    74
1070
     0
1000
MTEXTEND
  0
SOLID
  5
518FF
330
518FC
100
AcDbEntity
  8
Bem 1_10
 62
     0
100
AcDbTrace
 10
5329.759832267811
 20
-2096.169103796188
 30
0.0
 11
5330.578228585466
 21
-2096.32617674642
 31
0.0
 12
5330.640249277332
 22
-2093.792451318341
 32
0.0
 13
5330.640249277332
 23
-2093.792451318341
 33
0.0
  0
POINT
  5
51900
330
518FC
100
AcDbEntity
  8
DEFPOINTS
 62
     0
100
AcDbPoint
 10
5330.640249277332
 20
-2093.792451318341
 30
0.0
  0
POINT
  5
51901
330
518FC
100
AcDbEntity
  8
DEFPOINTS
 62
     0
100
AcDbPoint
 10
5329.49989965865
 20
-2099.734008584509
 30
0.0
  0
ENDBLK
  5
51903
330
518FC
100
AcDbEntity
  8
0
100
AcDbBlockEnd
  0
BLOCK
  5
5190B
330
51905
100
AcDbEntity
  8
0
100
AcDbBlockBegin
  2
*D20
 70
     1
 10
0.0
 20
0.0
 30
0.0
  3
*D20
  1

  0
LINE
  5
5191B
330
51905
100
AcDbEntity
  8
Bem 1_10
 62
     0
370
    -2
100
AcDbLine
 10
5303.566304830398
 20
-2128.060844658972
 30
0.0
 11
5319.750840924315
 21
-2132.04061465263
 31
0.0
  0
MTEXT
  5
5191C
330
51905
100
AcDbEntity
  8
Bem 1_10
 62
     0
100
AcDbMText
 10
5310.942203919521
 20
-2127.729179894537
 30
0.0
 40
2.5
 41
0.0
 71
     5
 72
     1
  1
R43,95
 11
0.9710721656351083
 21
-0.2387861996195354
 31
0.0
 73
     1
 44
1.0
1001
ACAD
1000
MTEXTBEGIN
1070
    73
1070
     1
1070
    44
1040
1.0
1070
    74
1070
     0
1000
MTEXTEND
  0
SOLID
  5
5191D
330
51905
100
AcDbEntity
  8
Bem 1_10
 62
     0
100
AcDbTrace
 10
5319.850335174158
 20
-2131.636001250283
 30
0.0
 11
5319.651346674475
 21
-2132.445228054979
 31
0.0
 12
5322.178521338404
 22
-2132.637580151679
 32
0.0
 13
5322.178521338404
 23
-2132.637580151679
 33
0.0
  0
POINT
  5
5191E
330
51905
100
AcDbEntity
  8
DEFPOINTS
 62
     0
100
AcDbPoint
 10
5322.178521338404
 20
-2132.637580151679
 30
0.0
  0
POINT
  5
5191F
330
51905
100
AcDbEntity
  8
DEFPOINTS
 62
     0
100
AcDbPoint
 10
5279.499899658743
 20
-2122.142926678401
 30
0.0
  0
ENDBLK
  5
5190C
330
51905
100
AcDbEntity
  8
0
100
AcDbBlockEnd
  0
BLOCK
  5
51914
330
5190E
100
AcDbEntity
  8
0
100
AcDbBlockBegin
  2
*D21
 70
     1
 10
0.0
 20
0.0
 30
0.0
  3
*D21
  1

  0
LINE
  5
51916
330
5190E
100
AcDbEntity
  8
Bem 1_10
 62
     0
370
    -2
100
AcDbLine
 10
5301.280598329505
 20
-2133.226796759727
 30
0.0
 11
5327.224179753581
 21
-2146.431082886216
 31
0.0
  0
MTEXT
  5
51917
330
5190E
100
AcDbEntity
  8
Bem 1_10
 62
     0
100
AcDbMText
 10
5308.352647391489
 20
-2134.488551427908
 30
0.0
 40
2.5
 41
0.0
 71
     5
 72
     1
  1
R56,05
 11
0.8912097118129063
 21
-0.4535915007695321
 31
0.0
 73
     1
 44
1.0
1001
ACAD
1000
MTEXTBEGIN
1070
    73
1070
     1
1070
    44
1040
1.0
1070
    74
1070
     0
1000
MTEXTEND
  0
SOLID
  5
51918
330
5190E
100
AcDbEntity
  8
Bem 1_10
 62
     0
100
AcDbTrace
 10
5327.413176212234
 20
-2146.059745506294
 30
0.0
 11
5327.035183294927
 21
-2146.802420266138
 31
0.0
 12
5329.452204033113
 22
-2147.56506163814
 32
0.0
 13
5329.452204033113
 23
-2147.56506163814
 33
0.0
  0
POINT
  5
51919
330
5190E
100
AcDbEntity
  8
DEFPOINTS
 62
     0
100
AcDbPoint
 10
5329.452204033113
 20
-2147.56506163814
 30
0.0
  0
POINT
  5
5191A
330
5190E
100
AcDbEntity
  8
DEFPOINTS
 62
     0
100
AcDbPoint
 10
5279.499899686005
 20
-2122.14125802001
 30
0.0
  0
ENDBLK
  5
51915
330
5190E
100
AcDbEntity
  8
0
100
AcDbBlockEnd
  0
BLOCK
  5
51928
330
51921
100
AcDbEntity
  8
0
100
AcDbBlockBegin
  2
*D22
 70
     1
 10
0.0
 20
0.0
 30
0.0
  3
*D22
  1

  0
LINE
  5
5192A
330
51921
100
AcDbEntity
  8
Bem 1_10
 62
     0
370
    -2
100
AcDbLine
 10
5198.417025094117
 20
-2261.145908571875
 30
0.0
 11
5212.216770720162
 21
-2266.941006341252
 31
0.0
  0
MTEXT
  5
5192B
330
51921
100
AcDbEntity
  8
Bem 1_10
 62
     0
100
AcDbMText
 10
5204.409921384414
 20
-2261.403001612489
 30
0.0
 40
2.5
 41
0.0
 71
     5
 72
     1
  1
R6,05
 11
0.9220010775306837
 21
-0.3871873100093261
 31
0.0
 73
     1
 44
1.0
1001
ACAD
1000
MTEXTBEGIN
1070
    73
1070
     1
1070
    44
1040
1.0
1070
    74
1070
     0
1000
MTEXTEND
  0
LINE
  5
5192C
330
51921
100
AcDbEntity
  8
Bem 1_10
 62
     0
370
    -2
100
AcDbLine
 10
5220.099879933055
 20
-2270.251457841833
 30
0.0
 11
5214.521773413989
 21
-2267.908974616275
 31
0.0
  0
SOLID
  5
5192D
330
51921
100
AcDbEntity
  8
Bem 1_10
 62
     0
100
AcDbTrace
 10
5212.378098766
 20
-2266.556839225614
 30
0.0
 11
5212.055442674325
 21
-2267.32517345689
 31
0.0
 12
5214.521773413989
 22
-2267.908974616275
 32
0.0
 13
5214.521773413989
 23
-2267.908974616275
 33
0.0
  0
POINT
  5
5192E
330
51921
100
AcDbEntity
  8
DEFPOINTS
 62
     0
100
AcDbPoint
 10
5214.521773413989
 20
-2267.908974616275
 30
0.0
  0
POINT
  5
5192F
330
51921
100
AcDbEntity
  8
DEFPOINTS
 62
     0
100
AcDbPoint
 10
5220.099879933055
 20
-2270.251457841833
 30
0.0
  0
ENDBLK
  5
51929
330
51921
100
AcDbEntity
  8
0
100
AcDbBlockEnd
  0
BLOCK
  5
51938
330
51931
100
AcDbEntity
  8
0
100
AcDbBlockBegin
  2
*D23
 70
     1
 10
0.0
 20
0.0
 30
0.0
  3
*D23
  1

  0
LINE
  5
51932
330
51931
100
AcDbEntity
  8
Bem 1_10
 62
     0
370
    -2
100
AcDbLine
 10
5224.719523260437
 20
-2304.55026577446
 30
0.0
 11
5221.871100636032
 21
-2291.098537686487
 31
0.0
  0
MTEXT
  5
51933
330
51931
100
AcDbEntity
  8
Bem 1_10
 62
     0
100
AcDbMText
 10
5225.592400078935
 20
-2298.615706916592
 30
0.0
 40
2.5
 41
0.0
 71
     5
 72
     1
  1
R6,05
 11
0.2071580090476113
 21
-0.9783074973071757
 31
0.0
 73
     1
 44
1.0
1001
ACAD
1000
MTEXTBEGIN
1070
    73
1070
     1
1070
    44
1040
1.0
1070
    74
1070
     0
1000
MTEXTEND
  0
LINE
  5
51934
330
51931
100
AcDbEntity
  8
Bem 1_10
 62
     0
370
    -2
100
AcDbLine
 10
5220.099899658677
 20
-2282.734008584516
 30
0.0
 11
5221.353205613413
 21
-2288.652768943219
 31
0.0
  0
SOLID
  5
51935
330
51931
100
AcDbEntity
  8
Bem 1_10
 62
     0
100
AcDbTrace
 10
5222.278728759911
 20
-2291.012221849384
 30
0.0
 11
5221.463472512154
 21
-2291.184853523589
 31
0.0
 12
5221.353205613413
 22
-2288.652768943219
 32
0.0
 13
5221.353205613413
 23
-2288.652768943219
 33
0.0
  0
POINT
  5
51936
330
51931
100
AcDbEntity
  8
DEFPOINTS
 62
     0
100
AcDbPoint
 10
5221.353205613413
 20
-2288.652768943219
 30
0.0
  0
POINT
  5
51937
330
51931
100
AcDbEntity
  8
DEFPOINTS
 62
     0
100
AcDbPoint
 10
5220.099899658677
 20
-2282.734008584516
 30
0.0
  0
ENDBLK
  5
51939
330
51931
100
AcDbEntity
  8
0
100
AcDbBlockEnd
  0
BLOCK
  5
51941
330
5193B
100
AcDbEntity
  8
0
100
AcDbBlockBegin
  2
*D24
 70
     1
 10
0.0
 20
0.0
 30
0.0
  3
*D24
  1

  0
LINE
  5
5193C
330
5193B
100
AcDbEntity
  8
Bem 1_10
 62
     0
370
    -2
100
AcDbLine
 10
5247.48178362388
 20
-2280.526632638029
 30
0.0
 11
5229.165552893917
 21
-2273.332896483683
 31
0.0
  0
MTEXT
  5
5193D
330
5193B
100
AcDbEntity
  8
Bem 1_10
 62
     0
100
AcDbMText
 10
5242.813804773481
 20
-2276.455020057273
 30
0.0
 40
2.5
 41
0.0
 71
     5
 72
     1
  1
R9,95
 11
0.9307847979300138
 21
-0.3655675860116474
 31
0.0
 73
     1
 44
1.0
1001
ACAD
1000
MTEXTBEGIN
1070
    73
1070
     1
1070
    44
1040
1.0
1070
    74
1070
     0
1000
MTEXTEND
  0
SOLID
  5
5193E
330
5193B
100
AcDbEntity
  8
Bem 1_10
 62
     0
100
AcDbTrace
 10
5229.317872721422
 20
-2272.945069484545
 30
0.0
 11
5229.013233066412
 21
-2273.72072348282
 31
0.0
 12
5226.838590899092
 22
-2272.418977518654
 32
0.0
 13
5226.838590899092
 23
-2272.418977518654
 33
0.0
  0
POINT
  5
5193F
330
5193B
100
AcDbEntity
  8
DEFPOINTS
 62
     0
100
AcDbPoint
 10
5226.838590899092
 20
-2272.418977518654
 30
0.0
  0
POINT
  5
51940
330
5193B
100
AcDbEntity
  8
DEFPOINTS
 62
     0
100
AcDbPoint
 10
5236.09989963852
 20
-2276.056374999479
 30
0.0
  0
ENDBLK
  5
51942
330
5193B
100
AcDbEntity
  8
0
100
AcDbBlockEnd
  0
ENDSEC
  0
SECTION
  2
ENTITIES
  0
LINE
  5
511BC
102
{ACAD_REACTORS
330
514EB
102
}
330
2
100
AcDbEntity
  8
V1_035
  6
Continuous
100
AcDbLine
 10
5373.100009658664
 20
-1601.732574584513
 30
0.0
 11
5373.099975658664
 21
-1626.732574584513
 31
0.0
  0
LINE
  5
511BD
330
2
100
AcDbEntity
  8
V1_035
  6
Continuous
100
AcDbLine
 10
5207.099915658664
 20
-1626.732574584513
 30
0.0
 11
5373.099979658665
 21
-1626.732574584513
 31
0.0
  0
LINE
  5
511BE
330
2
100
AcDbEntity
  8
V1_035
  6
Continuous
100
AcDbLine
 10
5207.099915658664
 20
-1616.732574584513
 30
0.0
 11
5213.099899658664
 21
-1616.732574584513
 31
0.0
  0
LINE
  5
511BF
330
2
100
AcDbEntity
  8
V1_035
  6
Continuous
100
AcDbLine
 10
5213.099899658664
 20
-2326.734008584513
 30
0.0
 11
5213.099899658664
 21
-2326.734008584513
 31
0.0
  0
LINE
  5
511C0
330
2
100
AcDbEntity
  8
V1_035
  6
Continuous
100
AcDbLine
 10
5205.099883658665
 20
-2324.734008584513
 30
0.0
 11
5205.099883658665
 21
-2318.734008584513
 31
0.0
  0
LINE
  5
511C1
102
{ACAD_REACTORS
330
514E3
102
}
330
2
100
AcDbEntity
  8
V1_025
  6
Continuous
100
AcDbLine
 10
5368.099891658665
 20
-2317.734008584513
 30
0.0
 11
5368.099891658665
 21
-2340.734038584513
 31
0.0
  0
LINE
  5
511C2
102
{ACAD_REACTORS
330
514EB
102
}
330
2
100
AcDbEntity
  8
V1_025
  6
Continuous
100
AcDbLine
 10
5368.100013658665
 20
-1602.732574584513
 30
0.0
 11
5368.100013658665
 21
-1625.732574584513
 31
0.0
  0
LINE
  5
511C3
330
2
100
AcDbEntity
  8
V1_035
  6
Continuous
100
AcDbLine
 10
5207.099883658663
 20
-2326.734008584513
 30
0.0
 11
5213.099899658664
 21
-2326.734008584513
 31
0.0
  0
LINE
  5
511C5
330
2
100
AcDbEntity
  8
V1_015
  6
Continuous
100
AcDbLine
 10
5373.099841658664
 20
-2086.734008584513
 30
0.0
 11
5373.099879658663
 21
-2316.734008584513
 31
0.0
  0
LINE
  5
511C9
330
2
100
AcDbEntity
  8
V1_035
  6
Continuous
100
AcDbLine
 10
5207.099883658663
 20
-2316.734008584513
 30
0.0
 11
5373.099887658664
 21
-2316.734008584513
 31
0.0
  0
LINE
  5
511CB
330
2
100
AcDbEntity
  8
V1_035
  6
Continuous
100
AcDbLine
 10
5213.099899658664
 20
-2341.734038584514
 30
0.0
 11
5213.099899658664
 21
-2326.734008584513
 31
0.0
  0
LINE
  5
511CD
330
2
100
AcDbEntity
  8
V1_035
  6
Continuous
100
AcDbLine
 10
5213.099899658664
 20
-1601.732574584513
 30
0.0
 11
5213.099899658664
 21
-1616.732574584513
 31
0.0
  0
LINE
  5
511D2
330
2
100
AcDbEntity
  8
V1_015
  6
Continuous
100
AcDbLine
 10
5373.099749658664
 20
-1682.037444584513
 30
0.0
 11
5373.09984158887
 21
-2081.734008584513
 31
0.0
  0
LINE
  5
511D3
330
2
100
AcDbEntity
  8
V1_035
  6
Continuous
100
AcDbLine
 10
5299.253645658664
 20
-1876.375198584513
 30
0.0
 11
5227.973617658664
 21
-1876.375198584513
 31
0.0
  0
LINE
  5
511D4
330
2
100
AcDbEntity
  8
V1_035
  6
Continuous
100
AcDbLine
 10
5295.689651658664
 20
-1872.811096584513
 30
0.0
 11
5231.537611658664
 21
-1872.811096584513
 31
0.0
  0
LINE
  5
511D5
330
2
100
AcDbEntity
  8
V1_035
  6
Continuous
100
AcDbLine
 10
5295.689651658664
 20
-1851.427162584513
 30
0.0
 11
5231.537611658664
 21
-1851.427162584513
 31
0.0
  0
LINE
  5
511D6
330
2
100
AcDbEntity
  8
V1_035
  6
Continuous
100
AcDbLine
 10
5299.253645658664
 20
-1847.863052584513
 30
0.0
 11
5227.973617658664
 21
-1847.863052584513
 31
0.0
  0
LINE
  5
511D7
330
2
100
AcDbEntity
  8
V1_035
  6
Continuous
100
AcDbLine
 10
5295.689651658664
 20
-1844.299132584513
 30
0.0
 11
5231.537611658664
 21
-1844.299132584513
 31
0.0
  0
LINE
  5
511D8
330
2
100
AcDbEntity
  8
V1_035
  6
Continuous
100
AcDbLine
 10
5295.689651658664
 20
-1822.915206584513
 30
0.0
 11
5231.537611658664
 21
-1822.915024584513
 31
0.0
  0
LINE
  5
511D9
330
2
100
AcDbEntity
  8
V1_035
  6
Continuous
100
AcDbLine
 10
5299.253645658664
 20
-1819.351272584513
 30
0.0
 11
5227.973617658664
 21
-1819.351088584513
 31
0.0
  0
LINE
  5
511DA
330
2
100
AcDbEntity
  8
V1_035
  6
Continuous
100
AcDbLine
 10
5227.973617658664
 20
-1876.375198584513
 30
0.0
 11
5227.973617658664
 21
-1819.351088584513
 31
0.0
  0
LINE
  5
511DB
330
2
100
AcDbEntity
  8
V1_035
  6
Continuous
100
AcDbLine
 10
5299.253645658664
 20
-1876.375198584513
 30
0.0
 11
5299.253645658664
 21
-1819.351272584513
 31
0.0
  0
LINE
  5
511DC
330
2
100
AcDbEntity
  8
V1_035
  6
Continuous
100
AcDbLine
 10
5295.689651658664
 20
-1876.375198584513
 30
0.0
 11
5295.689651658664
 21
-1819.351272584513
 31
0.0
  0
LINE
  5
511DD
330
2
100
AcDbEntity
  8
V1_035
  6
Continuous
100
AcDbLine
 10
5231.537611658664
 20
-1876.375198584513
 30
0.0
 11
5231.537611658664
 21
-1819.351088584513
 31
0.0
  0
LINE
  5
511DE
330
2
100
AcDbEntity
  8
V1_035
  6
Continuous
100
AcDbLine
 10
5280.506225658665
 20
-1868.054016584513
 30
0.0
 11
5289.765731658664
 21
-1862.708038584513
 31
0.0
  0
LINE
  5
511DF
330
2
100
AcDbEntity
  8
V1_035
  6
Continuous
100
AcDbLine
 10
5284.719885658663
 20
-1867.679084584513
 30
0.0
 11
5288.302757658664
 21
-1865.610344584513
 31
0.0
  0
LINE
  5
511E0
330
2
100
AcDbEntity
  8
V1_035
  6
Continuous
100
AcDbLine
 10
5282.831801658666
 20
-1864.653830584513
 30
0.0
 11
5285.880949658664
 21
-1862.893402584513
 31
0.0
  0
LINE
  5
511E1
330
2
100
AcDbEntity
  8
V1_035
  6
Continuous
100
AcDbLine
 10
5239.787857658665
 20
-1837.830490584513
 30
0.0
 11
5249.047377658664
 21
-1832.484680584513
 31
0.0
  0
LINE
  5
511E2
330
2
100
AcDbEntity
  8
V1_035
  6
Continuous
100
AcDbLine
 10
5244.001297658664
 20
-1837.455580584513
 30
0.0
 11
5247.584259658665
 21
-1835.387008584513
 31
0.0
  0
LINE
  5
511E3
330
2
100
AcDbEntity
  8
V1_035
  6
Continuous
100
AcDbLine
 10
5242.113417658664
 20
-1834.430298584513
 30
0.0
 11
5245.162551658664
 21
-1832.669876584513
 31
0.0
  0
LINE
  5
511E6
330
2
100
AcDbEntity
  8
Bem 1_10
  6
Continuous
100
AcDbLine
 10
5396.318669658665
 20
-2329.235962584513
 30
0.0
 11
5396.318669658665
 21
-2289.432068584513
 31
0.0
  0
LINE
  5
511E8
330
2
100
AcDbEntity
  8
Bem 1_10
  6
Continuous
100
AcDbLine
 10
5396.473291658665
 20
-2078.205910584513
 30
0.0
 11
5380.473291658663
 21
-2078.205910584513
 31
0.0
  0
LINE
  5
511E9
330
2
100
AcDbEntity
  8
Bem 1_10
  6
Continuous
100
AcDbLine
 10
5396.473291658665
 20
-2038.205912584513
 30
0.0
 11
5396.473291658665
 21
-2078.205910584513
 31
0.0
  0
LINE
  5
511EB
330
2
100
AcDbEntity
  8
V1_035
  6
Continuous
100
AcDbLine
 10
5205.099915658664
 20
-1618.732574584513
 30
0.0
 11
5205.099915658664
 21
-1624.732574584513
 31
0.0
  0
LINE
  5
511EC
330
2
100
AcDbEntity
  8
V1_035
  6
Continuous
100
AcDbLine
 10
5213.099945658664
 20
-1601.732574584513
 30
0.0
 11
5373.100005658663
 21
-1601.732574584513
 31
0.0
  0
LINE
  5
511EE
330
2
100
AcDbEntity
  8
V1_015
  6
Continuous
100
AcDbLine
 10
5373.099837658664
 20
-1626.732574584513
 30
0.0
 11
5373.099769658664
 21
-1676.734008584513
 31
0.0
  0
LINE
  5
511F0
330
2
100
AcDbEntity
  8
V1_035
  6
Continuous
100
AcDbLine
 10
5213.099807658664
 20
-2341.734038584514
 30
0.0
 11
5373.099765658665
 21
-2341.734038584514
 31
0.0
  0
LINE
  5
511F1
102
{ACAD_REACTORS
330
514E3
102
}
330
2
100
AcDbEntity
  8
V1_035
  6
Continuous
100
AcDbLine
 10
5373.099879658663
 20
-2316.734008584513
 30
0.0
 11
5373.099887658664
 21
-2341.734038584514
 31
0.0
  0
LINE
  5
511F2
330
2
100
AcDbEntity
  8
V1_035
  6
Continuous
100
AcDbLine
 10
5207.099883658663
 20
-2326.734008584513
 30
0.0
 11
5205.099883658665
 21
-2324.734008584513
 31
0.0
  0
LINE
  5
511F3
330
2
100
AcDbEntity
  8
V1_035
  6
Continuous
100
AcDbLine
 10
5205.099883658665
 20
-2318.734008584513
 30
0.0
 11
5207.099883658663
 21
-2316.734008584513
 31
0.0
  0
LINE
  5
511F4
330
2
100
AcDbEntity
  8
V1_035
  6
Continuous
100
AcDbLine
 10
5207.099915658664
 20
-1626.732574584513
 30
0.0
 11
5205.099915658664
 21
-1624.732574584513
 31
0.0
  0
LINE
  5
511F5
330
2
100
AcDbEntity
  8
V1_035
  6
Continuous
100
AcDbLine
 10
5205.099915658664
 20
-1618.732574584513
 30
0.0
 11
5207.099915658664
 21
-1616.732574584513
 31
0.0
  0
LINE
  5
511F6
102
{ACAD_REACTORS
330
514EB
102
}
330
2
100
AcDbEntity
  8
V1_025
  6
Continuous
100
AcDbLine
 10
5213.099945658664
 20
-1602.732574584513
 30
0.0
 11
5373.100005658663
 21
-1602.732574584513
 31
0.0
  0
LINE
  5
511F7
102
{ACAD_REACTORS
330
514EB
102
}
330
2
100
AcDbEntity
  8
V1_025
  6
Continuous
100
AcDbLine
 10
5206.099915658664
 20
-1625.732574584513
 30
0.0
 11
5373.099979658665
 21
-1625.732574584513
 31
0.0
  0
LINE
  5
511F8
102
{ACAD_REACTORS
330
514E3
102
}
330
2
100
AcDbEntity
  8
V1_025
  6
Continuous
100
AcDbLine
 10
5206.099883658664
 20
-2317.734008584513
 30
0.0
 11
5373.099887658664
 21
-2317.734008584513
 31
0.0
  0
LINE
  5
511F9
102
{ACAD_REACTORS
330
514E3
102
}
330
2
100
AcDbEntity
  8
V1_025
  6
Continuous
100
AcDbLine
 10
5213.099807658664
 20
-2340.734038584513
 30
0.0
 11
5373.099765658665
 21
-2340.734038584513
 31
0.0
  0
LINE
  5
511FA
330
2
100
AcDbEntity
  8
Bem 1_10
  6
Continuous
100
AcDbLine
 10
5380.318669658663
 20
-2329.235962584513
 30
0.0
 11
5380.318669658663
 21
-2289.232086584513
 31
0.0
  0
LINE
  5
511FB
330
2
100
AcDbEntity
  8
Bem 1_10
  6
Continuous
100
AcDbLine
 10
5380.318669658663
 20
-2289.232086584513
 30
0.0
 11
5396.318669658665
 21
-2289.232086584513
 31
0.0
  0
LINE
  5
511FC
330
2
100
AcDbEntity
  8
Bem 1_10
  6
Continuous
100
AcDbLine
 10
5380.318669658663
 20
-2329.235962584513
 30
0.0
 11
5396.318669658665
 21
-2329.235962584513
 31
0.0
  0
LINE
  5
511FD
330
2
100
AcDbEntity
  8
Bem 1_10
  6
Continuous
100
AcDbLine
 10
5396.473291658665
 20
-2038.205912584513
 30
0.0
 11
5380.473291658663
 21
-2038.205912584513
 31
0.0
  0
LINE
  5
511FE
330
2
100
AcDbEntity
  8
Bem 1_10
  6
Continuous
100
AcDbLine
 10
5380.473291658663
 20
-2038.205912584513
 30
0.0
 11
5380.473291658663
 21
-2078.205910584513
 31
0.0
  0
LINE
  5
5120F
330
2
100
AcDbEntity
  8
V1_025
  6
DASHED
100
AcDbLine
 10
5323.449899658664
 20
-2086.734008584513
 30
0.0
 11
5323.449899658664
 21
-2099.734008584513
 31
0.0
  0
LINE
  5
51210
330
2
100
AcDbEntity
  8
V1_025
  6
DASHED
100
AcDbLine
 10
5335.549899658664
 20
-2099.734008584513
 30
0.0
 11
5335.549899658664
 21
-2086.734008584513
 31
0.0
  0
LINE
  5
51212
330
2
100
AcDbEntity
  8
V1_025
  6
DASHED
100
AcDbLine
 10
5323.449797658664
 20
-1681.734008584513
 30
0.0
 11
5323.449797658664
 21
-1700.706970584513
 31
0.0
  0
LINE
  5
51213
330
2
100
AcDbEntity
  8
V1_025
  6
DASHED
100
AcDbLine
 10
5335.549803658665
 20
-1681.734008584513
 30
0.0
 11
5335.549803658665
 21
-1700.734008584513
 31
0.0
  0
LINE
  5
51214
330
2
100
AcDbEntity
  8
V1_025
  6
DASHED
100
AcDbLine
 10
5323.449965658664
 20
-1626.732574584513
 30
0.0
 11
5323.449927658664
 21
-1675.891846584513
 31
0.0
  0
LINE
  5
51215
330
2
100
AcDbEntity
  8
V1_025
  6
DASHED
100
AcDbLine
 10
5335.549971658664
 20
-1626.732574584513
 30
0.0
 11
5335.549933658665
 21
-1675.891846584513
 31
0.0
  0
CIRCLE
  5
5121E
330
2
100
AcDbEntity
  8
0
  6
Continuous
100
AcDbCircle
 10
5213.099899658664
 20
-2276.734008584513
 30
0.0
 40
4.48
  0
CIRCLE
  5
5122D
330
2
100
AcDbEntity
  8
0
  6
Continuous
100
AcDbCircle
 10
5213.099807658664
 20
-1916.734004584513
 30
0.0
 40
4.48
  0
TEXT
  5
5122E
330
2
100
AcDbEntity
  8
0
  6
Continuous
 62
     1
390
5101F
100
AcDbText
 10
5313.702183658664
 20
-1634.011718584513
 30
0.0
 40
4.0
  1
17
 41
0.8
  7
MICROCADAM
100
AcDbText
  0
TEXT
  5
5122F
330
2
100
AcDbEntity
  8
0
  6
Continuous
 62
     1
390
5101F
100
AcDbText
 10
5338.470211658664
 20
-1633.621672584513
 30
0.0
 40
4.0
  1
16
 41
0.8
  7
MICROCADAM
100
AcDbText
  0
TEXT
  5
51230
330
2
100
AcDbEntity
  8
0
  6
Continuous
 62
     1
390
5101F
100
AcDbText
 10
5303.571285658664
 20
-1776.239730584513
 30
0.0
 40
4.0
  1
21
 41
0.8
  7
MICROCADAM
100
AcDbText
  0
TEXT
  5
51231
330
2
100
AcDbEntity
  8
0
  6
Continuous
 62
     1
390
5101F
100
AcDbText
 10
5310.592143658664
 20
-1758.882614584513
 30
0.0
 40
4.0
  1
20
 41
0.8
  7
MICROCADAM
100
AcDbText
  0
TEXT
  5
51232
330
2
100
AcDbEntity
  8
0
  6
Continuous
 62
     1
390
5101F
100
AcDbText
 10
5314.687641658664
 20
-1739.965286584513
 30
0.0
 40
4.0
  1
19
 41
0.8
  7
MICROCADAM
100
AcDbText
  0
TEXT
  5
51233
330
2
100
AcDbEntity
  8
0
  6
Continuous
 62
     1
390
5101F
100
AcDbText
 10
5313.517497658664
 20
-1703.105774584513
 30
0.0
 40
4.0
  1
18
 41
0.8
  7
MICROCADAM
100
AcDbText
  0
TEXT
  5
51234
330
2
100
AcDbEntity
  8
0
  6
Continuous
 62
     1
390
5101F
100
AcDbText
 10
5338.285533658663
 20
-1702.715728584513
 30
0.0
 40
4.0
  1
15
 41
0.8
  7
MICROCADAM
100
AcDbText
  0
TEXT
  5
51235
330
2
100
AcDbEntity
  8
0
  6
Continuous
 62
     1
390
5101F
100
AcDbText
 10
5338.285533658663
 20
-1740.550368584513
 30
0.0
 40
4.0
  1
14
 41
0.8
  7
MICROCADAM
100
AcDbText
  0
TEXT
  5
51236
330
2
100
AcDbEntity
  8
0
  6
Continuous
 62
     1
390
5101F
100
AcDbText
 10
5334.385059658663
 20
-1764.343276584513
 30
0.0
 40
4.0
  1
13
 41
0.8
  7
MICROCADAM
100
AcDbText
  0
TEXT
  5
51237
330
2
100
AcDbEntity
  8
0
  6
Continuous
 62
     1
390
5101F
100
AcDbText
 10
5327.364201658664
 20
-1783.260588584513
 30
0.0
 40
4.0
  1
12
 41
0.8
  7
MICROCADAM
100
AcDbText
  0
TEXT
  5
51238
330
2
100
AcDbEntity
  8
0
  6
Continuous
 62
     1
390
5101F
100
AcDbText
 10
5299.085735658664
 20
-1797.887390584513
 30
0.0
 40
4.0
  1
22
 41
0.8
  7
MICROCADAM
100
AcDbText
  0
TEXT
  5
51239
330
2
100
AcDbEntity
  8
0
  6
Continuous
 62
     1
390
5101F
100
AcDbText
 10
5312.737407658664
 20
-1796.327194584513
 30
0.0
 40
4.0
  1
11
 41
0.8
  7
MICROCADAM
100
AcDbText
  0
TEXT
  5
5123A
330
2
100
AcDbEntity
  8
0
  6
Continuous
 62
     1
390
5101F
100
AcDbText
 10
5322.683627658664
 20
-1803.933120584513
 30
0.0
 40
4.0
  1
10
 41
0.8
  7
MICROCADAM
100
AcDbText
  0
TEXT
  5
5123B
330
2
100
AcDbEntity
  8
0
  6
Continuous
 62
     1
390
5101F
100
AcDbText
 10
5338.675587658664
 20
-1803.738098584513
 30
0.0
 40
4.0
  1
9
 41
0.8
  7
MICROCADAM
100
AcDbText
  0
TEXT
  5
5123C
330
2
100
AcDbEntity
  8
0
  6
Continuous
 62
     1
390
5101F
100
AcDbText
 10
5338.297145658664
 20
-2071.786010584513
 30
0.0
 40
4.0
  1
8
 41
0.8
  7
MICROCADAM
100
AcDbText
  0
TEXT
  5
5123D
330
2
100
AcDbEntity
  8
0
  6
Continuous
 62
     1
390
5101F
100
AcDbText
 10
5314.428195658663
 20
-2071.296394584513
 30
0.0
 40
4.0
  1
7
 41
0.8
  7
MICROCADAM
100
AcDbText
  0
TEXT
  5
5123E
330
2
100
AcDbEntity
  8
0
  6
Continuous
 62
     1
390
5101F
100
AcDbText
 10
5325.567035658664
 20
-2044.489722584513
 30
0.0
 40
4.0
  1
6
 41
0.8
  7
MICROCADAM
100
AcDbText
  0
TEXT
  5
5123F
330
2
100
AcDbEntity
  8
0
  6
Continuous
 62
     1
390
5101F
100
AcDbText
 10
5313.693759658664
 20
-2037.512642584513
 30
0.0
 40
4.0
  1
5
 41
0.8
  7
MICROCADAM
100
AcDbText
  0
TEXT
  5
51240
330
2
100
AcDbEntity
  8
0
  6
Continuous
 62
     1
390
5101F
100
AcDbText
 10
5300.626773658664
 20
-2002.241476584513
 30
0.0
 40
4.0
  1
23
 41
0.8
  7
MICROCADAM
100
AcDbText
  0
TEXT
  5
51241
330
2
100
AcDbEntity
  8
0
  6
Continuous
 62
     1
390
5101F
100
AcDbText
 10
5287.438609658664
 20
-2016.805790584513
 30
0.0
 40
4.0
  1
24
 41
0.8
  7
MICROCADAM
100
AcDbText
  0
TEXT
  5
51242
330
2
100
AcDbEntity
  8
0
  6
Continuous
 62
     1
390
5101F
100
AcDbText
 10
5301.934727658665
 20
-2052.887984584513
 30
0.0
 40
4.0
  1
4
 41
0.8
  7
MICROCADAM
100
AcDbText
  0
TEXT
  5
51243
330
2
100
AcDbEntity
  8
0
  6
Continuous
 62
     1
390
5101F
100
AcDbText
 10
5207.466809658664
 20
-2041.427760584513
 30
0.0
 40
4.0
  1
3
 41
0.8
  7
MICROCADAM
100
AcDbText
  0
TEXT
  5
51244
330
2
100
AcDbEntity
  8
0
  6
Continuous
 62
     1
390
5101F
100
AcDbText
 10
5200.181179658663
 20
-2029.900080584513
 30
0.0
 40
4.0
  1
2
 41
0.8
  7
MICROCADAM
100
AcDbText
  0
TEXT
  5
51245
330
2
100
AcDbEntity
  8
0
  6
Continuous
 62
     1
390
5101F
100
AcDbText
 10
5200.452113658664
 20
-2021.636570584513
 30
0.0
 40
4.0
  1
1
 41
0.8
  7
MICROCADAM
100
AcDbText
  0
TEXT
  5
51246
330
2
100
AcDbEntity
  8
0
  6
Continuous
 62
     1
390
5101F
100
AcDbText
 10
5214.793361658664
 20
-2010.819060584513
 30
0.0
 40
4.0
  1
25
 41
0.8
  7
MICROCADAM
100
AcDbText
  0
TEXT
  5
51247
330
2
100
AcDbEntity
  8
0
  6
Continuous
 62
     1
390
5101F
100
AcDbText
 10
5338.829875658664
 20
-2101.062164584513
 30
0.0
 40
4.0
  1
7
 41
0.8
  7
MICROCADAM
100
AcDbText
  0
TEXT
  5
51248
330
2
100
AcDbEntity
  8
0
  6
Continuous
 62
     1
390
5101F
100
AcDbText
 10
5317.227519658665
 20
-2100.822136584513
 30
0.0
 40
4.0
  1
8
 41
0.8
  7
MICROCADAM
100
AcDbText
  0
TEXT
  5
51249
330
2
100
AcDbEntity
  8
0
  6
Continuous
 62
     1
390
5101F
100
AcDbText
 10
5338.927661658664
 20
-2124.383696584513
 30
0.0
 40
4.0
  1
6
 41
0.8
  7
MICROCADAM
100
AcDbText
  0
TEXT
  5
5124A
330
2
100
AcDbEntity
  8
0
  6
Continuous
 62
     1
390
5101F
100
AcDbText
 10
5228.487057658663
 20
-2287.273926584513
 30
0.0
 40
4.0
  1
2
 41
0.8
  7
MICROCADAM
100
AcDbText
  0
TEXT
  5
5124B
330
2
100
AcDbEntity
  8
0
  6
Continuous
 62
     1
390
5101F
100
AcDbText
 10
5209.696773658664
 20
-2286.720336584513
 30
0.0
 40
4.0
  1
1
 41
0.8
  7
MICROCADAM
100
AcDbText
  0
TEXT
  5
5124C
330
2
100
AcDbEntity
  8
0
  6
Continuous
 62
     1
390
5101F
100
AcDbText
 10
5220.975353658664
 20
-2275.302520584513
 30
0.0
 40
4.0
  1
3
 41
0.8
  7
MICROCADAM
100
AcDbText
  0
TEXT
  5
5124D
330
2
100
AcDbEntity
  8
0
  6
Continuous
 62
     1
390
5101F
100
AcDbText
 10
5232.040645658664
 20
-2270.295684584513
 30
0.0
 40
4.0
  1
4
 41
0.8
  7
MICROCADAM
100
AcDbText
  0
TEXT
  5
5124E
330
2
100
AcDbEntity
  8
0
  6
Continuous
 62
     1
390
5101F
100
AcDbText
 10
5325.618305658665
 20
-2162.898544584513
 30
0.0
 40
4.0
  1
5
 41
0.8
  7
MICROCADAM
100
AcDbText
  0
TEXT
  5
5124F
330
2
100
AcDbEntity
  8
0
  6
Continuous
 62
     1
390
5101F
100
AcDbText
 10
5302.938449658666
 20
-2149.906036584513
 30
0.0
 40
4.0
  1
10
 41
0.8
  7
MICROCADAM
100
AcDbText
  0
TEXT
  5
51250
330
2
100
AcDbEntity
  8
0
  6
Continuous
 62
     1
390
5101F
100
AcDbText
 10
5319.054333658664
 20
-2119.396910584513
 30
0.0
 40
4.0
  1
9
 41
0.8
  7
MICROCADAM
100
AcDbText
  0
TEXT
  5
51251
330
2
100
AcDbEntity
  8
0
  6
Continuous
 62
     1
390
5101F
100
AcDbText
 10
5211.537045658666
 20
-2260.360138584513
 30
0.0
 40
4.0
  1
11
 41
0.8
  7
MICROCADAM
100
AcDbText
  0
TEXT
  5
51252
330
2
100
AcDbEntity
  8
0
  6
Continuous
 62
     1
390
5101F
100
AcDbText
 10
5204.530971658664
 20
-2270.278076584514
 30
0.0
 40
4.0
  1
12
 41
0.8
  7
MICROCADAM
100
AcDbText
  0
LINE
  5
51265
330
2
100
AcDbEntity
  8
0
  6
Continuous
100
AcDbLine
 10
5472.063613658662
 20
-1789.101822584513
 30
0.0
 11
5572.063613658663
 21
-1789.101822584513
 31
0.0
  0
LINE
  5
51266
330
2
100
AcDbEntity
  8
0
  6
Continuous
100
AcDbLine
 10
5472.063613658662
 20
-1781.101822584513
 30
0.0
 11
5572.063613658663
 21
-1781.101822584513
 31
0.0
  0
LINE
  5
51267
330
2
100
AcDbEntity
  8
0
  6
Continuous
100
AcDbLine
 10
5472.063613658662
 20
-1625.101806584513
 30
0.0
 11
5472.063613658662
 21
-1633.101806584513
 31
0.0
  0
LINE
  5
51268
330
2
100
AcDbEntity
  8
0
  6
Continuous
100
AcDbLine
 10
5484.063613658666
 20
-1625.101806584513
 30
0.0
 11
5484.063613658666
 21
-1633.101806584513
 31
0.0
  0
LINE
  5
51269
330
2
100
AcDbEntity
  8
0
  6
Continuous
100
AcDbLine
 10
5472.063613658662
 20
-1797.101822584513
 30
0.0
 11
5572.063613658663
 21
-1797.101822584513
 31
0.0
  0
LINE
  5
5126A
330
2
100
AcDbEntity
  8
0
  6
Continuous
100
AcDbLine
 10
5472.063613658662
 20
-1805.101822584513
 30
0.0
 11
5572.063613658663
 21
-1805.101822584513
 31
0.0
  0
LINE
  5
5126B
330
2
100
AcDbEntity
  8
0
  6
Continuous
100
AcDbLine
 10
5472.063613658662
 20
-1813.101822584513
 30
0.0
 11
5572.063613658663
 21
-1813.101822584513
 31
0.0
  0
LINE
  5
5126C
330
2
100
AcDbEntity
  8
0
  6
Continuous
100
AcDbLine
 10
5472.063613658662
 20
-1821.101822584513
 30
0.0
 11
5572.063613658663
 21
-1821.101822584513
 31
0.0
  0
LINE
  5
5126D
330
2
100
AcDbEntity
  8
0
  6
Continuous
100
AcDbLine
 10
5472.063613658662
 20
-1829.101822584513
 30
0.0
 11
5572.063613658663
 21
-1829.101822584513
 31
0.0
  0
LINE
  5
5126E
330
2
100
AcDbEntity
  8
0
  6
Continuous
100
AcDbLine
 10
5472.063613658662
 20
-1837.101822584513
 30
0.0
 11
5572.063613658663
 21
-1837.101822584513
 31
0.0
  0
LINE
  5
5126F
330
2
100
AcDbEntity
  8
0
  6
Continuous
100
AcDbLine
 10
5472.063613658662
 20
-1845.101822584513
 30
0.0
 11
5572.063613658663
 21
-1845.101822584513
 31
0.0
  0
LINE
  5
51270
330
2
100
AcDbEntity
  8
0
  6
Continuous
100
AcDbLine
 10
5472.063613658662
 20
-1853.101822584513
 30
0.0
 11
5572.063613658663
 21
-1853.101822584513
 31
0.0
  0
LINE
  5
51271
330
2
100
AcDbEntity
  8
0
  6
Continuous
100
AcDbLine
 10
5472.063613658662
 20
-1861.101822584513
 30
0.0
 11
5572.063613658663
 21
-1861.101822584513
 31
0.0
  0
LINE
  5
51272
330
2
100
AcDbEntity
  8
0
  6
Continuous
100
AcDbLine
 10
5472.063613658662
 20
-1869.101822584513
 30
0.0
 11
5572.063613658663
 21
-1869.101822584513
 31
0.0
  0
LINE
  5
51273
330
2
100
AcDbEntity
  8
0
  6
Continuous
100
AcDbLine
 10
5472.063613658662
 20
-1877.101822584513
 30
0.0
 11
5572.063613658663
 21
-1877.101822584513
 31
0.0
  0
LINE
  5
51274
330
2
100
AcDbEntity
  8
0
  6
Continuous
100
AcDbLine
 10
5472.063613658662
 20
-1885.101822584513
 30
0.0
 11
5572.063613658663
 21
-1885.101822584513
 31
0.0
  0
LINE
  5
51275
330
2
100
AcDbEntity
  8
0
  6
Continuous
100
AcDbLine
 10
5472.063613658662
 20
-1893.101822584513
 30
0.0
 11
5572.063613658663
 21
-1893.101822584513
 31
0.0
  0
LINE
  5
51276
330
2
100
AcDbEntity
  8
0
  6
Continuous
100
AcDbLine
 10
5472.063613658662
 20
-1901.101822584513
 30
0.0
 11
5572.063613658663
 21
-1901.101822584513
 31
0.0
  0
LINE
  5
51277
330
2
100
AcDbEntity
  8
0
  6
Continuous
100
AcDbLine
 10
5472.063613658662
 20
-1909.101822584513
 30
0.0
 11
5572.063613658663
 21
-1909.101822584513
 31
0.0
  0
LINE
  5
51278
330
2
100
AcDbEntity
  8
0
  6
Continuous
100
AcDbLine
 10
5472.063613658662
 20
-1917.101822584513
 30
0.0
 11
5572.063613658663
 21
-1917.101822584513
 31
0.0
  0
LINE
  5
51279
330
2
100
AcDbEntity
  8
0
  6
Continuous
100
AcDbLine
 10
5472.063613658662
 20
-1925.101822584513
 30
0.0
 11
5572.063613658663
 21
-1925.101822584513
 31
0.0
  0
LINE
  5
5127A
330
2
100
AcDbEntity
  8
0
  6
Continuous
100
AcDbLine
 10
5472.063613658662
 20
-1933.101822584513
 30
0.0
 11
5572.063613658663
 21
-1933.101822584513
 31
0.0
  0
LINE
  5
5127B
330
2
100
AcDbEntity
  8
0
  6
Continuous
100
AcDbLine
 10
5472.063613658662
 20
-1941.101822584513
 30
0.0
 11
5572.063613658663
 21
-1941.101822584513
 31
0.0
  0
LINE
  5
5127C
330
2
100
AcDbEntity
  8
0
  6
Continuous
100
AcDbLine
 10
5472.063613658662
 20
-1949.101822584513
 30
0.0
 11
5572.063613658663
 21
-1949.101822584513
 31
0.0
  0
LINE
  5
5127D
330
2
100
AcDbEntity
  8
0
  6
Continuous
100
AcDbLine
 10
5472.063613658662
 20
-1957.101822584513
 30
0.0
 11
5572.063613658663
 21
-1957.101822584513
 31
0.0
  0
LINE
  5
5127E
330
2
100
AcDbEntity
  8
0
  6
Continuous
100
AcDbLine
 10
5528.063613658664
 20
-1625.101806584513
 30
0.0
 11
5528.063613658664
 21
-1633.101806584513
 31
0.0
  0
LINE
  5
5127F
330
2
100
AcDbEntity
  8
0
  6
Continuous
100
AcDbLine
 10
5572.063613658663
 20
-1625.101806584513
 30
0.0
 11
5572.063613658663
 21
-1633.101806584513
 31
0.0
  0
LINE
  5
51280
330
2
100
AcDbEntity
  8
0
  6
Continuous
100
AcDbLine
 10
5472.063613658662
 20
-1661.101806584513
 30
0.0
 11
5572.063613658663
 21
-1661.101806584513
 31
0.0
  0
LINE
  5
51281
330
2
100
AcDbEntity
  8
0
  6
Continuous
100
AcDbLine
 10
5472.063613658662
 20
-1669.101806584513
 30
0.0
 11
5572.063613658663
 21
-1669.101806584513
 31
0.0
  0
LINE
  5
51282
330
2
100
AcDbEntity
  8
0
  6
Continuous
100
AcDbLine
 10
5472.063613658662
 20
-1653.101806584513
 30
0.0
 11
5572.063613658663
 21
-1653.101806584513
 31
0.0
  0
LINE
  5
51283
330
2
100
AcDbEntity
  8
0
  6
Continuous
100
AcDbLine
 10
5472.063613658662
 20
-1677.101806584513
 30
0.0
 11
5572.063613658663
 21
-1677.101806584513
 31
0.0
  0
LINE
  5
51284
330
2
100
AcDbEntity
  8
0
  6
Continuous
100
AcDbLine
 10
5472.063613658662
 20
-1685.101806584513
 30
0.0
 11
5572.063613658663
 21
-1685.101806584513
 31
0.0
  0
LINE
  5
51285
330
2
100
AcDbEntity
  8
0
  6
Continuous
100
AcDbLine
 10
5472.063613658662
 20
-1693.101806584513
 30
0.0
 11
5572.063613658663
 21
-1693.101806584513
 31
0.0
  0
LINE
  5
51286
330
2
100
AcDbEntity
  8
0
  6
Continuous
100
AcDbLine
 10
5472.063613658662
 20
-1701.101806584513
 30
0.0
 11
5572.063613658663
 21
-1701.101806584513
 31
0.0
  0
LINE
  5
51287
330
2
100
AcDbEntity
  8
0
  6
Continuous
100
AcDbLine
 10
5472.063613658662
 20
-1709.101806584513
 30
0.0
 11
5572.063613658663
 21
-1709.101806584513
 31
0.0
  0
LINE
  5
51288
330
2
100
AcDbEntity
  8
0
  6
Continuous
100
AcDbLine
 10
5472.063613658662
 20
-1717.101806584513
 30
0.0
 11
5572.063613658663
 21
-1717.101806584513
 31
0.0
  0
LINE
  5
51289
330
2
100
AcDbEntity
  8
0
  6
Continuous
100
AcDbLine
 10
5472.063613658662
 20
-1725.101822584513
 30
0.0
 11
5572.063613658663
 21
-1725.101822584513
 31
0.0
  0
LINE
  5
5128A
330
2
100
AcDbEntity
  8
0
  6
Continuous
100
AcDbLine
 10
5472.063613658662
 20
-1733.101822584513
 30
0.0
 11
5572.063613658663
 21
-1733.101822584513
 31
0.0
  0
LINE
  5
5128B
330
2
100
AcDbEntity
  8
0
  6
Continuous
100
AcDbLine
 10
5472.063613658662
 20
-1757.101822584513
 30
0.0
 11
5572.063613658663
 21
-1757.101822584513
 31
0.0
  0
LINE
  5
5128C
330
2
100
AcDbEntity
  8
0
  6
Continuous
100
AcDbLine
 10
5472.063613658662
 20
-1765.101822584513
 30
0.0
 11
5572.063613658663
 21
-1765.101822584513
 31
0.0
  0
LINE
  5
5128D
330
2
100
AcDbEntity
  8
0
  6
Continuous
100
AcDbLine
 10
5472.063613658662
 20
-1645.101806584513
 30
0.0
 11
5572.063613658663
 21
-1645.101806584513
 31
0.0
  0
LINE
  5
5128E
330
2
100
AcDbEntity
  8
0
  6
Continuous
100
AcDbLine
 10
5472.063613658662
 20
-1637.101806584513
 30
0.0
 11
5572.063613658663
 21
-1637.101806584513
 31
0.0
  0
LINE
  5
5128F
330
2
100
AcDbEntity
  8
0
  6
Continuous
100
AcDbLine
 10
5472.063613658662
 20
-1773.101822584513
 30
0.0
 11
5572.063613658663
 21
-1773.101822584513
 31
0.0
  0
LINE
  5
51290
330
2
100
AcDbEntity
  8
0
  6
Continuous
100
AcDbLine
 10
5472.063613658662
 20
-1625.101806584513
 30
0.0
 11
5572.063613658663
 21
-1625.101806584513
 31
0.0
  0
LINE
  5
51291
330
2
100
AcDbEntity
  8
0
  6
Continuous
100
AcDbLine
 10
5472.063613658662
 20
-1749.101822584513
 30
0.0
 11
5572.063613658663
 21
-1749.101822584513
 31
0.0
  0
LINE
  5
51292
330
2
100
AcDbEntity
  8
0
  6
Continuous
100
AcDbLine
 10
5472.063613658662
 20
-1741.101822584513
 30
0.0
 11
5572.063613658663
 21
-1741.101822584513
 31
0.0
  0
LINE
  5
51293
330
2
100
AcDbEntity
  8
0
  6
Continuous
100
AcDbLine
 10
5472.063613658662
 20
-1633.101806584513
 30
0.0
 11
5572.063613658663
 21
-1633.101806584513
 31
0.0
  0
LINE
  5
51294
330
2
100
AcDbEntity
  8
0
  6
Continuous
100
AcDbLine
 10
5528.063613658664
 20
-1637.101806584513
 30
0.0
 11
5528.063613658664
 21
-1741.101822584513
 31
0.0
  0
LINE
  5
51295
330
2
100
AcDbEntity
  8
0
  6
Continuous
100
AcDbLine
 10
5572.063613658663
 20
-1637.101806584513
 30
0.0
 11
5572.063613658663
 21
-1741.101822584513
 31
0.0
  0
LINE
  5
51296
330
2
100
AcDbEntity
  8
0
  6
Continuous
100
AcDbLine
 10
5484.063613658666
 20
-1637.101806584513
 30
0.0
 11
5484.063613658666
 21
-1741.101822584513
 31
0.0
  0
LINE
  5
51297
330
2
100
AcDbEntity
  8
0
  6
Continuous
100
AcDbLine
 10
5472.063613658662
 20
-1637.101806584513
 30
0.0
 11
5472.063613658662
 21
-1741.101822584513
 31
0.0
  0
LINE
  5
51298
330
2
100
AcDbEntity
  8
0
  6
Continuous
100
AcDbLine
 10
5472.063613658662
 20
-1749.101822584513
 30
0.0
 11
5472.063613658662
 21
-1957.101822584513
 31
0.0
  0
LINE
  5
51299
330
2
100
AcDbEntity
  8
0
  6
Continuous
100
AcDbLine
 10
5484.063613658666
 20
-1749.101822584513
 30
0.0
 11
5484.063613658666
 21
-1957.101822584513
 31
0.0
  0
LINE
  5
5129A
330
2
100
AcDbEntity
  8
0
  6
Continuous
100
AcDbLine
 10
5528.063613658664
 20
-1749.101822584513
 30
0.0
 11
5528.063613658664
 21
-1957.101822584513
 31
0.0
  0
LINE
  5
5129B
330
2
100
AcDbEntity
  8
0
  6
Continuous
100
AcDbLine
 10
5572.063613658663
 20
-1749.101822584513
 30
0.0
 11
5572.063613658663
 21
-1957.101822584513
 31
0.0
  0
LINE
  5
5129C
330
2
100
AcDbEntity
  8
Planrand
  6
Continuous
100
AcDbLine
 10
5122.049819658664
 20
-1566.343200584513
 30
0.0
 11
5696.049819658664
 21
-1566.343200584513
 31
0.0
  0
LINE
  5
5129D
330
2
100
AcDbEntity
  8
Planrand
  6
Continuous
100
AcDbLine
 10
5122.049819658664
 20
-2386.343200584513
 30
0.0
 11
5122.049819658664
 21
-1566.343200584513
 31
0.0
  0
LINE
  5
5129E
330
2
100
AcDbEntity
  8
Planrand
  6
Continuous
100
AcDbLine
 10
5122.049819658664
 20
-2386.343200584513
 30
0.0
 11
5696.049819658664
 21
-2386.343200584513
 31
0.0
  0
LINE
  5
5129F
330
2
100
AcDbEntity
  8
Planrand
  6
Continuous
100
AcDbLine
 10
5696.049819658664
 20
-2386.343200584513
 30
0.0
 11
5696.049819658664
 21
-1566.343200584513
 31
0.0
  0
TEXT
  5
512A0
330
2
100
AcDbEntity
  8
0
  6
Continuous
100
AcDbText
 10
5474.563613658665
 20
-1859.601822584513
 30
0.0
 40
5.0
  1
13
 41
0.8
  7
MICROCADAM
100
AcDbText
  0
TEXT
  5
512A1
330
2
100
AcDbEntity
  8
0
  6
Continuous
100
AcDbText
 10
5474.563613658665
 20
-1867.601822584513
 30
0.0
 40
5.0
  1
14
 41
0.8
  7
MICROCADAM
100
AcDbText
  0
TEXT
  5
512A2
330
2
100
AcDbEntity
  8
0
  6
Continuous
100
AcDbText
 10
5474.563613658665
 20
-1875.601822584513
 30
0.0
 40
5.0
  1
15
 41
0.8
  7
MICROCADAM
100
AcDbText
  0
TEXT
  5
512A3
330
2
100
AcDbEntity
  8
0
  6
Continuous
100
AcDbText
 10
5474.563613658665
 20
-1883.601822584513
 30
0.0
 40
5.0
  1
16
 41
0.8
  7
MICROCADAM
100
AcDbText
  0
TEXT
  5
512A4
330
2
100
AcDbEntity
  8
0
  6
Continuous
100
AcDbText
 10
5474.563613658665
 20
-1891.601822584513
 30
0.0
 40
5.0
  1
17
 41
0.8
  7
MICROCADAM
100
AcDbText
  0
TEXT
  5
512A5
330
2
100
AcDbEntity
  8
0
  6
Continuous
100
AcDbText
 10
5474.563613658665
 20
-1899.601822584513
 30
0.0
 40
5.0
  1
18
 41
0.8
  7
MICROCADAM
100
AcDbText
  0
TEXT
  5
512A6
330
2
100
AcDbEntity
  8
0
  6
Continuous
100
AcDbText
 10
5474.563613658665
 20
-1907.601822584513
 30
0.0
 40
5.0
  1
19
 41
0.8
  7
MICROCADAM
100
AcDbText
  0
TEXT
  5
512A7
330
2
100
AcDbEntity
  8
0
  6
Continuous
100
AcDbText
 10
5474.563613658665
 20
-1915.601822584513
 30
0.0
 40
5.0
  1
20
 41
0.8
  7
MICROCADAM
100
AcDbText
  0
TEXT
  5
512A8
330
2
100
AcDbEntity
  8
0
  6
Continuous
100
AcDbText
 10
5474.563613658665
 20
-1923.601822584513
 30
0.0
 40
5.0
  1
21
 41
0.8
  7
MICROCADAM
100
AcDbText
  0
TEXT
  5
512A9
330
2
100
AcDbEntity
  8
0
  6
Continuous
100
AcDbText
 10
5474.563613658665
 20
-1931.601822584513
 30
0.0
 40
5.0
  1
22
 41
0.8
  7
MICROCADAM
100
AcDbText
  0
TEXT
  5
512AA
330
2
100
AcDbEntity
  8
0
  6
Continuous
100
AcDbText
 10
5474.563613658665
 20
-1939.601822584513
 30
0.0
 40
5.0
  1
23
 41
0.8
  7
MICROCADAM
100
AcDbText
  0
TEXT
  5
512AB
330
2
100
AcDbEntity
  8
0
  6
Continuous
100
AcDbText
 10
5474.563613658665
 20
-1947.601822584513
 30
0.0
 40
5.0
  1
24
 41
0.8
  7
MICROCADAM
100
AcDbText
  0
TEXT
  5
512AC
330
2
100
AcDbEntity
  8
0
  6
Continuous
100
AcDbText
 10
5474.563613658665
 20
-1955.601822584513
 30
0.0
 40
5.0
  1
25
 41
0.8
  7
MICROCADAM
100
AcDbText
  0
TEXT
  5
512AD
330
2
100
AcDbEntity
  8
0
  6
Continuous
100
AcDbText
 10
5490.563613658665
 20
-1763.601822584513
 30
0.0
 40
5.0
  1
- 6.465
 41
0.8
  7
MICROCADAM
100
AcDbText
  0
TEXT
  5
512AE
330
2
100
AcDbEntity
  8
0
  6
Continuous
100
AcDbText
 10
5534.563613658665
 20
-1763.601822584513
 30
0.0
 40
5.0
  1
-103.187
 41
0.8
  7
MICROCADAM
100
AcDbText
  0
TEXT
  5
512AF
330
2
100
AcDbEntity
  8
0
  6
Continuous
100
AcDbText
 10
5490.563613658665
 20
-1771.601822584513
 30
0.0
 40
5.0
  1
- 6.465
 41
0.8
  7
MICROCADAM
100
AcDbText
  0
TEXT
  5
512B0
330
2
100
AcDbEntity
  8
0
  6
Continuous
100
AcDbText
 10
5534.563613658665
 20
-1771.601822584513
 30
0.0
 40
5.0
  1
-111.351
 41
0.8
  7
MICROCADAM
100
AcDbText
  0
TEXT
  5
512B1
330
2
100
AcDbEntity
  8
0
  6
Continuous
100
AcDbText
 10
5490.563613658665
 20
-1779.601822584513
 30
0.0
 40
5.0
  1
- 1.153
 41
0.8
  7
MICROCADAM
100
AcDbText
  0
TEXT
  5
512B2
330
2
100
AcDbEntity
  8
0
  6
Continuous
100
AcDbText
 10
5534.563613658665
 20
-1779.601822584513
 30
0.0
 40
5.0
  1
-117.351
 41
0.8
  7
MICROCADAM
100
AcDbText
  0
TEXT
  5
512B3
330
2
100
AcDbEntity
  8
0
  6
Continuous
100
AcDbText
 10
5490.563613658665
 20
-1787.601822584513
 30
0.0
 40
5.0
  1
 93.992
 41
0.8
  7
MICROCADAM
100
AcDbText
  0
TEXT
  5
512B4
330
2
100
AcDbEntity
  8
0
  6
Continuous
100
AcDbText
 10
5534.563613658665
 20
-1787.601822584513
 30
0.0
 40
5.0
  1
-129.026
 41
0.8
  7
MICROCADAM
100
AcDbText
  0
TEXT
  5
512B5
330
2
100
AcDbEntity
  8
0
  6
Continuous
100
AcDbText
 10
5490.563613658665
 20
-1795.601822584513
 30
0.0
 40
5.0
  1
105.938
 41
0.8
  7
MICROCADAM
100
AcDbText
  0
TEXT
  5
512B6
330
2
100
AcDbEntity
  8
0
  6
Continuous
100
AcDbText
 10
5534.563613658665
 20
-1795.601822584513
 30
0.0
 40
5.0
  1
-124.104
 41
0.8
  7
MICROCADAM
100
AcDbText
  0
TEXT
  5
512B7
330
2
100
AcDbEntity
  8
0
  6
Continuous
100
AcDbText
 10
5490.563613658665
 20
-1803.601822584513
 30
0.0
 40
5.0
  1
110.350
 41
0.8
  7
MICROCADAM
100
AcDbText
  0
TEXT
  5
512B8
330
2
100
AcDbEntity
  8
0
  6
Continuous
100
AcDbText
 10
5534.563613658665
 20
-1803.601822584513
 30
0.0
 40
5.0
  1
-125.715
 41
0.8
  7
MICROCADAM
100
AcDbText
  0
TEXT
  5
512B9
330
2
100
AcDbEntity
  8
0
  6
Continuous
100
AcDbText
 10
5490.563613658665
 20
-1811.601822584513
 30
0.0
 40
5.0
  1
110.350
 41
0.8
  7
MICROCADAM
100
AcDbText
  0
TEXT
  5
512BA
330
2
100
AcDbEntity
  8
0
  6
Continuous
100
AcDbText
 10
5534.563613658665
 20
-1811.601822584513
 30
0.0
 40
5.0
  1
-152.000
 41
0.8
  7
MICROCADAM
100
AcDbText
  0
TEXT
  5
512BB
330
2
100
AcDbEntity
  8
0
  6
Continuous
100
AcDbText
 10
5490.563613658665
 20
-1819.601822584513
 30
0.0
 40
5.0
  1
122.450
 41
0.8
  7
MICROCADAM
100
AcDbText
  0
TEXT
  5
512BC
330
2
100
AcDbEntity
  8
0
  6
Continuous
100
AcDbText
 10
5534.563613658665
 20
-1819.601822584513
 30
0.0
 40
5.0
  1
-152.000
 41
0.8
  7
MICROCADAM
100
AcDbText
  0
TEXT
  5
512BD
330
2
100
AcDbEntity
  8
0
  6
Continuous
100
AcDbText
 10
5490.563613658665
 20
-1827.601822584513
 30
0.0
 40
5.0
  1
122.450
 41
0.8
  7
MICROCADAM
100
AcDbText
  0
TEXT
  5
512BE
330
2
100
AcDbEntity
  8
0
  6
Continuous
100
AcDbText
 10
5534.563613658665
 20
-1827.601822584513
 30
0.0
 40
5.0
  1
 115.642
 41
0.8
  7
MICROCADAM
100
AcDbText
  0
TEXT
  5
512BF
330
2
100
AcDbEntity
  8
0
  6
Continuous
100
AcDbText
 10
5490.563613658665
 20
-1835.601822584513
 30
0.0
 40
5.0
  1
112.681
 41
0.8
  7
MICROCADAM
100
AcDbText
  0
TEXT
  5
512C0
330
2
100
AcDbEntity
  8
0
  6
Continuous
100
AcDbText
 10
5534.563613658665
 20
-1835.601822584513
 30
0.0
 40
5.0
  1
 120.414
 41
0.8
  7
MICROCADAM
100
AcDbText
  0
TEXT
  5
512C1
330
2
100
AcDbEntity
  8
0
  6
Continuous
100
AcDbText
 10
5490.563613658665
 20
-1843.601822584513
 30
0.0
 40
5.0
  1
108.647
 41
0.8
  7
MICROCADAM
100
AcDbText
  0
TEXT
  5
512C2
330
2
100
AcDbEntity
  8
0
  6
Continuous
100
AcDbText
 10
5534.563613658665
 20
-1843.601822584513
 30
0.0
 40
5.0
  1
 122.503
 41
0.8
  7
MICROCADAM
100
AcDbText
  0
TEXT
  5
512C3
330
2
100
AcDbEntity
  8
0
  6
Continuous
100
AcDbText
 10
5490.563613658665
 20
-1851.601822584513
 30
0.0
 40
5.0
  1
111.525
 41
0.8
  7
MICROCADAM
100
AcDbText
  0
TEXT
  5
512C4
330
2
100
AcDbEntity
  8
0
  6
Continuous
100
AcDbText
 10
5534.563613658665
 20
-1851.601822584513
 30
0.0
 40
5.0
  1
 136.224
 41
0.8
  7
MICROCADAM
100
AcDbText
  0
TEXT
  5
512C5
330
2
100
AcDbEntity
  8
0
  6
Continuous
100
AcDbText
 10
5490.563613658665
 20
-1859.601822584513
 30
0.0
 40
5.0
  1
118.731
 41
0.8
  7
MICROCADAM
100
AcDbText
  0
TEXT
  5
512C6
330
2
100
AcDbEntity
  8
0
  6
Continuous
100
AcDbText
 10
5534.563613658665
 20
-1859.601822584513
 30
0.0
 40
5.0
  1
 155.024
 41
0.8
  7
MICROCADAM
100
AcDbText
  0
TEXT
  5
512C7
330
2
100
AcDbEntity
  8
0
  6
Continuous
100
AcDbText
 10
5474.563613658665
 20
-1723.601822584513
 30
0.0
 40
5.0
  1
10
 41
0.8
  7
MICROCADAM
100
AcDbText
  0
TEXT
  5
512C8
330
2
100
AcDbEntity
  8
0
  6
Continuous
100
AcDbText
 10
5474.563613658665
 20
-1731.601822584513
 30
0.0
 40
5.0
  1
11
 41
0.8
  7
MICROCADAM
100
AcDbText
  0
TEXT
  5
512C9
330
2
100
AcDbEntity
  8
0
  6
Continuous
100
AcDbText
 10
5474.563613658665
 20
-1739.601822584513
 30
0.0
 40
5.0
  1
12
 41
0.8
  7
MICROCADAM
100
AcDbText
  0
TEXT
  5
512CA
330
2
100
AcDbEntity
  8
0
  6
Continuous
100
AcDbText
 10
5490.563613658665
 20
-1739.601822584513
 30
0.0
 40
5.0
  1
  0.950
 41
0.8
  7
MICROCADAM
100
AcDbText
  0
TEXT
  5
512CB
330
2
100
AcDbEntity
  8
0
  6
Continuous
100
AcDbText
 10
5536.563613658664
 20
-1739.601822584513
 30
0.0
 40
5.0
  1
  6.498
 41
0.8
  7
MICROCADAM
100
AcDbText
  0
TEXT
  5
512CC
330
2
100
AcDbEntity
  8
0
  6
Continuous
100
AcDbText
 10
5473.430179658664
 20
-1642.725372584513
 30
0.0
 40
4.0
  1
a-c
 41
0.8
  7
MICROCADAM
100
AcDbText
  0
TEXT
  5
512CD
330
2
100
AcDbEntity
  8
0
  6
Continuous
100
AcDbText
 10
5474.563613658665
 20
-1651.601806584513
 30
0.0
 40
5.0
  1
 1
 41
0.8
  7
MICROCADAM
100
AcDbText
  0
TEXT
  5
512CE
330
2
100
AcDbEntity
  8
0
  6
Continuous
100
AcDbText
 10
5490.563613658665
 20
-1651.601806584513
 30
0.0
 40
5.0
  1
  0.950
 41
0.8
  7
MICROCADAM
100
AcDbText
  0
TEXT
  5
512CF
330
2
100
AcDbEntity
  8
0
  6
Continuous
100
AcDbText
 10
5536.563613658664
 20
-1651.601806584513
 30
0.0
 40
5.0
  1
- 6.000
 41
0.8
  7
MICROCADAM
100
AcDbText
  0
TEXT
  5
512D0
330
2
100
AcDbEntity
  8
0
  6
Continuous
100
AcDbText
 10
5536.563613658664
 20
-1659.601806584513
 30
0.0
 40
5.0
  1
- 6.000
 41
0.8
  7
MICROCADAM
100
AcDbText
  0
TEXT
  5
512D1
330
2
100
AcDbEntity
  8
0
  6
Continuous
100
AcDbText
 10
5490.563613658665
 20
-1659.601806584513
 30
0.0
 40
5.0
  1
 13.050
 41
0.8
  7
MICROCADAM
100
AcDbText
  0
TEXT
  5
512D2
330
2
100
AcDbEntity
  8
0
  6
Continuous
100
AcDbText
 10
5474.563613658665
 20
-1659.601806584513
 30
0.0
 40
5.0
  1
 2
 41
0.8
  7
MICROCADAM
100
AcDbText
  0
TEXT
  5
512D3
330
2
100
AcDbEntity
  8
0
  6
Continuous
100
AcDbText
 10
5474.563613658665
 20
-1667.601806584513
 30
0.0
 40
5.0
  1
 3
 41
0.8
  7
MICROCADAM
100
AcDbText
  0
TEXT
  5
512D4
330
2
100
AcDbEntity
  8
0
  6
Continuous
100
AcDbText
 10
5490.563613658665
 20
-1667.601806584513
 30
0.0
 40
5.0
  1
 13.050
 41
0.8
  7
MICROCADAM
100
AcDbText
  0
TEXT
  5
512D5
330
2
100
AcDbEntity
  8
0
  6
Continuous
100
AcDbText
 10
5536.563613658664
 20
-1667.601806584513
 30
0.0
 40
5.0
  1
  0.677
 41
0.8
  7
MICROCADAM
100
AcDbText
  0
TEXT
  5
512D6
330
2
100
AcDbEntity
  8
0
  6
Continuous
100
AcDbText
 10
5536.563613658664
 20
-1675.601806584513
 30
0.0
 40
5.0
  1
  7.089
 41
0.8
  7
MICROCADAM
100
AcDbText
  0
TEXT
  5
512D7
330
2
100
AcDbEntity
  8
0
  6
Continuous
100
AcDbText
 10
5490.563613658665
 20
-1675.601806584513
 30
0.0
 40
5.0
  1
 15.391
 41
0.8
  7
MICROCADAM
100
AcDbText
  0
TEXT
  5
512D8
330
2
100
AcDbEntity
  8
0
  6
Continuous
100
AcDbText
 10
5474.563613658665
 20
-1675.601806584513
 30
0.0
 40
5.0
  1
 4
 41
0.8
  7
MICROCADAM
100
AcDbText
  0
TEXT
  5
512D9
330
2
100
AcDbEntity
  8
0
  6
Continuous
100
AcDbText
 10
5474.563613658665
 20
-1683.601806584513
 30
0.0
 40
5.0
  1
 5
 41
0.8
  7
MICROCADAM
100
AcDbText
  0
TEXT
  5
512DA
330
2
100
AcDbEntity
  8
0
  6
Continuous
100
AcDbText
 10
5490.563613658665
 20
-1683.601806584513
 30
0.0
 40
5.0
  1
109.259
 41
0.8
  7
MICROCADAM
100
AcDbText
  0
TEXT
  5
512DB
330
2
100
AcDbEntity
  8
0
  6
Continuous
100
AcDbText
 10
5536.563613658664
 20
-1683.601806584513
 30
0.0
 40
5.0
  1
118.472
 41
0.8
  7
MICROCADAM
100
AcDbText
  0
TEXT
  5
512DC
330
2
100
AcDbEntity
  8
0
  6
Continuous
100
AcDbText
 10
5536.563613658664
 20
-1691.601806584513
 30
0.0
 40
5.0
  1
154.591
 41
0.8
  7
MICROCADAM
100
AcDbText
  0
TEXT
  5
512DD
330
2
100
AcDbEntity
  8
0
  6
Continuous
100
AcDbText
 10
5490.563613658665
 20
-1691.601806584513
 30
0.0
 40
5.0
  1
122.450
 41
0.8
  7
MICROCADAM
100
AcDbText
  0
TEXT
  5
512DE
330
2
100
AcDbEntity
  8
0
  6
Continuous
100
AcDbText
 10
5474.563613658665
 20
-1691.601806584513
 30
0.0
 40
5.0
  1
 6
 41
0.8
  7
MICROCADAM
100
AcDbText
  0
TEXT
  5
512DF
330
2
100
AcDbEntity
  8
0
  6
Continuous
100
AcDbText
 10
5474.563613658665
 20
-1699.601806584513
 30
0.0
 40
5.0
  1
 7
 41
0.8
  7
MICROCADAM
100
AcDbText
  0
TEXT
  5
512E0
330
2
100
AcDbEntity
  8
0
  6
Continuous
100
AcDbText
 10
5490.563613658665
 20
-1715.601806584513
 30
0.0
 40
5.0
  1
110.350
 41
0.8
  7
MICROCADAM
100
AcDbText
  0
TEXT
  5
512E1
330
2
100
AcDbEntity
  8
0
  6
Continuous
100
AcDbText
 10
5536.563613658664
 20
-1715.601806584513
 30
0.0
 40
5.0
  1
154.591
 41
0.8
  7
MICROCADAM
100
AcDbText
  0
TEXT
  5
512E2
330
2
100
AcDbEntity
  8
0
  6
Continuous
100
AcDbText
 10
5536.563613658664
 20
-1723.601822584513
 30
0.0
 40
5.0
  1
126.272
 41
0.8
  7
MICROCADAM
100
AcDbText
  0
TEXT
  5
512E3
330
2
100
AcDbEntity
  8
0
  6
Continuous
100
AcDbText
 10
5490.563613658665
 20
-1723.601822584513
 30
0.0
 40
5.0
  1
100.010
 41
0.8
  7
MICROCADAM
100
AcDbText
  0
TEXT
  5
512E4
330
2
100
AcDbEntity
  8
0
  6
Continuous
100
AcDbText
 10
5474.563613658665
 20
-1707.601806584513
 30
0.0
 40
5.0
  1
 8
 41
0.8
  7
MICROCADAM
100
AcDbText
  0
TEXT
  5
512E5
330
2
100
AcDbEntity
  8
0
  6
Continuous
100
AcDbText
 10
5474.563613658665
 20
-1715.601806584513
 30
0.0
 40
5.0
  1
 9
 41
0.8
  7
MICROCADAM
100
AcDbText
  0
TEXT
  5
512E6
330
2
100
AcDbEntity
  8
0
  6
Continuous
100
AcDbText
 10
5490.563613658665
 20
-1731.601822584513
 30
0.0
 40
5.0
  1
  2.387
 41
0.8
  7
MICROCADAM
100
AcDbText
  0
TEXT
  5
512E7
330
2
100
AcDbEntity
  8
0
  6
Continuous
100
AcDbText
 10
5536.563613658664
 20
-1731.601822584513
 30
0.0
 40
5.0
  1
 10.397
 41
0.8
  7
MICROCADAM
100
AcDbText
  0
TEXT
  5
512E8
330
2
100
AcDbEntity
  8
0
  6
Continuous
100
AcDbText
 10
5490.563613658665
 20
-1875.601836584513
 30
0.0
 40
5.0
  1
122.450
 41
0.8
  7
MICROCADAM
100
AcDbText
  0
TEXT
  5
512E9
330
2
100
AcDbEntity
  8
0
  6
Continuous
100
AcDbText
 10
5534.563613658665
 20
-1875.601836584513
 30
0.0
 40
5.0
  1
 216.000
 41
0.8
  7
MICROCADAM
100
AcDbText
  0
TEXT
  5
512EA
330
2
100
AcDbEntity
  8
0
  6
Continuous
100
AcDbText
 10
5534.563613658665
 20
-1899.601836584513
 30
0.0
 40
5.0
  1
 216.000
 41
0.8
  7
MICROCADAM
100
AcDbText
  0
TEXT
  5
512EB
330
2
100
AcDbEntity
  8
0
  6
Continuous
100
AcDbText
 10
5490.563613658665
 20
-1891.601836584513
 30
0.0
 40
5.0
  1
110.350
 41
0.8
  7
MICROCADAM
100
AcDbText
  0
TEXT
  5
512EC
330
2
100
AcDbEntity
  8
0
  6
Continuous
100
AcDbText
 10
5490.563613658665
 20
-1907.601836584513
 30
0.0
 40
5.0
  1
110.350
 41
0.8
  7
MICROCADAM
100
AcDbText
  0
TEXT
  5
512ED
330
2
100
AcDbEntity
  8
0
  6
Continuous
100
AcDbText
 10
5534.563613658665
 20
-1907.601836584513
 30
0.0
 40
5.0
  1
 175.100
 41
0.8
  7
MICROCADAM
100
AcDbText
  0
TEXT
  5
512EE
330
2
100
AcDbEntity
  8
0
  6
Continuous
100
AcDbText
 10
5534.563613658665
 20
-1915.601836584513
 30
0.0
 40
5.0
  1
 159.385
 41
0.8
  7
MICROCADAM
100
AcDbText
  0
TEXT
  5
512EF
330
2
100
AcDbEntity
  8
0
  6
Continuous
100
AcDbText
 10
5534.563613658665
 20
-1923.601836584513
 30
0.0
 40
5.0
  1
 139.041
 41
0.8
  7
MICROCADAM
100
AcDbText
  0
TEXT
  5
512F0
330
2
100
AcDbEntity
  8
0
  6
Continuous
100
AcDbText
 10
5534.563613658665
 20
-1931.601836584513
 30
0.0
 40
5.0
  1
 119.000
 41
0.8
  7
MICROCADAM
100
AcDbText
  0
TEXT
  5
512F1
330
2
100
AcDbEntity
  8
0
  6
Continuous
100
AcDbText
 10
5534.563613658665
 20
-1939.601836584513
 30
0.0
 40
5.0
  1
- 87.927
 41
0.8
  7
MICROCADAM
100
AcDbText
  0
TEXT
  5
512F2
330
2
100
AcDbEntity
  8
0
  6
Continuous
100
AcDbText
 10
5534.563613658665
 20
-1947.601836584513
 30
0.0
 40
5.0
  1
-103.379
 41
0.8
  7
MICROCADAM
100
AcDbText
  0
TEXT
  5
512F3
330
2
100
AcDbEntity
  8
0
  6
Continuous
100
AcDbText
 10
5490.563613658665
 20
-1947.601836584513
 30
0.0
 40
5.0
  1
 79.234
 41
0.8
  7
MICROCADAM
100
AcDbText
  0
TEXT
  5
512F4
330
2
100
AcDbEntity
  8
0
  6
Continuous
100
AcDbText
 10
5490.563613658665
 20
-1939.601836584513
 30
0.0
 40
5.0
  1
 95.950
 41
0.8
  7
MICROCADAM
100
AcDbText
  0
TEXT
  5
512F5
330
2
100
AcDbEntity
  8
0
  6
Continuous
100
AcDbText
 10
5490.563613658665
 20
-1931.601836584513
 30
0.0
 40
5.0
  1
 95.950
 41
0.8
  7
MICROCADAM
100
AcDbText
  0
TEXT
  5
512F6
330
2
100
AcDbEntity
  8
0
  6
Continuous
100
AcDbText
 10
5490.563613658665
 20
-1923.601836584513
 30
0.0
 40
5.0
  1
 99.655
 41
0.8
  7
MICROCADAM
100
AcDbText
  0
TEXT
  5
512F7
330
2
100
AcDbEntity
  8
0
  6
Continuous
100
AcDbText
 10
5490.563613658665
 20
-1915.601836584513
 30
0.0
 40
5.0
  1
107.444
 41
0.8
  7
MICROCADAM
100
AcDbText
  0
TEXT
  5
512F8
330
2
100
AcDbEntity
  8
0
  6
Continuous
100
AcDbText
 10
5490.563613658665
 20
-1867.601836584513
 30
0.0
 40
5.0
  1
122.450
 41
0.8
  7
MICROCADAM
100
AcDbText
  0
TEXT
  5
512F9
330
2
100
AcDbEntity
  8
0
  6
Continuous
100
AcDbText
 10
5534.563613658665
 20
-1867.601836584513
 30
0.0
 40
5.0
  1
 175.100
 41
0.8
  7
MICROCADAM
100
AcDbText
  0
TEXT
  5
512FA
330
2
100
AcDbEntity
  8
0
  6
Continuous
100
AcDbText
 10
5536.563613658664
 20
-1631.601806584513
 30
0.0
 40
5.0
  1
   Y
 41
0.8
  7
MICROCADAM
100
AcDbText
  0
TEXT
  5
512FB
330
2
100
AcDbEntity
  8
0
  6
Continuous
100
AcDbText
 10
5490.563613658665
 20
-1631.601806584513
 30
0.0
 40
5.0
  1
   X
 41
0.8
  7
MICROCADAM
100
AcDbText
  0
TEXT
  5
512FC
330
2
100
AcDbEntity
  8
0
  6
Continuous
100
AcDbText
 10
5474.563613658665
 20
-1631.601806584513
 30
0.0
 40
5.0
  1
Nr.
 41
0.8
  7
MICROCADAM
100
AcDbText
  0
TEXT
  5
512FD
330
2
100
AcDbEntity
  8
0
  6
Continuous
100
AcDbText
 10
5536.563613658664
 20
-1643.601806584513
 30
0.0
 40
5.0
  1
  0
 41
0.8
  7
MICROCADAM
100
AcDbText
  0
TEXT
  5
512FE
330
2
100
AcDbEntity
  8
0
  6
Continuous
100
AcDbText
 10
5490.563613658665
 20
-1643.601806584513
 30
0.0
 40
5.0
  1
  0
 41
0.8
  7
MICROCADAM
100
AcDbText
  0
TEXT
  5
512FF
330
2
100
AcDbEntity
  8
0
  6
Continuous
100
AcDbText
 10
5536.563613658664
 20
-1707.601806584513
 30
0.0
 40
5.0
  1
177.000
 41
0.8
  7
MICROCADAM
100
AcDbText
  0
TEXT
  5
51300
330
2
100
AcDbEntity
  8
0
  6
Continuous
100
AcDbText
 10
5490.563613658665
 20
-1707.601806584513
 30
0.0
 40
5.0
  1
110.350
 41
0.8
  7
MICROCADAM
100
AcDbText
  0
TEXT
  5
51301
330
2
100
AcDbEntity
  8
0
  6
Continuous
100
AcDbText
 10
5536.563613658664
 20
-1699.601806584513
 30
0.0
 40
5.0
  1
177.000
 41
0.8
  7
MICROCADAM
100
AcDbText
  0
TEXT
  5
51302
330
2
100
AcDbEntity
  8
0
  6
Continuous
100
AcDbText
 10
5490.563613658665
 20
-1699.601806584513
 30
0.0
 40
5.0
  1
122.450
 41
0.8
  7
MICROCADAM
100
AcDbText
  0
TEXT
  5
51303
330
2
100
AcDbEntity
  8
0
  6
Continuous
100
AcDbText
 10
5474.563613658665
 20
-1827.601822584513
 30
0.0
 40
5.0
  1
 9
 41
0.8
  7
MICROCADAM
100
AcDbText
  0
TEXT
  5
51304
330
2
100
AcDbEntity
  8
0
  6
Continuous
100
AcDbText
 10
5474.563613658665
 20
-1819.601822584513
 30
0.0
 40
5.0
  1
 8
 41
0.8
  7
MICROCADAM
100
AcDbText
  0
TEXT
  5
51305
330
2
100
AcDbEntity
  8
0
  6
Continuous
100
AcDbText
 10
5474.563613658665
 20
-1811.601822584513
 30
0.0
 40
5.0
  1
 7
 41
0.8
  7
MICROCADAM
100
AcDbText
  0
TEXT
  5
51306
330
2
100
AcDbEntity
  8
0
  6
Continuous
100
AcDbText
 10
5474.563613658665
 20
-1803.601822584513
 30
0.0
 40
5.0
  1
 6
 41
0.8
  7
MICROCADAM
100
AcDbText
  0
TEXT
  5
51307
330
2
100
AcDbEntity
  8
0
  6
Continuous
100
AcDbText
 10
5474.563613658665
 20
-1795.601822584513
 30
0.0
 40
5.0
  1
 5
 41
0.8
  7
MICROCADAM
100
AcDbText
  0
TEXT
  5
51308
330
2
100
AcDbEntity
  8
0
  6
Continuous
100
AcDbText
 10
5474.563613658665
 20
-1787.601822584513
 30
0.0
 40
5.0
  1
 4
 41
0.8
  7
MICROCADAM
100
AcDbText
  0
TEXT
  5
51309
330
2
100
AcDbEntity
  8
0
  6
Continuous
100
AcDbText
 10
5474.563613658665
 20
-1779.601822584513
 30
0.0
 40
5.0
  1
 3
 41
0.8
  7
MICROCADAM
100
AcDbText
  0
TEXT
  5
5130A
330
2
100
AcDbEntity
  8
0
  6
Continuous
100
AcDbText
 10
5474.563613658665
 20
-1771.601822584513
 30
0.0
 40
5.0
  1
 2
 41
0.8
  7
MICROCADAM
100
AcDbText
  0
TEXT
  5
5130B
330
2
100
AcDbEntity
  8
0
  6
Continuous
100
AcDbText
 10
5474.563613658665
 20
-1763.601822584513
 30
0.0
 40
5.0
  1
 1
 41
0.8
  7
MICROCADAM
100
AcDbText
  0
TEXT
  5
5130C
330
2
100
AcDbEntity
  8
0
  6
Continuous
100
AcDbText
 10
5474.563613658665
 20
-1851.601822584513
 30
0.0
 40
5.0
  1
12
 41
0.8
  7
MICROCADAM
100
AcDbText
  0
TEXT
  5
5130D
330
2
100
AcDbEntity
  8
0
  6
Continuous
100
AcDbText
 10
5474.563613658665
 20
-1843.601822584513
 30
0.0
 40
5.0
  1
11
 41
0.8
  7
MICROCADAM
100
AcDbText
  0
TEXT
  5
5130E
330
2
100
AcDbEntity
  8
0
  6
Continuous
100
AcDbText
 10
5474.563613658665
 20
-1835.601822584513
 30
0.0
 40
5.0
  1
10
 41
0.8
  7
MICROCADAM
100
AcDbText
  0
TEXT
  5
5130F
330
2
100
AcDbEntity
  8
0
  6
Continuous
100
AcDbText
 10
5534.563613658665
 20
-1755.601822584513
 30
0.0
 40
5.0
  1
   0
 41
0.8
  7
MICROCADAM
100
AcDbText
  0
TEXT
  5
51310
330
2
100
AcDbEntity
  8
0
  6
Continuous
100
AcDbText
 10
5490.563613658665
 20
-1755.601822584513
 30
0.0
 40
5.0
  1
  0
 41
0.8
  7
MICROCADAM
100
AcDbText
  0
TEXT
  5
51311
330
2
100
AcDbEntity
  8
0
  6
Continuous
100
AcDbText
 10
5473.430179658664
 20
-1754.725356584513
 30
0.0
 40
4.0
  1
a-b
 41
0.8
  7
MICROCADAM
100
AcDbText
  0
TEXT
  5
51312
330
2
100
AcDbEntity
  8
0
  6
Continuous
100
AcDbText
 10
5490.563613658665
 20
-1883.601836584513
 30
0.0
 40
5.0
  1
122.450
 41
0.8
  7
MICROCADAM
100
AcDbText
  0
TEXT
  5
51313
330
2
100
AcDbEntity
  8
0
  6
Continuous
100
AcDbText
 10
5490.563613658665
 20
-1899.601836584513
 30
0.0
 40
5.0
  1
110.350
 41
0.8
  7
MICROCADAM
100
AcDbText
  0
TEXT
  5
51314
330
2
100
AcDbEntity
  8
0
  6
Continuous
100
AcDbText
 10
5534.563613658665
 20
-1883.601836584513
 30
0.0
 40
5.0
  1
    X
 41
0.8
  7
MICROCADAM
100
AcDbText
  0
TEXT
  5
51315
330
2
100
AcDbEntity
  8
0
  6
Continuous
100
AcDbText
 10
5534.563613658665
 20
-1891.601836584513
 30
0.0
 40
5.0
  1
    X
 41
0.8
  7
MICROCADAM
100
AcDbText
  0
TEXT
  5
51316
330
2
100
AcDbEntity
  8
0
  6
Continuous
100
AcDbText
 10
5534.563613658665
 20
-1955.601836584513
 30
0.0
 40
5.0
  1
- 97.147
 41
0.8
  7
MICROCADAM
100
AcDbText
  0
TEXT
  5
51317
330
2
100
AcDbEntity
  8
0
  6
Continuous
100
AcDbText
 10
5490.563613658665
 20
-1955.601836584513
 30
0.0
 40
5.0
  1
  0.060
 41
0.8
  7
MICROCADAM
100
AcDbText
  0
HATCH
  5
514C3
330
2
100
AcDbEntity
  8
V1_015 schimmer
100
AcDbHatch
 10
0.0
 20
0.0
 30
0.0
210
0.0
220
0.0
230
1.0
  2
ANSI31
 70
     0
 71
     0
 91
        2
 92
        7
 72
     1
 73
     1
 93
        8
 10
5368.100013658665
 20
-1602.732574584513
 42
0.0
 10
5213.099945658665
 20
-1602.732574584513
 42
0.0
 10
5213.099945658665
 20
-1625.732574584513
 42
0.0
 10
5322.458910438347
 20
-1625.732574584513
 42
-0.411625091493294
 10
5324.44129687898
 20
-1625.732574584513
 42
0.0
 10
5334.558916438348
 20
-1625.732574584513
 42
-0.411625091493294
 10
5336.54130287898
 20
-1625.732574584513
 42
0.0
 10
5368.100013658664
 20
-1625.732574584513
 42
0.0
 97
        0
 92
        7
 72
     0
 73
     1
 93
        6
 10
5213.099945658664
 20
-1616.732574584513
 10
5207.099915658664
 20
-1616.732574584513
 10
5205.099915658664
 20
-1618.732574584513
 10
5205.099915658664
 20
-1624.732574584513
 10
5206.099915658664
 20
-1625.732574584513
 10
5213.099945658664
 20
-1625.732574584513
 97
        0
 75
     0
 76
     1
 52
45.0
 41
40.0
 77
     0
 78
     1
 53
90.0
 43
0.0001380000003337
 44
0.0
 45
-5.0
 46
0.0000000000000009
 79
     0
 47
0.2664930847152607
 98
        2
 10
5268.252478029936
 20
-1615.15575750159
 10
5210.406639996129
 20
-1622.084579132464
1001
ACAD
1010
0.0
1020
0.0
1030
0.0
  0
HATCH
  5
514DC
330
2
100
AcDbEntity
  8
V1_015 schimmer
100
AcDbHatch
 10
0.0
 20
0.0
 30
0.0
210
0.0
220
0.0
230
1.0
  2
ANSI31
 70
     0
 71
     0
 91
        2
 92
        7
 72
     0
 73
     1
 93
        6
 10
5368.099891658665
 20
-2317.734008584513
 10
5213.099807658663
 20
-2317.734008584513
 10
5213.099807658664
 20
-2326.734008584513
 10
5213.099899658664
 20
-2326.734008584513
 10
5213.099899658664
 20
-2340.734038584513
 10
5368.099891658665
 20
-2340.734038584513
 97
        0
 92
        7
 72
     0
 73
     1
 93
        6
 10
5213.099807658664
 20
-2317.734008584513
 10
5206.099883658665
 20
-2317.734008584513
 10
5205.099883658665
 20
-2318.734008584513
 10
5205.099883658665
 20
-2324.734008584513
 10
5207.099883658663
 20
-2326.734008584513
 10
5213.099807658664
 20
-2326.734008584513
 97
        0
 75
     0
 76
     1
 52
45.0
 41
40.0
 77
     0
 78
     1
 53
90.0
 43
0.0
 44
0.0
 45
-5.0
 46
0.0000000000000009
 79
     0
 47
0.2517778373638737
 98
        2
 10
5306.587659454875
 20
-2332.461219948898
 10
5209.624952321831
 20
-2321.886547332049
1001
ACAD
1010
0.0
1020
0.0
1030
0.0
  0
HATCH
  5
514E3
330
2
100
AcDbEntity
  8
V1_015 schimmer
100
AcDbHatch
 10
0.0
 20
0.0
 30
0.0
210
0.0
220
0.0
230
1.0
  2
ANSI31
 70
     0
 71
     1
 91
        1
 92
        7
 72
     0
 73
     1
 93
        4
 10
5373.099879978664
 20
-2317.734008584513
 10
5368.099891658662
 20
-2317.734008584513
 10
5368.099891658662
 20
-2340.734038584513
 10
5373.099887338664
 20
-2340.734038584513
 97
        4
330
511F8
330
511C1
330
511F9
330
511F1
 75
     0
 76
     1
 52
0.0
 41
30.0
 77
     0
 78
     1
 53
45.0
 43
0.0
 44
0.0
 45
-2.651650429449551
 46
2.651650429449553
 79
     0
 47
0.0525901125123885
 98
        1
 10
5369.826080739361
 20
-2326.812697925999
1001
ACAD
1010
0.0
1020
0.0
1030
0.0
  0
HATCH
  5
514EB
330
2
100
AcDbEntity
  8
V1_015 schimmer
100
AcDbHatch
 10
0.0
 20
0.0
 30
0.0
210
0.0
220
0.0
230
1.0
  2
ANSI31
 70
     0
 71
     1
 91
        1
 92
        7
 72
     0
 73
     1
 93
        4
 10
5368.100013658665
 20
-1625.732574584513
 10
5373.099977018665
 20
-1625.732574584513
 10
5373.100008298663
 20
-1602.732574584513
 10
5368.100013658665
 20
-1602.732574584513
 97
        4
330
511F6
330
511C2
330
511F7
330
511BC
 75
     0
 76
     1
 52
0.0
 41
30.0
 77
     0
 78
     1
 53
45.0
 43
0.0001380000003337
 44
0.0
 45
-2.651650429449551
 46
2.651650429449553
 79
     0
 47
0.0916404500378839
 98
        1
 10
5369.967287884513
 20
-1614.768074826601
1001
ACAD
1010
0.0
1020
0.0
1030
0.0
  0
POINT
  5
516A7
330
2
100
AcDbEntity
  8
Konstruktionslinie
100
AcDbPoint
 10
5213.099899658664
 20
-2276.734008584513
 30
0.0
  0
POINT
  5
516B0
330
2
100
AcDbEntity
  8
Konstruktionslinie
100
AcDbPoint
 10
5214.049899658665
 20
-2282.734008584513
 30
0.0
  0
POINT
  5
516B1
330
2
100
AcDbEntity
  8
Konstruktionslinie
100
AcDbPoint
 10
5226.149899658665
 20
-2282.734008584513
 30
0.0
  0
POINT
  5
516B2
330
2
100
AcDbEntity
  8
Konstruktionslinie
100
AcDbPoint
 10
5226.149899658665
 20
-2276.057008584513
 30
0.0
  0
POINT
  5
516B3
330
2
100
AcDbEntity
  8
Konstruktionslinie
100
AcDbPoint
 10
5228.490899658662
 20
-2269.645008584513
 30
0.0
  0
POINT
  5
516B4
330
2
100
AcDbEntity
  8
Konstruktionslinie
100
AcDbPoint
 10
5322.358899658664
 20
-2158.262008584513
 30
0.0
  0
POINT
  5
516B5
330
2
100
AcDbEntity
  8
Konstruktionslinie
100
AcDbPoint
 10
5335.549899658664
 20
-2122.143008584513
 30
0.0
  0
POINT
  5
516B6
330
2
100
AcDbEntity
  8
Konstruktionslinie
100
AcDbPoint
 10
5335.549899658664
 20
-2099.734008584513
 30
0.0
  0
POINT
  5
516B7
330
2
100
AcDbEntity
  8
Konstruktionslinie
100
AcDbPoint
 10
5323.449899658664
 20
-2099.734008584513
 30
0.0
  0
POINT
  5
516B8
330
2
100
AcDbEntity
  8
Konstruktionslinie
100
AcDbPoint
 10
5323.449899658664
 20
-2122.143008584513
 30
0.0
  0
POINT
  5
516B9
330
2
100
AcDbEntity
  8
Konstruktionslinie
100
AcDbPoint
 10
5313.109899658664
 20
-2150.462008584513
 30
0.0
  0
POINT
  5
516BA
330
2
100
AcDbEntity
  8
Konstruktionslinie
100
AcDbPoint
 10
5215.486899658664
 20
-2266.337008584513
 30
0.0
  0
POINT
  5
516BB
330
2
100
AcDbEntity
  8
Konstruktionslinie
100
AcDbPoint
 10
5214.049899658665
 20
-2270.236008584513
 30
0.0
  0
LINE
  5
516CC
330
2
100
AcDbEntity
  8
V1_025
100
AcDbLine
 10
5323.449899658664
 20
-2099.734008584513
 30
0.0
 11
5323.449899658664
 21
-2122.143008584513
 31
0.0
  0
LINE
  5
516CD
330
2
100
AcDbEntity
  8
V1_025
100
AcDbLine
 10
5313.109899658664
 20
-2150.462008584513
 30
0.0
 11
5215.486899658664
 21
-2266.337008584513
 31
0.0
  0
LINE
  5
516CE
330
2
100
AcDbEntity
  8
V1_025
100
AcDbLine
 10
5214.049899658665
 20
-2270.236008584513
 30
0.0
 11
5214.049899658665
 21
-2282.734008584513
 31
0.0
  0
LINE
  5
516CF
330
2
100
AcDbEntity
  8
V1_025
100
AcDbLine
 10
5226.149899658665
 20
-2282.734008584513
 30
0.0
 11
5226.149899658662
 21
-2276.056375032405
 31
0.0
  0
LINE
  5
516D0
330
2
100
AcDbEntity
  8
V1_025
100
AcDbLine
 10
5228.491449942464
 20
-2269.644355622261
 30
0.0
 11
5322.359558612729
 21
-2158.261226675017
 31
0.0
  0
LINE
  5
516D1
330
2
100
AcDbEntity
  8
V1_025
100
AcDbLine
 10
5335.549899658664
 20
-2122.141258037971
 30
0.0
 11
5335.549899658663
 21
-2099.734008584513
 31
0.0
  0
ARC
  5
516D2
330
2
100
AcDbEntity
  8
V1_025
100
AcDbCircle
 10
5220.099899658664
 20
-2282.734008584513
 30
0.0
 40
6.050000000000181
100
AcDbArc
 50
180.0
 51
0.0
  0
ARC
  5
516D7
330
2
100
AcDbEntity
  8
V1_025
100
AcDbCircle
 10
5329.499899658664
 20
-2099.734008584513
 30
0.0
 40
6.049999999999272
100
AcDbArc
 50
0.0
 51
180.0000000000043
  0
POINT
  5
516D8
330
2
100
AcDbEntity
  8
Konstruktionslinie
100
AcDbPoint
 10
5213.099899658664
 20
-1916.734004584513
 30
0.0
  0
LWPOLYLINE
  5
516E3
330
2
100
AcDbEntity
  8
V1_015
100
AcDbPolyline
 90
        3
 70
     0
 43
0.0
 10
5213.099807658664
 20
-2341.734038584514
 10
5205.099807658664
 20
-2341.734038584514
 10
5205.099807658664
 20
-2086.734008584513
  0
LWPOLYLINE
  5
516E4
330
2
100
AcDbEntity
  8
V1_015
100
AcDbPolyline
 90
        2
 70
     0
 43
0.0
 10
5205.099807658664
 20
-2081.734008584513
 10
5205.099807658664
 20
-1681.734008584513
  0
LWPOLYLINE
  5
516E5
330
2
100
AcDbEntity
  8
V1_015
100
AcDbPolyline
 90
        3
 70
     0
 43
0.0
 10
5205.099807658664
 20
-1676.734008584513
 10
5205.099807658664
 20
-1601.732574584513
 10
5213.099899658664
 20
-1601.732574584513
  0
LINE
  5
516E6
330
2
100
AcDbEntity
  8
Achse
100
AcDbLine
 10
5213.099899658664
 20
-2361.894132221456
 30
0.0
 11
5213.099899658664
 21
-1584.464819451262
 31
0.0
  0
LINE
  5
516E7
330
2
100
AcDbEntity
  8
Achse
100
AcDbLine
 10
5161.363921658665
 20
-1916.734004584513
 30
0.0
 11
5431.780219658666
 21
-1916.734004584513
 31
0.0
  0
LINE
  5
516E8
330
2
100
AcDbEntity
  8
Achse
100
AcDbLine
 10
5161.363921658665
 20
-2276.734008584513
 30
0.0
 11
5431.780219658666
 21
-2276.734008584513
 31
0.0
  0
POINT
  5
516EF
330
2
100
AcDbEntity
  8
Konstruktionslinie
100
AcDbPoint
 10
5206.634899658664
 20
-2379.921008584513
 30
0.0
  0
POINT
  5
516F0
330
2
100
AcDbEntity
  8
Konstruktionslinie
100
AcDbPoint
 10
5206.634899658664
 20
-2019.921004584513
 30
0.0
  0
POINT
  5
516F2
330
2
100
AcDbEntity
  8
Konstruktionslinie
100
AcDbPoint
 10
5206.634899658664
 20
-2028.085004584513
 30
0.0
  0
POINT
  5
516F3
330
2
100
AcDbEntity
  8
Konstruktionslinie
100
AcDbPoint
 10
5211.946899658664
 20
-2034.085004584513
 30
0.0
  0
POINT
  5
516F4
330
2
100
AcDbEntity
  8
Konstruktionslinie
100
AcDbPoint
 10
5307.091899658664
 20
-2045.760004584513
 30
0.0
  0
POINT
  5
516F5
330
2
100
AcDbEntity
  8
Konstruktionslinie
100
AcDbPoint
 10
5319.037899658664
 20
-2040.838004584513
 30
0.0
  0
POINT
  5
516F6
330
2
100
AcDbEntity
  8
Konstruktionslinie
100
AcDbPoint
 10
5323.449899658664
 20
-2042.449004584513
 30
0.0
  0
POINT
  5
516F7
330
2
100
AcDbEntity
  8
Konstruktionslinie
100
AcDbPoint
 10
5323.449899658664
 20
-2068.734004584513
 30
0.0
  0
POINT
  5
516F8
330
2
100
AcDbEntity
  8
Konstruktionslinie
100
AcDbPoint
 10
5335.549899658664
 20
-2068.734004584513
 30
0.0
  0
POINT
  5
516F9
330
2
100
AcDbEntity
  8
Konstruktionslinie
100
AcDbPoint
 10
5335.549899658664
 20
-1801.092004584513
 30
0.0
  0
POINT
  5
516FA
330
2
100
AcDbEntity
  8
Konstruktionslinie
100
AcDbPoint
 10
5325.780899658663
 20
-1796.320004584513
 30
0.0
  0
POINT
  5
516FB
330
2
100
AcDbEntity
  8
Konstruktionslinie
100
AcDbPoint
 10
5321.746899658664
 20
-1794.231004584513
 30
0.0
  0
POINT
  5
516FC
330
2
100
AcDbEntity
  8
Konstruktionslinie
100
AcDbPoint
 10
5324.624899658664
 20
-1780.510004584513
 30
0.0
  0
POINT
  5
516FD
330
2
100
AcDbEntity
  8
Konstruktionslinie
100
AcDbPoint
 10
5331.830899658664
 20
-1761.710004584513
 30
0.0
  0
POINT
  5
516FE
330
2
100
AcDbEntity
  8
Konstruktionslinie
100
AcDbPoint
 10
5335.549899658664
 20
-1741.634004584513
 30
0.0
  0
POINT
  5
516FF
330
2
100
AcDbEntity
  8
Konstruktionslinie
100
AcDbPoint
 10
5335.549899658664
 20
-1700.734004584513
 30
0.0
  0
POINT
  5
51700
330
2
100
AcDbEntity
  8
Konstruktionslinie
100
AcDbPoint
 10
5323.449899658664
 20
-1700.734004584513
 30
0.0
  0
POINT
  5
51701
330
2
100
AcDbEntity
  8
Konstruktionslinie
100
AcDbPoint
 10
5323.449899658664
 20
-1741.634004584513
 30
0.0
  0
POINT
  5
51702
330
2
100
AcDbEntity
  8
Konstruktionslinie
100
AcDbPoint
 10
5320.543899658663
 20
-1757.349004584513
 30
0.0
  0
POINT
  5
51703
330
2
100
AcDbEntity
  8
Konstruktionslinie
100
AcDbPoint
 10
5312.754899658663
 20
-1777.693004584513
 30
0.0
  0
POINT
  5
51704
330
2
100
AcDbEntity
  8
Konstruktionslinie
100
AcDbPoint
 10
5309.049899658663
 20
-1797.734004584513
 30
0.0
  0
POINT
  5
51706
330
2
100
AcDbEntity
  8
Konstruktionslinie
100
AcDbPoint
 10
5309.049899658663
 20
-2004.661004584513
 30
0.0
  0
POINT
  5
51707
330
2
100
AcDbEntity
  8
Konstruktionslinie
100
AcDbPoint
 10
5292.333899658665
 20
-2020.113004584513
 30
0.0
  0
POINT
  5
51708
330
2
100
AcDbEntity
  8
Konstruktionslinie
100
AcDbPoint
 10
5213.159899658664
 20
-2013.881004584513
 30
0.0
  0
POINT
  5
51709
330
2
100
AcDbEntity
  8
Konstruktionslinie
100
AcDbPoint
 10
5335.549899658664
 20
-1626.732574584513
 30
0.0
  0
POINT
  5
5170A
330
2
100
AcDbEntity
  8
Konstruktionslinie
100
AcDbPoint
 10
5323.449899658664
 20
-1626.732574584513
 30
0.0
  0
LINE
  5
51724
330
2
100
AcDbEntity
  8
V1_025
  6
DASHED
100
AcDbLine
 10
5323.449899658664
 20
-2068.734004584513
 30
0.0
 11
5323.449899658665
 21
-2081.734004584513
 31
0.0
  0
LINE
  5
51725
330
2
100
AcDbEntity
  8
V1_025
  6
DASHED
100
AcDbLine
 10
5335.549899658664
 20
-2068.734004584513
 30
0.0
 11
5335.549899658665
 21
-2081.734004584513
 31
0.0
  0
LINE
  5
51726
330
2
100
AcDbEntity
  8
V1_025
100
AcDbLine
 10
5206.634899658664
 20
-2019.921004584513
 30
0.0
 11
5206.634899658664
 21
-2028.085004584513
 31
0.0
  0
LINE
  5
51727
330
2
100
AcDbEntity
  8
V1_025
100
AcDbLine
 10
5211.946899658664
 20
-2034.085004584513
 30
0.0
 11
5307.091899658664
 21
-2045.760004584513
 31
0.0
  0
LINE
  5
51728
330
2
100
AcDbEntity
  8
V1_025
100
AcDbLine
 10
5323.449899658664
 20
-2042.449004584513
 30
0.0
 11
5323.449899658664
 21
-2068.734004584513
 31
0.0
  0
LINE
  5
51729
330
2
100
AcDbEntity
  8
V1_025
100
AcDbLine
 10
5335.549899658664
 20
-2068.734004584513
 30
0.0
 11
5335.549899658664
 21
-1801.092004584513
 31
0.0
  0
LINE
  5
5172A
330
2
100
AcDbEntity
  8
V1_025
100
AcDbLine
 10
5324.624899658664
 20
-1780.510004584513
 30
0.0
 11
5331.830899658664
 21
-1761.710004584513
 31
0.0
  0
LINE
  5
5172B
330
2
100
AcDbEntity
  8
V1_025
100
AcDbLine
 10
5335.549899658664
 20
-1741.634004584513
 30
0.0
 11
5335.549899658664
 21
-1700.734004584513
 31
0.0
  0
LINE
  5
5172C
330
2
100
AcDbEntity
  8
V1_025
100
AcDbLine
 10
5323.449899658664
 20
-1700.734004584513
 30
0.0
 11
5323.449899658664
 21
-1741.634004584513
 31
0.0
  0
LINE
  5
5172D
330
2
100
AcDbEntity
  8
V1_025
100
AcDbLine
 10
5320.543899658663
 20
-1757.349004584513
 30
0.0
 11
5312.754899658663
 21
-1777.693004584513
 31
0.0
  0
LINE
  5
5172E
330
2
100
AcDbEntity
  8
V1_025
100
AcDbLine
 10
5309.049899658663
 20
-1797.734004584513
 30
0.0
 11
5309.049899658663
 21
-2004.661004584513
 31
0.0
  0
LINE
  5
5172F
330
2
100
AcDbEntity
  8
V1_025
100
AcDbLine
 10
5292.333899658665
 20
-2020.113004584513
 30
0.0
 11
5213.159899658664
 21
-2013.881004584513
 31
0.0
  0
ARC
  5
51731
330
2
100
AcDbEntity
  8
V1_025
100
AcDbCircle
 10
5308.33331434295
 20
-2031.815152861327
 30
0.0
 40
14.0
100
AcDbArc
 50
264.9127597050778
 51
319.8725961162673
  0
ARC
  5
51733
330
2
100
AcDbEntity
  8
V1_025
100
AcDbCircle
 10
5320.949899680524
 20
-2042.44867398461
 30
0.0
 40
2.5
100
AcDbArc
 50
359.9924232083306
 51
139.8892031888727
  0
ARC
  5
51734
330
2
100
AcDbEntity
  8
V1_025
100
AcDbCircle
 10
5329.499899658664
 20
-2068.734004584513
 30
0.0
 40
6.049999999999727
100
AcDbArc
 50
180.0
 51
0.0
  0
ARC
  5
51735
330
2
100
AcDbEntity
  8
V1_025
100
AcDbCircle
 10
5329.499899658844
 20
-1801.091957957993
 30
0.0
 40
6.049999999999998
100
AcDbArc
 50
359.9995584292851
 51
127.9309054278502
  0
ARC
  5
51736
330
2
100
AcDbEntity
  8
V1_025
100
AcDbCircle
 10
5324.244156020075
 20
-1794.348097135047
 30
0.0
 40
2.5
100
AcDbArc
 50
177.3154542884936
 51
307.9299401518083
  0
ARC
  5
51737
330
2
100
AcDbEntity
  8
V1_025
100
AcDbCircle
 10
5365.748375057169
 20
-1796.29804661475
 30
0.0
 40
44.05
100
AcDbArc
 50
158.997305660562
 51
177.3104133641089
  0
ARC
  5
51739
330
2
100
AcDbEntity
  8
V1_025
100
AcDbCircle
 10
5279.499899661633
 20
-1741.633427702218
 30
0.0
 40
56.05
100
AcDbArc
 50
339.0108907554764
 51
359.999410295793
  0
ARC
  5
5173A
330
2
100
AcDbEntity
  8
V1_025
100
AcDbCircle
 10
5329.499899658664
 20
-1700.734004584513
 30
0.0
 40
6.049999999999998
100
AcDbArc
 50
0.0
 51
180.0
  0
ARC
  5
5173B
330
2
100
AcDbEntity
  8
V1_025
100
AcDbCircle
 10
5279.499899669976
 20
-1741.633007481928
 30
0.0
 40
43.95
100
AcDbArc
 50
339.0478531788687
 51
359.9987001190013
  0
ARC
  5
5173C
330
2
100
AcDbEntity
  8
V1_025
100
AcDbCircle
 10
5365.099899650559
 20
-1797.733051387066
 30
0.0
 40
56.05
100
AcDbArc
 50
159.0508811890001
 51
180.0009743834211
  0
ARC
  5
5173D
330
2
100
AcDbEntity
  8
V1_025
100
AcDbCircle
 10
5293.549899660338
 20
-2004.660776784097
 30
0.0
 40
15.5
100
AcDbArc
 50
265.5004300536684
 51
359.99915793533
  0
ARC
  5
5173E
330
2
100
AcDbEntity
  8
V1_025
100
AcDbCircle
 10
5212.684893437741
 20
-2019.912328575983
 30
0.0
 40
6.049999999999998
100
AcDbArc
 50
85.49687753289751
 51
180.0821650978778
  0
ARC
  5
5173F
330
2
100
AcDbEntity
  8
V1_025
100
AcDbCircle
 10
5212.684897738923
 20
-2028.080184950791
 30
0.0
 40
6.049999999999998
100
AcDbArc
 50
180.0456437521099
 51
262.9934301301668
  0
ARC
  5
51740
330
2
100
AcDbEntity
  8
V1_025
100
AcDbCircle
 10
5236.099899638491
 20
-2276.05637499948
 30
0.0
 40
9.949999999999999
100
AcDbArc
 50
139.8824099416028
 51
180.00364841692
  0
ARC
  5
51741
330
2
100
AcDbEntity
  8
V1_025
100
AcDbCircle
 10
5279.499899685999
 20
-2122.141258020008
 30
0.0
 40
56.05
100
AcDbArc
 50
319.8764474026112
 51
359.9982105270651
  0
ARC
  5
51742
330
2
100
AcDbEntity
  8
V1_025
100
AcDbCircle
 10
5279.499899658741
 20
-2122.1429266784
 30
0.0
 40
43.95
100
AcDbArc
 50
319.8832133035241
 51
359.9998932224206
  0
LINE
  5
51743
330
2
100
AcDbEntity
  8
Achse
100
AcDbLine
 10
5195.099777658664
 20
-2086.734008584513
 30
0.0
 11
5378.099843658664
 21
-2086.734008584513
 31
0.0
  0
LINE
  5
51744
330
2
100
AcDbEntity
  8
Achse
100
AcDbLine
 10
5195.099777658664
 20
-2081.734008584513
 30
0.0
 11
5378.099843658664
 21
-2081.734008584513
 31
0.0
  0
LINE
  5
51745
330
2
100
AcDbEntity
  8
Achse
100
AcDbLine
 10
5195.099777658664
 20
-1681.734008584513
 30
0.0
 11
5378.099843658664
 21
-1681.734008584513
 31
0.0
  0
LINE
  5
51746
330
2
100
AcDbEntity
  8
Achse
100
AcDbLine
 10
5195.099777658664
 20
-1676.734008584513
 30
0.0
 11
5378.099843658664
 21
-1676.734008584513
 31
0.0
  0
ARC
  5
51747
330
2
100
AcDbEntity
  8
V1_025
100
AcDbCircle
 10
5220.099879933049
 20
-2270.251457841834
 30
0.0
 40
6.049999999999998
100
AcDbArc
 50
139.6829724308396
 51
179.8536895532061
  0
DIMENSION
  5
51748
330
2
100
AcDbEntity
  8
Bem 1_10
100
AcDbDimension
  2
*D3
 10
5402.025887898084
 20
-2276.734008584513
 30
0.0
 11
5402.025887898084
 21
-2309.234023584512
 31
0.0
 70
    32
  1
 
 71
     5
 42
65.00003000000015
  3
Bemassungsstil Karl
100
AcDbAlignedDimension
 13
5373.099765658665
 23
-2341.734038584514
 33
0.0
 14
5373.099873049969
 24
-2276.734008584513
 34
0.0
 50
90.0
100
AcDbRotatedDimension
  0
DIMENSION
  5
5175D
330
2
100
AcDbEntity
  8
Bem 1_10
100
AcDbDimension
  2
*D4
 10
5402.025887898084
 20
-1916.734004584513
 30
0.0
 11
5402.025887898084
 21
-2096.734006584513
 31
0.0
 70
    32
  1
 
 71
     5
 42
360.0000039999998
  3
Bemassungsstil Karl
100
AcDbAlignedDimension
 13
5373.099873049969
 23
-2276.734008584513
 33
0.0
 14
5373.099803638871
 24
-1916.734004584513
 34
0.0
 50
90.0
100
AcDbRotatedDimension
1001
ACAD
1000
DSTYLE
1002
{
1070
   279
1070
     1
1002
}
  0
MTEXT
  5
517AD
330
2
100
AcDbEntity
  8
0
100
AcDbMText
 10
5164.097763658664
 20
-1887.944962415422
 30
0.0
 40
20.0
 41
19.57517763327359
 71
     1
 72
     5
  1
b
  7
Beschlag
 73
     1
 44
1.0
1001
ACAD
1000
MTEXTBEGIN
1070
    73
1070
     1
1070
    44
1040
1.0
1070
    74
1070
     0
1000
MTEXTEND
  0
MTEXT
  5
517AF
330
2
100
AcDbEntity
  8
0
100
AcDbMText
 10
5419.509525149685
 20
-1887.944962415422
 30
0.0
 40
20.0
 41
19.57517763327359
 71
     1
 72
     5
  1
b
  7
Beschlag
 73
     1
 44
1.0
1001
ACAD
1000
MTEXTBEGIN
1070
    73
1070
     1
1070
    44
1040
1.0
1070
    74
1070
     0
1000
MTEXTEND
  0
MTEXT
  5
517B0
330
2
100
AcDbEntity
  8
0
100
AcDbMText
 10
5164.097763658664
 20
-2247.944966415422
 30
0.0
 40
20.0
 41
19.57517763327359
 71
     1
 72
     5
  1
c
  7
Beschlag
 73
     1
 44
1.0
1001
ACAD
1000
MTEXTBEGIN
1070
    73
1070
     1
1070
    44
1040
1.0
1070
    74
1070
     0
1000
MTEXTEND
  0
MTEXT
  5
517B1
330
2
100
AcDbEntity
  8
0
100
AcDbMText
 10
5419.509525149685
 20
-2247.944966415422
 30
0.0
 40
20.0
 41
19.57517763327359
 71
     1
 72
     5
  1
c
  7
Beschlag
 73
     1
 44
1.0
1001
ACAD
1000
MTEXTBEGIN
1070
    73
1070
     1
1070
    44
1040
1.0
1070
    74
1070
     0
1000
MTEXTEND
  0
MTEXT
  5
517B2
330
2
100
AcDbEntity
  8
0
100
AcDbMText
 10
5221.034697658664
 20
-2346.708961429261
 30
0.0
 40
20.0
 41
19.57517763327359
 71
     1
 72
     5
  1
a
  7
Beschlag
 73
     1
 44
1.0
1001
ACAD
1000
MTEXTBEGIN
1070
    73
1070
     1
1070
    44
1040
1.0
1070
    74
1070
     0
1000
MTEXTEND
  0
MTEXT
  5
517B3
330
2
100
AcDbEntity
  8
0
100
AcDbMText
 10
5221.034697658664
 20
-1572.657611228072
 30
0.0
 40
20.0
 41
19.57517763327359
 71
     1
 72
     5
  1
a
  7
Beschlag
 73
     1
 44
1.0
1001
ACAD
1000
MTEXTBEGIN
1070
    73
1070
     1
1070
    44
1040
1.0
1070
    74
1070
     0
1000
MTEXTEND
  0
MTEXT
  5
517B4
102
{ACAD_XDICTIONARY
360
51948
102
}
330
2
100
AcDbEntity
  8
0
100
AcDbMText
 10
5382.994117693026
 20
-2143.848972785133
 30
0.0
 40
10.0
 41
19.57517763327359
 71
     1
 72
     5
  1
{\fArial|b0|i0|c238|p34;Fl\U+00FCgelh\U+00F6he}
  7
Beschlag
 11
0.0000000000000001
 21
1.0
 31
0.0
 73
     1
 44
1.0
1001
ACAD
1000
MTEXTBEGIN
1070
    73
1070
     1
1070
    44
1040
1.0
1070
    74
1070
     0
1000
MTEXTEND
  0
LINE
  5
517B5
102
{ACAD_REACTORS
330
517BC
102
}
330
2
100
AcDbEntity
  8
0
  6
Continuous
390
5101B
100
AcDbLine
 10
5264.756489464537
 20
-1861.671987594782
 30
0.0
 11
5266.912763308262
 21
-1861.671987279876
 31
0.0
  0
LINE
  5
517B6
102
{ACAD_REACTORS
330
517BC
102
}
330
2
100
AcDbEntity
  8
0
  6
Continuous
390
5101B
100
AcDbLine
 10
5263.613647087233
 20
-1855.957690584547
 30
0.0
 11
5260.314508192244
 21
-1861.671963603489
 31
0.0
  0
LINE
  5
517B7
102
{ACAD_REACTORS
330
517BC
102
}
330
2
100
AcDbEntity
  8
0
  6
Continuous
390
5101B
100
AcDbLine
 10
5263.613614515835
 20
-1855.957690013106
 30
0.0
 11
5266.912746736859
 21
-1861.67196156561
 31
0.0
  0
LINE
  5
517B8
102
{ACAD_REACTORS
330
517BC
102
}
330
2
100
AcDbEntity
  8
0
  6
Continuous
390
5101B
100
AcDbLine
 10
5262.470779316208
 20
-1870.243373574312
 30
0.0
 11
5262.470776321681
 21
-1861.67198385999
 31
0.0
  0
LINE
  5
517B9
102
{ACAD_REACTORS
330
517BC
102
}
330
2
100
AcDbEntity
  8
0
  6
Continuous
390
5101B
100
AcDbLine
 10
5264.756491316209
 20
-1870.243372166251
 30
0.0
 11
5264.756488321683
 21
-1861.67198245193
 31
0.0
  0
LINE
  5
517BA
102
{ACAD_REACTORS
330
517BC
102
}
330
2
100
AcDbEntity
  8
0
  6
Continuous
390
5101B
100
AcDbLine
 10
5262.470783316189
 20
-1870.243408431421
 30
0.0
 11
5264.756495316191
 21
-1870.243407023361
 31
0.0
  0
LINE
  5
517BB
102
{ACAD_REACTORS
330
517BC
102
}
330
2
100
AcDbEntity
  8
0
  6
Continuous
390
5101B
100
AcDbLine
 10
5260.314490477965
 20
-1861.671988174887
 30
0.0
 11
5262.470777464535
 21
-1861.671987859986
 31
0.0
  0
CIRCLE
  5
517C2
330
2
100
AcDbEntity
  8
Punkte
  6
Continuous
 62
    20
390
5101B
100
AcDbCircle
 10
5213.159899658664
 20
-2013.881004584513
 30
0.0
 40
1.407999999999999
  0
CIRCLE
  5
517C3
330
2
100
AcDbEntity
  8
Punkte
  6
Continuous
 62
    20
390
5101B
100
AcDbCircle
 10
5292.333899658665
 20
-2020.113004584513
 30
0.0
 40
1.407999999999999
  0
CIRCLE
  5
517C4
330
2
100
AcDbEntity
  8
Punkte
  6
Continuous
 62
    20
390
5101B
100
AcDbCircle
 10
5309.049899658663
 20
-2004.661004584513
 30
0.0
 40
1.407999999999999
  0
CIRCLE
  5
517C5
330
2
100
AcDbEntity
  8
Punkte
  6
Continuous
 62
    20
390
5101B
100
AcDbCircle
 10
5309.049899658663
 20
-1797.734004584513
 30
0.0
 40
1.407999999999999
  0
CIRCLE
  5
517C6
330
2
100
AcDbEntity
  8
Punkte
  6
Continuous
 62
    20
390
5101B
100
AcDbCircle
 10
5312.754899658663
 20
-1777.693004584513
 30
0.0
 40
1.407999999999999
  0
CIRCLE
  5
517C7
330
2
100
AcDbEntity
  8
Punkte
  6
Continuous
 62
    20
390
5101B
100
AcDbCircle
 10
5320.543899658663
 20
-1757.349004584513
 30
0.0
 40
1.407999999999999
  0
CIRCLE
  5
517C8
330
2
100
AcDbEntity
  8
Punkte
  6
Continuous
 62
    20
390
5101B
100
AcDbCircle
 10
5323.449899658664
 20
-1741.634004584513
 30
0.0
 40
1.407999999999999
  0
CIRCLE
  5
517C9
330
2
100
AcDbEntity
  8
Punkte
  6
Continuous
 62
    20
390
5101B
100
AcDbCircle
 10
5323.449899658664
 20
-1700.734004584513
 30
0.0
 40
1.407999999999999
  0
CIRCLE
  5
517CA
330
2
100
AcDbEntity
  8
Punkte
  6
Continuous
 62
    20
390
5101B
100
AcDbCircle
 10
5323.449899658664
 20
-1626.732574584513
 30
0.0
 40
1.407999999999999
  0
CIRCLE
  5
517CB
330
2
100
AcDbEntity
  8
Punkte
  6
Continuous
 62
    20
390
5101B
100
AcDbCircle
 10
5335.549899658664
 20
-1626.732574584513
 30
0.0
 40
1.407999999999999
  0
CIRCLE
  5
517CC
330
2
100
AcDbEntity
  8
Punkte
  6
Continuous
 62
    20
390
5101B
100
AcDbCircle
 10
5335.549899658664
 20
-1700.734004584513
 30
0.0
 40
1.407999999999999
  0
CIRCLE
  5
517CD
330
2
100
AcDbEntity
  8
Punkte
  6
Continuous
 62
    20
390
5101B
100
AcDbCircle
 10
5335.549899658664
 20
-1741.634004584513
 30
0.0
 40
1.407999999999999
  0
CIRCLE
  5
517CE
330
2
100
AcDbEntity
  8
Punkte
  6
Continuous
 62
    20
390
5101B
100
AcDbCircle
 10
5331.830899658664
 20
-1761.710004584513
 30
0.0
 40
1.407999999999999
  0
CIRCLE
  5
517CF
330
2
100
AcDbEntity
  8
Punkte
  6
Continuous
 62
    20
390
5101B
100
AcDbCircle
 10
5324.624899658664
 20
-1780.510004584513
 30
0.0
 40
1.407999999999999
  0
CIRCLE
  5
517D0
330
2
100
AcDbEntity
  8
Punkte
  6
Continuous
 62
    20
390
5101B
100
AcDbCircle
 10
5321.746899658664
 20
-1794.231004584513
 30
0.0
 40
1.407999999999999
  0
CIRCLE
  5
517D1
330
2
100
AcDbEntity
  8
Punkte
  6
Continuous
 62
    20
390
5101B
100
AcDbCircle
 10
5325.780899658663
 20
-1796.320004584513
 30
0.0
 40
1.407999999999999
  0
CIRCLE
  5
517D2
330
2
100
AcDbEntity
  8
Punkte
  6
Continuous
 62
    20
390
5101B
100
AcDbCircle
 10
5335.549899658664
 20
-1801.092004584513
 30
0.0
 40
1.407999999999999
  0
CIRCLE
  5
517D3
330
2
100
AcDbEntity
  8
Punkte
  6
Continuous
 62
    20
390
5101B
100
AcDbCircle
 10
5335.549899658664
 20
-2068.734004584513
 30
0.0
 40
1.407999999999999
  0
CIRCLE
  5
517D4
330
2
100
AcDbEntity
  8
Punkte
  6
Continuous
 62
    20
390
5101B
100
AcDbCircle
 10
5323.449899658664
 20
-2068.734004584513
 30
0.0
 40
1.407999999999999
  0
CIRCLE
  5
517D5
330
2
100
AcDbEntity
  8
Punkte
  6
Continuous
 62
    20
390
5101B
100
AcDbCircle
 10
5323.449899658664
 20
-2042.449004584513
 30
0.0
 40
1.407999999999999
  0
CIRCLE
  5
517D6
330
2
100
AcDbEntity
  8
Punkte
  6
Continuous
 62
    20
390
5101B
100
AcDbCircle
 10
5319.037899658664
 20
-2040.838004584513
 30
0.0
 40
1.407999999999999
  0
CIRCLE
  5
517D7
330
2
100
AcDbEntity
  8
Punkte
  6
Continuous
 62
    20
390
5101B
100
AcDbCircle
 10
5307.091899658664
 20
-2045.760004584513
 30
0.0
 40
1.407999999999999
  0
CIRCLE
  5
517D8
330
2
100
AcDbEntity
  8
Punkte
  6
Continuous
 62
    20
390
5101B
100
AcDbCircle
 10
5211.946899658664
 20
-2034.085004584513
 30
0.0
 40
1.407999999999999
  0
CIRCLE
  5
517D9
330
2
100
AcDbEntity
  8
Punkte
  6
Continuous
 62
    20
390
5101B
100
AcDbCircle
 10
5206.634899658664
 20
-2028.085004584513
 30
0.0
 40
1.407999999999999
  0
CIRCLE
  5
517DA
330
2
100
AcDbEntity
  8
Punkte
  6
Continuous
 62
    20
390
5101B
100
AcDbCircle
 10
5206.634899658664
 20
-2019.921004584513
 30
0.0
 40
1.407999999999999
  0
CIRCLE
  5
517DB
330
2
100
AcDbEntity
  8
Punkte
  6
Continuous
 62
    20
390
5101B
100
AcDbCircle
 10
5214.049899658665
 20
-2270.236008584513
 30
0.0
 40
1.407999999999999
  0
CIRCLE
  5
517DC
330
2
100
AcDbEntity
  8
Punkte
  6
Continuous
 62
    20
390
5101B
100
AcDbCircle
 10
5215.486899658664
 20
-2266.337008584513
 30
0.0
 40
1.407999999999999
  0
CIRCLE
  5
517DD
330
2
100
AcDbEntity
  8
Punkte
  6
Continuous
 62
    20
390
5101B
100
AcDbCircle
 10
5313.109899658664
 20
-2150.462008584513
 30
0.0
 40
1.407999999999999
  0
CIRCLE
  5
517DE
330
2
100
AcDbEntity
  8
Punkte
  6
Continuous
 62
    20
390
5101B
100
AcDbCircle
 10
5323.449899658664
 20
-2122.143008584513
 30
0.0
 40
1.407999999999999
  0
CIRCLE
  5
517DF
330
2
100
AcDbEntity
  8
Punkte
  6
Continuous
 62
    20
390
5101B
100
AcDbCircle
 10
5323.449899658664
 20
-2099.734008584513
 30
0.0
 40
1.407999999999999
  0
CIRCLE
  5
517E0
330
2
100
AcDbEntity
  8
Punkte
  6
Continuous
 62
    20
390
5101B
100
AcDbCircle
 10
5335.549899658664
 20
-2099.734008584513
 30
0.0
 40
1.407999999999999
  0
CIRCLE
  5
517E1
330
2
100
AcDbEntity
  8
Punkte
  6
Continuous
 62
    20
390
5101B
100
AcDbCircle
 10
5335.549899658664
 20
-2122.143008584513
 30
0.0
 40
1.407999999999999
  0
CIRCLE
  5
517E2
330
2
100
AcDbEntity
  8
Punkte
  6
Continuous
 62
    20
390
5101B
100
AcDbCircle
 10
5322.358899658664
 20
-2158.262008584513
 30
0.0
 40
1.407999999999999
  0
CIRCLE
  5
517E3
330
2
100
AcDbEntity
  8
Punkte
  6
Continuous
 62
    20
390
5101B
100
AcDbCircle
 10
5228.490899658662
 20
-2269.645008584513
 30
0.0
 40
1.407999999999999
  0
CIRCLE
  5
517E4
330
2
100
AcDbEntity
  8
Punkte
  6
Continuous
 62
    20
390
5101B
100
AcDbCircle
 10
5226.149899658665
 20
-2276.057008584513
 30
0.0
 40
1.407999999999999
  0
CIRCLE
  5
517E5
330
2
100
AcDbEntity
  8
Punkte
  6
Continuous
 62
    20
390
5101B
100
AcDbCircle
 10
5226.149899658665
 20
-2282.734008584513
 30
0.0
 40
1.407999999999999
  0
CIRCLE
  5
517E6
330
2
100
AcDbEntity
  8
Punkte
  6
Continuous
 62
    20
390
5101B
100
AcDbCircle
 10
5214.049899658665
 20
-2282.734008584513
 30
0.0
 40
1.407999999999999
  0
DIMENSION
  5
5183D
330
2
100
AcDbEntity
  8
Bem 1_10
100
AcDbDimension
  2
*D6
 10
5293.549899660344
 20
-2004.660776784104
 30
0.0
 11
5285.387462146589
 21
-1998.197808868856
 31
0.0
 70
   164
 71
     5
 42
15.49999999999181
  3
Bemassungsstil Karl
100
AcDbRadialDimension
 15
5305.701857691282
 25
-2014.282622553708
 35
0.0
 40
0.0
1001
ACAD
1000
DSTYLE
1002
{
1070
   279
1070
     1
1070
   288
1070
     1
1002
}
  0
DIMENSION
  5
51846
330
2
100
AcDbEntity
  8
Bem 1_10
100
AcDbDimension
  2
*D7
 10
5212.684893437732
 20
-2019.912328575979
 30
0.0
 11
5198.837068121122
 21
-2010.622906688674
 31
0.0
 70
    36
 71
     5
 42
6.049999999990177
  3
Bemassungsstil Karl
100
AcDbRadialDimension
 15
5207.660644972041
 25
-2016.541953618369
 35
0.0
 40
0.0
1001
ACAD
1000
DSTYLE
1002
{
1070
   288
1070
     1
1002
}
  0
DIMENSION
  5
5184F
330
2
100
AcDbEntity
  8
Bem 1_10
100
AcDbDimension
  2
*D8
 10
5212.684897738923
 20
-2028.080184950795
 30
0.0
 11
5195.816460590048
 21
-2036.954664183901
 31
0.0
 70
   164
 71
     5
 42
6.049999999998362
  3
Bemassungsstil Karl
100
AcDbRadialDimension
 15
5207.330665654186
 25
-2030.897044688652
 35
0.0
 40
0.0
1001
ACAD
1000
DSTYLE
1002
{
1070
   288
1070
     1
1002
}
  0
DIMENSION
  5
5185F
330
2
100
AcDbEntity
  8
Bem 1_10
100
AcDbDimension
  2
*D9
 10
5308.333314342949
 20
-2031.815152861327
 30
0.0
 11
5308.850181974665
 21
-2037.248959135852
 31
0.0
 70
   164
 71
     5
 42
14.00000000000045
  3
Bemassungsstil Karl
100
AcDbRadialDimension
 15
5309.659020634982
 25
-2045.752243763924
 35
0.0
 40
0.0
1001
ACAD
1000
DSTYLE
1002
{
1070
   288
1070
     1
1002
}
  0
DIMENSION
  5
51868
330
2
100
AcDbEntity
  8
Bem 1_10
100
AcDbDimension
  2
*D10
 10
5320.949899680535
 20
-2042.448673984615
 30
0.0
 11
5324.836587632961
 21
-2031.007493922885
 31
0.0
 70
    36
 71
     5
 42
2.500000000001591
  3
Bemassungsstil Karl
100
AcDbRadialDimension
 15
5321.75404201552
 25
-2040.081533282187
 35
0.0
 40
0.0
1001
ACAD
1000
DSTYLE
1002
{
1070
   288
1070
     1
1002
}
  0
DIMENSION
  5
51872
330
2
100
AcDbEntity
  8
Bem 1_10
100
AcDbDimension
  2
*D11
 10
5329.499899658658
 20
-2068.734004584514
 30
0.0
 11
5328.11713986184
 21
-2063.916996822623
 31
0.0
 70
   164
 71
     5
 42
6.050000000001091
  3
Bemassungsstil Karl
100
AcDbRadialDimension
 15
5331.169184462765
 25
-2074.549156194127
 35
0.0
 40
0.0
1001
ACAD
1000
DSTYLE
1002
{
1070
   279
1070
     1
1070
   288
1070
     1
1002
}
  0
DIMENSION
  5
5187B
330
2
100
AcDbEntity
  8
Bem 1_10
100
AcDbDimension
  2
*D12
 10
5329.499899658812
 20
-1801.091957957989
 30
0.0
 11
5345.186662002843
 21
-1795.436773419631
 31
0.0
 70
    36
 71
     5
 42
6.050000000030195
  3
Bemassungsstil Karl
100
AcDbRadialDimension
 15
5335.19134866521
 25
-1799.040151873601
 35
0.0
 40
0.0
1001
ACAD
1000
DSTYLE
1002
{
1070
   288
1070
     1
1002
}
  0
DIMENSION
  5
51885
330
2
100
AcDbEntity
  8
Bem 1_10
100
AcDbDimension
  2
*D13
 10
5324.244156020065
 20
-1794.348097135044
 30
0.0
 11
5317.981355092033
 21
-1804.681744554044
 31
0.0
 70
    36
 71
     5
 42
2.499999999997044
  3
Bemassungsstil Karl
100
AcDbRadialDimension
 15
5322.948404103922
 25
-1796.486093152767
 35
0.0
 40
0.0
1001
ACAD
1000
DSTYLE
1002
{
1070
   288
1070
     1
1002
}
  0
DIMENSION
  5
5188F
330
2
100
AcDbEntity
  8
Bem 1_10
100
AcDbDimension
  2
*D14
 10
5365.748375057169
 20
-1796.29804661475
 30
0.0
 11
5337.308322987997
 21
-1789.607767168368
 31
0.0
 70
   164
 71
     5
 42
44.05000000000018
  3
Bemassungsstil Karl
100
AcDbRadialDimension
 15
5322.868845462218
 25
-1786.21100335541
 35
0.0
 40
0.0
1001
ACAD
1000
DSTYLE
1002
{
1070
   288
1070
     1
1002
}
  0
DIMENSION
  5
51898
330
2
100
AcDbEntity
  8
Bem 1_10
100
AcDbDimension
  2
*D15
 10
5365.099899650559
 20
-1797.733051387059
 30
0.0
 11
5329.804091380062
 21
-1793.624991551585
 31
0.0
 70
   164
 71
     5
 42
56.04999999999837
  3
Bemassungsstil Karl
100
AcDbRadialDimension
 15
5309.425726377546
 25
-1791.253164785702
 35
0.0
 40
0.0
1001
ACAD
1000
DSTYLE
1002
{
1070
   288
1070
     1
1002
}
  0
DIMENSION
  5
518B5
330
2
100
AcDbEntity
  8
Bem 1_10
100
AcDbDimension
  2
*D16
 10
5279.499899669982
 20
-1741.633007481928
 30
0.0
 11
5309.264881350376
 21
-1750.681729388469
 31
0.0
 70
   164
 71
     5
 42
43.94999999999344
  3
Bemassungsstil Karl
100
AcDbRadialDimension
 15
5321.549722780162
 25
-1754.416390305034
 35
0.0
 40
0.0
1001
ACAD
1000
DSTYLE
1002
{
1070
   288
1070
     1
1002
}
  0
DIMENSION
  5
518BE
330
2
100
AcDbEntity
  8
Bem 1_10
100
AcDbDimension
  2
*D17
 10
5279.499899661648
 20
-1741.633427702217
 30
0.0
 11
5311.69341660889
 21
-1745.286560281478
 31
0.0
 70
   164
 71
     5
 42
56.04999999998472
  3
Bemassungsstil Karl
100
AcDbRadialDimension
 15
5335.192486874763
 25
-1747.953097749606
 35
0.0
 40
0.0
1001
ACAD
1000
DSTYLE
1002
{
1070
   288
1070
     1
1002
}
  0
DIMENSION
  5
518C7
330
2
100
AcDbEntity
  8
Bem 1_10
100
AcDbDimension
  2
*D18
 10
5329.499899658665
 20
-1700.734004584514
 30
0.0
 11
5328.741904632751
 21
-1707.768682516982
 31
0.0
 70
   164
 71
     5
 42
6.050000000001318
  3
Bemassungsstil Karl
100
AcDbRadialDimension
 15
5330.148042733807
 25
-1694.718822911933
 35
0.0
 40
0.0
1001
ACAD
1000
DSTYLE
1002
{
1070
   279
1070
     1
1070
   288
1070
     1
1002
}
  0
DIMENSION
  5
518FB
330
2
100
AcDbEntity
  8
Bem 1_10
100
AcDbDimension
  2
*D19
 10
5329.49989965865
 20
-2099.734008584509
 30
0.0
 11
5328.637569161878
 21
-2104.227004368433
 31
0.0
 70
   164
 71
     5
 42
6.049999999997908
  3
Bemassungsstil Karl
100
AcDbRadialDimension
 15
5330.640249277332
 25
-2093.792451318341
 35
0.0
 40
0.0
1001
ACAD
1000
DSTYLE
1002
{
1070
   288
1070
     1
1002
}
  0
DIMENSION
  5
51904
330
2
100
AcDbEntity
  8
Bem 1_10
100
AcDbDimension
  2
*D20
 10
5279.499899658743
 20
-2122.142926678401
 30
0.0
 11
5310.444732670313
 21
-2129.752246906277
 31
0.0
 70
   164
 71
     5
 42
43.94999999999799
  3
Bemassungsstil Karl
100
AcDbRadialDimension
 15
5322.178521338404
 25
-2132.637580151679
 35
0.0
 40
0.0
1001
ACAD
1000
DSTYLE
1002
{
1070
   288
1070
     1
1002
}
  0
DIMENSION
  5
5190D
330
2
100
AcDbEntity
  8
Bem 1_10
100
AcDbDimension
  2
*D21
 10
5279.499899686005
 20
-2122.14125802001
 30
0.0
 11
5307.407665098219
 21
-2136.345238327518
 31
0.0
 70
   164
 71
     5
 42
56.04999999999382
  3
Bemassungsstil Karl
100
AcDbRadialDimension
 15
5329.452204033113
 25
-2147.56506163814
 35
0.0
 40
0.0
1001
ACAD
1000
DSTYLE
1002
{
1070
   288
1070
     1
1002
}
  0
DIMENSION
  5
51920
330
2
100
AcDbEntity
  8
Bem 1_10
100
AcDbDimension
  2
*D22
 10
5220.099879933055
 20
-2270.251457841833
 30
0.0
 11
5203.603281155227
 21
-2263.323837190677
 31
0.0
 70
   164
 71
     5
 42
6.050000000004729
  3
Bemassungsstil Karl
100
AcDbRadialDimension
 15
5214.521773413989
 25
-2267.908974616275
 35
0.0
 40
0.0
1001
ACAD
1000
DSTYLE
1002
{
1070
   288
1070
     1
1002
}
  0
DIMENSION
  5
51930
330
2
100
AcDbEntity
  8
Bem 1_10
100
AcDbDimension
  2
*D23
 10
5220.099899658677
 20
-2282.734008584516
 30
0.0
 11
5223.554259459544
 21
-2299.047286102108
 31
0.0
 70
    36
 71
     5
 42
6.049999999993815
  3
Bemassungsstil Karl
100
AcDbRadialDimension
 15
5221.353205613413
 25
-2288.652768943219
 35
0.0
 40
0.0
1001
ACAD
1000
DSTYLE
1002
{
1070
   288
1070
     1
1002
}
  0
DIMENSION
  5
5193A
330
2
100
AcDbEntity
  8
Bem 1_10
100
AcDbDimension
  2
*D24
 10
5236.09989963852
 20
-2276.056374999479
 30
0.0
 11
5242.052205635956
 21
-2278.394155052961
 31
0.0
 70
   164
 71
     5
 42
9.950000000026193
  3
Bemassungsstil Karl
100
AcDbRadialDimension
 15
5226.838590899092
 25
-2272.418977518654
 35
0.0
 40
0.0
1001
ACAD
1000
DSTYLE
1002
{
1070
   279
1070
     1
1070
   288
1070
     1
1002
}
  0
VIEWPORT
  5
517FD
102
{ACAD_XDICTIONARY
360
5194B
102
}
330
517F6
100
AcDbEntity
 67
     1
  8
0
100
AcDbViewport
 10
5.572402000960334
 20
2.489437603921638
 30
0.0
 40
24.4974267152115
 41
19.16186152488271
 68
     1
 69
     1
 12
5.572402000960334
 22
2.489437603921638
 13
0.0
 23
0.0
 14
10.0
 24
10.0
 15
10.0
 25
10.0
 16
0.0
 26
0.0
 36
1.0
 17
0.0
 27
0.0
 37
0.0
 42
50.0
 43
0.0
 44
0.0
 45
19.16186152488271
 50
0.0
 51
0.0
 72
  1000
 90
   557088
  1

281
     0
 71
     1
 74
     0
110
0.0
120
0.0
130
0.0
111
1.0
121
0.0
131
0.0
112
0.0
122
1.0
132
0.0
 79
     0
146
0.0
  0
VIEWPORT
  5
517FF
102
{ACAD_XDICTIONARY
360
5194D
102
}
330
517F6
100
AcDbEntity
 67
     1
  8
V1_035
100
AcDbViewport
 10
5.678332987732773
 20
3.966666779180211
 30
0.0
 40
9.085332780372439
 41
6.346666846688337
 68
     2
 69
     2
 12
5409.049819658664
 22
-45705.03860258451
 13
0.0
 23
0.0
 14
0.5
 24
0.5
 15
0.5
 25
0.5
 16
0.0
 26
0.0
 36
1.0
 17
0.0
 27
0.0
 37
0.0
 42
50.0
 43
0.0
 44
0.0
 45
89358.33844649797
 50
0.0
 51
0.0
 72
  1000
 90
   823392
  1

281
     0
 71
     1
 74
     0
110
0.0
120
0.0
130
0.0
111
1.0
121
0.0
131
0.0
112
0.0
122
1.0
132
0.0
 79
     0
146
0.0
  0
ENDSEC
  0
SECTION
  2
OBJECTS
  0
DICTIONARY
  5
7
330
0
100
AcDbDictionary
281
     1
  3
ACAD_COLOR
350
74
  3
ACAD_GROUP
350
1F
  3
ACAD_LAYOUT
350
B
  3
ACAD_MATERIAL
350
73
  3
ACAD_MLINESTYLE
350
20
  3
ACAD_PLOTSETTINGS
350
21
  3
ACAD_PLOTSTYLENAME
350
6
  3
ACAD_TABLESTYLE
350
B2
  3
ACAD_VISUALSTYLE
350
A1
  3
AcDbVariableDictionary
350
BA
  3
AEC_CLASSIFICATION_SYSTEM_DEFS
350
311E5
  3
AEC_PROPERTY_SET_DEFS
350
311E6
  3
DWGPROPS
350
51943
  0
DICTIONARY
  5
73F
330
10
100
AcDbDictionary
280
     1
281
     1
  3
ACAD_LAYERFILTERS
360
517EE
  3
ACAD_LAYERSTATES
360
740
  3
ACLYDICTIONARY
360
517ED
  0
DICTIONARY
  5
75C6
330
2
100
AcDbDictionary
280
     1
281
     1
  3
ACAD_SORTENTS
360
75C7
  0
DICTIONARY
  5
51948
330
517B4
100
AcDbDictionary
280
     1
281
     1
  3
ACAD_MTEXT_RT
360
51949
  0
DICTIONARY
  5
5194B
330
517FD
100
AcDbDictionary
280
     1
281
     1
  3
ACAD_XREC_ROUNDTRIP
360
5194C
  0
DICTIONARY
  5
5194D
330
517FF
100
AcDbDictionary
280
     1
281
     1
  3
ACAD_XREC_ROUNDTRIP
360
5194E
  0
DICTIONARY
  5
74
102
{ACAD_REACTORS
330
7
102
}
330
7
100
AcDbDictionary
281
     1
  0
DICTIONARY
  5
1F
102
{ACAD_REACTORS
330
7
102
}
330
7
100
AcDbDictionary
281
     1
  3
*A1
350
50E60
  3
*A2
350
517BC
  0
DICTIONARY
  5
B
102
{ACAD_REACTORS
330
7
102
}
330
7
100
AcDbDictionary
281
     1
  3
Layout1
350
517F7
  3
Model
350
A
  0
DICTIONARY
  5
73
102
{ACAD_REACTORS
330
7
102
}
330
7
100
AcDbDictionary
281
     1
  3
ByBlock
350
9F
  3
ByLayer
350
9E
  3
Global
350
A0
  0
DICTIONARY
  5
20
102
{ACAD_REACTORS
330
7
102
}
330
7
100
AcDbDictionary
281
     1
  3
Standard
350
23
  0
DICTIONARY
  5
21
102
{ACAD_REACTORS
330
7
102
}
330
7
100
AcDbDictionary
281
     1
  0
ACDBDICTIONARYWDFLT
  5
6
102
{ACAD_REACTORS
330
7
102
}
330
7
100
AcDbDictionary
281
     1
  3
Farbe_20
350
5101B
  3
Farbe_4
350
5101E
  3
Farbe_7
350
5101F
  3
Normal
350
5
100
AcDbDictionaryWithDefault
340
5
  0
DICTIONARY
  5
B2
102
{ACAD_REACTORS
330
7
102
}
330
7
100
AcDbDictionary
281
     1
  3
Standard
350
B3
  0
DICTIONARY
  5
A1
102
{ACAD_REACTORS
330
7
102
}
330
7
100
AcDbDictionary
281
     1
  3
2dWireframe
350
A7
  3
3D Hidden
350
A9
  3
3dWireframe
350
A8
  3
Basic
350
A6
  3
Brighten
350
AD
  3
ColorChange
350
B1
  3
Conceptual
350
AA
  3
Dim
350
AC
  3
Facepattern
350
B0
  3
Flat
350
A2
  3
FlatWithEdges
350
A3
  3
Gouraud
350
A4
  3
GouraudWithEdges
350
A5
  3
Linepattern
350
AF
  3
Realistic
350
AB
  3
Thicken
350
AE
  0
DICTIONARY
  5
BA
102
{ACAD_REACTORS
330
7
102
}
330
7
100
AcDbDictionary
281
     1
  3
CTABLESTYLE
350
BB
  3
DIMASSOC
350
51809
  3
INDEXCTL
350
51808
  3
SORTENTS
350
51807
  0
DICTIONARY
  5
311E5
102
{ACAD_REACTORS
330
7
102
}
330
7
100
AcDbDictionary
281
     1
  0
DICTIONARY
  5
311E6
102
{ACAD_REACTORS
330
7
102
}
330
7
100
AcDbDictionary
281
     1
  0
XRECORD
  5
51943
102
{ACAD_REACTORS
330
7
102
}
330
7
100
AcDbXrecord
280
     1
  1
DWGPROPS COOKIE
  2

  3

  4

  6

  7

  8
kni
  9

300
=
301
=
302
=
303
=
304
=
305
=
306
=
307
=
308
=
309
=
 40
0.2791981712962963
 41
2454889.588798877
 42
2454893.712145254
  1

 90
        0
  0
DICTIONARY
  5
517EE
102
{ACAD_REACTORS
330
73F
102
}
330
73F
100
AcDbDictionary
281
     1
  0
DICTIONARY
  5
740
102
{ACAD_REACTORS
330
73F
102
}
330
73F
100
AcDbDictionary
281
     1
  0
DICTIONARY
  5
517ED
102
{ACAD_REACTORS
330
73F
102
}
330
73F
100
AcDbDictionary
281
     1
1001
ACAD
1000
<All
  0
SORTENTSTABLE
  5
75C7
102
{ACAD_REACTORS
330
75C6
102
}
330
75C6
100
AcDbSortentsTable
330
2
331
512DC
  5
512E4
331
514C3
  5
511C1
331
517C2
  5
517B6
331
512E4
  5
512EC
331
517CA
  5
517AD
331
512EC
  5
512F4
331
517BA
  5
516B3
331
51248
  5
51250
331
511D2
  5
511DA
331
516CC
  5
516F4
331
51250
  5
51268
331
511DA
  5
511E2
331
51297
  5
5129F
331
512A9
  5
512B1
331
5172B
  5
517C5
331
511E2
  5
511EA
331
5129F
  5
512A7
331
512A7
  5
512AF
331
516E4
  5
516FE
331
51268
  5
51270
331
512F4
  5
512FC
331
51733
  5
517CB
331
512B5
  5
512BD
331
517D2
  5
51742
331
512FC
  5
51304
331
5173B
  5
517D1
331
512BD
  5
512C5
331
517DA
  5
5173A
331
517E2
  5
516E5
331
512C5
  5
512CD
331
51304
  5
5130C
331
51743
  5
517D9
331
512CD
  5
512D5
331
5130C
  5
51314
331
51270
  5
51278
331
511F2
  5
511FA
331
51278
  5
51280
331
511C3
  5
511CB
331
511FA
  5
51202
331
516F4
  5
51707
331
51231
  5
51239
331
51239
  5
51241
331
516FC
  5
5170F
331
514E3
  5
511C8
331
51280
  5
51288
331
516B5
  5
516C1
331
51212
  5
5121A
331
51241
  5
51249
331
51704
  5
51731
331
511CB
  5
511D3
331
51288
  5
51290
331
517B3
  5
517E5
331
512D5
  5
512DD
331
51314
  5
51320
331
512DD
  5
512E5
331
512E5
  5
512ED
331
514DC
  5
511C6
331
517C3
  5
517B5
331
517CB
  5
5175D
331
512ED
  5
512F5
331
517BB
  5
516B4
331
51249
  5
51251
331
516CD
  5
516F5
331
511D3
  5
511DB
331
51290
  5
51298
331
51298
  5
512A0
331
511DB
  5
511E3
331
51724
  5
517B7
331
51251
  5
51269
331
512A0
  5
512A8
331
5172C
  5
517C6
331
511E3
  5
511EB
331
512AA
  5
512B2
331
51269
  5
51271
331
511EB
  5
511F3
331
516E5
  5
516FF
331
517D3
  5
51741
331
512B6
  5
512BE
331
512F5
  5
512FD
331
51734
  5
517C3
331
5173C
  5
517D2
331
517DB
  5
516F3
331
512BE
  5
512C6
331
512FD
  5
51305
331
51305
  5
5130D
331
51744
  5
517DA
331
512C6
  5
512CE
331
517E3
  5
516E4
331
5130D
  5
51315
331
512CE
  5
512D6
331
51271
  5
51279
331
511BC
  5
511BF
331
511F3
  5
511FB
331
511FB
  5
51203
331
516F5
  5
51708
331
51232
  5
5123A
331
51279
  5
51281
331
51281
  5
51289
331
516B6
  5
516C2
331
516FD
  5
51710
331
5123A
  5
51242
331
51289
  5
51291
331
51213
  5
5121B
331
51242
  5
5124A
331
512D6
  5
512DE
331
51315
  5
51321
331
517B4
  5
517E6
331
512DE
  5
512E6
331
517C4
  5
517B4
331
512E6
  5
512EE
331
517CC
  5
51748
331
512EE
  5
512F6
331
5124A
  5
51252
331
511D4
  5
511DC
331
51291
  5
51299
331
516CE
  5
516F6
331
51252
  5
5126A
331
51725
  5
517B8
331
511DC
  5
511E4
331
51299
  5
512A1
331
512AB
  5
512B3
331
5172D
  5
517C7
331
512A1
  5
512A9
331
511EC
  5
511F4
331
516E6
  5
51700
331
5126A
  5
51272
331
512F6
  5
512FE
331
51735
  5
517CC
331
512B7
  5
512BF
331
517D4
  5
51740
331
517DC
  5
516F2
331
512FE
  5
51306
331
5173D
  5
517D3
331
512BF
  5
512C7
331
517E4
  5
516E3
331
512C7
  5
512CF
331
51306
  5
5130E
331
51745
  5
517DB
331
517AD
  5
517E0
331
512CF
  5
512D7
331
5130E
  5
51316
331
51272
  5
5127A
331
511BD
  5
511C0
331
511F4
  5
511FC
331
5127A
  5
51282
331
511C5
  5
511CD
331
511FC
  5
51204
331
516A7
  5
516B7
331
516F6
  5
51709
331
51233
  5
5123B
331
516FE
  5
51711
331
5123B
  5
51243
331
51282
  5
5128A
331
516B7
  5
516C3
331
51214
  5
5121C
331
51243
  5
5124B
331
51706
  5
51734
331
511CD
  5
511D5
331
5128A
  5
51292
331
51316
  5
51322
331
517B5
  5
51344
331
512D7
  5
512DF
331
512DF
  5
512E7
331
512E7
  5
512EF
331
517C5
  5
517B3
331
517CD
  5
51747
331
512EF
  5
512F7
331
51292
  5
5129A
331
5124B
  5
51253
331
516CF
  5
516F7
331
511D5
  5
511DD
331
511DD
  5
511E5
331
5129A
  5
512A2
331
516D7
  5
516FB
331
51726
  5
517B9
331
512A2
  5
512AA
331
5172E
  5
517C8
331
512AC
  5
512B4
331
5126B
  5
51273
331
516E7
  5
51701
331
512B0
  5
512B8
331
517D5
  5
5173F
331
512B8
  5
512C0
331
512F7
  5
512FF
331
51736
  5
517CD
331
5173E
  5
517D4
331
517DD
  5
516F0
331
512C0
  5
512C8
331
512FF
  5
51307
331
51307
  5
5130F
331
51746
  5
517DC
331
512C8
  5
512D0
331
517E5
  5
516D8
331
5130F
  5
51317
331
5175D
  5
517DF
331
51273
  5
5127B
331
516EF
  5
51703
331
511BE
  5
511C3
331
511F5
  5
511FD
331
511FD
  5
51205
331
516B0
  5
516B8
331
516F7
  5
5170A
331
51234
  5
5123C
331
5127B
  5
51283
331
51283
  5
5128B
331
516B8
  5
516C4
331
516FF
  5
5172C
331
5123C
  5
51244
331
5128B
  5
51293
331
51215
  5
5121D
331
51707
  5
51735
331
51244
  5
5124C
331
512D0
  5
512D8
331
512D8
  5
512E0
331
51317
  5
51323
331
517B6
  5
516A7
331
512E0
  5
512E8
331
517C6
  5
517B2
331
512E8
  5
512F0
331
517CE
  5
51746
331
5124C
  5
51254
331
511D6
  5
511DE
331
51293
  5
5129B
331
516D0
  5
516F9
331
5122D
  5
51235
331
516D8
  5
516FC
331
51727
  5
517BA
331
511DE
  5
511E6
331
5129B
  5
512A3
331
512A3
  5
512AB
331
512AD
  5
512B5
331
5172F
  5
517C9
331
511E6
  5
511EE
331
511EE
  5
511F6
331
5126C
  5
51274
331
512B1
  5
512B9
331
512F0
  5
512F8
331
512F8
  5
51300
331
51737
  5
517CE
331
512B9
  5
512C1
331
517D6
  5
5173E
331
517DE
  5
516EF
331
512C1
  5
512C9
331
51300
  5
51308
331
5173F
  5
517D5
331
517E6
  5
516B6
331
512C9
  5
512D1
331
51308
  5
51310
331
51747
  5
517DD
331
517AF
  5
517E1
331
516E8
  5
51702
331
51274
  5
5127C
331
511BF
  5
511C4
331
511F6
  5
511FE
331
516F0
  5
51704
331
51235
  5
5123D
331
5127C
  5
51284
331
511FE
  5
51206
331
516B1
  5
516B9
331
516F8
  5
5170B
331
51700
  5
5172D
331
5123D
  5
51245
331
51284
  5
5128C
331
516B9
  5
516C5
331
51245
  5
5124D
331
5128C
  5
51294
331
512D1
  5
512D9
331
51310
  5
5131C
331
517B7
  5
516B0
331
512D9
  5
512E1
331
512E1
  5
512E9
331
512E9
  5
512F1
331
517C7
  5
517B1
331
517CF
  5
51745
331
51708
  5
51736
331
51294
  5
5129C
331
511D7
  5
511DF
331
516D1
  5
516FA
331
5121E
  5
51226
331
5124D
  5
51265
331
5129C
  5
512A4
331
511DF
  5
511E7
331
5122E
  5
51236
331
51728
  5
517BB
331
51265
  5
5126D
331
512A4
  5
512AC
331
512AE
  5
512B6
331
5126D
  5
51275
331
512B2
  5
512BA
331
512F1
  5
512F9
331
517D7
  5
5173D
331
512BA
  5
512C2
331
512F9
  5
51301
331
51740
  5
517D6
331
517DF
  5
516E8
331
512C2
  5
512CA
331
51301
  5
51309
331
51309
  5
51311
331
512CA
  5
512D2
331
51275
  5
5127D
331
511C0
  5
511C7
331
511F7
  5
511FF
331
516B2
  5
516BA
331
516F9
  5
5170C
331
51236
  5
5123E
331
5127D
  5
51285
331
51285
  5
5128D
331
5120F
  5
51217
331
516BA
  5
516C6
331
51701
  5
5172E
331
5123E
  5
51246
331
51246
  5
5124E
331
5128D
  5
51295
331
512D2
  5
512DA
331
51311
  5
5131D
331
517B0
  5
517E2
331
512DA
  5
512E2
331
512E2
  5
512EA
331
517C8
  5
517B0
331
512EA
  5
512F2
331
517B8
  5
516B1
331
51709
  5
51737
331
5124E
  5
51266
331
511D8
  5
511E0
331
51295
  5
5129D
331
516D2
  5
516F8
331
5122F
  5
51237
331
51729
  5
517C2
331
511E0
  5
511E8
331
5129D
  5
512A5
331
512A5
  5
512AD
331
511E8
  5
511F0
331
512AF
  5
512B7
331
51266
  5
5126E
331
5126E
  5
51276
331
51731
  5
517CA
331
517D0
  5
51744
331
512B3
  5
512BB
331
512F2
  5
512FA
331
512FA
  5
51302
331
51739
  5
517CF
331
512BB
  5
512C3
331
517D8
  5
5173C
331
517E0
  5
516E7
331
512C3
  5
512CB
331
51302
  5
5130A
331
51741
  5
517D7
331
512CB
  5
512D3
331
5130A
  5
51312
331
51748
  5
517DE
331
514EB
  5
511BD
331
511F0
  5
511F8
331
51276
  5
5127E
331
511C1
  5
511C9
331
511F8
  5
51200
331
516F2
  5
51705
331
516FA
  5
5170D
331
51237
  5
5123F
331
5127E
  5
51286
331
516B3
  5
516BB
331
5123F
  5
51247
331
51286
  5
5128E
331
51702
  5
5172F
331
511C9
  5
511D1
331
516BB
  5
516D6
331
51210
  5
51218
331
51247
  5
5124F
331
5128E
  5
51296
331
517B1
  5
517E3
331
512D3
  5
512DB
331
51312
  5
5131E
331
512DB
  5
512E3
331
512E3
  5
512EB
331
512EB
  5
512F3
331
517C9
  5
517AF
331
517B9
  5
516B2
331
5170A
  5
51739
331
51296
  5
5129E
331
511D9
  5
511E1
331
5124F
  5
51267
331
5129E
  5
512A6
331
511E1
  5
511E9
331
512A8
  5
512B0
331
5172A
  5
517C4
331
51267
  5
5126F
331
511E9
  5
511F1
331
512A6
  5
512AE
331
516E3
  5
516FD
331
5126F
  5
51277
331
517D1
  5
51743
331
512B4
  5
512BC
331
512F3
  5
512FB
331
5173A
  5
517D0
331
517D9
  5
5173B
331
512BC
  5
512C4
331
512FB
  5
51303
331
51742
  5
517D8
331
517E1
  5
516E6
331
512C4
  5
512CC
331
51303
  5
5130B
331
5130B
  5
51313
331
512CC
  5
512D4
331
511F1
  5
511F9
331
511F9
  5
51201
331
51230
  5
51238
331
516F3
  5
51706
331
511C2
  5
511CA
331
51277
  5
5127F
331
516B4
  5
516C0
331
516FB
  5
5170E
331
51238
  5
51240
331
5127F
  5
51287
331
51287
  5
5128F
331
51703
  5
51730
331
51240
  5
51248
331
5128F
  5
51297
331
512D4
  5
512DC
331
51313
  5
5131F
331
517B2
  5
517E4
  0
XRECORD
  5
51949
102
{ACAD_REACTORS
330
51948
102
}
330
51948
100
AcDbXrecord
280
     1
 40
90530.0
  1
{\fArial|b0|i0|c238|p34;Flügelhöhe}
  0
XRECORD
  5
5194C
102
{ACAD_REACTORS
330
5194B
102
}
330
5194B
100
AcDbXrecord
280
     1
102
SHADEPLOT
 70
     0
  0
XRECORD
  5
5194E
102
{ACAD_REACTORS
330
5194D
102
}
330
5194D
100
AcDbXrecord
280
     1
102
SHADEPLOT
 70
     0
  0
GROUP
  5
50E60
102
{ACAD_REACTORS
330
1F
102
}
330
1F
100
AcDbGroup
300

 70
     1
 71
     1
  0
GROUP
  5
517BC
102
{ACAD_REACTORS
330
1F
102
}
330
1F
100
AcDbGroup
300

 70
     1
 71
     1
340
517BB
340
517BA
340
517B9
340
517B8
340
517B7
340
517B6
340
517B5
  0
LAYOUT
  5
517F7
102
{ACAD_XDICTIONARY
360
51804
102
}
102
{ACAD_REACTORS
330
B
102
}
330
B
100
AcDbPlotSettings
  1

  2
\\10.1.1.109\prt132
  4
A4
  6

 40
4.233333110809326
 41
4.233341693878172
 42
4.233322143554686
 43
4.23333740234375
 44
209.9733276367186
 45
296.9259948730469
 46
0.0
 47
0.0
 48
0.0
 49
0.0
140
0.0
141
0.0
142
1.0
143
1.0
 70
   688
 72
     0
 73
     1
 74
     5
  7
C:\Dokumente und Einstellungen\kni\Anwendungsdaten\Autodesk\AutoCAD LT 2007\R12\deu\Plot Styles\schwarz-weiss.ctb
 75
    16
147
1.0
148
0.0
149
0.0
100
AcDbLayout
  1
Layout1
 70
     1
 71
     1
 10
-0.1666668268639272
 20
-0.166666657905879
 11
11.52333297128752
 21
8.099999784484621
 12
0.0
 22
0.0
 32
0.0
 14
1.135666597546553
 24
0.7933333558360422
 34
0.0
 15
10.22099937791899
 25
7.140000202524379
 35
0.0
146
0.0
 13
0.0
 23
0.0
 33
0.0
 16
1.0
 26
0.0
 36
0.0
 17
0.0
 27
1.0
 37
0.0
 76
     0
330
517F6
331
517FD
1001
ACAD_PSEXT
1000
\\10.1.1.109\prt132
1000
HP LaserJet 5100 PCL 6
1000
Technischer Dienst
1000
Schacht 2 = A3, Schacht 3 = A4 (Standardschacht), Duplexer. Toner Cartridge C4129X - Gerät beschafft 27.01.2005
1070
     0
  0
LAYOUT
  5
A
102
{ACAD_XDICTIONARY
360
51944
102
}
102
{ACAD_REACTORS
330
B
102
}
330
B
100
AcDbPlotSettings
  1

  2
none_device
  4
ANSI_A_(8.50_x_11.00_Inches)
  6

 40
6.349999904632567
 41
19.04999923706055
 42
6.350006103515625
 43
19.04998779296875
 44
215.8999938964844
 45
279.3999938964844
 46
28.8998437514057
 47
66.29433650175958
 48
0.0
 49
0.0
140
0.0
141
0.0
142
1.0
143
1.869412762981399
 70
 11956
 72
     0
 73
     1
 74
     1
  7
monochrome.ctb
 75
     0
147
0.5349273417846833
148
0.0186023801347695
149
0.0165873754016396
100
AcDbLayout
  1
Model
 70
     1
 71
     0
 10
0.0
 20
0.0
 11
12.0
 21
9.0
 12
0.0
 22
0.0
 32
0.0
 14
0.0
 24
0.0
 34
0.0
 15
0.0
 25
0.0
 35
0.0
146
0.0
 13
0.0
 23
0.0
 33
0.0
 16
1.0
 26
0.0
 36
0.0
 17
0.0
 27
1.0
 37
0.0
 76
     0
330
2
331
9C
  0
MATERIAL
  5
9F
102
{ACAD_XDICTIONARY
360
5180F
102
}
102
{ACAD_REACTORS
330
73
102
}
330
73
100
AcDbMaterial
  1
ByBlock
  0
MATERIAL
  5
9E
102
{ACAD_XDICTIONARY
360
5180D
102
}
102
{ACAD_REACTORS
330
73
102
}
330
73
100
AcDbMaterial
  1
ByLayer
  0
MATERIAL
  5
A0
102
{ACAD_XDICTIONARY
360
51811
102
}
102
{ACAD_REACTORS
330
73
102
}
330
73
100
AcDbMaterial
  1
Global
  0
MLINESTYLE
  5
23
102
{ACAD_REACTORS
330
20
102
}
330
20
100
AcDbMlineStyle
  2
STANDARD
 70
     0
  3

 62
   256
 51
90.0
 52
90.0
 71
     2
 49
0.5
 62
   256
  6
BYLAYER
 49
-0.5
 62
   256
  6
BYLAYER
  0
ACDBPLACEHOLDER
  5
5101B
102
{ACAD_REACTORS
330
6
102
}
330
6
  0
ACDBPLACEHOLDER
  5
5101E
102
{ACAD_REACTORS
330
6
102
}
330
6
  0
ACDBPLACEHOLDER
  5
5101F
102
{ACAD_REACTORS
330
6
102
}
330
6
  0
ACDBPLACEHOLDER
  5
5
102
{ACAD_REACTORS
330
6
102
}
330
6
  0
TABLESTYLE
  5
B3
102
{ACAD_XDICTIONARY
360
51946
102
}
102
{ACAD_REACTORS
330
B2
102
}
330
B2
100
AcDbTableStyle
  3
Standard
 70
     0
 71
     0
 40
0.06
 41
0.06
280
     0
281
     0
  7
Standard
140
0.18
170
     2
 62
     0
 63
     7
283
     0
274
    -2
284
     1
 64
     0
275
    -2
285
     1
 65
     0
276
    -2
286
     1
 66
     0
277
    -2
287
     1
 67
     0
278
    -2
288
     1
 68
     0
279
    -2
289
     1
 69
     0
  7
Standard
140
0.25
170
     5
 62
     0
 63
     7
283
     0
274
    -2
284
     1
 64
     0
275
    -2
285
     1
 65
     0
276
    -2
286
     1
 66
     0
277
    -2
287
     1
 67
     0
278
    -2
288
     1
 68
     0
279
    -2
289
     1
 69
     0
  7
Standard
140
0.18
170
     5
 62
     0
 63
     7
283
     0
274
    -2
284
     1
 64
     0
275
    -2
285
     1
 65
     0
276
    -2
286
     1
 66
     0
277
    -2
287
     1
 67
     0
278
    -2
288
     1
 68
     0
279
    -2
289
     1
 69
     0
  0
VISUALSTYLE
  5
A7
102
{ACAD_REACTORS
330
A1
102
}
330
A1
100
AcDbVisualStyle
  2
2dWireframe
 70
     4
 71
     0
 72
     2
 73
     1
 90
        0
 40
-0.6
 41
-30.0
 62
     5
 63
     7
 74
     1
 91
        4
 64
     7
 65
   257
 75
     1
175
     1
 42
1.0
 92
        0
 66
   257
 43
1.0
 76
     1
 77
     6
 78
     2
 67
     7
 79
     5
170
     0
171
     0
290
     0
174
     0
 93
        1
 44
0.0
173
     0
291
     0
 45
0.0
1001
ACAD
1000
AcDbSavedByObjectVersion
1070
     0
1000
AcDbSavedByObjectVersion
1070
     0
  0
VISUALSTYLE
  5
A9
102
{ACAD_REACTORS
330
A1
102
}
330
A1
100
AcDbVisualStyle
  2
3D Hidden
 70
     6
 71
     1
 72
     2
 73
     2
 90
        0
 40
-0.6
 41
-30.0
 62
     5
 63
     7
 74
     2
 91
       10
 64
     7
 65
   257
 75
     2
175
     2
 42
40.0
 92
        0
 66
   257
 43
1.0
 76
     1
 77
     6
 78
     2
 67
     7
 79
     3
170
     0
171
     0
290
     0
174
     0
 93
        1
 44
0.0
173
     0
291
     0
 45
0.0
1001
ACAD
1000
AcDbSavedByObjectVersion
1070
     0
1000
AcDbSavedByObjectVersion
1070
     0
  0
VISUALSTYLE
  5
A8
102
{ACAD_REACTORS
330
A1
102
}
330
A1
100
AcDbVisualStyle
  2
3dWireframe
 70
     5
 71
     0
 72
     2
 73
     1
 90
        0
 40
-0.6
 41
-30.0
 62
     5
 63
     7
 74
     1
 91
        4
 64
     7
 65
   257
 75
     1
175
     1
 42
1.0
 92
        0
 66
   257
 43
1.0
 76
     1
 77
     6
 78
     2
 67
     7
 79
     5
170
     0
171
     0
290
     0
174
     0
 93
        1
 44
0.0
173
     0
291
     0
 45
0.0
1001
ACAD
1000
AcDbSavedByObjectVersion
1070
     0
1000
AcDbSavedByObjectVersion
1070
     0
  0
VISUALSTYLE
  5
A6
102
{ACAD_REACTORS
330
A1
102
}
330
A1
100
AcDbVisualStyle
  2
Basic
 70
     7
 71
     1
 72
     0
 73
     1
 90
        0
 40
-0.6
 41
-30.0
 62
     5
 63
     7
 74
     0
 91
        4
 64
     7
 65
   257
 75
     1
175
     1
 42
1.0
 92
        8
 66
     7
 43
1.0
 76
     1
 77
     6
 78
     2
 67
     7
 79
     5
170
     0
171
     0
290
     0
174
     0
 93
        1
 44
0.0
173
     0
291
     1
 45
0.0
1001
ACAD
1000
AcDbSavedByObjectVersion
1070
     0
1000
AcDbSavedByObjectVersion
1070
     0
  0
VISUALSTYLE
  5
AD
102
{ACAD_REACTORS
330
A1
102
}
330
A1
100
AcDbVisualStyle
  2
Brighten
 70
    12
 71
     2
 72
     2
 73
     1
 90
        0
 40
-0.6
 41
-30.0
 62
     5
 63
     7
 74
     1
 91
        4
 64
     7
 65
   257
 75
     1
175
     1
 42
1.0
 92
        8
 66
     7
 43
1.0
 76
     1
 77
     6
 78
     2
 67
     7
 79
     5
170
     0
171
     0
290
     0
174
     0
 93
        1
 44
50.0
173
     0
291
     1
 45
0.0
1001
ACAD
1000
AcDbSavedByObjectVersion
1070
     0
1000
AcDbSavedByObjectVersion
1070
     0
  0
VISUALSTYLE
  5
B1
102
{ACAD_REACTORS
330
A1
102
}
330
A1
100
AcDbVisualStyle
  2
ColorChange
 70
    16
 71
     2
 72
     2
 73
     3
 90
        0
 40
-0.6
 41
-30.0
 62
     5
 63
     8
 74
     1
 91
        4
 64
     7
 65
   257
 75
     1
175
     1
 42
1.0
 92
        8
 66
     8
 43
1.0
 76
     1
 77
     6
 78
     2
 67
     7
 79
     5
170
     0
171
     0
290
     0
174
     0
 93
        1
 44
0.0
173
     0
291
     1
 45
0.0
1001
ACAD
1000
AcDbSavedByObjectVersion
1070
     0
1000
AcDbSavedByObjectVersion
1070
     0
  0
VISUALSTYLE
  5
AA
102
{ACAD_REACTORS
330
A1
102
}
330
A1
100
AcDbVisualStyle
  2
Conceptual
 70
     9
 71
     3
 72
     2
 73
     1
 90
        0
 40
-0.6
 41
-30.0
 62
     5
 63
     7
 74
     2
 91
        2
 64
     7
 65
   257
 75
     1
175
     1
 42
40.0
 92
        8
 66
     7
 43
1.0
 76
     1
 77
     6
 78
     2
 67
     7
 79
     5
170
     0
171
     0
290
     0
174
     0
 93
        1
 44
0.0
173
     0
291
     0
 45
0.0
1001
ACAD
1000
AcDbSavedByObjectVersion
1070
     0
1000
AcDbSavedByObjectVersion
1070
     0
  0
VISUALSTYLE
  5
AC
102
{ACAD_REACTORS
330
A1
102
}
330
A1
100
AcDbVisualStyle
  2
Dim
 70
    11
 71
     2
 72
     2
 73
     1
 90
        0
 40
-0.6
 41
-30.0
 62
     5
 63
     7
 74
     1
 91
        4
 64
     7
 65
   257
 75
     1
175
     1
 42
1.0
 92
        8
 66
     7
 43
1.0
 76
     1
 77
     6
 78
     2
 67
     7
 79
     5
170
     0
171
     0
290
     0
174
     0
 93
        1
 44
-50.0
173
     0
291
     1
 45
0.0
1001
ACAD
1000
AcDbSavedByObjectVersion
1070
     0
1000
AcDbSavedByObjectVersion
1070
     0
  0
VISUALSTYLE
  5
B0
102
{ACAD_REACTORS
330
A1
102
}
330
A1
100
AcDbVisualStyle
  2
Facepattern
 70
    15
 71
     2
 72
     2
 73
     1
 90
        0
 40
-0.6
 41
-30.0
 62
     5
 63
     7
 74
     1
 91
        4
 64
     7
 65
   257
 75
     1
175
     1
 42
1.0
 92
        8
 66
     7
 43
1.0
 76
     1
 77
     6
 78
     2
 67
     7
 79
     5
170
     0
171
     0
290
     0
174
     0
 93
        1
 44
0.0
173
     0
291
     1
 45
0.0
1001
ACAD
1000
AcDbSavedByObjectVersion
1070
     0
1000
AcDbSavedByObjectVersion
1070
     0
  0
VISUALSTYLE
  5
A2
102
{ACAD_REACTORS
330
A1
102
}
330
A1
100
AcDbVisualStyle
  2
Flat
 70
     0
 71
     2
 72
     1
 73
     1
 90
        2
 40
-0.6
 41
30.0
 62
     5
 63
     7
 74
     0
 91
        4
 64
     7
 65
   257
 75
     1
175
     1
 42
1.0
 92
        8
 66
     7
 43
1.0
 76
     1
 77
     6
 78
     2
 67
     7
 79
     5
170
     0
171
     0
290
     0
174
     0
 93
        1
 44
0.0
173
     0
291
     1
 45
0.0
1001
ACAD
1000
AcDbSavedByObjectVersion
1070
     0
1000
AcDbSavedByObjectVersion
1070
     0
  0
VISUALSTYLE
  5
A3
102
{ACAD_REACTORS
330
A1
102
}
330
A1
100
AcDbVisualStyle
  2
FlatWithEdges
 70
     1
 71
     2
 72
     1
 73
     1
 90
        2
 40
-0.6
 41
30.0
 62
     5
 63
     7
 74
     1
 91
        4
 64
     7
 65
   257
 75
     1
175
     1
 42
1.0
 92
        0
 66
   257
 43
1.0
 76
     1
 77
     6
 78
     2
 67
     7
 79
     5
170
     0
171
     0
290
     0
174
     0
 93
        1
 44
0.0
173
     0
291
     1
 45
0.0
1001
ACAD
1000
AcDbSavedByObjectVersion
1070
     0
1000
AcDbSavedByObjectVersion
1070
     0
  0
VISUALSTYLE
  5
A4
102
{ACAD_REACTORS
330
A1
102
}
330
A1
100
AcDbVisualStyle
  2
Gouraud
 70
     2
 71
     2
 72
     2
 73
     1
 90
        2
 40
-0.6
 41
30.0
 62
     5
 63
     7
 74
     0
 91
        4
 64
     7
 65
   257
 75
     1
175
     1
 42
1.0
 92
        0
 66
     7
 43
1.0
 76
     1
 77
     6
 78
     2
 67
     7
 79
     5
170
     0
171
     0
290
     0
174
     0
 93
        1
 44
0.0
173
     0
291
     1
 45
0.0
1001
ACAD
1000
AcDbSavedByObjectVersion
1070
     0
1000
AcDbSavedByObjectVersion
1070
     0
  0
VISUALSTYLE
  5
A5
102
{ACAD_REACTORS
330
A1
102
}
330
A1
100
AcDbVisualStyle
  2
GouraudWithEdges
 70
     3
 71
     2
 72
     2
 73
     1
 90
        2
 40
-0.6
 41
30.0
 62
     5
 63
     7
 74
     1
 91
        4
 64
     7
 65
   257
 75
     1
175
     1
 42
1.0
 92
        0
 66
   257
 43
1.0
 76
     1
 77
     6
 78
     2
 67
     7
 79
     5
170
     0
171
     0
290
     0
174
     0
 93
        1
 44
0.0
173
     0
291
     1
 45
0.0
1001
ACAD
1000
AcDbSavedByObjectVersion
1070
     0
1000
AcDbSavedByObjectVersion
1070
     0
  0
VISUALSTYLE
  5
AF
102
{ACAD_REACTORS
330
A1
102
}
330
A1
100
AcDbVisualStyle
  2
Linepattern
 70
    14
 71
     2
 72
     2
 73
     1
 90
        0
 40
-0.6
 41
-30.0
 62
     5
 63
     7
 74
     1
 91
        4
 64
     7
 65
   257
 75
     7
175
     7
 42
1.0
 92
        8
 66
     7
 43
1.0
 76
     1
 77
     6
 78
     2
 67
     7
 79
     5
170
     0
171
     0
290
     0
174
     0
 93
        1
 44
0.0
173
     0
291
     1
 45
0.0
1001
ACAD
1000
AcDbSavedByObjectVersion
1070
     0
1000
AcDbSavedByObjectVersion
1070
     0
  0
VISUALSTYLE
  5
AB
102
{ACAD_REACTORS
330
A1
102
}
330
A1
100
AcDbVisualStyle
  2
Realistic
 70
     8
 71
     2
 72
     2
 73
     1
 90
        0
 40
-0.6
 41
-30.0
 62
     5
 63
     7
 74
     1
 91
        0
 64
     7
 65
   257
 75
     1
175
     1
 42
1.0
 92
        8
 66
     7
 43
1.0
 76
     1
 77
     6
 78
     2
 67
     7
 79
     5
170
     0
171
     0
290
     0
174
     0
 93
       13
 44
0.0
173
     0
291
     0
 45
0.0
1001
ACAD
1000
AcDbSavedByObjectVersion
1070
     0
1000
AcDbSavedByObjectVersion
1070
     0
  0
VISUALSTYLE
  5
AE
102
{ACAD_REACTORS
330
A1
102
}
330
A1
100
AcDbVisualStyle
  2
Thicken
 70
    13
 71
     2
 72
     2
 73
     1
 90
        0
 40
-0.6
 41
-30.0
 62
     5
 63
     7
 74
     1
 91
        4
 64
     7
 65
   257
 75
     1
175
     1
 42
1.0
 92
       12
 66
     7
 43
1.0
 76
     1
 77
     6
 78
     2
 67
     7
 79
     5
170
     0
171
     0
290
     0
174
     0
 93
        1
 44
0.0
173
     0
291
     1
 45
0.0
1001
ACAD
1000
AcDbSavedByObjectVersion
1070
     0
1000
AcDbSavedByObjectVersion
1070
     0
  0
DICTIONARYVAR
  5
BB
102
{ACAD_REACTORS
330
BA
102
}
330
BA
100
DictionaryVariables
280
     0
  1
STANDARD
  0
DICTIONARYVAR
  5
51809
102
{ACAD_REACTORS
330
BA
102
}
330
BA
100
DictionaryVariables
280
     0
  1
1
  0
DICTIONARYVAR
  5
51808
102
{ACAD_REACTORS
330
BA
102
}
330
BA
100
DictionaryVariables
280
     0
  1
0
  0
DICTIONARYVAR
  5
51807
102
{ACAD_REACTORS
330
BA
102
}
330
BA
100
DictionaryVariables
280
     0
  1
127
  0
DICTIONARY
  5
51804
330
517F7
100
AcDbDictionary
280
     1
281
     1
  3
ACAD_XREC_ROUNDTRIP
360
5194A
  3
ADSK_XREC_LAYOUTTHUMBNAIL
360
51805
  0
DICTIONARY
  5
51944
330
A
100
AcDbDictionary
280
     1
281
     1
  3
ACAD_XREC_ROUNDTRIP
360
51945
  0
DICTIONARY
  5
5180F
330
9F
100
AcDbDictionary
280
     1
281
     1
  3
ACAD_XREC_ROUNDTRIP
360
51810
  0
DICTIONARY
  5
5180D
330
9E
100
AcDbDictionary
280
     1
281
     1
  3
ACAD_XREC_ROUNDTRIP
360
5180E
  0
DICTIONARY
  5
51811
330
A0
100
AcDbDictionary
280
     1
281
     1
  3
ACAD_XREC_ROUNDTRIP
360
51812
  0
DICTIONARY
  5
51946
330
B3
100
AcDbDictionary
280
     1
281
     1
  3
ACAD_XREC_ROUNDTRIP
360
51947
  0
XRECORD
  5
5194A
102
{ACAD_REACTORS
330
51804
102
}
330
51804
100
AcDbXrecord
280
     1
102
SHADEPLOT
 70
     0
102
SHADEPLOTRESLEVEL
 70
     2
102
SHADEPLOTCUSTOMDPI
 70
   300
  0
XRECORD
  5
51805
102
{ACAD_REACTORS
330
51804
102
}
330
51804
100
AcDbXrecord
280
     1
310
28000000B40000007F00000001000800000000004C59000000000000000000000001000000000000FFFFFF0000000000FFFFFF000000000000000000000000000000000000000000000000000000000000000000330000006600000099000000CC000000FF00000000330000333300006633000099330000CC330000FF3300
310
0000660000336600006666000099660000CC660000FF66000000990000339900006699000099990000CC990000FF99000000CC000033CC000066CC000099CC0000CCCC0000FFCC000000FF000033FF000066FF000099FF0000CCFF0000FFFF000000003300330033006600330099003300CC003300FF003300003333003333
310
33006633330099333300CC333300FF33330000663300336633006666330099663300CC663300FF66330000993300339933006699330099993300CC993300FF99330000CC330033CC330066CC330099CC3300CCCC3300FFCC330000FF330033FF330066FF330099FF3300CCFF3300FFFF330000006600330066006600660099
310
006600CC006600FF00660000336600333366006633660099336600CC336600FF33660000666600336666006666660099666600CC666600FF66660000996600339966006699660099996600CC996600FF99660000CC660033CC660066CC660099CC6600CCCC6600FFCC660000FF660033FF660066FF660099FF6600CCFF6600
310
FFFF660000009900330099006600990099009900CC009900FF00990000339900333399006633990099339900CC339900FF33990000669900336699006666990099669900CC669900FF66990000999900339999006699990099999900CC999900FF99990000CC990033CC990066CC990099CC9900CCCC9900FFCC990000FF99
310
0033FF990066FF990099FF9900CCFF9900FFFF99000000CC003300CC006600CC009900CC00CC00CC00FF00CC000033CC003333CC006633CC009933CC00CC33CC00FF33CC000066CC003366CC006666CC009966CC00CC66CC00FF66CC000099CC003399CC006699CC009999CC00CC99CC00FF99CC0000CCCC0033CCCC0066CC
310
CC0099CCCC00CCCCCC00FFCCCC0000FFCC0033FFCC0066FFCC0099FFCC00CCFFCC00FFFFCC000000FF003300FF006600FF009900FF00CC00FF00FF00FF000033FF003333FF006633FF009933FF00CC33FF00FF33FF000066FF003366FF006666FF009966FF00CC66FF00FF66FF000099FF003399FF006699FF009999FF00CC
310
99FF00FF99FF0000CCFF0033CCFF0066CCFF0099CCFF00CCCCFF00FFCCFF0000FFFF0033FFFF0066FFFF0099FFFF00CCFFFF00FFFFFF00000000000D0D0D001A1A1A00282828003535350043434300505050005D5D5D006B6B6B00787878008686860093939300A1A1A100AEAEAE00BBBBBB00C9C9C900D6D6D600E4E4E400
310
F1F1F100FFFFFF0000000000000000000000000000000000000000000000000000000000000000000000000000000000E2E2E2E2E2E2E2E2E2E2E2E2E2E2E2E2E2E2E2E2E2E2E2E2E2E2E2E2E2E2E2E2E2E2E2E2E2E2E2E2E2E2E2E2E2E2E2E2E2E2E2E2E2E2E2E2E2E2E2E2E2E2E2E2E2E2E2E2E2E2E2E2E2E2E2E2E2E2E2
310
E2E2E2E2E2E2E2E2E2E2E2E2E2E2E2E2E2E2E2E2E2E2E2E2E2E2E2E2E2E2E2E2E2E2E2E2E2E2E2E2E2E2E2E2E2E2E2E2E2E2E2E2E2E2E2E2E2E2E2E2E2E2E2E2E2E2E2E2E2E2E2E2E2E2E2E2E2E2E2E2E2E2E2E2E2E2E2E2E2E2E2E2E2E2E2E2E2E2E2E2E2E2F5F5F5F5F5F5F5F5F5F5F5F5F5F5F5F5F5F5F5F5F5F5F5F5F5
310
F5F5F5F5F5F5F5F5F5F5F5F5F5F5F5F5F5F5F5F5F5F5F5F5F5F5F5F5F5F5F5F5F5F5F5F5F5F5F5F5F5F5F5F5F5F5F5F5F5F5F5F5F5F5F5F5F5F5F5F5F5F5F5F5F5F5F5F5F5F5F5F5F5F5F5F5F5F5F5F5F5F5F5F5F5F5F5F5F5F5F5F5F5F5F5F5F5F5F5F5F5F5F5F5F5F5F5F5F5F5F5F5F5F5F5F5F5F5F5F5F5F5F5F5F5F5F5
310
F5F5F5F5F5F5F5F5F5F5F5F5F5F5F5F5F5F5F5F5F5F5F5F5F5E2E2E2F5F5F5F5F5F5F5F5F5F5F5F5F5F5F5F5F5F5F5F5F5F5F5F5F5F5F5F5F5F5F5F5F5F5F5F5F5F5F5F5F5F5F5F5F5F5F5F5F5F5F5F5F5F5F5F5F5F5F5F5F5F5F5F5F5F5F5F5F5F5F5F5F5F5F5F5F5F5F5F5F5F5F5F5F5F5F5F5F5F5F5F5F5F5F5F5F5F5F5
310
F5F5F5F5F5F5F5F5F5F5F5F5F5F5F5F5F5F5F5F5F5F5F5F5F5F5F5F5F5F5F5F5F5F5F5F5F5F5F5F5F5F5F5F5F5F5F5F5F5F5F5F5F5F5F5F5F5F5F5F5F5F5F5F5F5F5F5F5F5F5F5F5F5F5F5F5F5F5E2E2E2F5F5E2E2E2E2E2E2E2E2F5F5F5F5F5F5F5F5F5E2E2E2E2E2E2E2E2E2E2E2E2E2E2E2E2F5F5F5F5F5F5F5F5F5E2E2
310
E2E2E2E2E2E2E2E2E2E2E2E2E2E2F5F5F5F5F5F5F5F5E2E2E2E2E2E2E2E2E2E2E2E2E2E2E2E2F5F5F5F5F5F5F5F5F5E2E2E2E2E2E2E2E2E2E2E2E2E2E2E2E2F5F5F5F5F5F5F5F5E2E2E2E2E2E2E2E2E2E2E2E2E2E2E2E2F5F5F5F5F5F5F5F5F5E2E2E2E2E2E2E2E2E2E2E2E2E2E2E2E2F5F5F5F5F5F5F5F5F5E2E2E2E2E2E2
310
E2E2F5F5E2E2E2F5F5E2F5F5F5F5F5F5F5F5F5F5F5F5F5F5F5F5F5F5F5F5F5F5F5F5F5F5F5F5F5F5F5F5F5F5F5F5F5F5F5F5F5F5F5F5F5F5F5F5F5F5F5F5F5F5F5F5F5F5F5F5F5F5F5F5F5F5F5F5F5F5F5F5F5F5F5F5F5F5F5F5F5F5F5F5F5F5F5F5F5F5F5F5F5F5F5F5F5F5F5F5F5F5F5F5F5F5F5F5F5F5F5F5F5F5F5F5F5
310
F5F5F5F5F5F5F5F5F5F5F5F5F5F5F5F5F5F5F5F5F5F5F5F5F5F5F5F5F5F5F5F5F5F5F5F5F5F5F5F5F5F5F5F5F5F5F5F5F5F5F5F5F5F5E2F5F5E2E2E2F5F5E2F5F5F5F5F5F5F5F5F5F5F5F5F5F5F5F5F5F5F5F5F5F5F5F5F5F5F5F5F5F5F5F5F5F5F5F5F5F5F5F5F5F5F5F5F5F5F5F5F5F5F5F5F5F5F5F5F5F5F5F5F5F5F5F5
310
F5F5F5F5F5F5F5F5F5F5F5F5F5F5F5F5F5F5F5F5F5F5F5F5F5F5F5F5F5F5F5F5F5F5F5F5F5F5F5F5F5F5F5F5F5F5F5F5F5F5F5F5F5F5F5F5F5F5F5F5F5F5F5F5F5F5F5F5F5F5F5F5F5F5F5F5F5F5F5F5F5F5F5F5F5F5F5F5F5F5F5F5F5F5F5F5F5F5F5F5F5F5F5F5F5F5F5E2F5F5E2E2E2F5F5E2F5F5F5F5F5F5F5F5F5F5F5
310
F5F5F5F5F5F5F5F5F5F5F5F5F5F5F5F5F5F5F5F5F5F5F5F5F5F5F5F5F5F5F5F5F5F5F5F5F5F5F5F5F5F5F5F5F5F5F5F5F5F5F5F5F5F5F5F5F5F5F5F5F5F5F5F5F5F5F5F5F5F5F5F5F5F5F5F5F5F5F5F5F5F5F5F5F5F5F5F5F5F5F5F5F5F5F5F5F5F5F5F5F5F5F5F5F5F5F5F5F5F5F5F5F5F5F5F5F5F5F5F5F5F5F5F5F5F5F5
310
F5F5F5F5F5F5F5F5F5F5F5F5F5F5F5F5F5F5F5F5F5F5F5F5F5F5F5F5F5F5F5F5F5E2F5F5E2E2E2F5F5E2F5F5F5F5F5F5F5F5F5F5F5F5F5F5F5F5F5F5F5F5F5F5F5F5F5F5F5F5F5F5F5F5F5F5F5F5F5F5F5F5F5F5F5F5F5F5F5F5F5F5F5F5F5F5F5F5F5F5F5F5F5F5F5F5F5F5F5F5F5F5F5F5F5F5F5F5F5F5F5F5F5F5F5F5F5
310
F5F5F5F5F5F5F5F5F5F5F5F5F5F5F5F5F5F5F5F5F5F5F5F5F5F5F5F5F5F5F5F5F5F5F5F5F5F5F5F5F5F5F5F5F5F5F5F5F5F5F5F5F5F5F5F5F5F5F5F5F5F5F5F5F5F5F5F5F5F5F5F5F5F5F5F5F5F5F5F5F5F5F5F5F5F5E2F5F5E2E2E2F5F5E2F5F5F5F5F5F5F5F5F5F5F5F5F5F5F5F5F5F5F5F5F5F5F5F5F5F5F5F5F5F5F5F5
310
F5F5F5F5F5F5F5F5F5F5F5F5F5F5F5F5F5F5F5F5F5F5F5F5F5F5F5F5F5F5F5F5F5F5F5F5F5F5F5F5F5F5F5F5F5F5F5F5F5F5F5F5F5F5F5F5F5F5F5F5F5F5F5F5F5F5F5F5F5F5F5F5F5F5F5F5F5F5F5F5F5F5F5F5F5F5F5F5F5F5F5F5F5F5F5F5F5F5F5F5F5F5F5F5F5F5F5F5F5F5F5F5F5F5F5F5F5F5F5F5F5F5F5F5F5F5F5
310
F5F5F5F5F5F5F5F5F5F5F5F5E2F5F5E2E2E2F5F5E2F5F5F5F5F5F5F5F5F5F5F5F5F5F5F5F5F5F5F5F5F5F5F5F5F5F5F5F5F5F5F5F5F5F5F5F5F5F5F5F5F5F5F5F5F5F5F5F5F5F5F5F5F5F5F5F5F5F5F5F5F5F5F5F5F5F5F5F5F5F5F5F5F5F5F5F5F5F5F5F5F5F5F5F5F5F5F5F5F5F5F5F5F5F5F5F5F5F5F5F5F5F5F5F5F5F5
310
F5F5F5F5F5F5F5F5F5F5F5F5F5F5F5F5F5F5F5F5F5F5F5F5F5F5F5F5F5F5F5F5F5F5F5F5F5F5F5F5F5F5F5F5F5F5F5F5F5F5F5F5F5F5F5F5F5F5F5F5F5F5F5F5F5E2F5F5E2E2E2F5F5E2F5F5F5F5F5F5F5F5F5F5F5F5F5F5F5F5F5F5F5F5F5F5F5F5F5F5F5F5F5F5F5F5F5F5F5F5F5F5F5F5F5F5F5F5F5F5F5F5F5F5F5F5F5
310
F5F5F5F5F5F5F5F5F5F5F5F5F5F5F5F5F5F5F5F5F5F5F5F5F5F5F5F5F5F5F5F5F5F5F5F5F5F5F5F5F5F5F5F5F5F5F5F5F5F5F5F5F5F5F5F5F5F5F5F5F5F5F5F5F5F5F5F5F5F5F5F5F5F5F5F5F5F5F5F5F5F5F5F5F5F5F5F5F5F5F5F5F5F5F5F5F5F5F5F5F5F5F5F5F5F5F5F5F5F5F5F5F5F5F5F5F5F5E2F5F5E2E2E2F5F5F5
310
F5F5F5F5F5F5F5F5F5F5F5F5F5F5F5F5F5F5F5F5F5F5F5F5F5F5F5F5F5F5F5F5F5F5F5F5F5F5F5F5F5F5F5F5F5F5F5F5F5F5F5F5F5F5F5F5F5F5F5F5F5F5F5F5F5F5F5F5F5F5F5F5F5F5F5F5F5F5F5F5F5F5F5F5F5F5F5F5F5F5F5F5F5F5F5F5F5F5F5F5F5F5F5F5F5F5F5F5F5F5F5F5F5F5F5F5F5F5F5F5F5F5F5F5F5F5F5
310
F5F5F5F5F5F5F5F5F5F5F5F5F5F5F5F5F5F5F5F5F5F5F5F5F5F5F5F5F5F5F5F5F5F5F5F5F5F5F5F5F5F5F5F5F5F5F5E2E2E2F5F5F5F5F5F5F5F5F5F5F5F5F5F5F5F5F5F5F5F5F5F5F5F5F5F5F5F5F5F5F5F5F5F5F5F5F5F5F5F5F5F5F5F5F5F5F5F5F5F5F5F5F5F5F5F5F5F5F5F5F5F5F5F5F5F5F5F5F5F5F5F5F5F5F5F5F5
310
F5F5F5F5F5F5F5F5F5F5F5F5F5F5F5F5F5F5F5F5F5F5F5F5F5F5F5F5F5F5F5F5F5F5F5F5F5F5F5F5F5F5F5F5F5F5F5F5F5F5F5F5F5F5F5F5F5F5F5F5F5F5F5F5F5F5F5F5F5F5F5F5F5F5F5F5F5F5F5F5F5F5F5F5F5F5F5F5F5F5F5F5F5F5F5F5F5F5F5F5E2E2E2F5F5F5F5F5F5F5F5F5F5F5F5F5F5F5F5F5F5F5F5F5F5F5F5
310
F5F5F5F5F5F5F5F5F5F5F5F5F5F5F5F5F5F5F5F5F5F5F5F5F5F5F5F5F5F5F5F5F5F5F5F5F5F5F5F5F5F5F5F5F5F5F5F5F5F5F5F5F5F5F5F5F5F5F5F5F5F5F5F5F5F5F5F5F5F5F5F5F5F5F5F5F5F5F5F5F5F5F5F5F5F5F5F5F5F5F5F5F5F5F5F5F5F5F5F5F5F5F5F5F5F5F5F5F5F5F5F5F5F5F5F5F5F5F5F5F5F5F5F5F5F5F5
310
F5F5F5F5F5F5F5F5F5F5F5F5F5F5F5F5F5F5F5F5F5F5F5F5F5F5E2E2E2F5F5F5F5F5F5F5F5F5F5F5F5F5F5F5F5F5F5F5F5F5F5F5F5F5F5F5F5F5F5F5F5F5F5F5F5F5F5F5F5F5F5F5F5F5F5F5F5F5F5F5F5F5F5F5F5F5F5F5F5F5F5F5F5F5F5F5F5F5F5F5F5F5F5F5F5F5F5F5F5F5F5F5F5F5F5F5F5F5F5F5F5F5F5F5F5F5F5
310
F5F5F5F5F5F5F5F5F5F5F5F5F5F5F5F5F5F5F5F5F5F5F5F5F5F5F5F5F5F5F5F5F5F5F5F5F5F5F5F5F5F5F5F5F5F5F5F5F5F5F5F5F5F5F5F5F5F5F5F5F5F5F5F5F5F5F5F5F5F5F5F5F5F5F5F5F5F5F5E2E2E2F5F5F5F5F5F5F5F5F5F5F5F5F5F5F5F5F5F5F52828282828282828282828282828282828282828282828282828
310
2828282828282828282828282828282828282828282828282828282828282828282828282828282828282828282828282828282828282828282828282828282828282828282828282828282828282828282828282828282828282828282828282828282828282828282828282828282828F5F5F5F5F5F5F5F5F5F5F5F5F5F5
310
F5F5F5F5F5E2E2E2F5F5F5F5F5F5F5F5F5F5F5F5F5F5F5F5F5F5F528F5F5F5F5F5F5F5F5F5F5F5F5F5F5F5F5F5F5F5F5F5F5F5F5F5F5F5F5F5F5F5F5F5F5F5F5F5F5F5F5F5F5F5F5F5F5F5F5F5F5F5F5F5F5F5F5F5F5F5F5F5F5F5F5F5F5F5F5F5F5F5F5F5F5F5F5F5F5F5F5F5F5F5F5F5F5F5F5F5F5F5F5F5F5F5F5F5F5F5
310
F5F5F5F5F5F5F5F5F5F5F5F5F5F5F5F5F5F5F5F5F5F5F5F5F5F5F5F5F5F5F5F5F5F5F5F5F5F528F5F5F5F5F5F5F5F5F5F5F5F5F5F5F5F5F5F5F5E2E2E2F5F5F5F5F5F5F5F5F5F5F5F5F5F5F5F5F5F5F528F5F5F5F5F5F5F5F5F5F5F5F5F5F5F5F5F5F5F5F5F5F5F5F5F5F5F5F5F5F5F5F5F5F5F5F5F5F5F5F5F5F5F5F5F5F5
310
F5F5F5F5F5F5F5F5F5F5F5F5F5F5F5F5F5F5F5F5F5F5F5F5F5F5F5F5F5F5F5F5F5F5F5F5F5F5F5F5F5F5F5F5F5F5F5F5F5F5F5F5F5F5F5F5F5F5F5F5F5F5F5F5F5F5F5F5F5F5F5F5F5F5F5F5F5F5F5F5F5F5F5F5F5F5F5F5F5F5F528F5F5F5F5F5F5F5F5F5F5F5F5F5F5F5F5F5F5F5E2E2E2F5F5F5F5F5F5F5F5F5F5F5F5F5
310
F5F5F5F5F5F528F5F5F5F5F5F5F5F5F5F5F5F5F5F5F5F5F5F5F5F5F5F5F5F5F5F5F5F5F5F5F5F5F5F5F5F5F5F5F5F5F5F5F5F5F5F5F5F5F5F5F5F5F5F5F5F5F5F5F5F5F5F5F5F5F5F5F5F5F5F5F5F5F5F5F5F5F5F5F5F5F5F5F5F5F5F5F5F5F5F5F5F5F5F5F5F5F5F5F5F5F5F5F5F5F5F5F5F5F5F5F5F5F5F5F5F5F5F5F5F5
310
F5F5F5F5F5F5F5F5F5F5F5F5F5F5F5F5F528F5F5F5F5F5F5F5F5F5F5F5F5F5F5F5F5F5F5F5E2E2E2F5F5F5F5F5F5F5F5F5F5F5F5F5F5F5F5F5F5F528F5F5F5F5F5F5F5F5F5F5F5F5F5F5F5F5F5F5F5F5F5F5F5F5F5F5F5F5F5F5F5F5F5F5F5F5F5F5F5F5F5F5F5F5F5F5F5F5F5F5F5F5F5F5F5F5F5F5F5F5F5F5F5F5F5F5F5
310
F5F5F5F5F5F5F5F5F5F5F5F5F5F5F5F5F5F5F5F5F5F5F5F5F5F5F5F5F5F5F5F5F5F5F5F5F5F5F5F5F5F5F5F5F5F5F5F5F5F5F5F5F5F5F5F5F5F5F5F5F5F5F5F5F5F5F5F5F5F528F5F5F5F5F5F5F5F5F5F5F5F5F5F5F5F5F5F5F5E2E2E2F5F5E2F5F5F5F5F5F5F5F5F5F5F5F5F5F5F5F528F5F5F5F5F5F5F5F5F5F5F5F5F5F5
310
F5F5F5F5F5F5F5F5F5F5F5F5F5F5F5F5F5F5F5F5F5F5F5F5F5F5F5F5F5F5F5F5F5F5F5F5F5F5F5F5F5F5F5F5F5F5F5F5F5F5F5F5F5F5F5F5F5F5F5F5F5F5F5F5F5F5F5F5F5F5F5F5F5F5F5F5F5F5F5F5F5F5F5F5F5F5F5F5F5F5F5F5F5F5F5F5F5F5F5F5F5F5F5F5F5F5F5F5F5F5F5F5F5F5F5F5F5F5F5F5F5F5F528F5F5F5
310
F5F5F5F5F5F5F5F5F5F5F5F5F5E2F5F5E2E2E2F5F5E2F5F5F5F5F5F5F5F5F5F5F5F5F5F5F5F528F5F5F5F5F5F5F5F5F5F5F5F5F5F5F5F5F5F5F5F5F5F5F5F5F5F5F5F5F5F5F5F5F5F5F5F5F5F5F5F5F5F5F5F5F5F5F5F5F5F5F5F5F5F5F5F5F5F5F5F5F5F5F5F5F5F5F5F5F5F5F5F5F5F5F5F5F5F5F5F5F5F5F5F5F5F5F5F5
310
F5F5F5F5F5F5F5F5F5F5F5F5F5F5F5F5F5F5F5F5F5F5F5F5F5F5F5F5F5F5F5F5F5F5F5F5F5F5F5F5F5F5F5F5F5F5F5F5F528F5F5F5F5F5F5F5F5F5F5F5F5F5F5F5F5E2F5F5E2E2E2F5F5E2F5F5F5F5F5F5F5F5F5F5F5F5F5F5F5F528F5F5F5F5F5F5F5F5F5F5F5F5F5F5F5F5F5F5F5F5F5F5F5F5F5F5F5F5F5F5F5F5F5F5F5
310
F5F5F5F5F5F5F5F5F5F5F5F5F5F5F5F5F5F5F5F5F5F5F5F5F5F5F5F5F5F5F5F5F5F5F5F5F5F5F5F5F5F5F5F5F5F5F5F5F5F5F5F5F5F5F5F5F5F5F5F5F5F5F5F5F5F5F5F5F5F5F5F5F5F5F5F5F5F5F5F5F5F5F5F5F5F5F5F5F5F5F5F5F5F5F5F5F5F5F5F5F5F528F5F5F5F5F5F5F5F5F5F5F5F5F5F5F5F5E2F5F5E2E2E2F5F5
310
E2F5F5F5F5F5F5F5F5F5F5F5F5F5F5F5F528F5F5F5F5F5F5F5F5F5F5F5F5F5F5F5F5F5F5F5F5F5F5F5F5F5F5F5F5F5F5F5F5F5F5F5F5F5F5F5F5F5F5F5F5F5F5F5F5F5F5F5F5F5F5F5F5F5F5F5F5F5F5F5F5F5F5F5F5F5F5F5F5F5F5F5F5F5F5F5F5F5F5F5F5F5F5F5F5F5F5F5F5F5F5F5F5F5F5F5F5F5F5F5F5F5F5F5F5F5
310
F5F5F5F5F5F5F5F5F5F5F5F5F5F5F5F5F5F5F5F5F5F5F5F5F5F5F5F528F5F5F5F5F5F5F5F5F5F5F5F5F5F5F5F5E2F5F5E2E2E2F5F5E2F5F5F5F5F5F5F5F5F5F5F5F5F5F5F5F528F5F5F5F5F5F5F5F5F5F5F5F5F5F5F5F5F5F5F5F5F5F5F5F5F5F5F5F5F5F5F5F5F5F5F5F5F5F5F5F5F5F5F5F5F5F5F5F5F5F5F5F5F5F5F5F5
310
F5F5F5F5F5F5F5F5F5F5F5F5F5F5F5F5F5F5F5F5F5F5F5F5F5F5F5F5F5F5F5F5F5F5F5F5F5F5F5F5F5F5F5F5F5F5F5F5F5F5F5F5F5F5F5F5F5F5F5F5F5F5F5F5F5F5F5F5F5F5F5F5F5F5F5F5F5F5F5F5F528F5F5F5F5F5F5F5F5F5F5F5F5F5F5F5F5E2F5F5E2E2E2F5F5E2F5F5F5F5F5F5F5F5F5F5F5F5F5F5F5F528F5F5F5
310
F5F5F5F5F5F5F5F5F5F5F5F5F5F5F5F5F5F5F5F5F5F5F5F5F5F5F5F5F5F5F5F5F5F5F5F5F5F5F5F5F5F5F5F5F5F5F5F5F5F5F5F5F5F5F5F5F5F5F5F5F5F5F5F5F5F5F5F5F5F5F5F5F5F5F5F5F5F5F5F5F5F5F5F5F5F5F5F5F5F5F5F5F5F5F5F5F5F5F5F5F5F5F5F5F5F5F5F5F5F5F5F5F5F5F5F5F5F5F5F5F5F5F5F5F5F5F5
310
F5F5F5F5F5F5F528F5F5F5F5F5F5F5F5F5F5F5F5F5F5F5F5E2F5F5E2E2E2F5F5E2F5F5F5F5F5F5F5F5F5F5F5F5F5F5F5F528F5F5F5F5F5F5F5F5F5F5F5F5F5F5F5F5F5F5F5F5F5F5F5F5F5F5F5F5F5F5F5F5F5F5F5F5F5F5F5F5F5F5F5F5F5F5F5F5F5F5F5F5F5F5F5F5F5F5F5F5F5F5F5F5F5F5F5F5F5F5F5F5F5F5F5F5F5
310
F5F5F5F5F5F5F5F5F5F5F5F5F5F5F5F5F5F5F5F5F5F5F5F5F5F5F5F5F5F5F5F5F5F5F5F5F5F5F5F5F5F5F5F5F5F5F5F5F5F5F5F5F5F5F5F5F5F5F5F528F5F5F5F5F5F5F5F5F5F5F5F5F5F5F5F5E2F5F5E2E2E2F5F5E2F5F5F5F5F5F5F5F5F5F5F5F5F5F5F5F528F5F5F5F5F5F5F5F5F5F5F5F5F5F5F5F5F5F5F5F5F5F5F5F5
310
F5F5F5F5F5F5F5F5F5F5F5F5F5F5F5F5F5F5F5F5F5F5F5F5F5F5F5F5F5F5F5F5F5F5F5F5F5F5F5F5F5F5F5F5F5F5F5F5F5F5F5F5F5F5F5F5F5F5F5F5F5F5F5F5F5F5F5F5F5F5F5F5F5F5F5F5F5F5F5F5F5F5F5F5F5F5F5F5F5F5F5F5F5F5F5F5F5F5F5F5F5F5F5F5F5F5F5F5F5F5F5F5F528F5F5F5F5F5F5F5F5F5F5F5F5F5
310
F5F5F5E2F5F5E2E2E2F5F5E2F5F5F5F5F5F5F5F5F5F5F5F5F5F5F5F528F5F5F5F5F5F5F5F5F5F5F5F5F5F5F5F5F5F5F5F5F5F5F5F5F5F5F5F5F5F5F5F5F5F5F5F5F5F5F5F5F5F5F5F5F5F5F5F5F5F5F5F5F5F5F5F5F5F5F5F5F5F5F5F5F5F5F5F5F5F5F5F5F5F5F5F5F5F5F5F5F5F5F5F5F5F5F5F5F5F5F5F5F5F5F5F5F5F5
310
F5F5F5F5F5F5F5F5F5F5F5F5F5F5F5F5F5F5F5F5F5F5F5F5F5F5F5F5F5F5F5F5F5F5F5F5F5F5F528F5F5F5F5F5F5F5F5F5F5F5F5F5F5F5F5E2F5F5E2E2E2F5F5E2F5F5F5F5F5F5F5F5F5F5F5F5F5F5F5F528F5F5F5F5F5F5F5F5F5F5F5F5F5F5F5F5F5F5F5F5F5F5F5F5F5F5F5F5F5F5F5F5F5F5F5F5F5F5F5F5F5F5F5F5F5
310
F5F5F5F5F5F5F5F5F5F5F5F5F5F5F5F5F5F5F5F5F5F5F5F5F5F5F5F5F5F5F5F5F5F5F5F5F5F5F5F5F5F5F5F5F5F5F5F5F5F5F5F5F5F5F5F5F5F5F5F5F5F5F5F5F5F5F5F5F5F5F5F5F5F5F5F5F5F5F5F5F5F5F5F5F5F5F5F5F5F5F5F528F5F5F5F5F5F5F5F5F5F5F5F5F5F5F5F5E2F5F5E2E2E2F5F5E2F5F5F5F5F5F5F5F5F5
310
F5F5F5F5F5F5F528F5F5F5F5F5F5F5F5F5F5F5F5F5F5F5F5F5F5F5F5F5F5F5F5F5F5F5F5F5F5F5F5F5F5F5F5F5F5F5F5F5F5F5F5F5F5F5F5F5F5F5F5F5F5F5F5F5F5F5F5F5F5F5F5F5F5F5F5F5F5F5F5F5F5F5F5F5F5F5F5F5F5F5F5F5F5F5F5F5F5F5F5F5F5F5F5F5F5F5F5F5F5F5F5F5F5F5F5F5F5F5F5F5F5F5F5F5F5F5
310
F5F5F5F5F5F5F5F5F5F5F5F5F5F5F5F5F5F528F5F5F5F5F5F5F5F5F5F5F5F5F5F5F5F5E2F5F5E2E2E2F5F5E2F5F5F5F5F5F5F5F5F5F5F5F5F5F5F5F528F5F5F5F5F5F5F5F5F5F5F5F5F5F5F5F5F5F5F5F5F5F5F5F5F5F5F5F5F5F5F5F5F5F5F5F5F5F5F5F5F5F5F5F5F5F5F5F5F5F5F5F5F5F5F5F5F5F5F5F5F5F5F5F5F5F5
310
F5F5F5F5F5F5F5F5F5F5F5F5F5F5F5F5F5F5F5F5F5F5F5F5F5F5F5F5F5F5F5F5F5F5F5F5F5F5F5F5F5F5F5F5F5F5F5F5F5F5F5F5F5F5F5F5F5F5F5F5F5F5F5F5F5F5F5F5F5F5F528F5F5F5F5F5F5F5F5F5F5F5F5F5F5F5F5E2F5F5E2E2E2F5F5E2F5F5F5F5F5F5F5F5F5F5F5F5F5F5F5F528F5F5F5F5F5F5F5F5F5F5F5F5F5
310
F5F5F5F5F5F5F5F5F5F5F5F5F5F5F5F5F5F5F5F5F5F5F5F5F5F5F5F5F5F5F5F5F5F5F5F5F5F5F5F5F5F5F5F5F5F5F5F5F5F5F5F5F5F5F5F5F5F5F5F5F5F5F5F5F5F5F5F5F5F5F5F5F5F5F5F5F5F5F5F5F5F5F5F5F5F5F5F5F5F5F5F5F5F5F5F5F5F5F5F5F5F5F5F5F5F5F5F5F5F5F5F5F5F5F5F5F5F5F5F5F5F5F5F528F5F5
310
F5F5F5F5F5F5F5F5F5F5F5F5F5F5E2F5F5E2E2E2F5F5E2F5F5F5F5F5F5F5F5F5F5F5F5F5F5F5F528F5F5F5F5F5F5F5F5F5F5F5F5F5F5F5F5F5F5F5F5F5F5F5F5F5F5F5F5F5F5F5F5F5F5F5F5F5F5F5F5F5F5F5F5F5F5F5F5F5F5F5F5F5F5F5F5F5F5F5F5F5F5F5F5F5F5F5F5F5F5F5F5F5F5F5F5F5F5F5F5F5F5F5F5F5F5F5
310
F5F5F5F5F5F5F5F5F5F5F5F5F5F5F5F5F5F5F5F5F5F5F5F5F5F5F5F5F5F5F5F5F5F5F5F5F5F5F5F5F5F5F5F5F5F5F5F5F5F528F5F5F5F5F5F5F5F5F5F5F5F5F5F5F5F5E2F5F5E2E2E2F5F5E2F5F5F5F5F5F5F5F5F5F5F5F5F5F5F5F528F5F5F5F5F5F5F5F5F5F5F5F5F5F5F5F5F5F5F5F5F5F5F5F5F5F5F5F5F5F5F5F5F5F5
310
F5F5F5F5F5F5F5F5F5F5F5F5F5F5F5F5F5F5F5F5F5F5F5F5F5F5F5F5F5F5F5F5F5F5F5F5F5F5F5F5F5F5F5F5F5F5F5F5F5F5F5F5F5F5F5F5F5F5F5F5F5F5F5F5F5F5F5F5F5F5F5F5F5F5F5F5F5F5F5F5F5F5F5F5F5F5F5F5F5F5F5F5F5F5F5F5F5F5F5F5F5F5F528F5F5F5F5F5F5F5F5F5F5F5F5F5F5F5F5E2F5F5E2E2E2F5
310
F5F5F5F5F5F5F5F5F5F5F5F5F5F5F5F5F5F528F5F5F5F5F5F5F5F5F5F5F5F5F5F5F5F5F5F5F5F5F5F5F5F5F5F5F5F5F5F5F5F5F5F5F5F5F5F5F5F5F5F5F5F5F5F5F5F5F5F5F5F5F5F5F5F5F5F5F5F5F5F5F5F5F5F5F5F5F5F5F5F5F5F5F5F5F5F5F5F5F5F5F5F5F5F5F5F5F5F5F5F5F5F5F5F5F5F5F5F5F5F5F5F5F5F5F5F5
310
F5F5F5F5F5F5F5F5F5F5F5F5F5F5F5F5F5F5F5F5F5F5F5F5F5F5F5F5F528F5F5F5F5F5F5F5F5F5F5F5F5F5F5F5F5F5F5F5E2E2E2F5F5F5F5F5F5F5F5F5F5F5F5F5F5F5F5F5F5F528F5F5F5F5F5F5F5F5F5F5F5F5F5F5F5F5F5F5F5F5F5F5F5F5F5F5F5F5F5F5F5F5F5F5F5F5F5F5F5F5F5F5F5F5F5F5F5F5F5F5F5F5F5F5F5
310
F5F5F5F5F5F5F5F5F5F5F5F5F5F5F5F5F5F5F5F5F5F5F5F5F5F5F5F5F5F5F5F5F5F5F5F5F5F5F5F5F5F5F5F5F5F5F5F5F5F5F5F5F5F5F5F5F5F5F5F5F5F5F5F5F5F5F5F5F5F5F5F5F5F5F5F5F5F5F5F5F5F528F5F5F5F5F5F5F5F5F5F5F5F5F5F5F5F5F5F5F5E2E2E2F5F5F5F5F5F5F5F5F5F5F5F5F5F5F5F5F5F5F528F5F5
310
F5F5F5F5F5F5F5F5F5F5F5F5F5F5F5F5F5F5F5F5F5F5F5F5F5F5F5F5F5F5F5F5F5F5F5F5F5F5F5F5F5F5F5F5F5F5F5F5F5F5F5F5F5F5F5F5F5F5F5F5F5F5F5F5F5F5F5F5F5F5F5F5F5F5F5F5F5F5F5F5F5F5F5F5F5F5F5F5F5F5F5F5F5F5F5F5F5F5F5F5F5F5F5F5F5F5F5F5F5F5F5F5F5F5F5F5F5F5F5F5F5F5F5F5F5F5F5
310
F5F5F5F5F5F5F5F528F5F5F5F5F5F5F5F5F5F5F5F5F5F5F5F5F5F5F5E2E2E2F5F5F5F5F5F5F5F5F5F5F5F5F5F5F5F5F5F5F528F5F5F5F5F5F5F5F5F5F5F5F5F5F5F5F5F5F5F5F5F5F5F5F5F5F5F5F5F5F5F5F5F5F5F5F5F5F5F5F5F5F5F5F5F5F5F5F5F5F5F5F5F5F5F5F5F5F5F5F5F5F5F5F5F5F5F5F5F5F5F5F5F5F5F5F5
310
F5F5F5F5F5F5F5F5F5F5F5F5F5F5F5F5F5F5F5F5F5F5F5F5F5F5F5F5F5F5F5F5F5F5F5F5F5F5F5F5F5F5F5F5F5F5F5F5F5F5F5F5F5F5F5F5F5F5F5F5F528F5F5F5F5F5F5F5F5F5F5F5F5F5F5F5F5F5F5F5E2E2E2F5F5F5F5F5F5F5F5F5F5F5F5F5F5F5F5F5F5F528F5F5F5F5F5F5F5F5F5F5F5F5F5F5F5F5F5F5F5F5F5F5F5
310
F5F5F5F5F5F5F5F5F5F5F5F5F5F5F5F5F5F5F5F5F5F5F5F5F5F5F5F5F5F5F5F5F5F5F5F5F5F5F5F5F5F5F5F5F5F5F5F5F5F5F5F5F5F5F5F5F5F5F5F5F5F5F5F5F5F5F5F5F5F5F5F5F5F5F5F5F5F5F5F5F5F5F5F5F5F5F5F5F5F5F5F5F5F5F5F5F5F5F5F5F5F5F5F5F5F5F5F5F5F5F5F5F5F528F5F5F5F5F5F5F5F5F5F5F5F5
310
F5F5F5F5F5F5F5E2E2E2F5F5F5F5F5F5F5F5F5F5F5F5F5F5F5F5F5F5F528F5F5F5F5F5F5F5F5F5F5F5F5F5F5F5F5F5F5F5F5F5F5F5F5F5F5F5F5F5F5F5F5F5F5F5F5F5F5F5F5F5F5F5F5F5F5F5F5F5F5F5F5F5F5F5F5F5F5F5F5F5F5F5F5F5F5F5F5F5F5F5F5F5F5F5F5F5F5F5F5F5F5F5F5F5F5F5F5F5F5F5F5F5F5F5F5F5
310
F5F5F5F5F5F5F5F5F5F5F5F5F5F5F5F5F5F5F5F5F5F5F5F5F5F5F5F5F5F5F5F5F5F5F5F5F5F5F5F528F5F5F5F5F5F5F5F5F5F5F5F5F5F5F5F5F5F5F5E2E2E2F5F5F5F5F5F5F5F5F5F5F5F5F5F5F5F5F5F5F528F5F5F5F5F5F5F5F5F5F5F5F5F5F5F5F5F5F5F5F5F5F5F5F5F5F5F5F5F5F5F5F5F5F5F5F5F5F5F5F5F5F5F5F5
310
F5F5F5F5F5F5F5F5F5F5F5F5F5F5F5F5F5F5F5F5F5F5F5F5F5F5F5F5F5F5F5F5F5F5F5F5F5F5F5F5F5F5F5F5F5F5F5F5F5F5F5F5F5F5F5F5F5F5F5F5F5F5F5F5F5F5F5F5F5F5F5F5F5F5F5F5F5F5F5F5F5F5F5F5F5F5F5F5F5F5F5F5F528F5F5F5F5F5F5F5F5F5F5F5F5F5F5F5F5F5F5F5E2E2E2F5F5F5F5F5F5F5F5F5F5F5
310
F5F5F5F5F5F5F5F528F5F5F5F5F5F5F5F5F5F5F5F5F5F5F5F5F5F5F5F5F5F5F5F5F5F5F5F5F5F5F5F5F5F5F5F5F5F5F5F5F5F5F5F5F5F5F5F5F5F5F5F5F5F5F5F5F5F5F5F5F5F5F5F5F5F5F5F5F5F5F5F5F5F5F5F5F5F5F5F5F5F5F5F5F5F5F5F5F5F5F5F5F5F5F5F5F5F5F5F5F5F5F5F5F5F5F5F5F5F5F5F5F5F5F5F5F5F5
310
F5F5F5F5F5F5F5F5F5F5F5F5F5F5F5F5F5F5F528F5F5F5F5F5F5F5F5F5F5F5F5F5F5F5F5F5F5F5E2E2E2F5F5F5F5F5F5F5F5F5F5F5F5F5F5F5F5F5F5F528F5F5F5F5F5F5F5F5F5F5F5F5F5F5F5F5F5F5F5F5F5F5F5F5F5F5F5F5F5F5F5F5F5F5F5F5F5F5F5F5F5F5F5F5F5F5F5F5F5F5F5F5F5F5F5F5F5F5F5F5F5F5F5F5F5
310
F5F5F5F5F5F5F5F5F5F5F5F5F5F5F5F5F5F5F5F5F5F5F5F5F5F5F5F5F5F5F5F5F5F5F5F5F5F5F5F5F5F5F5F5F5F5F5F5F5F5F5F5F5F5F5F5F5F5F5F5F5F5F5F5F5F5F5F5F5F5F5F528F5F5F5F5F5F5F5F5F5F5F5F5F5F5F5F5F5F5F5E2E2E2F5F5E2F5F5F5F5F5F5F5F5F5F5F5F5F5F5F5F528F5F5F5F5F5F5F5F5F5F5F5F5
310
F5F5F5F5F5F5F5F5F5F5F5F5F5F5F5F5F5F5F5F5F5F5F5F5F5F5F5F5F5F5F5F5F5F5F5F5F5F5F5F5F5F5F5F5F5F5F5F5F5F5F5F5F5F5F5F5F5F5F5F5F5F5F5F5F5F5F5F5F5F5F5F5F5F5F5F5F5F5F5F5F5F5F5F5F5F5F5F5F5F5F5F5F5F5F5F5F5F5F5F5F5F5F5F5F5F5F5F5F5F5F5F5F5F5F5F5F5F5F5F5F5F5F5F5F528F5
310
F5F5F5F5F5F5F5F5F5F5F5F5F5F5F5E2F5F5E2E2E2F5F5E2F5F5F5F5F5F5F5F5F5F5F5F5F5F5F5F528F5F5F5F5F5F5F5F5F5F5F5F5F5F5F5F5F5F5F5F5F5F5F5F5F5F5F5F5F5F5F5F5F5F5F5F5F5F5F5F5F5F5F5F5F5F5F5F5F5F5F5F5F5F5F5F5F5F5F5F5F5F5F5F5F5F5F5F5F5F5F5F5F5F5F5F5F5F5F5F5F5F5F5F5F5F5
310
F5F5F5F5F5F5F5F5F5F5F5F5F5F5F5F5F5F5F5F5F5F5F5F5F5F5F5F5F5F5F5F5F5F5F5F5F5F5F5F5F5F5F5F5F5F5F5F5F5F5F528F5F5F5F5F5F5F5F5F5F5F5F5F5F5F5F5E2F5F5E2E2E2F5F5E2F5F5F5F5F5F5F5F5F5F5F5F5F5F5F5F528F5F5F5F5F5F5F5F5F5F5F5F5F5F5F5F5F5F5F5F5F5F5F5F5F5F5F5F5F5F5F5F5F5
310
F5F5F5F5F5F5F5F5F5F5F5F5F5F5F5F5F5F5F5F5F5F5F5F5F5F5F5F5F5F5F5F5F5F5F5F5F5F5F5F5F5F5F5F5F5F5F5F5F5F5F5F5F5F5F5F5F5F5F5F5F5F5F5F5F5F5F5F5F5F5F5F5F5F5F5F5F5F5F5F5F5F5F5F5F5F5F5F5F5F5F5F5F5F5F5F5F5F5F5F5F5F5F5F528F5F5F5F5F5F5F5F5F5F5F5F5F5F5F5F5E2F5F5E2E2E2
310
F5F5E2F5F5F5F5F5F5F5F5F5F5F5F5F5F5F5F528F5F5F5F5F5F5F5F5F5F5F5F5F5F5F5F5F5F5F5F5F5F5F5F5F5F5F5F5F5F5F5F5F5F5F5F5F5F5F5F5F5F5F5F5F5F5F5F5F5F5F5F5F5F5F5F5F5F5F5F5F5F5F5F5F5F5F5F5F5F5F5F5F5F5F5F5F5F5F5F5F5F5F5F5F5F5F5F5F5F5F5F5F5F5F5F5F5F5F5F5F5F5F5F5F5F5F5
310
F5F5F5F5F5F5F5F5F5F5F5F5F5F5F5F5F5F5F5F5F5F5F5F5F5F5F5F5F5F528F5F5F5F5F5F5F5F5F5F5F5F5F5F5F5F5E2F5F5E2E2E2F5F5E2F5F5F5F5F5F5F5F5F5F5F5F5F5F5F5F528F5F5F5F5F5F5F5F5F5F5F5F5F5F5F5F5F5F5F5F5F5F5F5F5F5F5F5F5F5F5F5F5F5F5F5F5F5F5F5F5F5F5F5F5F5F5F5F5F5F5F5F5F5F5
310
F5F5F5F5F5F5F5F5F5F5F5F5F5F5F5F5F5F5F5F5F5F5F5F5F5F5F5F5F5F5F5F5F5F5F5F5F5F5F5F5F5F5F5F5F5F5F5F5F5F5F5F5F5F5F5F5F5F5F5F5F5F5F5F5F5F5F5F5F5F5F5F5F5F5F5F5F5F5F5F5F5F5F528F5F5F5F5F5F5F5F5F5F5F5F5F5F5F5F5E2F5F5E2E2E2F5F5E2F5F5F5F5F5F5F5F5F5F5F5F5F5F5F5F528F5
310
F5F5F5F5F5F5F5F5F5F5F5F5F5F5F5F5F5F5F5F5F5F5F5F5F5F5F5F5F5F5F5F5F5F5F5F5F5F5F5F5F5F5F5F5F5F5F5F5F5F5F5F5F5F5F5F5F5F5F5F5F5F5F5F5F5F5F5F5F5F5F5F5F5F5F5F5F5F5F5F5F5F5F5F5F5F5F5F5F5F5F5F5F5F5F5F5F5F5F5F5F5F5F5F5F5F5F5F5F5F5F5F5F5F5F5F5F5F5F5F5F5F5F5F5F5F5F5
310
F5F5F5F5F5F5F5F5F528F5F5F5F5F5F5F5F5F5F5F5F5F5F5F5F5E2F5F5E2E2E2F5F5E2F5F5F5F5F5F5F5F5F5F5F5F5F5F5F5F528F5F5F5F5F5F5F5F5F5F5F5F5F5F5F5F5F5F5F5F5F5F5F5F5F5F5F5F5F5F5F5F5F5F5F5F5F5F5F5F5F5F5F5F5F5F5F5F5F5F5F5F5F5F5F5F5F5F5F5F5F5F5F5F5F5F5F5F5F5F5F5F5F5F5F5
310
F5F5F5F5F5F5F5F5F5F5F5F5F5F5F5F5F5F5F5F5F5F5F5F5F5F5F5F5F5F5F5F5F5F5F5F5F5F5F5F5F5F5F5F5F5F5F5F5F5F5F5F5F5F5F5F5F5F5F5F5F5F528F5F5F5F5F5F5F5F5F5F5F5F5F5F5F5F5E2F5F5E2E2E2F5F5E2F5F5F5F5F5F5F5F5F5F5F5F5F5F5F5F528F5F5F5F5F5F5F5F5F5F5F5F5F5F5F5F5F5F5F5F5F5F5
310
F5F5F5F5F5F5F5F5F5F5F5F5F5F5F5F5F5F5F5F5F5F5F5F5F5F5F5F5F5F5F5F5F5F5F5F5F5F5F5F5F5F5F5F5F5F5F5F5F5F5F5F5F5F5F5F5F5F5F5F5F5F5F5F5F5F5F5F5F5F5F5F5F5F5F5F5F5F5F5F5F5F5F5F5F5F5F5F5F5F5F5F5F5F5F5F5F5F5F5F5F5F5F5F5F5F5F5F5F5F5F5F5F5F5F528F5F5F5F5F5F5F5F5F5F5F5
310
F5F5F5F5F5E2F5F5E2E2E2F5F5E2F5F5F5F5F5F5F5F5F5F5F5F5F5F5F5F528F5F5F5F5F5F5F5F5F5F5F5F5F5F5F5F5F5F5F5F5F5F5F5F5F5F5F5F5F5F5F5F5F5F5F5F5F5F5F5F5F5F5F5F5F5F5F5F5F5F5F5F5F5F5F5F5F5F5F5F5F5F5F5F5F5F5F5F5F5F5F5F5F5F5F5F5F5F5F5F5F5F5F5F5F5F5F5F5F5F5F5F5F5F5F5F5
310
F5F5F5F5F5F5F5F5F5F5F5F5F5F5F5F5F5F5F5F5F5F5F5F5F5F5F5F5F5F5F5F5F5F5F5F5F5F5F5F5F528F5F5F5F5F5F5F5F5F5F5F5F5F5F5F5F5E2F5F5E2E2E2F5F5E2F5F5F5F5F5F5F5F5F5F5F5F5F5F5F5F528F5F5F5F5F5F5F5F5F5F5F5F5F5F5F5F5F5F5F5F5F5F5F5F5F5F5F5F5F5F5F5F5F5F5F5F5F5F5F5F5F5F5F5
310
F5F5F5F5F5F5F5F5F5F5F5F5F5F5F5F5F5F5F5F5F5F5F5F5F5F5F5F5F5F5F5F5F5F5F5F5F5F5F5F5F5F5F5F5F5F5F5F5F5F5F5F5F5F5F5F5F5F5F5F5F5F5F5F5F5F5F5F5F5F5F5F5F5F5F5F5F5F5F5F5F5F5F5F5F5F5F5F5F5F5F5F5F5F528F5F5F5F5F5F5F5F5F5F5F5F5F5F5F5F5E2F5F5E2E2E2F5F5E2F5F5F5F5F5F5F5
310
F5F5F5F5F5F5F5F5F528F5F5F5F5F5F5F5F5F5F5F5F5F5F5F5F5F5F5F5F5F5F5F5F5F5F5F5F5F5F5F5F5F5F5F5F5F5F5F5F5F5F5F5F5F5F5F5F5F5F5F5F5F5F5F5F5F5F5F5F5F5F5F5F5F5F5F5F5F5F5F5F5F5F5F5F5F5F5F5F5F5F5F5F5F5F5F5F5F5F5F5F5F5F5F5F5F5F5F5F5F5F5F5F5F5F5F5F5F5F5F5F5F5F5F5F5F5
310
F5F5F5F5F5F5F5F5F5F5F5F5F5F5F5F5F5F5F5F528F5F5F5F5F5F5F5F5F5F5F5F5F5F5F5F5E2F5F5E2E2E2F5F5E2F5F5F5F5F5F5F5F5F5F5F5F5F5F5F5F528F5F5F5F5F5F5F5F5F5F5F5F5F5F5F5F5F5F5F5F5F5F5F5F5F5F5F5F5F5F5F5F5F5F5F5F5F5F5F5F5F5F5F5F5F5F5F5F5F5F5F5F5F5F5F5F5F5F5F5F5F5F5F5F5
310
F5F5F5F5F5F5F5F5F5F5F5F5F5F5F5F5F5F5F5F5F5F5F5F5F5F5F5F5F5F5F5F5F5F5F5F5F5F5F5F5F5F5F5F5F5F5F5F5F5F5F5F5F5F5F5F5F5F5F5F5F5F5F5F5F5F5F5F5F5F5F5F5F528F5F5F5F5F5F5F5F5F5F5F5F5F5F5F5F5E2F5F5E2E2E2F5F5E2F5F5F5F5F5F5F5F5F5F5F5F5F5F5F5F528F5F5F5F5F5F5F5F5F5F5F5
310
F5F5F5F5F5F5F5F5F5F5F5F5F5F5F5F5F5F5F5F5F5F5F5F5F5F5F5F5F5F5F5F5F5F5F5F5F5F5F5F5F5F5F5F5F5F5F5F5F5F5F5F5F5F5F5F5F5F5F5F5F5F5F5F5F5F5F5F5F5F5F5F5F5F5F5F5F5F5F5F5F5F5F5F5F5F5F5F5F5F5F5F5F5F5F5F5F5F5F5F5F5F5F5F5F5F5F5F5F5F5F5F5F5F5F5F5F5F5F5F5F5F5F5F5F5F528
310
F5F5F5F5F5F5F5F5F5F5F5F5F5F5F5F5E2F5F5E2E2E2F5F5E2F5F5F5F5F5F5F5F5F5F5F5F5F5F5F5F528F5F5F5F5F5F5F5F5F5F5F5F5F5F5F5F5F5F5F5F5F5F5F5F5F5F5F5F5F5F5F5F5F5F5F5F5F5F5F5F5F5F5F5F5F5F5F5F5F5F5F5F5F5F5F5F5F5F5F5F5F5F5F5F5F5F5F5F5F5F5F5F5F5F5F5F5F5F5F5F5F5F5F5F5F5
310
F5F5F5F5F5F5F5F5F5F5F5F5F5F5F5F5F5F5F5F5F5F5F5F5F5F5F5F5F5F5F5F5F5F5F5F5F5F5F5F5F5F5F5F5F5F5F5F5F5F5F5F528F5F5F5F5F5F5F5F5F5F5F5F5F5F5F5F5E2F5F5E2E2E2F5F5E2F5F5F5F5F5F5F5F5F5F5F5F5F5F5F5F528F5F5F5F5F5F5F5F5F5F5F5F5F5F5F5F5F5F5F5F5F5F5F5F5F5F5F5F5F5F5F5F5
310
F5F5F5F5F5F5F5F5F5F5F5F5F5F5F5F5F5F5F5F5F5F5F5F5F5F5F5F5F5F5F5F5F5F5F5F5F5F5F5F5F5F5F5F5F5F5F5F5F5F5F5F5F5F5F5F5F5F5F5F5F5F5F5F5F5F5F5F5F5F5F5F5F5F5F5F5F5F5F5F5F5F5F5F5F5F5F5F5F5F5F5F5F5F5F5F5F5F5F5F5F5F5F5F5F528F5F5F5F5F5F5F5F5F5F5F5F5F5F5F5F5E2F5F5E2E2
310
E2F5F5F5F5F5F5F5F5F5F5F5F5F5F5F5F5F5F5F528F5F5F5F5F5F5F5F5F5F5F5F5F5F5F5F5F5F5F5F5F5F5F5F5F5F5F5F5F5F5F5F5F5F5F5F5F5F5F5F5F5F5F5F5F5F5F5F5F5F5F5F5F5F5F5F5F5F5F5F5F5F5F5F5F5F5F5F5F5F5F5F5F5F5F5F5F5F5F5F5F5F5F5F5F5F5F5F5F5F5F5F5F5F5F5F5F5F5F5F5F5F5F5F5F5F5
310
F5F5F5F5F5F5F5F5F5F5F5F5F5F5F5F5F5F5F5F5F5F5F5F5F5F5F5F5F5F5F528F5F5F5F5F5F5F5F5F5F5F5F5F5F5F5F5F5F5F5E2E2E2F5F5F5F5F5F5F5F5F5F5F5F5F5F5F5F5F5F5F528F5F5F5F5F5F5F5F5F5F5F5F5F5F5F5F5F5F5F5F5F5F5F5F5F5F5F5F5F5F5F5F5F5F5F5F5F5F5F5F5F5F5F5F5F5F5F5F5F5F5F5F5F5
310
F5F5F5F5F5F5F5F5F5F5F5F5F5F5F5F5F5F5F5F5F5F5F5F5F5F5F5F5F5F5F5F5F5F5F5F5F5F5F5F5F5F5F5F5F5F5F5F5F5F5F5F5F5F5F5F5F5F5F5F5F5F5F5F5F5F5F5F5F5F5F5F5F5F5F5F5F5F5F5F5F5F5F5F528F5F5F5F5F5F5F5F5F5F5F5F5F5F5F5F5F5F5F5E2E2E2F5F5F5F5F5F5F5F5F5F5F5F5F5F5F5F5F5F5F528
310
F5F5F5F5F5F5F5F5F5F5F5F5F5F5F5F5F5F5F5F5F5F5F5F5F5F5F5F5F5F5F5F5F5F5F5F5F5F5F5F5F5F5F5F5F5F5F5F5F5F5F5F5F5F5F5F5F5F5F5F5F5F5F5F5F5F5F5F5F5F5F5F5F5F5F5F5F5F5F5F5F5F5F5F5F5F5F5F5F5F5F5F5F5F5F5F5F5F5F5F5F5F5F5F5F5F5F5F5F5F5F5F5F5F5F5F5F5F5F5F5F5F5F5F5F5F5F5
310
F5F5F5F5F5F5F5F5F5F528F5F5F5F5F5F5F5F5F5F5F5F5F5F5F5F5F5F5F5E2E2E2F5F5F5F5F5F5F5F5F5F5F5F5F5F5F5F5F5F5F528F5F5F5F5F5F5F5F5F5F5F5F5F5F5F5F5F5F5F5F5F5F5F5F5F5F5F5F5F5F5F5F5F5F5F5F5F5F5F5F5F5F5F5F5F5F5F5F5F5F5F5F5F5F5F5F5F5F5F5F5F5F5F5F5F5F5F5F5F5F5F5F5F5F5
310
F5F5F5F5F5F5F5F5F5F5F5F5F5F5F5F5F5F5F5F5F5F5F5F5F5F5F5F5F5F5F5F5F5F5F5F5F5F5F5F5F5F5F5F5F5F5F5F5F5F5F5F5F5F5F5F5F5F5F5F5F5F5F528F5F5F5F5F5F5F5F5F5F5F5F5F5F5F5F5F5F5F5E2E2E2F5F5F5F5F5F5F5F5F5F5F5F5F5F5F5F5F5F5F528F5F5F5F5F5F5F5F5F5F5F5F5F5F5F5F5F5F5F5F5F5
310
F5F5F5F5F5F5F5F5F5F5F5F5F5F5F5F5F5F5F5F5F5F5F5F5F5F5F5F5F5F5F5F5F5F5F5F5F5F5F5F5F5F5F5F5F5F5F5F5F5F5F5F5F5F5F5F5F5F5F5F5F5F5F5F5F5F5F5F5F5F5F5F5F5F5F5F5F5F5F5F5F5F5F5F5F5F5F5F5F5F5F5F5F5F5F5F5F5F5F5F5F5F5F5F5F5F5F5F5F5F5F5F5F5F5F5F528F5F5F5F5F5F5F5F5F5F5
310
F5F5F5F5F5F5F5F5F5E2E2E2F5F5F5F5F5F5F5F5F5F5F5F5F5F5F5F5F5F5F528F5F5F5F5F5F5F5F5F5F5F5F5F5F5F5F5F5F5F5F5F5F5F5F5F5F5F5F5F5F5F5F5F5F5F5F5F5F5F5F5F5F5F5F5F5F5F5F5F5F5F5F5F5F5F5F5F5F5F5F5F5F5F5F5F5F5F5F5F5F5F5F5F5F5F5F5F5F5F5F5F5F5F5F5F5F5F5F5F5F5F5F5F5F5F5
310
F5F5F5F5F5F5F5F5F5F5F5F5F5F5F5F5F5F5F5F5F5F5F5F5F5F5F5F5F5F5F5F5F5F5F5F5F5F5F5F5F5F528F5F5F5F5F5F5F5F5F5F5F5F5F5F5F5F5F5F5F5E2E2E2F5F5F5F5F5F5F5F5F5F5F5F5F5F5F5F5F5F5F528F5F5F5F5F5F5F5F5F5F5F5F5F5F5F5F5F5F5F5F5F5F5F5F5F5F5F5F5F5F5F5F5F5F5F5F5F5F5F5F5F5F5
310
F5F5F5F5F5F5F5F5F5F5F5F5F5F5F5F5F5F5F5F5F5F5F5F5F5F5F5F5F5F5F5F5F5F5F5F5F5F5F5F5F5F5F5F5F5F5F5F5F5F5F5F5F5F5F5F5F5F5F5F5F5F5F5F5F5F5F5F5F5F5F5F5F5F5F5F5F5F5F5F5F5F5F5F5F5F5F5F5F5F5F5F5F5F5F528F5F5F5F5F5F5F5F5F5F5F5F5F5F5F5F5F5F5F5E2E2E2F5F5F5F5F5F5F5F5F5
310
F5F5F5F5F5F5F5F5F5F528F5F5F5F5F5F5F5F5F5F5F5F5F5F5F5F5F5F5F5F5F5F5F5F5F5F5F5F5F5F5F5F5F5F5F5F5F5F5F5F5F5F5F5F5F5F5F5F5F5F5F5F5F5F5F5F5F5F5F5F5F5F5F5F5F5F5F5F5F5F5F5F5F5F5F5F5F5F5F5F5F5F5F5F5F5F5F5F5F5F5F5F5F5F5F5F5F5F5F5F5F5F5F5F5F5F5F5F5F5F5F5F5F5F5F5F5
310
F5F5F5F5F5F5F5F5F5F5F5F5F5F5F5F5F5F5F5F5F528F5F5F5F5F5F5F5F5F5F5F5F5F5F5F5F5F5F5F5E2E2E2F5F5F5F5F5F5F5F5F5F5F5F5F5F5F5F5F5F5F528F5F5F5F5F5F5F5F5F5F5F5F5F5F5F5F5F5F5F5F5F5F5F5F5F5F5F5F5F5F5F5F5F5F5F5F5F5F5F5F5F5F5F5F5F5F5F5F5F5F5F5F5F5F5F5F5F5F5F5F5F5F5F5
310
F5F5F5F5F5F5F5F5F5F5F5F5F5F5F5F5F5F5F5F5F5F5F5F5F5F5F5F5F5F5F5F5F5F5F5F5F5F5F5F5F5F5F5F5F5F5F5F5F5F5F5F5F5F5F5F5F5F5F5F5F5F5F5F5F5F5F5F5F5F5F5F5F5F528F5F5F5F5F5F5F5F5F5F5F5F5F5F5F5F5F5F5F5E2E2E2F5F5E2F5F5F5F5F5F5F5F5F5F5F5F5F5F5F5F528F5F5F5F5F5F5F5F5F5F5
310
F5F5F5F5F5F5F5F5F5F5F5F5F5F5F5F5F5F5F5F5F5F5F5F5F5F5F5F5F5F5F5F5F5F5F5F5F5F5F5F5F5F5F5F5F5F5F5F5F5F5F5F5F5F5F5F5F5F5F5F5F5F5F5F5F5F5F5F5F5F5F5F5F5F5F5F5F5F5F5F5F5F5F5F5F5F5F5F5F5F5F5F5F5F5F5F5F5F5F5F5F5F5F5F5F5F5F5F5F5F5F5F5F5F5F5F5F5F5F5F5F5F5F5F5F5F5F5
310
28F5F5F5F5F5F5F5F5F5F5F5F5F5F5F5F5E2F5F5E2E2E2F5F5E2F5F5F5F5F5F5F5F5F5F5F5F5F5F5F5F528F5F5F5F5F5F5F5F5F5F5F5F5F5F5F5F5F5F5F5F5F5F5F5F5F5F5F5F5F5F5F5F5F5F5F5F5F5F5F5F5F5F5F5F5F5F5F5F5F5F5F5F5F5F5F5F5F5F5F5F5F5F5F5F5F5F5F5F5F5F5F5F5F5F5F5F5F5F5F5F5F5F5F5F5
310
F5F5F5F5F5F5F5F5F5F5F5F5F5F5F5F5F5F5F5F5F5F5F5F5F5F5F5F5F5F5F5F5F5F5F5F5F5F5F5F5F5F5F5F5F5F5F5F5F5F5F5F5F528F5F5F5F5F5F5F5F5F5F5F5F5F5F5F5F5E2F5F5E2E2E2F5F5E2F5F5F5F5F5F5F5F5F5F5F5F5F5F5F5F528F5F5F5F5F5F5F5F5F5F5F5F5F5F5F5F5F5F5F5F5F5F5F5F5F5F5F5F5F5F5F5
310
F5F5F5F5F5F5F5F5F5F5F5F5F5F5F5F5F5F5F5F5F5F5F5F5F5F5F5F5F5F5F5F5F5F5F5F5F5F5F5F5F5F5F5F5F5F5F5F5F5F5F5F5F5F5F5F5F5F5F5F5F5F5F5F5F5F5F5F5F5F5F5F5F5F5F5F5F5F5F5F5F5F5F5F5F5F5F5F5F5F5F5F5F5F5F5F5F5F5F5F5F5F5F5F5F5F528F5F5F5F5F5F5F5F5F5F5F5F5F5F5F5F5E2F5F5E2
310
E2E2F5F5E2F5F5F5F5F5F5F5F5F5F5F5F5F5F5F5F528F5F5F5F5F5F5F5F5F5F5F5F5F5F5F5F5F5F5F5F5F5F5F5F5F5F5F5F5F5F5F5F5F5F5F5F5F5F5F5F5F5F5F5F5F5F5F5F5F5F5F5F5F5F5F5F5F5F5F5F5F5F5F5F5F5F5F5F5F5F5F5F5F5F5F5F5F5F5F5F5F5F5F5F5F5F5F5F5F5F5F5F5F5F5F5F5F5F5F5F5F5F5F5F5F5
310
F5F5F5F5F5F5F5F5F5F5F5F5F5F5F5F5F5F5F5F5F5F5F5F5F5F5F5F5F5F5F5F528F5F5F5F5F5F5F5F5F5F5F5F5F5F5F5F5E2F5F5E2E2E2F5F5E2F5F5F5F5F5F5F5F5F5F5F5F5F5F5F5F528F5F5F5F5F5F5F5F5F5F5F5F5F5F5F5F5F5F5F5F5F5F5F5F5F5F5F5F5F5F5F5F5F5F5F5F5F5F5F5F5F5F5F5F5F5F5F5F5F5F5F5F5
310
F5F5F5F5F5F5F5F5F5F5F5F5F5F5F5F5F5F5F5F5F5F5F5F5F5F5F5F5F5F5F5F5F5F5F5F5F5F5F5F5F5F5F5F5F5F5F5F5F5F5F5F5F5F5F5F5F5F5F5F5F5F5F5F5F5F5F5F5F5F5F5F5F5F5F5F5F5F5F5F5F5F5F5F5F528F5F5F5F5F5F5F5F5F5F5F5F5F5F5F5F5E2F5F5E2E2E2F5F5E2F5F5F5F5F5F5F5F5F5F5F5F5F5F5F5F5
310
28F5F5F5F5F5F5F5F5F5F5F5F5F5F5F5F5F5F5F5F5F5F5F5F5F5F5F5F5F5F5F5F5F5F5F5F5F5F5F5F5F5F5F5F5F5F5F5F5F5F5F5F5F5F5F5F5F5F5F5F5F5F5F5F5F5F5F5F5F5F5F5F5F5F5F5F5F5F5F5F5F5F5F5F5F5F5F5F5F5F5F5F5F5F5F5F5F5F5F5F5F5F5F5F5F5F5F5F5F5F5F5F5F5F5F5F5F5F5F5F5F5F5F5F5F5F5
310
F5F5F5F5F5F5F5F5F5F5F528F5F5F5F5F5F5F5F5F5F5F5F5F5F5F5F5E2F5F5E2E2E2F5F5E2F5F5F5F5F5F5F5F5F5F5F5F5F5F5F5F528F5F5F5F5F5F5F5F5F5F5F5F5F5F5F5F5F5F5F5F5F5F5F5F5F5F5F5F5F5F5F5F5F5F5F5F5F5F5F5F5F5F5F5F5F5F5F5F5F5F5F5F5F5F5F5F5F5F5F5F5F5F5F5F5F5F5F5F5F5F5F5F5F5
310
F5F5F5F5F5F5F5F5F5F5F5F5F5F5F5F5F5F5F5F5F5F5F5F5F5F5F5F5F5F5F5F5F5F5F5F5F5F5F5F5F5F5F5F5F5F5F5F5F5F5F5F5F5F5F5F5F5F5F5F5F5F5F5F528F5F5F5F5F5F5F5F5F5F5F5F5F5F5F5F5E2F5F5E2E2E2F5F5E2F5F5F5F5F5F5F5F5F5F5F5F5F5F5F5F528F5F5F5F5F5F5F5F5F5F5F5F5F5F5F5F5F5F5F5F5
310
F5F5F5F5F5F5F5F5F5F5F5F5F5F5F5F5F5F5F5F5F5F5F5F5F5F5F5F5F5F5F5F5F5F5F5F5F5F5F5F5F5F5F5F5F5F5F5F5F5F5F5F5F5F5F5F5F5F5F5F5F5F5F5F5F5F5F5F5F5F5F5F5F5F5F5F5F5F5F5F5F5F5F5F5F5F5F5F5F5F5F5F5F5F5F5F5F5F5F5F5F5F5F5F5F5F5F5F5F5F5F5F5F5F5F5F5F528F5F5F5F5F5F5F5F5F5
310
F5F5F5F5F5F5F5E2F5F5E2E2E2F5F5E2F5F5F5F5F5F5F5F5F5F5F5F5F5F5F5F528F5F5F5F5F5F5F5F5F5F5F5F5F5F5F5F5F5F5F5F5F5F5F5F5F5F5F5F5F5F5F5F5F5F5F5F5F5F5F5F5F5F5F5F5F5F5F5F5F5F5F5F5F5F5F5F5F5F5F5F5F5F5F5F5F5F5F5F5F5F5F5F5F5F5F5F5F5F5F5F5F5F5F5F5F5F5F5F5F5F5F5F5F5F5
310
F5F5F5F5F5F5F5F5F5F5F5F5F5F5F5F5F5F5F5F5F5F5F5F5F5F5F5F5F5F5F5F5F5F5F5F5F5F5F5F5F5F5F528F5F5F5F5F5F5F5F5F5F5F5F5F5F5F5F5E2F5F5E2E2E2F5F5E2F5F5F5F5F5F5F5F5F5F5F5F5F5F5F5F528F5F5F5F5F5F5F5F5F5F5F5F5F5F5F5F5F5F5F5F5F5F5F5F5F5F5F5F5F5F5F5F5F5F5F5F5F5F5F5F5F5
310
F5F5F5F5F5F5F5F5F5F5F5F5F5F5F5F5F5F5F5F5F5F5F5F5F5F5F5F5F5F5F5F5F5F5F5F5F5F5F5F5F5F5F5F5F5F5F5F5F5F5F5F5F5F5F5F5F5F5F5F5F5F5F5F5F5F5F5F5F5F5F5F5F5F5F5F5F5F5F5F5F5F5F5F5F5F5F5F5F5F5F5F5F5F5F5F528F5F5F5F5F5F5F5F5F5F5F5F5F5F5F5F5E2F5F5E2E2E2F5F5E2F5F5F5F5F5
310
F5F5F5F5F5F5F5F5F5F5F528F5F5F5F5F5F5F5F5F5F5F5F5F5F5F5F5F5F5F5F5F5F5F5F5F5F5F5F5F5F5F5F5F5F5F5F5F5F5F5F5F5F5F5F5F5F5F5F5F5F5F5F5F5F5F5F5F5F5F5F5F5F5F5F5F5F5F5F5F5F5F5F5F5F5F5F5F5F5F5F5F5F5F5F5F5F5F5F5F5F5F5F5F5F5F5F5F5F5F5F5F5F5F5F5F5F5F5F5F5F5F5F5F5F5F5
310
F5F5F5F5F5F5F5F5F5F5F5F5F5F5F5F5F5F5F5F5F5F528F5F5F5F5F5F5F5F5F5F5F5F5F5F5F5F5E2F5F5E2E2E2F5F5E2F5F5F5F5F5F5F5F5F5F5F5F5F5F5F5F528F5F5F5F5F5F5F5F5F5F5F5F5F5F5F5F5F5F5F5F5F5F5F5F5F5F5F5F5F5F5F5F5F5F5F5F5F5F5F5F5F5F5F5F5F5F5F5F5F5F5F5F5F5F5F5F5F5F5F5F5F5F5
310
F5F5F5F5F5F5F5F5F5F5F5F5F5F5F5F5F5F5F5F5F5F5F5F5F5F5F5F5F5F5F5F5F5F5F5F5F5F5F5F5F5F5F5F5F5F5F5F5F5F5F5F5F5F5F5F5F5F5F5F5F5F5F5F5F5F5F5F5F5F5F5F5F5F5F528F5F5F5F5F5F5F5F5F5F5F5F5F5F5F5F5E2F5F5E2E2E2F5F5E2F5F5F5F5F5F5F5F5F5F5F5F5F5F5F5F528F5F5F5F5F5F5F5F5F5
310
F5F5F5F5F5F5F5F5F5F5F5F5F5F5F5F5F5F5F5F5F5F5F5F5F5F5F5F5F5F5F5F5F5F5F5F5F5F5F5F5F5F5F5F5F5F5F5F5F5F5F5F5F5F5F5F5F5F5F5F5F5F5F5F5F5F5F5F5F5F5F5F5F5F5F5F5F5F5F5F5F5F5F5F5F5F5F5F5F5F5F5F5F5F5F5F5F5F5F5F5F5F5F5F5F5F5F5F5F5F5F5F5F5F5F5F5F5F5F5F5F5F5F5F5F5F5F5
310
F528F5F5F5F5F5F5F5F5F5F5F5F5F5F5F5F5E2F5F5E2E2E2F5F5E2F5F5F5F5F5F5F5F5F5F5F5F5F5F5F5F528F5F5F5F5F5F5F5F5F5F5F5F5F5F5F5F5F5F5F5F5F5F5F5F5F5F5F5F5F5F5F5F5F5F5F5F5F5F5F5F5F5F5F5F5F5F5F5F5F5F5F5F5F5F5F5F5F5F5F5F5F5F5F5F5F5F5F5F5F5F5F5F5F5F5F5F5F5F5F5F5F5F5F5
310
F5F5F5F5F5F5F5F5F5F5F5F5F5F5F5F5F5F5F5F5F5F5F5F5F5F5F5F5F5F5F5F5F5F5F5F5F5F5F5F5F5F5F5F5F5F5F5F5F5F5F5F5F5F528F5F5F5F5F5F5F5F5F5F5F5F5F5F5F5F5E2F5F5E2E2E2F5F5E2F5F5F5F5F5F5F5F5F5F5F5F5F5F5F5F528F5F5F5F5F5F5F5F5F5F5F5F5F5F5F5F5F5F5F5F5F5F5F5F5F5F5F5F5F5F5
310
F5F5F5F5F5F5F5F5F5F5F5F5F5F5F5F5F5F5F5F5F5F5F5F5F5F5F5F5F5F5F5F5F5F5F5F5F5F5F5F5F5F5F5F5F5F5F5F5F5F5F5F5F5F5F5F5F5F5F5F5F5F5F5F5F5F5F5F5F5F5F5F5F5F5F5F5F5F5F5F5F5F5F5F5F5F5F5F5F5F5F5F5F5F5F5F5F5F5F5F5F5F5F5F5F5F5F528F5F5F5F5F5F5F5F5F5F5F5F5F5F5F5F5E2F5F5
310
E2E2E2F5F5F5F5F5F5F5F5F5F5F5F5F5F5F5F5F5F5F528F5F5F5F5F5F5F5F5F5F5F5F5F5F5F5F5F5F5F5F5F5F5F5F5F5F5F5F5F5F5F5F5F5F5F5F5F5F5F5F5F5F5F5F5F5F5F5F5F5F5F5F5F5F5F5F5F5F5F5F5F5F5F5F5F5F5F5F5F5F5F5F5F5F5F5F5F5F5F5F5F5F5F5F5F5F5F5F5F5F5F5F5F5F5F5F5F5F5F5F5F5F5F5F5
310
F5F5F5F5F5F5F5F5F5F5F5F5F5F5F5F5F5F5F5F5F5F5F5F5F5F5F5F5F5F5F5F5F528F5F5F5F5F5F5F5F5F5F5F5F5F5F5F5F5F5F5F5E2E2E2F5F5F5F5F5F5F5F5F5F5F5F5F5F5F5F5F5F5F528F5F5F5F5F5F5F5F5F5F5F5F5F5F5F5F5F5F5F5F5F5F5F5F5F5F5F5F5F5F5F5F5F5F5F5F5F5F5F5F5F5F5F5F5F5F5F5F5F5F5F5
310
F5F5F5F5F5F5F5F5F5F5F5F5F5F5F5F5F5F5F5F5F5F5F5F5F5F5F5F5F5F5F5F5F5F5F5F5F5F5F5F5F5F5F5F5F5F5F5F5F5F5F5F5F5F5F5F5F5F5F5F5F5F5F5F5F5F5F5F5F5F5F5F5F5F5F5F5F5F5F5F5F5F5F5F5F5F528F5F5F5F5F5F5F5F5F5F5F5F5F5F5F5F5F5F5F5E2E2E2F5F5F5F5F5F5F5F5F5F5F5F5F5F5F5F5F5F5
310
F528F5F5F5F5F5F5F5F5F5F5F5F5F5F5F5F5F5F5F5F5F5F5F5F5F5F5F5F5F5F5F5F5F5F5F5F5F5F5F5F5F5F5F5F5F5F5F5F5F5F5F5F5F5F5F5F5F5F5F5F5F5F5F5F5F5F5F5F5F5F5F5F5F5F5F5F5F5F5F5F5F5F5F5F5F5F5F5F5F5F5F5F5F5F5F5F5F5F5F5F5F5F5F5F5F5F5F5F5F5F5F5F5F5F5F5F5F5F5F5F5F5F5F5F5F5
310
F5F5F5F5F5F5F5F5F5F5F5F528F5F5F5F5F5F5F5F5F5F5F5F5F5F5F5F5F5F5F5E2E2E2F5F5F5F5F5F5F5F5F5F5F5F5F5F5F5F5F5F5F528F5F5F5F5F5F5F5F5F5F5F5F5F5F5F5F5F5F5F5F5F5F5F5F5F5F5F5F5F5F5F5F5F5F5F5F5F5F5F5F5F5F5F5F5F5F5F5F5F5F5F5F5F5F5F5F5F5F5F5F5F5F5F5F5F5F5F5F5F5F5F5F5
310
F5F5F5F5F5F5F5F5F5F5F5F5F5F5F5F5F5F5F5F5F5F5F5F5F5F5F5F5F5F5F5F5F5F5F5F5F5F5F5F5F5F5F5F5F5F5F5F5F5F5F5F5F5F5F5F5F5F5F5F5F5F5F5F5F528F5F5F5F5F5F5F5F5F5F5F5F5F5F5F5F5F5F5F5E2E2E2F5F5F5F5F5F5F5F5F5F5F5F5F5F5F5F5F5F5F528F5F5F5F5F5F5F5F5F5F5F5F5F5F5F5F5F5F5F5
310
F5F5F5F5F5F5F5F5F5F5F5F5F5F5F5F5F5F5F5F5F5F5F5F5F5F5F5F5F5F5F5F5F5F5F5F5F5F5F5F5F5F5F5F5F5F5F5F5F5F5F5F5F5F5F5F5F5F5F5F5F5F5F5F5F5F5F5F5F5F5F5F5F5F5F5F5F5F5F5F5F5F5F5F5F5F5F5F5F5F5F5F5F5F5F5F5F5F5F5F5F5F5F5F5F5F5F5F5F5F5F5F5F5F5F5F5F5F528F5F5F5F5F5F5F5F5
310
F5F5F5F5F5F5F5F5F5F5F5E2E2E2F5F5F5F5F5F5F5F5F5F5F5F5F5F5F5F5F5F5F528F5F5F5F5F5F5F5F5F5F5F5F5F5F5F5F5F5F5F5F5F5F5F5F5F5F5F5F5F5F5F5F5F5F5F5F5F5F5F5F5F5F5F5F5F5F5F5F5F5F5F5F5F5F5F5F5F5F5F5F5F5F5F5F5F5F5F5F5F5F5F5F5F5F5F5F5F5F5F5F5F5F5F5F5F5F5F5F5F5F5F5F5F5
310
F5F5F5F5F5F5F5F5F5F5F5F5F5F5F5F5F5F5F5F5F5F5F5F5F5F5F5F5F5F5F5F5F5F5F5F5F5F5F5F5F5F5F5F528F5F5F5F5F5F5F5F5F5F5F5F5F5F5F5F5F5F5F5E2E2E2F5F5F5F5F5F5F5F5F5F5F5F5F5F5F5F5F5F5F528F5F5F5F5F5F5F5F5F5F5F5F5F5F5F5F5F5F5F5F5F5F5F5F5F5F5F5F5F5F5F5F5F5F5F5F5F5F5F5F5
310
F5F5F5F5F5F5F5F5F5F5F5F5F5F5F5F5F5F5F5F5F5F5F5F5F5F5F5F5F5F5F5F5F5F5F5F5F5F5F5F5F5F5F5F5F5F5F5F5F5F5F5F5F5F5F5F5F5F5F5F5F5F5F5F5F5F5F5F5F5F5F5F5F5F5F5F5F5F5F5F5F5F5F5F5F5F5F5F5F5F5F5F5F5F5F5F5F528F5F5F5F5F5F5F5F5F5F5F5F5F5F5F5F5F5F5F5E2E2E2F5F5F5F5F5F5F5
310
F5F5F5F5F5F5F5F5F5F5F5F528F5F5F5F5F5F5F5F5F5F5F5F5F5F5F5F5F5F5F5F5F5F5F5F5F5F5F5F5F5F5F5F5F5F5F5F5F5F5F5F5F5F5F5F5F5F5F5F5F5F5F5F5F5F5F5F5F5F5F5F5F5F5F5F5F5F5F5F5F5F5F5F5F5F5F5F5F5F5F5F5F5F5F5F5F5F5F5F5F5F5F5F5F5F5F5F5F5F5F5F5F5F5F5F5F5F5F5F5F5F5F5F5F5F5
310
F5F5F5F5F5F5F5F5F5F5F5F5F5F5F5F5F5F5F5F5F5F5F528F5F5F5F5F5F5F5F5F5F5F5F5F5F5F5F5F5F5F5E2E2E2F5F5F5F5F5F5F5F5F5F5F5F5F5F5F5F5F5F5F528F5F5F5F5F5F5F5F5F5F5F5F5F5F5F5F5F5F5F5F5F5F5F5F5F5F5F5F5F5F5F5F5F5F5F5F5F5F5F5F5F5F5F5F5F5F5F5F5F5F5F5F5F5F5F5F5F5F5F5F5F5
310
F5F5F5F5F5F5F5F5F5F5F5F5F5F5F5F5F5F5F5F5F5F5F5F5F5F5F5F5F5F5F5F5F5F5F5F5F5F5F5F5F5F5F5F5F5F5F5F5F5F5F5F5F5F5F5F5F5F5F5F5F5F5F5F5F5F5F5F5F5F5F5F5F5F5F5F528F5F5F5F5F5F5F5F5F5F5F5F5F5F5F5F5F5F5F5E2E2E2F5F5E2F5F5F5F5F5F5F5F5F5F5F5F5F5F5F5F528F5F5F5F5F5F5F5F5
310
F5F5F5F5F5F5F5F5F5F5F5F5F5F5F5F5F5F5F5F5F5F5F5F5F5F5F5F5F5F5F5F5F5F5F5F5F5F5F5F5F5F5F5F5F5F5F5F5F5F5F5F5F5F5F5F5F5F5F5F5F5F5F5F5F5F5F5F5F5F5F5F5F5F5F5F5F5F5F5F5F5F5F5F5F5F5F5F5F5F5F5F5F5F5F5F5F5F5F5F5F5F5F5F5F5F5F5F5F5F5F5F5F5F5F5F5F5F5F5F5F5F5F5F5F5F5F5
310
F5F528F5F5F5F5F5F5F5F5F5F5F5F5F5F5F5F5E2F5F5E2E2E2F5F5E2F5F5F5F5F5F5F5F5F5F5F5F5F5F5F5F528F5F5F5F5F5F5F5F5F5F5F5F5F5F5F5F5F5F5F5F5F5F5F5F5F5F5F5F5F5F5F5F5F5F5F5F5F5F5F5F5F5F5F5F5F5F5F5F5F5F5F5F5F5F5F5F5F5F5F5F5F5F5F5F5F5F5F5F5F5F5F5F5F5F5F5F5F5F5F5F5F5F5
310
F5F5F5F5F5F5F5F5F5F5F5F5F5F5F5F5F5F5F5F5F5F5F5F5F5F5F5F5F5F5F5F5F5F5F5F5F5F5F5F5F5F5F5F5F5F5F5F5F5F5F5F5F5F5F528F5F5F5F5F5F5F5F5F5F5F5F5F5F5F5F5E2F5F5E2E2E2F5F5E2F5F5F5F5F5F5F5F5F5F5F5F5F5F5F5F528F5F5F5F5F5F5F5F5F5F5F5F5F5F5F5F5F5F5F5F5F5F5F5F5F5F5F5F5F5
310
F5F5F5F5F5F5F5F5F5F5F5F5F5F5F5F5F5F5F5F5F5F5F5F5F5F5F5F5F5F5F5F5F5F5F5F5F5F5F5F5F5F5F5F5F5F5F5F5F5F5F5F5F5F5F5F5F5F5F5F5F5F5F5F5F5F5F5F5F5F5F5F5F5F5F5F5F5F5F5F5F5F5F5F5F5F5F5F5F5F5F5F5F5F5F5F5F5F5F5F5F5F5F5F5F5F5F5F528F5F5F5F5F5F5F5F5F5F5F5F5F5F5F5F5E2F5
310
F5E2E2E2F5F5E2F5F5F5F5F5F5F5F5F5F5F5F5F5F5F5F528F5F5F5F5F5F5F5F5F5F5F5F5F5F5F5F5F5F5F5F5F5F5F5F5F5F5F5F5F5F5F5F5F5F5F5F5F5F5F5F5F5F5F5F5F5F5F5F5F5F5F5F5F5F5F5F5F5F5F5F5F5F5F5F5F5F5F5F5F5F5F5F5F5F5F5F5F5F5F5F5F5F5F5F5F5F5F5F5F5F5F5F5F5F5F5F5F5F5F5F5F5F5F5
310
F5F5F5F5F5F5F5F5F5F5F5F5F5F5F5F5F5F5F5F5F5F5F5F5F5F5F5F5F5F5F5F5F5F528F5F5F5F5F5F5F5F5F5F5F5F5F5F5F5F5E2F5F5E2E2E2F5F5E2F5F5F5F5F5F5F5F5F5F5F5F5F5F5F5F528F5F5F5F5F5F5F5F5F5F5F5F5F5F5F5F5F5F5F5F5F5F5F5F5F5F5F5F5F5F5F5F5F5F5F5F5F5F5F5F5F5F5F5F5F5F5F5F5F5F5
310
F5F5F5F5F5F5F5F5F5F5F5F5F5F5F5F5F5F5F5F5F5F5F5F5F5F5F5F5F5F5F5F5F5F5F5F5F5F5F5F5F5F5F5F5F5F5F5F5F5F5F5F5F5F5F5F5F5F5F5F5F5F5F5F5F5F5F5F5F5F5F5F5F5F5F5F5F5F5F5F5F5F5F5F5F5F5F528F5F5F5F5F5F5F5F5F5F5F5F5F5F5F5F5E2F5F5E2E2E2F5F5E2F5F5F5F5F5F5F5F5F5F5F5F5F5F5
310
F5F528F5F5F5F5F5F5F5F5F5F5F5F5F5F5F5F5F5F5F5F5F5F5F5F5F5F5F5F5F5F5F5F5F5F5F5F5F5F5F5F5F5F5F5F5F5F5F5F5F5F5F5F5F5F5F5F5F5F5F5F5F5F5F5F5F5F5F5F5F5F5F5F5F5F5F5F5F5F5F5F5F5F5F5F5F5F5F5F5F5F5F5F5F5F5F5F5F5F5F5F5F5F5F5F5F5F5F5F5F5F5F5F5F5F5F5F5F5F5F5F5F5F5F5F5
310
F5F5F5F5F5F5F5F5F5F5F5F5F528F5F5F5F5F5F5F5F5F5F5F5F5F5F5F5F5E2F5F5E2E2E2F5F5E2F5F5F5F5F5F5F5F5F5F5F5F5F5F5F5F528F5F5F5F5F5F5F5F5F5F5F5F5F5F5F5F5F5F5F5F5F5F5F5F5F5F5F5F5F5F5F5F5F5F5F5F5F5F5F5F5F5F5F5F5F5F5F5F5F5F5F5F5F5F5F5F5F5F5F5F5F5F5F5F5F5F5F5F5F5F5F5
310
F5F5F5F5F5F5F5F5F5F5F5F5F5F5F5F5F5F5F5F5F5F5F5F5F5F5F5F5F5F5F5F5F5F5F5F5F5F5F5F5F5F5F5F5F5F5F5F5F5F5F5F5F5F5F5F5F5F5F5F5F5F5F5F5F5F528F5F5F5F5F5F5F5F5F5F5F5F5F5F5F5F5E2F5F5E2E2E2F5F5E2F5F5F5F5F5F5F5F5F5F5F5F5F5F5F5F528F5F5F5F5F5F5F5F5F5F5F5F5F5F5F5F5F5F5
310
F5F5F5F5F5F5F5F5F5F5F5F5F5F5F5F5F5F5F5F5F5F5F5F5F5F5F5F5F5F5F5F5F5F5F5F5F5F5F5F5F5F5F5F5F5F5F5F5F5F5F5F5F5F5F5F5F5F5F5F5F5F5F5F5F5F5F5F5F5F5F5F5F5F5F5F5F5F5F5F5F5F5F5F5F5F5F5F5F5F5F5F5F5F5F5F5F5F5F5F5F5F5F5F5F5F5F5F5F5F5F5F5F5F5F5F5F5F5F528F5F5F5F5F5F5F5
310
F5F5F5F5F5F5F5F5F5E2F5F5E2E2E2F5F5E2F5F5F5F5F5F5F5F5F5F5F5F5F5F5F5F528F5F5F5F5F5F5F5F5F5F5F5F5F5F5F5F5F5F5F5F5F5F5F5F5F5F5F5F5F5F5F5F5F5F5F5F5F5F5F5F5F5F5F5F5F5F5F5F5F5F5F5F5F5F5F5F5F5F5F5F5F5F5F5F5F5F5F5F5F5F5F5F5F5F5F5F5F5F5F5F5F5F5F5F5F5F5F5F5F5F5F5F5
310
F5F5F5F5F5F5F5F5F5F5F5F5F5F5F5F5F5F5F5F5F5F5F5F5F5F5F5F5F5F5F5F5F5F5F5F5F5F5F5F5F5F5F5F5F528F5F5F5F5F5F5F5F5F5F5F5F5F5F5F5F5E2F5F5E2E2E2F5F5E2F5F5F5F5F5F5F5F5F5F5F5F5F5F5F5F528F5F5F5F5F5F5F5F5F5F5F5F5F5F5F5F5F5F5F5F5F5F5F5F5F5F5F5F5F5F5F5F5F5F5F5F5F5F5F5
310
F5F5F5F5F5F5F5F5F5F5F5F5F5F5F5F5F5F5F5F5F5F5F5F5F5F5F5F5F5F5F5F5F5F5F5F5F5F5F5F5F5F5F5F5F5F5F5F5F5F5F5F5F5F5F5F5F5F5F5F5F5F5F5F5F5F5F5F5F5F5F5F5F5F5F5F5F5F5F5F5F5F5F5F5F5F5F5F5F5F5F5F5F5F5F5F5F5F528F5F5F5F5F5F5F5F5F5F5F5F5F5F5F5F5E2F5F5E2E2E2F5F5E2F5F5F5
310
F5F5F5F5F5F5F5F5F5F5F5F5F528F5F5F5F5F5F5F5F5F5F5F5F5F5F5F5F5F5F5F5F5F5F5F5F5F5F5F5F5F5F5F5F5F5F5F5F5F5F5F5F5F5F5F5F5F5F5F5F5F5F5F5F5F5F5F5F5F5F5F5F5F5F5F5F5F5F5F5F5F5F5F5F5F5F5F5F5F5F5F5F5F5F5F5F5F5F5F5F5F5F5F5F5F5F5F5F5F5F5F5F5F5F5F5F5F5F5F5F5F5F5F5F5F5
310
F5F5F5F5F5F5F5F5F5F5F5F5F5F5F5F5F5F5F5F5F5F5F5F528F5F5F5F5F5F5F5F5F5F5F5F5F5F5F5F5E2F5F5E2E2E2F5F5E2F5F5F5F5F5F5F5F5F5F5F5F5F5F5F5F528F5F5F5F5F5F5F5F5F5F5F5F5F5F5F5F5F5F5F5F5F5F5F5F5F5F5F5F5F5F5F5F5F5F5F5F5F5F5F5F5F5F5F5F5F5F5F5F5F5F5F5F5F5F5F5F5F5F5F5F5
310
F5F5F5F5F5F5F5F5F5F5F5F5F5F5F5F5F5F5F5F5F5F5F5F5F5F5F5F5F5F5F5F5F5F5F5F5F5F5F5F5F5F5F5F5F5F5F5F5F5F5F5F5F5F5F5F5F5F5F5F5F5F5F5F5F5F5F5F5F5F5F5F5F5F5F5F5F528F5F5F5F5F5F5F5F5F5F5F5F5F5F5F5F5E2F5F5E2E2E2F5F5E2F5F5F5F5F5F5F5F5F5F5F5F5F5F5F5F528F5F5F5F5F5F5F5
310
F5F5F5F5F5F5F5F5F5F5F5F5F5F5F5F5F5F5F5F5F5F5F5F5F5F5F5F5F5F5F5F5F5F5F5F5F5F5F5F5F5F5F5F5F5F5F5F5F5F5F5F5F5F5F5F5F5F5F5F5F5F5F5F5F5F5F5F5F5F5F5F5F5F5F5F5F5F5F5F5F5F5F5F5F5F5F5F5F5F5F5F5F5F5F5F5F5F5F5F5F5F5F5F5F5F5F5F5F5F5F5F5F5F5F5F5F5F5F5F5F5F5F5F5F5F5F5
310
F5F5F528F5F5F5F5F5F5F5F5F5F5F5F5F5F5F5F5E2F5F5E2E2E2F5F5E2F5F5F5F5F5F5F5F5F5F5F5F5F5F5F5F528F5F5F5F5F5F5F5F5F5F5F5F5F5F5F5F5F5F5F5F5F5F5F5F5F5F5F5F5F5F5F5F5F5F5F5F5F5F5F5F5F5F5F5F5F5F5F5F5F5F5F5F5F5F5F5F5F5F5F5F5F5F5F5F5F5F5F5F5F5F5F5F5F5F5F5F5F5F5F5F5F5
310
F5F5F5F5F5F5F5F5F5F5F5F5F5F5F5F5F5F5F5F5F5F5F5F5F5F5F5F5F5F5F5F5F5F5F5F5F5F5F5F5F5F5F5F5F5F5F5F5F5F5F5F5F5F5F5F528F5F5F5F5F5F5F5F5F5F5F5F5F5F5F5F5E2F5F5E2E2E2F5F5E2F5F5F5F5F5F5F5F5F5F5F5F5F5F5F5F528F5F5F5F5F5F5F5F5F5F5F5F5F5F5F5F5F5F5F5F5F5F5F5F5F5F5F5F5
310
F5F5F5F5F5F5F5F5F5F5F5F5F5F5F5F5F5F5F5F5F5F5F5F5F5F5F5F5F5F5F5F5F5F5F5F5F5F5F5F5F5F5F5F5F5F5F5F5F5F5F5F5F5F5F5F5F5F5F5F5F5F5F5F5F5F5F5F5F5F5F5F5F5F5F5F5F5F5F5F5F5F5F5F5F5F5F5F5F5F5F5F5F5F5F5F5F5F5F5F5F5F5F5F5F5F5F5F5F528F5F5F5F5F5F5F5F5F5F5F5F5F5F5F5F5E2
310
F5F5E2E2E2F5F5F5F5F5F5F5F5F5F5F5F5F5F5F5F5F5F5F528F5F5F5F5F5F5F5F5F5F5F5F5F5F5F5F5F5F5F5F5F5F5F5F5F5F5F5F5F5F5F5F5F5F5F5F5F5F5F5F5F5F5F5F5F5F5F5F5F5F5F5F5F5F5F5F5F5F5F5F5F5F5F5F5F5F5F5F5F5F5F5F5F5F5F5F5F5F5F5F5F5F5F5F5F5F5F5F5F5F5F5F5F5F5F5F5F5F5F5F5F5F5
310
F5F5F5F5F5F5F5F5F5F5F5F5F5F5F5F5F5F5F5F5F5F5F5F5F5F5F5F5F5F5F5F5F5F5F528F5F5F5F5F5F5F5F5F5F5F5F5F5F5F5F5F5F5F5E2E2E2F5F5F5F5F5F5F5F5F5F5F5F5F5F5F5F5F5F5F528F5F5F5F5F5F5F5F5F5F5F5F5F5F5F5F5F5F5F5F5F5F5F5F5F5F5F5F5F5F5F5F5F5F5F5F5F5F5F5F5F5F5F5F5F5F5F5F5F5
310
F5F5F5F5F5F5F5F5F5F5F5F5F5F5F5F5F5F5F5F5F5F5F5F5F5F5F5F5F5F5F5F5F5F5F5F5F5F5F5F5F5F5F5F5F5F5F5F5F5F5F5F5F5F5F5F5F5F5F5F5F5F5F5F5F5F5F5F5F5F5F5F5F5F5F5F5F5F5F5F5F5F5F5F5F5F5F5F528F5F5F5F5F5F5F5F5F5F5F5F5F5F5F5F5F5F5F5E2E2E2F5F5F5F5F5F5F5F5F5F5F5F5F5F5F5F5
310
F5F5F528F5F5F5F5F5F5F5F5F5F5F5F5F5F5F5F5F5F5F5F5F5F5F5F5F5F5F5F5F5F5F5F5F5F5F5F5F5F5F5F5F5F5F5F5F5F5F5F5F5F5F5F5F5F5F5F5F5F5F5F5F5F5F5F5F5F5F5F5F5F5F5F5F5F5F5F5F5F5F5F5F5F5F5F5F5F5F5F5F5F5F5F5F5F5F5F5F5F5F5F5F5F5F5F5F5F5F5F5F5F5F5F5F5F5F5F5F5F5F5F5F5F5F5
310
F5F5F5F5F5F5F5F5F5F5F5F5F5F528F5F5F5F5F5F5F5F5F5F5F5F5F5F5F5F5F5F5F5E2E2E2F5F5F5F5F5F5F5F5F5F5F5F5F5F5F5F5F5F5F528F5F5F5F5F5F5F5F5F5F5F5F5F5F5F5F5F5F5F5F5F5F5F5F5F5F5F5F5F5F5F5F5F5F5F5F5F5F5F5F5F5F5F5F5F5F5F5F5F5F5F5F5F5F5F5F5F5F5F5F5F5F5F5F5F5F5F5F5F0F5
310
F5F5F5F5F5F5F5F5F5F5F5F5F5F5F5F5F5F5F5F5F5F5F5F5F5F5F5F5F5F5F5F5F5F5F5F5F5F5F5F5F5F5F5F5F5F5F5F5F5F5F5F5F5F5F5F5F5F5F5F5F5F5F5F5F5F5F528F5F5F5F5F5F5F5F5F5F5F5F5F5F5F5F5F5F5F5E2E2E2F5F5F5F5F5F5F5F5F5F5F5F5F5F5F5F5F5F5F5282828282828282828282828282828282828
310
28282828282828282828282828282828282828282828282828282828282828282828282828282828282828282828282828282828282828282828282828282828282828282828282828282828282828282828282828282828282828282828282828282828282828282828282828282828282828282828282828F5F5F5F5F5F5
310
F5F5F5F5F5F5F5F5F5F5F5F5F5E2E2E2F5F5F5F5F5F5F5F5F5F5F5F5F5F5F5F5F5F5F5F5F5F5F5F5F5F5F5F5F5F5F5F5F5F5F5F5F5F5F5F5F5F5F5F5F5F5F5F5F5F5F5F5F5F5F5F5F5F5F5F5F5F5F5F5F5F5F5F5F5F5F5F5F5F5F5F5F5F5F5F5F5F5F5F5F5F5F5F5F5F5F5F5F5F5F5F5F5F5F5F5F5F5F5F5F5F5F5F5F5F5F5
310
F5F5F5F5F5F5F5F5F5F5F5F5F5F5F5F5F5F5F5F5F5F5F5F5F5F5F5F5F5F5F5F5F5F5F5F5F5F5F5F5F5F5F5F5F5F5F5F5F5F5F5F5F5F5F5F5F5F5F5F5F5F5F5F5F5F5E2E2E2F5F5F5F5F5F5F5F5F5F5F5F5F5F5F5F5F5F5F5F5F5F5F5F5F5F5F5F5F5F5F5F5F5F5F5F5F5F5F5F5F5F5F5F5F5F5F5F5F5F5F5F5F5F5F5F5F5F5
310
F5F5F5F5F5F5F5F5F5F5F5F5F5F5F5F5F5F5F5F5F5F5F5F5F5F5F5F5F5F5F5F5F5F5F5F5F5F5F5F5F5F5F5F5F5F5F5F5F5F5F5F5F5F5F5F5F5F5F5F5F5F5F5F5F5F5F5F5F5F5F5F5F5F5F5F5F5F5F5F5F5F5F5F5F5F5F5F5F5F5F5F5F5F5F5F5F5F5F5F5F5F5F5F5F5F5F5F5F5F5F5F5F5F5F5F5F5F5F5E2E2E2F5F5F5F5F5
310
F5F5F5F5F5F5F5F5F5F5F5F5F5F5F5F5F5F5F5F5F5F5F5F5F5F5F5F5F5F5F5F5F5F5F5F5F5F5F5F5F5F5F5F5F5F5F5F5F5F5F5F5F5F5F5F5F5F5F5F5F5F5F5F5F5F5F5F5F5F5F5F5F5F5F5F5F5F5F5F5F5F5F5F5F5F5F5F5F5F5F5F5F5F5F5F5F5F5F5F5F5F5F5F5F5F5F5F5F5F5F5F5F5F5F5F5F5F5F5F5F5F5F5F5F5F5F5
310
F5F5F5F5F5F5F5F5F5F5F5F5F5F5F5F5F5F5F5F5F5F5F5F5F5F5F5F5F5F5F5F5F5F5F5F5F5F5F5F5F5F5F5F5F5E2E2E2F5F5F5F5F5F5F5F5F5F5F5F5F5F5F5F5F5F5F5F5F5F5F5F5F5F5F5F5F5F5F5F5F5F5F5F5F5F5F5F5F5F5F5F5F5F5F5F5F5F5F5F5F5F5F5F5F5F5F5F5F5F5F5F5F5F5F5F5F5F5F5F5F5F5F5F5F5F5F5
310
F5F5F5F5F5F5F5F5F5F5F5F5F5F5F5F5F5F5F5F5F5F5F5F5F5F5F5F5F5F5F5F5F5F5F5F5F5F5F5F5F5F5F5F5F5F5F5F5F5F5F5F5F5F5F5F5F5F5F5F5F5F5F5F5F5F5F5F5F5F5F5F5F5F5F5F5F5F5F5F5F5F5F5F5F5F5F5F5F5F5F5F5F5F5F5F5F5F5E2E2E2F5F5E2F5F5F5F5F5F5F5F5F5F5F5F5F5F5F5F5F5F5F5F5F5F5F5
310
F5F5F5F5F5F5F5F5F5F5F5F5F5F5F5F5F5F5F5F5F5F5F5F5F5F5F5F5F5F5F5F5F5F5F5F5F5F5F5F5F5F5F5F5F5F5F5F5F5F5F5F5F5F5F5F5F5F5F5F5F5F5F5F5F5F5F5F5F5F5F5F5F5F5F5F5F5F5F5F5F5F5F5F5F5F5F5F5F5F5F5F5F5F5F5F5F5F5F5F5F5F5F5F5F5F5F5F5F5F5F5F5F5F5F5F5F5F5F5F5F5F5F5F5F5F5F5
310
F5F5F5F5F5F5F5F5F5F5F5F5F5F5F5F5F5F5F5F5F5E2F5F5E2E2E2F5F5E2F5F5F5F5F5F5F5F5F5F5F5F5F5F5F5F5F5F5F5F5F5F5F5F5F5F5F5F5F5F5F5F5F5F5F5F5F5F5F5F5F5F5F5F5F5F5F5F5F5F5F5F5F5F5F5F5F5F5F5F5F5F5F5F5F5F5F5F5F5F5F5F5F5F5F5F5F5F5F5F5F5F5F5F5F5F5F5F5F5F5F5F5F5F5F5F5F5
310
F5F5F5F5F5F5F5F5F5F5F5F5F5F5F5F5F5F5F5F5F5F5F5F5F5F5F5F5F5F5F5F5F5F5F5F5F5F5F5F5F5F5F5F5F5F5F5F5F5F5F5F5F5F5F5F5F5F5F5F5F5F5F5F5F5F5F5F5F5F5F5F5F5F5E2F5F5E2E2E2F5F5E2F5F5F5F5F5F5F5F5F5F5F5F5F5F5F5F5F5F5F5F5F5F5F5F5F5F5F5F5F5F5F5F5F5F5F5F5F5F5F5F5F5F5F5F5
310
F5F5F5F5F5F5F5F5F5F5F5F5F5F5F5F5F5F5F5F5F5F5F5F5F5F5F5F5F5F5F5F5F5F5F5F5F5F5F5F5F5F5F5F5F5F5F5F5F5F5F5F5F5F5F5F5F5F5F5F5F5F5F5F5F5F5F5F5F5F5F5F5F5F5F5F5F5F5F5F5F5F5F5F5F5F5F5F5F5F5F5F5F5F5F5F5F5F5F5F5F5F5F5F5F5F5F5F5F5F5F5F5F5F5F5F5F5F5F5F5F5F5F5F5F5F5F5
310
E2F5F5E2E2E2F5F5E2F5F5F5F5F5F5F5F5F5F5F5F5F5F5F5F5F5F5F5F5F5F5F5F5F5F5F5F5F5F5F5F5F5F5F5F5F5F5F5F5F5F5F5F5F5F5F5F5F5F5F5F5F5F5F5F5F5F5F5F5F5F5F5F5F5F5F5F5F5F5F5F5F5F5F5F5F5F5F5F5F5F5F5F5F5F5F5F5F5F5F5F5F5F5F5F5F5F5F5F5F5F5F5F5F5F5F5F5F5F5F5F5F5F5F5F5F5F5
310
F5F5F5F5F5F5F5F5F5F5F5F5F5F5F5F5F5F5F5F5F5F5F5F5F5F5F5F5F5F5F5F5F5F5F5F5F5F5F5F5F5F5F5F5F5F5F5F5F5F5F5F5F5E2F5F5E2E2E2F5F5E2F5F5F5F5F5F5F5F5F5F5F5F5F5F5F5F5F5F5F5F5F5F5F5F5F5F5F5F5F5F5F5F5F5F5F5F5F5F5F5F5F5F5F5F5F5F5F5F5F5F5F5F5F5F5F5F5F5F5F5F5F5F5F5F5F5
310
F5F5F5F5F5F5F5F5F5F5F5F5F5F5F5F5F5F5F5F5F5F5F5F5F5F5F5F5F5F5F5F5F5F5F5F5F5F5F5F5F5F5F5F5F5F5F5F5F5F5F5F5F5F5F5F5F5F5F5F5F5F5F5F5F5F5F5F5F5F5F5F5F5F5F5F5F5F5F5F5F5F5F5F5F5F5F5F5F5F5F5F5F5F5F5F5F5F5F5F5F5F5F5F5F5F5E2F5F5E2E2E2F5F5E2F5F5F5F5F5F5F5F5F5F5F5F5
310
F5F5F5F5F5F5F5F5F5F5F5F5F5F5F5F5F5F5F5F5F5F5F5F5F5F5F5F5F5F5F5F5F5F5F5F5F5F5F5F5F5F5F5F5F5F5F5F5F5F5F5F5F5F5F5F5F5F5F5F5F5F5F5F5F5F5F5F5F5F5F5F5F5F5F5F5F5F5F5F5F5F5F5F5F5F5F5F5F5F5F5F5F5F5F5F5F5F5F5F5F5F5F5F5F5F5F5F5F5F5F5F5F5F5F5F5F5F5F5F5F5F5F5F5F5F5F5
310
F5F5F5F5F5F5F5F5F5F5F5F5F5F5F5F5F5F5F5F5F5F5F5F5F5F5F5F5F5F5F5F5E2F5F5E2E2E2F5F5E2F5F5F5F5F5F5F5F5F5F5F5F5F5F5F5F5F5F5F5F5F5F5F5F5F5F5F5F5F5F5F5F5F5F5F5F5F5F5F5F5F5F5F5F5F5F5F5F5F5F5F5F5F5F5F5F5F5F5F5F5F5F5F5F5F5F5F5F5F5F5F5F5F5F5F5F5F5F5F5F5F5F5F5F5F5F5
310
F5F5F5F5F5F5F5F5F5F5F5F5F5F5F5F5F5F5F5F5F5F5F5F5F5F5F5F5F5F5F5F5F5F5F5F5F5F5F5F5F5F5F5F5F5F5F5F5F5F5F5F5F5F5F5F5F5F5F5F5F5F5F5F5F5F5F5F5F5F5F5F5F5F5F5F5F5F5F5F5F5F5F5F5F5E2F5F5E2E2E2F5F5E2E2E2E2E2E2E2E2F5F5F5F5F5F5F5F5F5E2E2E2E2E2E2E2E2E2E2E2E2E2E2E2E2F5
310
F5F5F5F5F5F5F5F5E2E2E2E2E2E2E2E2E2E2E2E2E2E2E2E2F5F5F5F5F5F5F5F5E2E2E2E2E2E2E2E2E2E2E2E2E2E2E2E2F5F5F5F5F5F5F5F5F5E2E2E2E2E2E2E2E2E2E2E2E2E2E2E2E2F5F5F5F5F5F5F5F5E2E2E2E2E2E2E2E2E2E2E2E2E2E2E2E2F5F5F5F5F5F5F5F5F5E2E2E2E2E2E2E2E2E2E2E2E2E2E2E2E2F5F5F5F5F5
310
F5F5F5F5E2E2E2E2E2E2E2E2F5F5E2E2E2F5F5F5F5F5F5F5F5F5F5F5F5F5F5F5F5F5F5F5F5F5F5F5F5F5F5F5F5F5F5F5F5F5F5F5F5F5F5F5F5F5F5F5F5F5F5F5F5F5F5F5F5F5F5F5F5F5F5F5F5F5F5F5F5F5F5F5F5F5F5F5F5F5F5F5F5F5F5F5F5F5F5F5F5F5F5F5F5F5F5F5F5F5F5F5F5F5F5F5F5F5F5F5F5F5F5F5F5F5F5
310
F5F5F5F5F5F5F5F5F5F5F5F5F5F5F5F5F5F5F5F5F5F5F5F5F5F5F5F5F5F5F5F5F5F5F5F5F5F5F5F5F5F5F5F5F5F5F5F5F5F5F5F5F5F5F5F5F5F5F5F5F5F5F5F5F5F5F5E2E2E2F5F5F5F5F5F5F5F5F5F5F5F5F5F5F5F5F5F5F5F5F5F5F5F5F5F5F5F5F5F5F5F5F5F5F5F5F5F5F5F5F5F5F5F5F5F5F5F5F5F5F5F5F5F5F5F5F5
310
F5F5F5F5F5F5F5F5F5F5F5F5F5F5F5F5F5F5F5F5F5F5F5F5F5F5F5F5F5F5F5F5F5F5F5F5F5F5F5F5F5F5F5F5F5F5F5F5F5F5F5F5F5F5F5F5F5F5F5F5F5F5F5F5F5F5F5F5F5F5F5F5F5F5F5F5F5F5F5F5F5F5F5F5F5F5F5F5F5F5F5F5F5F5F5F5F5F5F5F5F5F5F5F5F5F5F5F5F5F5F5F5F5F5F5F5F5F5F5F5E2EFE2E2E2E2E2
310
E2E2E2E2E2E2E2E2E2E2E2E2E2E2E2E2E2E2E2E2E2E2E2E2E2E2E2E2E2E2E2E2E2E2E2E2E2E2E2E2E2E2E2E2E2E2E2E2E2E2E2E2E2E2E2E2E2E2E2E2E2E2E2E2E2E2E2E2E2E2E2E2E2E2E2E2E2E2E2E2E2E2E2E2E2E2E2E2E2E2E2E2E2E2E2E2E2E2E2E2E2E2E2E2E2E2E2E2E2E2E2E2E2E2E2E2E2E2E2E2E2E2E2E2E2E2E2
310
E2E2E2E2E2E2E2E2E2E2E2E2E2E2E2E2E2E2E2E2E2E2E2E2E2E2E2E2E2E2E2E2E2E2E2E2E2E2E2E2E2E2E2E2E2E2E2EF
  0
XRECORD
  5
51945
102
{ACAD_REACTORS
330
51944
102
}
330
51944
100
AcDbXrecord
280
     1
102
SHADEPLOT
 70
     0
102
SHADEPLOTRESLEVEL
 70
     2
102
SHADEPLOTCUSTOMDPI
 70
   300
  0
XRECORD
  5
51810
102
{ACAD_REACTORS
330
5180F
102
}
330
5180F
100
AcDbXrecord
280
     1
102
MATERIAL
148
0.0
149
0.0
149
0.0
 93
        0
 94
       63
282
     0
 72
     1
 77
     1
171
     1
175
     1
179
     1
273
     0
  0
XRECORD
  5
5180E
102
{ACAD_REACTORS
330
5180D
102
}
330
5180D
100
AcDbXrecord
280
     1
102
MATERIAL
148
0.0
149
0.0
149
0.0
 93
        0
 94
       63
282
     0
 72
     1
 77
     1
171
     1
175
     1
179
     1
273
     0
  0
XRECORD
  5
51812
102
{ACAD_REACTORS
330
51811
102
}
330
51811
100
AcDbXrecord
280
     1
102
MATERIAL
148
0.0
149
0.0
149
0.0
 93
        0
 94
       63
282
     0
 72
     1
 77
     1
171
     1
175
     1
179
     1
273
     0
  0
XRECORD
  5
51947
102
{ACAD_REACTORS
330
51946
102
}
330
51946
100
AcDbXrecord
280
     1
102
ACAD_ROUNDTRIP_PRE2007_TABLESTYLE
 90
      512
 91
        0
  1

 92
      512
 93
        0
  2

 94
      512
 95
        0
  3

  0
ENDSEC
  0
EOF
