  0
SECTION
  2
HEADER
  9
$ACADVER
  1
AC1015
  9
$ACADMAINTVER
 70
    20
  9
$DWGCODEPAGE
  3
ANSI_1252
  9
$INSBASE
 10
0.0
 20
0.0
 30
0.0
  9
$EXTMIN
 10
5121.7166905632
 20
-2386.416295080764
 30
-0.0015258207003583
  9
$EXTMAX
 10
5696.223662566393
 20
-1566.233474937007
 30
0.0000000349246037
  9
$LIMMIN
 10
0.0
 20
0.0
  9
$LIMMAX
 10
12.0
 20
9.0
  9
$ORTHOMODE
 70
     0
  9
$REGENMODE
 70
     1
  9
$FILLMODE
 70
     1
  9
$QTEXTMODE
 70
     0
  9
$MIRRTEXT
 70
     0
  9
$LTSCALE
 40
1.0
  9
$ATTMODE
 70
     1
  9
$TEXTSIZE
 40
0.2
  9
$TRACEWID
 40
0.05
  9
$TEXTSTYLE
  7
Standard
  9
$CLAYER
  8
Konstruktionslinie
  9
$CELTYPE
  6
ByLayer
  9
$CECOLOR
 62
   256
  9
$CELTSCALE
 40
1.0
  9
$DISPSILH
 70
     0
  9
$DIMSCALE
 40
1.0
  9
$DIMASZ
 40
2.5
  9
$DIMEXO
 40
0.625
  9
$DIMDLI
 40
3.75
  9
$DIMRND
 40
0.0
  9
$DIMDLE
 40
0.0
  9
$DIMEXE
 40
1.25
  9
$DIMTP
 40
0.0
  9
$DIMTM
 40
0.0
  9
$DIMTXT
 40
2.5
  9
$DIMCEN
 40
2.5
  9
$DIMTSZ
 40
0.0
  9
$DIMTOL
 70
     0
  9
$DIMLIM
 70
     0
  9
$DIMTIH
 70
     0
  9
$DIMTOH
 70
     0
  9
$DIMSE1
 70
     0
  9
$DIMSE2
 70
     0
  9
$DIMTAD
 70
     1
  9
$DIMZIN
 70
     8
  9
$DIMBLK
  1

  9
$DIMASO
 70
     1
  9
$DIMSHO
 70
     1
  9
$DIMPOST
  1

  9
$DIMAPOST
  1

  9
$DIMALT
 70
     0
  9
$DIMALTD
 70
     3
  9
$DIMALTF
 40
0.03937007874016
  9
$DIMLFAC
 40
1.0
  9
$DIMTOFL
 70
     1
  9
$DIMTVP
 40
0.0
  9
$DIMTIX
 70
     0
  9
$DIMSOXD
 70
     0
  9
$DIMSAH
 70
     0
  9
$DIMBLK1
  1

  9
$DIMBLK2
  1

  9
$DIMSTYLE
  2
Bemassungsstil Karl
  9
$DIMCLRD
 70
     0
  9
$DIMCLRE
 70
     0
  9
$DIMCLRT
 70
     0
  9
$DIMTFAC
 40
1.0
  9
$DIMGAP
 40
0.625
  9
$DIMJUST
 70
     0
  9
$DIMSD1
 70
     0
  9
$DIMSD2
 70
     0
  9
$DIMTOLJ
 70
     0
  9
$DIMTZIN
 70
     8
  9
$DIMALTZ
 70
     0
  9
$DIMALTTZ
 70
     0
  9
$DIMUPT
 70
     0
  9
$DIMDEC
 70
     2
  9
$DIMTDEC
 70
     2
  9
$DIMALTU
 70
     2
  9
$DIMALTTD
 70
     3
  9
$DIMTXSTY
  7
Standard
  9
$DIMAUNIT
 70
     0
  9
$DIMADEC
 70
     0
  9
$DIMALTRND
 40
0.0
  9
$DIMAZIN
 70
     0
  9
$DIMDSEP
 70
    44
  9
$DIMATFIT
 70
     3
  9
$DIMFRAC
 70
     0
  9
$DIMLDRBLK
  1

  9
$DIMLUNIT
 70
     2
  9
$DIMLWD
 70
    -2
  9
$DIMLWE
 70
    -2
  9
$DIMTMOVE
 70
     0
  9
$LUNITS
 70
     2
  9
$LUPREC
 70
     4
  9
$SKETCHINC
 40
0.1
  9
$FILLETRAD
 40
6.049999999999998
  9
$AUNITS
 70
     0
  9
$AUPREC
 70
     0
  9
$MENU
  1
.
  9
$ELEVATION
 40
0.0
  9
$PELEVATION
 40
0.0
  9
$THICKNESS
 40
0.0
  9
$LIMCHECK
 70
     0
  9
$CHAMFERA
 40
0.0
  9
$CHAMFERB
 40
0.0
  9
$CHAMFERC
 40
0.0
  9
$CHAMFERD
 40
0.0
  9
$SKPOLY
 70
     0
  9
$TDCREATE
 40
2454889.588798877
  9
$TDUCREATE
 40
2454889.547132211
  9
$TDUPDATE
 40
2454896.605349225
  9
$TDUUPDATE
 40
2454896.563682558
  9
$TDINDWG
 40
0.5366801389
  9
$TDUSRTIMER
 40
0.5366797801
  9
$USRTIMER
 70
     1
  9
$ANGBASE
 50
0.0
  9
$ANGDIR
 70
     0
  9
$PDMODE
 70
     0
  9
$PDSIZE
 40
0.0
  9
$PLINEWID
 40
0.0
  9
$SPLFRAME
 70
     0
  9
$SPLINETYPE
 70
     6
  9
$SPLINESEGS
 70
     8
  9
$HANDSEED
  5
52600
  9
$SURFTAB1
 70
     6
  9
$SURFTAB2
 70
     6
  9
$SURFTYPE
 70
     6
  9
$SURFU
 70
     6
  9
$SURFV
 70
     6
  9
$UCSBASE
  2

  9
$UCSNAME
  2

  9
$UCSORG
 10
5213.099899658664
 20
-2026.732608584513
 30
0.0
  9
$UCSXDIR
 10
1.0
 20
0.0
 30
0.0
  9
$UCSYDIR
 10
0.0
 20
1.0
 30
0.0
  9
$UCSORTHOREF
  2

  9
$UCSORTHOVIEW
 70
     0
  9
$UCSORGTOP
 10
0.0
 20
0.0
 30
0.0
  9
$UCSORGBOTTOM
 10
0.0
 20
0.0
 30
0.0
  9
$UCSORGLEFT
 10
0.0
 20
0.0
 30
0.0
  9
$UCSORGRIGHT
 10
0.0
 20
0.0
 30
0.0
  9
$UCSORGFRONT
 10
0.0
 20
0.0
 30
0.0
  9
$UCSORGBACK
 10
0.0
 20
0.0
 30
0.0
  9
$PUCSBASE
  2

  9
$PUCSNAME
  2

  9
$PUCSORG
 10
0.0
 20
0.0
 30
0.0
  9
$PUCSXDIR
 10
1.0
 20
0.0
 30
0.0
  9
$PUCSYDIR
 10
0.0
 20
1.0
 30
0.0
  9
$PUCSORTHOREF
  2

  9
$PUCSORTHOVIEW
 70
     0
  9
$PUCSORGTOP
 10
0.0
 20
0.0
 30
0.0
  9
$PUCSORGBOTTOM
 10
0.0
 20
0.0
 30
0.0
  9
$PUCSORGLEFT
 10
0.0
 20
0.0
 30
0.0
  9
$PUCSORGRIGHT
 10
0.0
 20
0.0
 30
0.0
  9
$PUCSORGFRONT
 10
0.0
 20
0.0
 30
0.0
  9
$PUCSORGBACK
 10
0.0
 20
0.0
 30
0.0
  9
$USERI1
 70
     0
  9
$USERI2
 70
     0
  9
$USERI3
 70
     0
  9
$USERI4
 70
     0
  9
$USERI5
 70
     0
  9
$USERR1
 40
0.0
  9
$USERR2
 40
0.0
  9
$USERR3
 40
0.0
  9
$USERR4
 40
0.0
  9
$USERR5
 40
0.0
  9
$WORLDVIEW
 70
     1
  9
$SHADEDGE
 70
     3
  9
$SHADEDIF
 70
    70
  9
$TILEMODE
 70
     1
  9
$MAXACTVP
 70
    64
  9
$PINSBASE
 10
0.0
 20
0.0
 30
0.0
  9
$PLIMCHECK
 70
     0
  9
$PEXTMIN
 10
1.135666597546553
 20
0.793333355836043
 30
0.0
  9
$PEXTMAX
 10
10.22099937791899
 20
7.14000020252438
 30
0.0
  9
$PLIMMIN
 10
-0.1666668268639272
 20
-0.166666657905879
  9
$PLIMMAX
 10
11.52333297128752
 20
8.099999784484621
  9
$UNITMODE
 70
     0
  9
$VISRETAIN
 70
     1
  9
$PLINEGEN
 70
     0
  9
$PSLTSCALE
 70
     1
  9
$TREEDEPTH
 70
  3020
  9
$CMLSTYLE
  2
Standard
  9
$CMLJUST
 70
     0
  9
$CMLSCALE
 40
1.0
  9
$PROXYGRAPHICS
 70
     1
  9
$MEASUREMENT
 70
     0
  9
$CELWEIGHT
370
    -1
  9
$ENDCAPS
280
     0
  9
$JOINSTYLE
280
     0
  9
$LWDISPLAY
290
     0
  9
$INSUNITS
 70
     1
  9
$HYPERLINKBASE
  1

  9
$STYLESHEET
  1
MONOCHROME.CTB
  9
$XEDIT
290
     1
  9
$CEPSNTYPE
380
     0
  9
$PSTYLEMODE
290
     1
  9
$FINGERPRINTGUID
  2
{B53C778A-82E1-4B51-9FC7-9A823E708445}
  9
$VERSIONGUID
  2
{3D279652-4976-4856-A993-CBB23A798FAF}
  9
$EXTNAMES
290
     1
  9
$PSVPSCALE
 40
0.0
  9
$OLESTARTUP
290
     0
  0
ENDSEC
  0
SECTION
  2
CLASSES
  0
CLASS
  1
ACDBDICTIONARYWDFLT
  2
AcDbDictionaryWithDefault
  3
ObjectDBX Classes
 90
        0
280
     0
281
     0
  0
CLASS
  1
ACDBPLACEHOLDER
  2
AcDbPlaceHolder
  3
ObjectDBX Classes
 90
        0
280
     0
281
     0
  0
CLASS
  1
LAYOUT
  2
AcDbLayout
  3
ObjectDBX Classes
 90
        0
280
     0
281
     0
  0
CLASS
  1
PLOTSETTINGS
  2
AcDbPlotSettings
  3
ObjectDBX Classes
 90
    32768
280
     0
281
     0
  0
CLASS
  1
MATERIAL
  2
AcDbMaterial
  3
ObjectDBX Classes
 90
     1024
280
     0
281
     0
  0
CLASS
  1
VISUALSTYLE
  2
AcDbVisualStyle
  3
ObjectDBX Classes
 90
     4095
280
     0
281
     0
  0
CLASS
  1
TABLESTYLE
  2
AcDbTableStyle
  3
ObjectDBX Classes
 90
     4095
280
     0
281
     0
  0
CLASS
  1
DICTIONARYVAR
  2
AcDbDictionaryVar
  3
ObjectDBX Classes
 90
        0
280
     0
281
     0
  0
CLASS
  1
SORTENTSTABLE
  2
AcDbSortentsTable
  3
ObjectDBX Classes
 90
        0
280
     0
281
     0
  0
CLASS
  1
DIMASSOC
  2
AcDbDimAssoc
  3
"AcDbDimAssoc|Product Desc:     AcDim ARX App For Dimension|Company:          Autodesk, Inc.|WEB Address:      www.autodesk.com"
 90
    32768
280
     0
281
     0
  0
CLASS
  1
ARC_DIMENSION
  2
AcDbArcDimension
  3
ObjectDBX Classes
 90
    33793
280
     0
281
     1
  0
ENDSEC
  0
SECTION
  2
TABLES
  0
TABLE
  2
VPORT
  5
19
330
0
100
AcDbSymbolTable
 70
     1
  0
VPORT
  5
9C
330
19
100
AcDbSymbolTableRecord
100
AcDbViewportTableRecord
  2
*Active
 70
     0
 10
0.0
 20
0.0
 11
1.0
 21
1.0
 12
5408.970176564797
 22
-1976.324885008885
 13
0.0
 23
0.0
 14
0.5
 24
0.5
 15
0.5
 25
0.5
 16
0.0
 26
0.0
 36
1.0
 17
0.0
 27
0.0
 37
0.0
 40
826.7618267224497
 41
1.278447121820615
 42
50.0
 43
0.0
 44
0.0
 50
0.0
 51
0.0
 71
     0
 72
  1000
 73
     1
 74
     3
 75
     0
 76
     0
 77
     0
 78
     1
281
     0
 65
     1
110
0.0
120
0.0
130
0.0
111
1.0
121
0.0
131
0.0
112
0.0
122
1.0
132
0.0
 79
     0
146
0.0
  0
ENDTAB
  0
TABLE
  2
LTYPE
  5
14
330
0
100
AcDbSymbolTable
 70
     6
  0
LTYPE
  5
15
330
14
100
AcDbSymbolTableRecord
100
AcDbLinetypeTableRecord
  2
ByBlock
 70
     0
  3

 72
    65
 73
     0
 40
0.0
  0
LTYPE
  5
16
330
14
100
AcDbSymbolTableRecord
100
AcDbLinetypeTableRecord
  2
ByLayer
 70
     0
  3

 72
    65
 73
     0
 40
0.0
  0
LTYPE
  5
8
330
14
100
AcDbSymbolTableRecord
100
AcDbLinetypeTableRecord
  2
Continuous
 70
     0
  3
Solid line
 72
    65
 73
     0
 40
0.0
  0
LTYPE
  5
725
330
14
100
AcDbSymbolTableRecord
100
AcDbLinetypeTableRecord
  2
DASHED
 70
     0
  3
Style 1 Dashed Line
 72
    65
 73
     2
 40
0.3
 49
0.17
 74
     0
 49
-0.13
 74
     0
  0
LTYPE
  5
727
330
14
100
AcDbSymbolTableRecord
100
AcDbLinetypeTableRecord
  2
DASHDOT
 70
     0
  3
 __ . __ . __ . __ . __ . __ . __ . 
 72
    65
 73
     4
 40
18.5
 49
12.0
 74
     0
 49
-3.0
 74
     0
 49
0.5
 74
     0
 49
-3.0
 74
     0
  0
ENDTAB
  0
TABLE
  2
LAYER
  5
10
102
{ACAD_XDICTIONARY
360
73F
102
}
330
0
100
AcDbSymbolTable
 70
    19
  0
LAYER
  5
4
330
10
100
AcDbSymbolTableRecord
100
AcDbLayerTableRecord
  2
0
 70
     0
 62
     7
  6
Continuous
370
    -3
390
5
  0
LAYER
  5
72D
330
10
100
AcDbSymbolTableRecord
100
AcDbLayerTableRecord
  2
DEFPOINTS
 70
     0
 62
     7
  6
Continuous
290
     0
370
    -3
390
5
  0
LAYER
  5
72E
330
10
100
AcDbSymbolTableRecord
100
AcDbLayerTableRecord
  2
Achse
 70
     0
 62
     7
  6
DASHDOT
370
    18
390
5
  0
LAYER
  5
72F
330
10
100
AcDbSymbolTableRecord
100
AcDbLayerTableRecord
  2
Konstruktionslinie
 70
     0
 62
     3
  6
Continuous
370
    -3
390
5
  0
LAYER
  5
735
330
10
100
AcDbSymbolTableRecord
100
AcDbLayerTableRecord
  2
Planrand
 70
     0
 62
     7
  6
Continuous
370
    30
390
5
  0
LAYER
  5
50A89
330
10
100
AcDbSymbolTableRecord
100
AcDbLayerTableRecord
  2
Bem 1_10
 70
     0
 62
     9
  6
Continuous
370
    15
390
5
1001
AcAecLayerStandard
1000

1000

  0
LAYER
  5
50E79
330
10
100
AcDbSymbolTableRecord
100
AcDbLayerTableRecord
  2
V1_035
 70
     0
 62
     3
  6
Continuous
370
    35
390
5
1001
AcAecLayerStandard
1000

1000

  0
LAYER
  5
50E7C
330
10
100
AcDbSymbolTableRecord
100
AcDbLayerTableRecord
  2
V1_025
 70
     0
 62
     4
  6
Continuous
370
    25
390
5
1001
AcAecLayerStandard
1000

1000

  0
LAYER
  5
50E7F
330
10
100
AcDbSymbolTableRecord
100
AcDbLayerTableRecord
  2
V1_015
 70
     0
 62
     9
  6
Continuous
370
    15
390
5
1001
AcAecLayerStandard
1000

1000

  0
LAYER
  5
50E93
330
10
100
AcDbSymbolTableRecord
100
AcDbLayerTableRecord
  2
V1_015 schimmer
 70
     0
 62
   253
  6
Continuous
370
    15
390
5
1001
AcAecLayerStandard
1000

1000

  0
LAYER
  5
517BD
330
10
100
AcDbSymbolTableRecord
100
AcDbLayerTableRecord
  2
Punkte
 70
     0
 62
     1
  6
Continuous
370
    20
390
5
1001
AcAecLayerStandard
1000

1000

  0
ENDTAB
  0
TABLE
  2
STYLE
  5
11
330
0
100
AcDbSymbolTable
 70
     3
  0
STYLE
  5
12
330
11
100
AcDbSymbolTableRecord
100
AcDbTextStyleTableRecord
  2
Standard
 70
     0
 40
0.0
 41
1.0
 50
0.0
 71
     0
 42
0.2
  3
txt
  4

  0
STYLE
  5
73A
330
11
100
AcDbSymbolTableRecord
100
AcDbTextStyleTableRecord
  2
MICROCADAM
 70
     0
 40
5.0
 41
1.0
 50
0.0
 71
     0
 42
30.0
  3
monos.ttf
  4

1001
ACAD
1000
Monospac821 BT
1071
       49
  0
STYLE
  5
50ADF
330
11
100
AcDbSymbolTableRecord
100
AcDbTextStyleTableRecord
  2
Beschlag
 70
     0
 40
0.0
 41
0.9
 50
0.0
 71
     0
 42
3.5
  3
ARIAL.TTF
  4

1001
ACAD
1000
Arial
1071
       34
  0
ENDTAB
  0
TABLE
  2
VIEW
  5
17
330
0
100
AcDbSymbolTable
 70
     1
  0
ENDTAB
  0
TABLE
  2
UCS
  5
18
330
0
100
AcDbSymbolTable
 70
     0
  0
ENDTAB
  0
TABLE
  2
APPID
  5
1B
330
0
100
AcDbSymbolTable
 70
     8
  0
APPID
  5
1C
330
1B
100
AcDbSymbolTableRecord
100
AcDbRegAppTableRecord
  2
ACAD
 70
     0
  0
APPID
  5
73E
330
1B
100
AcDbSymbolTableRecord
100
AcDbRegAppTableRecord
  2
ACAD_PSEXT
 70
     0
  0
APPID
  5
163EB
330
1B
100
AcDbSymbolTableRecord
100
AcDbRegAppTableRecord
  2
ANTLOG
 70
     0
  0
APPID
  5
24340
330
1B
100
AcDbSymbolTableRecord
100
AcDbRegAppTableRecord
  2
AcAecLayerStandard
 70
     0
  0
APPID
  5
31BD0
330
1B
100
AcDbSymbolTableRecord
100
AcDbRegAppTableRecord
  2
RAK
 70
     0
  0
APPID
  5
31BD1
330
1B
100
AcDbSymbolTableRecord
100
AcDbRegAppTableRecord
  2
ACAD_DSTYLE_DIMJOGGED_JOGANGLE_SYMBOL
 70
     0
  0
APPID
  5
31BD2
330
1B
100
AcDbSymbolTableRecord
100
AcDbRegAppTableRecord
  2
AcadStringInfo
 70
     0
  0
APPID
  5
5085A
330
1B
100
AcDbSymbolTableRecord
100
AcDbRegAppTableRecord
  2
ACAD_EXEMPT_FROM_CAD_STANDARDS
 70
     0
  0
ENDTAB
  0
TABLE
  2
DIMSTYLE
  5
1D
330
0
100
AcDbSymbolTable
 70
     2
100
AcDbDimStyleTable
 71
     2
340
50EBB
340
24
  0
DIMSTYLE
105
24
330
1D
100
AcDbSymbolTableRecord
100
AcDbDimStyleTableRecord
  2
Standard
 70
     0
340
12
  0
DIMSTYLE
105
50EBB
102
{ACAD_REACTORS
330
51748
330
5175D
330
52515
330
5251F
330
52528
330
52532
330
5253B
330
52544
330
5254D
330
52556
330
52560
330
52569
330
52573
330
5257D
330
52586
330
5258F
330
525A7
330
525B1
330
525BA
330
525C3
330
525DB
102
}
330
1D
100
AcDbSymbolTableRecord
100
AcDbDimStyleTableRecord
  2
Bemassungsstil Karl
 70
     0
 41
2.5
 42
0.625
 43
3.75
 44
1.25
 73
     0
 74
     0
 77
     1
 78
     8
140
2.5
141
2.5
143
0.03937007874016
147
0.625
171
     3
172
     1
271
     2
272
     2
274
     3
278
    44
283
     0
284
     8
340
12
  0
ENDTAB
  0
TABLE
  2
BLOCK_RECORD
  5
1
330
0
100
AcDbSymbolTable
 70
   118
  0
BLOCK_RECORD
  5
2
102
{ACAD_XDICTIONARY
360
75C6
102
}
330
1
100
AcDbSymbolTableRecord
100
AcDbBlockTableRecord
  2
*Model_Space
340
A
  0
BLOCK_RECORD
  5
517F6
330
1
100
AcDbSymbolTableRecord
100
AcDbBlockTableRecord
  2
*Paper_Space
340
517F7
  0
BLOCK_RECORD
  5
51749
330
1
100
AcDbSymbolTableRecord
100
AcDbBlockTableRecord
  2
*D3
340
0
  0
BLOCK_RECORD
  5
5175E
330
1
100
AcDbSymbolTableRecord
100
AcDbBlockTableRecord
  2
*D4
340
0
  0
BLOCK_RECORD
  5
52516
330
1
100
AcDbSymbolTableRecord
100
AcDbBlockTableRecord
  2
*D99
340
0
  0
BLOCK_RECORD
  5
52520
330
1
100
AcDbSymbolTableRecord
100
AcDbBlockTableRecord
  2
*D100
340
0
  0
BLOCK_RECORD
  5
52529
330
1
100
AcDbSymbolTableRecord
100
AcDbBlockTableRecord
  2
*D101
340
0
  0
BLOCK_RECORD
  5
52533
330
1
100
AcDbSymbolTableRecord
100
AcDbBlockTableRecord
  2
*D102
340
0
  0
BLOCK_RECORD
  5
5253C
330
1
100
AcDbSymbolTableRecord
100
AcDbBlockTableRecord
  2
*D103
340
0
  0
BLOCK_RECORD
  5
52545
330
1
100
AcDbSymbolTableRecord
100
AcDbBlockTableRecord
  2
*D104
340
0
  0
BLOCK_RECORD
  5
5254E
330
1
100
AcDbSymbolTableRecord
100
AcDbBlockTableRecord
  2
*D105
340
0
  0
BLOCK_RECORD
  5
52557
330
1
100
AcDbSymbolTableRecord
100
AcDbBlockTableRecord
  2
*D106
340
0
  0
BLOCK_RECORD
  5
52561
330
1
100
AcDbSymbolTableRecord
100
AcDbBlockTableRecord
  2
*D107
340
0
  0
BLOCK_RECORD
  5
5256A
330
1
100
AcDbSymbolTableRecord
100
AcDbBlockTableRecord
  2
*D108
340
0
  0
BLOCK_RECORD
  5
52574
330
1
100
AcDbSymbolTableRecord
100
AcDbBlockTableRecord
  2
*D109
340
0
  0
BLOCK_RECORD
  5
5257E
330
1
100
AcDbSymbolTableRecord
100
AcDbBlockTableRecord
  2
*D110
340
0
  0
BLOCK_RECORD
  5
52587
330
1
100
AcDbSymbolTableRecord
100
AcDbBlockTableRecord
  2
*D111
340
0
  0
BLOCK_RECORD
  5
52590
330
1
100
AcDbSymbolTableRecord
100
AcDbBlockTableRecord
  2
*D112
340
0
  0
BLOCK_RECORD
  5
525A8
330
1
100
AcDbSymbolTableRecord
100
AcDbBlockTableRecord
  2
*D113
340
0
  0
BLOCK_RECORD
  5
525B2
330
1
100
AcDbSymbolTableRecord
100
AcDbBlockTableRecord
  2
*D114
340
0
  0
BLOCK_RECORD
  5
525BB
330
1
100
AcDbSymbolTableRecord
100
AcDbBlockTableRecord
  2
*D115
340
0
  0
BLOCK_RECORD
  5
525C4
330
1
100
AcDbSymbolTableRecord
100
AcDbBlockTableRecord
  2
*D116
340
0
  0
BLOCK_RECORD
  5
525DC
330
1
100
AcDbSymbolTableRecord
100
AcDbBlockTableRecord
  2
*D117
340
0
  0
ENDTAB
  0
ENDSEC
  0
SECTION
  2
BLOCKS
  0
BLOCK
  5
3
330
2
100
AcDbEntity
  8
0
100
AcDbBlockBegin
  2
*Model_Space
 70
     2
 10
0.0
 20
0.0
 30
0.0
  3
*Model_Space
  1

  0
ENDBLK
  5
9
330
2
100
AcDbEntity
  8
0
100
AcDbBlockEnd
  0
BLOCK
  5
517F8
330
517F6
100
AcDbEntity
 67
     1
  8
0
100
AcDbBlockBegin
  2
*Paper_Space
 70
     0
 10
0.0
 20
0.0
 30
0.0
  3
*Paper_Space
  1

  0
ENDBLK
  5
517F9
330
517F6
100
AcDbEntity
 67
     1
  8
0
100
AcDbBlockEnd
  0
BLOCK
  5
51753
330
51749
100
AcDbEntity
  8
0
100
AcDbBlockBegin
  2
*D3
 70
     1
 10
0.0
 20
0.0
 30
0.0
  3
*D3
  1

  0
LINE
  5
52434
330
51749
100
AcDbEntity
  8
Bem 1_10
 62
     0
370
    -2
100
AcDbLine
 10
5373.724765658665
 20
-1666.732604584513
 30
0.0
 11
5403.275887898084
 21
-1666.732604584513
 31
0.0
  0
LINE
  5
52435
330
51749
100
AcDbEntity
  8
Bem 1_10
 62
     0
370
    -2
100
AcDbLine
 10
5373.724873049969
 20
-1601.732574584512
 30
0.0
 11
5403.275887898084
 21
-1601.732574584512
 31
0.0
  0
LINE
  5
52436
330
51749
100
AcDbEntity
  8
Bem 1_10
 62
     0
370
    -2
100
AcDbLine
 10
5402.025887898084
 20
-1664.232604584513
 30
0.0
 11
5402.025887898084
 21
-1604.232574584512
 31
0.0
  0
SOLID
  5
52437
330
51749
100
AcDbEntity
  8
Bem 1_10
 62
     0
100
AcDbTrace
 10
5401.609221231417
 20
-1664.232604584513
 30
0.0
 11
5402.442554564751
 21
-1664.232604584513
 31
0.0
 12
5402.025887898084
 22
-1666.732604584513
 32
0.0
 13
5402.025887898084
 23
-1666.732604584513
 33
0.0
  0
SOLID
  5
52438
330
51749
100
AcDbEntity
  8
Bem 1_10
 62
     0
100
AcDbTrace
 10
5401.609221231417
 20
-1604.232574584512
 30
0.0
 11
5402.442554564751
 21
-1604.232574584512
 31
0.0
 12
5402.025887898084
 22
-1601.732574584512
 32
0.0
 13
5402.025887898084
 23
-1601.732574584512
 33
0.0
  0
POINT
  5
52439
330
51749
100
AcDbEntity
  8
DEFPOINTS
 62
     0
100
AcDbPoint
 10
5373.099765658665
 20
-1666.732604584513
 30
0.0
  0
POINT
  5
5243A
330
51749
100
AcDbEntity
  8
DEFPOINTS
 62
     0
100
AcDbPoint
 10
5373.099873049969
 20
-1601.732574584512
 30
0.0
  0
POINT
  5
5243B
330
51749
100
AcDbEntity
  8
DEFPOINTS
 62
     0
100
AcDbPoint
 10
5402.025887898084
 20
-1601.732574584512
 30
0.0
  0
ENDBLK
  5
51754
330
51749
100
AcDbEntity
  8
0
100
AcDbBlockEnd
  0
BLOCK
  5
51768
330
5175E
100
AcDbEntity
  8
0
100
AcDbBlockBegin
  2
*D4
 70
     1
 10
0.0
 20
0.0
 30
0.0
  3
*D4
  1

  0
LINE
  5
5243D
330
5175E
100
AcDbEntity
  8
Bem 1_10
 62
     0
370
    -2
100
AcDbLine
 10
5373.724873049969
 20
-2026.732608584513
 30
0.0
 11
5403.275887898084
 21
-2026.732608584513
 31
0.0
  0
LINE
  5
5243E
330
5175E
100
AcDbEntity
  8
Bem 1_10
 62
     0
370
    -2
100
AcDbLine
 10
5373.724803638872
 20
-1666.732604584513
 30
0.0
 11
5403.275887898084
 21
-1666.732604584513
 31
0.0
  0
LINE
  5
5243F
330
5175E
100
AcDbEntity
  8
Bem 1_10
 62
     0
370
    -2
100
AcDbLine
 10
5402.025887898084
 20
-2024.232608584513
 30
0.0
 11
5402.025887898084
 21
-1669.232604584513
 31
0.0
  0
SOLID
  5
52440
330
5175E
100
AcDbEntity
  8
Bem 1_10
 62
     0
100
AcDbTrace
 10
5401.609221231417
 20
-2024.232608584513
 30
0.0
 11
5402.442554564751
 21
-2024.232608584513
 31
0.0
 12
5402.025887898084
 22
-2026.732608584513
 32
0.0
 13
5402.025887898084
 23
-2026.732608584513
 33
0.0
  0
SOLID
  5
52441
330
5175E
100
AcDbEntity
  8
Bem 1_10
 62
     0
100
AcDbTrace
 10
5401.609221231417
 20
-1669.232604584513
 30
0.0
 11
5402.442554564751
 21
-1669.232604584513
 31
0.0
 12
5402.025887898084
 22
-1666.732604584513
 32
0.0
 13
5402.025887898084
 23
-1666.732604584513
 33
0.0
  0
POINT
  5
52442
330
5175E
100
AcDbEntity
  8
DEFPOINTS
 62
     0
100
AcDbPoint
 10
5373.099873049969
 20
-2026.732608584513
 30
0.0
  0
POINT
  5
52443
330
5175E
100
AcDbEntity
  8
DEFPOINTS
 62
     0
100
AcDbPoint
 10
5373.099803638871
 20
-1666.732604584513
 30
0.0
  0
POINT
  5
52444
330
5175E
100
AcDbEntity
  8
DEFPOINTS
 62
     0
100
AcDbPoint
 10
5402.025887898084
 20
-1666.732604584513
 30
0.0
  0
ENDBLK
  5
51769
330
5175E
100
AcDbEntity
  8
0
100
AcDbBlockEnd
  0
BLOCK
  5
5251D
330
52516
100
AcDbEntity
  8
0
100
AcDbBlockBegin
  2
*D99
 70
     1
 10
0.0
 20
0.0
 30
0.0
  3
*D99
  1

  0
LINE
  5
52517
330
52516
100
AcDbEntity
  8
Bem 1_10
 62
     0
370
    -2
100
AcDbLine
 10
5226.730759161628
 20
-1639.441223175087
 30
0.0
 11
5222.642281441189
 21
-1652.569317093455
 31
0.0
  0
MTEXT
  5
52518
330
52516
100
AcDbEntity
  8
Bem 1_10
 62
     0
100
AcDbMText
 10
5223.069094955031
 20
-1644.192340729504
 30
0.0
 40
2.5
 41
0.0
 71
     5
 72
     1
  1
R6,05
 11
0.2973438342137327
 21
0.954770466790357
 31
0.0
 73
     1
 44
1.0
1001
ACAD
1000
MTEXTBEGIN
1070
    73
1070
     1
1070
    44
1040
1.0
1070
    74
1070
     0
1000
MTEXTEND
  0
LINE
  5
52519
330
52516
100
AcDbEntity
  8
Bem 1_10
 62
     0
370
    -2
100
AcDbLine
 10
5220.099991658663
 20
-1660.732604584511
 30
0.0
 11
5221.898921855655
 21
-1654.95624326043
 31
0.0
  0
SOLID
  5
5251A
330
52516
100
AcDbEntity
  8
Bem 1_10
 62
     0
100
AcDbTrace
 10
5222.24446041336
 20
-1652.445423829199
 30
0.0
 11
5223.04010246902
 21
-1652.69321035771
 31
0.0
 12
5221.898921855655
 22
-1654.95624326043
 32
0.0
 13
5221.898921855655
 23
-1654.95624326043
 33
0.0
  0
POINT
  5
5251B
330
52516
100
AcDbEntity
  8
DEFPOINTS
 62
     0
100
AcDbPoint
 10
5221.898921855655
 20
-1654.95624326043
 30
0.0
  0
POINT
  5
5251C
330
52516
100
AcDbEntity
  8
DEFPOINTS
 62
     0
100
AcDbPoint
 10
5220.099991658663
 20
-1660.732604584511
 30
0.0
  0
ENDBLK
  5
5251E
330
52516
100
AcDbEntity
  8
0
100
AcDbBlockEnd
  0
BLOCK
  5
52526
330
52520
100
AcDbEntity
  8
0
100
AcDbBlockBegin
  2
*D100
 70
     1
 10
0.0
 20
0.0
 30
0.0
  3
*D100
  1

  0
LINE
  5
52521
330
52520
100
AcDbEntity
  8
Bem 1_10
 62
     0
370
    -2
100
AcDbLine
 10
5253.174280701456
 20
-1663.086553318253
 30
0.0
 11
5228.87794834732
 21
-1669.239060386286
 31
0.0
  0
MTEXT
  5
52522
330
52520
100
AcDbEntity
  8
Bem 1_10
 62
     0
100
AcDbMText
 10
5247.008021352458
 20
-1662.498929972532
 30
0.0
 40
2.5
 41
0.0
 71
     5
 72
     1
  1
R9,95
 11
0.9694017840498501
 21
0.2454794921800346
 31
0.0
 73
     1
 44
1.0
1001
ACAD
1000
MTEXTBEGIN
1070
    73
1070
     1
1070
    44
1040
1.0
1070
    74
1070
     0
1000
MTEXTEND
  0
SOLID
  5
52523
330
52520
100
AcDbEntity
  8
Bem 1_10
 62
     0
100
AcDbTrace
 10
5228.775665225579
 20
-1668.835142976266
 30
0.0
 11
5228.980231469062
 21
-1669.642977796307
 31
0.0
 12
5226.454443887195
 22
-1669.852759116736
 32
0.0
 13
5226.454443887195
 23
-1669.852759116736
 33
0.0
  0
POINT
  5
52524
330
52520
100
AcDbEntity
  8
DEFPOINTS
 62
     0
100
AcDbPoint
 10
5226.454443887195
 20
-1669.852759116736
 30
0.0
  0
POINT
  5
52525
330
52520
100
AcDbEntity
  8
DEFPOINTS
 62
     0
100
AcDbPoint
 10
5236.099991638511
 20
-1667.41023816954
 30
0.0
  0
ENDBLK
  5
52527
330
52520
100
AcDbEntity
  8
0
100
AcDbBlockEnd
  0
BLOCK
  5
52530
330
52529
100
AcDbEntity
  8
0
100
AcDbBlockBegin
  2
*D101
 70
     1
 10
0.0
 20
0.0
 30
0.0
  3
*D101
  1

  0
LINE
  5
5252A
330
52529
100
AcDbEntity
  8
Bem 1_10
 62
     0
370
    -2
100
AcDbLine
 10
5192.763971885384
 20
-1681.902369704209
 30
0.0
 11
5211.951543758885
 21
-1675.804676188375
 31
0.0
  0
MTEXT
  5
5252B
330
52529
100
AcDbEntity
  8
Bem 1_10
 62
     0
100
AcDbMText
 10
5197.493805025994
 20
-1678.2132531108
 30
0.0
 40
2.5
 41
0.0
 71
     5
 72
     1
  1
R6,05
 11
0.9530325349899319
 21
0.3028679369802363
 31
0.0
 73
     1
 44
1.0
1001
ACAD
1000
MTEXTBEGIN
1070
    73
1070
     1
1070
    44
1040
1.0
1070
    74
1070
     0
1000
MTEXTEND
  0
LINE
  5
5252C
330
52529
100
AcDbEntity
  8
Bem 1_10
 62
     0
370
    -2
100
AcDbLine
 10
5220.099971933056
 20
-1673.215155327191
 30
0.0
 11
5214.334125096359
 21
-1675.047506345924
 31
0.0
  0
SOLID
  5
5252D
330
52529
100
AcDbEntity
  8
Bem 1_10
 62
     0
100
AcDbTrace
 10
5211.825348785143
 20
-1675.407579298796
 30
0.0
 11
5212.077738732626
 21
-1676.201773077954
 31
0.0
 12
5214.334125096359
 22
-1675.047506345924
 32
0.0
 13
5214.334125096359
 23
-1675.047506345924
 33
0.0
  0
POINT
  5
5252E
330
52529
100
AcDbEntity
  8
DEFPOINTS
 62
     0
100
AcDbPoint
 10
5214.334125096359
 20
-1675.047506345924
 30
0.0
  0
POINT
  5
5252F
330
52529
100
AcDbEntity
  8
DEFPOINTS
 62
     0
100
AcDbPoint
 10
5220.099971933056
 20
-1673.215155327191
 30
0.0
  0
ENDBLK
  5
52531
330
52529
100
AcDbEntity
  8
0
100
AcDbBlockEnd
  0
BLOCK
  5
52539
330
52533
100
AcDbEntity
  8
0
100
AcDbBlockBegin
  2
*D102
 70
     1
 10
0.0
 20
0.0
 30
0.0
  3
*D102
  1

  0
LINE
  5
52534
330
52533
100
AcDbEntity
  8
Bem 1_10
 62
     0
370
    -2
100
AcDbLine
 10
5295.766138573178
 20
-1810.531580123183
 30
0.0
 11
5314.03934474485
 21
-1798.407849425551
 31
0.0
  0
MTEXT
  5
52535
330
52533
100
AcDbEntity
  8
Bem 1_10
 62
     0
100
AcDbMText
 10
5300.516739871312
 20
-1804.879529504599
 30
0.0
 40
2.5
 41
0.0
 71
     5
 72
     1
  1
R43,95
 11
0.8332775171559534
 21
0.5528549352247927
 31
0.0
 73
     1
 44
1.0
1001
ACAD
1000
MTEXTBEGIN
1070
    73
1070
     1
1070
    44
1040
1.0
1070
    74
1070
     0
1000
MTEXTEND
  0
SOLID
  5
52536
330
52533
100
AcDbEntity
  8
Bem 1_10
 62
     0
100
AcDbTrace
 10
5313.80898852184
 20
-1798.06065046007
 30
0.0
 11
5314.269700967861
 21
-1798.755048391033
 31
0.0
 12
5316.12253853774
 22
-1797.025712087489
 32
0.0
 13
5316.12253853774
 23
-1797.025712087489
 33
0.0
  0
POINT
  5
52537
330
52533
100
AcDbEntity
  8
DEFPOINTS
 62
     0
100
AcDbPoint
 10
5316.12253853774
 20
-1797.025712087489
 30
0.0
  0
POINT
  5
52538
330
52533
100
AcDbEntity
  8
DEFPOINTS
 62
     0
100
AcDbPoint
 10
5279.499991658729
 20
-1821.323686490623
 30
0.0
  0
ENDBLK
  5
5253A
330
52533
100
AcDbEntity
  8
0
100
AcDbBlockEnd
  0
BLOCK
  5
52542
330
5253C
100
AcDbEntity
  8
0
100
AcDbBlockBegin
  2
*D103
 70
     1
 10
0.0
 20
0.0
 30
0.0
  3
*D103
  1

  0
LINE
  5
5253D
330
5253C
100
AcDbEntity
  8
Bem 1_10
 62
     0
370
    -2
100
AcDbLine
 10
5300.493482670827
 20
-1815.622306241324
 30
0.0
 11
5331.177096008364
 21
-1807.286858475383
 31
0.0
  0
MTEXT
  5
5253E
330
5253C
100
AcDbEntity
  8
Bem 1_10
 62
     0
100
AcDbMText
 10
5306.58187154377
 20
-1811.809508881172
 30
0.0
 40
2.5
 41
0.0
 71
     5
 72
     1
  1
R56,05
 11
0.965025290800416
 21
0.2621568006281208
 31
0.0
 73
     1
 44
1.0
1001
ACAD
1000
MTEXTBEGIN
1070
    73
1070
     1
1070
    44
1040
1.0
1070
    74
1070
     0
1000
MTEXTEND
  0
SOLID
  5
5253F
330
5253C
100
AcDbEntity
  8
Bem 1_10
 62
     0
100
AcDbTrace
 10
5331.067864008101
 20
-1806.884764604216
 30
0.0
 11
5331.286328008624
 21
-1807.68895234655
 31
0.0
 12
5333.589659235364
 22
-1806.631466473813
 32
0.0
 13
5333.589659235364
 23
-1806.631466473813
 33
0.0
  0
POINT
  5
52540
330
5253C
100
AcDbEntity
  8
DEFPOINTS
 62
     0
100
AcDbPoint
 10
5333.589659235364
 20
-1806.631466473813
 30
0.0
  0
POINT
  5
52541
330
5253C
100
AcDbEntity
  8
DEFPOINTS
 62
     0
100
AcDbPoint
 10
5279.499991686002
 20
-1821.325355149019
 30
0.0
  0
ENDBLK
  5
52543
330
5253C
100
AcDbEntity
  8
0
100
AcDbBlockEnd
  0
BLOCK
  5
5254B
330
52545
100
AcDbEntity
  8
0
100
AcDbBlockBegin
  2
*D104
 70
     1
 10
0.0
 20
0.0
 30
0.0
  3
*D104
  1

  0
LINE
  5
52546
330
52545
100
AcDbEntity
  8
Bem 1_10
 62
     0
370
    -2
100
AcDbLine
 10
5332.124871024356
 20
-1830.205275121915
 30
0.0
 11
5328.823753532608
 21
-1847.217601284205
 31
0.0
  0
MTEXT
  5
52547
330
52545
100
AcDbEntity
  8
Bem 1_10
 62
     0
100
AcDbMText
 10
5329.008181094735
 20
-1835.330423574437
 30
0.0
 40
2.5
 41
0.0
 71
     5
 72
     1
  1
R6,05
 11
0.1904896129766937
 21
0.9816892111803966
 31
0.0
 73
     1
 44
1.0
1001
ACAD
1000
MTEXTBEGIN
1070
    73
1070
     1
1070
    44
1040
1.0
1070
    74
1070
     0
1000
MTEXTEND
  0
SOLID
  5
52548
330
52545
100
AcDbEntity
  8
Bem 1_10
 62
     0
100
AcDbTrace
 10
5328.414716361283
 20
-1847.138230612132
 30
0.0
 11
5329.232790703933
 21
-1847.296971956279
 31
0.0
 12
5328.347529500167
 22
-1849.671824312156
 32
0.0
 13
5328.347529500167
 23
-1849.671824312156
 33
0.0
  0
POINT
  5
52549
330
52545
100
AcDbEntity
  8
DEFPOINTS
 62
     0
100
AcDbPoint
 10
5328.347529500167
 20
-1849.671824312156
 30
0.0
  0
POINT
  5
5254A
330
52545
100
AcDbEntity
  8
DEFPOINTS
 62
     0
100
AcDbPoint
 10
5329.499991658674
 20
-1843.732604584522
 30
0.0
  0
ENDBLK
  5
5254C
330
52545
100
AcDbEntity
  8
0
100
AcDbBlockEnd
  0
BLOCK
  5
52554
330
5254E
100
AcDbEntity
  8
0
100
AcDbBlockBegin
  2
*D105
 70
     1
 10
0.0
 20
0.0
 30
0.0
  3
*D105
  1

  0
LINE
  5
5254F
330
5254E
100
AcDbEntity
  8
Bem 1_10
 62
     0
370
    -2
100
AcDbLine
 10
5327.860107936652
 20
-1887.744685263833
 30
0.0
 11
5329.943762675508
 21
-1871.210466392284
 31
0.0
  0
MTEXT
  5
52550
330
5254E
100
AcDbEntity
  8
Bem 1_10
 62
     0
100
AcDbMText
 10
5326.496427158073
 20
-1881.903343165316
 30
0.0
 40
2.5
 41
0.0
 71
     5
 72
     1
  1
R6,05
 11
0.1250318357352993
 21
0.9921527302047106
 31
0.0
 73
     1
 44
1.0
1001
ACAD
1000
MTEXTBEGIN
1070
    73
1070
     1
1070
    44
1040
1.0
1070
    74
1070
     0
1000
MTEXTEND
  0
SOLID
  5
52551
330
5254E
100
AcDbEntity
  8
Bem 1_10
 62
     0
100
AcDbTrace
 10
5329.530365704589
 20
-1871.158369794061
 30
0.0
 11
5330.357159646427
 21
-1871.262562990507
 31
0.0
 12
5330.256342264846
 22
-1868.730084566772
 32
0.0
 13
5330.256342264846
 23
-1868.730084566772
 33
0.0
  0
POINT
  5
52552
330
5254E
100
AcDbEntity
  8
DEFPOINTS
 62
     0
100
AcDbPoint
 10
5330.256342264846
 20
-1868.730084566772
 30
0.0
  0
POINT
  5
52553
330
5254E
100
AcDbEntity
  8
DEFPOINTS
 62
     0
100
AcDbPoint
 10
5329.49989965865
 20
-1874.732608584507
 30
0.0
  0
ENDBLK
  5
52555
330
5254E
100
AcDbEntity
  8
0
100
AcDbBlockEnd
  0
BLOCK
  5
5255E
330
52557
100
AcDbEntity
  8
0
100
AcDbBlockBegin
  2
*D106
 70
     1
 10
0.0
 20
0.0
 30
0.0
  3
*D106
  1

  0
LINE
  5
52558
330
52557
100
AcDbEntity
  8
Bem 1_10
 62
     0
370
    -2
100
AcDbLine
 10
5328.671544781204
 20
-1915.787975566122
 30
0.0
 11
5323.266393210726
 21
-1905.448950098929
 31
0.0
  0
MTEXT
  5
52559
330
52557
100
AcDbEntity
  8
Bem 1_10
 62
     0
100
AcDbMText
 10
5328.394346926228
 20
-1910.761009923567
 30
0.0
 40
2.5
 41
0.0
 71
     5
 72
     1
  1
R2,5
 11
0.4632987060409634
 21
-0.8862021829022815
 31
0.0
 73
     1
 44
1.0
1001
ACAD
1000
MTEXTBEGIN
1070
    73
1070
     1
1070
    44
1040
1.0
1070
    74
1070
     0
1000
MTEXTEND
  0
LINE
  5
5255A
330
52557
100
AcDbEntity
  8
Bem 1_10
 62
     0
370
    -2
100
AcDbLine
 10
5320.949899680518
 20
-1901.017939184413
 30
0.0
 11
5322.108146445624
 21
-1903.233444641674
 31
0.0
  0
SOLID
  5
5255B
330
52557
100
AcDbEntity
  8
Bem 1_10
 62
     0
100
AcDbTrace
 10
5323.635644120268
 20
-1905.255908971412
 30
0.0
 11
5322.897142301183
 21
-1905.641991226446
 31
0.0
 12
5322.108146445624
 22
-1903.233444641674
 32
0.0
 13
5322.108146445624
 23
-1903.233444641674
 33
0.0
  0
POINT
  5
5255C
330
52557
100
AcDbEntity
  8
DEFPOINTS
 62
     0
100
AcDbPoint
 10
5322.108146445624
 20
-1903.233444641674
 30
0.0
  0
POINT
  5
5255D
330
52557
100
AcDbEntity
  8
DEFPOINTS
 62
     0
100
AcDbPoint
 10
5320.949899680518
 20
-1901.017939184413
 30
0.0
  0
ENDBLK
  5
5255F
330
52557
100
AcDbEntity
  8
0
100
AcDbBlockEnd
  0
BLOCK
  5
52567
330
52561
100
AcDbEntity
  8
0
100
AcDbBlockBegin
  2
*D107
 70
     1
 10
0.0
 20
0.0
 30
0.0
  3
*D107
  1

  0
LINE
  5
52562
330
52561
100
AcDbEntity
  8
Bem 1_10
 62
     0
370
    -2
100
AcDbLine
 10
5309.103299944847
 20
-1909.89625852899
 30
0.0
 11
5312.953227954419
 21
-1901.120249635484
 31
0.0
  0
MTEXT
  5
52563
330
52561
100
AcDbEntity
  8
Bem 1_10
 62
     0
100
AcDbMText
 10
5308.809054208349
 20
-1905.899704109952
 30
0.0
 40
2.5
 41
0.0
 71
     5
 72
     1
  1
R14
 11
0.4017316183900154
 21
0.9157574497571609
 31
0.0
 73
     1
 44
1.0
1001
ACAD
1000
MTEXTBEGIN
1070
    73
1070
     1
1070
    44
1040
1.0
1070
    74
1070
     0
1000
MTEXTEND
  0
SOLID
  5
52564
330
52561
100
AcDbEntity
  8
Bem 1_10
 62
     0
100
AcDbTrace
 10
5312.571662350352
 20
-1900.952861461155
 30
0.0
 11
5313.334793558484
 21
-1901.287637809813
 31
0.0
 12
5313.957557000392
 22
-1898.830856011091
 32
0.0
 13
5313.957557000392
 23
-1898.830856011091
 33
0.0
  0
POINT
  5
52565
330
52561
100
AcDbEntity
  8
DEFPOINTS
 62
     0
100
AcDbPoint
 10
5313.957557000392
 20
-1898.830856011091
 30
0.0
  0
POINT
  5
52566
330
52561
100
AcDbEntity
  8
DEFPOINTS
 62
     0
100
AcDbPoint
 10
5308.333314342933
 20
-1911.651460307691
 30
0.0
  0
ENDBLK
  5
52568
330
52561
100
AcDbEntity
  8
0
100
AcDbBlockEnd
  0
BLOCK
  5
52571
330
5256A
100
AcDbEntity
  8
0
100
AcDbBlockBegin
  2
*D108
 70
     1
 10
0.0
 20
0.0
 30
0.0
  3
*D108
  1

  0
LINE
  5
5256B
330
5256A
100
AcDbEntity
  8
Bem 1_10
 62
     0
370
    -2
100
AcDbLine
 10
5192.766577292605
 20
-1904.922913166522
 30
0.0
 11
5205.115746357946
 21
-1911.410192891716
 31
0.0
  0
MTEXT
  5
5256C
330
5256A
100
AcDbEntity
  8
Bem 1_10
 62
     0
100
AcDbMText
 10
5198.71515040546
 20
-1905.694522328466
 30
0.0
 40
2.5
 41
0.0
 71
     5
 72
     1
  1
R6,05
 11
0.8852808632722325
 21
-0.4650567633353703
 31
0.0
 73
     1
 44
1.0
1001
ACAD
1000
MTEXTBEGIN
1070
    73
1070
     1
1070
    44
1040
1.0
1070
    74
1070
     0
1000
MTEXTEND
  0
LINE
  5
5256D
330
5256A
100
AcDbEntity
  8
Bem 1_10
 62
     0
370
    -2
100
AcDbLine
 10
5212.684897738923
 20
-1915.386428218234
 30
0.0
 11
5207.328948516126
 21
-1912.572834800055
 31
0.0
  0
SOLID
  5
5256E
330
5256A
100
AcDbEntity
  8
Bem 1_10
 62
     0
100
AcDbTrace
 10
5205.309520009336
 20
-1911.041325865353
 30
0.0
 11
5204.921972706555
 21
-1911.77905991808
 31
0.0
 12
5207.328948516126
 22
-1912.572834800055
 32
0.0
 13
5207.328948516126
 23
-1912.572834800055
 33
0.0
  0
POINT
  5
5256F
330
5256A
100
AcDbEntity
  8
DEFPOINTS
 62
     0
100
AcDbPoint
 10
5207.328948516126
 20
-1912.572834800055
 30
0.0
  0
POINT
  5
52570
330
5256A
100
AcDbEntity
  8
DEFPOINTS
 62
     0
100
AcDbPoint
 10
5212.684897738923
 20
-1915.386428218234
 30
0.0
  0
ENDBLK
  5
52572
330
5256A
100
AcDbEntity
  8
0
100
AcDbBlockEnd
  0
BLOCK
  5
5257B
330
52574
100
AcDbEntity
  8
0
100
AcDbBlockBegin
  2
*D109
 70
     1
 10
0.0
 20
0.0
 30
0.0
  3
*D109
  1

  0
LINE
  5
52575
330
52574
100
AcDbEntity
  8
Bem 1_10
 62
     0
370
    -2
100
AcDbLine
 10
5195.294098732919
 20
-1939.172456204937
 30
0.0
 11
5206.323631148428
 21
-1929.267150956486
 31
0.0
  0
MTEXT
  5
52576
330
52574
100
AcDbEntity
  8
Bem 1_10
 62
     0
100
AcDbMText
 10
5198.087115745028
 20
-1933.863976314436
 30
0.0
 40
2.5
 41
0.0
 71
     5
 72
     1
  1
R6,05
 11
0.7440072852996469
 21
0.6681715044964504
 31
0.0
 73
     1
 44
1.0
1001
ACAD
1000
MTEXTBEGIN
1070
    73
1070
     1
1070
    44
1040
1.0
1070
    74
1070
     0
1000
MTEXTEND
  0
LINE
  5
52577
330
52574
100
AcDbEntity
  8
Bem 1_10
 62
     0
370
    -2
100
AcDbLine
 10
5212.684893437741
 20
-1923.554284593041
 30
0.0
 11
5208.183649361679
 21
-1927.596722195245
 31
0.0
  0
SOLID
  5
52578
330
52574
100
AcDbEntity
  8
Bem 1_10
 62
     0
100
AcDbTrace
 10
5206.045226354889
 20
-1928.957147920944
 30
0.0
 11
5206.602035941969
 21
-1929.577153992028
 31
0.0
 12
5208.183649361679
 22
-1927.596722195245
 32
0.0
 13
5208.183649361679
 23
-1927.596722195245
 33
0.0
  0
POINT
  5
52579
330
52574
100
AcDbEntity
  8
DEFPOINTS
 62
     0
100
AcDbPoint
 10
5208.183649361679
 20
-1927.596722195245
 30
0.0
  0
POINT
  5
5257A
330
52574
100
AcDbEntity
  8
DEFPOINTS
 62
     0
100
AcDbPoint
 10
5212.684893437741
 20
-1923.554284593041
 30
0.0
  0
ENDBLK
  5
5257C
330
52574
100
AcDbEntity
  8
0
100
AcDbBlockEnd
  0
BLOCK
  5
52584
330
5257E
100
AcDbEntity
  8
0
100
AcDbBlockBegin
  2
*D110
 70
     1
 10
0.0
 20
0.0
 30
0.0
  3
*D110
  1

  0
LINE
  5
5257F
330
5257E
100
AcDbEntity
  8
Bem 1_10
 62
     0
370
    -2
100
AcDbLine
 10
5293.353090321219
 20
-1939.074866485747
 30
0.0
 11
5301.225463886489
 21
-1928.313662453363
 31
0.0
  0
MTEXT
  5
52580
330
5257E
100
AcDbEntity
  8
Bem 1_10
 62
     0
100
AcDbMText
 10
5294.869803952051
 20
-1933.473068978018
 30
0.0
 40
2.5
 41
0.0
 71
     5
 72
     1
  1
R15,5
 11
0.590428017395277
 21
0.8070903024288437
 31
0.0
 73
     1
 44
1.0
1001
ACAD
1000
MTEXTBEGIN
1070
    73
1070
     1
1070
    44
1040
1.0
1070
    74
1070
     0
1000
MTEXTEND
  0
SOLID
  5
52581
330
5257E
100
AcDbEntity
  8
Bem 1_10
 62
     0
100
AcDbTrace
 10
5300.889176260478
 20
-1928.067650779448
 30
0.0
 11
5301.561751512502
 21
-1928.559674127278
 31
0.0
 12
5302.701533929978
 22
-1926.295936697291
 32
0.0
 13
5302.701533929978
 23
-1926.295936697291
 33
0.0
  0
POINT
  5
52582
330
5257E
100
AcDbEntity
  8
DEFPOINTS
 62
     0
100
AcDbPoint
 10
5302.701533929978
 20
-1926.295936697291
 30
0.0
  0
POINT
  5
52583
330
5257E
100
AcDbEntity
  8
DEFPOINTS
 62
     0
100
AcDbPoint
 10
5293.549899660354
 20
-1938.805836384934
 30
0.0
  0
ENDBLK
  5
52585
330
5257E
100
AcDbEntity
  8
0
100
AcDbBlockEnd
  0
BLOCK
  5
5258D
330
52587
100
AcDbEntity
  8
0
100
AcDbBlockBegin
  2
*D111
 70
     1
 10
0.0
 20
0.0
 30
0.0
  3
*D111
  1

  0
LINE
  5
525D6
330
52587
100
AcDbEntity
  8
Bem 1_10
 62
     0
370
    -2
100
AcDbLine
 10
5338.492849408307
 20
-2155.054633219223
 30
0.0
 11
5314.5613824237
 21
-2163.438385319924
 31
0.0
  0
MTEXT
  5
525D7
330
52587
100
AcDbEntity
  8
Bem 1_10
 62
     0
100
AcDbMText
 10
5331.315681248231
 20
-2155.361488200875
 30
0.0
 40
2.5
 41
0.0
 71
     5
 72
     1
  1
R56,05
 11
0.9437631601654519
 21
0.3306222882906105
 31
0.0
 73
     1
 44
1.0
1001
ACAD
1000
MTEXTBEGIN
1070
    73
1070
     1
1070
    44
1040
1.0
1070
    74
1070
     0
1000
MTEXTEND
  0
SOLID
  5
525D8
330
52587
100
AcDbEntity
  8
Bem 1_10
 62
     0
100
AcDbTrace
 10
5314.423623136912
 20
-2163.045150669856
 30
0.0
 11
5314.699141710487
 21
-2163.831619969993
 31
0.0
 12
5312.201974523286
 22
-2164.264941040651
 32
0.0
 13
5312.201974523286
 23
-2164.264941040651
 33
0.0
  0
POINT
  5
525D9
330
52587
100
AcDbEntity
  8
DEFPOINTS
 62
     0
100
AcDbPoint
 10
5312.201974523286
 20
-2164.264941040651
 30
0.0
  0
POINT
  5
525DA
330
52587
100
AcDbEntity
  8
DEFPOINTS
 62
     0
100
AcDbPoint
 10
5365.099899650565
 20
-2145.733561781961
 30
0.0
  0
ENDBLK
  5
5258E
330
52587
100
AcDbEntity
  8
0
100
AcDbBlockEnd
  0
BLOCK
  5
52596
330
52590
100
AcDbEntity
  8
0
100
AcDbBlockBegin
  2
*D112
 70
     1
 10
0.0
 20
0.0
 30
0.0
  3
*D112
  1

  0
LINE
  5
525CC
330
52590
100
AcDbEntity
  8
Bem 1_10
 62
     0
370
    -2
100
AcDbLine
 10
5345.818768371229
 20
-2150.181112379812
 30
0.0
 11
5324.665083099933
 21
-2153.378689093838
 31
0.0
  0
MTEXT
  5
525CD
330
52590
100
AcDbEntity
  8
Bem 1_10
 62
     0
100
AcDbMText
 10
5338.709613437491
 20
-2149.148727322818
 30
0.0
 40
2.5
 41
0.0
 71
     5
 72
     1
  1
R44,05
 11
0.9887675561308862
 21
0.1494614329616675
 31
0.0
 73
     1
 44
1.0
1001
ACAD
1000
MTEXTBEGIN
1070
    73
1070
     1
1070
    44
1040
1.0
1070
    74
1070
     0
1000
MTEXTEND
  0
SOLID
  5
525CE
330
52590
100
AcDbEntity
  8
Bem 1_10
 62
     0
100
AcDbTrace
 10
5324.602807502865
 20
-2152.966702612117
 30
0.0
 11
5324.727358697
 21
-2153.790675575559
 31
0.0
 12
5322.193164209605
 22
-2153.752342676242
 32
0.0
 13
5322.193164209605
 23
-2153.752342676242
 33
0.0
  0
POINT
  5
525CF
330
52590
100
AcDbEntity
  8
DEFPOINTS
 62
     0
100
AcDbPoint
 10
5322.193164209605
 20
-2153.752342676242
 30
0.0
  0
POINT
  5
525D0
330
52590
100
AcDbEntity
  8
DEFPOINTS
 62
     0
100
AcDbPoint
 10
5365.748375057161
 20
-2147.168566554282
 30
0.0
  0
ENDBLK
  5
52597
330
52590
100
AcDbEntity
  8
0
100
AcDbBlockEnd
  0
BLOCK
  5
525AF
330
525A8
100
AcDbEntity
  8
0
100
AcDbBlockBegin
  2
*D113
 70
     1
 10
0.0
 20
0.0
 30
0.0
  3
*D113
  1

  0
LINE
  5
525A9
330
525A8
100
AcDbEntity
  8
Bem 1_10
 62
     0
370
    -2
100
AcDbLine
 10
5311.234964413723
 20
-2135.831570965923
 30
0.0
 11
5320.746161385318
 21
-2145.545837272154
 31
0.0
  0
MTEXT
  5
525AA
330
525A8
100
AcDbEntity
  8
Bem 1_10
 62
     0
100
AcDbMText
 10
5315.930075646349
 20
-2137.649028733104
 30
0.0
 40
2.5
 41
0.0
 71
     5
 72
     1
  1
R2,5
 11
0.6995989269532359
 21
-0.7145357523636457
 31
0.0
 73
     1
 44
1.0
1001
ACAD
1000
MTEXTBEGIN
1070
    73
1070
     1
1070
    44
1040
1.0
1070
    74
1070
     0
1000
MTEXTEND
  0
LINE
  5
525AB
330
525A8
100
AcDbEntity
  8
Bem 1_10
 62
     0
370
    -2
100
AcDbLine
 10
5324.244156020082
 20
-2149.118516033971
 30
0.0
 11
5322.4951587027
 21
-2147.332176653063
 31
0.0
  0
SOLID
  5
525AC
330
525A8
100
AcDbEntity
  8
Bem 1_10
 62
     0
100
AcDbTrace
 10
5321.043884615469
 20
-2145.254337719256
 30
0.0
 11
5320.448438155166
 21
-2145.837336825051
 31
0.0
 12
5322.4951587027
 22
-2147.332176653063
 32
0.0
 13
5322.4951587027
 23
-2147.332176653063
 33
0.0
  0
POINT
  5
525AD
330
525A8
100
AcDbEntity
  8
DEFPOINTS
 62
     0
100
AcDbPoint
 10
5322.4951587027
 20
-2147.332176653063
 30
0.0
  0
POINT
  5
525AE
330
525A8
100
AcDbEntity
  8
DEFPOINTS
 62
     0
100
AcDbPoint
 10
5324.244156020082
 20
-2149.118516033971
 30
0.0
  0
ENDBLK
  5
525B0
330
525A8
100
AcDbEntity
  8
0
100
AcDbBlockEnd
  0
BLOCK
  5
525B8
330
525B2
100
AcDbEntity
  8
0
100
AcDbBlockBegin
  2
*D114
 70
     1
 10
0.0
 20
0.0
 30
0.0
  3
*D114
  1

  0
LINE
  5
525B3
330
525B2
100
AcDbEntity
  8
Bem 1_10
 62
     0
370
    -2
100
AcDbLine
 10
5326.428015723639
 20
-2130.542367833481
 30
0.0
 11
5330.391972791313
 21
-2145.810743906967
 31
0.0
  0
MTEXT
  5
525B4
330
525B2
100
AcDbEntity
  8
Bem 1_10
 62
     0
100
AcDbMText
 10
5329.857995860711
 20
-2135.463357473488
 30
0.0
 40
2.5
 41
0.0
 71
     5
 72
     1
  1
R6,05
 11
0.2512882063261062
 21
-0.9679123087146935
 31
0.0
 73
     1
 44
1.0
1001
ACAD
1000
MTEXTBEGIN
1070
    73
1070
     1
1070
    44
1040
1.0
1070
    74
1070
     0
1000
MTEXTEND
  0
SOLID
  5
525B5
330
525B2
100
AcDbEntity
  8
Bem 1_10
 62
     0
100
AcDbTrace
 10
5330.795269586611
 20
-2145.706040487665
 30
0.0
 11
5329.988675996015
 21
-2145.91544732627
 31
0.0
 12
5331.020193307129
 22
-2148.230524678754
 32
0.0
 13
5331.020193307129
 23
-2148.230524678754
 33
0.0
  0
POINT
  5
525B6
330
525B2
100
AcDbEntity
  8
DEFPOINTS
 62
     0
100
AcDbPoint
 10
5331.020193307129
 20
-2148.230524678754
 30
0.0
  0
POINT
  5
525B7
330
525B2
100
AcDbEntity
  8
DEFPOINTS
 62
     0
100
AcDbPoint
 10
5329.499899658856
 20
-2142.37465521103
 30
0.0
  0
ENDBLK
  5
525B9
330
525B2
100
AcDbEntity
  8
0
100
AcDbBlockEnd
  0
BLOCK
  5
525C1
330
525BB
100
AcDbEntity
  8
0
100
AcDbBlockBegin
  2
*D115
 70
     1
 10
0.0
 20
0.0
 30
0.0
  3
*D115
  1

  0
LINE
  5
525BC
330
525BB
100
AcDbEntity
  8
Bem 1_10
 62
     0
370
    -2
100
AcDbLine
 10
5300.942817727527
 20
-2195.841407385095
 30
0.0
 11
5319.420466051639
 21
-2190.677850232303
 31
0.0
  0
MTEXT
  5
525BD
330
525BB
100
AcDbEntity
  8
Bem 1_10
 62
     0
100
AcDbMText
 10
5307.204084828596
 20
-2191.928553800053
 30
0.0
 40
2.5
 41
0.0
 71
     5
 72
     1
  1
R43,95
 11
0.9631017221149097
 21
0.2691376466778579
 31
0.0
 73
     1
 44
1.0
1001
ACAD
1000
MTEXTBEGIN
1070
    73
1070
     1
1070
    44
1040
1.0
1070
    74
1070
     0
1000
MTEXTEND
  0
SOLID
  5
525BE
330
525BB
100
AcDbEntity
  8
Bem 1_10
 62
     0
100
AcDbTrace
 10
5319.308325365523
 20
-2190.276557848088
 30
0.0
 11
5319.532606737755
 21
-2191.079142616517
 31
0.0
 12
5321.828220356926
 22
-2190.005006115608
 32
0.0
 13
5321.828220356926
 23
-2190.005006115608
 33
0.0
  0
POINT
  5
525BF
330
525BB
100
AcDbEntity
  8
DEFPOINTS
 62
     0
100
AcDbPoint
 10
5321.828220356926
 20
-2190.005006115608
 30
0.0
  0
POINT
  5
525C0
330
525BB
100
AcDbEntity
  8
DEFPOINTS
 62
     0
100
AcDbPoint
 10
5279.499899669975
 20
-2201.833605687101
 30
0.0
  0
ENDBLK
  5
525C2
330
525BB
100
AcDbEntity
  8
0
100
AcDbBlockEnd
  0
BLOCK
  5
525CA
330
525C4
100
AcDbEntity
  8
0
100
AcDbBlockBegin
  2
*D116
 70
     1
 10
0.0
 20
0.0
 30
0.0
  3
*D116
  1

  0
LINE
  5
525C5
330
525C4
100
AcDbEntity
  8
Bem 1_10
 62
     0
370
    -2
100
AcDbLine
 10
5303.757921167295
 20
-2199.7020143385
 30
0.0
 11
5332.844428825445
 21
-2197.146640012946
 31
0.0
  0
MTEXT
  5
525C6
330
525C4
100
AcDbEntity
  8
Bem 1_10
 62
     0
100
AcDbMText
 10
5310.424214381842
 20
-2197.024994062996
 30
0.0
 40
2.5
 41
0.0
 71
     5
 72
     1
  1
R56,05
 11
0.9961630095950134
 21
0.0875171886808839
 31
0.0
 73
     1
 44
1.0
1001
ACAD
1000
MTEXTBEGIN
1070
    73
1070
     1
1070
    44
1040
1.0
1070
    74
1070
     0
1000
MTEXTEND
  0
SOLID
  5
525C7
330
525C4
100
AcDbEntity
  8
Bem 1_10
 62
     0
100
AcDbTrace
 10
5332.807963330161
 20
-2196.731572092281
 30
0.0
 11
5332.880894320728
 21
-2197.56170793361
 31
0.0
 12
5335.334836349432
 22
-2196.927847041244
 32
0.0
 13
5335.334836349432
 23
-2196.927847041244
 33
0.0
  0
POINT
  5
525C8
330
525C4
100
AcDbEntity
  8
DEFPOINTS
 62
     0
100
AcDbPoint
 10
5335.334836349432
 20
-2196.927847041244
 30
0.0
  0
POINT
  5
525C9
330
525C4
100
AcDbEntity
  8
DEFPOINTS
 62
     0
100
AcDbPoint
 10
5279.499899661642
 20
-2201.833185466806
 30
0.0
  0
ENDBLK
  5
525CB
330
525C4
100
AcDbEntity
  8
0
100
AcDbBlockEnd
  0
BLOCK
  5
525E2
330
525DC
100
AcDbEntity
  8
0
100
AcDbBlockBegin
  2
*D117
 70
     1
 10
0.0
 20
0.0
 30
0.0
  3
*D117
  1

  0
LINE
  5
525DD
330
525DC
100
AcDbEntity
  8
Bem 1_10
 62
     0
370
    -2
100
AcDbLine
 10
5332.554514782597
 20
-2232.014024099992
 30
0.0
 11
5328.526947885733
 21
-2246.146677249252
 31
0.0
  0
MTEXT
  5
525DE
330
525DC
100
AcDbEntity
  8
Bem 1_10
 62
     0
100
AcDbMText
 10
5329.009304423653
 20
-2236.852658854611
 30
0.0
 40
2.5
 41
0.0
 71
     5
 72
     1
  1
R6,05
 11
0.2740709219511883
 21
0.9617094830253186
 31
0.0
 73
     1
 44
1.0
1001
ACAD
1000
MTEXTBEGIN
1070
    73
1070
     1
1070
    44
1040
1.0
1070
    74
1070
     0
1000
MTEXTEND
  0
SOLID
  5
525DF
330
525DC
100
AcDbEntity
  8
Bem 1_10
 62
     0
100
AcDbTrace
 10
5328.126235601138
 20
-2246.032481031772
 30
0.0
 11
5328.927660170327
 21
-2246.260873466732
 31
0.0
 12
5327.841770580854
 22
-2248.550950956815
 32
0.0
 13
5327.841770580854
 23
-2248.550950956815
 33
0.0
  0
POINT
  5
525E0
330
525DC
100
AcDbEntity
  8
DEFPOINTS
 62
     0
100
AcDbPoint
 10
5327.841770580854
 20
-2248.550950956815
 30
0.0
  0
POINT
  5
525E1
330
525DC
100
AcDbEntity
  8
DEFPOINTS
 62
     0
100
AcDbPoint
 10
5329.499899658658
 20
-2242.732608584514
 30
0.0
  0
ENDBLK
  5
525E3
330
525DC
100
AcDbEntity
  8
0
100
AcDbBlockEnd
  0
ENDSEC
  0
SECTION
  2
ENTITIES
  0
LINE
  5
511BC
102
{ACAD_REACTORS
330
514EB
102
}
330
2
100
AcDbEntity
  8
V1_035
  6
Continuous
100
AcDbLine
 10
5373.100009658664
 20
-1601.732574584513
 30
0.0
 11
5373.099975658664
 21
-1626.732574584513
 31
0.0
  0
LINE
  5
511BD
330
2
100
AcDbEntity
  8
V1_035
  6
Continuous
100
AcDbLine
 10
5207.099915658664
 20
-1626.732574584513
 30
0.0
 11
5373.099979658665
 21
-1626.732574584513
 31
0.0
  0
LINE
  5
511BE
330
2
100
AcDbEntity
  8
V1_035
  6
Continuous
100
AcDbLine
 10
5207.099915658664
 20
-1616.732574584513
 30
0.0
 11
5213.099899658664
 21
-1616.732574584513
 31
0.0
  0
LINE
  5
511BF
330
2
100
AcDbEntity
  8
V1_035
  6
Continuous
100
AcDbLine
 10
5213.099899658664
 20
-2326.734008584513
 30
0.0
 11
5213.099899658664
 21
-2326.734008584513
 31
0.0
  0
LINE
  5
511C0
330
2
100
AcDbEntity
  8
V1_035
  6
Continuous
100
AcDbLine
 10
5205.099883658665
 20
-2324.734008584513
 30
0.0
 11
5205.099883658665
 21
-2318.734008584513
 31
0.0
  0
LINE
  5
511C1
102
{ACAD_REACTORS
330
514E3
102
}
330
2
100
AcDbEntity
  8
V1_025
  6
Continuous
100
AcDbLine
 10
5368.099891658665
 20
-2317.734008584513
 30
0.0
 11
5368.099891658665
 21
-2340.734038584513
 31
0.0
  0
LINE
  5
511C2
102
{ACAD_REACTORS
330
514EB
102
}
330
2
100
AcDbEntity
  8
V1_025
  6
Continuous
100
AcDbLine
 10
5368.100013658665
 20
-1602.732574584513
 30
0.0
 11
5368.100013658665
 21
-1625.732574584513
 31
0.0
  0
LINE
  5
511C3
330
2
100
AcDbEntity
  8
V1_035
  6
Continuous
100
AcDbLine
 10
5207.099883658663
 20
-2326.734008584513
 30
0.0
 11
5213.099899658664
 21
-2326.734008584513
 31
0.0
  0
LINE
  5
511C5
330
2
100
AcDbEntity
  8
V1_015
  6
Continuous
100
AcDbLine
 10
5373.099841658664
 20
-2086.734008584513
 30
0.0
 11
5373.099879658663
 21
-2316.734008584513
 31
0.0
  0
LINE
  5
511C9
330
2
100
AcDbEntity
  8
V1_035
  6
Continuous
100
AcDbLine
 10
5207.099883658663
 20
-2316.734008584513
 30
0.0
 11
5373.099887658664
 21
-2316.734008584513
 31
0.0
  0
LINE
  5
511CB
330
2
100
AcDbEntity
  8
V1_035
  6
Continuous
100
AcDbLine
 10
5213.099899658664
 20
-2341.734038584514
 30
0.0
 11
5213.099899658664
 21
-2326.734008584513
 31
0.0
  0
LINE
  5
511CD
330
2
100
AcDbEntity
  8
V1_035
  6
Continuous
100
AcDbLine
 10
5213.099899658664
 20
-1601.732574584513
 30
0.0
 11
5213.099899658664
 21
-1616.732574584513
 31
0.0
  0
LINE
  5
511D2
330
2
100
AcDbEntity
  8
V1_015
  6
Continuous
100
AcDbLine
 10
5373.099749658664
 20
-1782.037444584513
 30
0.0
 11
5373.09984158887
 21
-2081.734008584513
 31
0.0
  0
LINE
  5
511E6
330
2
100
AcDbEntity
  8
Bem 1_10
  6
Continuous
100
AcDbLine
 10
5396.318669658665
 20
-1654.234528584512
 30
0.0
 11
5396.318669658665
 21
-1614.430634584512
 31
0.0
  0
LINE
  5
511E8
330
2
100
AcDbEntity
  8
Bem 1_10
  6
Continuous
100
AcDbLine
 10
5396.473291658665
 20
-1828.204510584513
 30
0.0
 11
5380.473291658663
 21
-1828.204510584513
 31
0.0
  0
LINE
  5
511E9
330
2
100
AcDbEntity
  8
Bem 1_10
  6
Continuous
100
AcDbLine
 10
5396.473291658665
 20
-1788.204512584513
 30
0.0
 11
5396.473291658665
 21
-1828.204510584513
 31
0.0
  0
LINE
  5
511EB
330
2
100
AcDbEntity
  8
V1_035
  6
Continuous
100
AcDbLine
 10
5205.099915658664
 20
-1618.732574584513
 30
0.0
 11
5205.099915658664
 21
-1624.732574584513
 31
0.0
  0
LINE
  5
511EC
330
2
100
AcDbEntity
  8
V1_035
  6
Continuous
100
AcDbLine
 10
5213.099945658664
 20
-1601.732574584513
 30
0.0
 11
5373.100005658663
 21
-1601.732574584513
 31
0.0
  0
LINE
  5
511EE
330
2
100
AcDbEntity
  8
V1_015
  6
Continuous
100
AcDbLine
 10
5373.099837658664
 20
-1626.732574584513
 30
0.0
 11
5373.099769658664
 21
-1776.734008584513
 31
0.0
  0
LINE
  5
511F0
330
2
100
AcDbEntity
  8
V1_035
  6
Continuous
100
AcDbLine
 10
5213.099807658664
 20
-2341.734038584514
 30
0.0
 11
5373.099765658665
 21
-2341.734038584514
 31
0.0
  0
LINE
  5
511F1
102
{ACAD_REACTORS
330
514E3
102
}
330
2
100
AcDbEntity
  8
V1_035
  6
Continuous
100
AcDbLine
 10
5373.099879658663
 20
-2316.734008584513
 30
0.0
 11
5373.099887658664
 21
-2341.734038584514
 31
0.0
  0
LINE
  5
511F2
330
2
100
AcDbEntity
  8
V1_035
  6
Continuous
100
AcDbLine
 10
5207.099883658663
 20
-2326.734008584513
 30
0.0
 11
5205.099883658665
 21
-2324.734008584513
 31
0.0
  0
LINE
  5
511F3
330
2
100
AcDbEntity
  8
V1_035
  6
Continuous
100
AcDbLine
 10
5205.099883658665
 20
-2318.734008584513
 30
0.0
 11
5207.099883658663
 21
-2316.734008584513
 31
0.0
  0
LINE
  5
511F4
330
2
100
AcDbEntity
  8
V1_035
  6
Continuous
100
AcDbLine
 10
5207.099915658664
 20
-1626.732574584513
 30
0.0
 11
5205.099915658664
 21
-1624.732574584513
 31
0.0
  0
LINE
  5
511F5
330
2
100
AcDbEntity
  8
V1_035
  6
Continuous
100
AcDbLine
 10
5205.099915658664
 20
-1618.732574584513
 30
0.0
 11
5207.099915658664
 21
-1616.732574584513
 31
0.0
  0
LINE
  5
511F6
102
{ACAD_REACTORS
330
514EB
102
}
330
2
100
AcDbEntity
  8
V1_025
  6
Continuous
100
AcDbLine
 10
5213.099945658664
 20
-1602.732574584513
 30
0.0
 11
5373.100005658663
 21
-1602.732574584513
 31
0.0
  0
LINE
  5
511F7
102
{ACAD_REACTORS
330
514EB
102
}
330
2
100
AcDbEntity
  8
V1_025
  6
Continuous
100
AcDbLine
 10
5206.099915658664
 20
-1625.732574584513
 30
0.0
 11
5373.099979658665
 21
-1625.732574584513
 31
0.0
  0
LINE
  5
511F8
102
{ACAD_REACTORS
330
514E3
102
}
330
2
100
AcDbEntity
  8
V1_025
  6
Continuous
100
AcDbLine
 10
5206.099883658664
 20
-2317.734008584513
 30
0.0
 11
5373.099887658664
 21
-2317.734008584513
 31
0.0
  0
LINE
  5
511F9
102
{ACAD_REACTORS
330
514E3
102
}
330
2
100
AcDbEntity
  8
V1_025
  6
Continuous
100
AcDbLine
 10
5213.099807658664
 20
-2340.734038584513
 30
0.0
 11
5373.099765658665
 21
-2340.734038584513
 31
0.0
  0
LINE
  5
511FA
330
2
100
AcDbEntity
  8
Bem 1_10
  6
Continuous
100
AcDbLine
 10
5380.318669658663
 20
-1654.234528584512
 30
0.0
 11
5380.318669658663
 21
-1614.230652584512
 31
0.0
  0
LINE
  5
511FB
330
2
100
AcDbEntity
  8
Bem 1_10
  6
Continuous
100
AcDbLine
 10
5380.318669658663
 20
-1614.230652584512
 30
0.0
 11
5396.318669658665
 21
-1614.230652584512
 31
0.0
  0
LINE
  5
511FC
330
2
100
AcDbEntity
  8
Bem 1_10
  6
Continuous
100
AcDbLine
 10
5380.318669658663
 20
-1654.234528584512
 30
0.0
 11
5396.318669658665
 21
-1654.234528584512
 31
0.0
  0
LINE
  5
511FD
330
2
100
AcDbEntity
  8
Bem 1_10
  6
Continuous
100
AcDbLine
 10
5396.473291658665
 20
-1788.204512584513
 30
0.0
 11
5380.473291658663
 21
-1788.204512584513
 31
0.0
  0
LINE
  5
511FE
330
2
100
AcDbEntity
  8
Bem 1_10
  6
Continuous
100
AcDbLine
 10
5380.473291658663
 20
-1788.204512584513
 30
0.0
 11
5380.473291658663
 21
-1828.204510584513
 31
0.0
  0
CIRCLE
  5
5122D
330
2
100
AcDbEntity
  8
0
  6
Continuous
100
AcDbCircle
 10
5213.099807658664
 20
-2026.732608584513
 30
0.0
 40
4.48
  0
LINE
  5
5129C
330
2
100
AcDbEntity
  8
Planrand
  6
Continuous
100
AcDbLine
 10
5122.049819658664
 20
-1566.343200584513
 30
0.0
 11
5696.049819658664
 21
-1566.343200584513
 31
0.0
  0
LINE
  5
5129D
330
2
100
AcDbEntity
  8
Planrand
  6
Continuous
100
AcDbLine
 10
5122.049819658664
 20
-2386.343200584513
 30
0.0
 11
5122.049819658664
 21
-1566.343200584513
 31
0.0
  0
LINE
  5
5129E
330
2
100
AcDbEntity
  8
Planrand
  6
Continuous
100
AcDbLine
 10
5122.049819658664
 20
-2386.343200584513
 30
0.0
 11
5696.049819658664
 21
-2386.343200584513
 31
0.0
  0
LINE
  5
5129F
330
2
100
AcDbEntity
  8
Planrand
  6
Continuous
100
AcDbLine
 10
5696.049819658664
 20
-2386.343200584513
 30
0.0
 11
5696.049819658664
 21
-1566.343200584513
 31
0.0
  0
HATCH
  5
514C3
330
2
100
AcDbEntity
  8
V1_015 schimmer
100
AcDbHatch
 10
0.0
 20
0.0
 30
0.0
210
0.0
220
0.0
230
1.0
  2
ANSI31
 70
     0
 71
     0
 91
        2
 92
        7
 72
     1
 73
     1
 93
        8
 10
5368.100013658665
 20
-1602.732574584513
 42
0.0
 10
5213.099945658665
 20
-1602.732574584513
 42
0.0
 10
5213.099945658665
 20
-1625.732574584513
 42
0.0
 10
5322.458910438347
 20
-1625.732574584513
 42
-0.411625091493294
 10
5324.44129687898
 20
-1625.732574584513
 42
0.0
 10
5334.558916438348
 20
-1625.732574584513
 42
-0.411625091493294
 10
5336.54130287898
 20
-1625.732574584513
 42
0.0
 10
5368.100013658664
 20
-1625.732574584513
 42
0.0
 97
        0
 92
        7
 72
     0
 73
     1
 93
        6
 10
5213.099945658664
 20
-1616.732574584513
 10
5207.099915658664
 20
-1616.732574584513
 10
5205.099915658664
 20
-1618.732574584513
 10
5205.099915658664
 20
-1624.732574584513
 10
5206.099915658664
 20
-1625.732574584513
 10
5213.099945658664
 20
-1625.732574584513
 97
        0
 75
     0
 76
     1
 52
45.0
 41
40.0
 77
     0
 78
     1
 53
90.0
 43
0.0001380000003337
 44
0.0
 45
-5.0
 46
0.0000000000000009
 79
     0
 47
0.2664930847152607
 98
        2
 10
5268.252478029936
 20
-1615.15575750159
 10
5210.406639996129
 20
-1622.084579132464
1001
ACAD
1010
0.0
1020
0.0
1030
0.0
  0
HATCH
  5
514DC
330
2
100
AcDbEntity
  8
V1_015 schimmer
100
AcDbHatch
 10
0.0
 20
0.0
 30
0.0
210
0.0
220
0.0
230
1.0
  2
ANSI31
 70
     0
 71
     0
 91
        2
 92
        7
 72
     0
 73
     1
 93
        6
 10
5368.099891658665
 20
-2317.734008584513
 10
5213.099807658663
 20
-2317.734008584513
 10
5213.099807658664
 20
-2326.734008584513
 10
5213.099899658664
 20
-2326.734008584513
 10
5213.099899658664
 20
-2340.734038584513
 10
5368.099891658665
 20
-2340.734038584513
 97
        0
 92
        7
 72
     0
 73
     1
 93
        6
 10
5213.099807658664
 20
-2317.734008584513
 10
5206.099883658665
 20
-2317.734008584513
 10
5205.099883658665
 20
-2318.734008584513
 10
5205.099883658665
 20
-2324.734008584513
 10
5207.099883658663
 20
-2326.734008584513
 10
5213.099807658664
 20
-2326.734008584513
 97
        0
 75
     0
 76
     1
 52
45.0
 41
40.0
 77
     0
 78
     1
 53
90.0
 43
0.0
 44
0.0
 45
-5.0
 46
0.0000000000000009
 79
     0
 47
0.2517778373638737
 98
        2
 10
5306.587659454875
 20
-2332.461219948898
 10
5209.624952321831
 20
-2321.886547332049
1001
ACAD
1010
0.0
1020
0.0
1030
0.0
  0
HATCH
  5
514E3
330
2
100
AcDbEntity
  8
V1_015 schimmer
100
AcDbHatch
 10
0.0
 20
0.0
 30
0.0
210
0.0
220
0.0
230
1.0
  2
ANSI31
 70
     0
 71
     1
 91
        1
 92
        7
 72
     0
 73
     1
 93
        4
 10
5373.099879978664
 20
-2317.734008584513
 10
5368.099891658662
 20
-2317.734008584513
 10
5368.099891658662
 20
-2340.734038584513
 10
5373.099887338664
 20
-2340.734038584513
 97
        4
330
511F8
330
511C1
330
511F9
330
511F1
 75
     0
 76
     1
 52
0.0
 41
30.0
 77
     0
 78
     1
 53
45.0
 43
0.0
 44
0.0
 45
-2.65165042944955
 46
2.651650429449553
 79
     0
 47
0.0525901125123885
 98
        1
 10
5369.826080739361
 20
-2326.812697925999
1001
ACAD
1010
0.0
1020
0.0
1030
0.0
  0
HATCH
  5
514EB
330
2
100
AcDbEntity
  8
V1_015 schimmer
100
AcDbHatch
 10
0.0
 20
0.0
 30
0.0
210
0.0
220
0.0
230
1.0
  2
ANSI31
 70
     0
 71
     1
 91
        1
 92
        7
 72
     0
 73
     1
 93
        4
 10
5368.100013658665
 20
-1625.732574584513
 10
5373.099977018665
 20
-1625.732574584513
 10
5373.100008298663
 20
-1602.732574584513
 10
5368.100013658665
 20
-1602.732574584513
 97
        4
330
511F6
330
511C2
330
511F7
330
511BC
 75
     0
 76
     1
 52
0.0
 41
30.0
 77
     0
 78
     1
 53
45.0
 43
0.0001380000003337
 44
0.0
 45
-2.65165042944955
 46
2.651650429449553
 79
     0
 47
0.0916404500378839
 98
        1
 10
5369.967287884513
 20
-1614.768074826601
1001
ACAD
1010
0.0
1020
0.0
1030
0.0
  0
LWPOLYLINE
  5
516E3
330
2
100
AcDbEntity
  8
V1_015
100
AcDbPolyline
 90
        3
 70
     0
 43
0.0
 10
5213.099807658664
 20
-2341.734038584514
 10
5205.099807658664
 20
-2341.734038584514
 10
5205.099807658664
 20
-2086.734008584513
  0
LWPOLYLINE
  5
516E4
330
2
100
AcDbEntity
  8
V1_015
100
AcDbPolyline
 90
        2
 70
     0
 43
0.0
 10
5205.099807658664
 20
-2081.734008584513
 10
5205.099807658664
 20
-1781.734008584513
  0
LWPOLYLINE
  5
516E5
330
2
100
AcDbEntity
  8
V1_015
100
AcDbPolyline
 90
        3
 70
     0
 43
0.0
 10
5205.099807658664
 20
-1776.734008584513
 10
5205.099807658664
 20
-1601.732574584513
 10
5213.099899658664
 20
-1601.732574584513
  0
LINE
  5
516E6
330
2
100
AcDbEntity
  8
Achse
100
AcDbLine
 10
5213.099899658664
 20
-2361.894132221456
 30
0.0
 11
5213.099899658664
 21
-1584.464819451262
 31
0.0
  0
LINE
  5
516E7
330
2
100
AcDbEntity
  8
Achse
100
AcDbLine
 10
5161.363921658665
 20
-2026.732608584513
 30
0.0
 11
5431.780219658666
 21
-2026.732608584513
 31
0.0
  0
LINE
  5
516E8
330
2
100
AcDbEntity
  8
Achse
100
AcDbLine
 10
5161.363921658665
 20
-1666.732604584513
 30
0.0
 11
5431.780219658666
 21
-1666.732604584513
 31
0.0
  0
LINE
  5
51743
330
2
100
AcDbEntity
  8
Achse
100
AcDbLine
 10
5195.099777658664
 20
-2266.732604584513
 30
0.0
 11
5378.099843658664
 21
-2266.732604584513
 31
0.0
  0
LINE
  5
51744
330
2
100
AcDbEntity
  8
Achse
100
AcDbLine
 10
5195.099777658664
 20
-2261.732604584514
 30
0.0
 11
5378.099843658664
 21
-2261.732604584514
 31
0.0
  0
LINE
  5
51745
330
2
100
AcDbEntity
  8
Achse
100
AcDbLine
 10
5195.099777658664
 20
-1861.732612584512
 30
0.0
 11
5378.099843658664
 21
-1861.732612584512
 31
0.0
  0
LINE
  5
51746
330
2
100
AcDbEntity
  8
Achse
100
AcDbLine
 10
5195.099777658664
 20
-1856.732612584512
 30
0.0
 11
5378.099843658664
 21
-1856.732612584512
 31
0.0
  0
DIMENSION
  5
51748
330
2
100
AcDbEntity
  8
Bem 1_10
100
AcDbDimension
  2
*D3
 10
5402.025887898084
 20
-1601.732574584512
 30
0.0
 11
5402.025887898084
 21
-1634.232589584511
 31
0.0
 70
    32
  1
 
 71
     5
 42
65.0000300000006
  3
Bemassungsstil Karl
100
AcDbAlignedDimension
 13
5373.099765658665
 23
-1666.732604584513
 33
0.0
 14
5373.099873049969
 24
-1601.732574584512
 34
0.0
 50
90.0
100
AcDbRotatedDimension
  0
DIMENSION
  5
5175D
330
2
100
AcDbEntity
  8
Bem 1_10
100
AcDbDimension
  2
*D4
 10
5402.025887898084
 20
-1666.732604584513
 30
0.0
 11
5402.025887898084
 21
-1846.732606584512
 31
0.0
 70
    32
  1
 
 71
     5
 42
360.0000040000002
  3
Bemassungsstil Karl
100
AcDbAlignedDimension
 13
5373.099873049969
 23
-2026.732608584513
 33
0.0
 14
5373.099803638871
 24
-1666.732604584513
 34
0.0
 50
90.0
100
AcDbRotatedDimension
1001
ACAD
1000
DSTYLE
1002
{
1070
   279
1070
     1
1002
}
  0
MTEXT
  5
517AD
330
2
100
AcDbEntity
  8
0
100
AcDbMText
 10
5164.097763658664
 20
-1997.943566415422
 30
0.0
 40
20.0
 41
19.57517763327359
 71
     1
 72
     5
  1
b
  7
Beschlag
 73
     1
 44
1.0
1001
ACAD
1000
MTEXTBEGIN
1070
    73
1070
     1
1070
    44
1040
1.0
1070
    74
1070
     0
1000
MTEXTEND
  0
MTEXT
  5
517AF
330
2
100
AcDbEntity
  8
0
100
AcDbMText
 10
5419.509525149685
 20
-1997.943566415422
 30
0.0
 40
20.0
 41
19.57517763327359
 71
     1
 72
     5
  1
b
  7
Beschlag
 73
     1
 44
1.0
1001
ACAD
1000
MTEXTBEGIN
1070
    73
1070
     1
1070
    44
1040
1.0
1070
    74
1070
     0
1000
MTEXTEND
  0
MTEXT
  5
517B0
330
2
100
AcDbEntity
  8
0
100
AcDbMText
 10
5164.097763658664
 20
-1637.943562415422
 30
0.0
 40
20.0
 41
19.57517763327359
 71
     1
 72
     5
  1
c
  7
Beschlag
 73
     1
 44
1.0
1001
ACAD
1000
MTEXTBEGIN
1070
    73
1070
     1
1070
    44
1040
1.0
1070
    74
1070
     0
1000
MTEXTEND
  0
MTEXT
  5
517B1
330
2
100
AcDbEntity
  8
0
100
AcDbMText
 10
5419.509525149685
 20
-1637.943562415422
 30
0.0
 40
20.0
 41
19.57517763327359
 71
     1
 72
     5
  1
c
  7
Beschlag
 73
     1
 44
1.0
1001
ACAD
1000
MTEXTBEGIN
1070
    73
1070
     1
1070
    44
1040
1.0
1070
    74
1070
     0
1000
MTEXTEND
  0
MTEXT
  5
517B2
330
2
100
AcDbEntity
  8
0
100
AcDbMText
 10
5221.034697658664
 20
-2346.708961429261
 30
0.0
 40
20.0
 41
19.57517763327359
 71
     1
 72
     5
  1
a
  7
Beschlag
 73
     1
 44
1.0
1001
ACAD
1000
MTEXTBEGIN
1070
    73
1070
     1
1070
    44
1040
1.0
1070
    74
1070
     0
1000
MTEXTEND
  0
MTEXT
  5
517B3
330
2
100
AcDbEntity
  8
0
100
AcDbMText
 10
5221.034697658664
 20
-1572.657611228072
 30
0.0
 40
20.0
 41
19.57517763327359
 71
     1
 72
     5
  1
a
  7
Beschlag
 73
     1
 44
1.0
1001
ACAD
1000
MTEXTBEGIN
1070
    73
1070
     1
1070
    44
1040
1.0
1070
    74
1070
     0
1000
MTEXTEND
  0
MTEXT
  5
517B4
102
{ACAD_XDICTIONARY
360
525F9
102
}
330
2
100
AcDbEntity
  8
0
100
AcDbMText
 10
5382.994117693026
 20
-1893.847572785133
 30
0.0
 40
10.0
 41
19.57517763327359
 71
     1
 72
     5
  1
{\fArial|b0|i0|c238|p34;Fl\U+00FCgelh\U+00F6he}
  7
Beschlag
 11
0.0000000000000001
 21
1.0
 31
0.0
 73
     1
 44
1.0
1001
ACAD
1000
MTEXTBEGIN
1070
    73
1070
     1
1070
    44
1040
1.0
1070
    74
1070
     0
1000
MTEXTEND
  0
LINE
  5
52374
330
2
100
AcDbEntity
  8
0
  6
Continuous
100
AcDbLine
 10
5472.063613658662
 20
-1625.101806584513
 30
0.0
 11
5472.063613658662
 21
-1633.101806584513
 31
0.0
  0
LINE
  5
52375
330
2
100
AcDbEntity
  8
0
  6
Continuous
100
AcDbLine
 10
5484.063613658662
 20
-1625.101806584513
 30
0.0
 11
5484.063613658662
 21
-1633.101806584513
 31
0.0
  0
LINE
  5
52376
330
2
100
AcDbEntity
  8
0
  6
Continuous
100
AcDbLine
 10
5528.063613658662
 20
-1625.101806584513
 30
0.0
 11
5528.063613658662
 21
-1633.101806584513
 31
0.0
  0
LINE
  5
52377
330
2
100
AcDbEntity
  8
0
  6
Continuous
100
AcDbLine
 10
5572.063613658663
 20
-1625.101806584513
 30
0.0
 11
5572.063613658663
 21
-1633.101806584513
 31
0.0
  0
LINE
  5
52378
330
2
100
AcDbEntity
  8
0
  6
Continuous
100
AcDbLine
 10
5472.063613658662
 20
-1661.101806584513
 30
0.0
 11
5572.063613658663
 21
-1661.101806584513
 31
0.0
  0
LINE
  5
52379
330
2
100
AcDbEntity
  8
0
  6
Continuous
100
AcDbLine
 10
5472.063613658662
 20
-1669.101806584513
 30
0.0
 11
5572.063613658663
 21
-1669.101806584513
 31
0.0
  0
LINE
  5
5237A
330
2
100
AcDbEntity
  8
0
  6
Continuous
100
AcDbLine
 10
5472.063613658662
 20
-1653.101806584513
 30
0.0
 11
5572.063613658663
 21
-1653.101806584513
 31
0.0
  0
LINE
  5
5237B
330
2
100
AcDbEntity
  8
0
  6
Continuous
100
AcDbLine
 10
5472.063613658662
 20
-1677.101806584513
 30
0.0
 11
5572.063613658663
 21
-1677.101806584513
 31
0.0
  0
LINE
  5
5237C
330
2
100
AcDbEntity
  8
0
  6
Continuous
100
AcDbLine
 10
5472.063613658662
 20
-1685.101806584513
 30
0.0
 11
5572.063613658663
 21
-1685.101806584513
 31
0.0
  0
LINE
  5
5237D
330
2
100
AcDbEntity
  8
0
  6
Continuous
100
AcDbLine
 10
5472.063613658662
 20
-1693.101806584513
 30
0.0
 11
5572.063613658663
 21
-1693.101806584513
 31
0.0
  0
LINE
  5
5237E
330
2
100
AcDbEntity
  8
0
  6
Continuous
100
AcDbLine
 10
5472.063613658662
 20
-1701.101806584513
 30
0.0
 11
5572.063613658663
 21
-1701.101806584513
 31
0.0
  0
LINE
  5
5237F
330
2
100
AcDbEntity
  8
0
  6
Continuous
100
AcDbLine
 10
5472.063613658662
 20
-1709.101806584513
 30
0.0
 11
5572.063613658663
 21
-1709.101806584513
 31
0.0
  0
LINE
  5
52380
330
2
100
AcDbEntity
  8
0
  6
Continuous
100
AcDbLine
 10
5472.063613658662
 20
-1717.101806584513
 30
0.0
 11
5572.063613658663
 21
-1717.101806584513
 31
0.0
  0
LINE
  5
52381
330
2
100
AcDbEntity
  8
0
  6
Continuous
100
AcDbLine
 10
5472.063613658662
 20
-1725.101822584513
 30
0.0
 11
5572.063613658663
 21
-1725.101822584513
 31
0.0
  0
LINE
  5
52382
330
2
100
AcDbEntity
  8
0
  6
Continuous
100
AcDbLine
 10
5472.063613658662
 20
-1733.101822584513
 30
0.0
 11
5572.063613658663
 21
-1733.101822584513
 31
0.0
  0
LINE
  5
52383
330
2
100
AcDbEntity
  8
0
  6
Continuous
100
AcDbLine
 10
5472.063613658662
 20
-1645.101806584513
 30
0.0
 11
5572.063613658663
 21
-1645.101806584513
 31
0.0
  0
LINE
  5
52384
330
2
100
AcDbEntity
  8
0
  6
Continuous
100
AcDbLine
 10
5472.063613658662
 20
-1637.101806584513
 30
0.0
 11
5572.063613658663
 21
-1637.101806584513
 31
0.0
  0
LINE
  5
52385
330
2
100
AcDbEntity
  8
0
  6
Continuous
100
AcDbLine
 10
5472.063613658662
 20
-1625.101806584513
 30
0.0
 11
5572.063613658663
 21
-1625.101806584513
 31
0.0
  0
LINE
  5
52386
330
2
100
AcDbEntity
  8
0
  6
Continuous
100
AcDbLine
 10
5472.063613658662
 20
-1741.101822584513
 30
0.0
 11
5572.063613658663
 21
-1741.101822584513
 31
0.0
  0
LINE
  5
52387
330
2
100
AcDbEntity
  8
0
  6
Continuous
100
AcDbLine
 10
5472.063613658662
 20
-1633.101806584513
 30
0.0
 11
5572.063613658663
 21
-1633.101806584513
 31
0.0
  0
LINE
  5
52388
330
2
100
AcDbEntity
  8
0
  6
Continuous
100
AcDbLine
 10
5528.063613658662
 20
-1637.101806584513
 30
0.0
 11
5528.063613658662
 21
-1741.101822584513
 31
0.0
  0
LINE
  5
52389
330
2
100
AcDbEntity
  8
0
  6
Continuous
100
AcDbLine
 10
5572.063613658663
 20
-1637.101806584513
 30
0.0
 11
5572.063613658663
 21
-1741.101822584513
 31
0.0
  0
LINE
  5
5238A
330
2
100
AcDbEntity
  8
0
  6
Continuous
100
AcDbLine
 10
5484.063613658662
 20
-1637.101806584513
 30
0.0
 11
5484.063613658662
 21
-1741.101822584513
 31
0.0
  0
LINE
  5
5238B
330
2
100
AcDbEntity
  8
0
  6
Continuous
100
AcDbLine
 10
5472.063613658662
 20
-1637.101806584513
 30
0.0
 11
5472.063613658662
 21
-1741.101822584513
 31
0.0
  0
LINE
  5
5238C
330
2
100
AcDbEntity
  8
0
  6
Continuous
100
AcDbLine
 10
5472.063613658662
 20
-1861.101822584513
 30
0.0
 11
5572.063613658663
 21
-1861.101822584513
 31
0.0
  0
LINE
  5
5238D
330
2
100
AcDbEntity
  8
0
  6
Continuous
100
AcDbLine
 10
5472.063613658662
 20
-1869.101822584513
 30
0.0
 11
5572.063613658663
 21
-1869.101822584513
 31
0.0
  0
LINE
  5
5238E
330
2
100
AcDbEntity
  8
0
  6
Continuous
100
AcDbLine
 10
5472.063613658662
 20
-1877.101822584513
 30
0.0
 11
5572.063613658663
 21
-1877.101822584513
 31
0.0
  0
LINE
  5
5238F
330
2
100
AcDbEntity
  8
0
  6
Continuous
100
AcDbLine
 10
5472.063613658662
 20
-1885.101822584513
 30
0.0
 11
5572.063613658663
 21
-1885.101822584513
 31
0.0
  0
LINE
  5
52390
330
2
100
AcDbEntity
  8
0
  6
Continuous
100
AcDbLine
 10
5472.063613658662
 20
-1893.101822584513
 30
0.0
 11
5572.063613658663
 21
-1893.101822584513
 31
0.0
  0
LINE
  5
52391
330
2
100
AcDbEntity
  8
0
  6
Continuous
100
AcDbLine
 10
5472.063613658662
 20
-1901.101822584513
 30
0.0
 11
5572.063613658663
 21
-1901.101822584513
 31
0.0
  0
LINE
  5
52392
330
2
100
AcDbEntity
  8
0
  6
Continuous
100
AcDbLine
 10
5472.063613658662
 20
-1909.101822584513
 30
0.0
 11
5572.063613658663
 21
-1909.101822584513
 31
0.0
  0
LINE
  5
52393
330
2
100
AcDbEntity
  8
0
  6
Continuous
100
AcDbLine
 10
5472.063613658662
 20
-1917.101822584513
 30
0.0
 11
5572.063613658663
 21
-1917.101822584513
 31
0.0
  0
LINE
  5
52394
330
2
100
AcDbEntity
  8
0
  6
Continuous
100
AcDbLine
 10
5472.063613658662
 20
-1925.101822584513
 30
0.0
 11
5572.063613658663
 21
-1925.101822584513
 31
0.0
  0
LINE
  5
52395
330
2
100
AcDbEntity
  8
0
  6
Continuous
100
AcDbLine
 10
5472.063613658662
 20
-1933.101822584513
 30
0.0
 11
5572.063613658663
 21
-1933.101822584513
 31
0.0
  0
LINE
  5
52396
330
2
100
AcDbEntity
  8
0
  6
Continuous
100
AcDbLine
 10
5472.063613658662
 20
-1941.101822584513
 30
0.0
 11
5572.063613658663
 21
-1941.101822584513
 31
0.0
  0
LINE
  5
52397
330
2
100
AcDbEntity
  8
0
  6
Continuous
100
AcDbLine
 10
5472.063613658662
 20
-1949.101822584513
 30
0.0
 11
5572.063613658663
 21
-1949.101822584513
 31
0.0
  0
LINE
  5
52398
330
2
100
AcDbEntity
  8
0
  6
Continuous
100
AcDbLine
 10
5472.063613658662
 20
-1957.101822584513
 30
0.0
 11
5572.063613658663
 21
-1957.101822584513
 31
0.0
  0
LINE
  5
52399
330
2
100
AcDbEntity
  8
0
  6
Continuous
100
AcDbLine
 10
5472.063613658662
 20
-1757.101822584513
 30
0.0
 11
5572.063613658663
 21
-1757.101822584513
 31
0.0
  0
LINE
  5
5239A
330
2
100
AcDbEntity
  8
0
  6
Continuous
100
AcDbLine
 10
5472.063613658662
 20
-1765.101822584513
 30
0.0
 11
5572.063613658663
 21
-1765.101822584513
 31
0.0
  0
LINE
  5
5239B
330
2
100
AcDbEntity
  8
0
  6
Continuous
100
AcDbLine
 10
5472.063613658662
 20
-1773.101822584513
 30
0.0
 11
5572.063613658663
 21
-1773.101822584513
 31
0.0
  0
LINE
  5
5239C
330
2
100
AcDbEntity
  8
0
  6
Continuous
100
AcDbLine
 10
5472.063613658662
 20
-1749.101822584513
 30
0.0
 11
5572.063613658663
 21
-1749.101822584513
 31
0.0
  0
LINE
  5
5239D
330
2
100
AcDbEntity
  8
0
  6
Continuous
100
AcDbLine
 10
5472.063613658662
 20
-1749.101822584513
 30
0.0
 11
5472.063613658662
 21
-1957.101822584513
 31
0.0
  0
LINE
  5
5239E
330
2
100
AcDbEntity
  8
0
  6
Continuous
100
AcDbLine
 10
5484.063613658662
 20
-1749.101822584513
 30
0.0
 11
5484.063613658662
 21
-1957.101822584513
 31
0.0
  0
LINE
  5
5239F
330
2
100
AcDbEntity
  8
0
  6
Continuous
100
AcDbLine
 10
5528.063613658662
 20
-1749.101822584513
 30
0.0
 11
5528.063613658662
 21
-1957.101822584513
 31
0.0
  0
LINE
  5
523A0
330
2
100
AcDbEntity
  8
0
  6
Continuous
100
AcDbLine
 10
5572.063613658663
 20
-1749.101822584513
 30
0.0
 11
5572.063613658663
 21
-1957.101822584513
 31
0.0
  0
LINE
  5
523A1
330
2
100
AcDbEntity
  8
0
  6
Continuous
100
AcDbLine
 10
5472.063613658662
 20
-1829.101822584513
 30
0.0
 11
5572.063613658663
 21
-1829.101822584513
 31
0.0
  0
LINE
  5
523A2
330
2
100
AcDbEntity
  8
0
  6
Continuous
100
AcDbLine
 10
5472.063613658662
 20
-1837.101822584513
 30
0.0
 11
5572.063613658663
 21
-1837.101822584513
 31
0.0
  0
LINE
  5
523A3
330
2
100
AcDbEntity
  8
0
  6
Continuous
100
AcDbLine
 10
5472.063613658662
 20
-1845.101822584513
 30
0.0
 11
5572.063613658663
 21
-1845.101822584513
 31
0.0
  0
LINE
  5
523A4
330
2
100
AcDbEntity
  8
0
  6
Continuous
100
AcDbLine
 10
5472.063613658662
 20
-1853.101822584513
 30
0.0
 11
5572.063613658663
 21
-1853.101822584513
 31
0.0
  0
LINE
  5
523A5
330
2
100
AcDbEntity
  8
0
  6
Continuous
100
AcDbLine
 10
5472.063613658662
 20
-1821.101822584513
 30
0.0
 11
5572.063613658663
 21
-1821.101822584513
 31
0.0
  0
LINE
  5
523A6
330
2
100
AcDbEntity
  8
0
  6
Continuous
100
AcDbLine
 10
5472.063613658662
 20
-1813.101822584513
 30
0.0
 11
5572.063613658663
 21
-1813.101822584513
 31
0.0
  0
LINE
  5
523A7
330
2
100
AcDbEntity
  8
0
  6
Continuous
100
AcDbLine
 10
5472.063613658662
 20
-1805.101822584513
 30
0.0
 11
5572.063613658663
 21
-1805.101822584513
 31
0.0
  0
LINE
  5
523A8
330
2
100
AcDbEntity
  8
0
  6
Continuous
100
AcDbLine
 10
5472.063613658662
 20
-1797.101822584513
 30
0.0
 11
5572.063613658663
 21
-1797.101822584513
 31
0.0
  0
LINE
  5
523A9
330
2
100
AcDbEntity
  8
0
  6
Continuous
100
AcDbLine
 10
5472.063613658662
 20
-1789.101822584513
 30
0.0
 11
5572.063613658663
 21
-1789.101822584513
 31
0.0
  0
LINE
  5
523AA
330
2
100
AcDbEntity
  8
0
  6
Continuous
100
AcDbLine
 10
5472.063613658662
 20
-1781.101822584513
 30
0.0
 11
5572.063613658663
 21
-1781.101822584513
 31
0.0
  0
TEXT
  5
523AB
330
2
100
AcDbEntity
  8
0
  6
Continuous
100
AcDbText
 10
5474.563613658663
 20
-1667.601806584513
 30
0.0
 40
5.0
  1
 3
 41
0.8
  7
MICROCADAM
100
AcDbText
  0
TEXT
  5
523AC
330
2
100
AcDbEntity
  8
0
  6
Continuous
100
AcDbText
 10
5474.563613658663
 20
-1659.601806584513
 30
0.0
 40
5.0
  1
 2
 41
0.8
  7
MICROCADAM
100
AcDbText
  0
TEXT
  5
523AD
330
2
100
AcDbEntity
  8
0
  6
Continuous
100
AcDbText
 10
5474.563613658663
 20
-1651.601806584513
 30
0.0
 40
5.0
  1
 1
 41
0.8
  7
MICROCADAM
100
AcDbText
  0
TEXT
  5
523AE
330
2
100
AcDbEntity
  8
0
  6
Continuous
100
AcDbText
 10
5490.563613658663
 20
-1651.601806584513
 30
0.0
 40
5.0
  1
  0.950
 41
0.8
  7
MICROCADAM
100
AcDbText
  0
TEXT
  5
523AF
330
2
100
AcDbEntity
  8
0
  6
Continuous
100
AcDbText
 10
5533.563613658663
 20
-1651.601806584513
 30
0.0
 40
5.0
  1
-  6.498
 41
0.8
  7
MICROCADAM
100
AcDbText
  0
TEXT
  5
523B0
330
2
100
AcDbEntity
  8
0
  6
Continuous
100
AcDbText
 10
5473.430179658663
 20
-1642.725372584513
 30
0.0
 40
5.0
  1
a-c
 41
0.8
  7
MICROCADAM
100
AcDbText
  0
TEXT
  5
523B1
330
2
100
AcDbEntity
  8
0
  6
Continuous
100
AcDbText
 10
5474.563613658663
 20
-1739.601822584513
 30
0.0
 40
5.0
  1
12
 41
0.8
  7
MICROCADAM
100
AcDbText
  0
TEXT
  5
523B2
330
2
100
AcDbEntity
  8
0
  6
Continuous
100
AcDbText
 10
5490.563613658663
 20
-1739.601822584513
 30
0.0
 40
5.0
  1
  0.950
 41
0.8
  7
MICROCADAM
100
AcDbText
  0
TEXT
  5
523B3
330
2
100
AcDbEntity
  8
0
  6
Continuous
100
AcDbText
 10
5533.563613658663
 20
-1739.601822584513
 30
0.0
 40
5.0
  1
   6.000
 41
0.8
  7
MICROCADAM
100
AcDbText
  0
TEXT
  5
523B4
330
2
100
AcDbEntity
  8
0
  6
Continuous
100
AcDbText
 10
5533.563613658663
 20
-1731.601822584513
 30
0.0
 40
5.0
  1
   6.000
 41
0.8
  7
MICROCADAM
100
AcDbText
  0
TEXT
  5
523B5
330
2
100
AcDbEntity
  8
0
  6
Continuous
100
AcDbText
 10
5490.563613658663
 20
-1731.601822584513
 30
0.0
 40
5.0
  1
 13.050
 41
0.8
  7
MICROCADAM
100
AcDbText
  0
TEXT
  5
523B6
330
2
100
AcDbEntity
  8
0
  6
Continuous
100
AcDbText
 10
5474.563613658663
 20
-1731.601822584513
 30
0.0
 40
5.0
  1
11
 41
0.8
  7
MICROCADAM
100
AcDbText
  0
TEXT
  5
523B7
330
2
100
AcDbEntity
  8
0
  6
Continuous
100
AcDbText
 10
5474.563613658663
 20
-1723.601822584513
 30
0.0
 40
5.0
  1
10
 41
0.8
  7
MICROCADAM
100
AcDbText
  0
TEXT
  5
523B8
330
2
100
AcDbEntity
  8
0
  6
Continuous
100
AcDbText
 10
5490.563613658663
 20
-1723.601822584513
 30
0.0
 40
5.0
  1
 13.050
 41
0.8
  7
MICROCADAM
100
AcDbText
  0
TEXT
  5
523B9
330
2
100
AcDbEntity
  8
0
  6
Continuous
100
AcDbText
 10
5533.563613658663
 20
-1723.601822584513
 30
0.0
 40
5.0
  1
-  0.677
 41
0.8
  7
MICROCADAM
100
AcDbText
  0
TEXT
  5
523BA
330
2
100
AcDbEntity
  8
0
  6
Continuous
100
AcDbText
 10
5533.563613658663
 20
-1715.601806584513
 30
0.0
 40
5.0
  1
-  7.089
 41
0.8
  7
MICROCADAM
100
AcDbText
  0
TEXT
  5
523BB
330
2
100
AcDbEntity
  8
0
  6
Continuous
100
AcDbText
 10
5490.563613658663
 20
-1715.601806584513
 30
0.0
 40
5.0
  1
 15.391
 41
0.8
  7
MICROCADAM
100
AcDbText
  0
TEXT
  5
523BC
330
2
100
AcDbEntity
  8
0
  6
Continuous
100
AcDbText
 10
5474.563613658663
 20
-1715.601806584513
 30
0.0
 40
5.0
  1
 9
 41
0.8
  7
MICROCADAM
100
AcDbText
  0
TEXT
  5
523BD
330
2
100
AcDbEntity
  8
0
  6
Continuous
100
AcDbText
 10
5474.563613658663
 20
-1707.601806584513
 30
0.0
 40
5.0
  1
 8
 41
0.8
  7
MICROCADAM
100
AcDbText
  0
TEXT
  5
523BE
330
2
100
AcDbEntity
  8
0
  6
Continuous
100
AcDbText
 10
5490.563613658663
 20
-1707.601806584513
 30
0.0
 40
5.0
  1
109.259
 41
0.8
  7
MICROCADAM
100
AcDbText
  0
TEXT
  5
523BF
330
2
100
AcDbEntity
  8
0
  6
Continuous
100
AcDbText
 10
5533.563613658663
 20
-1707.601806584513
 30
0.0
 40
5.0
  1
-118.472
 41
0.8
  7
MICROCADAM
100
AcDbText
  0
TEXT
  5
523C0
330
2
100
AcDbEntity
  8
0
  6
Continuous
100
AcDbText
 10
5533.563613658663
 20
-1699.601806584513
 30
0.0
 40
5.0
  1
-154.591
 41
0.8
  7
MICROCADAM
100
AcDbText
  0
TEXT
  5
523C1
330
2
100
AcDbEntity
  8
0
  6
Continuous
100
AcDbText
 10
5490.563613658663
 20
-1699.601806584513
 30
0.0
 40
5.0
  1
122.450
 41
0.8
  7
MICROCADAM
100
AcDbText
  0
TEXT
  5
523C2
330
2
100
AcDbEntity
  8
0
  6
Continuous
100
AcDbText
 10
5474.563613658663
 20
-1699.601806584513
 30
0.0
 40
5.0
  1
 7
 41
0.8
  7
MICROCADAM
100
AcDbText
  0
TEXT
  5
523C3
330
2
100
AcDbEntity
  8
0
  6
Continuous
100
AcDbText
 10
5474.563613658663
 20
-1691.601806584513
 30
0.0
 40
5.0
  1
 6
 41
0.8
  7
MICROCADAM
100
AcDbText
  0
TEXT
  5
523C4
330
2
100
AcDbEntity
  8
0
  6
Continuous
100
AcDbText
 10
5490.563613658663
 20
-1675.601806584513
 30
0.0
 40
5.0
  1
110.350
 41
0.8
  7
MICROCADAM
100
AcDbText
  0
TEXT
  5
523C5
330
2
100
AcDbEntity
  8
0
  6
Continuous
100
AcDbText
 10
5533.563613658663
 20
-1675.601806584513
 30
0.0
 40
5.0
  1
-154.591
 41
0.8
  7
MICROCADAM
100
AcDbText
  0
TEXT
  5
523C6
330
2
100
AcDbEntity
  8
0
  6
Continuous
100
AcDbText
 10
5533.563613658663
 20
-1667.601806584513
 30
0.0
 40
5.0
  1
-126.272
 41
0.8
  7
MICROCADAM
100
AcDbText
  0
TEXT
  5
523C7
330
2
100
AcDbEntity
  8
0
  6
Continuous
100
AcDbText
 10
5490.563613658663
 20
-1667.601806584513
 30
0.0
 40
5.0
  1
100.010
 41
0.8
  7
MICROCADAM
100
AcDbText
  0
TEXT
  5
523C8
330
2
100
AcDbEntity
  8
0
  6
Continuous
100
AcDbText
 10
5474.563613658663
 20
-1683.601806584513
 30
0.0
 40
5.0
  1
 5
 41
0.8
  7
MICROCADAM
100
AcDbText
  0
TEXT
  5
523C9
330
2
100
AcDbEntity
  8
0
  6
Continuous
100
AcDbText
 10
5474.563613658663
 20
-1675.601806584513
 30
0.0
 40
5.0
  1
 4
 41
0.8
  7
MICROCADAM
100
AcDbText
  0
TEXT
  5
523CA
330
2
100
AcDbEntity
  8
0
  6
Continuous
100
AcDbText
 10
5490.563613658663
 20
-1659.601806584513
 30
0.0
 40
5.0
  1
  2.387
 41
0.8
  7
MICROCADAM
100
AcDbText
  0
TEXT
  5
523CB
330
2
100
AcDbEntity
  8
0
  6
Continuous
100
AcDbText
 10
5533.563613658663
 20
-1659.601806584513
 30
0.0
 40
5.0
  1
- 10.397
 41
0.8
  7
MICROCADAM
100
AcDbText
  0
TEXT
  5
523CC
330
2
100
AcDbEntity
  8
0
  6
Continuous
100
AcDbText
 10
5536.563613658663
 20
-1631.601806584512
 30
0.0
 40
5.0
  1
   Y
 41
0.8
  7
MICROCADAM
100
AcDbText
  0
TEXT
  5
523CD
330
2
100
AcDbEntity
  8
0
  6
Continuous
100
AcDbText
 10
5490.563613658663
 20
-1631.601806584512
 30
0.0
 40
5.0
  1
   X
 41
0.8
  7
MICROCADAM
100
AcDbText
  0
TEXT
  5
523CE
330
2
100
AcDbEntity
  8
0
  6
Continuous
100
AcDbText
 10
5474.563613658663
 20
-1631.601806584512
 30
0.0
 40
5.0
  1
Nr.
 41
0.8
  7
MICROCADAM
100
AcDbText
  0
TEXT
  5
523CF
330
2
100
AcDbEntity
  8
0
  6
Continuous
100
AcDbText
 10
5537.563613658663
 20
-1643.601806584513
 30
0.0
 40
5.0
  1
  0
 41
0.8
  7
MICROCADAM
100
AcDbText
  0
TEXT
  5
523D0
330
2
100
AcDbEntity
  8
0
  6
Continuous
100
AcDbText
 10
5490.563613658663
 20
-1643.601806584513
 30
0.0
 40
5.0
  1
  0
 41
0.8
  7
MICROCADAM
100
AcDbText
  0
TEXT
  5
523D1
330
2
100
AcDbEntity
  8
0
  6
Continuous
100
AcDbText
 10
5533.563613658663
 20
-1683.601806584513
 30
0.0
 40
5.0
  1
-177.000
 41
0.8
  7
MICROCADAM
100
AcDbText
  0
TEXT
  5
523D2
330
2
100
AcDbEntity
  8
0
  6
Continuous
100
AcDbText
 10
5490.563613658663
 20
-1683.601806584513
 30
0.0
 40
5.0
  1
110.350
 41
0.8
  7
MICROCADAM
100
AcDbText
  0
TEXT
  5
523D3
330
2
100
AcDbEntity
  8
0
  6
Continuous
100
AcDbText
 10
5533.563613658663
 20
-1691.601806584513
 30
0.0
 40
5.0
  1
-177.000
 41
0.8
  7
MICROCADAM
100
AcDbText
  0
TEXT
  5
523D4
330
2
100
AcDbEntity
  8
0
  6
Continuous
100
AcDbText
 10
5490.563613658663
 20
-1691.601806584513
 30
0.0
 40
5.0
  1
122.450
 41
0.8
  7
MICROCADAM
100
AcDbText
  0
TEXT
  5
523D5
330
2
100
AcDbEntity
  8
0
  6
Continuous
100
AcDbText
 10
5490.563613658663
 20
-1763.601822584513
 30
0.0
 40
5.0
  1
- 6.465
 41
0.8
  7
MICROCADAM
100
AcDbText
  0
TEXT
  5
523D6
330
2
100
AcDbEntity
  8
0
  6
Continuous
100
AcDbText
 10
5534.563613658662
 20
-1763.601822584513
 30
0.0
 40
5.0
  1
 111.351
 41
0.8
  7
MICROCADAM
100
AcDbText
  0
TEXT
  5
523D7
330
2
100
AcDbEntity
  8
0
  6
Continuous
100
AcDbText
 10
5490.563613658663
 20
-1771.601822584513
 30
0.0
 40
5.0
  1
- 6.465
 41
0.8
  7
MICROCADAM
100
AcDbText
  0
TEXT
  5
523D8
330
2
100
AcDbEntity
  8
0
  6
Continuous
100
AcDbText
 10
5534.563613658662
 20
-1771.601822584513
 30
0.0
 40
5.0
  1
 103.187
 41
0.8
  7
MICROCADAM
100
AcDbText
  0
TEXT
  5
523D9
330
2
100
AcDbEntity
  8
0
  6
Continuous
100
AcDbText
 10
5490.563613658663
 20
-1955.601822584513
 30
0.0
 40
5.0
  1
- 1.153
 41
0.8
  7
MICROCADAM
100
AcDbText
  0
TEXT
  5
523DA
330
2
100
AcDbEntity
  8
0
  6
Continuous
100
AcDbText
 10
5534.563613658662
 20
-1955.601822584513
 30
0.0
 40
5.0
  1
 117.351
 41
0.8
  7
MICROCADAM
100
AcDbText
  0
TEXT
  5
523DB
330
2
100
AcDbEntity
  8
0
  6
Continuous
100
AcDbText
 10
5490.563613658663
 20
-1947.601822584513
 30
0.0
 40
5.0
  1
 93.992
 41
0.8
  7
MICROCADAM
100
AcDbText
  0
TEXT
  5
523DC
330
2
100
AcDbEntity
  8
0
  6
Continuous
100
AcDbText
 10
5534.563613658662
 20
-1947.601822584513
 30
0.0
 40
5.0
  1
 129.026
 41
0.8
  7
MICROCADAM
100
AcDbText
  0
TEXT
  5
523DD
330
2
100
AcDbEntity
  8
0
  6
Continuous
100
AcDbText
 10
5490.563613658663
 20
-1939.601822584513
 30
0.0
 40
5.0
  1
105.938
 41
0.8
  7
MICROCADAM
100
AcDbText
  0
TEXT
  5
523DE
330
2
100
AcDbEntity
  8
0
  6
Continuous
100
AcDbText
 10
5534.563613658662
 20
-1939.601822584513
 30
0.0
 40
5.0
  1
 124.104
 41
0.8
  7
MICROCADAM
100
AcDbText
  0
TEXT
  5
523DF
330
2
100
AcDbEntity
  8
0
  6
Continuous
100
AcDbText
 10
5490.563613658663
 20
-1931.601822584513
 30
0.0
 40
5.0
  1
110.350
 41
0.8
  7
MICROCADAM
100
AcDbText
  0
TEXT
  5
523E0
330
2
100
AcDbEntity
  8
0
  6
Continuous
100
AcDbText
 10
5534.563613658662
 20
-1931.601822584513
 30
0.0
 40
5.0
  1
 125.715
 41
0.8
  7
MICROCADAM
100
AcDbText
  0
TEXT
  5
523E1
330
2
100
AcDbEntity
  8
0
  6
Continuous
100
AcDbText
 10
5490.563613658663
 20
-1923.601822584513
 30
0.0
 40
5.0
  1
110.350
 41
0.8
  7
MICROCADAM
100
AcDbText
  0
TEXT
  5
523E2
330
2
100
AcDbEntity
  8
0
  6
Continuous
100
AcDbText
 10
5534.563613658662
 20
-1923.601822584513
 30
0.0
 40
5.0
  1
 152.000
 41
0.8
  7
MICROCADAM
100
AcDbText
  0
TEXT
  5
523E3
330
2
100
AcDbEntity
  8
0
  6
Continuous
100
AcDbText
 10
5490.563613658663
 20
-1915.601822584513
 30
0.0
 40
5.0
  1
122.450
 41
0.8
  7
MICROCADAM
100
AcDbText
  0
TEXT
  5
523E4
330
2
100
AcDbEntity
  8
0
  6
Continuous
100
AcDbText
 10
5534.563613658662
 20
-1915.601822584513
 30
0.0
 40
5.0
  1
 152.000
 41
0.8
  7
MICROCADAM
100
AcDbText
  0
TEXT
  5
523E5
330
2
100
AcDbEntity
  8
0
  6
Continuous
100
AcDbText
 10
5490.563613658663
 20
-1907.601822584513
 30
0.0
 40
5.0
  1
122.450
 41
0.8
  7
MICROCADAM
100
AcDbText
  0
TEXT
  5
523E6
330
2
100
AcDbEntity
  8
0
  6
Continuous
100
AcDbText
 10
5534.563613658662
 20
-1907.601822584513
 30
0.0
 40
5.0
  1
-115.642
 41
0.8
  7
MICROCADAM
100
AcDbText
  0
TEXT
  5
523E7
330
2
100
AcDbEntity
  8
0
  6
Continuous
100
AcDbText
 10
5490.563613658663
 20
-1899.601822584513
 30
0.0
 40
5.0
  1
112.681
 41
0.8
  7
MICROCADAM
100
AcDbText
  0
TEXT
  5
523E8
330
2
100
AcDbEntity
  8
0
  6
Continuous
100
AcDbText
 10
5534.563613658662
 20
-1899.601822584513
 30
0.0
 40
5.0
  1
-120.414
 41
0.8
  7
MICROCADAM
100
AcDbText
  0
TEXT
  5
523E9
330
2
100
AcDbEntity
  8
0
  6
Continuous
100
AcDbText
 10
5490.563613658663
 20
-1891.601822584513
 30
0.0
 40
5.0
  1
108.647
 41
0.8
  7
MICROCADAM
100
AcDbText
  0
TEXT
  5
523EA
330
2
100
AcDbEntity
  8
0
  6
Continuous
100
AcDbText
 10
5534.563613658662
 20
-1891.601822584513
 30
0.0
 40
5.0
  1
-122.503
 41
0.8
  7
MICROCADAM
100
AcDbText
  0
TEXT
  5
523EB
330
2
100
AcDbEntity
  8
0
  6
Continuous
100
AcDbText
 10
5490.563613658663
 20
-1883.601822584513
 30
0.0
 40
5.0
  1
111.525
 41
0.8
  7
MICROCADAM
100
AcDbText
  0
TEXT
  5
523EC
330
2
100
AcDbEntity
  8
0
  6
Continuous
100
AcDbText
 10
5534.563613658662
 20
-1883.601822584513
 30
0.0
 40
5.0
  1
-136.224
 41
0.8
  7
MICROCADAM
100
AcDbText
  0
TEXT
  5
523ED
330
2
100
AcDbEntity
  8
0
  6
Continuous
100
AcDbText
 10
5490.563613658663
 20
-1875.601822584513
 30
0.0
 40
5.0
  1
118.731
 41
0.8
  7
MICROCADAM
100
AcDbText
  0
TEXT
  5
523EE
330
2
100
AcDbEntity
  8
0
  6
Continuous
100
AcDbText
 10
5534.563613658662
 20
-1875.601822584513
 30
0.0
 40
5.0
  1
-155.024
 41
0.8
  7
MICROCADAM
100
AcDbText
  0
TEXT
  5
523EF
330
2
100
AcDbEntity
  8
0
  6
Continuous
100
AcDbText
 10
5490.563613658663
 20
-1859.601836584512
 30
0.0
 40
5.0
  1
122.450
 41
0.8
  7
MICROCADAM
100
AcDbText
  0
TEXT
  5
523F0
330
2
100
AcDbEntity
  8
0
  6
Continuous
100
AcDbText
 10
5534.563613658662
 20
-1859.601836584512
 30
0.0
 40
5.0
  1
-216.000
 41
0.8
  7
MICROCADAM
100
AcDbText
  0
TEXT
  5
523F1
330
2
100
AcDbEntity
  8
0
  6
Continuous
100
AcDbText
 10
5534.563613658662
 20
-1835.601836584513
 30
0.0
 40
5.0
  1
-216.000
 41
0.8
  7
MICROCADAM
100
AcDbText
  0
TEXT
  5
523F2
330
2
100
AcDbEntity
  8
0
  6
Continuous
100
AcDbText
 10
5490.563613658663
 20
-1843.601836584512
 30
0.0
 40
5.0
  1
110.350
 41
0.8
  7
MICROCADAM
100
AcDbText
  0
TEXT
  5
523F3
330
2
100
AcDbEntity
  8
0
  6
Continuous
100
AcDbText
 10
5490.563613658663
 20
-1827.601836584512
 30
0.0
 40
5.0
  1
110.350
 41
0.8
  7
MICROCADAM
100
AcDbText
  0
TEXT
  5
523F4
330
2
100
AcDbEntity
  8
0
  6
Continuous
100
AcDbText
 10
5534.563613658662
 20
-1827.601836584512
 30
0.0
 40
5.0
  1
-175.100
 41
0.8
  7
MICROCADAM
100
AcDbText
  0
TEXT
  5
523F5
330
2
100
AcDbEntity
  8
0
  6
Continuous
100
AcDbText
 10
5534.563613658662
 20
-1819.601836584513
 30
0.0
 40
5.0
  1
-159.385
 41
0.8
  7
MICROCADAM
100
AcDbText
  0
TEXT
  5
523F6
330
2
100
AcDbEntity
  8
0
  6
Continuous
100
AcDbText
 10
5534.563613658662
 20
-1811.601836584512
 30
0.0
 40
5.0
  1
-139.041
 41
0.8
  7
MICROCADAM
100
AcDbText
  0
TEXT
  5
523F7
330
2
100
AcDbEntity
  8
0
  6
Continuous
100
AcDbText
 10
5534.563613658662
 20
-1803.601836584513
 30
0.0
 40
5.0
  1
-119.000
 41
0.8
  7
MICROCADAM
100
AcDbText
  0
TEXT
  5
523F8
330
2
100
AcDbEntity
  8
0
  6
Continuous
100
AcDbText
 10
5534.563613658662
 20
-1795.601836584512
 30
0.0
 40
5.0
  1
  87.927
 41
0.8
  7
MICROCADAM
100
AcDbText
  0
TEXT
  5
523F9
330
2
100
AcDbEntity
  8
0
  6
Continuous
100
AcDbText
 10
5534.563613658662
 20
-1787.601836584513
 30
0.0
 40
5.0
  1
 103.379
 41
0.8
  7
MICROCADAM
100
AcDbText
  0
TEXT
  5
523FA
330
2
100
AcDbEntity
  8
0
  6
Continuous
100
AcDbText
 10
5490.563613658663
 20
-1787.601836584513
 30
0.0
 40
5.0
  1
 79.234
 41
0.8
  7
MICROCADAM
100
AcDbText
  0
TEXT
  5
523FB
330
2
100
AcDbEntity
  8
0
  6
Continuous
100
AcDbText
 10
5490.563613658663
 20
-1795.601836584512
 30
0.0
 40
5.0
  1
 95.950
 41
0.8
  7
MICROCADAM
100
AcDbText
  0
TEXT
  5
523FC
330
2
100
AcDbEntity
  8
0
  6
Continuous
100
AcDbText
 10
5490.563613658663
 20
-1803.601836584513
 30
0.0
 40
5.0
  1
 95.950
 41
0.8
  7
MICROCADAM
100
AcDbText
  0
TEXT
  5
523FD
330
2
100
AcDbEntity
  8
0
  6
Continuous
100
AcDbText
 10
5490.563613658663
 20
-1811.601836584512
 30
0.0
 40
5.0
  1
 99.655
 41
0.8
  7
MICROCADAM
100
AcDbText
  0
TEXT
  5
523FE
330
2
100
AcDbEntity
  8
0
  6
Continuous
100
AcDbText
 10
5490.563613658663
 20
-1819.601836584513
 30
0.0
 40
5.0
  1
107.444
 41
0.8
  7
MICROCADAM
100
AcDbText
  0
TEXT
  5
523FF
330
2
100
AcDbEntity
  8
0
  6
Continuous
100
AcDbText
 10
5490.563613658663
 20
-1867.601836584512
 30
0.0
 40
5.0
  1
122.450
 41
0.8
  7
MICROCADAM
100
AcDbText
  0
TEXT
  5
52400
330
2
100
AcDbEntity
  8
0
  6
Continuous
100
AcDbText
 10
5534.563613658662
 20
-1867.601836584512
 30
0.0
 40
5.0
  1
-175.100
 41
0.8
  7
MICROCADAM
100
AcDbText
  0
TEXT
  5
52401
330
2
100
AcDbEntity
  8
0
  6
Continuous
100
AcDbText
 10
5474.563613658663
 20
-1907.601822584513
 30
0.0
 40
5.0
  1
19
 41
0.8
  7
MICROCADAM
100
AcDbText
  0
TEXT
  5
52402
330
2
100
AcDbEntity
  8
0
  6
Continuous
100
AcDbText
 10
5474.563613658663
 20
-1915.601822584513
 30
0.0
 40
5.0
  1
20
 41
0.8
  7
MICROCADAM
100
AcDbText
  0
TEXT
  5
52403
330
2
100
AcDbEntity
  8
0
  6
Continuous
100
AcDbText
 10
5474.563613658663
 20
-1923.601822584513
 30
0.0
 40
5.0
  1
21
 41
0.8
  7
MICROCADAM
100
AcDbText
  0
TEXT
  5
52404
330
2
100
AcDbEntity
  8
0
  6
Continuous
100
AcDbText
 10
5474.563613658663
 20
-1931.601822584513
 30
0.0
 40
5.0
  1
22
 41
0.8
  7
MICROCADAM
100
AcDbText
  0
TEXT
  5
52405
330
2
100
AcDbEntity
  8
0
  6
Continuous
100
AcDbText
 10
5474.563613658663
 20
-1939.601822584513
 30
0.0
 40
5.0
  1
23
 41
0.8
  7
MICROCADAM
100
AcDbText
  0
TEXT
  5
52406
330
2
100
AcDbEntity
  8
0
  6
Continuous
100
AcDbText
 10
5474.563613658663
 20
-1947.601822584513
 30
0.0
 40
5.0
  1
24
 41
0.8
  7
MICROCADAM
100
AcDbText
  0
TEXT
  5
52407
330
2
100
AcDbEntity
  8
0
  6
Continuous
100
AcDbText
 10
5474.563613658663
 20
-1955.601822584513
 30
0.0
 40
5.0
  1
25
 41
0.8
  7
MICROCADAM
100
AcDbText
  0
TEXT
  5
52408
330
2
100
AcDbEntity
  8
0
  6
Continuous
100
AcDbText
 10
5474.563613658663
 20
-1771.601822584513
 30
0.0
 40
5.0
  1
 2
 41
0.8
  7
MICROCADAM
100
AcDbText
  0
TEXT
  5
52409
330
2
100
AcDbEntity
  8
0
  6
Continuous
100
AcDbText
 10
5474.563613658663
 20
-1763.601822584513
 30
0.0
 40
5.0
  1
 1
 41
0.8
  7
MICROCADAM
100
AcDbText
  0
TEXT
  5
5240A
330
2
100
AcDbEntity
  8
0
  6
Continuous
100
AcDbText
 10
5474.563613658663
 20
-1883.601822584513
 30
0.0
 40
5.0
  1
16
 41
0.8
  7
MICROCADAM
100
AcDbText
  0
TEXT
  5
5240B
330
2
100
AcDbEntity
  8
0
  6
Continuous
100
AcDbText
 10
5474.563613658663
 20
-1891.601822584513
 30
0.0
 40
5.0
  1
17
 41
0.8
  7
MICROCADAM
100
AcDbText
  0
TEXT
  5
5240C
330
2
100
AcDbEntity
  8
0
  6
Continuous
100
AcDbText
 10
5474.563613658663
 20
-1899.601822584513
 30
0.0
 40
5.0
  1
18
 41
0.8
  7
MICROCADAM
100
AcDbText
  0
TEXT
  5
5240D
330
2
100
AcDbEntity
  8
0
  6
Continuous
100
AcDbText
 10
5534.563613658662
 20
-1755.601822584513
 30
0.0
 40
5.0
  1
   0
 41
0.8
  7
MICROCADAM
100
AcDbText
  0
TEXT
  5
5240E
330
2
100
AcDbEntity
  8
0
  6
Continuous
100
AcDbText
 10
5490.563613658663
 20
-1755.601822584513
 30
0.0
 40
5.0
  1
  0
 41
0.8
  7
MICROCADAM
100
AcDbText
  0
TEXT
  5
5240F
330
2
100
AcDbEntity
  8
0
  6
Continuous
100
AcDbText
 10
5473.430179658663
 20
-1754.725356584512
 30
0.0
 40
5.0
  1
a-b
 41
0.8
  7
MICROCADAM
100
AcDbText
  0
TEXT
  5
52410
330
2
100
AcDbEntity
  8
0
  6
Continuous
100
AcDbText
 10
5490.563613658663
 20
-1851.601836584512
 30
0.0
 40
5.0
  1
122.450
 41
0.8
  7
MICROCADAM
100
AcDbText
  0
TEXT
  5
52411
330
2
100
AcDbEntity
  8
0
  6
Continuous
100
AcDbText
 10
5490.563613658663
 20
-1835.601836584513
 30
0.0
 40
5.0
  1
110.350
 41
0.8
  7
MICROCADAM
100
AcDbText
  0
TEXT
  5
52412
330
2
100
AcDbEntity
  8
0
  6
Continuous
100
AcDbText
 10
5534.563613658662
 20
-1851.601836584512
 30
0.0
 40
5.0
  1
  - X
 41
0.8
  7
MICROCADAM
100
AcDbText
  0
TEXT
  5
52413
330
2
100
AcDbEntity
  8
0
  6
Continuous
100
AcDbText
 10
5534.563613658662
 20
-1843.601836584512
 30
0.0
 40
5.0
  1
  - X
 41
0.8
  7
MICROCADAM
100
AcDbText
  0
TEXT
  5
52414
330
2
100
AcDbEntity
  8
0
  6
Continuous
100
AcDbText
 10
5490.563613658663
 20
-1779.601836584512
 30
0.0
 40
5.0
  1
  0.060
 41
0.8
  7
MICROCADAM
100
AcDbText
  0
TEXT
  5
52415
330
2
100
AcDbEntity
  8
0
  6
Continuous
100
AcDbText
 10
5474.563613658663
 20
-1875.601822584513
 30
0.0
 40
5.0
  1
15
 41
0.8
  7
MICROCADAM
100
AcDbText
  0
TEXT
  5
52416
330
2
100
AcDbEntity
  8
0
  6
Continuous
100
AcDbText
 10
5474.563613658663
 20
-1867.601822584513
 30
0.0
 40
5.0
  1
14
 41
0.8
  7
MICROCADAM
100
AcDbText
  0
TEXT
  5
52417
330
2
100
AcDbEntity
  8
0
  6
Continuous
100
AcDbText
 10
5474.563613658663
 20
-1859.601822584513
 30
0.0
 40
5.0
  1
13
 41
0.8
  7
MICROCADAM
100
AcDbText
  0
TEXT
  5
52418
330
2
100
AcDbEntity
  8
0
  6
Continuous
100
AcDbText
 10
5474.563613658663
 20
-1851.601822584513
 30
0.0
 40
5.0
  1
12
 41
0.8
  7
MICROCADAM
100
AcDbText
  0
TEXT
  5
52419
330
2
100
AcDbEntity
  8
0
  6
Continuous
100
AcDbText
 10
5474.563613658663
 20
-1843.601822584513
 30
0.0
 40
5.0
  1
11
 41
0.8
  7
MICROCADAM
100
AcDbText
  0
TEXT
  5
5241A
330
2
100
AcDbEntity
  8
0
  6
Continuous
100
AcDbText
 10
5474.563613658663
 20
-1835.601822584513
 30
0.0
 40
5.0
  1
10
 41
0.8
  7
MICROCADAM
100
AcDbText
  0
TEXT
  5
5241B
330
2
100
AcDbEntity
  8
0
  6
Continuous
100
AcDbText
 10
5474.563613658663
 20
-1827.601822584513
 30
0.0
 40
5.0
  1
 9
 41
0.8
  7
MICROCADAM
100
AcDbText
  0
TEXT
  5
5241C
330
2
100
AcDbEntity
  8
0
  6
Continuous
100
AcDbText
 10
5474.563613658663
 20
-1819.601822584513
 30
0.0
 40
5.0
  1
 8
 41
0.8
  7
MICROCADAM
100
AcDbText
  0
TEXT
  5
5241D
330
2
100
AcDbEntity
  8
0
  6
Continuous
100
AcDbText
 10
5474.563613658663
 20
-1811.601822584513
 30
0.0
 40
5.0
  1
 7
 41
0.8
  7
MICROCADAM
100
AcDbText
  0
TEXT
  5
5241E
330
2
100
AcDbEntity
  8
0
  6
Continuous
100
AcDbText
 10
5474.563613658663
 20
-1803.601822584513
 30
0.0
 40
5.0
  1
 6
 41
0.8
  7
MICROCADAM
100
AcDbText
  0
TEXT
  5
5241F
330
2
100
AcDbEntity
  8
0
  6
Continuous
100
AcDbText
 10
5474.563613658663
 20
-1795.601822584513
 30
0.0
 40
5.0
  1
 5
 41
0.8
  7
MICROCADAM
100
AcDbText
  0
TEXT
  5
52420
330
2
100
AcDbEntity
  8
0
  6
Continuous
100
AcDbText
 10
5474.563613658663
 20
-1787.601822584513
 30
0.0
 40
5.0
  1
 4
 41
0.8
  7
MICROCADAM
100
AcDbText
  0
TEXT
  5
52421
330
2
100
AcDbEntity
  8
0
  6
Continuous
100
AcDbText
 10
5474.563613658663
 20
-1779.601822584513
 30
0.0
 40
5.0
  1
 3
 41
0.8
  7
MICROCADAM
100
AcDbText
  0
TEXT
  5
52422
330
2
100
AcDbEntity
  8
0
  6
Continuous
100
AcDbText
 10
5534.563613658662
 20
-1779.601836584512
 30
0.0
 40
5.0
  1
  97.147
 41
0.8
  7
MICROCADAM
100
AcDbText
  0
CIRCLE
  5
5242A
330
2
100
AcDbEntity
  8
0
  6
Continuous
100
AcDbCircle
 10
5213.099899658664
 20
-1666.732604584513
 30
0.0
 40
4.48
  0
POINT
  5
52451
330
2
100
AcDbEntity
  8
Konstruktionslinie
100
AcDbPoint
 10
5213.099991658665
 20
-1666.732604584513
 30
0.0
  0
POINT
  5
52452
330
2
100
AcDbEntity
  8
Konstruktionslinie
100
AcDbPoint
 10
5213.099899658664
 20
-2026.732608584513
 30
0.0
  0
CIRCLE
  5
52454
330
2
100
AcDbEntity
  8
Punkte
  6
Continuous
 62
    20
390
5101B
100
AcDbCircle
 10
5213.099899658664
 20
-2026.732608584513
 30
0.0
 40
1.407999999999999
  0
POINT
  5
5245C
330
2
100
AcDbEntity
  8
Konstruktionslinie
100
AcDbPoint
 10
5214.049991658664
 20
-1673.230604584513
 30
0.0
  0
CIRCLE
  5
5245D
330
2
100
AcDbEntity
  8
Punkte
  6
Continuous
 62
    20
390
5101B
100
AcDbCircle
 10
5214.049991658664
 20
-1673.230604584513
 30
0.0
 40
1.407999999999999
  0
TEXT
  5
5245E
330
2
100
AcDbEntity
  8
0
  6
Continuous
 62
     1
390
5101F
100
AcDbText
 10
5207.867205658664
 20
-1674.946170584513
 30
0.0
 40
4.0
  1
1
 41
0.8
  7
MICROCADAM
100
AcDbText
  0
POINT
  5
5245F
330
2
100
AcDbEntity
  8
Konstruktionslinie
100
AcDbPoint
 10
5215.486991658664
 20
-1677.129604584513
 30
0.0
  0
CIRCLE
  5
52460
330
2
100
AcDbEntity
  8
Punkte
  6
Continuous
 62
    20
390
5101B
100
AcDbCircle
 10
5215.486991658664
 20
-1677.129604584513
 30
0.0
 40
1.407999999999999
  0
TEXT
  5
52461
330
2
100
AcDbEntity
  8
0
  6
Continuous
 62
     1
390
5101F
100
AcDbText
 10
5209.304205658664
 20
-1680.517552658574
 30
0.0
 40
4.0
  1
2
 41
0.8
  7
MICROCADAM
100
AcDbText
  0
POINT
  5
52462
330
2
100
AcDbEntity
  8
Konstruktionslinie
100
AcDbPoint
 10
5313.109991658665
 20
-1793.004604584513
 30
0.0
  0
CIRCLE
  5
52463
330
2
100
AcDbEntity
  8
Punkte
  6
Continuous
 62
    20
390
5101B
100
AcDbCircle
 10
5313.109991658665
 20
-1793.004604584513
 30
0.0
 40
1.407999999999999
  0
TEXT
  5
52464
330
2
100
AcDbEntity
  8
0
  6
Continuous
 62
     1
390
5101F
100
AcDbText
 10
5305.409524367685
 20
-1797.040660000537
 30
0.0
 40
4.0
  1
3
 41
0.8
  7
MICROCADAM
100
AcDbText
  0
POINT
  5
52465
330
2
100
AcDbEntity
  8
Konstruktionslinie
100
AcDbPoint
 10
5323.449991658665
 20
-1821.323604584513
 30
0.0
  0
CIRCLE
  5
52466
330
2
100
AcDbEntity
  8
Punkte
  6
Continuous
 62
    20
390
5101B
100
AcDbCircle
 10
5323.449991658665
 20
-1821.323604584513
 30
0.0
 40
1.407999999999999
  0
TEXT
  5
52467
330
2
100
AcDbEntity
  8
0
  6
Continuous
 62
     1
390
5101F
100
AcDbText
 10
5315.718370985083
 20
-1823.461458471759
 30
0.0
 40
4.0
  1
4
 41
0.8
  7
MICROCADAM
100
AcDbText
  0
POINT
  5
52468
330
2
100
AcDbEntity
  8
Konstruktionslinie
100
AcDbPoint
 10
5323.449991658665
 20
-1843.732604584513
 30
0.0
  0
CIRCLE
  5
52469
330
2
100
AcDbEntity
  8
Punkte
  6
Continuous
 62
    20
390
5101B
100
AcDbCircle
 10
5323.449991658665
 20
-1843.732604584513
 30
0.0
 40
1.407999999999999
  0
TEXT
  5
5246A
330
2
100
AcDbEntity
  8
0
  6
Continuous
 62
     1
390
5101F
100
AcDbText
 10
5317.267205658664
 20
-1845.448170584513
 30
0.0
 40
4.0
  1
5
 41
0.8
  7
MICROCADAM
100
AcDbText
  0
POINT
  5
5246B
330
2
100
AcDbEntity
  8
Konstruktionslinie
100
AcDbPoint
 10
5335.549991658664
 20
-1843.732604584513
 30
0.0
  0
CIRCLE
  5
5246C
330
2
100
AcDbEntity
  8
Punkte
  6
Continuous
 62
    20
390
5101B
100
AcDbCircle
 10
5335.549991658664
 20
-1843.732604584513
 30
0.0
 40
1.407999999999999
  0
TEXT
  5
5246D
330
2
100
AcDbEntity
  8
0
  6
Continuous
 62
     1
390
5101F
100
AcDbText
 10
5339.431496962373
 20
-1845.725724047018
 30
0.0
 40
4.0
  1
6
 41
0.8
  7
MICROCADAM
100
AcDbText
  0
POINT
  5
5246E
330
2
100
AcDbEntity
  8
Konstruktionslinie
100
AcDbPoint
 10
5335.549991658664
 20
-1821.323604584513
 30
0.0
  0
CIRCLE
  5
5246F
330
2
100
AcDbEntity
  8
Punkte
  6
Continuous
 62
    20
390
5101B
100
AcDbCircle
 10
5335.549991658664
 20
-1821.323604584513
 30
0.0
 40
1.407999999999999
  0
TEXT
  5
52470
330
2
100
AcDbEntity
  8
0
  6
Continuous
 62
     1
390
5101F
100
AcDbText
 10
5339.992161328824
 20
-1823.039170584513
 30
0.0
 40
4.0
  1
7
 41
0.8
  7
MICROCADAM
100
AcDbText
  0
POINT
  5
52471
330
2
100
AcDbEntity
  8
Konstruktionslinie
100
AcDbPoint
 10
5322.358991658664
 20
-1785.204604584513
 30
0.0
  0
CIRCLE
  5
52472
330
2
100
AcDbEntity
  8
Punkte
  6
Continuous
 62
    20
390
5101B
100
AcDbCircle
 10
5322.358991658664
 20
-1785.204604584513
 30
0.0
 40
1.407999999999999
  0
TEXT
  5
52473
330
2
100
AcDbEntity
  8
0
  6
Continuous
 62
     1
390
5101F
100
AcDbText
 10
5327.183331063913
 20
-1783.462998549782
 30
0.0
 40
4.0
  1
8
 41
0.8
  7
MICROCADAM
100
AcDbText
  0
POINT
  5
52474
330
2
100
AcDbEntity
  8
Konstruktionslinie
100
AcDbPoint
 10
5228.490991658664
 20
-1673.821604584513
 30
0.0
  0
CIRCLE
  5
52475
330
2
100
AcDbEntity
  8
Punkte
  6
Continuous
 62
    20
390
5101B
100
AcDbCircle
 10
5228.490991658664
 20
-1673.821604584513
 30
0.0
 40
1.407999999999999
  0
TEXT
  5
52476
330
2
100
AcDbEntity
  8
0
  6
Continuous
 62
     1
390
5101F
100
AcDbText
 10
5233.482504418637
 20
-1674.7019521415
 30
0.0
 40
4.0
  1
9
 41
0.8
  7
MICROCADAM
100
AcDbText
  0
POINT
  5
52477
330
2
100
AcDbEntity
  8
Konstruktionslinie
100
AcDbPoint
 10
5226.149991658664
 20
-1667.409604584513
 30
0.0
  0
CIRCLE
  5
52478
330
2
100
AcDbEntity
  8
Punkte
  6
Continuous
 62
    20
390
5101B
100
AcDbCircle
 10
5226.149991658664
 20
-1667.409604584513
 30
0.0
 40
1.407999999999999
  0
TEXT
  5
52479
330
2
100
AcDbEntity
  8
0
  6
Continuous
 62
     1
390
5101F
100
AcDbText
 10
5230.56682007414
 20
-1667.118453564454
 30
0.0
 40
4.0
  1
10
 41
0.8
  7
MICROCADAM
100
AcDbText
  0
POINT
  5
5247A
330
2
100
AcDbEntity
  8
Konstruktionslinie
100
AcDbPoint
 10
5226.149991658664
 20
-1660.732604584513
 30
0.0
  0
CIRCLE
  5
5247B
330
2
100
AcDbEntity
  8
Punkte
  6
Continuous
 62
    20
390
5101B
100
AcDbCircle
 10
5226.149991658664
 20
-1660.732604584513
 30
0.0
 40
1.407999999999999
  0
TEXT
  5
5247C
330
2
100
AcDbEntity
  8
0
  6
Continuous
 62
     1
390
5101F
100
AcDbText
 10
5230.716632917456
 20
-1660.886739726571
 30
0.0
 40
4.0
  1
11
 41
0.8
  7
MICROCADAM
100
AcDbText
  0
POINT
  5
5247D
330
2
100
AcDbEntity
  8
Konstruktionslinie
100
AcDbPoint
 10
5214.049991658664
 20
-1660.732604584513
 30
0.0
  0
CIRCLE
  5
5247E
330
2
100
AcDbEntity
  8
Punkte
  6
Continuous
 62
    20
390
5101B
100
AcDbCircle
 10
5214.049991658664
 20
-1660.732604584513
 30
0.0
 40
1.407999999999999
  0
TEXT
  5
5247F
330
2
100
AcDbEntity
  8
0
  6
Continuous
 62
     1
390
5101F
100
AcDbText
 10
5205.466833838577
 20
-1659.822117886504
 30
0.0
 40
4.0
  1
12
 41
0.8
  7
MICROCADAM
100
AcDbText
  0
LINE
  5
52481
330
2
100
AcDbEntity
  8
V1_025
100
AcDbLine
 10
5215.486991658664
 20
-1677.129604584513
 30
0.0
 11
5313.109991658665
 21
-1793.004604584513
 31
0.0
  0
LINE
  5
52482
330
2
100
AcDbEntity
  8
V1_025
100
AcDbLine
 10
5323.449991658665
 20
-1821.323604584513
 30
0.0
 11
5323.449991658665
 21
-1843.732604584513
 31
0.0
  0
LINE
  5
52483
330
2
100
AcDbEntity
  8
V1_025
100
AcDbLine
 10
5335.549991658664
 20
-1843.732604584513
 30
0.0
 11
5335.549991658664
 21
-1821.323604584513
 31
0.0
  0
LINE
  5
52484
330
2
100
AcDbEntity
  8
V1_025
100
AcDbLine
 10
5322.358991658664
 20
-1785.204604584513
 30
0.0
 11
5228.490991658664
 21
-1673.821604584513
 31
0.0
  0
LINE
  5
52485
330
2
100
AcDbEntity
  8
V1_025
100
AcDbLine
 10
5226.149991658664
 20
-1667.409604584513
 30
0.0
 11
5226.149991658664
 21
-1660.732604584513
 31
0.0
  0
LINE
  5
52486
330
2
100
AcDbEntity
  8
V1_025
100
AcDbLine
 10
5214.049991658664
 20
-1660.732604584513
 30
0.0
 11
5214.049991658664
 21
-1673.230604584513
 31
0.0
  0
ARC
  5
52487
330
2
100
AcDbEntity
  8
V1_025
100
AcDbCircle
 10
5220.099971933049
 20
-1673.215155327193
 30
0.0
 40
6.049999999999999
100
AcDbArc
 50
180.1463104467885
 51
220.3170275691551
  0
ARC
  5
52489
330
2
100
AcDbEntity
  8
V1_025
100
AcDbCircle
 10
5279.499991658742
 20
-1821.323686490626
 30
0.0
 40
43.95
100
AcDbArc
 50
0.0001067775792216
 51
40.11678669647566
  0
ARC
  5
5248A
330
2
100
AcDbEntity
  8
V1_025
100
AcDbCircle
 10
5329.499991658664
 20
-1843.732604584513
 30
0.0
 40
6.049999999999999
100
AcDbArc
 50
180.0
 51
0.0
  0
ARC
  5
5248B
330
2
100
AcDbEntity
  8
V1_025
100
AcDbCircle
 10
5279.499991686001
 20
-1821.325355149019
 30
0.0
 40
56.05
100
AcDbArc
 50
0.0017894729343024
 51
40.12355259738852
  0
ARC
  5
5248C
330
2
100
AcDbEntity
  8
V1_025
100
AcDbCircle
 10
5236.099991638492
 20
-1667.410238169545
 30
0.0
 40
9.949999999999999
100
AcDbArc
 50
179.9963515830827
 51
220.1175900584012
  0
ARC
  5
5248D
330
2
100
AcDbEntity
  8
V1_025
100
AcDbCircle
 10
5220.099991658664
 20
-1660.732604584513
 30
0.0
 40
6.049999999999999
100
AcDbArc
 50
0.0
 51
180.0
  0
LINE
  5
5248E
330
2
100
AcDbEntity
  8
V1_025
  6
DASHED
100
AcDbLine
 10
5323.449991658665
 20
-1843.732604584513
 30
0.0
 11
5323.449991658666
 21
-1856.732604584513
 31
0.0
  0
LINE
  5
5248F
330
2
100
AcDbEntity
  8
V1_025
  6
DASHED
100
AcDbLine
 10
5335.549991658664
 20
-1843.732604584513
 30
0.0
 11
5335.549991658666
 21
-1856.732604584513
 31
0.0
  0
POINT
  5
52491
330
2
100
AcDbEntity
  8
Konstruktionslinie
100
AcDbPoint
 10
5206.634899658664
 20
-1923.545608584513
 30
0.0
  0
CIRCLE
  5
52492
330
2
100
AcDbEntity
  8
Punkte
  6
Continuous
 62
    20
390
5101B
100
AcDbCircle
 10
5206.634899658664
 20
-1923.545608584513
 30
0.0
 40
1.407999999999999
  0
TEXT
  5
52493
330
2
100
AcDbEntity
  8
0
  6
Continuous
 62
     1
390
5101F
100
AcDbText
 10
5200.452113658664
 20
-1925.261174584513
 30
0.0
 40
4.0
  1
2
 41
0.8
  7
MICROCADAM
100
AcDbText
  0
POINT
  5
52494
330
2
100
AcDbEntity
  8
Konstruktionslinie
100
AcDbPoint
 10
5206.634899658664
 20
-1915.381608584513
 30
0.0
  0
CIRCLE
  5
52495
330
2
100
AcDbEntity
  8
Punkte
  6
Continuous
 62
    20
390
5101B
100
AcDbCircle
 10
5206.634899658664
 20
-1915.381608584513
 30
0.0
 40
1.407999999999999
  0
TEXT
  5
52496
330
2
100
AcDbEntity
  8
0
  6
Continuous
 62
     1
390
5101F
100
AcDbText
 10
5200.452113658664
 20
-1917.097174584513
 30
0.0
 40
4.0
  1
1
 41
0.8
  7
MICROCADAM
100
AcDbText
  0
POINT
  5
52497
330
2
100
AcDbEntity
  8
Konstruktionslinie
100
AcDbPoint
 10
5213.159899658664
 20
-1929.585608584513
 30
0.0
  0
CIRCLE
  5
52498
330
2
100
AcDbEntity
  8
Punkte
  6
Continuous
 62
    20
390
5101B
100
AcDbCircle
 10
5213.159899658664
 20
-1929.585608584513
 30
0.0
 40
1.407999999999999
  0
TEXT
  5
52499
330
2
100
AcDbEntity
  8
0
  6
Continuous
 62
     1
390
5101F
100
AcDbText
 10
5208.035356343881
 20
-1935.591666352425
 30
0.0
 40
4.0
  1
3
 41
0.8
  7
MICROCADAM
100
AcDbText
  0
POINT
  5
5249A
330
2
100
AcDbEntity
  8
Konstruktionslinie
100
AcDbPoint
 10
5292.333899658665
 20
-1923.353608584513
 30
0.0
  0
CIRCLE
  5
5249B
330
2
100
AcDbEntity
  8
Punkte
  6
Continuous
 62
    20
390
5101B
100
AcDbCircle
 10
5292.333899658665
 20
-1923.353608584513
 30
0.0
 40
1.407999999999999
  0
TEXT
  5
5249C
330
2
100
AcDbEntity
  8
0
  6
Continuous
 62
     1
390
5101F
100
AcDbText
 10
5287.72742048936
 20
-1930.167494980017
 30
0.0
 40
4.0
  1
4
 41
0.8
  7
MICROCADAM
100
AcDbText
  0
POINT
  5
5249D
330
2
100
AcDbEntity
  8
Konstruktionslinie
100
AcDbPoint
 10
5309.049899658663
 20
-1938.805608584513
 30
0.0
  0
CIRCLE
  5
5249E
330
2
100
AcDbEntity
  8
Punkte
  6
Continuous
 62
    20
390
5101B
100
AcDbCircle
 10
5309.049899658663
 20
-1938.805608584513
 30
0.0
 40
1.407999999999999
  0
TEXT
  5
5249F
330
2
100
AcDbEntity
  8
0
  6
Continuous
 62
     1
390
5101F
100
AcDbText
 10
5302.867113658663
 20
-1940.521174584513
 30
0.0
 40
4.0
  1
5
 41
0.8
  7
MICROCADAM
100
AcDbText
  0
POINT
  5
524A0
330
2
100
AcDbEntity
  8
Konstruktionslinie
100
AcDbPoint
 10
5309.049899658663
 20
-2145.732608584513
 30
0.0
  0
CIRCLE
  5
524A1
330
2
100
AcDbEntity
  8
Punkte
  6
Continuous
 62
    20
390
5101B
100
AcDbCircle
 10
5309.049899658663
 20
-2145.732608584513
 30
0.0
 40
1.407999999999999
  0
TEXT
  5
524A2
330
2
100
AcDbEntity
  8
0
  6
Continuous
 62
     1
390
5101F
100
AcDbText
 10
5302.867113658663
 20
-2147.448174584513
 30
0.0
 40
4.0
  1
6
 41
0.8
  7
MICROCADAM
100
AcDbText
  0
POINT
  5
524A3
330
2
100
AcDbEntity
  8
Konstruktionslinie
100
AcDbPoint
 10
5312.754899658663
 20
-2165.773608584513
 30
0.0
  0
CIRCLE
  5
524A4
330
2
100
AcDbEntity
  8
Punkte
  6
Continuous
 62
    20
390
5101B
100
AcDbCircle
 10
5312.754899658663
 20
-2165.773608584513
 30
0.0
 40
1.407999999999999
  0
TEXT
  5
524A5
330
2
100
AcDbEntity
  8
0
  6
Continuous
 62
     1
390
5101F
100
AcDbText
 10
5306.445845861233
 20
-2169.130239530665
 30
0.0
 40
4.0
  1
7
 41
0.8
  7
MICROCADAM
100
AcDbText
  0
POINT
  5
524A6
330
2
100
AcDbEntity
  8
Konstruktionslinie
100
AcDbPoint
 10
5320.543899658664
 20
-2186.117608584513
 30
0.0
  0
CIRCLE
  5
524A7
330
2
100
AcDbEntity
  8
Punkte
  6
Continuous
 62
    20
390
5101B
100
AcDbCircle
 10
5320.543899658664
 20
-2186.117608584513
 30
0.0
 40
1.407999999999999
  0
TEXT
  5
524A8
330
2
100
AcDbEntity
  8
0
  6
Continuous
 62
     1
390
5101F
100
AcDbText
 10
5314.361113658664
 20
-2189.428036910335
 30
0.0
 40
4.0
  1
8
 41
0.8
  7
MICROCADAM
100
AcDbText
  0
POINT
  5
524A9
330
2
100
AcDbEntity
  8
Konstruktionslinie
100
AcDbPoint
 10
5323.449899658664
 20
-2201.832608584513
 30
0.0
  0
CIRCLE
  5
524AA
330
2
100
AcDbEntity
  8
Punkte
  6
Continuous
 62
    20
390
5101B
100
AcDbCircle
 10
5323.449899658664
 20
-2201.832608584513
 30
0.0
 40
1.407999999999999
  0
TEXT
  5
524AB
330
2
100
AcDbEntity
  8
0
  6
Continuous
 62
     1
390
5101F
100
AcDbText
 10
5317.267113658664
 20
-2203.548174584513
 30
0.0
 40
4.0
  1
9
 41
0.8
  7
MICROCADAM
100
AcDbText
  0
POINT
  5
524AC
330
2
100
AcDbEntity
  8
Konstruktionslinie
100
AcDbPoint
 10
5323.449899658664
 20
-2242.732608584513
 30
0.0
  0
CIRCLE
  5
524AD
330
2
100
AcDbEntity
  8
Punkte
  6
Continuous
 62
    20
390
5101B
100
AcDbCircle
 10
5323.449899658664
 20
-2242.732608584513
 30
0.0
 40
1.407999999999999
  0
TEXT
  5
524AE
330
2
100
AcDbEntity
  8
0
  6
Continuous
 62
     1
390
5101F
100
AcDbText
 10
5314.621632799902
 20
-2244.825989761876
 30
0.0
 40
4.0
  1
10
 41
0.8
  7
MICROCADAM
100
AcDbText
  0
POINT
  5
524AF
330
2
100
AcDbEntity
  8
Konstruktionslinie
100
AcDbPoint
 10
5323.449899658665
 20
-2316.734008584513
 30
0.0
  0
CIRCLE
  5
524B0
330
2
100
AcDbEntity
  8
Punkte
  6
Continuous
 62
    20
390
5101B
100
AcDbCircle
 10
5323.449899658665
 20
-2316.734008584513
 30
0.0
 40
1.407999999999999
  0
TEXT
  5
524B1
330
2
100
AcDbEntity
  8
0
  6
Continuous
 62
     1
390
5101F
100
AcDbText
 10
5314.97830981182
 20
-2314.72468989437
 30
0.0
 40
4.0
  1
11
 41
0.8
  7
MICROCADAM
100
AcDbText
  0
POINT
  5
524B2
330
2
100
AcDbEntity
  8
Konstruktionslinie
100
AcDbPoint
 10
5335.549899658665
 20
-2316.734008584513
 30
0.0
  0
CIRCLE
  5
524B3
330
2
100
AcDbEntity
  8
Punkte
  6
Continuous
 62
    20
390
5101B
100
AcDbCircle
 10
5335.549899658665
 20
-2316.734008584513
 30
0.0
 40
1.407999999999999
  0
TEXT
  5
524B4
330
2
100
AcDbEntity
  8
0
  6
Continuous
 62
     1
390
5101F
100
AcDbText
 10
5337.830382235285
 20
-2314.884331760778
 30
0.0
 40
4.0
  1
12
 41
0.8
  7
MICROCADAM
100
AcDbText
  0
POINT
  5
524B5
330
2
100
AcDbEntity
  8
Konstruktionslinie
100
AcDbPoint
 10
5335.549899658664
 20
-2242.732608584513
 30
0.0
  0
CIRCLE
  5
524B6
330
2
100
AcDbEntity
  8
Punkte
  6
Continuous
 62
    20
390
5101B
100
AcDbCircle
 10
5335.549899658664
 20
-2242.732608584513
 30
0.0
 40
1.407999999999999
  0
TEXT
  5
524B7
330
2
100
AcDbEntity
  8
0
  6
Continuous
 62
     1
390
5101F
100
AcDbText
 10
5338.012037900382
 20
-2244.448174584514
 30
0.0
 40
4.0
  1
13
 41
0.8
  7
MICROCADAM
100
AcDbText
  0
POINT
  5
524B8
330
2
100
AcDbEntity
  8
Konstruktionslinie
100
AcDbPoint
 10
5335.549899658664
 20
-2201.832608584513
 30
0.0
  0
CIRCLE
  5
524B9
330
2
100
AcDbEntity
  8
Punkte
  6
Continuous
 62
    20
390
5101B
100
AcDbCircle
 10
5335.549899658664
 20
-2201.832608584513
 30
0.0
 40
1.407999999999999
  0
TEXT
  5
524BA
330
2
100
AcDbEntity
  8
0
  6
Continuous
 62
     1
390
5101F
100
AcDbText
 10
5339.400660046845
 20
-2202.921279655873
 30
0.0
 40
4.0
  1
14
 41
0.8
  7
MICROCADAM
100
AcDbText
  0
POINT
  5
524BB
330
2
100
AcDbEntity
  8
Konstruktionslinie
100
AcDbPoint
 10
5331.830899658664
 20
-2181.756608584513
 30
0.0
  0
CIRCLE
  5
524BC
330
2
100
AcDbEntity
  8
Punkte
  6
Continuous
 62
    20
390
5101B
100
AcDbCircle
 10
5331.830899658664
 20
-2181.756608584513
 30
0.0
 40
1.407999999999999
  0
TEXT
  5
524BD
330
2
100
AcDbEntity
  8
0
  6
Continuous
 62
     1
390
5101F
100
AcDbText
 10
5335.260132124298
 20
-2181.900408881089
 30
0.0
 40
4.0
  1
15
 41
0.8
  7
MICROCADAM
100
AcDbText
  0
POINT
  5
524BE
330
2
100
AcDbEntity
  8
Konstruktionslinie
100
AcDbPoint
 10
5324.624899658664
 20
-2162.956608584513
 30
0.0
  0
CIRCLE
  5
524BF
330
2
100
AcDbEntity
  8
Punkte
  6
Continuous
 62
    20
390
5101B
100
AcDbCircle
 10
5324.624899658664
 20
-2162.956608584513
 30
0.0
 40
1.407999999999999
  0
TEXT
  5
524C0
330
2
100
AcDbEntity
  8
0
  6
Continuous
 62
     1
390
5101F
100
AcDbText
 10
5328.763308984775
 20
-2163.191740623368
 30
0.0
 40
4.0
  1
16
 41
0.8
  7
MICROCADAM
100
AcDbText
  0
POINT
  5
524C1
330
2
100
AcDbEntity
  8
Konstruktionslinie
100
AcDbPoint
 10
5321.746899658664
 20
-2149.235608584513
 30
0.0
  0
CIRCLE
  5
524C2
330
2
100
AcDbEntity
  8
Punkte
  6
Continuous
 62
    20
390
5101B
100
AcDbCircle
 10
5321.746899658664
 20
-2149.235608584513
 30
0.0
 40
1.407999999999999
  0
TEXT
  5
524C3
330
2
100
AcDbEntity
  8
0
  6
Continuous
 62
     1
390
5101F
100
AcDbText
 10
5313.471732378662
 20
-2151.187977077
 30
0.0
 40
4.0
  1
17
 41
0.8
  7
MICROCADAM
100
AcDbText
  0
POINT
  5
524C4
330
2
100
AcDbEntity
  8
Konstruktionslinie
100
AcDbPoint
 10
5325.780899658663
 20
-2147.146608584513
 30
0.0
  0
CIRCLE
  5
524C5
330
2
100
AcDbEntity
  8
Punkte
  6
Continuous
 62
    20
390
5101B
100
AcDbCircle
 10
5325.780899658663
 20
-2147.146608584513
 30
0.0
 40
1.407999999999999
  0
TEXT
  5
524C6
330
2
100
AcDbEntity
  8
0
  6
Continuous
 62
     1
390
5101F
100
AcDbText
 10
5320.071865112787
 20
-2143.178872574935
 30
0.0
 40
4.0
  1
18
 41
0.8
  7
MICROCADAM
100
AcDbText
  0
POINT
  5
524C7
330
2
100
AcDbEntity
  8
Konstruktionslinie
100
AcDbPoint
 10
5335.549899658664
 20
-2142.374608584513
 30
0.0
  0
CIRCLE
  5
524C8
330
2
100
AcDbEntity
  8
Punkte
  6
Continuous
 62
    20
390
5101B
100
AcDbCircle
 10
5335.549899658664
 20
-2142.374608584513
 30
0.0
 40
1.407999999999999
  0
TEXT
  5
524C9
330
2
100
AcDbEntity
  8
0
  6
Continuous
 62
     1
390
5101F
100
AcDbText
 10
5338.66206924409
 20
-2143.888169378016
 30
0.0
 40
4.0
  1
19
 41
0.8
  7
MICROCADAM
100
AcDbText
  0
POINT
  5
524CA
330
2
100
AcDbEntity
  8
Konstruktionslinie
100
AcDbPoint
 10
5335.549899658664
 20
-1874.732608584513
 30
0.0
  0
CIRCLE
  5
524CB
330
2
100
AcDbEntity
  8
Punkte
  6
Continuous
 62
    20
390
5101B
100
AcDbCircle
 10
5335.549899658664
 20
-1874.732608584513
 30
0.0
 40
1.407999999999999
  0
TEXT
  5
524CC
330
2
100
AcDbEntity
  8
0
  6
Continuous
 62
     1
390
5101F
100
AcDbText
 10
5338.918841932919
 20
-1876.272964647679
 30
0.0
 40
4.0
  1
20
 41
0.8
  7
MICROCADAM
100
AcDbText
  0
POINT
  5
524CD
330
2
100
AcDbEntity
  8
Konstruktionslinie
100
AcDbPoint
 10
5323.449899658664
 20
-1874.732608584513
 30
0.0
  0
CIRCLE
  5
524CE
330
2
100
AcDbEntity
  8
Punkte
  6
Continuous
 62
    20
390
5101B
100
AcDbCircle
 10
5323.449899658664
 20
-1874.732608584513
 30
0.0
 40
1.407999999999999
  0
TEXT
  5
524CF
330
2
100
AcDbEntity
  8
0
  6
Continuous
 62
     1
390
5101F
100
AcDbText
 10
5314.901089223757
 20
-1876.53577955293
 30
0.0
 40
4.0
  1
21
 41
0.8
  7
MICROCADAM
100
AcDbText
  0
POINT
  5
524D0
330
2
100
AcDbEntity
  8
Konstruktionslinie
100
AcDbPoint
 10
5323.449899658664
 20
-1901.017608584513
 30
0.0
  0
CIRCLE
  5
524D1
330
2
100
AcDbEntity
  8
Punkte
  6
Continuous
 62
    20
390
5101B
100
AcDbCircle
 10
5323.449899658664
 20
-1901.017608584513
 30
0.0
 40
1.407999999999999
  0
TEXT
  5
524D2
330
2
100
AcDbEntity
  8
0
  6
Continuous
 62
     1
390
5101F
100
AcDbText
 10
5326.055781463029
 20
-1900.575180321297
 30
0.0
 40
4.0
  1
22
 41
0.8
  7
MICROCADAM
100
AcDbText
  0
POINT
  5
524D3
330
2
100
AcDbEntity
  8
Konstruktionslinie
100
AcDbPoint
 10
5319.037899658664
 20
-1902.628608584513
 30
0.0
  0
CIRCLE
  5
524D4
330
2
100
AcDbEntity
  8
Punkte
  6
Continuous
 62
    20
390
5101B
100
AcDbCircle
 10
5319.037899658664
 20
-1902.628608584513
 30
0.0
 40
1.407999999999999
  0
TEXT
  5
524D5
330
2
100
AcDbEntity
  8
0
  6
Continuous
 62
     1
390
5101F
100
AcDbText
 10
5312.536073068401
 20
-1909.197709222269
 30
0.0
 40
4.0
  1
23
 41
0.8
  7
MICROCADAM
100
AcDbText
  0
POINT
  5
524D6
330
2
100
AcDbEntity
  8
Konstruktionslinie
100
AcDbPoint
 10
5307.091899658664
 20
-1897.706608584513
 30
0.0
  0
CIRCLE
  5
524D7
330
2
100
AcDbEntity
  8
Punkte
  6
Continuous
 62
    20
390
5101B
100
AcDbCircle
 10
5307.091899658664
 20
-1897.706608584513
 30
0.0
 40
1.407999999999999
  0
TEXT
  5
524D8
330
2
100
AcDbEntity
  8
0
  6
Continuous
 62
     1
390
5101F
100
AcDbText
 10
5300.832024917937
 20
-1894.104269860531
 30
0.0
 40
4.0
  1
24
 41
0.8
  7
MICROCADAM
100
AcDbText
  0
POINT
  5
524D9
330
2
100
AcDbEntity
  8
Konstruktionslinie
100
AcDbPoint
 10
5211.946899658664
 20
-1909.381608584513
 30
0.0
  0
CIRCLE
  5
524DA
330
2
100
AcDbEntity
  8
Punkte
  6
Continuous
 62
    20
390
5101B
100
AcDbCircle
 10
5211.946899658664
 20
-1909.381608584513
 30
0.0
 40
1.407999999999999
  0
TEXT
  5
524DB
330
2
100
AcDbEntity
  8
0
  6
Continuous
 62
     1
390
5101F
100
AcDbText
 10
5205.657628954845
 20
-1905.933970821721
 30
0.0
 40
4.0
  1
25
 41
0.8
  7
MICROCADAM
100
AcDbText
  0
LINE
  5
524DC
330
2
100
AcDbEntity
  8
V1_025
  6
DASHED
100
AcDbLine
 10
5323.449899658663
 20
-1861.732608584513
 30
0.0
 11
5323.449899658664
 21
-1874.732608584513
 31
0.0
  0
LINE
  5
524DD
330
2
100
AcDbEntity
  8
V1_025
  6
DASHED
100
AcDbLine
 10
5335.549899658662
 20
-1861.732608584513
 30
0.0
 11
5335.549899658664
 21
-1874.732608584513
 31
0.0
  0
LINE
  5
524DE
330
2
100
AcDbEntity
  8
V1_025
100
AcDbLine
 10
5206.634899658664
 20
-1915.381608584513
 30
0.0
 11
5206.634899658664
 21
-1923.545608584513
 31
0.0
  0
ARC
  5
524E0
330
2
100
AcDbEntity
  8
V1_025
100
AcDbCircle
 10
5212.684893437742
 20
-1923.554284593043
 30
0.0
 40
6.049999999999999
100
AcDbArc
 50
179.9178349021159
 51
274.5031224670962
  0
LINE
  5
524E1
330
2
100
AcDbEntity
  8
V1_025
100
AcDbLine
 10
5213.159899658664
 20
-1929.585608584513
 30
0.0
 11
5292.333899658665
 21
-1923.353608584513
 31
0.0
  0
ARC
  5
524E2
330
2
100
AcDbEntity
  8
V1_025
100
AcDbCircle
 10
5293.549899660338
 20
-1938.805836384928
 30
0.0
 40
15.5
100
AcDbArc
 50
0.000842064670736
 51
94.49956994633238
  0
LINE
  5
524E3
330
2
100
AcDbEntity
  8
V1_025
100
AcDbLine
 10
5309.049899658663
 20
-1938.805608584513
 30
0.0
 11
5309.049899658663
 21
-2145.732608584513
 31
0.0
  0
ARC
  5
524E4
330
2
100
AcDbEntity
  8
V1_025
100
AcDbCircle
 10
5365.099899650559
 20
-2145.73356178196
 30
0.0
 40
56.05
100
AcDbArc
 50
179.9990256165789
 51
200.9491188110001
  0
LINE
  5
524E5
330
2
100
AcDbEntity
  8
V1_025
100
AcDbLine
 10
5312.754899658663
 20
-2165.773608584513
 30
0.0
 11
5320.543899658664
 21
-2186.117608584513
 31
0.0
  0
ARC
  5
524E7
330
2
100
AcDbEntity
  8
V1_025
100
AcDbCircle
 10
5279.499899669975
 20
-2201.833605687099
 30
0.0
 40
43.95
100
AcDbArc
 50
0.0012998809939833
 51
20.95214682112617
  0
LINE
  5
524E8
330
2
100
AcDbEntity
  8
V1_025
100
AcDbLine
 10
5323.449899658664
 20
-2201.832608584513
 30
0.0
 11
5323.449899658664
 21
-2242.732608584513
 31
0.0
  0
LINE
  5
524E9
330
2
100
AcDbEntity
  8
V1_025
  6
DASHED
100
AcDbLine
 10
5323.449899658664
 20
-2242.732608584513
 30
0.0
 11
5323.449899658667
 21
-2261.732604584514
 31
0.0
  0
LINE
  5
524EA
330
2
100
AcDbEntity
  8
V1_025
  6
DASHED
100
AcDbLine
 10
5335.549899658664
 20
-2242.732608584513
 30
0.0
 11
5335.549899658666
 21
-2261.732604584514
 31
0.0
  0
LINE
  5
524EB
330
2
100
AcDbEntity
  8
V1_025
  6
DASHED
100
AcDbLine
 10
5323.449899658664
 20
-2266.732604584513
 30
0.0
 11
5323.449899658672
 21
-2316.734008584513
 31
0.0
  0
LINE
  5
524EC
330
2
100
AcDbEntity
  8
V1_025
  6
DASHED
100
AcDbLine
 10
5335.549899658664
 20
-2266.732604584513
 30
0.0
 11
5335.549899658673
 21
-2316.734008584513
 31
0.0
  0
ARC
  5
524EE
330
2
100
AcDbEntity
  8
V1_025
100
AcDbCircle
 10
5329.499899658664
 20
-2242.732608584513
 30
0.0
 40
6.049999999999999
100
AcDbArc
 50
180.0
 51
0.0
  0
LINE
  5
524EF
330
2
100
AcDbEntity
  8
V1_025
100
AcDbLine
 10
5335.549899658664
 20
-2242.732608584513
 30
0.0
 11
5335.549899658664
 21
-2201.832608584513
 31
0.0
  0
ARC
  5
524F0
330
2
100
AcDbEntity
  8
V1_025
100
AcDbCircle
 10
5279.499899661633
 20
-2201.833185466808
 30
0.0
 40
56.05
100
AcDbArc
 50
0.0005897042071026
 51
20.98910924452383
  0
LINE
  5
524F1
330
2
100
AcDbEntity
  8
V1_025
100
AcDbLine
 10
5331.830899658664
 20
-2181.756608584513
 30
0.0
 11
5324.624899658664
 21
-2162.956608584513
 31
0.0
  0
ARC
  5
524F3
330
2
100
AcDbEntity
  8
V1_025
100
AcDbCircle
 10
5365.74837505717
 20
-2147.168566554276
 30
0.0
 40
44.04999999999999
100
AcDbArc
 50
182.689586635888
 51
201.0026943394368
  0
ARC
  5
524F4
330
2
100
AcDbEntity
  8
V1_025
100
AcDbCircle
 10
5324.244156020075
 20
-2149.118516033979
 30
0.0
 40
2.5
100
AcDbArc
 50
52.07005984818611
 51
182.6845457114939
  0
ARC
  5
524F5
330
2
100
AcDbEntity
  8
V1_025
100
AcDbCircle
 10
5329.499899658844
 20
-2142.374655211034
 30
0.0
 40
6.049999999999999
100
AcDbArc
 50
232.0690945721479
 51
0.0004415707174479
  0
LINE
  5
524F6
330
2
100
AcDbEntity
  8
V1_025
100
AcDbLine
 10
5335.549899658664
 20
-2142.374608584513
 30
0.0
 11
5335.549899658664
 21
-1874.732608584513
 31
0.0
  0
ARC
  5
524F7
330
2
100
AcDbEntity
  8
V1_025
100
AcDbCircle
 10
5329.499899658664
 20
-1874.732608584513
 30
0.0
 40
6.049999999999999
100
AcDbArc
 50
0.0
 51
180.0
  0
LINE
  5
524F8
330
2
100
AcDbEntity
  8
V1_025
100
AcDbLine
 10
5323.449899658664
 20
-1874.732608584513
 30
0.0
 11
5323.449899658664
 21
-1901.017608584513
 31
0.0
  0
ARC
  5
524F9
330
2
100
AcDbEntity
  8
V1_025
100
AcDbCircle
 10
5320.949899680523
 20
-1901.017939184417
 30
0.0
 40
2.5
100
AcDbArc
 50
220.1107968111379
 51
0.0075767916820242
  0
ARC
  5
524FA
330
2
100
AcDbEntity
  8
V1_025
100
AcDbCircle
 10
5308.33331434295
 20
-1911.651460307698
 30
0.0
 40
14.0
100
AcDbArc
 50
40.12740388373275
 51
95.08724029492226
  0
LINE
  5
524FB
330
2
100
AcDbEntity
  8
V1_025
100
AcDbLine
 10
5307.091899658664
 20
-1897.706608584513
 30
0.0
 11
5211.946899658664
 21
-1909.381608584513
 31
0.0
  0
ARC
  5
524FC
330
2
100
AcDbEntity
  8
V1_025
100
AcDbCircle
 10
5212.684897738923
 20
-1915.386428218235
 30
0.0
 40
6.049999999999999
100
AcDbArc
 50
97.0065698698308
 51
179.9543562478876
  0
LINE
  5
524FD
330
2
100
AcDbEntity
  8
V1_035
  6
Continuous
100
AcDbLine
 10
5300.188583658664
 20
-2054.623268584513
 30
0.0
 11
5228.908553658665
 21
-2054.623268584513
 31
0.0
  0
LINE
  5
524FE
330
2
100
AcDbEntity
  8
V1_035
  6
Continuous
100
AcDbLine
 10
5296.624587658664
 20
-2058.187378584513
 30
0.0
 11
5232.472549658663
 21
-2058.187378584513
 31
0.0
  0
LINE
  5
524FF
330
2
100
AcDbEntity
  8
V1_035
  6
Continuous
100
AcDbLine
 10
5296.624587658664
 20
-2079.571304584513
 30
0.0
 11
5232.472549658663
 21
-2079.571304584513
 31
0.0
  0
LINE
  5
52500
330
2
100
AcDbEntity
  8
V1_035
  6
Continuous
100
AcDbLine
 10
5300.188583658664
 20
-2083.135406584513
 30
0.0
 11
5228.908553658665
 21
-2083.135406584513
 31
0.0
  0
LINE
  5
52501
330
2
100
AcDbEntity
  8
V1_035
  6
Continuous
100
AcDbLine
 10
5296.624587658664
 20
-2086.699340584513
 30
0.0
 11
5232.472549658663
 21
-2086.699340584513
 31
0.0
  0
LINE
  5
52502
330
2
100
AcDbEntity
  8
V1_035
  6
Continuous
100
AcDbLine
 10
5296.624595658665
 20
-2108.083266584513
 30
0.0
 11
5232.472549658663
 21
-2108.083450584513
 31
0.0
  0
LINE
  5
52503
330
2
100
AcDbEntity
  8
V1_035
  6
Continuous
100
AcDbLine
 10
5300.188591658663
 20
-2111.647200584513
 30
0.0
 11
5228.908553658665
 21
-2111.647368584513
 31
0.0
  0
LINE
  5
52504
330
2
100
AcDbEntity
  8
V1_035
  6
Continuous
100
AcDbLine
 10
5228.908553658665
 20
-2054.623268584513
 30
0.0
 11
5228.908553658665
 21
-2111.647368584513
 31
0.0
  0
LINE
  5
52505
330
2
100
AcDbEntity
  8
V1_035
  6
Continuous
100
AcDbLine
 10
5300.188583658664
 20
-2054.623268584513
 30
0.0
 11
5300.188583658664
 21
-2111.647200584513
 31
0.0
  0
LINE
  5
52506
330
2
100
AcDbEntity
  8
V1_035
  6
Continuous
100
AcDbLine
 10
5296.624587658664
 20
-2054.623268584513
 30
0.0
 11
5296.624587658664
 21
-2111.647200584513
 31
0.0
  0
LINE
  5
52507
330
2
100
AcDbEntity
  8
V1_035
  6
Continuous
100
AcDbLine
 10
5232.472549658663
 20
-2054.623268584513
 30
0.0
 11
5232.472549658663
 21
-2111.647368584513
 31
0.0
  0
LINE
  5
52508
330
2
100
AcDbEntity
  8
V1_035
  6
Continuous
100
AcDbLine
 10
5281.441131658665
 20
-2103.326332584513
 30
0.0
 11
5290.700645658664
 21
-2097.980354584513
 31
0.0
  0
LINE
  5
52509
330
2
100
AcDbEntity
  8
V1_035
  6
Continuous
100
AcDbLine
 10
5285.654861658664
 20
-2102.951484584513
 30
0.0
 11
5289.237739658664
 21
-2100.882744584513
 31
0.0
  0
LINE
  5
5250A
330
2
100
AcDbEntity
  8
V1_035
  6
Continuous
100
AcDbLine
 10
5283.766707658664
 20
-2099.926146584513
 30
0.0
 11
5286.815855658664
 21
-2098.165718584513
 31
0.0
  0
LINE
  5
5250B
330
2
100
AcDbEntity
  8
V1_035
  6
Continuous
100
AcDbLine
 10
5240.722747658665
 20
-2073.102782584513
 30
0.0
 11
5249.982283658664
 21
-2067.756980584513
 31
0.0
  0
LINE
  5
5250C
330
2
100
AcDbEntity
  8
V1_035
  6
Continuous
100
AcDbLine
 10
5244.936171658665
 20
-2072.727844584512
 30
0.0
 11
5248.519133658665
 21
-2070.659270584513
 31
0.0
  0
LINE
  5
5250D
330
2
100
AcDbEntity
  8
V1_035
  6
Continuous
100
AcDbLine
 10
5243.048309658664
 20
-2069.702606584513
 30
0.0
 11
5246.097457658665
 21
-2067.942176584513
 31
0.0
  0
LINE
  5
5250E
330
2
100
AcDbEntity
  8
0
  6
Continuous
390
5101B
100
AcDbLine
 10
5265.691441464547
 20
-2069.326479574246
 30
0.0
 11
5267.847715308271
 21
-2069.326479889155
 31
0.0
  0
LINE
  5
5250F
330
2
100
AcDbEntity
  8
0
  6
Continuous
390
5101B
100
AcDbLine
 10
5264.548599087232
 20
-2075.040776584479
 30
0.0
 11
5261.249460192253
 21
-2069.326503565531
 31
0.0
  0
LINE
  5
52510
330
2
100
AcDbEntity
  8
0
  6
Continuous
390
5101B
100
AcDbLine
 10
5264.548566515836
 20
-2075.04077715592
 30
0.0
 11
5267.847698736869
 21
-2069.326505603421
 31
0.0
  0
LINE
  5
52511
330
2
100
AcDbEntity
  8
0
  6
Continuous
390
5101B
100
AcDbLine
 10
5263.405731316232
 20
-2060.755093594713
 30
0.0
 11
5263.405728321691
 21
-2069.326483309034
 31
0.0
  0
LINE
  5
52512
330
2
100
AcDbEntity
  8
0
  6
Continuous
390
5101B
100
AcDbLine
 10
5265.691443316232
 20
-2060.755095002777
 30
0.0
 11
5265.691440321692
 21
-2069.326484717098
 31
0.0
  0
LINE
  5
52513
330
2
100
AcDbEntity
  8
0
  6
Continuous
390
5101B
100
AcDbLine
 10
5263.405735316213
 20
-2060.755058737604
 30
0.0
 11
5265.691447316215
 21
-2060.755060145668
 31
0.0
  0
LINE
  5
52514
330
2
100
AcDbEntity
  8
0
  6
Continuous
390
5101B
100
AcDbLine
 10
5261.249442477976
 20
-2069.326478994134
 30
0.0
 11
5263.405729464546
 21
-2069.326479309038
 31
0.0
  0
DIMENSION
  5
52515
330
2
100
AcDbEntity
  8
Bem 1_10
100
AcDbDimension
  2
*D99
 10
5220.099991658663
 20
-1660.732604584511
 30
0.0
 11
5225.058200094177
 21
-1644.811807050782
 31
0.0
 70
    36
 71
     5
 42
6.049999999999272
  3
Bemassungsstil Karl
100
AcDbRadialDimension
 15
5221.898921855655
 25
-1654.95624326043
 35
0.0
 40
0.0
1001
ACAD
1000
DSTYLE
1002
{
1070
   288
1070
     1
1002
}
  0
DIMENSION
  5
5251F
330
2
100
AcDbEntity
  8
Bem 1_10
100
AcDbDimension
  2
*D100
 10
5236.099991638511
 20
-1667.41023816954
 30
0.0
 11
5247.519436961166
 21
-1664.518517022636
 31
0.0
 70
   164
 71
     5
 42
9.950000000020736
  3
Bemassungsstil Karl
100
AcDbRadialDimension
 15
5226.454443887195
 25
-1669.852759116736
 35
0.0
 40
0.0
1001
ACAD
1000
DSTYLE
1002
{
1070
   279
1070
     1
1070
   288
1070
     1
1002
}
  0
DIMENSION
  5
52528
330
2
100
AcDbEntity
  8
Bem 1_10
100
AcDbDimension
  2
*D101
 10
5220.099971933056
 20
-1673.215155327191
 30
0.0
 11
5198.124779894702
 21
-1680.198737558695
 31
0.0
 70
   164
 71
     5
 42
6.050000000007457
  3
Bemassungsstil Karl
100
AcDbRadialDimension
 15
5214.334125096359
 25
-1675.047506345924
 35
0.0
 40
0.0
1001
ACAD
1000
DSTYLE
1002
{
1070
   288
1070
     1
1002
}
  0
DIMENSION
  5
52532
330
2
100
AcDbEntity
  8
Bem 1_10
100
AcDbDimension
  2
*D102
 10
5279.499991658729
 20
-1821.323686490623
 30
0.0
 11
5301.668520986364
 21
-1806.615524332007
 31
0.0
 70
   164
 71
     5
 42
43.95000000000755
  3
Bemassungsstil Karl
100
AcDbRadialDimension
 15
5316.12253853774
 25
-1797.025712087489
 35
0.0
 40
0.0
1001
ACAD
1000
DSTYLE
1002
{
1070
   288
1070
     1
1002
}
  0
DIMENSION
  5
5253B
330
2
100
AcDbEntity
  8
Bem 1_10
100
AcDbDimension
  2
*D103
 10
5279.499991686002
 20
-1821.325355149019
 30
0.0
 11
5307.128031545079
 21
-1813.819978237006
 31
0.0
 70
   164
 71
     5
 42
56.04999999999927
  3
Bemassungsstil Karl
100
AcDbRadialDimension
 15
5333.589659235364
 25
-1806.631466473813
 35
0.0
 40
0.0
1001
ACAD
1000
DSTYLE
1002
{
1070
   288
1070
     1
1002
}
  0
DIMENSION
  5
52544
330
2
100
AcDbEntity
  8
Bem 1_10
100
AcDbDimension
  2
*D104
 10
5329.499991658674
 20
-1843.732604584522
 30
0.0
 11
5331.053366951362
 21
-1835.727276934805
 31
0.0
 70
   164
 71
     5
 42
6.049999999992905
  3
Bemassungsstil Karl
100
AcDbRadialDimension
 15
5328.347529500167
 25
-1849.671824312156
 35
0.0
 40
0.0
1001
ACAD
1000
DSTYLE
1002
{
1070
   279
1070
     1
1070
   288
1070
     1
1002
}
  0
DIMENSION
  5
5254D
330
2
100
AcDbEntity
  8
Bem 1_10
100
AcDbDimension
  2
*D105
 10
5329.49989965865
 20
-1874.732608584507
 30
0.0
 11
5328.563412012664
 21
-1882.163826156432
 31
0.0
 70
   164
 71
     5
 42
6.049999999996543
  3
Bemassungsstil Karl
100
AcDbRadialDimension
 15
5330.256342264846
 25
-1868.730084566772
 35
0.0
 40
0.0
1001
ACAD
1000
DSTYLE
1002
{
1070
   279
1070
     1
1070
   288
1070
     1
1002
}
  0
DIMENSION
  5
52556
330
2
100
AcDbEntity
  8
Bem 1_10
100
AcDbDimension
  2
*D106
 10
5320.949899680518
 20
-1901.017939184413
 30
0.0
 11
5326.548092378516
 21
-1911.726215561152
 31
0.0
 70
    36
 71
     5
 42
2.500000000005456
  3
Bemassungsstil Karl
100
AcDbRadialDimension
 15
5322.108146445624
 25
-1903.233444641674
 35
0.0
 40
0.0
1001
ACAD
1000
DSTYLE
1002
{
1070
   288
1070
     1
1002
}
  0
DIMENSION
  5
52560
330
2
100
AcDbEntity
  8
Bem 1_10
100
AcDbDimension
  2
*D107
 10
5308.333314342933
 20
-1911.651460307691
 30
0.0
 11
5310.526099426644
 21
-1906.652950894434
 31
0.0
 70
   164
 71
     5
 42
13.99999999999932
  3
Bemassungsstil Karl
100
AcDbRadialDimension
 15
5313.957557000392
 25
-1898.830856011091
 35
0.0
 40
0.0
1001
ACAD
1000
DSTYLE
1002
{
1070
   288
1070
     1
1002
}
  0
DIMENSION
  5
52569
330
2
100
AcDbEntity
  8
Bem 1_10
100
AcDbDimension
  2
*D108
 10
5212.684897738923
 20
-1915.386428218234
 30
0.0
 11
5197.746282148512
 21
-1907.538857460284
 31
0.0
 70
   164
 71
     5
 42
6.050000000000181
  3
Bemassungsstil Karl
100
AcDbRadialDimension
 15
5207.328948516126
 25
-1912.572834800055
 35
0.0
 40
0.0
1001
ACAD
1000
DSTYLE
1002
{
1070
   288
1070
     1
1002
}
  0
DIMENSION
  5
52573
330
2
100
AcDbEntity
  8
Bem 1_10
100
AcDbDimension
  2
*D109
 10
5212.684893437741
 20
-1923.554284593041
 30
0.0
 11
5199.479139712729
 21
-1935.413991492144
 31
0.0
 70
   164
 71
     5
 42
6.050000000000181
  3
Bemassungsstil Karl
100
AcDbRadialDimension
 15
5208.183649361679
 25
-1927.596722195245
 35
0.0
 40
0.0
1001
ACAD
1000
DSTYLE
1002
{
1070
   288
1070
     1
1002
}
  0
DIMENSION
  5
5257D
330
2
100
AcDbEntity
  8
Bem 1_10
100
AcDbDimension
  2
*D110
 10
5293.549899660354
 20
-1938.805836384934
 30
0.0
 11
5296.55124208211
 21
-1934.703127347591
 31
0.0
 70
   164
 71
     5
 42
15.49999999999545
  3
Bemassungsstil Karl
100
AcDbRadialDimension
 15
5302.701533929978
 25
-1926.295936697291
 35
0.0
 40
0.0
1001
ACAD
1000
DSTYLE
1002
{
1070
   288
1070
     1
1002
}
  0
DIMENSION
  5
52586
330
2
100
AcDbEntity
  8
Bem 1_10
100
AcDbDimension
  2
*D111
 10
5365.099899650565
 20
-2145.733561781961
 30
0.0
 11
5332.004477682169
 21
-2157.327661451221
 31
0.0
 70
   164
 71
     5
 42
56.05000000000564
  3
Bemassungsstil Karl
100
AcDbRadialDimension
 15
5312.201974523286
 25
-2164.264941040651
 35
0.0
 40
0.0
1001
ACAD
1000
DSTYLE
1002
{
1070
   288
1070
     1
1002
}
  0
DIMENSION
  5
5258F
330
2
100
AcDbEntity
  8
Bem 1_10
100
AcDbDimension
  2
*D112
 10
5365.748375057161
 20
-2147.168566554282
 30
0.0
 11
5339.020991422829
 21
-2151.208659731424
 31
0.0
 70
   164
 71
     5
 42
44.04999999999017
  3
Bemassungsstil Karl
100
AcDbRadialDimension
 15
5322.193164209605
 25
-2153.752342676242
 35
0.0
 40
0.0
1001
ACAD
1000
DSTYLE
1002
{
1070
   288
1070
     1
1002
}
  0
DIMENSION
  5
525A7
330
2
100
AcDbEntity
  8
Bem 1_10
100
AcDbDimension
  2
*D113
 10
5324.244156020082
 20
-2149.118516033971
 30
0.0
 11
5314.441459495592
 21
-2139.10652649759
 31
0.0
 70
   164
 71
     5
 42
2.49999999999909
  3
Bemassungsstil Karl
100
AcDbRadialDimension
 15
5322.4951587027
 25
-2147.332176653063
 35
0.0
 40
0.0
1001
ACAD
1000
DSTYLE
1002
{
1070
   288
1070
     1
1002
}
  0
DIMENSION
  5
525B1
330
2
100
AcDbEntity
  8
Bem 1_10
100
AcDbDimension
  2
*D114
 10
5329.499899658856
 20
-2142.37465521103
 30
0.0
 11
5327.841511884223
 21
-2135.986874570001
 31
0.0
 70
   164
 71
     5
 42
6.049999999999272
  3
Bemassungsstil Karl
100
AcDbRadialDimension
 15
5331.020193307129
 25
-2148.230524678754
 35
0.0
 40
0.0
1001
ACAD
1000
DSTYLE
1002
{
1070
   279
1070
     1
1070
   288
1070
     1
1002
}
  0
DIMENSION
  5
525BA
330
2
100
AcDbEntity
  8
Bem 1_10
100
AcDbDimension
  2
*D115
 10
5279.499899669975
 20
-2201.833605687101
 30
0.0
 11
5307.764788259175
 21
-2193.935015721126
 31
0.0
 70
   164
 71
     5
 42
43.95000000000163
  3
Bemassungsstil Karl
100
AcDbRadialDimension
 15
5321.828220356926
 25
-2190.005006115608
 35
0.0
 40
0.0
1001
ACAD
1000
DSTYLE
1002
{
1070
   288
1070
     1
1002
}
  0
DIMENSION
  5
525C3
330
2
100
AcDbEntity
  8
Bem 1_10
100
AcDbDimension
  2
*D116
 10
5279.499899661642
 20
-2201.833185466806
 30
0.0
 11
5310.60654185826
 21
-2199.100333666319
 31
0.0
 70
   164
 71
     5
 42
56.04999999998927
  3
Bemassungsstil Karl
100
AcDbRadialDimension
 15
5335.334836349432
 25
-2196.927847041244
 35
0.0
 40
0.0
1001
ACAD
1000
DSTYLE
1002
{
1070
   288
1070
     1
1002
}
  0
DIMENSION
  5
525DB
330
2
100
AcDbEntity
  8
Bem 1_10
100
AcDbDimension
  2
*D117
 10
5329.499899658658
 20
-2242.732608584514
 30
0.0
 11
5331.012865846623
 21
-2237.423639942009
 31
0.0
 70
   164
 71
     5
 42
6.04999999999768
  3
Bemassungsstil Karl
100
AcDbRadialDimension
 15
5327.841770580854
 25
-2248.550950956815
 35
0.0
 40
0.0
1001
ACAD
1000
DSTYLE
1002
{
1070
   279
1070
     1
1070
   288
1070
     1
1002
}
  0
VIEWPORT
  5
517FD
102
{ACAD_XDICTIONARY
360
525FC
102
}
330
517F6
100
AcDbEntity
 67
     1
  8
0
100
AcDbViewport
 10
5.572402000960334
 20
2.48943760392164
 30
0.0
 40
24.4974267152115
 41
19.16186152488271
 68
     1
 69
     1
 12
5.572402000960334
 22
2.48943760392164
 13
0.0
 23
0.0
 14
10.0
 24
10.0
 15
10.0
 25
10.0
 16
0.0
 26
0.0
 36
1.0
 17
0.0
 27
0.0
 37
0.0
 42
50.0
 43
0.0
 44
0.0
 45
19.16186152488271
 50
0.0
 51
0.0
 72
  1000
 90
   557088
  1

281
     0
 71
     1
 74
     0
110
0.0
120
0.0
130
0.0
111
1.0
121
0.0
131
0.0
112
0.0
122
1.0
132
0.0
 79
     0
146
0.0
  0
VIEWPORT
  5
517FF
102
{ACAD_XDICTIONARY
360
525FE
102
}
330
517F6
100
AcDbEntity
 67
     1
  8
V1_035
100
AcDbViewport
 10
5.678332987732773
 20
3.966666779180211
 30
0.0
 40
9.085332780372439
 41
6.346666846688337
 68
     2
 69
     2
 12
5409.049819658664
 22
-45705.03860258451
 13
0.0
 23
0.0
 14
0.5
 24
0.5
 15
0.5
 25
0.5
 16
0.0
 26
0.0
 36
1.0
 17
0.0
 27
0.0
 37
0.0
 42
50.0
 43
0.0
 44
0.0
 45
89358.33844649797
 50
0.0
 51
0.0
 72
  1000
 90
   823392
  1

281
     0
 71
     1
 74
     0
110
0.0
120
0.0
130
0.0
111
1.0
121
0.0
131
0.0
112
0.0
122
1.0
132
0.0
 79
     0
146
0.0
  0
ENDSEC
  0
SECTION
  2
OBJECTS
  0
DICTIONARY
  5
7
330
0
100
AcDbDictionary
281
     1
  3
ACAD_COLOR
350
74
  3
ACAD_GROUP
350
1F
  3
ACAD_LAYOUT
350
B
  3
ACAD_MATERIAL
350
73
  3
ACAD_MLINESTYLE
350
20
  3
ACAD_PLOTSETTINGS
350
21
  3
ACAD_PLOTSTYLENAME
350
6
  3
ACAD_TABLESTYLE
350
B2
  3
ACAD_VISUALSTYLE
350
A1
  3
AcDbVariableDictionary
350
BA
  3
AEC_CLASSIFICATION_SYSTEM_DEFS
350
311E5
  3
AEC_PROPERTY_SET_DEFS
350
311E6
  3
DWGPROPS
350
525F4
  0
DICTIONARY
  5
73F
330
10
100
AcDbDictionary
280
     1
281
     1
  3
ACAD_LAYERFILTERS
360
517EE
  3
ACAD_LAYERSTATES
360
740
  3
ACLYDICTIONARY
360
517ED
  0
DICTIONARY
  5
75C6
330
2
100
AcDbDictionary
280
     1
281
     1
  3
ACAD_SORTENTS
360
75C7
  0
DICTIONARY
  5
525F9
330
517B4
100
AcDbDictionary
280
     1
281
     1
  3
ACAD_MTEXT_RT
360
525FA
  0
DICTIONARY
  5
525FC
330
517FD
100
AcDbDictionary
280
     1
281
     1
  3
ACAD_XREC_ROUNDTRIP
360
525FD
  0
DICTIONARY
  5
525FE
330
517FF
100
AcDbDictionary
280
     1
281
     1
  3
ACAD_XREC_ROUNDTRIP
360
525FF
  0
DICTIONARY
  5
74
102
{ACAD_REACTORS
330
7
102
}
330
7
100
AcDbDictionary
281
     1
  0
DICTIONARY
  5
1F
102
{ACAD_REACTORS
330
7
102
}
330
7
100
AcDbDictionary
281
     1
  3
*A1
350
50E60
  3
*A2
350
517BC
  3
*A3
350
52373
  0
DICTIONARY
  5
B
102
{ACAD_REACTORS
330
7
102
}
330
7
100
AcDbDictionary
281
     1
  3
Layout1
350
517F7
  3
Model
350
A
  0
DICTIONARY
  5
73
102
{ACAD_REACTORS
330
7
102
}
330
7
100
AcDbDictionary
281
     1
  3
ByBlock
350
9F
  3
ByLayer
350
9E
  3
Global
350
A0
  0
DICTIONARY
  5
20
102
{ACAD_REACTORS
330
7
102
}
330
7
100
AcDbDictionary
281
     1
  3
Standard
350
23
  0
DICTIONARY
  5
21
102
{ACAD_REACTORS
330
7
102
}
330
7
100
AcDbDictionary
281
     1
  0
ACDBDICTIONARYWDFLT
  5
6
102
{ACAD_REACTORS
330
7
102
}
330
7
100
AcDbDictionary
281
     1
  3
Farbe_20
350
5101B
  3
Farbe_7
350
5101F
  3
Normal
350
5
100
AcDbDictionaryWithDefault
340
5
  0
DICTIONARY
  5
B2
102
{ACAD_REACTORS
330
7
102
}
330
7
100
AcDbDictionary
281
     1
  3
Standard
350
B3
  0
DICTIONARY
  5
A1
102
{ACAD_REACTORS
330
7
102
}
330
7
100
AcDbDictionary
281
     1
  3
2dWireframe
350
A7
  3
3D Hidden
350
A9
  3
3dWireframe
350
A8
  3
Basic
350
A6
  3
Brighten
350
AD
  3
ColorChange
350
B1
  3
Conceptual
350
AA
  3
Dim
350
AC
  3
Facepattern
350
B0
  3
Flat
350
A2
  3
FlatWithEdges
350
A3
  3
Gouraud
350
A4
  3
GouraudWithEdges
350
A5
  3
Linepattern
350
AF
  3
Realistic
350
AB
  3
Thicken
350
AE
  0
DICTIONARY
  5
BA
102
{ACAD_REACTORS
330
7
102
}
330
7
100
AcDbDictionary
281
     1
  3
CTABLESTYLE
350
BB
  3
DIMASSOC
350
51809
  3
INDEXCTL
350
51808
  3
SORTENTS
350
51807
  0
DICTIONARY
  5
311E5
102
{ACAD_REACTORS
330
7
102
}
330
7
100
AcDbDictionary
281
     1
  0
DICTIONARY
  5
311E6
102
{ACAD_REACTORS
330
7
102
}
330
7
100
AcDbDictionary
281
     1
  0
XRECORD
  5
525F4
102
{ACAD_REACTORS
330
7
102
}
330
7
100
AcDbXrecord
280
     1
  1
DWGPROPS COOKIE
  2

  3

  4

  6

  7

  8
kni
  9

300
=
301
=
302
=
303
=
304
=
305
=
306
=
307
=
308
=
309
=
 40
0.5366797800925926
 41
2454889.588798877
 42
2454896.605349225
  1

 90
        0
  0
DICTIONARY
  5
517EE
102
{ACAD_REACTORS
330
73F
102
}
330
73F
100
AcDbDictionary
281
     1
  0
DICTIONARY
  5
740
102
{ACAD_REACTORS
330
73F
102
}
330
73F
100
AcDbDictionary
281
     1
  0
DICTIONARY
  5
517ED
102
{ACAD_REACTORS
330
73F
102
}
330
73F
100
AcDbDictionary
281
     1
1001
ACAD
1000
<All
  0
SORTENTSTABLE
  5
75C7
102
{ACAD_REACTORS
330
75C6
102
}
330
75C6
100
AcDbSortentsTable
330
2
331
523BC
  5
523C3
331
523DB
  5
523E2
331
523FA
  5
52401
331
52419
  5
52420
331
52377
  5
5237E
331
52396
  5
5239D
331
523BD
  5
523C4
331
523DC
  5
523E3
331
523FB
  5
52402
331
5241A
  5
52421
331
52378
  5
5237F
331
52397
  5
5239E
331
523BE
  5
523C5
331
523DD
  5
523E4
331
523FC
  5
52403
331
5241B
  5
52422
331
52379
  5
52380
331
52398
  5
5239F
331
523BF
  5
523C6
331
523DE
  5
523E5
331
523FD
  5
52404
331
5241C
  5
52423
331
5237A
  5
52381
331
52399
  5
523A0
331
523FE
  5
52405
331
5241D
  5
52424
331
523C0
  5
523C7
331
523DF
  5
523E6
331
5237B
  5
52382
331
5239A
  5
523A1
331
523C1
  5
523C8
331
523E0
  5
523E7
331
523FF
  5
52406
331
5241E
  5
52425
331
5237C
  5
52383
331
5239B
  5
523A2
331
523C2
  5
523C9
331
523E1
  5
523E8
331
52400
  5
52407
331
5241F
  5
52426
331
5237D
  5
52384
331
5239C
  5
523A3
331
523C3
  5
523CA
331
523E2
  5
523E9
331
52401
  5
52408
331
5237E
  5
52385
331
5239D
  5
523A4
331
523C4
  5
523CB
331
523E3
  5
523EA
331
52402
  5
52409
331
5237F
  5
52386
331
5239E
  5
523A5
331
523C5
  5
523CC
331
523E4
  5
523EB
331
52403
  5
5240A
331
52380
  5
52387
331
5239F
  5
523A6
331
523C6
  5
523CD
331
523E5
  5
523EC
331
52404
  5
5240B
331
52381
  5
52388
331
523A0
  5
523A7
331
523C7
  5
523CE
331
523E6
  5
523ED
331
52405
  5
5240C
331
52382
  5
52389
331
523A1
  5
523A8
331
52406
  5
5240D
331
523E7
  5
523EE
331
52383
  5
5238A
331
523A2
  5
523A9
331
52407
  5
5240E
331
52384
  5
5238B
331
523A3
  5
523AA
331
52385
  5
5238C
331
523A4
  5
523AB
331
52386
  5
5238D
331
523A5
  5
523AC
331
52387
  5
5238E
331
523A6
  5
523AD
331
511C9
  5
511D1
331
511F0
  5
511F8
331
52388
  5
5238F
331
523A7
  5
523AE
331
511F1
  5
511F9
331
52389
  5
52390
331
511CB
  5
511D3
331
511F2
  5
511FA
331
5238A
  5
52391
331
511F3
  5
511FB
331
51748
  5
517DE
331
5238B
  5
52392
331
511CD
  5
511D5
331
511F4
  5
511FC
331
514C3
  5
511C1
331
5238C
  5
52393
331
511F5
  5
511FD
331
516E3
  5
516FD
331
5238D
  5
52394
331
511F6
  5
511FE
331
516E4
  5
516FE
331
5238E
  5
52395
331
511F7
  5
511FF
331
516E5
  5
516FF
331
5238F
  5
52396
331
516E6
  5
51700
331
511F8
  5
51200
331
516E7
  5
51701
331
517AD
  5
517E0
331
511D2
  5
511DA
331
511F9
  5
51201
331
516E8
  5
51702
331
511FA
  5
51202
331
517AF
  5
517E1
331
511FB
  5
51203
331
511FC
  5
51204
331
517B0
  5
517E2
331
511FD
  5
51205
331
514DC
  5
511C6
331
517B1
  5
517E3
331
511FE
  5
51206
331
517B2
  5
517E4
331
517B3
  5
517E5
331
517B4
  5
517E6
331
514E3
  5
511C8
331
511E6
  5
511EE
331
5122D
  5
51235
331
51743
  5
517D9
331
51744
  5
517DA
331
51745
  5
517DB
331
511E8
  5
511F0
331
5175D
  5
517DF
331
51746
  5
517DC
331
511E9
  5
511F1
331
511EB
  5
511F3
331
511EC
  5
511F4
331
523A8
  5
523AF
331
523A9
  5
523B0
331
523C8
  5
523CF
331
5129C
  5
512A4
331
514EB
  5
511BD
331
523AA
  5
523B1
331
523C9
  5
523D0
331
523E8
  5
523EF
331
511EE
  5
511F6
331
5129D
  5
512A5
331
523AB
  5
523B2
331
523CA
  5
523D1
331
523E9
  5
523F0
331
52408
  5
5240F
331
5129E
  5
512A6
331
511BC
  5
511BF
331
523AC
  5
523B3
331
523CB
  5
523D2
331
523EA
  5
523F1
331
52409
  5
52410
331
5129F
  5
512A7
331
52420
  5
52427
331
511BD
  5
511C0
331
523AD
  5
523B4
331
523CC
  5
523D3
331
523EB
  5
523F2
331
5240A
  5
52411
331
52421
  5
52428
331
511BE
  5
511C3
331
523AE
  5
523B5
331
523CD
  5
523D4
331
523EC
  5
523F3
331
5240B
  5
52412
331
52422
  5
52429
331
511BF
  5
511C4
331
523AF
  5
523B6
331
523CE
  5
523D5
331
523ED
  5
523F4
331
5240C
  5
52413
331
511C0
  5
511C7
331
523CF
  5
523D6
331
523EE
  5
523F5
331
5240D
  5
52414
331
523B0
  5
523B7
331
511C1
  5
511C9
331
5240E
  5
52415
331
523B1
  5
523B8
331
523D0
  5
523D7
331
523EF
  5
523F6
331
511C2
  5
511CA
331
523B2
  5
523B9
331
523D1
  5
523D8
331
523F0
  5
523F7
331
5240F
  5
52416
331
511C3
  5
511CB
331
523B3
  5
523BA
331
523D2
  5
523D9
331
523F1
  5
523F8
331
52410
  5
52417
331
523B4
  5
523BB
331
523D3
  5
523DA
331
523F2
  5
523F9
331
52411
  5
52418
331
511C5
  5
511CD
331
523B5
  5
523BC
331
523D4
  5
523DB
331
523F3
  5
523FA
331
52412
  5
52419
331
523B6
  5
523BD
331
523D5
  5
523DC
331
523F4
  5
523FB
331
52413
  5
5241A
331
52390
  5
52397
331
523B7
  5
523BE
331
523D6
  5
523DD
331
523F5
  5
523FC
331
52414
  5
5241B
331
52391
  5
52398
331
523F6
  5
523FD
331
52415
  5
5241C
331
523B8
  5
523BF
331
523D7
  5
523DE
331
52392
  5
52399
331
523B9
  5
523C0
331
523D8
  5
523DF
331
523F7
  5
523FE
331
52416
  5
5241D
331
52374
  5
5237B
331
52393
  5
5239A
331
523BA
  5
523C1
331
523D9
  5
523E0
331
523F8
  5
523FF
331
52417
  5
5241E
331
52375
  5
5237C
331
52394
  5
5239B
331
523BB
  5
523C2
331
523DA
  5
523E1
331
523F9
  5
52400
331
52418
  5
5241F
331
52376
  5
5237D
331
52395
  5
5239C
  0
XRECORD
  5
525FA
102
{ACAD_REACTORS
330
525F9
102
}
330
525F9
100
AcDbXrecord
280
     1
 40
90530.0
  1
{\fArial|b0|i0|c238|p34;Flügelhöhe}
  0
XRECORD
  5
525FD
102
{ACAD_REACTORS
330
525FC
102
}
330
525FC
100
AcDbXrecord
280
     1
102
SHADEPLOT
 70
     0
  0
XRECORD
  5
525FF
102
{ACAD_REACTORS
330
525FE
102
}
330
525FE
100
AcDbXrecord
280
     1
102
SHADEPLOT
 70
     0
  0
GROUP
  5
50E60
102
{ACAD_REACTORS
330
1F
102
}
330
1F
100
AcDbGroup
300

 70
     1
 71
     1
  0
GROUP
  5
517BC
102
{ACAD_REACTORS
330
1F
102
}
330
1F
100
AcDbGroup
300

 70
     1
 71
     1
  0
GROUP
  5
52373
102
{ACAD_REACTORS
330
1F
102
}
330
1F
100
AcDbGroup
300

 70
     1
 71
     1
  0
LAYOUT
  5
517F7
102
{ACAD_XDICTIONARY
360
51804
102
}
102
{ACAD_REACTORS
330
B
102
}
330
B
100
AcDbPlotSettings
  1

  2
\\10.1.1.109\prt132
  4
A4
  6

 40
4.233333110809326
 41
4.233341693878172
 42
4.233322143554686
 43
4.23333740234375
 44
209.9733276367186
 45
296.9259948730469
 46
0.0
 47
0.0
 48
0.0
 49
0.0
140
0.0
141
0.0
142
1.0
143
1.0
 70
   688
 72
     0
 73
     1
 74
     5
  7
C:\Dokumente und Einstellungen\kni\Anwendungsdaten\Autodesk\AutoCAD LT 2007\R12\deu\Plot Styles\schwarz-weiss.ctb
 75
    16
147
1.0
148
0.0
149
0.0
100
AcDbLayout
  1
Layout1
 70
     1
 71
     1
 10
-0.1666668268639272
 20
-0.166666657905879
 11
11.52333297128752
 21
8.099999784484621
 12
0.0
 22
0.0
 32
0.0
 14
1.135666597546553
 24
0.793333355836043
 34
0.0
 15
10.22099937791899
 25
7.14000020252438
 35
0.0
146
0.0
 13
0.0
 23
0.0
 33
0.0
 16
1.0
 26
0.0
 36
0.0
 17
0.0
 27
1.0
 37
0.0
 76
     0
330
517F6
331
517FD
1001
ACAD_PSEXT
1000
\\10.1.1.109\prt132
1000
HP LaserJet 5100 PCL 6
1000
Technischer Dienst
1000
Schacht 2 = A3, Schacht 3 = A4 (Standardschacht), Duplexer. Toner Cartridge C4129X - Gerät beschafft 27.01.2005
1070
     0
  0
LAYOUT
  5
A
102
{ACAD_XDICTIONARY
360
525F5
102
}
102
{ACAD_REACTORS
330
B
102
}
330
B
100
AcDbPlotSettings
  1

  2
none_device
  4
ANSI_A_(8.50_x_11.00_Inches)
  6

 40
6.349999904632567
 41
19.04999923706055
 42
6.350006103515625
 43
19.04998779296875
 44
215.8999938964844
 45
279.3999938964844
 46
28.8998437514057
 47
66.29433650175958
 48
0.0
 49
0.0
140
0.0
141
0.0
142
1.0
143
1.869412762981399
 70
 11956
 72
     0
 73
     1
 74
     1
  7
monochrome.ctb
 75
     0
147
0.5349273417846833
148
0.0186023801347695
149
0.0165873754016396
100
AcDbLayout
  1
Model
 70
     1
 71
     0
 10
0.0
 20
0.0
 11
12.0
 21
9.0
 12
0.0
 22
0.0
 32
0.0
 14
0.0
 24
0.0
 34
0.0
 15
0.0
 25
0.0
 35
0.0
146
0.0
 13
0.0
 23
0.0
 33
0.0
 16
1.0
 26
0.0
 36
0.0
 17
0.0
 27
1.0
 37
0.0
 76
     0
330
2
331
9C
  0
MATERIAL
  5
9F
102
{ACAD_XDICTIONARY
360
5180F
102
}
102
{ACAD_REACTORS
330
73
102
}
330
73
100
AcDbMaterial
  1
ByBlock
  0
MATERIAL
  5
9E
102
{ACAD_XDICTIONARY
360
5180D
102
}
102
{ACAD_REACTORS
330
73
102
}
330
73
100
AcDbMaterial
  1
ByLayer
  0
MATERIAL
  5
A0
102
{ACAD_XDICTIONARY
360
51811
102
}
102
{ACAD_REACTORS
330
73
102
}
330
73
100
AcDbMaterial
  1
Global
  0
MLINESTYLE
  5
23
102
{ACAD_REACTORS
330
20
102
}
330
20
100
AcDbMlineStyle
  2
STANDARD
 70
     0
  3

 62
   256
 51
90.0
 52
90.0
 71
     2
 49
0.5
 62
   256
  6
BYLAYER
 49
-0.5
 62
   256
  6
BYLAYER
  0
ACDBPLACEHOLDER
  5
5101B
102
{ACAD_REACTORS
330
6
102
}
330
6
  0
ACDBPLACEHOLDER
  5
5101F
102
{ACAD_REACTORS
330
6
102
}
330
6
  0
ACDBPLACEHOLDER
  5
5
102
{ACAD_REACTORS
330
6
102
}
330
6
  0
TABLESTYLE
  5
B3
102
{ACAD_XDICTIONARY
360
525F7
102
}
102
{ACAD_REACTORS
330
B2
102
}
330
B2
100
AcDbTableStyle
  3
Standard
 70
     0
 71
     0
 40
0.06
 41
0.06
280
     0
281
     0
  7
Standard
140
0.18
170
     2
 62
     0
 63
     7
283
     0
274
    -2
284
     1
 64
     0
275
    -2
285
     1
 65
     0
276
    -2
286
     1
 66
     0
277
    -2
287
     1
 67
     0
278
    -2
288
     1
 68
     0
279
    -2
289
     1
 69
     0
  7
Standard
140
0.25
170
     5
 62
     0
 63
     7
283
     0
274
    -2
284
     1
 64
     0
275
    -2
285
     1
 65
     0
276
    -2
286
     1
 66
     0
277
    -2
287
     1
 67
     0
278
    -2
288
     1
 68
     0
279
    -2
289
     1
 69
     0
  7
Standard
140
0.18
170
     5
 62
     0
 63
     7
283
     0
274
    -2
284
     1
 64
     0
275
    -2
285
     1
 65
     0
276
    -2
286
     1
 66
     0
277
    -2
287
     1
 67
     0
278
    -2
288
     1
 68
     0
279
    -2
289
     1
 69
     0
  0
VISUALSTYLE
  5
A7
102
{ACAD_REACTORS
330
A1
102
}
330
A1
100
AcDbVisualStyle
  2
2dWireframe
 70
     4
 71
     0
 72
     2
 73
     1
 90
        0
 40
-0.6
 41
-30.0
 62
     5
 63
     7
 74
     1
 91
        4
 64
     7
 65
   257
 75
     1
175
     1
 42
1.0
 92
        0
 66
   257
 43
1.0
 76
     1
 77
     6
 78
     2
 67
     7
 79
     5
170
     0
171
     0
290
     0
174
     0
 93
        1
 44
0.0
173
     0
291
     0
 45
0.0
1001
ACAD
1000
AcDbSavedByObjectVersion
1070
     0
1000
AcDbSavedByObjectVersion
1070
     0
  0
VISUALSTYLE
  5
A9
102
{ACAD_REACTORS
330
A1
102
}
330
A1
100
AcDbVisualStyle
  2
3D Hidden
 70
     6
 71
     1
 72
     2
 73
     2
 90
        0
 40
-0.6
 41
-30.0
 62
     5
 63
     7
 74
     2
 91
       10
 64
     7
 65
   257
 75
     2
175
     2
 42
40.0
 92
        0
 66
   257
 43
1.0
 76
     1
 77
     6
 78
     2
 67
     7
 79
     3
170
     0
171
     0
290
     0
174
     0
 93
        1
 44
0.0
173
     0
291
     0
 45
0.0
1001
ACAD
1000
AcDbSavedByObjectVersion
1070
     0
1000
AcDbSavedByObjectVersion
1070
     0
  0
VISUALSTYLE
  5
A8
102
{ACAD_REACTORS
330
A1
102
}
330
A1
100
AcDbVisualStyle
  2
3dWireframe
 70
     5
 71
     0
 72
     2
 73
     1
 90
        0
 40
-0.6
 41
-30.0
 62
     5
 63
     7
 74
     1
 91
        4
 64
     7
 65
   257
 75
     1
175
     1
 42
1.0
 92
        0
 66
   257
 43
1.0
 76
     1
 77
     6
 78
     2
 67
     7
 79
     5
170
     0
171
     0
290
     0
174
     0
 93
        1
 44
0.0
173
     0
291
     0
 45
0.0
1001
ACAD
1000
AcDbSavedByObjectVersion
1070
     0
1000
AcDbSavedByObjectVersion
1070
     0
  0
VISUALSTYLE
  5
A6
102
{ACAD_REACTORS
330
A1
102
}
330
A1
100
AcDbVisualStyle
  2
Basic
 70
     7
 71
     1
 72
     0
 73
     1
 90
        0
 40
-0.6
 41
-30.0
 62
     5
 63
     7
 74
     0
 91
        4
 64
     7
 65
   257
 75
     1
175
     1
 42
1.0
 92
        8
 66
     7
 43
1.0
 76
     1
 77
     6
 78
     2
 67
     7
 79
     5
170
     0
171
     0
290
     0
174
     0
 93
        1
 44
0.0
173
     0
291
     1
 45
0.0
1001
ACAD
1000
AcDbSavedByObjectVersion
1070
     0
1000
AcDbSavedByObjectVersion
1070
     0
  0
VISUALSTYLE
  5
AD
102
{ACAD_REACTORS
330
A1
102
}
330
A1
100
AcDbVisualStyle
  2
Brighten
 70
    12
 71
     2
 72
     2
 73
     1
 90
        0
 40
-0.6
 41
-30.0
 62
     5
 63
     7
 74
     1
 91
        4
 64
     7
 65
   257
 75
     1
175
     1
 42
1.0
 92
        8
 66
     7
 43
1.0
 76
     1
 77
     6
 78
     2
 67
     7
 79
     5
170
     0
171
     0
290
     0
174
     0
 93
        1
 44
50.0
173
     0
291
     1
 45
0.0
1001
ACAD
1000
AcDbSavedByObjectVersion
1070
     0
1000
AcDbSavedByObjectVersion
1070
     0
  0
VISUALSTYLE
  5
B1
102
{ACAD_REACTORS
330
A1
102
}
330
A1
100
AcDbVisualStyle
  2
ColorChange
 70
    16
 71
     2
 72
     2
 73
     3
 90
        0
 40
-0.6
 41
-30.0
 62
     5
 63
     8
 74
     1
 91
        4
 64
     7
 65
   257
 75
     1
175
     1
 42
1.0
 92
        8
 66
     8
 43
1.0
 76
     1
 77
     6
 78
     2
 67
     7
 79
     5
170
     0
171
     0
290
     0
174
     0
 93
        1
 44
0.0
173
     0
291
     1
 45
0.0
1001
ACAD
1000
AcDbSavedByObjectVersion
1070
     0
1000
AcDbSavedByObjectVersion
1070
     0
  0
VISUALSTYLE
  5
AA
102
{ACAD_REACTORS
330
A1
102
}
330
A1
100
AcDbVisualStyle
  2
Conceptual
 70
     9
 71
     3
 72
     2
 73
     1
 90
        0
 40
-0.6
 41
-30.0
 62
     5
 63
     7
 74
     2
 91
        2
 64
     7
 65
   257
 75
     1
175
     1
 42
40.0
 92
        8
 66
     7
 43
1.0
 76
     1
 77
     6
 78
     2
 67
     7
 79
     5
170
     0
171
     0
290
     0
174
     0
 93
        1
 44
0.0
173
     0
291
     0
 45
0.0
1001
ACAD
1000
AcDbSavedByObjectVersion
1070
     0
1000
AcDbSavedByObjectVersion
1070
     0
  0
VISUALSTYLE
  5
AC
102
{ACAD_REACTORS
330
A1
102
}
330
A1
100
AcDbVisualStyle
  2
Dim
 70
    11
 71
     2
 72
     2
 73
     1
 90
        0
 40
-0.6
 41
-30.0
 62
     5
 63
     7
 74
     1
 91
        4
 64
     7
 65
   257
 75
     1
175
     1
 42
1.0
 92
        8
 66
     7
 43
1.0
 76
     1
 77
     6
 78
     2
 67
     7
 79
     5
170
     0
171
     0
290
     0
174
     0
 93
        1
 44
-50.0
173
     0
291
     1
 45
0.0
1001
ACAD
1000
AcDbSavedByObjectVersion
1070
     0
1000
AcDbSavedByObjectVersion
1070
     0
  0
VISUALSTYLE
  5
B0
102
{ACAD_REACTORS
330
A1
102
}
330
A1
100
AcDbVisualStyle
  2
Facepattern
 70
    15
 71
     2
 72
     2
 73
     1
 90
        0
 40
-0.6
 41
-30.0
 62
     5
 63
     7
 74
     1
 91
        4
 64
     7
 65
   257
 75
     1
175
     1
 42
1.0
 92
        8
 66
     7
 43
1.0
 76
     1
 77
     6
 78
     2
 67
     7
 79
     5
170
     0
171
     0
290
     0
174
     0
 93
        1
 44
0.0
173
     0
291
     1
 45
0.0
1001
ACAD
1000
AcDbSavedByObjectVersion
1070
     0
1000
AcDbSavedByObjectVersion
1070
     0
  0
VISUALSTYLE
  5
A2
102
{ACAD_REACTORS
330
A1
102
}
330
A1
100
AcDbVisualStyle
  2
Flat
 70
     0
 71
     2
 72
     1
 73
     1
 90
        2
 40
-0.6
 41
30.0
 62
     5
 63
     7
 74
     0
 91
        4
 64
     7
 65
   257
 75
     1
175
     1
 42
1.0
 92
        8
 66
     7
 43
1.0
 76
     1
 77
     6
 78
     2
 67
     7
 79
     5
170
     0
171
     0
290
     0
174
     0
 93
        1
 44
0.0
173
     0
291
     1
 45
0.0
1001
ACAD
1000
AcDbSavedByObjectVersion
1070
     0
1000
AcDbSavedByObjectVersion
1070
     0
  0
VISUALSTYLE
  5
A3
102
{ACAD_REACTORS
330
A1
102
}
330
A1
100
AcDbVisualStyle
  2
FlatWithEdges
 70
     1
 71
     2
 72
     1
 73
     1
 90
        2
 40
-0.6
 41
30.0
 62
     5
 63
     7
 74
     1
 91
        4
 64
     7
 65
   257
 75
     1
175
     1
 42
1.0
 92
        0
 66
   257
 43
1.0
 76
     1
 77
     6
 78
     2
 67
     7
 79
     5
170
     0
171
     0
290
     0
174
     0
 93
        1
 44
0.0
173
     0
291
     1
 45
0.0
1001
ACAD
1000
AcDbSavedByObjectVersion
1070
     0
1000
AcDbSavedByObjectVersion
1070
     0
  0
VISUALSTYLE
  5
A4
102
{ACAD_REACTORS
330
A1
102
}
330
A1
100
AcDbVisualStyle
  2
Gouraud
 70
     2
 71
     2
 72
     2
 73
     1
 90
        2
 40
-0.6
 41
30.0
 62
     5
 63
     7
 74
     0
 91
        4
 64
     7
 65
   257
 75
     1
175
     1
 42
1.0
 92
        0
 66
     7
 43
1.0
 76
     1
 77
     6
 78
     2
 67
     7
 79
     5
170
     0
171
     0
290
     0
174
     0
 93
        1
 44
0.0
173
     0
291
     1
 45
0.0
1001
ACAD
1000
AcDbSavedByObjectVersion
1070
     0
1000
AcDbSavedByObjectVersion
1070
     0
  0
VISUALSTYLE
  5
A5
102
{ACAD_REACTORS
330
A1
102
}
330
A1
100
AcDbVisualStyle
  2
GouraudWithEdges
 70
     3
 71
     2
 72
     2
 73
     1
 90
        2
 40
-0.6
 41
30.0
 62
     5
 63
     7
 74
     1
 91
        4
 64
     7
 65
   257
 75
     1
175
     1
 42
1.0
 92
        0
 66
   257
 43
1.0
 76
     1
 77
     6
 78
     2
 67
     7
 79
     5
170
     0
171
     0
290
     0
174
     0
 93
        1
 44
0.0
173
     0
291
     1
 45
0.0
1001
ACAD
1000
AcDbSavedByObjectVersion
1070
     0
1000
AcDbSavedByObjectVersion
1070
     0
  0
VISUALSTYLE
  5
AF
102
{ACAD_REACTORS
330
A1
102
}
330
A1
100
AcDbVisualStyle
  2
Linepattern
 70
    14
 71
     2
 72
     2
 73
     1
 90
        0
 40
-0.6
 41
-30.0
 62
     5
 63
     7
 74
     1
 91
        4
 64
     7
 65
   257
 75
     7
175
     7
 42
1.0
 92
        8
 66
     7
 43
1.0
 76
     1
 77
     6
 78
     2
 67
     7
 79
     5
170
     0
171
     0
290
     0
174
     0
 93
        1
 44
0.0
173
     0
291
     1
 45
0.0
1001
ACAD
1000
AcDbSavedByObjectVersion
1070
     0
1000
AcDbSavedByObjectVersion
1070
     0
  0
VISUALSTYLE
  5
AB
102
{ACAD_REACTORS
330
A1
102
}
330
A1
100
AcDbVisualStyle
  2
Realistic
 70
     8
 71
     2
 72
     2
 73
     1
 90
        0
 40
-0.6
 41
-30.0
 62
     5
 63
     7
 74
     1
 91
        0
 64
     7
 65
   257
 75
     1
175
     1
 42
1.0
 92
        8
 66
     7
 43
1.0
 76
     1
 77
     6
 78
     2
 67
     7
 79
     5
170
     0
171
     0
290
     0
174
     0
 93
       13
 44
0.0
173
     0
291
     0
 45
0.0
1001
ACAD
1000
AcDbSavedByObjectVersion
1070
     0
1000
AcDbSavedByObjectVersion
1070
     0
  0
VISUALSTYLE
  5
AE
102
{ACAD_REACTORS
330
A1
102
}
330
A1
100
AcDbVisualStyle
  2
Thicken
 70
    13
 71
     2
 72
     2
 73
     1
 90
        0
 40
-0.6
 41
-30.0
 62
     5
 63
     7
 74
     1
 91
        4
 64
     7
 65
   257
 75
     1
175
     1
 42
1.0
 92
       12
 66
     7
 43
1.0
 76
     1
 77
     6
 78
     2
 67
     7
 79
     5
170
     0
171
     0
290
     0
174
     0
 93
        1
 44
0.0
173
     0
291
     1
 45
0.0
1001
ACAD
1000
AcDbSavedByObjectVersion
1070
     0
1000
AcDbSavedByObjectVersion
1070
     0
  0
DICTIONARYVAR
  5
BB
102
{ACAD_REACTORS
330
BA
102
}
330
BA
100
DictionaryVariables
280
     0
  1
STANDARD
  0
DICTIONARYVAR
  5
51809
102
{ACAD_REACTORS
330
BA
102
}
330
BA
100
DictionaryVariables
280
     0
  1
1
  0
DICTIONARYVAR
  5
51808
102
{ACAD_REACTORS
330
BA
102
}
330
BA
100
DictionaryVariables
280
     0
  1
0
  0
DICTIONARYVAR
  5
51807
102
{ACAD_REACTORS
330
BA
102
}
330
BA
100
DictionaryVariables
280
     0
  1
127
  0
DICTIONARY
  5
51804
330
517F7
100
AcDbDictionary
280
     1
281
     1
  3
ACAD_XREC_ROUNDTRIP
360
525FB
  3
ADSK_XREC_LAYOUTTHUMBNAIL
360
51805
  0
DICTIONARY
  5
525F5
330
A
100
AcDbDictionary
280
     1
281
     1
  3
ACAD_XREC_ROUNDTRIP
360
525F6
  0
DICTIONARY
  5
5180F
330
9F
100
AcDbDictionary
280
     1
281
     1
  3
ACAD_XREC_ROUNDTRIP
360
51810
  0
DICTIONARY
  5
5180D
330
9E
100
AcDbDictionary
280
     1
281
     1
  3
ACAD_XREC_ROUNDTRIP
360
5180E
  0
DICTIONARY
  5
51811
330
A0
100
AcDbDictionary
280
     1
281
     1
  3
ACAD_XREC_ROUNDTRIP
360
51812
  0
DICTIONARY
  5
525F7
330
B3
100
AcDbDictionary
280
     1
281
     1
  3
ACAD_XREC_ROUNDTRIP
360
525F8
  0
XRECORD
  5
525FB
102
{ACAD_REACTORS
330
51804
102
}
330
51804
100
AcDbXrecord
280
     1
102
SHADEPLOT
 70
     0
102
SHADEPLOTRESLEVEL
 70
     2
102
SHADEPLOTCUSTOMDPI
 70
   300
  0
XRECORD
  5
51805
102
{ACAD_REACTORS
330
51804
102
}
330
51804
100
AcDbXrecord
280
     1
310
28000000B40000007F00000001000800000000004C59000000000000000000000001000000000000FFFFFF0000000000FFFFFF000000000000000000000000000000000000000000000000000000000000000000330000006600000099000000CC000000FF00000000330000333300006633000099330000CC330000FF3300
310
0000660000336600006666000099660000CC660000FF66000000990000339900006699000099990000CC990000FF99000000CC000033CC000066CC000099CC0000CCCC0000FFCC000000FF000033FF000066FF000099FF0000CCFF0000FFFF000000003300330033006600330099003300CC003300FF003300003333003333
310
33006633330099333300CC333300FF33330000663300336633006666330099663300CC663300FF66330000993300339933006699330099993300CC993300FF99330000CC330033CC330066CC330099CC3300CCCC3300FFCC330000FF330033FF330066FF330099FF3300CCFF3300FFFF330000006600330066006600660099
310
006600CC006600FF00660000336600333366006633660099336600CC336600FF33660000666600336666006666660099666600CC666600FF66660000996600339966006699660099996600CC996600FF99660000CC660033CC660066CC660099CC6600CCCC6600FFCC660000FF660033FF660066FF660099FF6600CCFF6600
310
FFFF660000009900330099006600990099009900CC009900FF00990000339900333399006633990099339900CC339900FF33990000669900336699006666990099669900CC669900FF66990000999900339999006699990099999900CC999900FF99990000CC990033CC990066CC990099CC9900CCCC9900FFCC990000FF99
310
0033FF990066FF990099FF9900CCFF9900FFFF99000000CC003300CC006600CC009900CC00CC00CC00FF00CC000033CC003333CC006633CC009933CC00CC33CC00FF33CC000066CC003366CC006666CC009966CC00CC66CC00FF66CC000099CC003399CC006699CC009999CC00CC99CC00FF99CC0000CCCC0033CCCC0066CC
310
CC0099CCCC00CCCCCC00FFCCCC0000FFCC0033FFCC0066FFCC0099FFCC00CCFFCC00FFFFCC000000FF003300FF006600FF009900FF00CC00FF00FF00FF000033FF003333FF006633FF009933FF00CC33FF00FF33FF000066FF003366FF006666FF009966FF00CC66FF00FF66FF000099FF003399FF006699FF009999FF00CC
310
99FF00FF99FF0000CCFF0033CCFF0066CCFF0099CCFF00CCCCFF00FFCCFF0000FFFF0033FFFF0066FFFF0099FFFF00CCFFFF00FFFFFF00000000000D0D0D001A1A1A00282828003535350043434300505050005D5D5D006B6B6B00787878008686860093939300A1A1A100AEAEAE00BBBBBB00C9C9C900D6D6D600E4E4E400
310
F1F1F100FFFFFF0000000000000000000000000000000000000000000000000000000000000000000000000000000000E2E2E2E2E2E2E2E2E2E2E2E2E2E2E2E2E2E2E2E2E2E2E2E2E2E2E2E2E2E2E2E2E2E2E2E2E2E2E2E2E2E2E2E2E2E2E2E2E2E2E2E2E2E2E2E2E2E2E2E2E2E2E2E2E2E2E2E2E2E2E2E2E2E2E2E2E2E2E2
310
E2E2E2E2E2E2E2E2E2E2E2E2E2E2E2E2E2E2E2E2E2E2E2E2E2E2E2E2E2E2E2E2E2E2E2E2E2E2E2E2E2E2E2E2E2E2E2E2E2E2E2E2E2E2E2E2E2E2E2E2E2E2E2E2E2E2E2E2E2E2E2E2E2E2E2E2E2E2E2E2E2E2E2E2E2E2E2E2E2E2E2E2E2E2E2E2E2E2E2E2E2E2F5F5F5F5F5F5F5F5F5F5F5F5F5F5F5F5F5F5F5F5F5F5F5F5F5
310
F5F5F5F5F5F5F5F5F5F5F5F5F5F5F5F5F5F5F5F5F5F5F5F5F5F5F5F5F5F5F5F5F5F5F5F5F5F5F5F5F5F5F5F5F5F5F5F5F5F5F5F5F5F5F5F5F5F5F5F5F5F5F5F5F5F5F5F5F5F5F5F5F5F5F5F5F5F5F5F5F5F5F5F5F5F5F5F5F5F5F5F5F5F5F5F5F5F5F5F5F5F5F5F5F5F5F5F5F5F5F5F5F5F5F5F5F5F5F5F5F5F5F5F5F5F5F5
310
F5F5F5F5F5F5F5F5F5F5F5F5F5F5F5F5F5F5F5F5F5F5F5F5F5E2E2E2F5F5F5F5F5F5F5F5F5F5F5F5F5F5F5F5F5F5F5F5F5F5F5F5F5F5F5F5F5F5F5F5F5F5F5F5F5F5F5F5F5F5F5F5F5F5F5F5F5F5F5F5F5F5F5F5F5F5F5F5F5F5F5F5F5F5F5F5F5F5F5F5F5F5F5F5F5F5F5F5F5F5F5F5F5F5F5F5F5F5F5F5F5F5F5F5F5F5F5
310
F5F5F5F5F5F5F5F5F5F5F5F5F5F5F5F5F5F5F5F5F5F5F5F5F5F5F5F5F5F5F5F5F5F5F5F5F5F5F5F5F5F5F5F5F5F5F5F5F5F5F5F5F5F5F5F5F5F5F5F5F5F5F5F5F5F5F5F5F5F5F5F5F5F5F5F5F5F5E2E2E2F5F5E2E2E2E2E2E2E2E2F5F5F5F5F5F5F5F5F5E2E2E2E2E2E2E2E2E2E2E2E2E2E2E2E2F5F5F5F5F5F5F5F5F5E2E2
310
E2E2E2E2E2E2E2E2E2E2E2E2E2E2F5F5F5F5F5F5F5F5E2E2E2E2E2E2E2E2E2E2E2E2E2E2E2E2F5F5F5F5F5F5F5F5F5E2E2E2E2E2E2E2E2E2E2E2E2E2E2E2E2F5F5F5F5F5F5F5F5E2E2E2E2E2E2E2E2E2E2E2E2E2E2E2E2F5F5F5F5F5F5F5F5F5E2E2E2E2E2E2E2E2E2E2E2E2E2E2E2E2F5F5F5F5F5F5F5F5F5E2E2E2E2E2E2
310
E2E2F5F5E2E2E2F5F5E2F5F5F5F5F5F5F5F5F5F5F5F5F5F5F5F5F5F5F5F5F5F5F5F5F5F5F5F5F5F5F5F5F5F5F5F5F5F5F5F5F5F5F5F5F5F5F5F5F5F5F5F5F5F5F5F5F5F5F5F5F5F5F5F5F5F5F5F5F5F5F5F5F5F5F5F5F5F5F5F5F5F5F5F5F5F5F5F5F5F5F5F5F5F5F5F5F5F5F5F5F5F5F5F5F5F5F5F5F5F5F5F5F5F5F5F5F5
310
F5F5F5F5F5F5F5F5F5F5F5F5F5F5F5F5F5F5F5F5F5F5F5F5F5F5F5F5F5F5F5F5F5F5F5F5F5F5F5F5F5F5F5F5F5F5F5F5F5F5F5F5F5F5E2F5F5E2E2E2F5F5E2F5F5F5F5F5F5F5F5F5F5F5F5F5F5F5F5F5F5F5F5F5F5F5F5F5F5F5F5F5F5F5F5F5F5F5F5F5F5F5F5F5F5F5F5F5F5F5F5F5F5F5F5F5F5F5F5F5F5F5F5F5F5F5F5
310
F5F5F5F5F5F5F5F5F5F5F5F5F5F5F5F5F5F5F5F5F5F5F5F5F5F5F5F5F5F5F5F5F5F5F5F5F5F5F5F5F5F5F5F5F5F5F5F5F5F5F5F5F5F5F5F5F5F5F5F5F5F5F5F5F5F5F5F5F5F5F5F5F5F5F5F5F5F5F5F5F5F5F5F5F5F5F5F5F5F5F5F5F5F5F5F5F5F5F5F5F5F5F5F5F5F5F5E2F5F5E2E2E2F5F5E2F5F5F5F5F5F5F5F5F5F5F5
310
F5F5F5F5F5F5F5F5F5F5F5F5F5F5F5F5F5F5F5F5F5F5F5F5F5F5F5F5F5F5F5F5F5F5F5F5F5F5F5F5F5F5F5F5F5F5F5F5F5F5F5F5F5F5F5F5F5F5F5F5F5F5F5F5F5F5F5F5F5F5F5F5F5F5F5F5F5F5F5F5F5F5F5F5F5F5F5F5F5F5F5F5F5F5F5F5F5F5F5F5F5F5F5F5F5F5F5F5F5F5F5F5F5F5F5F5F5F5F5F5F5F5F5F5F5F5F5
310
F5F5F5F5F5F5F5F5F5F5F5F5F5F5F5F5F5F5F5F5F5F5F5F5F5F5F5F5F5F5F5F5F5E2F5F5E2E2E2F5F5E2F5F5F5F5F5F5F5F5F5F5F5F5F5F5F5F5F5F5F5F5F5F5F5F5F5F5F5F5F5F5F5F5F5F5F5F5F5F5F5F5F5F5F5F5F5F5F5F5F5F5F5F5F5F5F5F5F5F5F5F5F5F5F5F5F5F5F5F5F5F5F5F5F5F5F5F5F5F5F5F5F5F5F5F5F5
310
F5F5F5F5F5F5F5F5F5F5F5F5F5F5F5F5F5F5F5F5F5F5F5F5F5F5F5F5F5F5F5F5F5F5F5F5F5F5F5F5F5F5F5F5F5F5F5F5F5F5F5F5F5F5F5F5F5F5F5F5F5F5F5F5F5F5F5F5F5F5F5F5F5F5F5F5F5F5F5F5F5F5F5F5F5F5E2F5F5E2E2E2F5F5E2F5F5F5F5F5F5F5F5F5F5F5F5F5F5F5F5F5F5F5F5F5F5F5F5F5F5F5F5F5F5F5F5
310
F5F5F5F5F5F5F5F5F5F5F5F5F5F5F5F5F5F5F5F5F5F5F5F5F5F5F5F5F5F5F5F5F5F5F5F5F5F5F5F5F5F5F5F5F5F5F5F5F5F5F5F5F5F5F5F5F5F5F5F5F5F5F5F5F5F5F5F5F5F5F5F5F5F5F5F5F5F5F5F5F5F5F5F5F5F5F5F5F5F5F5F5F5F5F5F5F5F5F5F5F5F5F5F5F5F5F5F5F5F5F5F5F5F5F5F5F5F5F5F5F5F5F5F5F5F5F5
310
F5F5F5F5F5F5F5F5F5F5F5F5E2F5F5E2E2E2F5F5E2F5F5F5F5F5F5F5F5F5F5F5F5F5F5F5F5F5F5F5F5F5F5F5F5F5F5F5F5F5F5F5F5F5F5F5F5F5F5F5F5F5F5F5F5F5F5F5F5F5F5F5F5F5F5F5F5F5F5F5F5F5F5F5F5F5F5F5F5F5F5F5F5F5F5F5F5F5F5F5F5F5F5F5F5F5F5F5F5F5F5F5F5F5F5F5F5F5F5F5F5F5F5F5F5F5F5
310
F5F5F5F5F5F5F5F5F5F5F5F5F5F5F5F5F5F5F5F5F5F5F5F5F5F5F5F5F5F5F5F5F5F5F5F5F5F5F5F5F5F5F5F5F5F5F5F5F5F5F5F5F5F5F5F5F5F5F5F5F5F5F5F5F5E2F5F5E2E2E2F5F5E2F5F5F5F5F5F5F5F5F5F5F5F5F5F5F5F5F5F5F5F5F5F5F5F5F5F5F5F5F5F5F5F5F5F5F5F5F5F5F5F5F5F5F5F5F5F5F5F5F5F5F5F5F5
310
F5F5F5F5F5F5F5F5F5F5F5F5F5F5F5F5F5F5F5F5F5F5F5F5F5F5F5F5F5F5F5F5F5F5F5F5F5F5F5F5F5F5F5F5F5F5F5F5F5F5F5F5F5F5F5F5F5F5F5F5F5F5F5F5F5F5F5F5F5F5F5F5F5F5F5F5F5F5F5F5F5F5F5F5F5F5F5F5F5F5F5F5F5F5F5F5F5F5F5F5F5F5F5F5F5F5F5F5F5F5F5F5F5F5F5F5F5F5E2F5F5E2E2E2F5F5F5
310
F5F5F5F5F5F5F5F5F5F5F5F5F5F5F5F5F5F5F5F5F5F5F5F5F5F5F5F5F5F5F5F5F5F5F5F5F5F5F5F5F5F5F5F5F5F5F5F5F5F5F5F5F5F5F5F5F5F5F5F5F5F5F5F5F5F5F5F5F5F5F5F5F5F5F5F5F5F5F5F5F5F5F5F5F5F5F5F5F5F5F5F5F5F5F5F5F5F5F5F5F5F5F5F5F5F5F5F5F5F5F5F5F5F5F5F5F5F5F5F5F5F5F5F5F5F5F5
310
F5F5F5F5F5F5F5F5F5F5F5F5F5F5F5F5F5F5F5F5F5F5F5F5F5F5F5F5F5F5F5F5F5F5F5F5F5F5F5F5F5F5F5F5F5F5F5E2E2E2F5F5F5F5F5F5F5F5F5F5F5F5F5F5F5F5F5F5F5F5F5F5F5F5F5F5F5F5F5F5F5F5F5F5F5F5F5F5F5F5F5F5F5F5F5F5F5F5F5F5F5F5F5F5F5F5F5F5F5F5F5F5F5F5F5F5F5F5F5F5F5F5F5F5F5F5F5
310
F5F5F5F5F5F5F5F5F5F5F5F5F5F5F5F5F5F5F5F5F5F5F5F5F5F5F5F5F5F5F5F5F5F5F5F5F5F5F5F5F5F5F5F5F5F5F5F5F5F5F5F5F5F5F5F5F5F5F5F5F5F5F5F5F5F5F5F5F5F5F5F5F5F5F5F5F5F5F5F5F5F5F5F5F5F5F5F5F5F5F5F5F5F5F5F5F5F5F5F5E2E2E2F5F5F5F5F5F5F5F5F5F5F5F5F5F5F5F5F5F5F5F5F5F5F5F5
310
F5F5F5F5F5F5F5F5F5F5F5F5F5F5F5F5F5F5F5F5F5F5F5F5F5F5F5F5F5F5F5F5F5F5F5F5F5F5F5F5F5F5F5F5F5F5F5F5F5F5F5F5F5F5F5F5F5F5F5F5F5F5F5F5F5F5F5F5F5F5F5F5F5F5F5F5F5F5F5F5F5F5F5F5F5F5F5F5F5F5F5F5F5F5F5F5F5F5F5F5F5F5F5F5F5F5F5F5F5F5F5F5F5F5F5F5F5F5F5F5F5F5F5F5F5F5F5
310
F5F5F5F5F5F5F5F5F5F5F5F5F5F5F5F5F5F5F5F5F5F5F5F5F5F5E2E2E2F5F5F5F5F5F5F5F5F5F5F5F5F5F5F5F5F5F5F5F5F5F5F5F5F5F5F5F5F5F5F5F5F5F5F5F5F5F5F5F5F5F5F5F5F5F5F5F5F5F5F5F5F5F5F5F5F5F5F5F5F5F5F5F5F5F5F5F5F5F5F5F5F5F5F5F5F5F5F5F5F5F5F5F5F5F5F5F5F5F5F5F5F5F5F5F5F5F5
310
F5F5F5F5F5F5F5F5F5F5F5F5F5F5F5F5F5F5F5F5F5F5F5F5F5F5F5F5F5F5F5F5F5F5F5F5F5F5F5F5F5F5F5F5F5F5F5F5F5F5F5F5F5F5F5F5F5F5F5F5F5F5F5F5F5F5F5F5F5F5F5F5F5F5F5F5F5F5F5E2E2E2F5F5F5F5F5F5F5F5F5F5F5F5F5F5F5F5F5F5F52828282828282828282828282828282828282828282828282828
310
2828282828282828282828282828282828282828282828282828282828282828282828282828282828282828282828282828282828282828282828282828282828282828282828282828282828282828282828282828282828282828282828282828282828282828282828282828282828F5F5F5F5F5F5F5F5F5F5F5F5F5F5
310
F5F5F5F5F5E2E2E2F5F5F5F5F5F5F5F5F5F5F5F5F5F5F5F5F5F5F528F5F5F5F5F5F5F5F5F5F5F5F5F5F5F5F5F5F5F5F5F5F5F5F5F5F5F5F5F5F5F5F5F5F5F5F5F5F5F5F5F5F5F5F5F5F5F5F5F5F5F5F5F5F5F5F5F5F5F5F5F5F5F5F5F5F5F5F5F5F5F5F5F5F5F5F5F5F5F5F5F5F5F5F5F5F5F5F5F5F5F5F5F5F5F5F5F5F5F5
310
F5F5F5F5F5F5F5F5F5F5F5F5F5F5F5F5F5F5F5F5F5F5F5F5F5F5F5F5F5F5F5F5F5F5F5F5F5F528F5F5F5F5F5F5F5F5F5F5F5F5F5F5F5F5F5F5F5E2E2E2F5F5F5F5F5F5F5F5F5F5F5F5F5F5F5F5F5F5F528F5F5F5F5F5F5F5F5F5F5F5F5F5F5F5F5F5F5F5F5F5F5F5F5F5F5F5F5F5F5F5F5F5F5F5F5F5F5F5F5F5F5F5F5F5F5
310
F5F5F5F5F5F5F5F5F5F5F5F5F5F5F5F5F5F5F5F5F5F5F5F5F5F5F5F5F5F5F5F5F5F5F5F5F5F5F5F5F5F5F5F5F5F5F5F5F5F5F5F5F5F5F5F5F5F5F5F5F5F5F5F5F5F5F5F5F5F5F5F5F5F5F5F5F5F5F5F5F5F5F5F5F5F5F5F5F5F5F528F5F5F5F5F5F5F5F5F5F5F5F5F5F5F5F5F5F5F5E2E2E2F5F5F5F5F5F5F5F5F5F5F5F5F5
310
F5F5F5F5F5F528F5F5F5F5F5F5F5F5F5F5F5F5F5F5F5F5F5F5F5F5F5F5F5F5F5F5F5F5F5F5F5F5F5F5F5F5F5F5F5F5F5F5F5F5F5F5F5F5F5F5F5F5F5F5F5F5F5F5F5F5F5F5F5F5F5F5F5F5F5F5F5F5F5F5F5F5F5F5F5F5F5F5F5F5F5F5F5F5F5F5F5F5F5F5F5F5F5F5F5F5F5F5F5F5F5F5F5F5F5F5F5F5F5F5F5F5F5F5F5F5
310
F5F5F5F5F5F5F5F5F5F5F5F5F5F5F5F5F528F5F5F5F5F5F5F5F5F5F5F5F5F5F5F5F5F5F5F5E2E2E2F5F5F5F5F5F5F5F5F5F5F5F5F5F5F5F5F5F5F528F5F5F5F5F5F5F5F5F5F5F5F5F5F5F5F5F5F5F5F5F5F5F5F5F5F5F5F5F5F5F5F5F5F5F5F5F5F5F5F5F5F5F5F5F5F5F5F5F5F5F5F5F5F5F5F5F5F5F5F5F5F5F5F5F5F5F5
310
F5F5F5F5F5F5F5F5F5F5F5F5F5F5F5F5F5F5F5F5F5F5F5F5F5F5F5F5F5F5F5F5F5F5F5F5F5F5F5F5F5F5F5F5F5F5F5F5F5F5F5F5F5F5F5F5F5F5F5F5F5F5F5F5F5F5F5F5F5F528F5F5F5F5F5F5F5F5F5F5F5F5F5F5F5F5F5F5F5E2E2E2F5F5E2F5F5F5F5F5F5F5F5F5F5F5F5F5F5F5F528F5F5F5F5F5F5F5F5F5F5F5F5F5F5
310
F5F5F5F5F5F5F5F5F5F5F5F5F5F5F5F5F5F5F5F5F5F5F5F5F5F5F5F5F5F5F5F5F5F5F5F5F5F5F5F5F5F5F5F5F5F5F5F5F5F5F5F5F5F5F5F5F5F5F5F5F5F5F5F5F5F5F5F5F5F5F5F5F5F5F5F5F5F5F5F5F5F5F5F5F5F5F5F5F5F5F5F5F5F5F5F5F5F5F5F5F5F5F5F5F5F5F5F5F5F5F5F5F5F5F5F5F5F5F5F5F5F5F528F5F5F5
310
F5F5F5F5F5F5F5F5F5F5F5F5F5E2F5F5E2E2E2F5F5E2F5F5F5F5F5F5F5F5F5F5F5F5F5F5F5F528F5F5F5F5F5F5F5F5F5F5F5F5F5F5F5F5F5F5F5F5F5F5F5F5F5F5F5F5F5F5F5F5F5F5F5F5F5F5F5F5F5F5F5F5F5F5F5F5F5F5F5F5F5F5F5F5F5F5F5F5F5F5F5F5F5F5F5F5F5F5F5F5F5F5F5F5F5F5F5F5F5F5F5F5F5F5F5F5
310
F5F5F5F5F5F5F5F5F5F5F5F5F5F5F5F5F5F5F5F5F5F5F5F5F5F5F5F5F5F5F5F5F5F5F5F5F5F5F5F5F5F5F5F5F5F5F5F5F528F5F5F5F5F5F5F5F5F5F5F5F5F5F5F5F5E2F5F5E2E2E2F5F5E2F5F5F5F5F5F5F5F5F5F5F5F5F5F5F5F528F5F5F5F5F5F5F5F5F5F5F5F5F5F5F5F5F5F5F5F5F5F5F5F5F5F5F5F5F5F5F5F5F5F5F5
310
F5F5F5F5F5F5F5F5F5F5F5F5F5F5F5F5F5F5F5F5F5F5F5F5F5F5F5F5F5F5F5F5F5F5F5F5F5F5F5F5F5F5F5F5F5F5F5F5F5F5F5F5F5F5F5F5F5F5F5F5F5F5F5F5F5F5F5F5F5F5F5F5F5F5F5F5F5F5F5F5F5F5F5F5F5F5F5F5F5F5F5F5F5F5F5F5F5F5F5F5F5F528F5F5F5F5F5F5F5F5F5F5F5F5F5F5F5F5E2F5F5E2E2E2F5F5
310
E2F5F5F5F5F5F5F5F5F5F5F5F5F5F5F5F528F5F5F5F5F5F5F5F5F5F5F5F5F5F5F5F5F5F5F5F5F5F5F5F5F5F5F5F5F5F5F5F5F5F5F5F5F5F5F5F5F5F5F5F5F5F5F5F5F5F5F5F5F5F5F5F5F5F5F5F5F5F5F5F5F5F5F5F5F5F5F5F5F5F5F5F5F5F5F5F5F5F5F5F5F5F5F5F5F5F5F5F5F5F5F5F5F5F5F5F5F5F5F5F5F5F5F5F5F5
310
F5F5F5F5F5F5F5F5F5F5F5F5F5F5F5F5F5F5F5F5F5F5F5F5F5F5F5F528F5F5F5F5F5F5F5F5F5F5F5F5F5F5F5F5E2F5F5E2E2E2F5F5E2F5F5F5F5F5F5F5F5F5F5F5F5F5F5F5F528F5F5F5F5F5F5F5F5F5F5F5F5F5F5F5F5F5F5F5F5F5F5F5F5F5F5F5F5F5F5F5F5F5F5F5F5F5F5F5F5F5F5F5F5F5F5F5F5F5F5F5F5F5F5F5F5
310
F5F5F5F5F5F5F5F5F5F5F5F5F5F5F5F5F5F5F5F5F5F5F5F5F5F5F5F5F5F5F5F5F5F5F5F5F5F5F5F5F5F5F5F5F5F5F5F5F5F5F5F5F5F5F5F5F5F5F5F5F5F5F5F5F5F5F5F5F5F5F5F5F5F5F5F5F5F5F5F5F528F5F5F5F5F5F5F5F5F5F5F5F5F5F5F5F5E2F5F5E2E2E2F5F5E2F5F5F5F5F5F5F5F5F5F5F5F5F5F5F5F528F5F5F5
310
F5F5F5F5F5F5F5F5F5F5F5F5F5F5F5F5F5F5F5F5F5F5F5F5F5F5F5F5F5F5F5F5F5F5F5F5F5F5F5F5F5F5F5F5F5F5F5F5F5F5F5F5F5F5F5F5F5F5F5F5F5F5F5F5F5F5F5F5F5F5F5F5F5F5F5F5F5F5F5F5F5F5F5F5F5F5F5F5F5F5F5F5F5F5F5F5F5F5F5F5F5F5F5F5F5F5F5F5F5F5F5F5F5F5F5F5F5F5F5F5F5F5F5F5F5F5F5
310
F5F5F5F5F5F5F528F5F5F5F5F5F5F5F5F5F5F5F5F5F5F5F5E2F5F5E2E2E2F5F5E2F5F5F5F5F5F5F5F5F5F5F5F5F5F5F5F528F5F5F5F5F5F5F5F5F5F5F5F5F5F5F5F5F5F5F5F5F5F5F5F5F5F5F5F5F5F5F5F5F5F5F5F5F5F5F5F5F5F5F5F5F5F5F5F5F5F5F5F5F5F5F5F5F5F5F5F5F5F5F5F5F5F5F5F5F5F5F5F5F5F5F5F5F5
310
F5F5F5F5F5F5F5F5F5F5F5F5F5F5F5F5F5F5F5F5F5F5F5F5F5F5F5F5F5F5F5F5F5F5F5F5F5F5F5F5F5F5F5F5F5F5F5F5F5F5F5F5F5F5F5F5F5F5F5F528F5F5F5F5F5F5F5F5F5F5F5F5F5F5F5F5E2F5F5E2E2E2F5F5E2F5F5F5F5F5F5F5F5F5F5F5F5F5F5F5F528F5F5F5F5F5F5F5F5F5F5F5F5F5F5F5F5F5F5F5F5F5F5F5F5
310
F5F5F5F5F5F5F5F5F5F5F5F5F5F5F5F5F5F5F5F5F5F5F5F5F5F5F5F5F5F5F5F5F5F5F5F5F5F5F5F5F5F5F5F5F5F5F5F5F5F5F5F5F5F5F5F5F5F5F5F5F5F5F5F5F5F5F5F5F5F5F5F5F5F5F5F5F5F5F5F5F5F5F5F5F5F5F5F5F5F5F5F5F5F5F5F5F5F5F5F5F5F5F5F5F5F5F5F5F5F5F5F5F528F5F5F5F5F5F5F5F5F5F5F5F5F5
310
F5F5F5E2F5F5E2E2E2F5F5E2F5F5F5F5F5F5F5F5F5F5F5F5F5F5F5F528F5F5F5F5F5F5F5F5F5F5F5F5F5F5F5F5F5F5F5F5F5F5F5F5F5F5F5F5F5F5F5F5F5F5F5F5F5F5F5F5F5F5F5F5F5F5F5F5F5F5F5F5F5F5F5F5F5F5F5F5F5F5F5F5F5F5F5F5F5F5F5F5F5F5F5F5F5F5F5F5F5F5F5F5F5F5F5F5F5F5F5F5F5F5F5F5F5F5
310
F5F5F5F5F5F5F5F5F5F5F5F5F5F5F5F5F5F5F5F5F5F5F5F5F5F5F5F5F5F5F5F5F5F5F5F5F5F5F528F5F5F5F5F5F5F5F5F5F5F5F5F5F5F5F5E2F5F5E2E2E2F5F5E2F5F5F5F5F5F5F5F5F5F5F5F5F5F5F5F528F5F5F5F5F5F5F5F5F5F5F5F5F5F5F5F5F5F5F5F5F5F5F5F5F5F5F5F5F5F5F5F5F5F5F5F5F5F5F5F5F5F5F5F5F5
310
F5F5F5F5F5F5F5F5F5F5F5F5F5F5F5F5F5F5F5F5F5F5F5F5F5F5F5F5F5F5F5F5F5F5F5F5F5F5F5F5F5F5F5F5F5F5F5F5F5F5F5F5F5F5F5F5F5F5F5F5F5F5F5F5F5F5F5F5F5F5F5F5F5F5F5F5F5F5F5F5F5F5F5F5F5F5F5F5F5F5F5F528F5F5F5F5F5F5F5F5F5F5F5F5F5F5F5F5E2F5F5E2E2E2F5F5E2F5F5F5F5F5F5F5F5F5
310
F5F5F5F5F5F5F528F5F5F5F5F5F5F5F5F5F5F5F5F5F5F5F5F5F5F5F5F5F5F5F5F5F5F5F5F5F5F5F5F5F5F5F5F5F5F5F5F5F5F5F5F5F5F5F5F5F5F5F5F5F5F5F5F5F5F5F5F5F5F5F5F5F5F5F5F5F5F5F5F5F5F5F5F5F5F5F5F5F5F5F5F5F5F5F5F5F5F5F5F5F5F5F5F5F5F5F5F5F5F5F5F5F5F5F5F5F5F5F5F5F5F5F5F5F5F5
310
F5F5F5F5F5F5F5F5F5F5F5F5F5F5F5F5F5F528F5F5F5F5F5F5F5F5F5F5F5F5F5F5F5F5E2F5F5E2E2E2F5F5E2F5F5F5F5F5F5F5F5F5F5F5F5F5F5F5F528F5F5F5F5F5F5F5F5F5F5F5F5F5F5F5F5F5F5F5F5F5F5F5F5F5F5F5F5F5F5F5F5F5F5F5F5F5F5F5F5F5F5F5F5F5F5F5F5F5F5F5F5F5F5F5F5F5F5F5F5F5F5F5F5F5F5
310
F5F5F5F5F5F5F5F5F5F5F5F5F5F5F5F5F5F5F5F5F5F5F5F5F5F5F5F5F5F5F5F5F5F5F5F5F5F5F5F5F5F5F5F5F5F5F5F5F5F5F5F5F5F5F5F5F5F5F5F5F5F5F5F5F5F5F5F5F5F5F528F5F5F5F5F5F5F5F5F5F5F5F5F5F5F5F5E2F5F5E2E2E2F5F5E2F5F5F5F5F5F5F5F5F5F5F5F5F5F5F5F528F5F5F5F5F5F5F5F5F5F5F5F5F5
310
F5F5F5F5F5F5F5F5F5F5F5F5F5F5F5F5F5F5F5F5F5F5F5F5F5F5F5F5F5F5F5F5F5F5F5F5F5F5F5F5F5F5F5F5F5F5F5F5F5F5F5F5F5F5F5F5F5F5F5F5F5F5F5F5F5F5F5F5F5F5F5F5F5F5F5F5F5F5F5F5F5F5F5F5F5F5F5F5F5F5F5F5F5F5F5F5F5F5F5F5F5F5F5F5F5F5F5F5F5F5F5F5F5F5F5F5F5F5F5F5F5F5F5F528F5F5
310
F5F5F5F5F5F5F5F5F5F5F5F5F5F5E2F5F5E2E2E2F5F5E2F5F5F5F5F5F5F5F5F5F5F5F5F5F5F5F528F5F5F5F5F5F5F5F5F5F5F5F5F5F5F5F5F5F5F5F5F5F5F5F5F5F5F5F5F5F5F5F5F5F5F5F5F5F5F5F5F5F5F5F5F5F5F5F5F5F5F5F5F5F5F5F5F5F5F5F5F5F5F5F5F5F5F5F5F5F5F5F5F5F5F5F5F5F5F5F5F5F5F5F5F5F5F5
310
F5F5F5F5F5F5F5F5F5F5F5F5F5F5F5F5F5F5F5F5F5F5F5F5F5F5F5F5F5F5F5F5F5F5F5F5F5F5F5F5F5F5F5F5F5F5F5F5F5F528F5F5F5F5F5F5F5F5F5F5F5F5F5F5F5F5E2F5F5E2E2E2F5F5E2F5F5F5F5F5F5F5F5F5F5F5F5F5F5F5F528F5F5F5F5F5F5F5F5F5F5F5F5F5F5F5F5F5F5F5F5F5F5F5F5F5F5F5F5F5F5F5F5F5F5
310
F5F5F5F5F5F5F5F5F5F5F5F5F5F5F5F5F5F5F5F5F5F5F5F5F5F5F5F5F5F5F5F5F5F5F5F5F5F5F5F5F5F5F5F5F5F5F5F5F5F5F5F5F5F5F5F5F5F5F5F5F5F5F5F5F5F5F5F5F5F5F5F5F5F5F5F5F5F5F5F5F5F5F5F5F5F5F5F5F5F5F5F5F5F5F5F5F5F5F5F5F5F5F528F5F5F5F5F5F5F5F5F5F5F5F5F5F5F5F5E2F5F5E2E2E2F5
310
F5F5F5F5F5F5F5F5F5F5F5F5F5F5F5F5F5F528F5F5F5F5F5F5F5F5F5F5F5F5F5F5F5F5F5F5F5F5F5F5F5F5F5F5F5F5F5F5F5F5F5F5F5F5F5F5F5F5F5F5F5F5F5F5F5F5F5F5F5F5F5F5F5F5F5F5F5F5F5F5F5F5F5F5F5F5F5F5F5F5F5F5F5F5F5F5F5F5F5F5F5F5F5F5F5F5F5F5F5F5F5F5F5F5F5F5F5F5F5F5F5F5F5F5F5F5
310
F5F5F5F5F5F5F5F5F5F5F5F5F5F5F5F5F5F5F5F5F5F5F5F5F5F5F5F5F528F5F5F5F5F5F5F5F5F5F5F5F5F5F5F5F5F5F5F5E2E2E2F5F5F5F5F5F5F5F5F5F5F5F5F5F5F5F5F5F5F528F5F5F5F5F5F5F5F5F5F5F5F5F5F5F5F5F5F5F5F5F5F5F5F5F5F5F5F5F5F5F5F5F5F5F5F5F5F5F5F5F5F5F5F5F5F5F5F5F5F5F5F5F5F5F5
310
F5F5F5F5F5F5F5F5F5F5F5F5F5F5F5F5F5F5F5F5F5F5F5F5F5F5F5F5F5F5F5F5F5F5F5F5F5F5F5F5F5F5F5F5F5F5F5F5F5F5F5F5F5F5F5F5F5F5F5F5F5F5F5F5F5F5F5F5F5F5F5F5F5F5F5F5F5F5F5F5F5F528F5F5F5F5F5F5F5F5F5F5F5F5F5F5F5F5F5F5F5E2E2E2F5F5F5F5F5F5F5F5F5F5F5F5F5F5F5F5F5F5F528F5F5
310
F5F5F5F5F5F5F5F5F5F5F5F5F5F5F5F5F5F5F5F5F5F5F5F5F5F5F5F5F5F5F5F5F5F5F5F5F5F5F5F5F5F5F5F5F5F5F5F5F5F5F5F5F5F5F5F5F5F5F5F5F5F5F5F5F5F5F5F5F5F5F5F5F5F5F5F5F5F5F5F5F5F5F5F5F5F5F5F5F5F5F5F5F5F5F5F5F5F5F5F5F5F5F5F5F5F5F5F5F5F5F5F5F5F5F5F5F5F5F5F5F5F5F5F5F5F5F5
310
F5F5F5F5F5F5F5F528F5F5F5F5F5F5F5F5F5F5F5F5F5F5F5F5F5F5F5E2E2E2F5F5F5F5F5F5F5F5F5F5F5F5F5F5F5F5F5F5F528F5F5F5F5F5F5F5F5F5F5F5F5F5F5F5F5F5F5F5F5F5F5F5F5F5F5F5F5F5F5F5F5F5F5F5F5F5F5F5F5F5F5F5F5F5F5F5F5F5F5F5F5F5F5F5F5F5F5F5F5F5F5F5F5F5F5F5F5F5F5F5F5F5F5F5F5
310
F5F5F5F5F5F5F5F5F5F5F5F5F5F5F5F5F5F5F5F5F5F5F5F5F5F5F5F5F5F5F5F5F5F5F5F5F5F5F5F5F5F5F5F5F5F5F5F5F5F5F5F5F5F5F5F5F5F5F5F5F528F5F5F5F5F5F5F5F5F5F5F5F5F5F5F5F5F5F5F5E2E2E2F5F5F5F5F5F5F5F5F5F5F5F5F5F5F5F5F5F5F528F5F5F5F5F5F5F5F5F5F5F5F5F5F5F5F5F5F5F5F5F5F5F5
310
F5F5F5F5F5F5F5F5F5F5F5F5F5F5F5F5F5F5F5F5F5F5F5F5F5F5F5F5F5F5F5F5F5F5F5F5F5F5F5F5F5F5F5F5F5F5F5F5F5F5F5F5F5F5F5F5F5F5F5F5F5F5F5F5F5F5F5F5F5F5F5F5F5F5F5F5F5F5F5F5F5F5F5F5F5F5F5F5F5F5F5F5F5F5F5F5F5F5F5F5F5F5F5F5F5F5F5F5F5F5F5F5F5F528F5F5F5F5F5F5F5F5F5F5F5F5
310
F5F5F5F5F5F5F5E2E2E2F5F5F5F5F5F5F5F5F5F5F5F5F5F5F5F5F5F5F528F5F5F5F5F5F5F5F5F5F5F5F5F5F5F5F5F5F5F5F5F5F5F5F5F5F5F5F5F5F5F5F5F5F5F5F5F5F5F5F5F5F5F5F5F5F5F5F5F5F5F5F5F5F5F5F5F5F5F5F5F5F5F5F5F5F5F5F5F5F5F5F5F5F5F5F5F5F5F5F5F5F5F5F5F5F5F5F5F5F5F5F5F5F5F5F5F5
310
F5F5F5F5F5F5F5F5F5F5F5F5F5F5F5F5F5F5F5F5F5F5F5F5F5F5F5F5F5F5F5F5F5F5F5F5F5F5F5F528F5F5F5F5F5F5F5F5F5F5F5F5F5F5F5F5F5F5F5E2E2E2F5F5F5F5F5F5F5F5F5F5F5F5F5F5F5F5F5F5F528F5F5F5F5F5F5F5F5F5F5F5F5F5F5F5F5F5F5F5F5F5F5F5F5F5F5F5F5F5F5F5F5F5F5F5F5F5F5F5F5F5F5F5F5
310
F5F5F5F5F5F5F5F5F5F5F5F5F5F5F5F5F5F5F5F5F5F5F5F5F5F5F5F5F5F5F5F5F5F5F5F5F5F5F5F5F5F5F5F5F5F5F5F5F5F5F5F5F5F5F5F5F5F5F5F5F5F5F5F5F5F5F5F5F5F5F5F5F5F5F5F5F5F5F5F5F5F5F5F5F5F5F5F5F5F5F5F5F528F5F5F5F5F5F5F5F5F5F5F5F5F5F5F5F5F5F5F5E2E2E2F5F5F5F5F5F5F5F5F5F5F5
310
F5F5F5F5F5F5F5F528F5F5F5F5F5F5F5F5F5F5F5F5F5F5F5F5F5F5F5F5F5F5F5F5F5F5F5F5F5F5F5F5F5F5F5F5F5F5F5F5F5F5F5F5F5F5F5F5F5F5F5F5F5F5F5F5F5F5F5F5F5F5F5F5F5F5F5F5F5F5F5F5F5F5F5F5F5F5F5F5F5F5F5F5F5F5F5F5F5F5F5F5F5F5F5F5F5F5F5F5F5F5F5F5F5F5F5F5F5F5F5F5F5F5F5F5F5F5
310
F5F5F5F5F5F5F5F5F5F5F5F5F5F5F5F5F5F5F528F5F5F5F5F5F5F5F5F5F5F5F5F5F5F5F5F5F5F5E2E2E2F5F5F5F5F5F5F5F5F5F5F5F5F5F5F5F5F5F5F528F5F5F5F5F5F5F5F5F5F5F5F5F5F5F5F5F5F5F5F5F5F5F5F5F5F5F5F5F5F5F5F5F5F5F5F5F5F5F5F5F5F5F5F5F5F5F5F5F5F5F5F5F5F5F5F5F5F5F5F5F5F5F5F5F5
310
F5F5F5F5F5F5F5F5F5F5F5F5F5F5F5F5F5F5F5F5F5F5F5F5F5F5F5F5F5F5F5F5F5F5F5F5F5F5F5F5F5F5F5F5F5F5F5F5F5F5F5F5F5F5F5F5F5F5F5F5F5F5F5F5F5F5F5F5F5F5F5F528F5F5F5F5F5F5F5F5F5F5F5F5F5F5F5F5F5F5F5E2E2E2F5F5E2F5F5F5F5F5F5F5F5F5F5F5F5F5F5F5F528F5F5F5F5F5F5F5F5F5F5F5F5
310
F5F5F5F5F5F5F5F5F5F5F5F5F5F5F5F5F5F5F5F5F5F5F5F5F5F5F5F5F5F5F5F5F5F5F5F5F5F5F5F5F5F5F5F5F5F5F5F5F5F5F5F5F5F5F5F5F5F5F5F5F5F5F5F5F5F5F5F5F5F5F5F5F5F5F5F5F5F5F5F5F5F5F5F5F5F5F5F5F5F5F5F5F5F5F5F5F5F5F5F5F5F5F5F5F5F5F5F5F5F5F5F5F5F5F5F5F5F5F5F5F5F5F5F5F528F5
310
F5F5F5F5F5F5F5F5F5F5F5F5F5F5F5E2F5F5E2E2E2F5F5E2F5F5F5F5F5F5F5F5F5F5F5F5F5F5F5F528F5F5F5F5F5F5F5F5F5F5F5F5F5F5F5F5F5F5F5F5F5F5F5F5F5F5F5F5F5F5F5F5F5F5F5F5F5F5F5F5F5F5F5F5F5F5F5F5F5F5F5F5F5F5F5F5F5F5F5F5F5F5F5F5F5F5F5F5F5F5F5F5F5F5F5F5F5F5F5F5F5F5F5F5F5F5
310
F5F5F5F5F5F5F5F5F5F5F5F5F5F5F5F5F5F5F5F5F5F5F5F5F5F5F5F5F5F5F5F5F5F5F5F5F5F5F5F5F5F5F5F5F5F5F5F5F5F5F528F5F5F5F5F5F5F5F5F5F5F5F5F5F5F5F5E2F5F5E2E2E2F5F5E2F5F5F5F5F5F5F5F5F5F5F5F5F5F5F5F528F5F5F5F5F5F5F5F5F5F5F5F5F5F5F5F5F5F5F5F5F5F5F5F5F5F5F5F5F5F5F5F5F5
310
F5F5F5F5F5F5F5F5F5F5F5F5F5F5F5F5F5F5F5F5F5F5F5F5F5F5F5F5F5F5F5F5F5F5F5F5F5F5F5F5F5F5F5F5F5F5F5F5F5F5F5F5F5F5F5F5F5F5F5F5F5F5F5F5F5F5F5F5F5F5F5F5F5F5F5F5F5F5F5F5F5F5F5F5F5F5F5F5F5F5F5F5F5F5F5F5F5F5F5F5F5F5F5F528F5F5F5F5F5F5F5F5F5F5F5F5F5F5F5F5E2F5F5E2E2E2
310
F5F5E2F5F5F5F5F5F5F5F5F5F5F5F5F5F5F5F528F5F5F5F5F5F5F5F5F5F5F5F5F5F5F5F5F5F5F5F5F5F5F5F5F5F5F5F5F5F5F5F5F5F5F5F5F5F5F5F5F5F5F5F5F5F5F5F5F5F5F5F5F5F5F5F5F5F5F5F5F5F5F5F5F5F5F5F5F5F5F5F5F5F5F5F5F5F5F5F5F5F5F5F5F5F5F5F5F5F5F5F5F5F5F5F5F5F5F5F5F5F5F5F5F5F5F5
310
F5F5F5F5F5F5F5F5F5F5F5F5F5F5F5F5F5F5F5F5F5F5F5F5F5F5F5F5F5F528F5F5F5F5F5F5F5F5F5F5F5F5F5F5F5F5E2F5F5E2E2E2F5F5E2F5F5F5F5F5F5F5F5F5F5F5F5F5F5F5F528F5F5F5F5F5F5F5F5F5F5F5F5F5F5F5F5F5F5F5F5F5F5F5F5F5F5F5F5F5F5F5F5F5F5F5F5F5F5F5F5F5F5F5F5F5F5F5F5F5F5F5F5F5F5
310
F5F5F5F5F5F5F5F5F5F5F5F5F5F5F5F5F5F5F5F5F5F5F5F5F5F5F5F5F5F5F5F5F5F5F5F5F5F5F5F5F5F5F5F5F5F5F5F5F5F5F5F5F5F5F5F5F5F5F5F5F5F5F5F5F5F5F5F5F5F5F5F5F5F5F5F5F5F5F5F5F5F5F528F5F5F5F5F5F5F5F5F5F5F5F5F5F5F5F5E2F5F5E2E2E2F5F5E2F5F5F5F5F5F5F5F5F5F5F5F5F5F5F5F528F5
310
F5F5F5F5F5F5F5F5F5F5F5F5F5F5F5F5F5F5F5F5F5F5F5F5F5F5F5F5F5F5F5F5F5F5F5F5F5F5F5F5F5F5F5F5F5F5F5F5F5F5F5F5F5F5F5F5F5F5F5F5F5F5F5F5F5F5F5F5F5F5F5F5F5F5F5F5F5F5F5F5F5F5F5F5F5F5F5F5F5F5F5F5F5F5F5F5F5F5F5F5F5F5F5F5F5F5F5F5F5F5F5F5F5F5F5F5F5F5F5F5F5F5F5F5F5F5F5
310
F5F5F5F5F5F5F5F5F528F5F5F5F5F5F5F5F5F5F5F5F5F5F5F5F5E2F5F5E2E2E2F5F5E2F5F5F5F5F5F5F5F5F5F5F5F5F5F5F5F528F5F5F5F5F5F5F5F5F5F5F5F5F5F5F5F5F5F5F5F5F5F5F5F5F5F5F5F5F5F5F5F5F5F5F5F5F5F5F5F5F5F5F5F5F5F5F5F5F5F5F5F5F5F5F5F5F5F5F5F5F5F5F5F5F5F5F5F5F5F5F5F5F5F5F5
310
F5F5F5F5F5F5F5F5F5F5F5F5F5F5F5F5F5F5F5F5F5F5F5F5F5F5F5F5F5F5F5F5F5F5F5F5F5F5F5F5F5F5F5F5F5F5F5F5F5F5F5F5F5F5F5F5F5F5F5F5F5F528F5F5F5F5F5F5F5F5F5F5F5F5F5F5F5F5E2F5F5E2E2E2F5F5E2F5F5F5F5F5F5F5F5F5F5F5F5F5F5F5F528F5F5F5F5F5F5F5F5F5F5F5F5F5F5F5F5F5F5F5F5F5F5
310
F5F5F5F5F5F5F5F5F5F5F5F5F5F5F5F5F5F5F5F5F5F5F5F5F5F5F5F5F5F5F5F5F5F5F5F5F5F5F5F5F5F5F5F5F5F5F5F5F5F5F5F5F5F5F5F5F5F5F5F5F5F5F5F5F5F5F5F5F5F5F5F5F5F5F5F5F5F5F5F5F5F5F5F5F5F5F5F5F5F5F5F5F5F5F5F5F5F5F5F5F5F5F5F5F5F5F5F5F5F5F5F5F5F5F528F5F5F5F5F5F5F5F5F5F5F5
310
F5F5F5F5F5E2F5F5E2E2E2F5F5E2F5F5F5F5F5F5F5F5F5F5F5F5F5F5F5F528F5F5F5F5F5F5F5F5F5F5F5F5F5F5F5F5F5F5F5F5F5F5F5F5F5F5F5F5F5F5F5F5F5F5F5F5F5F5F5F5F5F5F5F5F5F5F5F5F5F5F5F5F5F5F5F5F5F5F5F5F5F5F5F5F5F5F5F5F5F5F5F5F5F5F5F5F5F5F5F5F5F5F5F5F5F5F5F5F5F5F5F5F5F5F5F5
310
F5F5F5F5F5F5F5F5F5F5F5F5F5F5F5F5F5F5F5F5F5F5F5F5F5F5F5F5F5F5F5F5F5F5F5F5F5F5F5F5F528F5F5F5F5F5F5F5F5F5F5F5F5F5F5F5F5E2F5F5E2E2E2F5F5E2F5F5F5F5F5F5F5F5F5F5F5F5F5F5F5F528F5F5F5F5F5F5F5F5F5F5F5F5F5F5F5F5F5F5F5F5F5F5F5F5F5F5F5F5F5F5F5F5F5F5F5F5F5F5F5F5F5F5F5
310
F5F5F5F5F5F5F5F5F5F5F5F5F5F5F5F5F5F5F5F5F5F5F5F5F5F5F5F5F5F5F5F5F5F5F5F5F5F5F5F5F5F5F5F5F5F5F5F5F5F5F5F5F5F5F5F5F5F5F5F5F5F5F5F5F5F5F5F5F5F5F5F5F5F5F5F5F5F5F5F5F5F5F5F5F5F5F5F5F5F5F5F5F5F528F5F5F5F5F5F5F5F5F5F5F5F5F5F5F5F5E2F5F5E2E2E2F5F5E2F5F5F5F5F5F5F5
310
F5F5F5F5F5F5F5F5F528F5F5F5F5F5F5F5F5F5F5F5F5F5F5F5F5F5F5F5F5F5F5F5F5F5F5F5F5F5F5F5F5F5F5F5F5F5F5F5F5F5F5F5F5F5F5F5F5F5F5F5F5F5F5F5F5F5F5F5F5F5F5F5F5F5F5F5F5F5F5F5F5F5F5F5F5F5F5F5F5F5F5F5F5F5F5F5F5F5F5F5F5F5F5F5F5F5F5F5F5F5F5F5F5F5F5F5F5F5F5F5F5F5F5F5F5F5
310
F5F5F5F5F5F5F5F5F5F5F5F5F5F5F5F5F5F5F5F528F5F5F5F5F5F5F5F5F5F5F5F5F5F5F5F5E2F5F5E2E2E2F5F5E2F5F5F5F5F5F5F5F5F5F5F5F5F5F5F5F528F5F5F5F5F5F5F5F5F5F5F5F5F5F5F5F5F5F5F5F5F5F5F5F5F5F5F5F5F5F5F5F5F5F5F5F5F5F5F5F5F5F5F5F5F5F5F5F5F5F5F5F5F5F5F5F5F5F5F5F5F5F5F5F5
310
F5F5F5F5F5F5F5F5F5F5F5F5F5F5F5F5F5F5F5F5F5F5F5F5F5F5F5F5F5F5F5F5F5F5F5F5F5F5F5F5F5F5F5F5F5F5F5F5F5F5F5F5F5F5F5F5F5F5F5F5F5F5F5F5F5F5F5F5F5F5F5F5F528F5F5F5F5F5F5F5F5F5F5F5F5F5F5F5F5E2F5F5E2E2E2F5F5E2F5F5F5F5F5F5F5F5F5F5F5F5F5F5F5F528F5F5F5F5F5F5F5F5F5F5F5
310
F5F5F5F5F5F5F5F5F5F5F5F5F5F5F5F5F5F5F5F5F5F5F5F5F5F5F5F5F5F5F5F5F5F5F5F5F5F5F5F5F5F5F5F5F5F5F5F5F5F5F5F5F5F5F5F5F5F5F5F5F5F5F5F5F5F5F5F5F5F5F5F5F5F5F5F5F5F5F5F5F5F5F5F5F5F5F5F5F5F5F5F5F5F5F5F5F5F5F5F5F5F5F5F5F5F5F5F5F5F5F5F5F5F5F5F5F5F5F5F5F5F5F5F5F5F528
310
F5F5F5F5F5F5F5F5F5F5F5F5F5F5F5F5E2F5F5E2E2E2F5F5E2F5F5F5F5F5F5F5F5F5F5F5F5F5F5F5F528F5F5F5F5F5F5F5F5F5F5F5F5F5F5F5F5F5F5F5F5F5F5F5F5F5F5F5F5F5F5F5F5F5F5F5F5F5F5F5F5F5F5F5F5F5F5F5F5F5F5F5F5F5F5F5F5F5F5F5F5F5F5F5F5F5F5F5F5F5F5F5F5F5F5F5F5F5F5F5F5F5F5F5F5F5
310
F5F5F5F5F5F5F5F5F5F5F5F5F5F5F5F5F5F5F5F5F5F5F5F5F5F5F5F5F5F5F5F5F5F5F5F5F5F5F5F5F5F5F5F5F5F5F5F5F5F5F5F528F5F5F5F5F5F5F5F5F5F5F5F5F5F5F5F5E2F5F5E2E2E2F5F5E2F5F5F5F5F5F5F5F5F5F5F5F5F5F5F5F528F5F5F5F5F5F5F5F5F5F5F5F5F5F5F5F5F5F5F5F5F5F5F5F5F5F5F5F5F5F5F5F5
310
F5F5F5F5F5F5F5F5F5F5F5F5F5F5F5F5F5F5F5F5F5F5F5F5F5F5F5F5F5F5F5F5F5F5F5F5F5F5F5F5F5F5F5F5F5F5F5F5F5F5F5F5F5F5F5F5F5F5F5F5F5F5F5F5F5F5F5F5F5F5F5F5F5F5F5F5F5F5F5F5F5F5F5F5F5F5F5F5F5F5F5F5F5F5F5F5F5F5F5F5F5F5F5F5F528F5F5F5F5F5F5F5F5F5F5F5F5F5F5F5F5E2F5F5E2E2
310
E2F5F5F5F5F5F5F5F5F5F5F5F5F5F5F5F5F5F5F528F5F5F5F5F5F5F5F5F5F5F5F5F5F5F5F5F5F5F5F5F5F5F5F5F5F5F5F5F5F5F5F5F5F5F5F5F5F5F5F5F5F5F5F5F5F5F5F5F5F5F5F5F5F5F5F5F5F5F5F5F5F5F5F5F5F5F5F5F5F5F5F5F5F5F5F5F5F5F5F5F5F5F5F5F5F5F5F5F5F5F5F5F5F5F5F5F5F5F5F5F5F5F5F5F5F5
310
F5F5F5F5F5F5F5F5F5F5F5F5F5F5F5F5F5F5F5F5F5F5F5F5F5F5F5F5F5F5F528F5F5F5F5F5F5F5F5F5F5F5F5F5F5F5F5F5F5F5E2E2E2F5F5F5F5F5F5F5F5F5F5F5F5F5F5F5F5F5F5F528F5F5F5F5F5F5F5F5F5F5F5F5F5F5F5F5F5F5F5F5F5F5F5F5F5F5F5F5F5F5F5F5F5F5F5F5F5F5F5F5F5F5F5F5F5F5F5F5F5F5F5F5F5
310
F5F5F5F5F5F5F5F5F5F5F5F5F5F5F5F5F5F5F5F5F5F5F5F5F5F5F5F5F5F5F5F5F5F5F5F5F5F5F5F5F5F5F5F5F5F5F5F5F5F5F5F5F5F5F5F5F5F5F5F5F5F5F5F5F5F5F5F5F5F5F5F5F5F5F5F5F5F5F5F5F5F5F5F528F5F5F5F5F5F5F5F5F5F5F5F5F5F5F5F5F5F5F5E2E2E2F5F5F5F5F5F5F5F5F5F5F5F5F5F5F5F5F5F5F528
310
F5F5F5F5F5F5F5F5F5F5F5F5F5F5F5F5F5F5F5F5F5F5F5F5F5F5F5F5F5F5F5F5F5F5F5F5F5F5F5F5F5F5F5F5F5F5F5F5F5F5F5F5F5F5F5F5F5F5F5F5F5F5F5F5F5F5F5F5F5F5F5F5F5F5F5F5F5F5F5F5F5F5F5F5F5F5F5F5F5F5F5F5F5F5F5F5F5F5F5F5F5F5F5F5F5F5F5F5F5F5F5F5F5F5F5F5F5F5F5F5F5F5F5F5F5F5F5
310
F5F5F5F5F5F5F5F5F5F528F5F5F5F5F5F5F5F5F5F5F5F5F5F5F5F5F5F5F5E2E2E2F5F5F5F5F5F5F5F5F5F5F5F5F5F5F5F5F5F5F528F5F5F5F5F5F5F5F5F5F5F5F5F5F5F5F5F5F5F5F5F5F5F5F5F5F5F5F5F5F5F5F5F5F5F5F5F5F5F5F5F5F5F5F5F5F5F5F5F5F5F5F5F5F5F5F5F5F5F5F5F5F5F5F5F5F5F5F5F5F5F5F5F5F5
310
F5F5F5F5F5F5F5F5F5F5F5F5F5F5F5F5F5F5F5F5F5F5F5F5F5F5F5F5F5F5F5F5F5F5F5F5F5F5F5F5F5F5F5F5F5F5F5F5F5F5F5F5F5F5F5F5F5F5F5F5F5F5F528F5F5F5F5F5F5F5F5F5F5F5F5F5F5F5F5F5F5F5E2E2E2F5F5F5F5F5F5F5F5F5F5F5F5F5F5F5F5F5F5F528F5F5F5F5F5F5F5F5F5F5F5F5F5F5F5F5F5F5F5F5F5
310
F5F5F5F5F5F5F5F5F5F5F5F5F5F5F5F5F5F5F5F5F5F5F5F5F5F5F5F5F5F5F5F5F5F5F5F5F5F5F5F5F5F5F5F5F5F5F5F5F5F5F5F5F5F5F5F5F5F5F5F5F5F5F5F5F5F5F5F5F5F5F5F5F5F5F5F5F5F5F5F5F5F5F5F5F5F5F5F5F5F5F5F5F5F5F5F5F5F5F5F5F5F5F5F5F5F5F5F5F5F5F5F5F5F5F5F528F5F5F5F5F5F5F5F5F5F5
310
F5F5F5F5F5F5F5F5F5E2E2E2F5F5F5F5F5F5F5F5F5F5F5F5F5F5F5F5F5F5F528F5F5F5F5F5F5F5F5F5F5F5F5F5F5F5F5F5F5F5F5F5F5F5F5F5F5F5F5F5F5F5F5F5F5F5F5F5F5F5F5F5F5F5F5F5F5F5F5F5F5F5F5F5F5F5F5F5F5F5F5F5F5F5F5F5F5F5F5F5F5F5F5F5F5F5F5F5F5F5F5F5F5F5F5F5F5F5F5F5F5F5F5F5F5F5
310
F5F5F5F5F5F5F5F5F5F5F5F5F5F5F5F5F5F5F5F5F5F5F5F5F5F5F5F5F5F5F5F5F5F5F5F5F5F5F5F5F5F528F5F5F5F5F5F5F5F5F5F5F5F5F5F5F5F5F5F5F5E2E2E2F5F5F5F5F5F5F5F5F5F5F5F5F5F5F5F5F5F5F528F5F5F5F5F5F5F5F5F5F5F5F5F5F5F5F5F5F5F5F5F5F5F5F5F5F5F5F5F5F5F5F5F5F5F5F5F5F5F5F5F5F5
310
F5F5F5F5F5F5F5F5F5F5F5F5F5F5F5F5F5F5F5F5F5F5F5F5F5F5F5F5F5F5F5F5F5F5F5F5F5F5F5F5F5F5F5F5F5F5F5F5F5F5F5F5F5F5F5F5F5F5F5F5F5F5F5F5F5F5F5F5F5F5F5F5F5F5F5F5F5F5F5F5F5F5F5F5F5F5F5F5F5F5F5F5F5F5F528F5F5F5F5F5F5F5F5F5F5F5F5F5F5F5F5F5F5F5E2E2E2F5F5F5F5F5F5F5F5F5
310
F5F5F5F5F5F5F5F5F5F528F5F5F5F5F5F5F5F5F5F5F5F5F5F5F5F5F5F5F5F5F5F5F5F5F5F5F5F5F5F5F5F5F5F5F5F5F5F5F5F5F5F5F5F5F5F5F5F5F5F5F5F5F5F5F5F5F5F5F5F5F5F5F5F5F5F5F5F5F5F5F5F5F5F5F5F5F5F5F5F5F5F5F5F5F5F5F5F5F5F5F5F5F5F5F5F5F5F5F5F5F5F5F5F5F5F5F5F5F5F5F5F5F5F5F5F5
310
F5F5F5F5F5F5F5F5F5F5F5F5F5F5F5F5F5F5F5F5F528F5F5F5F5F5F5F5F5F5F5F5F5F5F5F5F5F5F5F5E2E2E2F5F5F5F5F5F5F5F5F5F5F5F5F5F5F5F5F5F5F528F5F5F5F5F5F5F5F5F5F5F5F5F5F5F5F5F5F5F5F5F5F5F5F5F5F5F5F5F5F5F5F5F5F5F5F5F5F5F5F5F5F5F5F5F5F5F5F5F5F5F5F5F5F5F5F5F5F5F5F5F5F5F5
310
F5F5F5F5F5F5F5F5F5F5F5F5F5F5F5F5F5F5F5F5F5F5F5F5F5F5F5F5F5F5F5F5F5F5F5F5F5F5F5F5F5F5F5F5F5F5F5F5F5F5F5F5F5F5F5F5F5F5F5F5F5F5F5F5F5F5F5F5F5F5F5F5F5F528F5F5F5F5F5F5F5F5F5F5F5F5F5F5F5F5F5F5F5E2E2E2F5F5E2F5F5F5F5F5F5F5F5F5F5F5F5F5F5F5F528F5F5F5F5F5F5F5F5F5F5
310
F5F5F5F5F5F5F5F5F5F5F5F5F5F5F5F5F5F5F5F5F5F5F5F5F5F5F5F5F5F5F5F5F5F5F5F5F5F5F5F5F5F5F5F5F5F5F5F5F5F5F5F5F5F5F5F5F5F5F5F5F5F5F5F5F5F5F5F5F5F5F5F5F5F5F5F5F5F5F5F5F5F5F5F5F5F5F5F5F5F5F5F5F5F5F5F5F5F5F5F5F5F5F5F5F5F5F5F5F5F5F5F5F5F5F5F5F5F5F5F5F5F5F5F5F5F5F5
310
28F5F5F5F5F5F5F5F5F5F5F5F5F5F5F5F5E2F5F5E2E2E2F5F5E2F5F5F5F5F5F5F5F5F5F5F5F5F5F5F5F528F5F5F5F5F5F5F5F5F5F5F5F5F5F5F5F5F5F5F5F5F5F5F5F5F5F5F5F5F5F5F5F5F5F5F5F5F5F5F5F5F5F5F5F5F5F5F5F5F5F5F5F5F5F5F5F5F5F5F5F5F5F5F5F5F5F5F5F5F5F5F5F5F5F5F5F5F5F5F5F5F5F5F5F5
310
F5F5F5F5F5F5F5F5F5F5F5F5F5F5F5F5F5F5F5F5F5F5F5F5F5F5F5F5F5F5F5F5F5F5F5F5F5F5F5F5F5F5F5F5F5F5F5F5F5F5F5F5F528F5F5F5F5F5F5F5F5F5F5F5F5F5F5F5F5E2F5F5E2E2E2F5F5E2F5F5F5F5F5F5F5F5F5F5F5F5F5F5F5F528F5F5F5F5F5F5F5F5F5F5F5F5F5F5F5F5F5F5F5F5F5F5F5F5F5F5F5F5F5F5F5
310
F5F5F5F5F5F5F5F5F5F5F5F5F5F5F5F5F5F5F5F5F5F5F5F5F5F5F5F5F5F5F5F5F5F5F5F5F5F5F5F5F5F5F5F5F5F5F5F5F5F5F5F5F5F5F5F5F5F5F5F5F5F5F5F5F5F5F5F5F5F5F5F5F5F5F5F5F5F5F5F5F5F5F5F5F5F5F5F5F5F5F5F5F5F5F5F5F5F5F5F5F5F5F5F5F5F528F5F5F5F5F5F5F5F5F5F5F5F5F5F5F5F5E2F5F5E2
310
E2E2F5F5E2F5F5F5F5F5F5F5F5F5F5F5F5F5F5F5F528F5F5F5F5F5F5F5F5F5F5F5F5F5F5F5F5F5F5F5F5F5F5F5F5F5F5F5F5F5F5F5F5F5F5F5F5F5F5F5F5F5F5F5F5F5F5F5F5F5F5F5F5F5F5F5F5F5F5F5F5F5F5F5F5F5F5F5F5F5F5F5F5F5F5F5F5F5F5F5F5F5F5F5F5F5F5F5F5F5F5F5F5F5F5F5F5F5F5F5F5F5F5F5F5F5
310
F5F5F5F5F5F5F5F5F5F5F5F5F5F5F5F5F5F5F5F5F5F5F5F5F5F5F5F5F5F5F5F528F5F5F5F5F5F5F5F5F5F5F5F5F5F5F5F5E2F5F5E2E2E2F5F5E2F5F5F5F5F5F5F5F5F5F5F5F5F5F5F5F528F5F5F5F5F5F5F5F5F5F5F5F5F5F5F5F5F5F5F5F5F5F5F5F5F5F5F5F5F5F5F5F5F5F5F5F5F5F5F5F5F5F5F5F5F5F5F5F5F5F5F5F5
310
F5F5F5F5F5F5F5F5F5F5F5F5F5F5F5F5F5F5F5F5F5F5F5F5F5F5F5F5F5F5F5F5F5F5F5F5F5F5F5F5F5F5F5F5F5F5F5F5F5F5F5F5F5F5F5F5F5F5F5F5F5F5F5F5F5F5F5F5F5F5F5F5F5F5F5F5F5F5F5F5F5F5F5F5F528F5F5F5F5F5F5F5F5F5F5F5F5F5F5F5F5E2F5F5E2E2E2F5F5E2F5F5F5F5F5F5F5F5F5F5F5F5F5F5F5F5
310
28F5F5F5F5F5F5F5F5F5F5F5F5F5F5F5F5F5F5F5F5F5F5F5F5F5F5F5F5F5F5F5F5F5F5F5F5F5F5F5F5F5F5F5F5F5F5F5F5F5F5F5F5F5F5F5F5F5F5F5F5F5F5F5F5F5F5F5F5F5F5F5F5F5F5F5F5F5F5F5F5F5F5F5F5F5F5F5F5F5F5F5F5F5F5F5F5F5F5F5F5F5F5F5F5F5F5F5F5F5F5F5F5F5F5F5F5F5F5F5F5F5F5F5F5F5F5
310
F5F5F5F5F5F5F5F5F5F5F528F5F5F5F5F5F5F5F5F5F5F5F5F5F5F5F5E2F5F5E2E2E2F5F5E2F5F5F5F5F5F5F5F5F5F5F5F5F5F5F5F528F5F5F5F5F5F5F5F5F5F5F5F5F5F5F5F5F5F5F5F5F5F5F5F5F5F5F5F5F5F5F5F5F5F5F5F5F5F5F5F5F5F5F5F5F5F5F5F5F5F5F5F5F5F5F5F5F5F5F5F5F5F5F5F5F5F5F5F5F5F5F5F5F5
310
F5F5F5F5F5F5F5F5F5F5F5F5F5F5F5F5F5F5F5F5F5F5F5F5F5F5F5F5F5F5F5F5F5F5F5F5F5F5F5F5F5F5F5F5F5F5F5F5F5F5F5F5F5F5F5F5F5F5F5F5F5F5F5F528F5F5F5F5F5F5F5F5F5F5F5F5F5F5F5F5E2F5F5E2E2E2F5F5E2F5F5F5F5F5F5F5F5F5F5F5F5F5F5F5F528F5F5F5F5F5F5F5F5F5F5F5F5F5F5F5F5F5F5F5F5
310
F5F5F5F5F5F5F5F5F5F5F5F5F5F5F5F5F5F5F5F5F5F5F5F5F5F5F5F5F5F5F5F5F5F5F5F5F5F5F5F5F5F5F5F5F5F5F5F5F5F5F5F5F5F5F5F5F5F5F5F5F5F5F5F5F5F5F5F5F5F5F5F5F5F5F5F5F5F5F5F5F5F5F5F5F5F5F5F5F5F5F5F5F5F5F5F5F5F5F5F5F5F5F5F5F5F5F5F5F5F5F5F5F5F5F5F5F528F5F5F5F5F5F5F5F5F5
310
F5F5F5F5F5F5F5E2F5F5E2E2E2F5F5E2F5F5F5F5F5F5F5F5F5F5F5F5F5F5F5F528F5F5F5F5F5F5F5F5F5F5F5F5F5F5F5F5F5F5F5F5F5F5F5F5F5F5F5F5F5F5F5F5F5F5F5F5F5F5F5F5F5F5F5F5F5F5F5F5F5F5F5F5F5F5F5F5F5F5F5F5F5F5F5F5F5F5F5F5F5F5F5F5F5F5F5F5F5F5F5F5F5F5F5F5F5F5F5F5F5F5F5F5F5F5
310
F5F5F5F5F5F5F5F5F5F5F5F5F5F5F5F5F5F5F5F5F5F5F5F5F5F5F5F5F5F5F5F5F5F5F5F5F5F5F5F5F5F5F528F5F5F5F5F5F5F5F5F5F5F5F5F5F5F5F5E2F5F5E2E2E2F5F5E2F5F5F5F5F5F5F5F5F5F5F5F5F5F5F5F528F5F5F5F5F5F5F5F5F5F5F5F5F5F5F5F5F5F5F5F5F5F5F5F5F5F5F5F5F5F5F5F5F5F5F5F5F5F5F5F5F5
310
F5F5F5F5F5F5F5F5F5F5F5F5F5F5F5F5F5F5F5F5F5F5F5F5F5F5F5F5F5F5F5F5F5F5F5F5F5F5F5F5F5F5F5F5F5F5F5F5F5F5F5F5F5F5F5F5F5F5F5F5F5F5F5F5F5F5F5F5F5F5F5F5F5F5F5F5F5F5F5F5F5F5F5F5F5F5F5F5F5F5F5F5F5F5F5F528F5F5F5F5F5F5F5F5F5F5F5F5F5F5F5F5E2F5F5E2E2E2F5F5E2F5F5F5F5F5
310
F5F5F5F5F5F5F5F5F5F5F528F5F5F5F5F5F5F5F5F5F5F5F5F5F5F5F5F5F5F5F5F5F5F5F5F5F5F5F5F5F5F5F5F5F5F5F5F5F5F5F5F5F5F5F5F5F5F5F5F5F5F5F5F5F5F5F5F5F5F5F5F5F5F5F5F5F5F5F5F5F5F5F5F5F5F5F5F5F5F5F5F5F5F5F5F5F5F5F5F5F5F5F5F5F5F5F5F5F5F5F5F5F5F5F5F5F5F5F5F5F5F5F5F5F5F5
310
F5F5F5F5F5F5F5F5F5F5F5F5F5F5F5F5F5F5F5F5F5F528F5F5F5F5F5F5F5F5F5F5F5F5F5F5F5F5E2F5F5E2E2E2F5F5E2F5F5F5F5F5F5F5F5F5F5F5F5F5F5F5F528F5F5F5F5F5F5F5F5F5F5F5F5F5F5F5F5F5F5F5F5F5F5F5F5F5F5F5F5F5F5F5F5F5F5F5F5F5F5F5F5F5F5F5F5F5F5F5F5F5F5F5F5F5F5F5F5F5F5F5F5F5F5
310
F5F5F5F5F5F5F5F5F5F5F5F5F5F5F5F5F5F5F5F5F5F5F5F5F5F5F5F5F5F5F5F5F5F5F5F5F5F5F5F5F5F5F5F5F5F5F5F5F5F5F5F5F5F5F5F5F5F5F5F5F5F5F5F5F5F5F5F5F5F5F5F5F5F5F528F5F5F5F5F5F5F5F5F5F5F5F5F5F5F5F5E2F5F5E2E2E2F5F5E2F5F5F5F5F5F5F5F5F5F5F5F5F5F5F5F528F5F5F5F5F5F5F5F5F5
310
F5F5F5F5F5F5F5F5F5F5F5F5F5F5F5F5F5F5F5F5F5F5F5F5F5F5F5F5F5F5F5F5F5F5F5F5F5F5F5F5F5F5F5F5F5F5F5F5F5F5F5F5F5F5F5F5F5F5F5F5F5F5F5F5F5F5F5F5F5F5F5F5F5F5F5F5F5F5F5F5F5F5F5F5F5F5F5F5F5F5F5F5F5F5F5F5F5F5F5F5F5F5F5F5F5F5F5F5F5F5F5F5F5F5F5F5F5F5F5F5F5F5F5F5F5F5F5
310
F528F5F5F5F5F5F5F5F5F5F5F5F5F5F5F5F5E2F5F5E2E2E2F5F5E2F5F5F5F5F5F5F5F5F5F5F5F5F5F5F5F528F5F5F5F5F5F5F5F5F5F5F5F5F5F5F5F5F5F5F5F5F5F5F5F5F5F5F5F5F5F5F5F5F5F5F5F5F5F5F5F5F5F5F5F5F5F5F5F5F5F5F5F5F5F5F5F5F5F5F5F5F5F5F5F5F5F5F5F5F5F5F5F5F5F5F5F5F5F5F5F5F5F5F5
310
F5F5F5F5F5F5F5F5F5F5F5F5F5F5F5F5F5F5F5F5F5F5F5F5F5F5F5F5F5F5F5F5F5F5F5F5F5F5F5F5F5F5F5F5F5F5F5F5F5F5F5F5F5F528F5F5F5F5F5F5F5F5F5F5F5F5F5F5F5F5E2F5F5E2E2E2F5F5E2F5F5F5F5F5F5F5F5F5F5F5F5F5F5F5F528F5F5F5F5F5F5F5F5F5F5F5F5F5F5F5F5F5F5F5F5F5F5F5F5F5F5F5F5F5F5
310
F5F5F5F5F5F5F5F5F5F5F5F5F5F5F5F5F5F5F5F5F5F5F5F5F5F5F5F5F5F5F5F5F5F5F5F5F5F5F5F5F5F5F5F5F5F5F5F5F5F5F5F5F5F5F5F5F5F5F5F5F5F5F5F5F5F5F5F5F5F5F5F5F5F5F5F5F5F5F5F5F5F5F5F5F5F5F5F5F5F5F5F5F5F5F5F5F5F5F5F5F5F5F5F5F5F5F528F5F5F5F5F5F5F5F5F5F5F5F5F5F5F5F5E2F5F5
310
E2E2E2F5F5F5F5F5F5F5F5F5F5F5F5F5F5F5F5F5F5F528F5F5F5F5F5F5F5F5F5F5F5F5F5F5F5F5F5F5F5F5F5F5F5F5F5F5F5F5F5F5F5F5F5F5F5F5F5F5F5F5F5F5F5F5F5F5F5F5F5F5F5F5F5F5F5F5F5F5F5F5F5F5F5F5F5F5F5F5F5F5F5F5F5F5F5F5F5F5F5F5F5F5F5F5F5F5F5F5F5F5F5F5F5F5F5F5F5F5F5F5F5F5F5F5
310
F5F5F5F5F5F5F5F5F5F5F5F5F5F5F5F5F5F5F5F5F5F5F5F5F5F5F5F5F5F5F5F5F528F5F5F5F5F5F5F5F5F5F5F5F5F5F5F5F5F5F5F5E2E2E2F5F5F5F5F5F5F5F5F5F5F5F5F5F5F5F5F5F5F528F5F5F5F5F5F5F5F5F5F5F5F5F5F5F5F5F5F5F5F5F5F5F5F5F5F5F5F5F5F5F5F5F5F5F5F5F5F5F5F5F5F5F5F5F5F5F5F5F5F5F5
310
F5F5F5F5F5F5F5F5F5F5F5F5F5F5F5F5F5F5F5F5F5F5F5F5F5F5F5F5F5F5F5F5F5F5F5F5F5F5F5F5F5F5F5F5F5F5F5F5F5F5F5F5F5F5F5F5F5F5F5F5F5F5F5F5F5F5F5F5F5F5F5F5F5F5F5F5F5F5F5F5F5F5F5F5F5F528F5F5F5F5F5F5F5F5F5F5F5F5F5F5F5F5F5F5F5E2E2E2F5F5F5F5F5F5F5F5F5F5F5F5F5F5F5F5F5F5
310
F528F5F5F5F5F5F5F5F5F5F5F5F5F5F5F5F5F5F5F5F5F5F5F5F5F5F5F5F5F5F5F5F5F5F5F5F5F5F5F5F5F5F5F5F5F5F5F5F5F5F5F5F5F5F5F5F5F5F5F5F5F5F5F5F5F5F5F5F5F5F5F5F5F5F5F5F5F5F5F5F5F5F5F5F5F5F5F5F5F5F5F5F5F5F5F5F5F5F5F5F5F5F5F5F5F5F5F5F5F5F5F5F5F5F5F5F5F5F5F5F5F5F5F5F5F5
310
F5F5F5F5F5F5F5F5F5F5F5F528F5F5F5F5F5F5F5F5F5F5F5F5F5F5F5F5F5F5F5E2E2E2F5F5F5F5F5F5F5F5F5F5F5F5F5F5F5F5F5F5F528F5F5F5F5F5F5F5F5F5F5F5F5F5F5F5F5F5F5F5F5F5F5F5F5F5F5F5F5F5F5F5F5F5F5F5F5F5F5F5F5F5F5F5F5F5F5F5F5F5F5F5F5F5F5F5F5F5F5F5F5F5F5F5F5F5F5F5F5F5F5F5F5
310
F5F5F5F5F5F5F5F5F5F5F5F5F5F5F5F5F5F5F5F5F5F5F5F5F5F5F5F5F5F5F5F5F5F5F5F5F5F5F5F5F5F5F5F5F5F5F5F5F5F5F5F5F5F5F5F5F5F5F5F5F5F5F5F5F528F5F5F5F5F5F5F5F5F5F5F5F5F5F5F5F5F5F5F5E2E2E2F5F5F5F5F5F5F5F5F5F5F5F5F5F5F5F5F5F5F528F5F5F5F5F5F5F5F5F5F5F5F5F5F5F5F5F5F5F5
310
F5F5F5F5F5F5F5F5F5F5F5F5F5F5F5F5F5F5F5F5F5F5F5F5F5F5F5F5F5F5F5F5F5F5F5F5F5F5F5F5F5F5F5F5F5F5F5F5F5F5F5F5F5F5F5F5F5F5F5F5F5F5F5F5F5F5F5F5F5F5F5F5F5F5F5F5F5F5F5F5F5F5F5F5F5F5F5F5F5F5F5F5F5F5F5F5F5F5F5F5F5F5F5F5F5F5F5F5F5F5F5F5F5F5F5F5F5F528F5F5F5F5F5F5F5F5
310
F5F5F5F5F5F5F5F5F5F5F5E2E2E2F5F5F5F5F5F5F5F5F5F5F5F5F5F5F5F5F5F5F528F5F5F5F5F5F5F5F5F5F5F5F5F5F5F5F5F5F5F5F5F5F5F5F5F5F5F5F5F5F5F5F5F5F5F5F5F5F5F5F5F5F5F5F5F5F5F5F5F5F5F5F5F5F5F5F5F5F5F5F5F5F5F5F5F5F5F5F5F5F5F5F5F5F5F5F5F5F5F5F5F5F5F5F5F5F5F5F5F5F5F5F5F5
310
F5F5F5F5F5F5F5F5F5F5F5F5F5F5F5F5F5F5F5F5F5F5F5F5F5F5F5F5F5F5F5F5F5F5F5F5F5F5F5F5F5F5F5F528F5F5F5F5F5F5F5F5F5F5F5F5F5F5F5F5F5F5F5E2E2E2F5F5F5F5F5F5F5F5F5F5F5F5F5F5F5F5F5F5F528F5F5F5F5F5F5F5F5F5F5F5F5F5F5F5F5F5F5F5F5F5F5F5F5F5F5F5F5F5F5F5F5F5F5F5F5F5F5F5F5
310
F5F5F5F5F5F5F5F5F5F5F5F5F5F5F5F5F5F5F5F5F5F5F5F5F5F5F5F5F5F5F5F5F5F5F5F5F5F5F5F5F5F5F5F5F5F5F5F5F5F5F5F5F5F5F5F5F5F5F5F5F5F5F5F5F5F5F5F5F5F5F5F5F5F5F5F5F5F5F5F5F5F5F5F5F5F5F5F5F5F5F5F5F5F5F5F5F528F5F5F5F5F5F5F5F5F5F5F5F5F5F5F5F5F5F5F5E2E2E2F5F5F5F5F5F5F5
310
F5F5F5F5F5F5F5F5F5F5F5F528F5F5F5F5F5F5F5F5F5F5F5F5F5F5F5F5F5F5F5F5F5F5F5F5F5F5F5F5F5F5F5F5F5F5F5F5F5F5F5F5F5F5F5F5F5F5F5F5F5F5F5F5F5F5F5F5F5F5F5F5F5F5F5F5F5F5F5F5F5F5F5F5F5F5F5F5F5F5F5F5F5F5F5F5F5F5F5F5F5F5F5F5F5F5F5F5F5F5F5F5F5F5F5F5F5F5F5F5F5F5F5F5F5F5
310
F5F5F5F5F5F5F5F5F5F5F5F5F5F5F5F5F5F5F5F5F5F5F528F5F5F5F5F5F5F5F5F5F5F5F5F5F5F5F5F5F5F5E2E2E2F5F5F5F5F5F5F5F5F5F5F5F5F5F5F5F5F5F5F528F5F5F5F5F5F5F5F5F5F5F5F5F5F5F5F5F5F5F5F5F5F5F5F5F5F5F5F5F5F5F5F5F5F5F5F5F5F5F5F5F5F5F5F5F5F5F5F5F5F5F5F5F5F5F5F5F5F5F5F5F5
310
F5F5F5F5F5F5F5F5F5F5F5F5F5F5F5F5F5F5F5F5F5F5F5F5F5F5F5F5F5F5F5F5F5F5F5F5F5F5F5F5F5F5F5F5F5F5F5F5F5F5F5F5F5F5F5F5F5F5F5F5F5F5F5F5F5F5F5F5F5F5F5F5F5F5F5F528F5F5F5F5F5F5F5F5F5F5F5F5F5F5F5F5F5F5F5E2E2E2F5F5E2F5F5F5F5F5F5F5F5F5F5F5F5F5F5F5F528F5F5F5F5F5F5F5F5
310
F5F5F5F5F5F5F5F5F5F5F5F5F5F5F5F5F5F5F5F5F5F5F5F5F5F5F5F5F5F5F5F5F5F5F5F5F5F5F5F5F5F5F5F5F5F5F5F5F5F5F5F5F5F5F5F5F5F5F5F5F5F5F5F5F5F5F5F5F5F5F5F5F5F5F5F5F5F5F5F5F5F5F5F5F5F5F5F5F5F5F5F5F5F5F5F5F5F5F5F5F5F5F5F5F5F5F5F5F5F5F5F5F5F5F5F5F5F5F5F5F5F5F5F5F5F5F5
310
F5F528F5F5F5F5F5F5F5F5F5F5F5F5F5F5F5F5E2F5F5E2E2E2F5F5E2F5F5F5F5F5F5F5F5F5F5F5F5F5F5F5F528F5F5F5F5F5F5F5F5F5F5F5F5F5F5F5F5F5F5F5F5F5F5F5F5F5F5F5F5F5F5F5F5F5F5F5F5F5F5F5F5F5F5F5F5F5F5F5F5F5F5F5F5F5F5F5F5F5F5F5F5F5F5F5F5F5F5F5F5F5F5F5F5F5F5F5F5F5F5F5F5F5F5
310
F5F5F5F5F5F5F5F5F5F5F5F5F5F5F5F5F5F5F5F5F5F5F5F5F5F5F5F5F5F5F5F5F5F5F5F5F5F5F5F5F5F5F5F5F5F5F5F5F5F5F5F5F5F5F528F5F5F5F5F5F5F5F5F5F5F5F5F5F5F5F5E2F5F5E2E2E2F5F5E2F5F5F5F5F5F5F5F5F5F5F5F5F5F5F5F528F5F5F5F5F5F5F5F5F5F5F5F5F5F5F5F5F5F5F5F5F5F5F5F5F5F5F5F5F5
310
F5F5F5F5F5F5F5F5F5F5F5F5F5F5F5F5F5F5F5F5F5F5F5F5F5F5F5F5F5F5F5F5F5F5F5F5F5F5F5F5F5F5F5F5F5F5F5F5F5F5F5F5F5F5F5F5F5F5F5F5F5F5F5F5F5F5F5F5F5F5F5F5F5F5F5F5F5F5F5F5F5F5F5F5F5F5F5F5F5F5F5F5F5F5F5F5F5F5F5F5F5F5F5F5F5F5F5F528F5F5F5F5F5F5F5F5F5F5F5F5F5F5F5F5E2F5
310
F5E2E2E2F5F5E2F5F5F5F5F5F5F5F5F5F5F5F5F5F5F5F528F5F5F5F5F5F5F5F5F5F5F5F5F5F5F5F5F5F5F5F5F5F5F5F5F5F5F5F5F5F5F5F5F5F5F5F5F5F5F5F5F5F5F5F5F5F5F5F5F5F5F5F5F5F5F5F5F5F5F5F5F5F5F5F5F5F5F5F5F5F5F5F5F5F5F5F5F5F5F5F5F5F5F5F5F5F5F5F5F5F5F5F5F5F5F5F5F5F5F5F5F5F5F5
310
F5F5F5F5F5F5F5F5F5F5F5F5F5F5F5F5F5F5F5F5F5F5F5F5F5F5F5F5F5F5F5F5F5F528F5F5F5F5F5F5F5F5F5F5F5F5F5F5F5F5E2F5F5E2E2E2F5F5E2F5F5F5F5F5F5F5F5F5F5F5F5F5F5F5F528F5F5F5F5F5F5F5F5F5F5F5F5F5F5F5F5F5F5F5F5F5F5F5F5F5F5F5F5F5F5F5F5F5F5F5F5F5F5F5F5F5F5F5F5F5F5F5F5F5F5
310
F5F5F5F5F5F5F5F5F5F5F5F5F5F5F5F5F5F5F5F5F5F5F5F5F5F5F5F5F5F5F5F5F5F5F5F5F5F5F5F5F5F5F5F5F5F5F5F5F5F5F5F5F5F5F5F5F5F5F5F5F5F5F5F5F5F5F5F5F5F5F5F5F5F5F5F5F5F5F5F5F5F5F5F5F5F5F528F5F5F5F5F5F5F5F5F5F5F5F5F5F5F5F5E2F5F5E2E2E2F5F5E2F5F5F5F5F5F5F5F5F5F5F5F5F5F5
310
F5F528F5F5F5F5F5F5F5F5F5F5F5F5F5F5F5F5F5F5F5F5F5F5F5F5F5F5F5F5F5F5F5F5F5F5F5F5F5F5F5F5F5F5F5F5F5F5F5F5F5F5F5F5F5F5F5F5F5F5F5F5F5F5F5F5F5F5F5F5F5F5F5F5F5F5F5F5F5F5F5F5F5F5F5F5F5F5F5F5F5F5F5F5F5F5F5F5F5F5F5F5F5F5F5F5F5F5F5F5F5F5F5F5F5F5F5F5F5F5F5F5F5F5F5F5
310
F5F5F5F5F5F5F5F5F5F5F5F5F528F5F5F5F5F5F5F5F5F5F5F5F5F5F5F5F5E2F5F5E2E2E2F5F5E2F5F5F5F5F5F5F5F5F5F5F5F5F5F5F5F528F5F5F5F5F5F5F5F5F5F5F5F5F5F5F5F5F5F5F5F5F5F5F5F5F5F5F5F5F5F5F5F5F5F5F5F5F5F5F5F5F5F5F5F5F5F5F5F5F5F5F5F5F5F5F5F5F5F5F5F5F5F5F5F5F5F5F5F5F5F5F5
310
F5F5F5F5F5F5F5F5F5F5F5F5F5F5F5F5F5F5F5F5F5F5F5F5F5F5F5F5F5F5F5F5F5F5F5F5F5F5F5F5F5F5F5F5F5F5F5F5F5F5F5F5F5F5F5F5F5F5F5F5F5F5F5F5F5F528F5F5F5F5F5F5F5F5F5F5F5F5F5F5F5F5E2F5F5E2E2E2F5F5E2F5F5F5F5F5F5F5F5F5F5F5F5F5F5F5F528F5F5F5F5F5F5F5F5F5F5F5F5F5F5F5F5F5F5
310
F5F5F5F5F5F5F5F5F5F5F5F5F5F5F5F5F5F5F5F5F5F5F5F5F5F5F5F5F5F5F5F5F5F5F5F5F5F5F5F5F5F5F5F5F5F5F5F5F5F5F5F5F5F5F5F5F5F5F5F5F5F5F5F5F5F5F5F5F5F5F5F5F5F5F5F5F5F5F5F5F5F5F5F5F5F5F5F5F5F5F5F5F5F5F5F5F5F5F5F5F5F5F5F5F5F5F5F5F5F5F5F5F5F5F5F5F5F5F528F5F5F5F5F5F5F5
310
F5F5F5F5F5F5F5F5F5E2F5F5E2E2E2F5F5E2F5F5F5F5F5F5F5F5F5F5F5F5F5F5F5F528F5F5F5F5F5F5F5F5F5F5F5F5F5F5F5F5F5F5F5F5F5F5F5F5F5F5F5F5F5F5F5F5F5F5F5F5F5F5F5F5F5F5F5F5F5F5F5F5F5F5F5F5F5F5F5F5F5F5F5F5F5F5F5F5F5F5F5F5F5F5F5F5F5F5F5F5F5F5F5F5F5F5F5F5F5F5F5F5F5F5F5F5
310
F5F5F5F5F5F5F5F5F5F5F5F5F5F5F5F5F5F5F5F5F5F5F5F5F5F5F5F5F5F5F5F5F5F5F5F5F5F5F5F5F5F5F5F5F528F5F5F5F5F5F5F5F5F5F5F5F5F5F5F5F5E2F5F5E2E2E2F5F5E2F5F5F5F5F5F5F5F5F5F5F5F5F5F5F5F528F5F5F5F5F5F5F5F5F5F5F5F5F5F5F5F5F5F5F5F5F5F5F5F5F5F5F5F5F5F5F5F5F5F5F5F5F5F5F5
310
F5F5F5F5F5F5F5F5F5F5F5F5F5F5F5F5F5F5F5F5F5F5F5F5F5F5F5F5F5F5F5F5F5F5F5F5F5F5F5F5F5F5F5F5F5F5F5F5F5F5F5F5F5F5F5F5F5F5F5F5F5F5F5F5F5F5F5F5F5F5F5F5F5F5F5F5F5F5F5F5F5F5F5F5F5F5F5F5F5F5F5F5F5F5F5F5F5F528F5F5F5F5F5F5F5F5F5F5F5F5F5F5F5F5E2F5F5E2E2E2F5F5E2F5F5F5
310
F5F5F5F5F5F5F5F5F5F5F5F5F528F5F5F5F5F5F5F5F5F5F5F5F5F5F5F5F5F5F5F5F5F5F5F5F5F5F5F5F5F5F5F5F5F5F5F5F5F5F5F5F5F5F5F5F5F5F5F5F5F5F5F5F5F5F5F5F5F5F5F5F5F5F5F5F5F5F5F5F5F5F5F5F5F5F5F5F5F5F5F5F5F5F5F5F5F5F5F5F5F5F5F5F5F5F5F5F5F5F5F5F5F5F5F5F5F5F5F5F5F5F5F5F5F5
310
F5F5F5F5F5F5F5F5F5F5F5F5F5F5F5F5F5F5F5F5F5F5F5F528F5F5F5F5F5F5F5F5F5F5F5F5F5F5F5F5E2F5F5E2E2E2F5F5E2F5F5F5F5F5F5F5F5F5F5F5F5F5F5F5F528F5F5F5F5F5F5F5F5F5F5F5F5F5F5F5F5F5F5F5F5F5F5F5F5F5F5F5F5F5F5F5F5F5F5F5F5F5F5F5F5F5F5F5F5F5F5F5F5F5F5F5F5F5F5F5F5F5F5F5F5
310
F5F5F5F5F5F5F5F5F5F5F5F5F5F5F5F5F5F5F5F5F5F5F5F5F5F5F5F5F5F5F5F5F5F5F5F5F5F5F5F5F5F5F5F5F5F5F5F5F5F5F5F5F5F5F5F5F5F5F5F5F5F5F5F5F5F5F5F5F5F5F5F5F5F5F5F5F528F5F5F5F5F5F5F5F5F5F5F5F5F5F5F5F5E2F5F5E2E2E2F5F5E2F5F5F5F5F5F5F5F5F5F5F5F5F5F5F5F528F5F5F5F5F5F5F5
310
F5F5F5F5F5F5F5F5F5F5F5F5F5F5F5F5F5F5F5F5F5F5F5F5F5F5F5F5F5F5F5F5F5F5F5F5F5F5F5F5F5F5F5F5F5F5F5F5F5F5F5F5F5F5F5F5F5F5F5F5F5F5F5F5F5F5F5F5F5F5F5F5F5F5F5F5F5F5F5F5F5F5F5F5F5F5F5F5F5F5F5F5F5F5F5F5F5F5F5F5F5F5F5F5F5F5F5F5F5F5F5F5F5F5F5F5F5F5F5F5F5F5F5F5F5F5F5
310
F5F5F528F5F5F5F5F5F5F5F5F5F5F5F5F5F5F5F5E2F5F5E2E2E2F5F5E2F5F5F5F5F5F5F5F5F5F5F5F5F5F5F5F528F5F5F5F5F5F5F5F5F5F5F5F5F5F5F5F5F5F5F5F5F5F5F5F5F5F5F5F5F5F5F5F5F5F5F5F5F5F5F5F5F5F5F5F5F5F5F5F5F5F5F5F5F5F5F5F5F5F5F5F5F5F5F5F5F5F5F5F5F5F5F5F5F5F5F5F5F5F5F5F5F5
310
F5F5F5F5F5F5F5F5F5F5F5F5F5F5F5F5F5F5F5F5F5F5F5F5F5F5F5F5F5F5F5F5F5F5F5F5F5F5F5F5F5F5F5F5F5F5F5F5F5F5F5F5F5F5F5F528F5F5F5F5F5F5F5F5F5F5F5F5F5F5F5F5E2F5F5E2E2E2F5F5E2F5F5F5F5F5F5F5F5F5F5F5F5F5F5F5F528F5F5F5F5F5F5F5F5F5F5F5F5F5F5F5F5F5F5F5F5F5F5F5F5F5F5F5F5
310
F5F5F5F5F5F5F5F5F5F5F5F5F5F5F5F5F5F5F5F5F5F5F5F5F5F5F5F5F5F5F5F5F5F5F5F5F5F5F5F5F5F5F5F5F5F5F5F5F5F5F5F5F5F5F5F5F5F5F5F5F5F5F5F5F5F5F5F5F5F5F5F5F5F5F5F5F5F5F5F5F5F5F5F5F5F5F5F5F5F5F5F5F5F5F5F5F5F5F5F5F5F5F5F5F5F5F5F5F528F5F5F5F5F5F5F5F5F5F5F5F5F5F5F5F5E2
310
F5F5E2E2E2F5F5F5F5F5F5F5F5F5F5F5F5F5F5F5F5F5F5F528F5F5F5F5F5F5F5F5F5F5F5F5F5F5F5F5F5F5F5F5F5F5F5F5F5F5F5F5F5F5F5F5F5F5F5F5F5F5F5F5F5F5F5F5F5F5F5F5F5F5F5F5F5F5F5F5F5F5F5F5F5F5F5F5F5F5F5F5F5F5F5F5F5F5F5F5F5F5F5F5F5F5F5F5F5F5F5F5F5F5F5F5F5F5F5F5F5F5F5F5F5F5
310
F5F5F5F5F5F5F5F5F5F5F5F5F5F5F5F5F5F5F5F5F5F5F5F5F5F5F5F5F5F5F5F5F5F5F528F5F5F5F5F5F5F5F5F5F5F5F5F5F5F5F5F5F5F5E2E2E2F5F5F5F5F5F5F5F5F5F5F5F5F5F5F5F5F5F5F528F5F5F5F5F5F5F5F5F5F5F5F5F5F5F5F5F5F5F5F5F5F5F5F5F5F5F5F5F5F5F5F5F5F5F5F5F5F5F5F5F5F5F5F5F5F5F5F5F5
310
F5F5F5F5F5F5F5F5F5F5F5F5F5F5F5F5F5F5F5F5F5F5F5F5F5F5F5F5F5F5F5F5F5F5F5F5F5F5F5F5F5F5F5F5F5F5F5F5F5F5F5F5F5F5F5F5F5F5F5F5F5F5F5F5F5F5F5F5F5F5F5F5F5F5F5F5F5F5F5F5F5F5F5F5F5F5F5F528F5F5F5F5F5F5F5F5F5F5F5F5F5F5F5F5F5F5F5E2E2E2F5F5F5F5F5F5F5F5F5F5F5F5F5F5F5F5
310
F5F5F528F5F5F5F5F5F5F5F5F5F5F5F5F5F5F5F5F5F5F5F5F5F5F5F5F5F5F5F5F5F5F5F5F5F5F5F5F5F5F5F5F5F5F5F5F5F5F5F5F5F5F5F5F5F5F5F5F5F5F5F5F5F5F5F5F5F5F5F5F5F5F5F5F5F5F5F5F5F5F5F5F5F5F5F5F5F5F5F5F5F5F5F5F5F5F5F5F5F5F5F5F5F5F5F5F5F5F5F5F5F5F5F5F5F5F5F5F5F5F5F5F5F5F5
310
F5F5F5F5F5F5F5F5F5F5F5F5F5F528F5F5F5F5F5F5F5F5F5F5F5F5F5F5F5F5F5F5F5E2E2E2F5F5F5F5F5F5F5F5F5F5F5F5F5F5F5F5F5F5F528F5F5F5F5F5F5F5F5F5F5F5F5F5F5F5F5F5F5F5F5F5F5F5F5F5F5F5F5F5F5F5F5F5F5F5F5F5F5F5F5F5F5F5F5F5F5F5F5F5F5F5F5F5F5F5F5F5F5F5F5F5F5F5F5F5F5F5F5F0F5
310
F5F5F5F5F5F5F5F5F5F5F5F5F5F5F5F5F5F5F5F5F5F5F5F5F5F5F5F5F5F5F5F5F5F5F5F5F5F5F5F5F5F5F5F5F5F5F5F5F5F5F5F5F5F5F5F5F5F5F5F5F5F5F5F5F5F5F528F5F5F5F5F5F5F5F5F5F5F5F5F5F5F5F5F5F5F5E2E2E2F5F5F5F5F5F5F5F5F5F5F5F5F5F5F5F5F5F5F5282828282828282828282828282828282828
310
28282828282828282828282828282828282828282828282828282828282828282828282828282828282828282828282828282828282828282828282828282828282828282828282828282828282828282828282828282828282828282828282828282828282828282828282828282828282828282828282828F5F5F5F5F5F5
310
F5F5F5F5F5F5F5F5F5F5F5F5F5E2E2E2F5F5F5F5F5F5F5F5F5F5F5F5F5F5F5F5F5F5F5F5F5F5F5F5F5F5F5F5F5F5F5F5F5F5F5F5F5F5F5F5F5F5F5F5F5F5F5F5F5F5F5F5F5F5F5F5F5F5F5F5F5F5F5F5F5F5F5F5F5F5F5F5F5F5F5F5F5F5F5F5F5F5F5F5F5F5F5F5F5F5F5F5F5F5F5F5F5F5F5F5F5F5F5F5F5F5F5F5F5F5F5
310
F5F5F5F5F5F5F5F5F5F5F5F5F5F5F5F5F5F5F5F5F5F5F5F5F5F5F5F5F5F5F5F5F5F5F5F5F5F5F5F5F5F5F5F5F5F5F5F5F5F5F5F5F5F5F5F5F5F5F5F5F5F5F5F5F5F5E2E2E2F5F5F5F5F5F5F5F5F5F5F5F5F5F5F5F5F5F5F5F5F5F5F5F5F5F5F5F5F5F5F5F5F5F5F5F5F5F5F5F5F5F5F5F5F5F5F5F5F5F5F5F5F5F5F5F5F5F5
310
F5F5F5F5F5F5F5F5F5F5F5F5F5F5F5F5F5F5F5F5F5F5F5F5F5F5F5F5F5F5F5F5F5F5F5F5F5F5F5F5F5F5F5F5F5F5F5F5F5F5F5F5F5F5F5F5F5F5F5F5F5F5F5F5F5F5F5F5F5F5F5F5F5F5F5F5F5F5F5F5F5F5F5F5F5F5F5F5F5F5F5F5F5F5F5F5F5F5F5F5F5F5F5F5F5F5F5F5F5F5F5F5F5F5F5F5F5F5F5E2E2E2F5F5F5F5F5
310
F5F5F5F5F5F5F5F5F5F5F5F5F5F5F5F5F5F5F5F5F5F5F5F5F5F5F5F5F5F5F5F5F5F5F5F5F5F5F5F5F5F5F5F5F5F5F5F5F5F5F5F5F5F5F5F5F5F5F5F5F5F5F5F5F5F5F5F5F5F5F5F5F5F5F5F5F5F5F5F5F5F5F5F5F5F5F5F5F5F5F5F5F5F5F5F5F5F5F5F5F5F5F5F5F5F5F5F5F5F5F5F5F5F5F5F5F5F5F5F5F5F5F5F5F5F5F5
310
F5F5F5F5F5F5F5F5F5F5F5F5F5F5F5F5F5F5F5F5F5F5F5F5F5F5F5F5F5F5F5F5F5F5F5F5F5F5F5F5F5F5F5F5F5E2E2E2F5F5F5F5F5F5F5F5F5F5F5F5F5F5F5F5F5F5F5F5F5F5F5F5F5F5F5F5F5F5F5F5F5F5F5F5F5F5F5F5F5F5F5F5F5F5F5F5F5F5F5F5F5F5F5F5F5F5F5F5F5F5F5F5F5F5F5F5F5F5F5F5F5F5F5F5F5F5F5
310
F5F5F5F5F5F5F5F5F5F5F5F5F5F5F5F5F5F5F5F5F5F5F5F5F5F5F5F5F5F5F5F5F5F5F5F5F5F5F5F5F5F5F5F5F5F5F5F5F5F5F5F5F5F5F5F5F5F5F5F5F5F5F5F5F5F5F5F5F5F5F5F5F5F5F5F5F5F5F5F5F5F5F5F5F5F5F5F5F5F5F5F5F5F5F5F5F5F5E2E2E2F5F5E2F5F5F5F5F5F5F5F5F5F5F5F5F5F5F5F5F5F5F5F5F5F5F5
310
F5F5F5F5F5F5F5F5F5F5F5F5F5F5F5F5F5F5F5F5F5F5F5F5F5F5F5F5F5F5F5F5F5F5F5F5F5F5F5F5F5F5F5F5F5F5F5F5F5F5F5F5F5F5F5F5F5F5F5F5F5F5F5F5F5F5F5F5F5F5F5F5F5F5F5F5F5F5F5F5F5F5F5F5F5F5F5F5F5F5F5F5F5F5F5F5F5F5F5F5F5F5F5F5F5F5F5F5F5F5F5F5F5F5F5F5F5F5F5F5F5F5F5F5F5F5F5
310
F5F5F5F5F5F5F5F5F5F5F5F5F5F5F5F5F5F5F5F5F5E2F5F5E2E2E2F5F5E2F5F5F5F5F5F5F5F5F5F5F5F5F5F5F5F5F5F5F5F5F5F5F5F5F5F5F5F5F5F5F5F5F5F5F5F5F5F5F5F5F5F5F5F5F5F5F5F5F5F5F5F5F5F5F5F5F5F5F5F5F5F5F5F5F5F5F5F5F5F5F5F5F5F5F5F5F5F5F5F5F5F5F5F5F5F5F5F5F5F5F5F5F5F5F5F5F5
310
F5F5F5F5F5F5F5F5F5F5F5F5F5F5F5F5F5F5F5F5F5F5F5F5F5F5F5F5F5F5F5F5F5F5F5F5F5F5F5F5F5F5F5F5F5F5F5F5F5F5F5F5F5F5F5F5F5F5F5F5F5F5F5F5F5F5F5F5F5F5F5F5F5F5E2F5F5E2E2E2F5F5E2F5F5F5F5F5F5F5F5F5F5F5F5F5F5F5F5F5F5F5F5F5F5F5F5F5F5F5F5F5F5F5F5F5F5F5F5F5F5F5F5F5F5F5F5
310
F5F5F5F5F5F5F5F5F5F5F5F5F5F5F5F5F5F5F5F5F5F5F5F5F5F5F5F5F5F5F5F5F5F5F5F5F5F5F5F5F5F5F5F5F5F5F5F5F5F5F5F5F5F5F5F5F5F5F5F5F5F5F5F5F5F5F5F5F5F5F5F5F5F5F5F5F5F5F5F5F5F5F5F5F5F5F5F5F5F5F5F5F5F5F5F5F5F5F5F5F5F5F5F5F5F5F5F5F5F5F5F5F5F5F5F5F5F5F5F5F5F5F5F5F5F5F5
310
E2F5F5E2E2E2F5F5E2F5F5F5F5F5F5F5F5F5F5F5F5F5F5F5F5F5F5F5F5F5F5F5F5F5F5F5F5F5F5F5F5F5F5F5F5F5F5F5F5F5F5F5F5F5F5F5F5F5F5F5F5F5F5F5F5F5F5F5F5F5F5F5F5F5F5F5F5F5F5F5F5F5F5F5F5F5F5F5F5F5F5F5F5F5F5F5F5F5F5F5F5F5F5F5F5F5F5F5F5F5F5F5F5F5F5F5F5F5F5F5F5F5F5F5F5F5F5
310
F5F5F5F5F5F5F5F5F5F5F5F5F5F5F5F5F5F5F5F5F5F5F5F5F5F5F5F5F5F5F5F5F5F5F5F5F5F5F5F5F5F5F5F5F5F5F5F5F5F5F5F5F5E2F5F5E2E2E2F5F5E2F5F5F5F5F5F5F5F5F5F5F5F5F5F5F5F5F5F5F5F5F5F5F5F5F5F5F5F5F5F5F5F5F5F5F5F5F5F5F5F5F5F5F5F5F5F5F5F5F5F5F5F5F5F5F5F5F5F5F5F5F5F5F5F5F5
310
F5F5F5F5F5F5F5F5F5F5F5F5F5F5F5F5F5F5F5F5F5F5F5F5F5F5F5F5F5F5F5F5F5F5F5F5F5F5F5F5F5F5F5F5F5F5F5F5F5F5F5F5F5F5F5F5F5F5F5F5F5F5F5F5F5F5F5F5F5F5F5F5F5F5F5F5F5F5F5F5F5F5F5F5F5F5F5F5F5F5F5F5F5F5F5F5F5F5F5F5F5F5F5F5F5F5E2F5F5E2E2E2F5F5E2F5F5F5F5F5F5F5F5F5F5F5F5
310
F5F5F5F5F5F5F5F5F5F5F5F5F5F5F5F5F5F5F5F5F5F5F5F5F5F5F5F5F5F5F5F5F5F5F5F5F5F5F5F5F5F5F5F5F5F5F5F5F5F5F5F5F5F5F5F5F5F5F5F5F5F5F5F5F5F5F5F5F5F5F5F5F5F5F5F5F5F5F5F5F5F5F5F5F5F5F5F5F5F5F5F5F5F5F5F5F5F5F5F5F5F5F5F5F5F5F5F5F5F5F5F5F5F5F5F5F5F5F5F5F5F5F5F5F5F5F5
310
F5F5F5F5F5F5F5F5F5F5F5F5F5F5F5F5F5F5F5F5F5F5F5F5F5F5F5F5F5F5F5F5E2F5F5E2E2E2F5F5E2F5F5F5F5F5F5F5F5F5F5F5F5F5F5F5F5F5F5F5F5F5F5F5F5F5F5F5F5F5F5F5F5F5F5F5F5F5F5F5F5F5F5F5F5F5F5F5F5F5F5F5F5F5F5F5F5F5F5F5F5F5F5F5F5F5F5F5F5F5F5F5F5F5F5F5F5F5F5F5F5F5F5F5F5F5F5
310
F5F5F5F5F5F5F5F5F5F5F5F5F5F5F5F5F5F5F5F5F5F5F5F5F5F5F5F5F5F5F5F5F5F5F5F5F5F5F5F5F5F5F5F5F5F5F5F5F5F5F5F5F5F5F5F5F5F5F5F5F5F5F5F5F5F5F5F5F5F5F5F5F5F5F5F5F5F5F5F5F5F5F5F5F5E2F5F5E2E2E2F5F5E2E2E2E2E2E2E2E2F5F5F5F5F5F5F5F5F5E2E2E2E2E2E2E2E2E2E2E2E2E2E2E2E2F5
310
F5F5F5F5F5F5F5F5E2E2E2E2E2E2E2E2E2E2E2E2E2E2E2E2F5F5F5F5F5F5F5F5E2E2E2E2E2E2E2E2E2E2E2E2E2E2E2E2F5F5F5F5F5F5F5F5F5E2E2E2E2E2E2E2E2E2E2E2E2E2E2E2E2F5F5F5F5F5F5F5F5E2E2E2E2E2E2E2E2E2E2E2E2E2E2E2E2F5F5F5F5F5F5F5F5F5E2E2E2E2E2E2E2E2E2E2E2E2E2E2E2E2F5F5F5F5F5
310
F5F5F5F5E2E2E2E2E2E2E2E2F5F5E2E2E2F5F5F5F5F5F5F5F5F5F5F5F5F5F5F5F5F5F5F5F5F5F5F5F5F5F5F5F5F5F5F5F5F5F5F5F5F5F5F5F5F5F5F5F5F5F5F5F5F5F5F5F5F5F5F5F5F5F5F5F5F5F5F5F5F5F5F5F5F5F5F5F5F5F5F5F5F5F5F5F5F5F5F5F5F5F5F5F5F5F5F5F5F5F5F5F5F5F5F5F5F5F5F5F5F5F5F5F5F5F5
310
F5F5F5F5F5F5F5F5F5F5F5F5F5F5F5F5F5F5F5F5F5F5F5F5F5F5F5F5F5F5F5F5F5F5F5F5F5F5F5F5F5F5F5F5F5F5F5F5F5F5F5F5F5F5F5F5F5F5F5F5F5F5F5F5F5F5F5E2E2E2F5F5F5F5F5F5F5F5F5F5F5F5F5F5F5F5F5F5F5F5F5F5F5F5F5F5F5F5F5F5F5F5F5F5F5F5F5F5F5F5F5F5F5F5F5F5F5F5F5F5F5F5F5F5F5F5F5
310
F5F5F5F5F5F5F5F5F5F5F5F5F5F5F5F5F5F5F5F5F5F5F5F5F5F5F5F5F5F5F5F5F5F5F5F5F5F5F5F5F5F5F5F5F5F5F5F5F5F5F5F5F5F5F5F5F5F5F5F5F5F5F5F5F5F5F5F5F5F5F5F5F5F5F5F5F5F5F5F5F5F5F5F5F5F5F5F5F5F5F5F5F5F5F5F5F5F5F5F5F5F5F5F5F5F5F5F5F5F5F5F5F5F5F5F5F5F5F5F5E2EFE2E2E2E2E2
310
E2E2E2E2E2E2E2E2E2E2E2E2E2E2E2E2E2E2E2E2E2E2E2E2E2E2E2E2E2E2E2E2E2E2E2E2E2E2E2E2E2E2E2E2E2E2E2E2E2E2E2E2E2E2E2E2E2E2E2E2E2E2E2E2E2E2E2E2E2E2E2E2E2E2E2E2E2E2E2E2E2E2E2E2E2E2E2E2E2E2E2E2E2E2E2E2E2E2E2E2E2E2E2E2E2E2E2E2E2E2E2E2E2E2E2E2E2E2E2E2E2E2E2E2E2E2E2
310
E2E2E2E2E2E2E2E2E2E2E2E2E2E2E2E2E2E2E2E2E2E2E2E2E2E2E2E2E2E2E2E2E2E2E2E2E2E2E2E2E2E2E2E2E2E2E2EF
  0
XRECORD
  5
525F6
102
{ACAD_REACTORS
330
525F5
102
}
330
525F5
100
AcDbXrecord
280
     1
102
SHADEPLOT
 70
     0
102
SHADEPLOTRESLEVEL
 70
     2
102
SHADEPLOTCUSTOMDPI
 70
   300
  0
XRECORD
  5
51810
102
{ACAD_REACTORS
330
5180F
102
}
330
5180F
100
AcDbXrecord
280
     1
102
MATERIAL
148
0.0
149
0.0
149
0.0
 93
        0
 94
       63
282
     0
 72
     1
 77
     1
171
     1
175
     1
179
     1
273
     0
  0
XRECORD
  5
5180E
102
{ACAD_REACTORS
330
5180D
102
}
330
5180D
100
AcDbXrecord
280
     1
102
MATERIAL
148
0.0
149
0.0
149
0.0
 93
        0
 94
       63
282
     0
 72
     1
 77
     1
171
     1
175
     1
179
     1
273
     0
  0
XRECORD
  5
51812
102
{ACAD_REACTORS
330
51811
102
}
330
51811
100
AcDbXrecord
280
     1
102
MATERIAL
148
0.0
149
0.0
149
0.0
 93
        0
 94
       63
282
     0
 72
     1
 77
     1
171
     1
175
     1
179
     1
273
     0
  0
XRECORD
  5
525F8
102
{ACAD_REACTORS
330
525F7
102
}
330
525F7
100
AcDbXrecord
280
     1
102
ACAD_ROUNDTRIP_PRE2007_TABLESTYLE
 90
      512
 91
        0
  1

 92
      512
 93
        0
  2

 94
      512
 95
        0
  3

  0
ENDSEC
  0
EOF
